  0
SECTION
  2
HEADER
  9
$ACADVER
  1
AC1015
  9
$ACADMAINTVER
 70
     6
  9
$DWGCODEPAGE
  3
DOS932
  9
$INSBASE
 10
0.0
 20
0.0
 30
0.0
  9
$EXTMIN
 10
0.0
 20
0.0
 30
0.0
  9
$EXTMAX
 10
420.0
 20
594.0
 30
0.0
  9
$LIMMIN
 10
0.0
 20
0.0
  9
$LIMMAX
 10
12.0
 20
9.0
  9
$ORTHOMODE
 70
     0
  9
$REGENMODE
 70
     1
  9
$FILLMODE
 70
     1
  9
$QTEXTMODE
 70
     0
  9
$MIRRTEXT
 70
     1
  9
$LTSCALE
 40
1.0
  9
$ATTMODE
 70
     1
  9
$TEXTSIZE
 40
0.2
  9
$TRACEWID
 40
0.05
  9
$TEXTSTYLE
  7
Standard
  9
$CLAYER
  8
0
  9
$CELTYPE
  6
ByLayer
  9
$CECOLOR
 62
   256
  9
$CELTSCALE
 40
1.0
  9
$DISPSILH
 70
     0
  9
$DIMSCALE
 40
1.0
  9
$DIMASZ
 40
0.18
  9
$DIMEXO
 40
0.0625
  9
$DIMDLI
 40
0.38
  9
$DIMRND
 40
0.0
  9
$DIMDLE
 40
0.0
  9
$DIMEXE
 40
0.18
  9
$DIMTP
 40
0.0
  9
$DIMTM
 40
0.0
  9
$DIMTXT
 40
0.18
  9
$DIMCEN
 40
0.09
  9
$DIMTSZ
 40
0.0
  9
$DIMTOL
 70
     0
  9
$DIMLIM
 70
     0
  9
$DIMTIH
 70
     1
  9
$DIMTOH
 70
     1
  9
$DIMSE1
 70
     0
  9
$DIMSE2
 70
     0
  9
$DIMTAD
 70
     0
  9
$DIMZIN
 70
     0
  9
$DIMBLK
  1

  9
$DIMASO
 70
     1
  9
$DIMSHO
 70
     1
  9
$DIMPOST
  1

  9
$DIMAPOST
  1

  9
$DIMALT
 70
     0
  9
$DIMALTD
 70
     2
  9
$DIMALTF
 40
25.4
  9
$DIMLFAC
 40
1.0
  9
$DIMTOFL
 70
     0
  9
$DIMTVP
 40
0.0
  9
$DIMTIX
 70
     0
  9
$DIMSOXD
 70
     0
  9
$DIMSAH
 70
     0
  9
$DIMBLK1
  1

  9
$DIMBLK2
  1

  9
$DIMSTYLE
  2
Standard
  9
$DIMCLRD
 70
     0
  9
$DIMCLRE
 70
     0
  9
$DIMCLRT
 70
     0
  9
$DIMTFAC
 40
1.0
  9
$DIMGAP
 40
0.09
  9
$DIMJUST
 70
     0
  9
$DIMSD1
 70
     0
  9
$DIMSD2
 70
     0
  9
$DIMTOLJ
 70
     1
  9
$DIMTZIN
 70
     0
  9
$DIMALTZ
 70
     0
  9
$DIMALTTZ
 70
     0
  9
$DIMUPT
 70
     0
  9
$DIMDEC
 70
     4
  9
$DIMTDEC
 70
     4
  9
$DIMALTU
 70
     2
  9
$DIMALTTD
 70
     2
  9
$DIMTXSTY
  7
Standard
  9
$DIMAUNIT
 70
     0
  9
$DIMADEC
 70
     0
  9
$DIMALTRND
 40
0.0
  9
$DIMAZIN
 70
     0
  9
$DIMDSEP
 70
    46
  9
$DIMATFIT
 70
     3
  9
$DIMFRAC
 70
     0
  9
$DIMLDRBLK
  1

  9
$DIMLUNIT
 70
     2
  9
$DIMLWD
 70
    -2
  9
$DIMLWE
 70
    -2
  9
$DIMTMOVE
 70
     0
  9
$LUNITS
 70
     2
  9
$LUPREC
 70
     4
  9
$SKETCHINC
 40
0.1
  9
$FILLETRAD
 40
0.5
  9
$AUNITS
 70
     0
  9
$AUPREC
 70
     0
  9
$MENU
  1
.
  9
$ELEVATION
 40
0.0
  9
$PELEVATION
 40
0.0
  9
$THICKNESS
 40
0.0
  9
$LIMCHECK
 70
     0
  9
$CHAMFERA
 40
0.5
  9
$CHAMFERB
 40
0.5
  9
$CHAMFERC
 40
1.0
  9
$CHAMFERD
 40
0.0
  9
$SKPOLY
 70
     0
  9
$TDCREATE
 40
2456141.635284641
  9
$TDUCREATE
 40
2456141.260284641
  9
$TDUPDATE
 40
2456141.635284653
  9
$TDUUPDATE
 40
2456141.260284653
  9
$TDINDWG
 40
0.0000000116
  9
$TDUSRTIMER
 40
0.0000000116
  9
$USRTIMER
 70
     1
  9
$ANGBASE
 50
0.0
  9
$ANGDIR
 70
     0
  9
$PDMODE
 70
     0
  9
$PDSIZE
 40
0.0
  9
$PLINEWID
 40
0.0
  9
$SPLFRAME
 70
     0
  9
$SPLINETYPE
 70
     6
  9
$SPLINESEGS
 70
     8
  9
$HANDSEED
  5
263
  9
$SURFTAB1
 70
     6
  9
$SURFTAB2
 70
     6
  9
$SURFTYPE
 70
     6
  9
$SURFU
 70
     6
  9
$SURFV
 70
     6
  9
$UCSBASE
  2

  9
$UCSNAME
  2

  9
$UCSORG
 10
0.0
 20
0.0
 30
0.0
  9
$UCSXDIR
 10
1.0
 20
0.0
 30
0.0
  9
$UCSYDIR
 10
0.0
 20
1.0
 30
0.0
  9
$UCSORTHOREF
  2

  9
$UCSORTHOVIEW
 70
     0
  9
$UCSORGTOP
 10
0.0
 20
0.0
 30
0.0
  9
$UCSORGBOTTOM
 10
0.0
 20
0.0
 30
0.0
  9
$UCSORGLEFT
 10
0.0
 20
0.0
 30
0.0
  9
$UCSORGRIGHT
 10
0.0
 20
0.0
 30
0.0
  9
$UCSORGFRONT
 10
0.0
 20
0.0
 30
0.0
  9
$UCSORGBACK
 10
0.0
 20
0.0
 30
0.0
  9
$PUCSBASE
  2

  9
$PUCSNAME
  2

  9
$PUCSORG
 10
0.0
 20
0.0
 30
0.0
  9
$PUCSXDIR
 10
1.0
 20
0.0
 30
0.0
  9
$PUCSYDIR
 10
0.0
 20
1.0
 30
0.0
  9
$PUCSORTHOREF
  2

  9
$PUCSORTHOVIEW
 70
     0
  9
$PUCSORGTOP
 10
0.0
 20
0.0
 30
0.0
  9
$PUCSORGBOTTOM
 10
0.0
 20
0.0
 30
0.0
  9
$PUCSORGLEFT
 10
0.0
 20
0.0
 30
0.0
  9
$PUCSORGRIGHT
 10
0.0
 20
0.0
 30
0.0
  9
$PUCSORGFRONT
 10
0.0
 20
0.0
 30
0.0
  9
$PUCSORGBACK
 10
0.0
 20
0.0
 30
0.0
  9
$USERI1
 70
     0
  9
$USERI2
 70
     0
  9
$USERI3
 70
     0
  9
$USERI4
 70
     0
  9
$USERI5
 70
     0
  9
$USERR1
 40
13.2
  9
$USERR2
 40
0.0
  9
$USERR3
 40
0.0
  9
$USERR4
 40
0.0
  9
$USERR5
 40
0.0
  9
$WORLDVIEW
 70
     1
  9
$SHADEDGE
 70
     3
  9
$SHADEDIF
 70
    70
  9
$TILEMODE
 70
     1
  9
$MAXACTVP
 70
    64
  9
$PINSBASE
 10
0.0
 20
0.0
 30
0.0
  9
$PLIMCHECK
 70
     0
  9
$PEXTMIN
 10
1.00000000000000E+20
 20
1.00000000000000E+20
 30
1.00000000000000E+20
  9
$PEXTMAX
 10
-1.00000000000000E+20
 20
-1.00000000000000E+20
 30
-1.00000000000000E+20
  9
$PLIMMIN
 10
0.0
 20
0.0
  9
$PLIMMAX
 10
12.0
 20
9.0
  9
$UNITMODE
 70
     0
  9
$VISRETAIN
 70
     1
  9
$PLINEGEN
 70
     0
  9
$PSLTSCALE
 70
     1
  9
$TREEDEPTH
 70
  3020
  9
$CMLSTYLE
  2
Standard
  9
$CMLJUST
 70
     0
  9
$CMLSCALE
 40
1.0
  9
$PROXYGRAPHICS
 70
     1
  9
$MEASUREMENT
 70
     1
  9
$CELWEIGHT
370
    -1
  9
$ENDCAPS
280
     0
  9
$JOINSTYLE
280
     0
  9
$LWDISPLAY
290
     0
  9
$INSUNITS
 70
     1
  9
$HYPERLINKBASE
  1

  9
$STYLESHEET
  1

  9
$XEDIT
290
     1
  9
$CEPSNTYPE
380
     0
  9
$PSTYLEMODE
290
     0
  9
$FINGERPRINTGUID
  2
{FAEB1C30-E019-11D5-929B-00C0DF256EC4}
  9
$VERSIONGUID
  2
{FAEB1C32-E019-11D5-929B-00C0DF256EC4}
  9
$EXTNAMES
290
     1
  9
$PSVPSCALE
 40
0.0
  9
$OLESTARTUP
290
     0
  0
ENDSEC
  0
SECTION
  2
CLASSES
  0
CLASS
  1
ACDBDICTIONARYWDFLT
  2
AcDbDictionaryWithDefault
  3
ObjectDBX Classes
 90
        0
280
     0
281
     0
  0
CLASS
  1
TABLESTYLE
  2
AcDbTableStyle
  3
ObjectDBX Classes
 90
     2047
280
     0
281
     0
  0
CLASS
  1
DICTIONARYVAR
  2
AcDbDictionaryVar
  3
ObjectDBX Classes
 90
        0
280
     0
281
     0
  0
CLASS
  1

  2
exOdDbCircle
  3

 90
        0
280
     0
281
     1
  0
CLASS
  1

  2
exOdDbSpline
  3

 90
        0
280
     0
281
     1
  0
CLASS
  1
ACDBPLACEHOLDER
  2
AcDbPlaceHolder
  3
ObjectDBX Classes
 90
        0
280
     0
281
     0
  0
CLASS
  1
LAYOUT
  2
AcDbLayout
  3
ObjectDBX Classes
 90
        0
280
     0
281
     0
  0
ENDSEC
  0
SECTION
  2
TABLES
  0
TABLE
  2
VPORT
  5
8
330
0
100
AcDbSymbolTable
 70
     2
  0
VPORT
  5
29
330
8
100
AcDbSymbolTableRecord
100
AcDbViewportTableRecord
  2
*Active
 70
     0
 10
0.0
 20
0.0
 11
1.0
 21
1.0
 12
210.0
 22
297.0
 13
0.0
 23
0.0
 14
0.5
 24
0.5
 15
0.5
 25
0.5
 16
0.0
 26
0.0
 36
1.0
 17
0.0
 27
0.0
 37
0.0
 40
653.4000000000001
 41
1.60267857142857
 42
50.0
 43
0.0
 44
0.0
 50
0.0
 51
0.0
 71
     0
 72
   100
 73
     1
 74
     3
 75
     0
 76
     0
 77
     0
 78
     0
281
     0
 65
     1
110
0.0
120
0.0
130
0.0
111
1.0
121
0.0
131
0.0
112
0.0
122
1.0
132
0.0
 79
     0
146
0.0
  0
ENDTAB
  0
TABLE
  2
LTYPE
  5
5
330
0
100
AcDbSymbolTable
 70
     8
  0
LTYPE
  5
14
330
5
100
AcDbSymbolTableRecord
100
AcDbLinetypeTableRecord
  2
ByBlock
 70
     0
  3

 72
    65
 73
     0
 40
0.0
  0
LTYPE
  5
15
330
5
100
AcDbSymbolTableRecord
100
AcDbLinetypeTableRecord
  2
ByLayer
 70
     0
  3

 72
    65
 73
     0
 40
0.0
  0
LTYPE
  5
16
330
5
100
AcDbSymbolTableRecord
100
AcDbLinetypeTableRecord
  2
Continuous
 70
     0
  3
Solid line
 72
    65
 73
     0
 40
0.0
  0
LTYPE
  5
2E
330
5
100
AcDbSymbolTableRecord
100
AcDbLinetypeTableRecord
  2
DASHED
 70
     0
  3
Dashed
 72
    65
 73
     2
 40
15.0
 49
7.0
 74
     0
 49
-8.0
 74
     0
  0
LTYPE
  5
2F
330
5
100
AcDbSymbolTableRecord
100
AcDbLinetypeTableRecord
  2
DOTTED
 70
     0
  3
Dotted
 72
    65
 73
     2
 40
1.0
 49
0.0
 74
     0
 49
-1.0
 74
     0
  0
LTYPE
  5
30
330
5
100
AcDbSymbolTableRecord
100
AcDbLinetypeTableRecord
  2
DOT_CENTER
 70
     0
  3
Dot_Center
 72
    65
 73
     4
 40
14.0
 49
12.0
 74
     0
 49
-1.0
 74
     0
 49
0.0
 74
     0
 49
-1.0
 74
     0
  0
LTYPE
  5
31
330
5
100
AcDbSymbolTableRecord
100
AcDbLinetypeTableRecord
  2
LONG_DASHED
 70
     0
  3
Long_Dashed
 72
    65
 73
     2
 40
15.0
 49
10.0
 74
     0
 49
-5.0
 74
     0
  0
LTYPE
  5
32
330
5
100
AcDbSymbolTableRecord
100
AcDbLinetypeTableRecord
  2
DASH_CENTER
 70
     0
  3
Dash_Center
 72
    65
 73
     4
 40
14.0
 49
11.0
 74
     0
 49
-1.0
 74
     0
 49
1.0
 74
     0
 49
-1.0
 74
     0
  0
LTYPE
  5
33
330
5
100
AcDbSymbolTableRecord
100
AcDbLinetypeTableRecord
  2
PHANTOM
 70
     0
  3
Phantom
 72
    65
 73
     6
 40
13.0
 49
10.0
 74
     0
 49
-1.0
 74
     0
 49
0.0
 74
     0
 49
-1.0
 74
     0
 49
0.0
 74
     0
 49
-1.0
 74
     0
  0
LTYPE
  5
34
330
5
100
AcDbSymbolTableRecord
100
AcDbLinetypeTableRecord
  2
CENTER_DASH_DASH
 70
     0
  3
Center_Dash_Dash
 72
    65
 73
     6
 40
14.0
 49
9.0
 74
     0
 49
-1.0
 74
     0
 49
1.0
 74
     0
 49
-1.0
 74
     0
 49
1.0
 74
     0
 49
-1.0
 74
     0
  0
ENDTAB
  0
TABLE
  2
LAYER
  5
2
330
0
100
AcDbSymbolTable
 70
     2
  0
LAYER
  5
10
330
2
100
AcDbSymbolTableRecord
100
AcDbLayerTableRecord
  2
0
 70
     0
 62
     7
  6
Continuous
370
    -3
390
F
  0
LAYER
  5
35
330
2
100
AcDbSymbolTableRecord
100
AcDbLayerTableRecord
  2
1
 70
     0
 62
     7
  6
Continuous
370
    -3
390
F
  0
ENDTAB
  0
TABLE
  2
STYLE
  5
3
330
0
100
AcDbSymbolTable
 70
     3
  0
STYLE
  5
11
330
3
100
AcDbSymbolTableRecord
100
AcDbTextStyleTableRecord
  2
Standard
 70
     0
 40
0.0
 41
1.0
 50
0.0
 71
     0
 42
0.2
  3
txt
  4

  0
STYLE
  5
1E0
330
3
100
AcDbSymbolTableRecord
100
AcDbTextStyleTableRecord
  2
CONVERTER_1
 70
     0
 40
0.0
 41
0.89
 50
0.0
 71
     0
 42
0.2
  3
msmincho.ttc
  4

1001
ACAD
1000
MS Mincho
1071
    32785
  0
STYLE
  5
1FD
330
3
100
AcDbSymbolTableRecord
100
AcDbTextStyleTableRecord
  2
CONVERTER_2
 70
     0
 40
0.0
 41
0.9
 50
0.0
 71
     0
 42
0.2
  3
txt.shx
  4

  0
ENDTAB
  0
TABLE
  2
VIEW
  5
6
330
0
100
AcDbSymbolTable
 70
     0
  0
ENDTAB
  0
TABLE
  2
UCS
  5
7
330
0
100
AcDbSymbolTable
 70
     0
  0
ENDTAB
  0
TABLE
  2
APPID
  5
9
330
0
100
AcDbSymbolTable
 70
     1
  0
APPID
  5
12
330
9
100
AcDbSymbolTableRecord
100
AcDbRegAppTableRecord
  2
ACAD
 70
     0
  0
ENDTAB
  0
TABLE
  2
DIMSTYLE
  5
A
330
0
100
AcDbSymbolTable
 70
     9
100
AcDbDimStyleTable
  0
DIMSTYLE
105
27
330
A
100
AcDbSymbolTableRecord
100
AcDbDimStyleTableRecord
  2
Standard
 70
     0
340
11
  0
DIMSTYLE
105
211
102
{ACAD_REACTORS
330
212
102
}
330
A
100
AcDbSymbolTableRecord
100
AcDbDimStyleTableRecord
  2
ME10_DIM_0
 70
     0
 41
7.0
 42
0.0
 44
2.0
 73
     0
 74
     0
 77
     1
 78
     8
140
7.0
147
0.625
172
     1
173
     1
176
     2
177
     2
178
     7
271
     2
340
1FD
  0
DIMSTYLE
105
21C
102
{ACAD_REACTORS
330
21D
102
}
330
A
100
AcDbSymbolTableRecord
100
AcDbDimStyleTableRecord
  2
ME10_DIM_1
 70
     0
 41
7.0
 42
0.0
 44
2.0
 73
     0
 74
     0
 77
     1
 78
     8
140
7.0
147
0.625
172
     1
173
     1
176
     2
177
     2
178
     7
271
     2
340
1FD
  0
DIMSTYLE
105
227
102
{ACAD_REACTORS
330
228
102
}
330
A
100
AcDbSymbolTableRecord
100
AcDbDimStyleTableRecord
  2
ME10_DIM_2
 70
     0
 41
7.0
 42
0.0
 44
2.0
 73
     0
 74
     0
 77
     1
 78
     8
140
7.0
147
0.625
172
     1
173
     1
176
     2
177
     2
178
     7
271
     2
340
1FD
  0
DIMSTYLE
105
232
102
{ACAD_REACTORS
330
233
102
}
330
A
100
AcDbSymbolTableRecord
100
AcDbDimStyleTableRecord
  2
ME10_DIM_3
 70
     0
 41
7.0
 42
0.0
 44
2.0
 73
     0
 74
     0
 77
     1
 78
     8
140
7.0
147
0.625
172
     1
173
     1
176
     2
177
     2
178
     7
271
     2
340
1FD
  0
DIMSTYLE
105
23D
102
{ACAD_REACTORS
330
23E
102
}
330
A
100
AcDbSymbolTableRecord
100
AcDbDimStyleTableRecord
  2
ME10_DIM_4
 70
     0
 41
7.0
 42
0.0
 44
2.0
 73
     0
 74
     0
 77
     1
 78
     8
140
7.0
147
0.625
172
     1
173
     1
176
     2
177
     2
178
     7
271
     2
340
1FD
  0
DIMSTYLE
105
24A
102
{ACAD_REACTORS
330
24B
102
}
330
A
100
AcDbSymbolTableRecord
100
AcDbDimStyleTableRecord
  2
ME10_DIM_5
 70
     0
 41
7.0
 42
0.0
 44
2.0
 73
     0
 74
     0
 77
     1
 78
     8
140
7.0
147
0.625
172
     1
173
     1
176
     2
177
     2
178
     7
271
     2
340
1FD
  0
DIMSTYLE
105
256
102
{ACAD_REACTORS
330
257
102
}
330
A
100
AcDbSymbolTableRecord
100
AcDbDimStyleTableRecord
  2
ME10_DIM_6
 70
     0
 41
7.0
 42
0.0
 44
2.0
 73
     0
 74
     0
 77
     1
 78
     8
140
7.0
147
0.625
172
     1
173
     1
176
     2
177
     2
178
     7
271
     2
340
1E0
  0
DIMSTYLE
105
261
102
{ACAD_REACTORS
330
262
102
}
330
A
100
AcDbSymbolTableRecord
100
AcDbDimStyleTableRecord
  2
ME10_DIM_7
 70
     0
 41
7.0
 42
0.0
 44
2.0
 73
     0
 74
     0
 77
     1
 78
     8
140
7.0
147
0.625
172
     1
173
     1
176
     2
177
     2
178
     7
271
     2
340
1FD
  0
ENDTAB
  0
TABLE
  2
BLOCK_RECORD
  5
1
330
0
100
AcDbSymbolTable
 70
    14
  0
BLOCK_RECORD
  5
1F
330
1
100
AcDbSymbolTableRecord
100
AcDbBlockTableRecord
  2
*Model_Space
340
22
  0
BLOCK_RECORD
  5
1B
330
1
100
AcDbSymbolTableRecord
100
AcDbBlockTableRecord
  2
*Paper_Space
340
1E
  0
BLOCK_RECORD
  5
23
330
1
100
AcDbSymbolTableRecord
100
AcDbBlockTableRecord
  2
*Paper_Space0
340
26
  0
BLOCK_RECORD
  5
36
330
1
100
AcDbSymbolTableRecord
100
AcDbBlockTableRecord
  2
36-45
340
0
102
{BLKREFS
331
45
102
}
  0
BLOCK_RECORD
  5
39
330
1
100
AcDbSymbolTableRecord
100
AcDbBlockTableRecord
  2
B4111L-0-13
340
0
102
{BLKREFS
331
46
102
}
  0
BLOCK_RECORD
  5
3C
330
1
100
AcDbSymbolTableRecord
100
AcDbBlockTableRecord
  2
37-1-13
340
0
102
{BLKREFS
331
47
102
}
  0
BLOCK_RECORD
  5
3F
330
1
100
AcDbSymbolTableRecord
100
AcDbBlockTableRecord
  2
32-213
340
0
102
{BLKREFS
331
48
102
}
  0
BLOCK_RECORD
  5
42
330
1
100
AcDbSymbolTableRecord
100
AcDbBlockTableRecord
  2
_J__A4
340
0
102
{BLKREFS
331
49
102
}
  0
BLOCK_RECORD
  5
207
330
1
100
AcDbSymbolTableRecord
100
AcDbBlockTableRecord
  2
*D06
340
0
  0
BLOCK_RECORD
  5
213
330
1
100
AcDbSymbolTableRecord
100
AcDbBlockTableRecord
  2
*D17
340
0
  0
BLOCK_RECORD
  5
21E
330
1
100
AcDbSymbolTableRecord
100
AcDbBlockTableRecord
  2
*D28
340
0
  0
BLOCK_RECORD
  5
229
330
1
100
AcDbSymbolTableRecord
100
AcDbBlockTableRecord
  2
*D39
340
0
  0
BLOCK_RECORD
  5
234
330
1
100
AcDbSymbolTableRecord
100
AcDbBlockTableRecord
  2
*D410
340
0
  0
BLOCK_RECORD
  5
23F
330
1
100
AcDbSymbolTableRecord
100
AcDbBlockTableRecord
  2
*D511
340
0
  0
BLOCK_RECORD
  5
24C
330
1
100
AcDbSymbolTableRecord
100
AcDbBlockTableRecord
  2
*D612
340
0
  0
BLOCK_RECORD
  5
258
330
1
100
AcDbSymbolTableRecord
100
AcDbBlockTableRecord
  2
*D713
340
0
  0
ENDTAB
  0
ENDSEC
  0
SECTION
  2
BLOCKS
  0
BLOCK
  5
20
330
1F
100
AcDbEntity
  8
0
100
AcDbBlockBegin
  2
*Model_Space
 70
     0
 71
     0
 10
0.0
 20
0.0
 30
0.0
  3
*Model_Space
  1

  0
ENDBLK
  5
21
330
1F
100
AcDbEntity
  8
0
100
AcDbBlockEnd
  0
BLOCK
  5
1C
330
1B
100
AcDbEntity
 67
     1
  8
0
100
AcDbBlockBegin
  2
*Paper_Space
 70
     0
 71
     0
 10
0.0
 20
0.0
 30
0.0
  3
*Paper_Space
  1

  0
ENDBLK
  5
1D
330
1B
100
AcDbEntity
 67
     1
  8
0
100
AcDbBlockEnd
  0
BLOCK
  5
24
330
23
100
AcDbEntity
  8
0
100
AcDbBlockBegin
  2
*Paper_Space0
 70
     0
 71
     0
 10
0.0
 20
0.0
 30
0.0
  3
*Paper_Space0
  1

  0
ENDBLK
  5
25
330
23
100
AcDbEntity
  8
0
100
AcDbBlockEnd
  0
BLOCK
  5
37
330
36
100
AcDbEntity
  8
0
100
AcDbBlockBegin
  2
36-45
 70
     0
 71
     0
 10
570.6050298258701
 20
323.817354325722
 30
0.0
  3
36-45
  1

  0
LINE
  5
4A
330
36
100
AcDbEntity
  8
1
  6
Continuous
 62
     7
100
AcDbLine
 10
319.6558706256671
 20
325.7901823463723
 30
0.0
 11
318.6558706256671
 21
326.7901823463723
 31
0.0
  0
LINE
  5
4B
330
36
100
AcDbEntity
  8
1
  6
Continuous
 62
     7
100
AcDbLine
 10
315.8058706256671
 20
326.7901823463723
 30
0.0
 11
318.6558706256671
 21
326.7901823463723
 31
0.0
  0
LINE
  5
4C
330
36
100
AcDbEntity
  8
1
  6
Continuous
 62
     7
100
AcDbLine
 10
311.1558706256671
 20
326.7901823463723
 30
0.0
 11
314.0058706256671
 21
326.7901823463723
 31
0.0
  0
LINE
  5
4D
330
36
100
AcDbEntity
  8
1
  6
Continuous
 62
     7
100
AcDbLine
 10
311.1558706256671
 20
326.7901823463723
 30
0.0
 11
310.1558706256671
 21
325.7901823463723
 31
0.0
  0
LINE
  5
4E
330
36
100
AcDbEntity
  8
1
  6
Continuous
 62
     7
100
AcDbLine
 10
310.1558706256671
 20
325.7901823463723
 30
0.0
 11
310.1558706256671
 21
324.2901823463723
 31
0.0
  0
LINE
  5
4F
330
36
100
AcDbEntity
  8
0
  6
Continuous
 62
     7
100
AcDbLine
 10
314.0058706256671
 20
326.7901823463723
 30
0.0
 11
315.8058706256671
 21
326.7901823463723
 31
0.0
  0
LINE
  5
50
330
36
100
AcDbEntity
  8
1
  6
Continuous
 62
     7
100
AcDbLine
 10
162.0058706256546
 20
441.4541398933487
 30
0.0
 11
162.0058706256546
 21
440.9734824790425
 31
0.0
  0
LINE
  5
51
330
36
100
AcDbEntity
  8
1
  6
Continuous
 62
     7
100
AcDbLine
 10
163.8058706256545
 20
441.4541398933487
 30
0.0
 11
163.8058706256545
 21
440.9734824790425
 31
0.0
  0
LINE
  5
52
330
36
100
AcDbEntity
  8
1
  6
Continuous
 62
     7
100
AcDbLine
 10
162.0058706256546
 20
440.9734824790425
 30
0.0
 11
162.0058706256546
 21
432.6068822137016
 31
0.0
  0
LINE
  5
53
330
36
100
AcDbEntity
  8
1
  6
Continuous
 62
     7
100
AcDbLine
 10
162.0058706256546
 20
432.6068822137016
 30
0.0
 11
162.0058706256546
 21
432.1262247993956
 31
0.0
  0
LINE
  5
54
330
36
100
AcDbEntity
  8
1
  6
Continuous
 62
     7
100
AcDbLine
 10
163.8058706256545
 20
440.9734824790425
 30
0.0
 11
163.8058706256545
 21
432.6068822137016
 31
0.0
  0
LINE
  5
55
330
36
100
AcDbEntity
  8
1
  6
Continuous
 62
     7
100
AcDbLine
 10
163.8058706256545
 20
432.6068822137016
 30
0.0
 11
163.8058706256545
 21
432.1262247993956
 31
0.0
  0
LINE
  5
56
330
36
100
AcDbEntity
  8
1
  6
Continuous
 62
     7
100
AcDbLine
 10
158.1558706256548
 20
325.7901823463723
 30
0.0
 11
158.1558706256548
 21
324.2901823463723
 31
0.0
  0
LINE
  5
57
330
36
100
AcDbEntity
  8
1
  6
Continuous
 62
     7
100
AcDbLine
 10
159.1558706256548
 20
326.7901823463723
 30
0.0
 11
158.1558706256548
 21
325.7901823463723
 31
0.0
  0
LINE
  5
58
330
36
100
AcDbEntity
  8
1
  6
Continuous
 62
     7
100
AcDbLine
 10
162.0058706256548
 20
326.7901823463723
 30
0.0
 11
162.0058706256548
 21
324.2901823463723
 31
0.0
  0
LINE
  5
59
330
36
100
AcDbEntity
  8
1
  6
Continuous
 62
     7
100
AcDbLine
 10
159.1558706256548
 20
326.7901823463723
 30
0.0
 11
162.0058706256548
 21
326.7901823463723
 31
0.0
  0
LINE
  5
5A
330
36
100
AcDbEntity
  8
1
  6
Continuous
 62
     7
100
AcDbLine
 10
163.8058706256548
 20
326.7901823463723
 30
0.0
 11
166.6558706256548
 21
326.7901823463723
 31
0.0
  0
LINE
  5
5B
330
36
100
AcDbEntity
  8
1
  6
Continuous
 62
     7
100
AcDbLine
 10
167.6558706256548
 20
325.7901823463723
 30
0.0
 11
166.6558706256548
 21
326.7901823463723
 31
0.0
  0
LINE
  5
5C
330
36
100
AcDbEntity
  8
1
  6
Continuous
 62
     7
100
AcDbLine
 10
319.6558706256671
 20
324.2901823463723
 30
0.0
 11
319.6558706256671
 21
325.7901823463723
 31
0.0
  0
LINE
  5
5D
330
36
100
AcDbEntity
  8
1
  6
Continuous
 62
     7
100
AcDbLine
 10
158.1558706256548
 20
324.2901823463723
 30
0.0
 11
163.8058706256548
 21
324.2901823463723
 31
0.0
  0
LINE
  5
5E
330
36
100
AcDbEntity
  8
1
  6
Continuous
 62
     7
100
AcDbLine
 10
167.6558706256548
 20
324.2901823463723
 30
0.0
 11
167.6558706256548
 21
325.7901823463723
 31
0.0
  0
LINE
  5
5F
330
36
100
AcDbEntity
  8
1
  6
Continuous
 62
     7
100
AcDbLine
 10
163.8058706256548
 20
324.2901823463723
 30
0.0
 11
163.8058706256548
 21
326.7901823463723
 31
0.0
  0
LINE
  5
60
330
36
100
AcDbEntity
  8
1
  6
Continuous
 62
     7
100
AcDbLine
 10
163.8058706256548
 20
324.2901823463723
 30
0.0
 11
167.6558706256548
 21
324.2901823463723
 31
0.0
  0
ARC
  5
61
330
36
100
AcDbEntity
  8
1
  6
Continuous
 62
     7
100
AcDbCircle
 10
162.9058706256545
 20
436.790182346372
 30
0.0
 40
4.249999999999875
100
AcDbArc
 50
-77.77421140684207
 51
77.77421140684274
  0
ARC
  5
62
330
36
100
AcDbEntity
  8
1
  6
Continuous
 62
     7
100
AcDbCircle
 10
162.9058706256545
 20
436.790182346372
 30
0.0
 40
4.250000000000073
100
AcDbArc
 50
102.2257885931558
 51
-102.2257885931564
  0
ARC
  5
63
330
36
100
AcDbEntity
  8
1
  6
Continuous
 62
     7
100
AcDbCircle
 10
162.9058706256545
 20
436.790182346372
 30
0.0
 40
4.750000000000078
100
AcDbArc
 50
99.08472028739094
 51
-99.08472028739158
  0
ARC
  5
64
330
36
100
AcDbEntity
  8
1
  6
Continuous
 62
     7
100
AcDbCircle
 10
162.9058706256545
 20
436.790182346372
 30
0.0
 40
4.750000000000078
100
AcDbArc
 50
80.91527971260908
 51
99.08472028739094
  0
ARC
  5
65
330
36
100
AcDbEntity
  8
1
  6
Continuous
 62
     7
100
AcDbCircle
 10
162.9058706256545
 20
436.790182346372
 30
0.0
 40
4.749999999999742
100
AcDbArc
 50
-80.91527971260842
 51
80.91527971260908
  0
ARC
  5
66
330
36
100
AcDbEntity
  8
1
  6
Continuous
 62
     7
100
AcDbCircle
 10
162.9058706256545
 20
436.790182346372
 30
0.0
 40
4.749999999999742
100
AcDbArc
 50
-99.08472028739158
 51
-80.91527971260842
  0
ENDBLK
  5
38
330
36
100
AcDbEntity
  8
0
100
AcDbBlockEnd
  0
BLOCK
  5
3A
330
39
100
AcDbEntity
  8
0
100
AcDbBlockBegin
  2
B4111L-0-13
 70
     0
 71
     0
 10
1378.724277485667
 20
190.2901823463721
 30
0.0
  3
B4111L-0-13
  1

  0
LINE
  5
67
330
39
100
AcDbEntity
  8
1
  6
Continuous
 62
     7
100
AcDbLine
 10
138.9058706256548
 20
275.4521823463844
 30
0.0
 11
138.9058706256548
 21
294.1281823463844
 31
0.0
  0
LINE
  5
68
330
39
100
AcDbEntity
  8
1
  6
Continuous
 62
     7
100
AcDbLine
 10
140.8795425208795
 20
274.3126823463846
 30
0.0
 11
140.8795425208795
 21
295.2676823463844
 31
0.0
  0
LINE
  5
69
330
39
100
AcDbEntity
  8
1
  6
Continuous
 62
     7
100
AcDbLine
 10
151.6558706256547
 20
308.7901823463723
 30
0.0
 11
174.1558706256548
 21
308.7901823463723
 31
0.0
  0
LINE
  5
6A
330
39
100
AcDbEntity
  8
1
  6
Continuous
 62
     7
100
AcDbLine
 10
174.9058706256548
 20
307.4911442406952
 30
0.0
 11
150.9058706256547
 21
307.4911442406952
 31
0.0
  0
LINE
  5
6B
330
39
100
AcDbEntity
  8
1
  6
Continuous
 62
     7
100
AcDbLine
 10
173.378997561674
 20
420.7775393079891
 30
0.0
 11
173.3789975616741
 21
413.2901823463843
 31
0.0
  0
LINE
  5
6C
330
39
100
AcDbEntity
  8
1
  6
Continuous
 62
     7
100
AcDbLine
 10
173.378997561674
 20
420.7775393079891
 30
0.0
 11
173.3789975616741
 21
413.2901823463843
 31
0.0
  0
LINE
  5
6D
330
39
100
AcDbEntity
  8
1
  6
Continuous
 62
     7
100
AcDbLine
 10
172.2169975616743
 20
420.7775393079891
 30
0.0
 11
173.378997561674
 21
420.7775393079891
 31
0.0
  0
LINE
  5
6E
330
39
100
AcDbEntity
  8
1
  6
Continuous
 62
     7
100
AcDbLine
 10
152.423997561674
 20
413.2901823463843
 30
0.0
 11
152.423997561674
 21
422.7901823463843
 31
0.0
  0
LINE
  5
6F
330
39
100
AcDbEntity
  8
1
  6
Continuous
 62
     2
100
AcDbLine
 10
153.5859975616739
 20
413.2901823463843
 30
0.0
 11
153.5859975616739
 21
420.7775393079894
 31
0.0
  0
LINE
  5
70
330
39
100
AcDbEntity
  8
1
  6
Continuous
 62
     2
100
AcDbLine
 10
172.2169975616743
 20
413.2901823463843
 30
0.0
 11
172.2169975616743
 21
420.7775393079891
 31
0.0
  0
LINE
  5
71
330
39
100
AcDbEntity
  8
1
  6
Continuous
 62
     7
100
AcDbLine
 10
138.9058706256548
 20
427.4521823463721
 30
0.0
 11
138.9058706256548
 21
447.267682346372
 31
0.0
  0
LINE
  5
72
330
39
100
AcDbEntity
  8
1
  6
Continuous
 62
     7
100
AcDbLine
 10
140.8795425208795
 20
426.3126823463721
 30
0.0
 11
140.8795425208794
 21
447.267682346372
 31
0.0
  0
LINE
  5
73
330
39
100
AcDbEntity
  8
1
  6
Continuous
 62
     7
100
AcDbLine
 10
141.3255456038214
 20
425.5401823463843
 30
0.0
 11
141.3255456038214
 21
448.0401823463843
 31
0.0
  0
LINE
  5
74
330
39
100
AcDbEntity
  8
1
  6
Continuous
 62
     7
100
AcDbLine
 10
178.2647603434281
 20
422.790182346372
 30
0.0
 11
173.378997561667
 21
422.790182346372
 31
0.0
  0
LINE
  5
75
330
39
100
AcDbEntity
  8
1
  6
Continuous
 62
     2
100
AcDbLine
 10
172.2169975616743
 20
420.7775393079891
 30
0.0
 11
173.378997561667
 21
422.790182346372
 31
0.0
  0
LINE
  5
76
330
39
100
AcDbEntity
  8
1
  6
Continuous
 62
     7
100
AcDbLine
 10
173.378997561667
 20
422.790182346372
 30
0.0
 11
152.4327436896356
 21
422.7901823463718
 31
0.0
  0
LINE
  5
77
330
39
100
AcDbEntity
  8
1
  6
Continuous
 62
     7
100
AcDbLine
 10
173.3789975616739
 20
422.7901823463843
 30
0.0
 11
173.378997561674
 21
420.7775393079891
 31
0.0
  0
LINE
  5
78
330
39
100
AcDbEntity
  8
1
  6
Continuous
 62
     7
100
AcDbLine
 10
173.3789975616739
 20
422.7901823463843
 30
0.0
 11
173.378997561674
 21
420.7775393079891
 31
0.0
  0
LINE
  5
79
330
39
100
AcDbEntity
  8
1
  6
Continuous
 62
     7
100
AcDbLine
 10
172.2169975616743
 20
420.7775393079891
 30
0.0
 11
153.5859975616739
 21
420.7775393079894
 31
0.0
  0
LINE
  5
7A
330
39
100
AcDbEntity
  8
1
  6
Continuous
 62
     7
100
AcDbLine
 10
173.378997561667
 20
422.790182346372
 30
0.0
 11
152.4327436896356
 21
422.7901823463718
 31
0.0
  0
LINE
  5
7B
330
39
100
AcDbEntity
  8
1
  6
Continuous
 62
     7
100
AcDbLine
 10
178.2647603434281
 20
422.790182346372
 30
0.0
 11
173.378997561667
 21
422.790182346372
 31
0.0
  0
LINE
  5
7C
330
39
100
AcDbEntity
  8
1
  6
Continuous
 62
     7
100
AcDbLine
 10
141.3255456038355
 20
448.0401823463843
 30
0.0
 11
145.1734849993815
 21
448.0401823463843
 31
0.0
  0
LINE
  5
7D
330
39
100
AcDbEntity
  8
1
  6
Continuous
 62
     7
100
AcDbLine
 10
189.066983792856
 20
451.8012893453018
 30
0.0
 11
189.0669837928538
 21
451.8012893453023
 31
0.0
  0
LINE
  5
7E
330
39
100
AcDbEntity
  8
1
  6
Continuous
 62
     7
100
AcDbLine
 10
186.1518861792933
 20
449.7901823463718
 30
0.0
 11
176.7893140018886
 21
449.7901823463718
 31
0.0
  0
LINE
  5
7F
330
39
100
AcDbEntity
  8
1
  6
Continuous
 62
     7
100
AcDbLine
 10
141.3255456038214
 20
443.9181385776093
 30
0.0
 11
141.3255456038214
 21
448.0401823463843
 31
0.0
  0
LINE
  5
80
330
39
100
AcDbEntity
  8
1
  6
Continuous
 62
     7
100
AcDbLine
 10
140.8795425208795
 20
443.7986324117134
 30
0.0
 11
140.8795425208794
 21
447.267682346372
 31
0.0
  0
LINE
  5
81
330
39
100
AcDbEntity
  8
1
  6
Continuous
 62
     7
100
AcDbLine
 10
138.9058706256548
 20
443.269788621264
 30
0.0
 11
138.9058706256548
 21
447.267682346372
 31
0.0
  0
LINE
  5
82
330
39
100
AcDbEntity
  8
1
  6
Continuous
 62
     7
100
AcDbLine
 10
161.2469025529731
 20
420.7775393079893
 30
0.0
 11
153.5859975616739
 21
420.7775393079894
 31
0.0
  0
LINE
  5
83
330
39
100
AcDbEntity
  8
1
  6
Continuous
 62
     7
100
AcDbLine
 10
158.8170795333061
 20
422.7901823463718
 30
0.0
 11
152.4327436896356
 21
422.7901823463718
 31
0.0
  0
LINE
  5
84
330
39
100
AcDbEntity
  8
1
  6
Continuous
 62
     7
100
AcDbLine
 10
176.1839921851891
 20
306.2130226811609
 30
0.0
 11
176.2280947980739
 21
305.3714946964285
 31
0.0
  0
LINE
  5
85
330
39
100
AcDbEntity
  8
1
  6
Continuous
 62
     7
100
AcDbLine
 10
141.3255456038214
 20
448.0401823463843
 30
0.0
 11
141.3255456038355
 21
448.0401823463843
 31
0.0
  0
LINE
  5
86
330
39
100
AcDbEntity
  8
1
  6
Continuous
 62
     7
100
AcDbLine
 10
141.3255456038214
 20
425.5401823463843
 30
0.0
 11
141.3255456038214
 21
429.662226115135
 31
0.0
  0
LINE
  5
87
330
39
100
AcDbEntity
  8
1
  6
Continuous
 62
     7
100
AcDbLine
 10
140.8795425208795
 20
426.3126823463721
 30
0.0
 11
141.3255456038214
 21
425.5401823463843
 31
0.0
  0
LINE
  5
88
330
39
100
AcDbEntity
  8
1
  6
Continuous
 62
     7
100
AcDbLine
 10
140.8795425208794
 20
447.267682346372
 30
0.0
 11
141.3255456038214
 21
448.0401823463843
 31
0.0
  0
LINE
  5
89
330
39
100
AcDbEntity
  8
1
  6
Continuous
 62
     7
100
AcDbLine
 10
140.8795425208795
 20
274.3126823463846
 30
0.0
 11
141.3255456038357
 21
273.5401823463723
 31
0.0
  0
LINE
  5
8A
330
39
100
AcDbEntity
  8
1
  6
Continuous
 62
     7
100
AcDbLine
 10
149.4919328394904
 20
303.621494696422
 30
0.0
 11
149.4919328394909
 21
303.6214946964286
 31
0.0
  0
LINE
  5
8B
330
39
100
AcDbEntity
  8
1
  6
Continuous
 62
     7
100
AcDbLine
 10
141.3255456038215
 20
296.0401823463723
 30
0.0
 11
140.8795425208795
 21
295.2676823463844
 31
0.0
  0
LINE
  5
8C
330
39
100
AcDbEntity
  8
1
  6
Continuous
 62
     7
100
AcDbLine
 10
129.9058706256548
 20
278.2901823463723
 30
0.0
 11
129.9058706256548
 21
278.2901823463759
 31
0.0
  0
LINE
  5
8D
330
39
100
AcDbEntity
  8
1
  6
Continuous
 62
     7
100
AcDbLine
 10
129.9058706256548
 20
278.2901823463759
 30
0.0
 11
129.9058706256548
 21
291.2901823463686
 31
0.0
  0
LINE
  5
8E
330
39
100
AcDbEntity
  8
1
  6
Continuous
 62
     2
100
AcDbLine
 10
131.0678706256547
 20
446.128182346372
 30
0.0
 11
138.9058706256548
 21
446.1281823463722
 31
0.0
  0
LINE
  5
8F
330
39
100
AcDbEntity
  8
1
  6
Continuous
 62
     7
100
AcDbLine
 10
149.4919328394904
 20
303.621494696422
 30
0.0
 11
149.6277490661202
 21
306.2130226811609
 31
0.0
  0
LINE
  5
90
330
39
100
AcDbEntity
  8
1
  6
Continuous
 62
     7
100
AcDbLine
 10
129.9058706256548
 20
291.2901823463686
 30
0.0
 11
129.9058706256548
 21
294.1281823463844
 31
0.0
  0
LINE
  5
91
330
39
100
AcDbEntity
  8
1
  6
Continuous
 62
     7
100
AcDbLine
 10
129.9058706256548
 20
278.2901823463723
 30
0.0
 11
129.9058706256548
 21
275.4521823463844
 31
0.0
  0
LINE
  5
92
330
39
100
AcDbEntity
  8
1
  6
Continuous
 62
     7
100
AcDbLine
 10
138.9058706256548
 20
274.3126823463846
 30
0.0
 11
138.9058706256548
 21
275.4521823463844
 31
0.0
  0
LINE
  5
93
330
39
100
AcDbEntity
  8
1
  6
Continuous
 62
     7
100
AcDbLine
 10
142.6096271308596
 20
273.5401823463723
 30
0.0
 11
141.3255456038357
 21
273.5401823463723
 31
0.0
  0
LINE
  5
94
330
39
100
AcDbEntity
  8
1
  6
Continuous
 62
     7
100
AcDbLine
 10
131.0678706256547
 20
274.3126823463846
 30
0.0
 11
129.9058706256548
 21
275.4521823463844
 31
0.0
  0
LINE
  5
95
330
39
100
AcDbEntity
  8
1
  6
Continuous
 62
     7
100
AcDbLine
 10
140.8795425208795
 20
295.2676823463844
 30
0.0
 11
131.0678706256547
 21
295.2676823463844
 31
0.0
  0
LINE
  5
96
330
39
100
AcDbEntity
  8
1
  6
Continuous
 62
     7
100
AcDbLine
 10
131.0678706256547
 20
295.2676823463844
 30
0.0
 11
129.9058706256548
 21
294.1281823463844
 31
0.0
  0
LINE
  5
97
330
39
100
AcDbEntity
  8
1
  6
Continuous
 62
     7
100
AcDbLine
 10
140.8795425208795
 20
295.2676823463844
 30
0.0
 11
131.0678706256547
 21
295.2676823463844
 31
0.0
  0
LINE
  5
98
330
39
100
AcDbEntity
  8
1
  6
Continuous
 62
     2
100
AcDbLine
 10
129.9058706256548
 20
294.1281823463844
 30
0.0
 11
138.9058706256548
 21
294.1281823463844
 31
0.0
  0
LINE
  5
99
330
39
100
AcDbEntity
  8
1
  6
Continuous
 62
     7
100
AcDbLine
 10
138.9058706256548
 20
294.1281823463844
 30
0.0
 11
138.9058706256548
 21
295.2676823463844
 31
0.0
  0
LINE
  5
9A
330
39
100
AcDbEntity
  8
1
  6
Continuous
 62
     2
100
AcDbLine
 10
138.9058706256548
 20
294.1281823463844
 30
0.0
 11
140.8795425208795
 21
295.2676823463844
 31
0.0
  0
LINE
  5
9B
330
39
100
AcDbEntity
  8
1
  6
Continuous
 62
     2
100
AcDbLine
 10
140.8795425208795
 20
274.3126823463846
 30
0.0
 11
138.9058706256548
 21
275.4521823463844
 31
0.0
  0
LINE
  5
9C
330
39
100
AcDbEntity
  8
1
  6
Continuous
 62
     2
100
AcDbLine
 10
138.9058706256548
 20
275.4521823463844
 30
0.0
 11
129.9058706256548
 21
275.4521823463844
 31
0.0
  0
LINE
  5
9D
330
39
100
AcDbEntity
  8
1
  6
Continuous
 62
     7
100
AcDbLine
 10
140.8795425208795
 20
426.3126823463721
 30
0.0
 11
140.8795425208795
 21
429.7817322810312
 31
0.0
  0
LINE
  5
9E
330
39
100
AcDbEntity
  8
1
  6
Continuous
 62
     2
100
AcDbLine
 10
138.9058706256548
 20
446.1281823463722
 30
0.0
 11
140.8795425208794
 21
447.267682346372
 31
0.0
  0
LINE
  5
9F
330
39
100
AcDbEntity
  8
1
  6
Continuous
 62
     7
100
AcDbLine
 10
141.3255456038214
 20
425.5401823463843
 30
0.0
 11
143.6827436896357
 21
425.5401823463843
 31
0.0
  0
LINE
  5
A0
330
39
100
AcDbEntity
  8
1
  6
PHANTOM
 62
     4
100
AcDbLine
 10
162.9058706256548
 20
402.2901823463843
 30
0.0
 11
162.9058706256548
 21
454.2901823463723
 31
0.0
  0
LINE
  5
A1
330
39
100
AcDbEntity
  8
1
  6
Continuous
 62
     7
100
AcDbLine
 10
153.5859975616739
 20
420.7775393079894
 30
0.0
 11
152.423997561674
 21
420.7775393079895
 31
0.0
  0
LINE
  5
A2
330
39
100
AcDbEntity
  8
1
  6
Continuous
 62
     2
100
AcDbLine
 10
153.5859975616739
 20
420.7775393079894
 30
0.0
 11
152.4327436896356
 21
422.7901823463718
 31
0.0
  0
LINE
  5
A3
330
39
100
AcDbEntity
  8
1
  6
Continuous
 62
     7
100
AcDbLine
 10
149.7190919234482
 20
422.7901823463984
 30
0.0
 11
152.4327436896356
 21
422.7901823463718
 31
0.0
  0
LINE
  5
A4
330
39
100
AcDbEntity
  8
1
  6
Continuous
 62
     2
100
AcDbLine
 10
140.8795425208795
 20
426.3126823463721
 30
0.0
 11
138.9058706256548
 21
427.4521823463721
 31
0.0
  0
LINE
  5
A5
330
39
100
AcDbEntity
  8
1
  6
Continuous
 62
     7
100
AcDbLine
 10
151.1266516362645
 20
271.7901823463723
 30
0.0
 11
197.9058706256549
 21
271.7901823463723
 31
0.0
  0
LINE
  5
A6
330
39
100
AcDbEntity
  8
1
  6
Continuous
 62
     7
100
AcDbLine
 10
149.6277490661202
 20
306.2130226811609
 30
0.0
 11
150.9058706256547
 21
307.4911442406952
 31
0.0
  0
LINE
  5
A7
330
39
100
AcDbEntity
  8
1
  6
Continuous
 62
     7
100
AcDbLine
 10
174.9058706256548
 20
307.4911442406952
 30
0.0
 11
176.1839921851891
 21
306.2130226811609
 31
0.0
  0
LINE
  5
A8
330
39
100
AcDbEntity
  8
1
  6
Continuous
 62
     7
100
AcDbLine
 10
184.2171310761104
 20
297.7901823463723
 30
0.0
 11
197.9058706256549
 21
297.7901823463723
 31
0.0
  0
LINE
  5
A9
330
39
100
AcDbEntity
  8
1
  6
Continuous
 62
     7
100
AcDbLine
 10
196.7447574584533
 20
451.8012893453018
 30
0.0
 11
189.066983792856
 21
451.8012893453018
 31
0.0
  0
LINE
  5
AA
330
39
100
AcDbEntity
  8
1
  6
Continuous
 62
     7
100
AcDbLine
 10
189.066983792856
 20
451.8012893453018
 30
0.0
 11
189.0669837928538
 21
451.8012893453023
 31
0.0
  0
LINE
  5
AB
330
39
100
AcDbEntity
  8
1
  6
Continuous
 62
     7
100
AcDbLine
 10
129.9058706256548
 20
427.4521823463721
 30
0.0
 11
131.0678706256547
 21
426.3126823463721
 31
0.0
  0
LINE
  5
AC
330
39
100
AcDbEntity
  8
1
  6
Continuous
 62
     7
100
AcDbLine
 10
129.9058706256548
 20
446.1281823463722
 30
0.0
 11
131.0678706256547
 21
447.267682346372
 31
0.0
  0
LINE
  5
AD
330
39
100
AcDbEntity
  8
1
  6
Continuous
 62
     7
100
AcDbLine
 10
131.0678706256547
 20
446.128182346372
 30
0.0
 11
131.0678706256547
 21
447.267682346372
 31
0.0
  0
LINE
  5
AE
330
39
100
AcDbEntity
  8
1
  6
Continuous
 62
     2
100
AcDbLine
 10
129.9058706256548
 20
446.1281823463722
 30
0.0
 11
131.0678706256547
 21
446.128182346372
 31
0.0
  0
LINE
  5
AF
330
39
100
AcDbEntity
  8
1
  6
Continuous
 62
     7
100
AcDbLine
 10
138.9058706256548
 20
427.4521823463721
 30
0.0
 11
138.9058706256548
 21
430.3105760714806
 31
0.0
  0
LINE
  5
B0
330
39
100
AcDbEntity
  8
1
  6
Continuous
 62
     7
100
AcDbLine
 10
138.9058706256548
 20
426.3126823463721
 30
0.0
 11
138.9058706256548
 21
427.4521823463721
 31
0.0
  0
LINE
  5
B1
330
39
100
AcDbEntity
  8
1
  6
Continuous
 62
     2
100
AcDbLine
 10
138.9058706256548
 20
427.4521823463721
 30
0.0
 11
129.9058706256548
 21
427.4521823463721
 31
0.0
  0
LINE
  5
B2
330
39
100
AcDbEntity
  8
1
  6
Continuous
 62
     7
100
AcDbLine
 10
131.0678706256547
 20
446.128182346372
 30
0.0
 11
131.0678706256547
 21
426.3126823463721
 31
0.0
  0
LINE
  5
B3
330
39
100
AcDbEntity
  8
1
  6
Continuous
 62
     7
100
AcDbLine
 10
186.1518861792836
 20
423.790182346372
 30
0.0
 11
182.1377436896359
 21
423.790182346372
 31
0.0
  0
LINE
  5
B4
330
39
100
AcDbEntity
  8
1
  6
Continuous
 62
     7
100
AcDbLine
 10
197.9058706256549
 20
274.0576823463722
 30
0.0
 11
197.9058706256549
 21
271.7901823463723
 31
0.0
  0
LINE
  5
B5
330
39
100
AcDbEntity
  8
1
  6
Continuous
 62
     7
100
AcDbLine
 10
197.9058706256549
 20
295.522682346372
 30
0.0
 11
197.9058706256549
 21
297.7901823463723
 31
0.0
  0
LINE
  5
B6
330
39
100
AcDbEntity
  8
1
  6
Continuous
 62
     2
100
AcDbLine
 10
150.9058706256547
 20
307.4911442406952
 30
0.0
 11
151.6558706256547
 21
308.7901823463723
 31
0.0
  0
LINE
  5
B7
330
39
100
AcDbEntity
  8
1
  6
Continuous
 62
     2
100
AcDbLine
 10
174.9058706256548
 20
307.4911442406952
 30
0.0
 11
174.1558706256548
 21
308.7901823463723
 31
0.0
  0
LINE
  5
B8
330
39
100
AcDbEntity
  8
1
  6
Continuous
 62
     2
100
AcDbLine
 10
174.1558706256548
 20
308.7901823463723
 30
0.0
 11
174.1558706256548
 21
310.2901823463723
 31
0.0
  0
LINE
  5
B9
330
39
100
AcDbEntity
  8
1
  6
Continuous
 62
     2
100
AcDbLine
 10
151.6558706256547
 20
308.7901823463723
 30
0.0
 11
151.6558706256547
 21
310.2901823463723
 31
0.0
  0
LINE
  5
BA
330
39
100
AcDbEntity
  8
1
  6
Continuous
 62
     7
100
AcDbLine
 10
174.9058706256548
 20
308.7901823463723
 30
0.0
 11
174.1558706256548
 21
308.7901823463723
 31
0.0
  0
LINE
  5
BB
330
39
100
AcDbEntity
  8
1
  6
Continuous
 62
     7
100
AcDbLine
 10
150.9058706256547
 20
307.4911442406952
 30
0.0
 11
150.9058706256548
 21
308.7901823463723
 31
0.0
  0
LINE
  5
BC
330
39
100
AcDbEntity
  8
1
  6
Continuous
 62
     7
100
AcDbLine
 10
150.9058706256548
 20
308.7901823463723
 30
0.0
 11
151.6558706256547
 21
308.7901823463723
 31
0.0
  0
LINE
  5
BD
330
39
100
AcDbEntity
  8
1
  6
Continuous
 62
     7
100
AcDbLine
 10
150.9058706256548
 20
308.7901823463723
 30
0.0
 11
150.9058706256548
 21
310.2901823463723
 31
0.0
  0
LINE
  5
BE
330
39
100
AcDbEntity
  8
1
  6
Continuous
 62
     7
100
AcDbLine
 10
196.7447574584556
 20
451.8012893453023
 30
0.0
 11
196.7447574584533
 21
451.8012893453018
 31
0.0
  0
LINE
  5
BF
330
39
100
AcDbEntity
  8
1
  6
Continuous
 62
     7
100
AcDbLine
 10
196.7447574584533
 20
421.7790753474419
 30
0.0
 11
189.066983792856
 21
421.7790753474419
 31
0.0
  0
LINE
  5
C0
330
39
100
AcDbEntity
  8
1
  6
Continuous
 62
     7
100
AcDbLine
 10
197.9058706256548
 20
425.5318520971745
 30
0.0
 11
197.9058706256548
 21
448.0485125955689
 31
0.0
  0
LINE
  5
C1
330
39
100
AcDbEntity
  8
1
  6
Continuous
 62
     7
100
AcDbLine
 10
129.9058706256548
 20
427.4521823463721
 30
0.0
 11
129.9058706256548
 21
446.1281823463722
 31
0.0
  0
LINE
  5
C2
330
39
100
AcDbEntity
  8
1
  6
Continuous
 62
     7
100
AcDbLine
 10
131.0678706256547
 20
426.3126823463721
 30
0.0
 11
140.8795425208795
 21
426.3126823463721
 31
0.0
  0
LINE
  5
C3
330
39
100
AcDbEntity
  8
1
  6
Continuous
 62
     7
100
AcDbLine
 10
131.0678706256547
 20
447.267682346372
 30
0.0
 11
140.8795425208794
 21
447.267682346372
 31
0.0
  0
LINE
  5
C4
330
39
100
AcDbEntity
  8
1
  6
Continuous
 62
     7
100
AcDbLine
 10
196.7447574584533
 20
429.2846288469071
 30
0.0
 11
189.066983792856
 21
429.2846288469071
 31
0.0
  0
LINE
  5
C5
330
39
100
AcDbEntity
  8
1
  6
Continuous
 62
     7
100
AcDbLine
 10
196.7447574584533
 20
444.2957358458369
 30
0.0
 11
189.066983792856
 21
444.2957358458369
 31
0.0
  0
LINE
  5
C6
330
39
100
AcDbEntity
  8
1
  6
PHANTOM
 62
     4
100
AcDbLine
 10
162.9058706256548
 20
273.7901823463723
 30
0.0
 11
162.9058706256548
 21
317.7901823463723
 31
0.0
  0
LINE
  5
C7
330
39
100
AcDbEntity
  8
1
  6
PHANTOM
 62
     4
100
AcDbLine
 10
200.9058706256548
 20
436.790182346372
 30
0.0
 11
126.9058706256548
 21
436.790182346372
 31
0.0
  0
LINE
  5
C8
330
39
100
AcDbEntity
  8
1
  6
PHANTOM
 62
     4
100
AcDbLine
 10
162.9058706256548
 20
268.7901823463723
 30
0.0
 11
162.9058706256548
 21
273.7901823463723
 31
0.0
  0
LINE
  5
C9
330
39
100
AcDbEntity
  8
1
  6
Continuous
 62
     7
100
AcDbLine
 10
141.5028965614607
 20
296.0401823463723
 30
0.0
 11
141.3255456038215
 21
296.0401823463723
 31
0.0
  0
LINE
  5
CA
330
39
100
AcDbEntity
  8
1
  6
Continuous
 62
     7
100
AcDbLine
 10
139.1339467886367
 20
291.5901823463722
 30
0.0
 11
139.1339467886344
 21
291.5901823463722
 31
0.0
  0
LINE
  5
CB
330
39
100
AcDbEntity
  8
1
  6
PHANTOM
 62
     4
100
AcDbLine
 10
126.9058706256548
 20
284.7901823463723
 30
0.0
 11
189.0669837928562
 21
284.7901823463723
 31
0.0
  0
LINE
  5
CC
330
39
100
AcDbEntity
  8
1
  6
Continuous
 62
     7
100
AcDbLine
 10
140.8795425208795
 20
274.3126823463846
 30
0.0
 11
131.0678706256547
 21
274.3126823463846
 31
0.0
  0
LINE
  5
CD
330
39
100
AcDbEntity
  8
1
  6
Continuous
 62
     7
100
AcDbLine
 10
139.1339467886406
 20
291.5901823463722
 30
0.0
 11
139.1339467886367
 21
291.5901823463722
 31
0.0
  0
LINE
  5
CE
330
39
100
AcDbEntity
  8
1
  6
Continuous
 62
     7
100
AcDbLine
 10
139.1363468037155
 20
291.5901823463722
 30
0.0
 11
139.1339467886367
 21
291.5901823463722
 31
0.0
  0
LINE
  5
CF
330
39
100
AcDbEntity
  8
1
  6
Continuous
 62
     2
100
AcDbLine
 10
153.5859975616739
 20
413.2901823463843
 30
0.0
 11
153.5859975616739
 21
420.7775393079894
 31
0.0
  0
LINE
  5
D0
330
39
100
AcDbEntity
  8
1
  6
Continuous
 62
     7
100
AcDbLine
 10
152.423997561674
 20
413.2901823463843
 30
0.0
 11
152.423997561674
 21
422.7901823463843
 31
0.0
  0
LINE
  5
D1
330
39
100
AcDbEntity
  8
1
  6
Continuous
 62
     7
100
AcDbLine
 10
197.9058706256549
 20
284.7901823463723
 30
0.0
 11
197.9058706256549
 21
274.0576823463722
 31
0.0
  0
LINE
  5
D2
330
39
100
AcDbEntity
  8
1
  6
Continuous
 62
     7
100
AcDbLine
 10
197.9058706256549
 20
284.7901823463723
 30
0.0
 11
197.9058706256549
 21
295.522682346372
 31
0.0
  0
LINE
  5
D3
330
39
100
AcDbEntity
  8
1
  6
Continuous
 62
     7
100
AcDbLine
 10
174.9058706256548
 20
310.2901823463723
 30
0.0
 11
174.9058706256548
 21
307.4911442406952
 31
0.0
  0
LINE
  5
D4
330
39
100
AcDbEntity
  8
1
  6
Continuous
 62
     7
100
AcDbLine
 10
301.4919328395033
 20
303.6214946964288
 30
0.0
 11
301.6277490661332
 21
306.2130226811611
 31
0.0
  0
LINE
  5
D5
330
39
100
AcDbEntity
  8
1
  6
Continuous
 62
     7
100
AcDbLine
 10
300.9058706256662
 20
301.0076957421503
 30
0.0
 11
300.9058706256671
 21
295.2676823463718
 31
0.0
  0
LINE
  5
D6
330
39
100
AcDbEntity
  8
1
  6
Continuous
 62
     7
100
AcDbLine
 10
300.9058706256671
 20
283.0388936523367
 30
0.0
 11
300.9058706256671
 21
274.3126823463721
 31
0.0
  0
LINE
  5
D7
330
39
100
AcDbEntity
  8
1
  6
Continuous
 62
     7
100
AcDbLine
 10
298.8932275872712
 20
275.4746823463721
 30
0.0
 11
298.8932275872723
 21
294.105682346372
 31
0.0
  0
LINE
  5
D8
330
39
100
AcDbEntity
  8
1
  6
Continuous
 62
     7
100
AcDbLine
 10
300.9058706256671
 20
295.2676823463718
 30
0.0
 11
300.9058706256671
 21
286.5414710404076
 31
0.0
  0
LINE
  5
D9
330
39
100
AcDbEntity
  8
1
  6
Continuous
 62
     7
100
AcDbLine
 10
301.6277490661332
 20
306.2130226811611
 30
0.0
 11
328.1839921852013
 21
306.2130226811613
 31
0.0
  0
LINE
  5
DA
330
39
100
AcDbEntity
  8
1
  6
Continuous
 62
     7
100
AcDbLine
 10
326.9058706256671
 20
307.4911442406952
 30
0.0
 11
302.9058706256671
 21
307.4911442406952
 31
0.0
  0
LINE
  5
DB
330
39
100
AcDbEntity
  8
1
  6
Continuous
 62
     7
100
AcDbLine
 10
303.7188706256672
 20
308.790182346372
 30
0.0
 11
326.0928706256661
 21
308.790182346372
 31
0.0
  0
LINE
  5
DC
330
39
100
AcDbEntity
  8
1
  6
Continuous
 62
     7
100
AcDbLine
 10
302.9058706256671
 20
307.6002634415714
 30
0.0
 11
302.9058706256671
 21
307.4911442406952
 31
0.0
  0
LINE
  5
DD
330
39
100
AcDbEntity
  8
1
  6
Continuous
 62
     7
100
AcDbLine
 10
302.9058706256671
 20
307.6002634415714
 30
0.0
 11
302.9058706256671
 21
307.4911442406952
 31
0.0
  0
LINE
  5
DE
330
39
100
AcDbEntity
  8
1
  6
Continuous
 62
     2
100
AcDbLine
 10
298.8932275872723
 20
294.105682346372
 30
0.0
 11
300.9058706256671
 21
295.2676823463718
 31
0.0
  0
LINE
  5
DF
330
39
100
AcDbEntity
  8
1
  6
Continuous
 62
     2
100
AcDbLine
 10
291.405870625667
 20
294.105682346372
 30
0.0
 11
298.8932275872723
 21
294.105682346372
 31
0.0
  0
LINE
  5
E0
330
39
100
AcDbEntity
  8
1
  6
Continuous
 62
     7
100
AcDbLine
 10
291.405870625667
 20
295.2676823463718
 30
0.0
 11
300.9058706256671
 21
295.2676823463718
 31
0.0
  0
LINE
  5
E1
330
39
100
AcDbEntity
  8
1
  6
Continuous
 62
     2
100
AcDbLine
 10
303.7188706256672
 20
308.790182346372
 30
0.0
 11
302.9058706256671
 21
307.4911442406952
 31
0.0
  0
LINE
  5
E2
330
39
100
AcDbEntity
  8
1
  6
Continuous
 62
     7
100
AcDbLine
 10
302.9058706256671
 20
308.790182346372
 30
0.0
 11
302.9058706256671
 21
307.6002634415714
 31
0.0
  0
LINE
  5
E3
330
39
100
AcDbEntity
  8
1
  6
Continuous
 62
     7
100
AcDbLine
 10
302.9058706256671
 20
308.790182346372
 30
0.0
 11
303.7188706256672
 21
308.790182346372
 31
0.0
  0
LINE
  5
E4
330
39
100
AcDbEntity
  8
1
  6
Continuous
 62
     7
100
AcDbLine
 10
302.9058706256671
 20
310.254205464597
 30
0.0
 11
302.9058706256671
 21
307.6002634415714
 31
0.0
  0
LINE
  5
E5
330
39
100
AcDbEntity
  8
1
  6
Continuous
 62
     7
100
AcDbLine
 10
298.8932275872723
 20
294.105682346372
 30
0.0
 11
298.8932275872723
 21
295.2676823463718
 31
0.0
  0
LINE
  5
E6
330
39
100
AcDbEntity
  8
1
  6
Continuous
 62
     2
100
AcDbLine
 10
300.9058706256671
 20
274.3126823463721
 30
0.0
 11
298.8932275872712
 21
275.4746823463721
 31
0.0
  0
LINE
  5
E7
330
39
100
AcDbEntity
  8
1
  6
Continuous
 62
     2
100
AcDbLine
 10
291.405870625667
 20
275.4746823463721
 30
0.0
 11
298.8932275872712
 21
275.4746823463721
 31
0.0
  0
LINE
  5
E8
330
39
100
AcDbEntity
  8
1
  6
Continuous
 62
     7
100
AcDbLine
 10
300.9058706256671
 20
274.3126823463721
 30
0.0
 11
291.405870625667
 21
274.3126823463721
 31
0.0
  0
LINE
  5
E9
330
39
100
AcDbEntity
  8
1
  6
Continuous
 62
     7
100
AcDbLine
 10
326.0928706256661
 20
308.790182346372
 30
0.0
 11
326.9058706256671
 21
308.7901823463723
 31
0.0
  0
LINE
  5
EA
330
39
100
AcDbEntity
  8
1
  6
Continuous
 62
     7
100
AcDbLine
 10
298.8932275872712
 20
274.3126823463721
 30
0.0
 11
298.8932275872712
 21
275.4746823463721
 31
0.0
  0
LINE
  5
EB
330
39
100
AcDbEntity
  8
1
  6
Continuous
 62
     7
100
AcDbLine
 10
301.6277490661332
 20
306.2130226811611
 30
0.0
 11
302.9058706256671
 21
307.4911442406952
 31
0.0
  0
LINE
  5
EC
330
39
100
AcDbEntity
  8
1
  6
Continuous
 62
     7
100
AcDbLine
 10
326.9058706256671
 20
307.4911442406952
 30
0.0
 11
328.1839921852013
 21
306.2130226811613
 31
0.0
  0
LINE
  5
ED
330
39
100
AcDbEntity
  8
1
  6
Continuous
 62
     7
100
AcDbLine
 10
300.9058706256671
 20
273.540182346372
 30
0.0
 11
300.9058706256671
 21
274.3126823463721
 31
0.0
  0
LINE
  5
EE
330
39
100
AcDbEntity
  8
1
  6
Continuous
 62
     2
100
AcDbLine
 10
303.7188706256672
 20
308.790182346372
 30
0.0
 11
303.7188706256672
 21
310.254205464597
 31
0.0
  0
LINE
  5
EF
330
39
100
AcDbEntity
  8
1
  6
Continuous
 62
     7
100
AcDbLine
 10
328.1839921852013
 20
306.2130226811613
 30
0.0
 11
329.1702912146781
 21
287.3933160847304
 31
0.0
  0
LINE
  5
F0
330
39
100
AcDbEntity
  8
1
  6
Continuous
 62
     7
100
AcDbLine
 10
300.9058706256671
 20
273.540182346372
 30
0.0
 11
301.4452799996952
 21
273.540182346372
 31
0.0
  0
LINE
  5
F1
330
39
100
AcDbEntity
  8
1
  6
Continuous
 62
     7
100
AcDbLine
 10
326.9058706256671
 20
307.4911442406952
 30
0.0
 11
326.9058706256671
 21
310.254205464597
 31
0.0
  0
LINE
  5
F2
330
39
100
AcDbEntity
  8
1
  6
Continuous
 62
     2
100
AcDbLine
 10
326.0928706256661
 20
310.254205464597
 30
0.0
 11
326.0928706256661
 21
308.790182346372
 31
0.0
  0
LINE
  5
F3
330
39
100
AcDbEntity
  8
1
  6
Continuous
 62
     2
100
AcDbLine
 10
326.9058706256671
 20
307.4911442406952
 30
0.0
 11
326.0928706256661
 21
308.790182346372
 31
0.0
  0
LINE
  5
F4
330
39
100
AcDbEntity
  8
1
  6
Continuous
 62
     7
100
AcDbLine
 10
322.4114241251311
 20
271.7901823463723
 30
0.0
 11
307.4003171262013
 21
271.7901823463723
 31
0.0
  0
LINE
  5
F5
330
39
100
AcDbEntity
  8
1
  6
Continuous
 62
     7
100
AcDbLine
 10
307.4003171262013
 20
271.7901823463723
 30
0.0
 11
299.8947636267362
 21
284.7901823463723
 31
0.0
  0
LINE
  5
F6
330
39
100
AcDbEntity
  8
1
  6
Continuous
 62
     7
100
AcDbLine
 10
299.8947636267362
 20
284.7901823463723
 30
0.0
 11
307.4003171262013
 21
297.7901823463723
 31
0.0
  0
LINE
  5
F7
330
39
100
AcDbEntity
  8
1
  6
Continuous
 62
     7
100
AcDbLine
 10
307.4003171262013
 20
297.7901823463723
 30
0.0
 11
322.4114241251311
 21
297.7901823463723
 31
0.0
  0
LINE
  5
F8
330
39
100
AcDbEntity
  8
1
  6
Continuous
 62
     7
100
AcDbLine
 10
329.9169776245971
 20
284.7901823463723
 30
0.0
 11
322.4114241251311
 21
271.7901823463723
 31
0.0
  0
LINE
  5
F9
330
39
100
AcDbEntity
  8
1
  6
Continuous
 62
     7
100
AcDbLine
 10
322.4114241251311
 20
297.7901823463723
 30
0.0
 11
329.9169776245971
 21
284.7901823463723
 31
0.0
  0
LINE
  5
FA
330
39
100
AcDbEntity
  8
1
  6
Continuous
 62
     7
100
AcDbLine
 10
305.8235411385192
 20
282.7901823463723
 30
0.0
 11
323.9882001128153
 21
282.7901823463723
 31
0.0
  0
LINE
  5
FB
330
39
100
AcDbEntity
  8
1
  6
Continuous
 62
     7
100
AcDbLine
 10
178.3010512930108
 20
302.7901823463723
 30
0.0
 11
179.5732082776198
 21
302.7901823463723
 31
0.0
  0
LINE
  5
FC
330
39
100
AcDbEntity
  8
1
  6
Continuous
 62
     7
100
AcDbLine
 10
181.5655976738035
 20
300.9644938318676
 30
0.0
 11
181.681430337374
 21
299.640520428889
 31
0.0
  0
LINE
  5
FD
330
39
100
AcDbEntity
  8
1
  6
Continuous
 62
     7
100
AcDbLine
 10
312.4684273080366
 20
297.7901823463723
 30
0.0
 11
312.7461435775176
 21
300.9644938318676
 31
0.0
  0
LINE
  5
FE
330
39
100
AcDbEntity
  8
1
  6
Continuous
 62
     7
100
AcDbLine
 10
317.0655976738148
 20
300.9644938318676
 30
0.0
 11
317.3433139432958
 21
297.7901823463723
 31
0.0
  0
LINE
  5
FF
330
39
100
AcDbEntity
  8
1
  6
Continuous
 62
     7
100
AcDbLine
 10
181.8158706256548
 20
438.790182346372
 30
0.0
 11
176.7622770862061
 21
438.790182346372
 31
0.0
  0
LINE
  5
100
330
39
100
AcDbEntity
  8
1
  6
Continuous
 62
     7
100
AcDbLine
 10
176.7622770862061
 20
434.790182346372
 30
0.0
 11
181.8158706256548
 21
434.790182346372
 31
0.0
  0
LINE
  5
101
330
39
100
AcDbEntity
  8
1
  6
Continuous
 62
     7
100
AcDbLine
 10
181.8158706256548
 20
434.790182346372
 30
0.0
 11
181.8158706256548
 21
438.790182346372
 31
0.0
  0
LINE
  5
102
330
39
100
AcDbEntity
  8
1
  6
Continuous
 62
     7
100
AcDbLine
 10
189.0669837928562
 20
284.7901823463723
 30
0.0
 11
196.7447574584534
 21
284.7901823463723
 31
0.0
  0
LINE
  5
103
330
39
100
AcDbEntity
  8
1
  6
PHANTOM
 62
     4
100
AcDbLine
 10
189.0669837928562
 20
284.7901823463723
 30
0.0
 11
196.7447574584534
 21
284.7901823463723
 31
0.0
  0
LINE
  5
104
330
39
100
AcDbEntity
  8
1
  6
PHANTOM
 62
     4
100
AcDbLine
 10
196.7447574584534
 20
284.7901823463723
 30
0.0
 11
200.9058706256549
 21
284.7901823463723
 31
0.0
  0
ARC
  5
105
330
39
100
AcDbEntity
  8
1
  6
Continuous
 62
     7
100
AcDbCircle
 10
179.5669837928558
 20
278.2901823463723
 30
0.0
 40
18.36643427850104
100
AcDbArc
 50
-20.72643959502113
 51
20.72643959502113
  0
ARC
  5
106
330
39
100
AcDbEntity
  8
1
  6
Continuous
 62
     7
100
AcDbCircle
 10
179.5669837928558
 20
291.2901823463723
 30
0.0
 40
18.36643427850104
100
AcDbArc
 50
-20.72643959502113
 51
20.72643959502113
  0
ARC
  5
107
330
39
100
AcDbEntity
  8
1
  6
Continuous
 62
     7
100
AcDbCircle
 10
206.2447574584555
 20
278.2901823463723
 30
0.0
 40
18.36643427850263
100
AcDbArc
 50
159.2735604049808
 51
-159.2735604049808
  0
ARC
  5
108
330
39
100
AcDbEntity
  8
1
  6
Continuous
 62
     7
100
AcDbCircle
 10
206.2447574584555
 20
291.2901823463723
 30
0.0
 40
18.36643427850263
100
AcDbArc
 50
159.2735604049808
 51
-159.2735604049808
  0
ARC
  5
109
330
39
100
AcDbEntity
  8
1
  6
Continuous
 62
     7
100
AcDbCircle
 10
182.1377436895426
 20
415.7901823467331
 30
0.0
 40
7.999999999638874
100
AcDbArc
 50
89.99999999933172
 51
118.9550243725297
  0
ARC
  5
10A
330
39
100
AcDbEntity
  8
1
  6
Continuous
 62
     7
100
AcDbCircle
 10
162.9058706256548
 20
401.2901823463802
 30
0.0
 40
49.99999999998938
100
AcDbArc
 50
77.66709689946545
 51
110.7718550452923
  0
ARC
  5
10B
330
39
100
AcDbEntity
  8
1
  6
Continuous
 62
     7
100
AcDbCircle
 10
162.9058706256548
 20
401.2901823463802
 30
0.0
 40
49.99999999998938
100
AcDbArc
 50
77.66709689946545
 51
110.7718550452923
  0
ARC
  5
10C
330
39
100
AcDbEntity
  8
1
  6
Continuous
 62
     7
100
AcDbCircle
 10
162.9058706256548
 20
401.2901823463802
 30
0.0
 40
49.99999999998938
100
AcDbArc
 50
77.66709689946545
 51
110.7718550452923
  0
ARC
  5
10D
330
39
100
AcDbEntity
  8
1
  6
Continuous
 62
     7
100
AcDbCircle
 10
162.9058706256548
 20
401.2901823463802
 30
0.0
 40
49.99999999998938
100
AcDbArc
 50
77.66709689946545
 51
110.7718550452923
  0
ARC
  5
10E
330
39
100
AcDbEntity
  8
1
  6
Continuous
 62
     7
100
AcDbCircle
 10
186.1518861792942
 20
452.7901823463698
 30
0.0
 40
2.999999999998011
100
AcDbArc
 50
-90.00000000001683
 51
-29.44661342136208
  0
ARC
  5
10F
330
39
100
AcDbEntity
  8
1
  6
Continuous
 62
     7
100
AcDbCircle
 10
176.7893140018886
 20
464.7901823405927
 30
0.0
 40
14.9999999942112
100
AcDbArc
 50
-102.3329031005343
 51
-90.0
  0
ARC
  5
110
330
39
100
AcDbEntity
  8
1
  6
Continuous
 62
     7
100
AcDbCircle
 10
182.1377436895426
 20
415.7901823467331
 30
0.0
 40
7.999999999638874
100
AcDbArc
 50
89.99999999933172
 51
109.8105225356459
  0
LINE
  5
111
330
39
100
AcDbEntity
  8
1
  6
Continuous
 62
     7
100
AcDbLine
 10
149.7190919234606
 20
422.7901823463843
 30
0.0
 11
149.7190919234482
 21
422.7901823463984
 31
0.0
  0
ARC
  5
112
330
39
100
AcDbEntity
  8
1
  6
Continuous
 62
     7
100
AcDbCircle
 10
143.6827436896357
 20
417.5401823463843
 30
0.0
 40
7.999999999999938
100
AcDbArc
 50
41.01449966586471
 51
90.0
  0
ARC
  5
113
330
39
100
AcDbEntity
  8
1
  6
Continuous
 62
     7
100
AcDbCircle
 10
162.9058706256548
 20
320.2901823463723
 30
0.0
 40
50.00000000000013
100
AcDbArc
 50
-108.1948723387672
 51
-104.5143030815587
  0
ARC
  5
114
330
39
100
AcDbEntity
  8
1
  6
Continuous
 62
     7
100
AcDbCircle
 10
194.5510097715555
 20
425.5318520971745
 30
0.0
 40
6.645139145900875
100
AcDbArc
 50
145.6157525319621
 51
180.0
  0
ARC
  5
115
330
39
100
AcDbEntity
  8
1
  6
Continuous
 62
     7
100
AcDbCircle
 10
191.2607314797539
 20
425.5318520971745
 30
0.0
 40
6.645139145900837
100
AcDbArc
 50
-34.38424746803868
 51
0.0
  0
ARC
  5
116
330
39
100
AcDbEntity
  8
1
  6
Continuous
 62
     7
100
AcDbCircle
 10
191.260731479753
 20
448.0485125955689
 30
0.0
 40
6.645139145901266
100
AcDbArc
 50
-34.38424746803021
 51
0.0
  0
ARC
  5
117
330
39
100
AcDbEntity
  8
1
  6
Continuous
 62
     7
100
AcDbCircle
 10
194.5510097715564
 20
448.0485125955689
 30
0.0
 40
6.645139145901818
100
AcDbArc
 50
145.6157525319642
 51
180.0
  0
ARC
  5
118
330
39
100
AcDbEntity
  8
1
  6
Continuous
 62
     7
100
AcDbCircle
 10
194.5510097715564
 20
448.0485125955689
 30
0.0
 40
6.645139145901595
100
AcDbArc
 50
180.0
 51
-145.6157525319702
  0
ARC
  5
119
330
39
100
AcDbEntity
  8
1
  6
Continuous
 62
     7
100
AcDbCircle
 10
194.5510097715555
 20
425.5318520971745
 30
0.0
 40
6.645139145900686
100
AcDbArc
 50
180.0
 51
-145.6157525319617
  0
ARC
  5
11A
330
39
100
AcDbEntity
  8
1
  6
Continuous
 62
     7
100
AcDbCircle
 10
212.7447574584531
 20
436.790182346372
 30
0.0
 40
24.83888683279855
100
AcDbArc
 50
162.4120462260069
 51
-162.4120462260069
  0
ARC
  5
11B
330
39
100
AcDbEntity
  8
1
  6
Continuous
 62
     7
100
AcDbCircle
 10
191.2607314797539
 20
425.5318520971745
 30
0.0
 40
6.645139145900913
100
AcDbArc
 50
0.0
 51
34.38424746803828
  0
ARC
  5
11C
330
39
100
AcDbEntity
  8
1
  6
Continuous
 62
     7
100
AcDbCircle
 10
191.260731479753
 20
448.0485125955689
 30
0.0
 40
6.645139145901823
100
AcDbArc
 50
0.0
 51
34.38424746803627
  0
ARC
  5
11D
330
39
100
AcDbEntity
  8
1
  6
Continuous
 62
     7
100
AcDbCircle
 10
173.0669837928563
 20
436.790182346372
 30
0.0
 40
24.83888683279847
100
AcDbArc
 50
-17.58795377399319
 51
17.58795377399319
  0
ARC
  5
11E
330
39
100
AcDbEntity
  8
1
  6
Continuous
 62
     7
100
AcDbCircle
 10
186.1518861792836
 20
420.7901823463593
 30
0.0
 40
3.000000000012524
100
AcDbArc
 50
29.44661342154805
 51
90.0
  0
ARC
  5
11F
330
39
100
AcDbEntity
  8
1
  6
Continuous
 62
     7
100
AcDbCircle
 10
141.5028965614607
 20
304.0401823463652
 30
0.0
 40
7.999999999990868
100
AcDbArc
 50
-32.05513469262053
 51
-3.00000000000003
  0
ARC
  5
120
330
39
100
AcDbEntity
  8
1
  6
Continuous
 62
     7
100
AcDbCircle
 10
141.5028965614607
 20
304.0401823463652
 30
0.0
 40
7.999999999992895
100
AcDbArc
 50
-90.0
 51
-32.05513469262053
  0
ARC
  5
121
330
39
100
AcDbEntity
  8
1
  6
Continuous
 62
     7
100
AcDbCircle
 10
293.5028965614651
 20
304.0401823463723
 30
0.0
 40
8.000000000001247
100
AcDbArc
 50
-22.27552015977964
 51
-2.99999999999929
  0
ARC
  5
122
330
39
100
AcDbEntity
  8
1
  6
Continuous
 62
     7
100
AcDbCircle
 10
314.9058706256671
 20
284.7901823463723
 30
0.0
 40
14.50000000000013
100
AcDbArc
 50
-56.29155527473125
 51
-3.70844472526962
  0
ARC
  5
123
330
39
100
AcDbEntity
  8
1
  6
Continuous
 62
     7
100
AcDbCircle
 10
301.4452799996952
 20
258.540182346372
 30
0.0
 40
15.00000000000008
100
AcDbArc
 50
68.2348228889844
 51
90.0
  0
ARC
  5
124
330
39
100
AcDbEntity
  8
1
  6
Continuous
 62
     7
100
AcDbCircle
 10
314.9058706256671
 20
284.7901823463723
 30
0.0
 40
14.49999999999911
100
AcDbArc
 50
3.70844472526828
 51
10.34217893694623
  0
ARC
  5
125
330
39
100
AcDbEntity
  8
1
  6
Continuous
 62
     7
100
AcDbCircle
 10
314.9058706256671
 20
284.7901823463723
 30
0.0
 40
13.00000000000024
100
AcDbArc
 50
-126.296781298828
 51
-53.70321870117443
  0
ARC
  5
126
330
39
100
AcDbEntity
  8
1
  6
Continuous
 62
     7
100
AcDbCircle
 10
314.9058706256671
 20
284.7901823463723
 30
0.0
 40
12.99999999999984
100
AcDbArc
 50
-53.70321870117443
 51
53.70321870117369
  0
ARC
  5
127
330
39
100
AcDbEntity
  8
1
  6
Continuous
 62
     7
100
AcDbCircle
 10
314.9058706256671
 20
284.7901823463723
 30
0.0
 40
13.00000000000001
100
AcDbArc
 50
126.2967812988287
 51
-179.9999999999985
  0
ARC
  5
128
330
39
100
AcDbEntity
  8
1
  6
Continuous
 62
     7
100
AcDbCircle
 10
314.9058706256671
 20
284.7901823463723
 30
0.0
 40
13.0
100
AcDbArc
 50
-179.9999999999985
 51
-126.296781298828
  0
ARC
  5
129
330
39
100
AcDbEntity
  8
1
  6
Continuous
 62
     7
100
AcDbCircle
 10
314.9058706256671
 20
284.7901823463723
 30
0.0
 40
12.99999999999961
100
AcDbArc
 50
53.70321870117369
 51
126.2967812988287
  0
ARC
  5
12A
330
39
100
AcDbEntity
  8
1
  6
Continuous
 62
     7
100
AcDbCircle
 10
314.9058706256671
 20
284.7901823463723
 30
0.0
 40
9.299930586467623
100
AcDbArc
 50
167.5812243233303
 51
12.41877567666929
  0
ARC
  5
12B
330
39
100
AcDbEntity
  8
1
  6
Continuous
 62
     7
100
AcDbCircle
 10
314.9058706256671
 20
284.7901823463723
 30
0.0
 40
9.299930586467955
100
AcDbArc
 50
12.41877567666929
 51
167.5812243233303
  0
ARC
  5
12C
330
39
100
AcDbEntity
  8
1
  6
Continuous
 62
     7
100
AcDbCircle
 10
184.2171310761104
 20
305.7901823463723
 30
0.0
 40
8.000000000000439
100
AcDbArc
 50
-95.19535772789659
 51
-90.0
  0
ARC
  5
12D
330
39
100
AcDbEntity
  8
1
  6
Continuous
 62
     7
100
AcDbCircle
 10
184.2171310761104
 20
305.7901823463723
 30
0.0
 40
7.999999999999932
100
AcDbArc
 50
-176.999999999998
 51
-170.4059317731402
  0
CIRCLE
  5
12E
330
39
100
AcDbEntity
  8
1
  6
Continuous
 62
     2
100
AcDbCircle
 10
314.9058706256671
 20
284.7901823463723
 30
0.0
 40
10.5
  0
ARC
  5
12F
330
39
100
AcDbEntity
  8
1
  6
Continuous
 62
     7
100
AcDbCircle
 10
151.1266516362645
 20
274.7901823463723
 30
0.0
 40
3.000000000000054
100
AcDbArc
 50
-104.5143030815571
 51
-90.0
  0
ARC
  5
130
330
39
100
AcDbEntity
  8
1
  6
Continuous
 62
     7
100
AcDbCircle
 10
142.6096271308596
 20
258.5401823463723
 30
0.0
 40
15.00000000000001
100
AcDbArc
 50
71.80512766123314
 51
90.0
  0
ARC
  5
131
330
39
100
AcDbEntity
  8
1
  6
Continuous
 62
     7
100
AcDbCircle
 10
178.3010512930108
 20
304.7901823463723
 30
0.0
 40
2.00000000000046
100
AcDbArc
 50
-170.4059317731423
 51
-90.0
  0
ARC
  5
132
330
39
100
AcDbEntity
  8
1
  6
Continuous
 62
     7
100
AcDbCircle
 10
179.5732082776198
 20
300.7901823463723
 30
0.0
 40
2.00000000000019
100
AcDbArc
 50
4.99999999999932
 51
90.0
  0
ARC
  5
133
330
39
100
AcDbEntity
  8
1
  6
Continuous
 62
     7
100
AcDbCircle
 10
183.6738197335575
 20
299.8148319143844
 30
0.0
 40
2.00000000000003
100
AcDbArc
 50
-174.999999999997
 51
-95.19535772790005
  0
ARC
  5
134
330
39
100
AcDbEntity
  8
1
  6
Continuous
 62
     7
100
AcDbCircle
 10
314.7385329737011
 20
300.7901823463723
 30
0.0
 40
2.0
100
AcDbArc
 50
90.0
 51
175.0000000000003
  0
ARC
  5
135
330
39
100
AcDbEntity
  8
1
  6
Continuous
 62
     7
100
AcDbCircle
 10
315.0732082776313
 20
300.7901823463723
 30
0.0
 40
2.00000000000002
100
AcDbArc
 50
4.99999999999974
 51
90.0
  0
ENDBLK
  5
3B
330
39
100
AcDbEntity
  8
0
100
AcDbBlockEnd
  0
BLOCK
  5
3D
330
3C
100
AcDbEntity
  8
0
100
AcDbBlockBegin
  2
37-1-13
 70
     0
 71
     0
 10
71.10464040888382
 20
213.2944764562276
 30
0.0
  3
37-1-13
  1

  0
LINE
  5
136
330
3C
100
AcDbEntity
  8
1
  6
Continuous
 62
     7
100
AcDbLine
 10
162.9058706256548
 20
449.7901823463725
 30
0.0
 11
169.3284869149873
 21
449.7901823463725
 31
0.0
  0
LINE
  5
137
330
3C
100
AcDbEntity
  8
1
  6
Continuous
 62
     7
100
AcDbLine
 10
156.4832543363222
 20
449.7901823463725
 30
0.0
 11
162.9058706256548
 21
449.7901823463725
 31
0.0
  0
LINE
  5
138
330
3C
100
AcDbEntity
  8
1
  6
Continuous
 62
     7
100
AcDbLine
 10
151.6475403764571
 20
443.2901823463725
 30
0.0
 11
154.8588485211233
 21
448.8523312116942
 31
0.0
  0
LINE
  5
139
330
3C
100
AcDbEntity
  8
1
  6
Continuous
 62
     7
100
AcDbLine
 10
148.4362322317908
 20
437.7280334810508
 30
0.0
 11
151.6475403764571
 21
443.2901823463725
 31
0.0
  0
LINE
  5
13A
330
3C
100
AcDbEntity
  8
1
  6
Continuous
 62
     7
100
AcDbLine
 10
151.6475403764571
 20
430.2901823463726
 30
0.0
 11
148.4362322317908
 21
435.8523312116944
 31
0.0
  0
LINE
  5
13B
330
3C
100
AcDbEntity
  8
1
  6
Continuous
 62
     7
100
AcDbLine
 10
154.8588485211233
 20
424.7280334810508
 30
0.0
 11
151.6475403764571
 21
430.2901823463726
 31
0.0
  0
LINE
  5
13C
330
3C
100
AcDbEntity
  8
1
  6
Continuous
 62
     7
100
AcDbLine
 10
162.9058706256548
 20
423.7901823463726
 30
0.0
 11
156.4832543363222
 21
423.7901823463726
 31
0.0
  0
LINE
  5
13D
330
3C
100
AcDbEntity
  8
1
  6
Continuous
 62
     7
100
AcDbLine
 10
169.3284869149873
 20
423.7901823463726
 30
0.0
 11
162.9058706256548
 21
423.7901823463726
 31
0.0
  0
LINE
  5
13E
330
3C
100
AcDbEntity
  8
1
  6
Continuous
 62
     7
100
AcDbLine
 10
174.1642008748525
 20
430.2901823463726
 30
0.0
 11
170.9528927301862
 21
424.7280334810508
 31
0.0
  0
LINE
  5
13F
330
3C
100
AcDbEntity
  8
1
  6
Continuous
 62
     7
100
AcDbLine
 10
177.3755090195188
 20
435.8523312116944
 30
0.0
 11
174.1642008748525
 21
430.2901823463726
 31
0.0
  0
LINE
  5
140
330
3C
100
AcDbEntity
  8
1
  6
Continuous
 62
     7
100
AcDbLine
 10
170.9528927301862
 20
448.8523312116942
 30
0.0
 11
174.1642008748525
 21
443.2901823463725
 31
0.0
  0
LINE
  5
141
330
3C
100
AcDbEntity
  8
1
  6
Continuous
 62
     7
100
AcDbLine
 10
174.1642008748525
 20
443.2901823463725
 30
0.0
 11
177.3755090195188
 21
437.7280334810508
 31
0.0
  0
LINE
  5
142
330
3C
100
AcDbEntity
  8
1
  6
Continuous
 62
     7
100
AcDbLine
 10
301.9058706256671
 20
317.3249196788684
 30
0.0
 11
301.9058706256671
 21
310.254205464597
 31
0.0
  0
LINE
  5
143
330
3C
100
AcDbEntity
  8
1
  6
Continuous
 62
     7
100
AcDbLine
 10
303.7754659091983
 20
317.3249196788684
 30
0.0
 11
302.3264840520723
 21
317.3249196788684
 31
0.0
  0
LINE
  5
144
330
3C
100
AcDbEntity
  8
1
  6
Continuous
 62
     7
100
AcDbLine
 10
320.9058706256671
 20
324.254205464597
 30
0.0
 11
308.9058706256671
 21
324.254205464597
 31
0.0
  0
LINE
  5
145
330
3C
100
AcDbEntity
  8
1
  6
Continuous
 62
     7
100
AcDbLine
 10
327.485257199262
 20
317.3249196788684
 30
0.0
 11
303.7754659091983
 21
317.3249196788684
 31
0.0
  0
LINE
  5
146
330
3C
100
AcDbEntity
  8
1
  6
Continuous
 62
     7
100
AcDbLine
 10
314.9058706256671
 20
310.254205464597
 30
0.0
 11
301.9058706256671
 21
310.254205464597
 31
0.0
  0
LINE
  5
147
330
3C
100
AcDbEntity
  8
1
  6
Continuous
 62
     7
100
AcDbLine
 10
327.9058706256671
 20
310.254205464597
 30
0.0
 11
314.9058706256671
 21
310.254205464597
 31
0.0
  0
LINE
  5
148
330
3C
100
AcDbEntity
  8
1
  6
Continuous
 62
     7
100
AcDbLine
 10
327.9058706256671
 20
317.3249196788684
 30
0.0
 11
327.9058706256671
 21
310.254205464597
 31
0.0
  0
LINE
  5
149
330
3C
100
AcDbEntity
  8
1
  6
Continuous
 62
     7
100
AcDbLine
 10
163.5279963559858
 20
310.2901823463723
 30
0.0
 11
149.8351564113835
 21
310.2901823463723
 31
0.0
  0
LINE
  5
14A
330
3C
100
AcDbEntity
  8
1
  6
Continuous
 62
     7
100
AcDbLine
 10
175.9765848399264
 20
310.2901823463723
 30
0.0
 11
162.2837448953235
 21
310.2901823463723
 31
0.0
  0
LINE
  5
14B
330
3C
100
AcDbEntity
  8
1
  6
Continuous
 62
     7
100
AcDbLine
 10
150.405870625655
 20
317.7901823463723
 30
0.0
 11
162.9058706256548
 21
317.7901823463723
 31
0.0
  0
LINE
  5
14C
330
3C
100
AcDbEntity
  8
1
  6
Continuous
 62
     7
100
AcDbLine
 10
162.9058706256548
 20
317.7901823463723
 30
0.0
 11
175.4058706256547
 21
317.7901823463723
 31
0.0
  0
LINE
  5
14D
330
3C
100
AcDbEntity
  8
1
  6
Continuous
 62
     7
100
AcDbLine
 10
168.9058706256548
 20
324.2901823463723
 30
0.0
 11
162.9058706256548
 21
324.2901823463723
 31
0.0
  0
LINE
  5
14E
330
3C
100
AcDbEntity
  8
1
  6
Continuous
 62
     7
100
AcDbLine
 10
162.9058706256548
 20
324.2901823463723
 30
0.0
 11
156.9058706256548
 21
324.2901823463723
 31
0.0
  0
ARC
  5
14F
330
3C
100
AcDbEntity
  8
1
  6
Continuous
 62
     7
100
AcDbCircle
 10
162.9058706256548
 20
436.7901823463726
 30
0.0
 40
14.49999999999986
100
AcDbArc
 50
56.29155527472919
 51
63.70844472527069
  0
ARC
  5
150
330
3C
100
AcDbEntity
  8
1
  6
Continuous
 62
     7
100
AcDbCircle
 10
162.9058706256548
 20
436.7901823463726
 30
0.0
 40
14.49999999999992
100
AcDbArc
 50
116.2915552747297
 51
123.7084447252713
  0
ARC
  5
151
330
3C
100
AcDbEntity
  8
1
  6
Continuous
 62
     7
100
AcDbCircle
 10
162.9058706256548
 20
436.7901823463726
 30
0.0
 40
12.99999999999989
100
AcDbArc
 50
90.0
 51
150.0000000000005
  0
ARC
  5
152
330
3C
100
AcDbEntity
  8
1
  6
Continuous
 62
     7
100
AcDbCircle
 10
162.9058706256548
 20
436.7901823463726
 30
0.0
 40
14.50000000000003
100
AcDbArc
 50
176.2915552747297
 51
180.0
  0
ARC
  5
153
330
3C
100
AcDbEntity
  8
1
  6
Continuous
 62
     7
100
AcDbCircle
 10
162.9058706256548
 20
436.7901823463726
 30
0.0
 40
14.5
100
AcDbArc
 50
180.0
 51
-176.2915552747295
  0
ARC
  5
154
330
3C
100
AcDbEntity
  8
1
  6
Continuous
 62
     7
100
AcDbCircle
 10
162.9058706256548
 20
436.7901823463726
 30
0.0
 40
12.99999999999995
100
AcDbArc
 50
150.0000000000005
 51
-150.0
  0
ARC
  5
155
330
3C
100
AcDbEntity
  8
1
  6
Continuous
 62
     7
100
AcDbCircle
 10
162.9058706256548
 20
436.7901823463726
 30
0.0
 40
14.50000000000013
100
AcDbArc
 50
-123.7084447252708
 51
-116.2915552747295
  0
ARC
  5
156
330
3C
100
AcDbEntity
  8
1
  6
Continuous
 62
     7
100
AcDbCircle
 10
162.9058706256548
 20
436.7901823463726
 30
0.0
 40
13.00000000000001
100
AcDbArc
 50
-150.0
 51
-90.0
  0
ARC
  5
157
330
3C
100
AcDbEntity
  8
1
  6
Continuous
 62
     7
100
AcDbCircle
 10
162.9058706256548
 20
436.7901823463726
 30
0.0
 40
14.49999999999997
100
AcDbArc
 50
-63.70844472527088
 51
-56.29155527472969
  0
ARC
  5
158
330
3C
100
AcDbEntity
  8
1
  6
Continuous
 62
     7
100
AcDbCircle
 10
162.9058706256548
 20
436.7901823463726
 30
0.0
 40
13.0
100
AcDbArc
 50
-90.0
 51
-30.00000000000004
  0
ARC
  5
159
330
3C
100
AcDbEntity
  8
1
  6
Continuous
 62
     7
100
AcDbCircle
 10
162.9058706256548
 20
436.7901823463726
 30
0.0
 40
14.5
100
AcDbArc
 50
-3.70844472527053
 51
0.0
  0
ARC
  5
15A
330
3C
100
AcDbEntity
  8
1
  6
Continuous
 62
     7
100
AcDbCircle
 10
162.9058706256548
 20
436.7901823463726
 30
0.0
 40
14.5
100
AcDbArc
 50
0.0
 51
3.7084447252703
  0
ARC
  5
15B
330
3C
100
AcDbEntity
  8
1
  6
Continuous
 62
     7
100
AcDbCircle
 10
162.9058706256548
 20
436.7901823463726
 30
0.0
 40
12.99999999999998
100
AcDbArc
 50
-30.00000000000004
 51
29.99999999999961
  0
ARC
  5
15C
330
3C
100
AcDbEntity
  8
1
  6
Continuous
 62
     7
100
AcDbCircle
 10
162.9058706256548
 20
436.7901823463726
 30
0.0
 40
12.99999999999993
100
AcDbArc
 50
29.99999999999961
 51
90.0
  0
ARC
  5
15D
330
3C
100
AcDbEntity
  8
1
  6
Continuous
 62
     7
100
AcDbCircle
 10
305.4058706256671
 20
313.754205464597
 30
0.0
 40
4.999999999999863
100
AcDbArc
 50
126.869897645842
 51
134.427004000806
  0
ARC
  5
15E
330
3C
100
AcDbEntity
  8
1
  6
Continuous
 62
     7
100
AcDbCircle
 10
288.9994154205522
 20
337.660660669712
 30
0.0
 40
24.00000000000015
100
AcDbArc
 50
-56.04080749990224
 51
-33.95919250009769
  0
ARC
  5
15F
330
3C
100
AcDbEntity
  8
1
  6
Continuous
 62
     7
100
AcDbCircle
 10
324.4058706256671
 20
313.754205464597
 30
0.0
 40
4.999999999999975
100
AcDbArc
 50
45.57299599919402
 51
53.13010235415598
  0
ARC
  5
160
330
3C
100
AcDbEntity
  8
1
  6
Continuous
 62
     7
100
AcDbCircle
 10
340.8123258307821
 20
337.660660669712
 30
0.0
 40
24.00000000000008
100
AcDbArc
 50
-146.0408074999025
 51
-123.9591925000975
  0
ARC
  5
161
330
3C
100
AcDbEntity
  8
1
  6
Continuous
 62
     7
100
AcDbCircle
 10
153.4058706256548
 20
313.7901823463723
 30
0.0
 40
4.999999999999881
100
AcDbArc
 50
126.8698976458422
 51
-135.5729959991934
  0
ARC
  5
162
330
3C
100
AcDbEntity
  8
1
  6
Continuous
 62
     7
100
AcDbCircle
 10
172.4058706256548
 20
313.7901823463723
 30
0.0
 40
5.000000000000117
100
AcDbArc
 50
-44.42700400080438
 51
53.13010235415703
  0
ARC
  5
163
330
3C
100
AcDbEntity
  8
1
  6
Continuous
 62
     7
100
AcDbCircle
 10
188.8123258307698
 20
337.6966375514868
 30
0.0
 40
23.99999999999979
100
AcDbArc
 50
-146.0408074999035
 51
-123.9591925000984
  0
ARC
  5
164
330
3C
100
AcDbEntity
  8
1
  6
Continuous
 62
     7
100
AcDbCircle
 10
136.99941542054
 20
337.696637551487
 30
0.0
 40
23.99999999999986
100
AcDbArc
 50
-56.04080749990203
 51
-33.9591925000972
  0
CIRCLE
  5
165
330
3C
100
AcDbEntity
  8
1
  6
Continuous
 62
     7
100
AcDbCircle
 10
162.9058706256548
 20
436.7901823463726
 30
0.0
 40
6.0
  0
CIRCLE
  5
166
330
3C
100
AcDbEntity
  8
1
  6
Continuous
 62
     7
100
AcDbCircle
 10
162.9058706256548
 20
436.7901823463726
 30
0.0
 40
5.0
  0
SPLINE
  5
167
330
3C
100
AcDbEntity
  8
1
  6
Continuous
 62
     7
100
AcDbSpline
210
0.0
220
0.0
230
1.0
 70
    11
 71
     3
 72
    81
 73
    77
 74
    75
 42
0.0000000001
 43
0.0000000001
 44
0.00000001
 40
0.0
 40
0.0
 40
0.0
 40
0.0
 40
0.3171240089507024
 40
0.6340440092135015
 40
0.9694545231652867
 40
1.304528132397496
 40
1.666089109968347
 40
2.027350029540575
 40
2.418688401204364
 40
2.809801279950769
 40
3.230593109137143
 40
3.651230377178778
 40
4.097981219591285
 40
4.544632080585705
 40
5.01150060982437
 40
5.478309845191594
 40
5.957808670976974
 40
6.437279803704262
 40
6.921148025684883
 40
7.405016561529753
 40
7.884588908931497
 40
8.364188643173765
 40
8.830997876835586
 40
9.297866406027048
 40
9.744517267143136
 40
10.19126810629417
 40
10.61190537766689
 40
11.03269723093184
 40
11.42381008629578
 40
11.81514829885118
 40
12.17640936840046
 40
12.5379713444246
 40
12.87304401632514
 40
13.20844847909019
 40
13.52537429940633
 40
13.84253416499271
 40
14.15301689747341
 40
14.46349962995402
 40
14.78065949554034
 40
15.09758531585647
 40
15.43298977862129
 40
15.76806245052131
 40
16.12962442654617
 40
16.49088549609859
 40
16.88222370865069
 40
17.27333656399912
 40
17.69412841727962
 40
18.11476568872549
 40
18.56151652780962
 40
19.00816738862787
 40
19.47503591805565
 40
19.94184515259795
 40
20.42139443260877
 40
20.90091617265608
 40
21.38478455156955
 40
21.86865293048165
 40
22.34817467053365
 40
22.82772395058447
 40
23.29453318507331
 40
23.76140171408798
 40
24.20805257536983
 40
24.6548034177877
 40
25.07544068580711
 40
25.4962325152678
 40
25.88734539380078
 40
26.27868376421294
 40
26.63994468471581
 40
27.0015056670169
 40
27.33657927307842
 40
27.67198977424375
 40
27.98887803040418
 40
28.30596967466977
 40
28.46167943166848
 40
28.61667677528527
 40
28.7717059911532
 40
28.9274480628127
 40
28.9274480628127
 40
28.9274480628127
 40
28.9274480628127
 10
326.9463369563744
 20
314.0994519697331
 30
0.0
 10
326.9277558147436
 20
314.2036875876838
 30
0.0
 10
326.8906054848952
 20
314.4120917678877
 30
0.0
 10
326.7797448341717
 20
314.7171139239084
 30
0.0
 10
326.6327221518518
 20
315.0122648063567
 30
0.0
 10
326.4426431765385
 20
315.299951873545
 30
0.0
 10
326.2175080869982
 20
315.5721846416827
 30
0.0
 10
325.9529180453111
 20
315.8335870553196
 30
0.0
 10
325.6578161916382
 20
316.0757680312943
 30
0.0
 10
325.3270685237904
 20
316.3033873921228
 30
0.0
 10
324.9709377427521
 20
316.5090710557382
 30
0.0
 10
324.5842045743388
 20
316.6964434175784
 30
0.0
 10
324.1774641199983
 20
316.8598876286144
 30
0.0
 10
323.7464753130835
 20
317.001676302537
 30
0.0
 10
323.3010407621257
 20
317.1181029275017
 30
0.0
 10
322.8388221473833
 20
317.2102730735857
 30
0.0
 10
322.3678863356923
 20
317.276140153393
 30
0.0
 10
321.8883580942159
 20
317.3161241265105
 30
0.0
 10
321.4058900337393
 20
317.3293403119528
 30
0.0
 10
320.9233885460558
 20
317.316112117036
 30
0.0
 10
320.443794060966
 20
317.2761087882028
 30
0.0
 10
319.9727940280934
 20
317.2102133895101
 30
0.0
 10
319.5105466689925
 20
317.1180153523866
 30
0.0
 10
319.065117496637
 20
317.0015681323474
 30
0.0
 10
318.6341352531566
 20
316.8597595387017
 30
0.0
 10
318.2274023202913
 20
316.6962965458977
 30
0.0
 10
317.8406779002953
 20
316.5089062964849
 30
0.0
 10
317.4845562997256
 20
316.3032061713143
 30
0.0
 10
317.153820431525
 20
316.0755713818488
 30
0.0
 10
316.8587252047302
 20
315.8333776147044
 30
0.0
 10
316.5941622070562
 20
315.571960592148
 30
0.0
 10
316.3689860481464
 20
315.2997242043541
 30
0.0
 10
316.1791109186142
 20
315.0120036428356
 30
0.0
 10
316.0314144757895
 20
314.7169443483807
 30
0.0
 10
315.9229829809707
 20
314.4115656944768
 30
0.0
 10
315.8588075372452
 20
314.1023321576981
 30
0.0
 10
315.8362555388108
 20
313.7894338771588
 30
0.0
 10
315.858821997219
 20
313.4765366391514
 30
0.0
 10
315.9230117315146
 20
313.1673060684486
 30
0.0
 10
316.0314573387099
 20
312.8619324258259
 30
0.0
 10
316.1791674169799
 20
312.5668799571959
 30
0.0
 10
316.3690558427674
 20
312.2791681707022
 30
0.0
 10
316.5942445823231
 20
312.0069421892856
 30
0.0
 10
316.8588196606006
 20
311.7455373932787
 30
0.0
 10
317.1539260795991
 20
311.5033572636593
 30
0.0
 10
317.484672467178
 20
311.2757377587939
 30
0.0
 10
317.8408035734262
 20
311.0700540913392
 30
0.0
 10
318.2275366527796
 20
310.8826817135391
 30
0.0
 10
318.6342771392182
 20
310.7192375175299
 30
0.0
 10
319.0652659363706
 20
310.5774488418356
 30
0.0
 10
319.5107004892834
 20
310.4610222107452
 30
0.0
 10
319.9729356061432
 20
310.368848800105
 30
0.0
 10
320.4439050508791
 20
310.302978444202
 30
0.0
 10
320.9234673382021
 20
310.2629958747279
 30
0.0
 10
321.4059524177078
 20
310.2497848332745
 30
0.0
 10
321.8884368861779
 20
310.2630181717685
 30
0.0
 10
322.3679973252909
 20
310.3030229032583
 30
0.0
 10
322.8389637253937
 20
310.3689150244749
 30
0.0
 10
323.3011945819662
 20
310.4611097963565
 30
0.0
 10
323.7466237544833
 20
310.5775570099916
 30
0.0
 10
324.1776060001503
 20
310.7193656028255
 30
0.0
 10
324.5843389282957
 20
310.8828286071954
 30
0.0
 10
324.9710633408313
 20
311.0702188530932
 30
0.0
 10
325.3271849640048
 20
311.2759189295366
 30
0.0
 10
325.6579209018585
 20
311.5035537298641
 30
0.0
 10
325.9530158967089
 20
311.7457477891792
 30
0.0
 10
326.2175788570448
 20
312.0071643543882
 30
0.0
 10
326.4427550986915
 20
312.2794006315548
 30
0.0
 10
326.6326341539955
 20
312.5671204019079
 30
0.0
 10
326.7803115771915
 20
312.8621823306313
 30
0.0
 10
326.8887708474162
 20
313.1674939698691
 30
0.0
 10
326.9423305202663
 20
313.4261225694737
 30
0.0
 10
326.9644421939948
 20
313.6343561557792
 30
0.0
 10
326.9697002753109
 20
313.7896222325721
 30
0.0
 10
326.9648583046338
 20
313.9449905984384
 30
0.0
 10
326.9525201729769
 20
314.0478861710628
 30
0.0
 10
326.9463369563744
 20
314.0994519697331
 30
0.0
 11
326.9463369563744
 21
314.0994519697331
 31
0.0
 11
326.8817491155348
 21
314.409929099114
 31
0.0
 11
326.7765405227659
 21
314.708876316151
 31
0.0
 11
326.6267525710242
 21
315.0089826012942
 31
0.0
 11
326.4429061920282
 21
315.2891161989471
 31
0.0
 11
326.2129833874623
 21
315.5681535520785
 31
0.0
 11
325.9564986413327
 21
315.8225646898319
 31
0.0
 11
325.6544582544617
 21
316.0713966126941
 31
0.0
 11
325.3325776806341
 21
316.2935726242563
 31
0.0
 11
324.9685200877212
 21
316.5045888145179
 31
0.0
 11
324.5901435951238
 21
316.6883466473174
 31
0.0
 11
324.1758010012962
 21
316.8553991245111
 31
0.0
 11
323.7516010973008
 21
316.9952255636322
 31
0.0
 11
323.3000000703308
 21
317.1136431975941
 31
0.0
 11
322.8422304739381
 21
317.2050645235667
 31
0.0
 11
322.3673856853519
 21
317.2717094834821
 31
0.0
 11
321.8895741773256
 21
317.3115683584838
 31
0.0
 11
321.40589019113
 21
317.3249196782915
 31
0.0
 11
320.9222061975996
 21
317.3115572539908
 31
0.0
 11
320.4442949682417
 21
317.2716762654621
 31
0.0
 11
319.9693529394488
 21
317.204998125331
 31
0.0
 11
319.5115875669891
 21
317.1135556603121
 31
0.0
 11
319.0599920126977
 21
316.9951171577312
 31
0.0
 11
318.6357985711982
 21
316.855271114081
 31
0.0
 11
318.2214636978746
 21
316.6881994976105
 31
0.0
 11
317.843095697655
 21
316.5044241715253
 31
0.0
 11
317.4790478567862
 21
316.2933911093458
 31
0.0
 11
317.1571775507914
 21
316.0712002640129
 31
0.0
 11
316.8551486637949
 21
315.8223546330974
 31
0.0
 11
316.5986756748446
 21
315.5679314299283
 31
0.0
 11
316.3687657643694
 21
315.2888821590607
 31
0.0
 11
316.1849323325667
 21
315.0087411859664
 31
0.0
 11
316.0351582568021
 21
314.7086347383989
 31
0.0
 11
315.9299634730551
 21
314.4096764920576
 31
0.0
 11
315.8653899425983
 21
314.0991597622295
 31
0.0
 11
315.8437217596396
 21
313.7894340496774
 31
0.0
 11
315.8654042559589
 21
313.4797093388098
 31
0.0
 11
315.9299921362857
 21
313.169195593456
 31
0.0
 11
316.0352007357059
 21
312.8702422088104
 31
0.0
 11
316.1849886801581
 21
312.5701426830871
 31
0.0
 11
316.3688350579458
 21
312.2900102058044
 31
0.0
 11
316.5987578639056
 21
312.0109715600821
 31
0.0
 11
316.8552426102651
 21
311.7565602095903
 31
0.0
 11
317.1572829968661
 21
311.5077285366356
 31
0.0
 11
317.4791635706466
 21
311.2855525661943
 31
0.0
 11
317.8432211636145
 21
311.0745363279812
 31
0.0
 11
318.2215976562385
 21
310.8907784874436
 31
0.0
 11
318.6359402500361
 21
310.7237260190767
 31
0.0
 11
319.0601401539155
 21
310.5838995801664
 31
0.0
 11
319.5117411810109
 21
310.4654819459369
 31
0.0
 11
319.9695107781125
 21
310.3740606277264
 31
0.0
 11
320.4444057272496
 21
310.3074100520126
 31
0.0
 11
320.9222680171659
 21
310.267551162741
 31
0.0
 11
321.4059523155628
 21
310.2542054669329
 31
0.0
 11
321.8896359966977
 21
310.2675735152131
 31
0.0
 11
322.3674964441008
 21
310.3074544879973
 31
0.0
 11
322.8423883125994
 21
310.3741270103076
 31
0.0
 11
323.3001536843522
 21
310.4655694830872
 31
0.0
 11
323.7517492385318
 21
310.5840079853975
 31
0.0
 11
324.1759426801352
 21
310.7238540292618
 31
0.0
 11
324.590277553415
 21
310.8909256545765
 31
0.0
 11
324.9686455536726
 21
311.0747009729083
 31
0.0
 11
325.3326933948771
 21
311.285733987044
 31
0.0
 11
325.6545637005843
 21
311.5079248735769
 31
0.0
 11
325.9565925858173
 21
311.7567707548806
 31
0.0
 11
326.2130655762686
 21
312.0111937449021
 31
0.0
 11
326.4429754958669
 21
312.2902417206927
 31
0.0
 11
326.6268089197621
 21
312.5703838163121
 31
0.0
 11
326.7765829478185
 21
312.8704970363004
 31
0.0
 11
326.8817692359214
 21
313.1694184501997
 31
0.0
 11
326.9463426578067
 21
313.4798655214519
 31
0.0
 11
326.9625998583427
 21
313.6347242695268
 31
0.0
 11
326.968019492274
 21
313.7896268327604
 31
0.0
 11
326.962599283701
 21
313.9445612676406
 31
0.0
 11
326.9463369563744
 21
314.0994519697331
 31
0.0
  0
SPLINE
  5
168
330
3C
100
AcDbEntity
  8
1
  6
Continuous
 62
     7
100
AcDbSpline
210
0.0
220
0.0
230
1.0
 70
    11
 71
     3
 72
    81
 73
    77
 74
    75
 42
0.0000000001
 43
0.0000000001
 44
0.00000001
 40
0.0
 40
0.0
 40
0.0
 40
0.0
 40
0.3171240089507024
 40
0.6340440092135392
 40
0.9694545231652736
 40
1.304528132397514
 40
1.666089109968438
 40
2.027350029540624
 40
2.418688401204413
 40
2.809801279950819
 40
3.230593109137144
 40
3.651230377178728
 40
4.097981219591234
 40
4.544632080585708
 40
5.011500609824427
 40
5.478309845191651
 40
5.957808670976919
 40
6.437279803704263
 40
6.921148025684999
 40
7.405016561529755
 40
7.884588908931499
 40
8.364188643173824
 40
8.830997876835699
 40
9.297866406027053
 40
9.744517267143086
 40
10.19126810629407
 40
10.61190537766679
 40
11.03269723093179
 40
11.42381008629582
 40
11.81514829885117
 40
12.1764093684005
 40
12.53797134442459
 40
12.8730440163251
 40
13.20844847909018
 40
13.52537429940632
 40
13.84253416499269
 40
14.15301689747339
 40
14.46349962995401
 40
14.78065949554033
 40
15.09758531585645
 40
15.43298977862123
 40
15.76806245052127
 40
16.12962442654617
 40
16.49088549609855
 40
16.88222370865069
 40
17.27333656399917
 40
17.69412841727957
 40
18.11476568872549
 40
18.56151652780968
 40
19.00816738862782
 40
19.47503591805566
 40
19.94184515259795
 40
20.42139443260877
 40
20.90091617265603
 40
21.3847845515695
 40
21.86865293048154
 40
22.34817467053359
 40
22.82772395058448
 40
23.29453318507331
 40
23.76140171408798
 40
24.20805257536989
 40
24.6548034177877
 40
25.07544068580717
 40
25.4962325152677
 40
25.88734539380073
 40
26.27868376421294
 40
26.6399446847158
 40
27.00150566701693
 40
27.33657927307846
 40
27.67198977424376
 40
27.98887803040419
 40
28.30596967466978
 40
28.46167943166849
 40
28.61667677528529
 40
28.77170599115321
 40
28.9274480628127
 40
28.9274480628127
 40
28.9274480628127
 40
28.9274480628127
 10
302.8654042949578
 20
314.0994519697331
 30
0.0
 10
302.8839854365884
 20
314.2036875876838
 30
0.0
 10
302.9211357664368
 20
314.4120917678877
 30
0.0
 10
303.0319964171608
 20
314.7171139239084
 30
0.0
 10
303.1790190994802
 20
315.0122648063567
 30
0.0
 10
303.3690980747939
 20
315.2999518735451
 30
0.0
 10
303.5942331643341
 20
315.5721846416826
 30
0.0
 10
303.8588232060213
 20
315.8335870553197
 30
0.0
 10
304.153925059694
 20
316.0757680312943
 30
0.0
 10
304.4846727275419
 20
316.3033873921229
 30
0.0
 10
304.8408035085802
 20
316.5090710557381
 30
0.0
 10
305.2275366769933
 20
316.6964434175784
 30
0.0
 10
305.6342771313339
 20
316.8598876286143
 30
0.0
 10
306.0652659382486
 20
317.001676302537
 30
0.0
 10
306.5107004892068
 20
317.1181029275016
 30
0.0
 10
306.9729191039489
 20
317.2102730735858
 30
0.0
 10
307.44385491564
 20
317.2761401533928
 30
0.0
 10
307.9233831571164
 20
317.3161241265108
 30
0.0
 10
308.405851217593
 20
317.3293403119527
 30
0.0
 10
308.8883527052765
 20
317.316112117036
 30
0.0
 10
309.3679471903663
 20
317.2761087882028
 30
0.0
 10
309.838947223239
 20
317.2102133895101
 30
0.0
 10
310.3011945823397
 20
317.1180153523865
 30
0.0
 10
310.7466237546954
 20
317.0015681323474
 30
0.0
 10
311.1776059981758
 20
316.8597595387017
 30
0.0
 10
311.5843389310409
 20
316.6962965458977
 30
0.0
 10
311.9710633510368
 20
316.508906296485
 30
0.0
 10
312.3271849516066
 20
316.3032061713143
 30
0.0
 10
312.6579208198072
 20
316.0755713818489
 30
0.0
 10
312.953016046602
 20
315.8333776147044
 30
0.0
 10
313.2175790442763
 20
315.571960592148
 30
0.0
 10
313.4427552031857
 20
315.299724204354
 30
0.0
 10
313.632630332718
 20
315.0120036428356
 30
0.0
 10
313.7803267755429
 20
314.7169443483807
 30
0.0
 10
313.8887582703615
 20
314.4115656944769
 30
0.0
 10
313.9529337140871
 20
314.1023321576982
 30
0.0
 10
313.9754857125215
 20
313.7894338771588
 30
0.0
 10
313.9529192541132
 20
313.4765366391513
 30
0.0
 10
313.8887295198177
 20
313.1673060684486
 30
0.0
 10
313.7802839126223
 20
312.8619324258261
 30
0.0
 10
313.6325738343525
 20
312.5668799571957
 30
0.0
 10
313.442685408565
 20
312.2791681707022
 30
0.0
 10
313.2174966690092
 20
312.0069421892857
 30
0.0
 10
312.9529215907317
 20
311.7455373932787
 30
0.0
 10
312.6578151717332
 20
311.5033572636593
 30
0.0
 10
312.3270687841542
 20
311.2757377587939
 30
0.0
 10
311.970937677906
 20
311.0700540913393
 30
0.0
 10
311.5842045985527
 20
310.882681713539
 30
0.0
 10
311.1774641121139
 20
310.71923751753
 30
0.0
 10
310.7464753149617
 20
310.5774488418355
 30
0.0
 10
310.3010407620488
 20
310.4610222107452
 30
0.0
 10
309.8388056451891
 20
310.3688488001049
 30
0.0
 10
309.3678362004532
 20
310.3029784442022
 30
0.0
 10
308.8882739131301
 20
310.2629958747279
 30
0.0
 10
308.4057888336247
 20
310.2497848332745
 30
0.0
 10
307.9233043651543
 20
310.2630181717685
 30
0.0
 10
307.4437439260414
 20
310.3030229032582
 30
0.0
 10
306.9727775259386
 20
310.3689150244749
 30
0.0
 10
306.5105466693659
 20
310.4611097963565
 30
0.0
 10
306.065117496849
 20
310.5775570099916
 30
0.0
 10
305.6341352511819
 20
310.7193656028255
 30
0.0
 10
305.2274023230365
 20
310.8828286071954
 30
0.0
 10
304.8406779105008
 20
311.0702188530931
 30
0.0
 10
304.4845562873276
 20
311.2759189295368
 30
0.0
 10
304.1538203494738
 20
311.503553729864
 30
0.0
 10
303.8587253546234
 20
311.7457477891791
 30
0.0
 10
303.5941623942875
 20
312.0071643543884
 30
0.0
 10
303.3689861526407
 20
312.2794006315547
 30
0.0
 10
303.1791070973368
 20
312.5671204019079
 30
0.0
 10
303.0314296741407
 20
312.8621823306314
 30
0.0
 10
302.9229704039161
 20
313.1674939698692
 30
0.0
 10
302.8694107310662
 20
313.4261225694735
 30
0.0
 10
302.8472990573373
 20
313.6343561557794
 30
0.0
 10
302.8420409760214
 20
313.789622232572
 30
0.0
 10
302.8468829466986
 20
313.9449905984384
 30
0.0
 10
302.8592210783553
 20
314.0478861710629
 30
0.0
 10
302.8654042949578
 20
314.0994519697331
 30
0.0
 11
302.8654042949578
 21
314.0994519697331
 31
0.0
 11
302.9299921357974
 21
314.409929099114
 31
0.0
 11
303.0352007285665
 21
314.708876316151
 31
0.0
 11
303.184988680308
 21
315.0089826012942
 31
0.0
 11
303.3688350593041
 21
315.2891161989471
 31
0.0
 11
303.5987578638701
 21
315.5681535520785
 31
0.0
 11
303.8552426099996
 21
315.8225646898319
 31
0.0
 11
304.1572829968706
 21
316.0713966126941
 31
0.0
 11
304.4791635706982
 21
316.2935726242563
 31
0.0
 11
304.843221163611
 21
316.5045888145179
 31
0.0
 11
305.2215976562084
 21
316.6883466473174
 31
0.0
 11
305.635940250036
 21
316.8553991245111
 31
0.0
 11
306.0601401540315
 21
316.9952255636322
 31
0.0
 11
306.5117411810015
 21
317.1136431975941
 31
0.0
 11
306.9695107773943
 21
317.2050645235667
 31
0.0
 11
307.4443555659803
 21
317.2717094834821
 31
0.0
 11
307.9221670740067
 21
317.3115683584838
 31
0.0
 11
308.4058510602024
 21
317.3249196782915
 31
0.0
 11
308.8895350537326
 21
317.3115572539908
 31
0.0
 11
309.3674462830905
 21
317.2716762654621
 31
0.0
 11
309.8423883118835
 21
317.204998125331
 31
0.0
 11
310.3001536843433
 21
317.1135556603121
 31
0.0
 11
310.7517492386346
 21
316.9951171577312
 31
0.0
 11
311.175942680134
 21
316.855271114081
 31
0.0
 11
311.5902775534576
 21
316.6881994976105
 31
0.0
 11
311.9686455536771
 21
316.5044241715253
 31
0.0
 11
312.332693394546
 21
316.2933911093458
 31
0.0
 11
312.654563700541
 21
316.0712002640129
 31
0.0
 11
312.9565925875374
 21
315.8223546330974
 31
0.0
 11
313.2130655764877
 21
315.5679314299283
 31
0.0
 11
313.4429754869628
 21
315.2888821590607
 31
0.0
 11
313.6268089187655
 21
315.0087411859664
 31
0.0
 11
313.7765829945301
 21
314.7086347383989
 31
0.0
 11
313.8817777782771
 21
314.4096764920576
 31
0.0
 11
313.9463513087339
 21
314.0991597622295
 31
0.0
 11
313.9680194916927
 21
313.7894340496774
 31
0.0
 11
313.9463369953734
 21
313.4797093388098
 31
0.0
 11
313.8817491150466
 21
313.169195593456
 31
0.0
 11
313.7765405156264
 21
312.8702422088104
 31
0.0
 11
313.6267525711743
 21
312.5701426830871
 31
0.0
 11
313.4429061933865
 21
312.2900102058044
 31
0.0
 11
313.2129833874266
 21
312.0109715600821
 31
0.0
 11
312.9564986410672
 21
311.7565602095903
 31
0.0
 11
312.6544582544661
 21
311.5077285366356
 31
0.0
 11
312.3325776806856
 21
311.2855525661943
 31
0.0
 11
311.9685200877178
 21
311.0745363279812
 31
0.0
 11
311.5901435950938
 21
310.8907784874436
 31
0.0
 11
311.1758010012961
 21
310.7237260190767
 31
0.0
 11
310.7516010974168
 21
310.5838995801664
 31
0.0
 11
310.3000000703214
 21
310.4654819459369
 31
0.0
 11
309.8422304732197
 21
310.3740606277264
 31
0.0
 11
309.3673355240827
 21
310.3074100520126
 31
0.0
 11
308.8894732341664
 21
310.267551162741
 31
0.0
 11
308.4057889357695
 21
310.2542054669329
 31
0.0
 11
307.9221052546346
 21
310.2675735152131
 31
0.0
 11
307.4442448072315
 21
310.3074544879973
 31
0.0
 11
306.9693529387329
 21
310.3741270103076
 31
0.0
 11
306.51158756698
 21
310.4655694830872
 31
0.0
 11
306.0599920128004
 21
310.5840079853975
 31
0.0
 11
305.635798571197
 21
310.7238540292618
 31
0.0
 11
305.2214636979172
 21
310.8909256545765
 31
0.0
 11
304.8430956976596
 21
311.0747009729083
 31
0.0
 11
304.4790478564553
 21
311.285733987044
 31
0.0
 11
304.157177550748
 21
311.5079248735769
 31
0.0
 11
303.855148665515
 21
311.7567707548806
 31
0.0
 11
303.5986756750637
 21
312.0111937449021
 31
0.0
 11
303.3687657554653
 21
312.2902417206927
 31
0.0
 11
303.1849323315701
 21
312.5703838163121
 31
0.0
 11
303.0351583035138
 21
312.8704970363004
 31
0.0
 11
302.9299720154109
 21
313.1694184501997
 31
0.0
 11
302.8653985935256
 21
313.4798655214519
 31
0.0
 11
302.8491413929895
 21
313.6347242695268
 31
0.0
 11
302.8437217590582
 21
313.7896268327604
 31
0.0
 11
302.8491419676313
 21
313.9445612676406
 31
0.0
 11
302.8654042949578
 21
314.0994519697331
 31
0.0
  0
SPLINE
  5
169
330
3C
100
AcDbEntity
  8
1
  6
Continuous
 62
     7
100
AcDbSpline
210
0.0
220
0.0
230
1.0
 70
    11
 71
     3
 72
    79
 73
    75
 74
    73
 42
0.0000000001
 43
0.0000000001
 44
0.00000001
 40
0.0
 40
0.0
 40
0.0
 40
0.0
 40
0.3115222814797516
 40
0.6229055186213656
 40
0.9473869443578092
 40
1.271656176656483
 40
1.615030463764081
 40
1.958192129521997
 40
2.323440359617177
 40
2.688513744374196
 40
3.075724702232828
 40
3.462806629992985
 40
3.869605729729321
 40
4.276316852349897
 40
4.698426892140566
 40
5.120482890425473
 40
5.55229619826182
 40
5.98408389961002
 40
6.419209494599667
 40
6.854335089589315
 40
7.286122790937605
 40
7.717936098774036
 40
8.139992097058915
 40
8.562102136849628
 40
8.968813259470178
 40
9.375612359206585
 40
9.76269428696669
 40
10.14990524482535
 40
10.51497862958243
 40
10.88022685967753
 40
11.22338852543537
 40
11.56676281254306
 40
11.8910320448418
 40
12.21551347057817
 40
12.5268967077198
 40
12.8384189891995
 40
13.14526143544308
 40
13.45210388168661
 40
13.7636261631663
 40
14.07500940030796
 40
14.39949082604443
 40
14.7237600583431
 40
15.06713434545076
 40
15.41029601120862
 40
15.77554424130376
 40
16.14061762606082
 40
16.5278285839195
 40
16.91491051167966
 40
17.32170961141599
 40
17.72842073403654
 40
18.1505307738272
 40
18.57258677211211
 40
19.0044000799485
 40
19.43618778129682
 40
19.87131337628646
 40
20.30643897127608
 40
20.73822667262432
 40
21.17003998046066
 40
21.5920959787456
 40
22.01420601853624
 40
22.42091714115684
 40
22.8277162408932
 40
23.21479816865336
 40
23.60200912651204
 40
23.96708251126906
 40
24.33233074136423
 40
24.67549240712211
 40
25.01886669422985
 40
25.34313592652854
 40
25.66761735226479
 40
25.97900058940624
 40
26.29052287088612
 40
26.59736531712976
 40
26.9042077633734
 40
26.9042077633734
 40
26.9042077633734
 40
26.9042077633734
 10
167.8862949846787
 20
314.0957936151474
 30
0.0
 10
167.8697094703437
 20
314.1984413608253
 30
0.0
 10
167.8365458444246
 20
314.4036910365565
 30
0.0
 10
167.7376490427506
 20
314.7048158811361
 30
0.0
 10
167.605867541651
 20
314.9970524509821
 30
0.0
 10
167.4357555677968
 20
315.2814706005942
 30
0.0
 10
167.2334872057676
 20
315.551660230936
 30
0.0
 10
166.9961591512703
 20
315.8104272827246
 30
0.0
 10
166.7306316746451
 20
316.0510321531058
 30
0.0
 10
166.4335871214018
 20
316.2765198823778
 30
0.0
 10
166.1129759148428
 20
316.480877799079
 30
0.0
 10
165.7654148599756
 20
316.6665619441543
 30
0.0
 10
165.3992383601261
 20
316.8289006368332
 30
0.0
 10
165.0117541883953
 20
316.9694385968745
 30
0.0
 10
164.6108189942719
 20
317.0850366096335
 30
0.0
 10
164.195134064408
 20
317.1764082255504
 30
0.0
 10
163.7713149743688
 20
317.2417992528926
 30
0.0
 10
163.3399539211463
 20
317.2814342969307
 30
0.0
 10
162.9058706256566
 20
317.2945732124879
 30
0.0
 10
162.4717873301553
 20
317.2814342969315
 30
0.0
 10
162.0404262769677
 20
317.2417992528892
 30
0.0
 10
161.6166071868011
 20
317.1764082255629
 30
0.0
 10
161.2009222574019
 20
317.0850366095873
 30
0.0
 10
160.7999870615732
 20
316.9694385970439
 30
0.0
 10
160.4125028959847
 20
316.8289006362256
 30
0.0
 10
160.0463263737547
 20
316.6665619463779
 30
0.0
 10
159.698765398556
 20
316.4808777912235
 30
0.0
 10
159.378153903323
 20
316.276519911044
 30
0.0
 10
159.0811103688945
 20
316.0510320528764
 30
0.0
 10
158.8155792117062
 20
315.8104276481421
 30
0.0
 10
158.5782641057658
 20
315.5516589581646
 30
0.0
 10
158.3759489187658
 20
315.2814752518916
 30
0.0
 10
158.206002498689
 20
314.9970361572175
 30
0.0
 10
158.0736185063515
 20
314.7048758116439
 30
0.0
 10
157.9768845415232
 20
314.4034773354257
 30
0.0
 10
157.9194197163166
 20
314.0981296100789
 30
0.0
 10
157.8994690197991
 20
313.7895625717325
 30
0.0
 10
157.9194197163166
 20
313.4809955333863
 30
0.0
 10
157.9768845415232
 20
313.1756478080395
 30
0.0
 10
158.0736185063515
 20
312.8742493318212
 30
0.0
 10
158.206002498689
 20
312.5820889862475
 30
0.0
 10
158.3759489187659
 20
312.2976498915737
 30
0.0
 10
158.5782641057661
 20
312.0274661853005
 30
0.0
 10
158.8155792117062
 20
311.768697495323
 30
0.0
 10
159.0811103688948
 20
311.5280930905889
 30
0.0
 10
159.3781539033232
 20
311.3026052324211
 30
0.0
 10
159.6987653985563
 20
311.0982473522417
 30
0.0
 10
160.0463263737549
 20
310.9125631970871
 30
0.0
 10
160.4125028959849
 20
310.7502245072395
 30
0.0
 10
160.7999870615734
 20
310.6096865464212
 30
0.0
 10
161.2009222574021
 20
310.494088533878
 30
0.0
 10
161.6166071868013
 20
310.4027169179024
 30
0.0
 10
162.0404262769678
 20
310.3373258905762
 30
0.0
 10
162.471787330156
 20
310.2976908465337
 30
0.0
 10
162.905870625655
 20
310.2845519309777
 30
0.0
 10
163.3399539211533
 20
310.2976908465338
 30
0.0
 10
163.7713149743438
 20
310.3373258905765
 30
0.0
 10
164.1951340645012
 20
310.4027169179015
 30
0.0
 10
164.6108189939335
 20
310.4940885338815
 30
0.0
 10
165.0117541896407
 20
310.6096865464093
 30
0.0
 10
165.3992383556669
 20
310.7502245072831
 30
0.0
 10
165.7654148763023
 20
310.9125631969289
 30
0.0
 10
166.1129758571772
 20
311.0982473528015
 30
0.0
 10
166.4335873318424
 20
311.3026052303791
 30
0.0
 10
166.7306309388612
 20
311.5280930977301
 30
0.0
 10
166.9961618338105
 20
311.7686974692874
 30
0.0
 10
167.2334778623315
 20
312.0274662759851
 30
0.0
 10
167.4357897130666
 20
312.2976495601706
 30
0.0
 10
167.6057479288002
 20
312.5820901471736
 30
0.0
 10
167.7380889938179
 20
312.8742450617907
 30
0.0
 10
167.8349770601224
 20
313.1756630341809
 30
0.0
 10
167.8918743928397
 20
313.4809389631277
 30
0.0
 10
167.9139132424763
 20
313.7897701844893
 30
0.0
 10
167.8955010706112
 20
313.993785804928
 30
0.0
 10
167.8862949846787
 20
314.0957936151474
 30
0.0
 11
167.8862949846787
 21
314.0957936151474
 31
0.0
 11
167.8285696664708
 21
314.4019209081092
 31
0.0
 11
167.7340050640154
 21
314.6985975946474
 31
0.0
 11
167.600286510389
 21
314.9942452634425
 31
0.0
 11
167.4345200870007
 21
315.2729422815332
 31
0.0
 11
167.229058905397
 21
315.548063352883
 31
0.0
 11
166.9975342879212
 21
315.8013542535258
 31
0.0
 11
166.7272177224213
 21
316.0469865478277
 31
0.0
 11
166.4367093005093
 21
316.2680825293744
 31
0.0
 11
166.1104462075283
 21
316.4766124314132
 31
0.0
 11
165.7691927577922
 21
316.6593102744264
 31
0.0
 11
165.3974624505893
 21
316.8245437040137
 31
0.0
 11
165.0152004643961
 21
316.96343110868
 31
0.0
 11
164.6096927340933
 21
317.080650417485
 31
0.0
 11
164.1975044685804
 21
317.1713813353779
 31
0.0
 11
163.7707689564462
 21
317.2374081140983
 31
0.0
 11
163.34079464698
 21
317.2769392693381
 31
0.0
 11
162.9058706256547
 21
317.2901823463723
 31
0.0
 11
162.4709466043294
 21
317.276939269338
 31
0.0
 11
162.0409722948631
 21
317.2374081140982
 31
0.0
 11
161.6142367827289
 21
317.1713813353778
 31
0.0
 11
161.202048517216
 21
317.0806504174848
 31
0.0
 11
160.7965407869131
 21
316.9634311086798
 31
0.0
 11
160.4142788007199
 21
316.8245437040135
 31
0.0
 11
160.0425484935171
 21
316.6593102744261
 31
0.0
 11
159.7012950437809
 21
316.476612431413
 31
0.0
 11
159.3750319508
 21
316.2680825293742
 31
0.0
 11
159.0845235288879
 21
316.0469865478273
 31
0.0
 11
158.8142069633881
 21
315.8013542535255
 31
0.0
 11
158.5826823459125
 21
315.5480633528827
 31
0.0
 11
158.3772211643087
 21
315.2729422815328
 31
0.0
 11
158.2114547409204
 21
314.9942452634421
 31
0.0
 11
158.077736187294
 21
314.698597594647
 31
0.0
 11
157.9831715848387
 21
314.4019209081088
 31
0.0
 11
157.9254462666308
 21
314.095793615147
 31
0.0
 11
157.90608561411
 21
313.7895625717325
 31
0.0
 11
157.9254462666308
 21
313.4833315283181
 31
0.0
 11
157.9831715848387
 21
313.1772042353563
 31
0.0
 11
158.077736187294
 21
312.8805275488181
 31
0.0
 11
158.2114547409204
 21
312.5848798800229
 31
0.0
 11
158.3772211643088
 21
312.3061828619323
 31
0.0
 11
158.5826823459126
 21
312.0310617905825
 31
0.0
 11
158.8142069633883
 21
311.7777708899397
 31
0.0
 11
159.0845235288881
 21
311.5321385956378
 31
0.0
 11
159.3750319508002
 21
311.311042614091
 31
0.0
 11
159.7012950437812
 21
311.1025127120523
 31
0.0
 11
160.0425484935173
 21
310.919814869039
 31
0.0
 11
160.4142788007201
 21
310.7545814394516
 31
0.0
 11
160.7965407869133
 21
310.6156940347854
 31
0.0
 11
161.2020485172161
 21
310.4984747259803
 31
0.0
 11
161.6142367827291
 21
310.4077438080875
 31
0.0
 11
162.0409722948633
 21
310.3417170293671
 31
0.0
 11
162.4709466043296
 21
310.3021858741274
 31
0.0
 11
162.9058706256549
 21
310.2889427970931
 31
0.0
 11
163.3407946469802
 21
310.3021858741274
 31
0.0
 11
163.7707689564464
 21
310.3417170293672
 31
0.0
 11
164.1975044685806
 21
310.4077438080876
 31
0.0
 11
164.6096927340935
 21
310.4984747259805
 31
0.0
 11
165.0152004643963
 21
310.6156940347855
 31
0.0
 11
165.3974624505896
 21
310.7545814394518
 31
0.0
 11
165.7691927577924
 21
310.9198148690392
 31
0.0
 11
166.1104462075285
 21
311.1025127120524
 31
0.0
 11
166.4367093005095
 21
311.3110426140912
 31
0.0
 11
166.7272177224216
 21
311.532138595638
 31
0.0
 11
166.9975342879214
 21
311.7777708899399
 31
0.0
 11
167.229058905397
 21
312.0310617905828
 31
0.0
 11
167.4345200870008
 21
312.3061828619327
 31
0.0
 11
167.6002865103891
 21
312.5848798800234
 31
0.0
 11
167.7340050640155
 21
312.8805275488184
 31
0.0
 11
167.8285696664707
 21
313.1772042353564
 31
0.0
 11
167.8862949846787
 21
313.4833315283183
 31
0.0
 11
167.9056556371995
 21
313.7895625717329
 31
0.0
 11
167.8862949846787
 21
314.0957936151474
 31
0.0
  0
SPLINE
  5
16A
330
3C
100
AcDbEntity
  8
1
  6
Continuous
 62
     7
100
AcDbSpline
210
0.0
220
0.0
230
1.0
 70
    11
 71
     3
 72
    79
 73
    75
 74
    73
 42
0.0000000001
 43
0.0000000001
 44
0.00000001
 40
0.0
 40
0.0
 40
0.0
 40
0.0
 40
0.2811798344945329
 40
0.562345440489692
 40
0.8457584498860346
 40
1.129145793141496
 40
1.415942529537707
 40
1.702706753237203
 40
1.993599187251604
 40
2.28445727529697
 40
2.579645746982371
 40
2.874802390947525
 40
3.173971723183669
 40
3.473114946290134
 40
3.775490344640868
 40
4.077847406210278
 40
4.38229579951748
 40
4.686734775622236
 40
4.991896744208506
 40
5.29705871279472
 40
5.601497688899314
 40
5.905946082206627
 40
6.208303143776099
 40
6.510678542126823
 40
6.809821765233225
 40
7.108991097469354
 40
7.404147741434539
 40
7.699336213119896
 40
7.990194301165282
 40
8.281086735179668
 40
8.567850958879109
 40
8.854647695275295
 40
9.138035038530781
 40
9.421448047927187
 40
9.702613653922402
 40
9.983793488416863
 40
10.26418863369294
 40
10.54458377896898
 40
10.82576361346348
 40
11.10692921945866
 40
11.39034222885507
 40
11.67372957211048
 40
11.96052630850662
 40
12.24729053220613
 40
12.53818296622055
 40
12.829041054266
 40
13.12422952595148
 40
13.41938616991654
 40
13.71855550215255
 40
14.01769872525901
 40
14.3200741236097
 40
14.62243118517922
 40
14.92687957848653
 40
15.23131855459112
 40
15.53648052317728
 40
15.84164249176355
 40
16.14608146786837
 40
16.45052986117557
 40
16.75288692274505
 40
17.05526232109567
 40
17.35440554420218
 40
17.65357487643831
 40
17.9487315204034
 40
18.24391999208885
 40
18.53477808013425
 40
18.82567051414863
 40
19.11243473784808
 40
19.39923147424427
 40
19.68261881749976
 40
19.96603182689611
 40
20.24719743289129
 40
20.52837726738579
 40
20.8087724126619
 40
21.08916755793797
 40
21.08916755793797
 40
21.08916755793797
 40
21.08916755793797
 10
173.8841253544838
 20
317.2767980128244
 30
0.0
 10
173.7910287419306
 20
317.2653447834806
 30
0.0
 10
173.6048402277778
 20
317.2424389043589
 30
0.0
 10
173.3306016559415
 20
317.1743889152386
 30
0.0
 10
173.0628746877393
 20
317.082750207789
 30
0.0
 10
172.8033132853383
 20
316.9651174673808
 30
0.0
 10
172.5545792916296
 20
316.8238738398907
 30
0.0
 10
172.3177646605315
 20
316.6590217047353
 30
0.0
 10
172.095507047106
 20
316.4729114408214
 30
0.0
 10
171.8886515225839
 20
316.2658491216652
 30
0.0
 10
171.6995386867667
 20
316.0406108099751
 30
0.0
 10
171.5288904510585
 20
315.7977024144996
 30
0.0
 10
171.3785740802397
 20
315.5401889046362
 30
0.0
 10
171.2492510288535
 20
315.2688628882473
 30
0.0
 10
171.1422188486255
 20
314.9868607474144
 30
0.0
 10
171.0580719749111
 20
314.6953723086547
 30
0.0
 10
170.9975279203917
 20
314.3973826127404
 30
0.0
 10
170.9610408319905
 20
314.0945640016579
 30
0.0
 10
170.9488139230418
 20
313.7895625717336
 30
0.0
 10
170.9610408319903
 20
313.4845611418037
 30
0.0
 10
170.997527920393
 20
313.1817425307382
 30
0.0
 10
171.0580719749066
 20
312.8837528347619
 30
0.0
 10
171.1422188486428
 20
312.5922643962313
 30
0.0
 10
171.2492510287895
 20
312.3102622545479
 30
0.0
 10
171.3785740804759
 20
312.0389362413005
 30
0.0
 10
171.5288904501818
 20
311.781422719791
 30
0.0
 10
171.6995386899901
 20
311.5385143672226
 30
0.0
 10
171.888651510622
 20
311.3132758966183
 30
0.0
 10
172.0955070910236
 20
311.1062141622418
 30
0.0
 10
172.3177644975098
 20
310.9201017327075
 30
0.0
 10
172.5545798904782
 20
310.7552575705286
 30
0.0
 10
172.8033110602873
 20
310.6139843909173
 30
0.0
 10
173.0628828824852
 20
310.4964606937261
 30
0.0
 10
173.3305711599327
 20
310.4044170873657
 30
0.0
 10
173.6049530414835
 20
310.3378668350131
 30
0.0
 10
173.8834448835705
 20
310.2979568219349
 30
0.0
 10
174.1642008748526
 20
310.2844420823246
 30
0.0
 10
174.4449568661349
 20
310.297956821935
 30
0.0
 10
174.7234487082217
 20
310.3378668350131
 30
0.0
 10
174.9978305897726
 20
310.4044170873659
 30
0.0
 10
175.2655188672201
 20
310.4964606937262
 30
0.0
 10
175.5250906894179
 20
310.6139843909173
 30
0.0
 10
175.773821859227
 20
310.7552575705285
 30
0.0
 10
176.0106372521955
 20
310.9201017327073
 30
0.0
 10
176.2328946586817
 20
311.1062141622418
 30
0.0
 10
176.4397502390833
 20
311.3132758966185
 30
0.0
 10
176.6288630597153
 20
311.5385143672226
 30
0.0
 10
176.7995112995236
 20
311.7814227197912
 30
0.0
 10
176.9498276692294
 20
312.0389362413004
 30
0.0
 10
177.0791507209158
 20
312.310262254548
 30
0.0
 10
177.1861829010625
 20
312.5922643962311
 30
0.0
 10
177.2703297747987
 20
312.8837528347619
 30
0.0
 10
177.3308738293122
 20
313.1817425307381
 30
0.0
 10
177.3673609177151
 20
313.4845611418039
 30
0.0
 10
177.3795878266634
 20
313.7895625717327
 30
0.0
 10
177.367360917715
 20
314.0945640016611
 30
0.0
 10
177.3308738293122
 20
314.3973826127283
 30
0.0
 10
177.2703297747991
 20
314.6953723086999
 30
0.0
 10
177.1861829010611
 20
314.986860747247
 30
0.0
 10
177.0791507209204
 20
315.2688628888694
 30
0.0
 10
176.9498276692124
 20
315.540188902342
 30
0.0
 10
176.7995112995865
 20
315.7977024230167
 30
0.0
 10
176.628863059484
 20
316.0406107786612
 30
0.0
 10
176.4397502399409
 20
316.265849237872
 30
0.0
 10
176.2328946555329
 20
316.4729110141747
 30
0.0
 10
176.0106372638834
 20
316.6590232884437
 30
0.0
 10
175.7738218162922
 20
316.82386802225
 30
0.0
 10
175.5250908489443
 20
316.9651390831036
 30
0.0
 10
175.2655182796927
 20
317.0826705982157
 30
0.0
 10
174.9978327762028
 20
317.1746851750982
 30
0.0
 10
174.7234406199734
 20
317.2413429520059
 30
0.0
 10
174.4449870260423
 20
317.2808526979705
 30
0.0
 10
174.1640886642189
 20
317.2958573458968
 30
0.0
 10
173.9774464577288
 20
317.2831511238486
 30
0.0
 10
173.8841253544838
 20
317.2767980128244
 30
0.0
 11
173.8841253544838
 21
317.2767980128244
 31
0.0
 11
173.6057973349685
 21
317.2368528894788
 31
0.0
 11
173.3325238272503
 21
317.1707039063121
 31
0.0
 11
173.0645173849693
 21
317.0785329738498
 31
0.0
 11
172.8062970714382
 21
316.9617825734338
 31
0.0
 11
172.5569085694021
 21
316.8201572117936
 31
0.0
 11
172.3214639640532
 21
316.6564515069264
 31
0.0
 11
172.0984105251649
 21
316.4697282583286
 31
0.0
 11
171.8927442851795
 21
316.2640590454851
 31
0.0
 11
171.7028917645568
 21
316.0380230876616
 31
0.0
 11
171.5331203647591
 21
315.7965792716557
 31
0.0
 11
171.3822580801046
 21
315.5382328754752
 31
0.0
 11
171.2534592755415
 21
315.2682374387107
 31
0.0
 11
171.1461268589287
 21
314.9855527488674
 31
0.0
 11
171.062199401084
 21
314.6950773204735
 31
0.0
 11
171.0015647989398
 21
314.3967280801357
 31
0.0
 11
170.9651066106825
 21
314.0944800186354
 31
0.0
 11
170.95289278058
 21
313.7895625717326
 31
0.0
 11
170.9651066106826
 21
313.48464512483
 31
0.0
 11
171.0015647989399
 21
313.1823970633298
 31
0.0
 11
171.0621994010841
 21
312.8840478229919
 31
0.0
 11
171.1461268589288
 21
312.5935723945979
 31
0.0
 11
171.2534592755415
 21
312.3108877047546
 31
0.0
 11
171.3822580801046
 21
312.0408922679902
 31
0.0
 11
171.5331203647591
 21
311.7825458718097
 31
0.0
 11
171.7028917645568
 21
311.5411020558037
 31
0.0
 11
171.8927442851795
 21
311.3150660979803
 31
0.0
 11
172.0984105251649
 21
311.1093968851368
 31
0.0
 11
172.3214639640532
 21
310.922673636539
 31
0.0
 11
172.5569085694022
 21
310.7589679316719
 31
0.0
 11
172.8062970714382
 21
310.6173425700317
 31
0.0
 11
173.0645173849693
 21
310.5005921696156
 31
0.0
 11
173.3325238272503
 21
310.4084212371532
 31
0.0
 11
173.6057973349686
 21
310.3422722539865
 31
0.0
 11
173.8841253544838
 21
310.302327130641
 31
0.0
 11
174.1642008748526
 21
310.2889427970931
 31
0.0
 11
174.4442763952214
 21
310.3023271306411
 31
0.0
 11
174.7226044147367
 21
310.3422722539866
 31
0.0
 11
174.9958779224549
 21
310.4084212371533
 31
0.0
 11
175.263884364736
 21
310.5005921696157
 31
0.0
 11
175.522104678267
 21
310.6173425700317
 31
0.0
 11
175.771493180303
 21
310.7589679316719
 31
0.0
 11
176.006937785652
 21
310.922673636539
 31
0.0
 11
176.2299912245404
 21
311.1093968851368
 31
0.0
 11
176.4356574645258
 21
311.3150660979804
 31
0.0
 11
176.6255099851486
 21
311.5411020558039
 31
0.0
 11
176.7952813849462
 21
311.7825458718098
 31
0.0
 11
176.9461436696007
 21
312.0408922679901
 31
0.0
 11
177.0749424741638
 21
312.3108877047546
 31
0.0
 11
177.1822748907766
 21
312.5935723945979
 31
0.0
 11
177.2662023486212
 21
312.8840478229919
 31
0.0
 11
177.3268369507654
 21
313.1823970633298
 31
0.0
 11
177.3632951390227
 21
313.48464512483
 31
0.0
 11
177.3755089691253
 21
313.7895625717326
 31
0.0
 11
177.3632951390227
 21
314.0944800186353
 31
0.0
 11
177.3268369507654
 21
314.3967280801357
 31
0.0
 11
177.2662023486212
 21
314.6950773204735
 31
0.0
 11
177.1822748907765
 21
314.9855527488675
 31
0.0
 11
177.0749424741638
 21
315.2682374387107
 31
0.0
 11
176.9461436696006
 21
315.5382328754752
 31
0.0
 11
176.7952813849461
 21
315.7965792716557
 31
0.0
 11
176.6255099851485
 21
316.0380230876615
 31
0.0
 11
176.4356574645258
 21
316.2640590454851
 31
0.0
 11
176.2299912245403
 21
316.4697282583286
 31
0.0
 11
176.006937785652
 21
316.6564515069264
 31
0.0
 11
175.7714931803031
 21
316.8201572117935
 31
0.0
 11
175.522104678267
 21
316.9617825734337
 31
0.0
 11
175.2638843647359
 21
317.0785329738498
 31
0.0
 11
174.995877922455
 21
317.1707039063122
 31
0.0
 11
174.7226044147367
 21
317.2368528894789
 31
0.0
 11
174.4442763952215
 21
317.2767980128244
 31
0.0
 11
174.1642008748526
 21
317.2901823463724
 31
0.0
 11
173.8841253544838
 21
317.2767980128244
 31
0.0
  0
SPLINE
  5
16B
330
3C
100
AcDbEntity
  8
1
  6
Continuous
 62
     7
100
AcDbSpline
210
0.0
220
0.0
230
1.0
 70
    11
 71
     3
 72
    79
 73
    75
 74
    73
 42
0.0000000001
 43
0.0000000001
 44
0.00000001
 40
0.0
 40
0.0
 40
0.0
 40
0.0
 40
0.2811798344945047
 40
0.562345440489664
 40
0.8457584498860333
 40
1.129145793141495
 40
1.415942529537706
 40
1.702706753237202
 40
1.993599187251624
 40
2.284457275296971
 40
2.57964574698239
 40
2.874802390947528
 40
3.173971723183686
 40
3.473114946290114
 40
3.775490344640838
 40
4.077847406210264
 40
4.382295799517477
 40
4.686734775622237
 40
4.991896744208508
 40
5.297058712794722
 40
5.601497688899316
 40
5.905946082206635
 40
6.208303143776107
 40
6.510678542126842
 40
6.809821765233243
 40
7.108991097469373
 40
7.404147741434557
 40
7.699336213119914
 40
7.99019430116528
 40
8.281086735179622
 40
8.567850958879086
 40
8.854647695275297
 40
9.138035038530807
 40
9.421448047927241
 40
9.702613653922427
 40
9.983793488416888
 40
10.26418863369296
 40
10.54458377896909
 40
10.82576361346356
 40
11.10692921945875
 40
11.39034222885513
 40
11.67372957211056
 40
11.96052630850672
 40
12.24729053220616
 40
12.53818296622056
 40
12.82904105426599
 40
13.12422952595143
 40
13.41938616991654
 40
13.71855550215256
 40
14.017698725259
 40
14.32007412360968
 40
14.62243118517921
 40
14.92687957848654
 40
15.23131855459113
 40
15.53648052317728
 40
15.84164249176355
 40
16.14608146786837
 40
16.45052986117558
 40
16.75288692274506
 40
17.0552623210957
 40
17.35440554420219
 40
17.6535748764383
 40
17.94873152040338
 40
18.24391999208886
 40
18.53477808013425
 40
18.82567051414867
 40
19.11243473784808
 40
19.39923147424424
 40
19.68261881749972
 40
19.9660318268961
 40
20.24719743289132
 40
20.52837726738576
 40
20.80877241266186
 40
21.08916755793796
 40
21.08916755793796
 40
21.08916755793796
 40
21.08916755793796
 10
151.9276158968258
 20
317.2767980128244
 30
0.0
 10
152.0207125093789
 20
317.2653447834805
 30
0.0
 10
152.2069010235318
 20
317.2424389043589
 30
0.0
 10
152.4811395953682
 20
317.1743889152386
 30
0.0
 10
152.7488665635703
 20
317.082750207789
 30
0.0
 10
153.0084279659714
 20
316.9651174673808
 30
0.0
 10
153.2571619596801
 20
316.8238738398906
 30
0.0
 10
153.4939765907782
 20
316.6590217047353
 30
0.0
 10
153.7162342042037
 20
316.4729114408214
 30
0.0
 10
153.9230897287257
 20
316.2658491216652
 30
0.0
 10
154.1122025645429
 20
316.0406108099751
 30
0.0
 10
154.2828508002512
 20
315.7977024144994
 30
0.0
 10
154.43316717107
 20
315.5401889046362
 30
0.0
 10
154.5624902224561
 20
315.2688628882472
 30
0.0
 10
154.669522402684
 20
314.9868607474144
 30
0.0
 10
154.7536692763984
 20
314.6953723086547
 30
0.0
 10
154.814213330918
 20
314.3973826127404
 30
0.0
 10
154.8507004193191
 20
314.0945640016579
 30
0.0
 10
154.8629273282679
 20
313.7895625717335
 30
0.0
 10
154.8507004193195
 20
313.4845611418037
 30
0.0
 10
154.8142133309166
 20
313.1817425307381
 30
0.0
 10
154.7536692764031
 20
312.883752834762
 30
0.0
 10
154.6695224026668
 20
312.5922643962313
 30
0.0
 10
154.5624902225202
 20
312.3102622545479
 30
0.0
 10
154.4331671708337
 20
312.0389362413005
 30
0.0
 10
154.2828508011279
 20
311.781422719791
 30
0.0
 10
154.1122025613196
 20
311.5385143672226
 30
0.0
 10
153.9230897406876
 20
311.3132758966184
 30
0.0
 10
153.7162341602861
 20
311.1062141622417
 30
0.0
 10
153.4939767537999
 20
310.9201017327074
 30
0.0
 10
153.2571613608315
 20
310.7552575705285
 30
0.0
 10
153.0084301910223
 20
310.6139843909173
 30
0.0
 10
152.7488583688246
 20
310.4964606937262
 30
0.0
 10
152.481170091377
 20
310.4044170873658
 30
0.0
 10
152.2067882098261
 20
310.337866835013
 30
0.0
 10
151.9282963677391
 20
310.2979568219349
 30
0.0
 10
151.647540376457
 20
310.2844420823247
 30
0.0
 10
151.3667843851748
 20
310.2979568219349
 30
0.0
 10
151.0882925430878
 20
310.3378668350132
 30
0.0
 10
150.8139106615371
 20
310.4044170873659
 30
0.0
 10
150.5462223840895
 20
310.4964606937262
 30
0.0
 10
150.2866505618918
 20
310.6139843909174
 30
0.0
 10
150.0379193920826
 20
310.7552575705284
 30
0.0
 10
149.8011039991142
 20
310.9201017327074
 30
0.0
 10
149.578846592628
 20
311.1062141622418
 30
0.0
 10
149.3719910122265
 20
311.3132758966185
 30
0.0
 10
149.1828781915945
 20
311.5385143672226
 30
0.0
 10
149.0122299517861
 20
311.781422719791
 30
0.0
 10
148.8619135820803
 20
312.0389362413005
 30
0.0
 10
148.7325905303939
 20
312.3102622545479
 30
0.0
 10
148.6255583502473
 20
312.5922643962311
 30
0.0
 10
148.541411476511
 20
312.883752834762
 30
0.0
 10
148.4808674219973
 20
313.181742530738
 30
0.0
 10
148.4443803335947
 20
313.4845611418039
 30
0.0
 10
148.4321534246462
 20
313.7895625717326
 30
0.0
 10
148.4443803335946
 20
314.0945640016612
 30
0.0
 10
148.4808674219973
 20
314.3973826127282
 30
0.0
 10
148.5414114765107
 20
314.6953723087
 30
0.0
 10
148.6255583502484
 20
314.986860747247
 30
0.0
 10
148.7325905303894
 20
315.2688628888693
 30
0.0
 10
148.8619135820972
 20
315.540188902342
 30
0.0
 10
149.0122299517232
 20
315.7977024230166
 30
0.0
 10
149.1828781918256
 20
316.0406107786612
 30
0.0
 10
149.3719910113688
 20
316.265849237872
 30
0.0
 10
149.5788465957767
 20
316.4729110141747
 30
0.0
 10
149.8011039874262
 20
316.6590232884437
 30
0.0
 10
150.0379194350175
 20
316.8238680222499
 30
0.0
 10
150.2866504023653
 20
316.9651390831035
 30
0.0
 10
150.5462229716169
 20
317.0826705982157
 30
0.0
 10
150.8139084751068
 20
317.1746851750983
 30
0.0
 10
151.0883006313362
 20
317.2413429520058
 30
0.0
 10
151.3667542252672
 20
317.2808526979704
 30
0.0
 10
151.6476525870907
 20
317.2958573458968
 30
0.0
 10
151.8342947935808
 20
317.2831511238486
 30
0.0
 10
151.9276158968258
 20
317.2767980128244
 30
0.0
 11
151.9276158968258
 21
317.2767980128244
 31
0.0
 11
152.2059439163411
 21
317.2368528894788
 31
0.0
 11
152.4792174240593
 21
317.1707039063121
 31
0.0
 11
152.7472238663403
 21
317.0785329738498
 31
0.0
 11
153.0054441798714
 21
316.9617825734338
 31
0.0
 11
153.2548326819075
 21
316.8201572117936
 31
0.0
 11
153.4902772872565
 21
316.6564515069264
 31
0.0
 11
153.7133307261448
 21
316.4697282583286
 31
0.0
 11
153.9189969661301
 21
316.2640590454851
 31
0.0
 11
154.1088494867529
 21
316.0380230876616
 31
0.0
 11
154.2786208865505
 21
315.7965792716557
 31
0.0
 11
154.4294831712051
 21
315.5382328754752
 31
0.0
 11
154.5582819757681
 21
315.2682374387107
 31
0.0
 11
154.6656143923809
 21
314.9855527488674
 31
0.0
 11
154.7495418502256
 21
314.6950773204735
 31
0.0
 11
154.8101764523699
 21
314.3967280801357
 31
0.0
 11
154.8466346406271
 21
314.0944800186354
 31
0.0
 11
154.8588484707297
 21
313.7895625717326
 31
0.0
 11
154.8466346406271
 21
313.48464512483
 31
0.0
 11
154.8101764523698
 21
313.1823970633298
 31
0.0
 11
154.7495418502256
 21
312.8840478229919
 31
0.0
 11
154.6656143923809
 21
312.5935723945979
 31
0.0
 11
154.5582819757681
 21
312.3108877047546
 31
0.0
 11
154.4294831712051
 21
312.0408922679902
 31
0.0
 11
154.2786208865505
 21
311.7825458718097
 31
0.0
 11
154.1088494867529
 21
311.5411020558037
 31
0.0
 11
153.9189969661302
 21
311.3150660979803
 31
0.0
 11
153.7133307261448
 21
311.1093968851368
 31
0.0
 11
153.4902772872565
 21
310.922673636539
 31
0.0
 11
153.2548326819075
 21
310.7589679316719
 31
0.0
 11
153.0054441798715
 21
310.6173425700317
 31
0.0
 11
152.7472238663404
 21
310.5005921696156
 31
0.0
 11
152.4792174240593
 21
310.4084212371532
 31
0.0
 11
152.205943916341
 21
310.3422722539865
 31
0.0
 11
151.9276158968258
 21
310.302327130641
 31
0.0
 11
151.647540376457
 21
310.2889427970931
 31
0.0
 11
151.3674648560881
 21
310.3023271306411
 31
0.0
 11
151.089136836573
 21
310.3422722539866
 31
0.0
 11
150.8158633288547
 21
310.4084212371533
 31
0.0
 11
150.5478568865737
 21
310.5005921696157
 31
0.0
 11
150.2896365730426
 21
310.6173425700317
 31
0.0
 11
150.0402480710065
 21
310.7589679316719
 31
0.0
 11
149.8048034656576
 21
310.922673636539
 31
0.0
 11
149.5817500267693
 21
311.1093968851368
 31
0.0
 11
149.3760837867839
 21
311.3150660979804
 31
0.0
 11
149.1862312661612
 21
311.5411020558039
 31
0.0
 11
149.0164598663635
 21
311.7825458718098
 31
0.0
 11
148.865597581709
 21
312.0408922679901
 31
0.0
 11
148.736798777146
 21
312.3108877047546
 31
0.0
 11
148.6294663605332
 21
312.5935723945979
 31
0.0
 11
148.5455389026885
 21
312.8840478229919
 31
0.0
 11
148.4849043005442
 21
313.1823970633298
 31
0.0
 11
148.4484461122869
 21
313.48464512483
 31
0.0
 11
148.4362322821844
 21
313.7895625717326
 31
0.0
 11
148.4484461122869
 21
314.0944800186353
 31
0.0
 11
148.4849043005442
 21
314.3967280801357
 31
0.0
 11
148.5455389026884
 21
314.6950773204735
 31
0.0
 11
148.6294663605331
 21
314.9855527488675
 31
0.0
 11
148.736798777146
 21
315.2682374387107
 31
0.0
 11
148.865597581709
 21
315.5382328754752
 31
0.0
 11
149.0164598663635
 21
315.7965792716557
 31
0.0
 11
149.1862312661611
 21
316.0380230876615
 31
0.0
 11
149.3760837867839
 21
316.2640590454851
 31
0.0
 11
149.5817500267693
 21
316.4697282583286
 31
0.0
 11
149.8048034656576
 21
316.6564515069264
 31
0.0
 11
150.0402480710066
 21
316.8201572117935
 31
0.0
 11
150.2896365730426
 21
316.9617825734337
 31
0.0
 11
150.5478568865737
 21
317.0785329738498
 31
0.0
 11
150.8158633288547
 21
317.1707039063122
 31
0.0
 11
151.089136836573
 21
317.2368528894789
 31
0.0
 11
151.3674648560881
 21
317.2767980128244
 31
0.0
 11
151.647540376457
 21
317.2901823463724
 31
0.0
 11
151.9276158968258
 21
317.2767980128244
 31
0.0
  0
ENDBLK
  5
3E
330
3C
100
AcDbEntity
  8
0
100
AcDbBlockEnd
  0
BLOCK
  5
40
330
3F
100
AcDbEntity
  8
0
100
AcDbBlockBegin
  2
32-213
 70
     0
 71
     0
 10
490.9058706256672
 20
190.2901823463721
 30
0.0
  3
32-213
  1

  0
LINE
  5
16C
330
3F
100
AcDbEntity
  8
1
  6
Continuous
 62
     7
100
AcDbLine
 10
173.9058706256548
 20
413.2901823463843
 30
0.0
 11
157.0417870945163
 21
413.2901823463843
 31
0.0
  0
LINE
  5
16D
330
3F
100
AcDbEntity
  8
1
  6
Continuous
 62
     7
100
AcDbLine
 10
174.4058706256548
 20
412.5580092228107
 30
0.0
 11
174.4058706256549
 21
402.0223554699581
 31
0.0
  0
LINE
  5
16E
330
3F
100
AcDbEntity
  8
1
  6
Continuous
 62
     7
100
AcDbLine
 10
151.4058706256548
 20
402.0223554699579
 30
0.0
 11
151.4058706256548
 21
412.5580092228107
 31
0.0
  0
LINE
  5
16F
330
3F
100
AcDbEntity
  8
1
  6
PHANTOM
 62
     4
100
AcDbLine
 10
162.9058706256548
 20
400.2901823463843
 30
0.0
 11
162.9058706256548
 21
401.2901823463843
 31
0.0
  0
LINE
  5
170
330
3F
100
AcDbEntity
  8
1
  6
Continuous
 62
     7
100
AcDbLine
 10
173.9058706256548
 20
401.2901823463843
 30
0.0
 11
162.9058706256548
 21
401.2901823463843
 31
0.0
  0
LINE
  5
171
330
3F
100
AcDbEntity
  8
1
  6
PHANTOM
 62
     4
100
AcDbLine
 10
162.9058706256548
 20
401.2901823463843
 30
0.0
 11
162.9058706256548
 21
414.2901823463843
 31
0.0
  0
LINE
  5
172
330
3F
100
AcDbEntity
  8
1
  6
Continuous
 62
     7
100
AcDbLine
 10
162.9058706256548
 20
401.2901823463843
 30
0.0
 11
151.9058706256548
 21
401.2901823463843
 31
0.0
  0
LINE
  5
173
330
3F
100
AcDbEntity
  8
1
  6
Continuous
 62
     7
100
AcDbLine
 10
168.7699541567933
 20
413.2901823463843
 30
0.0
 11
151.9058706256548
 21
413.2901823463843
 31
0.0
  0
LINE
  5
174
330
3F
100
AcDbEntity
  8
1
  6
Continuous
 62
     7
100
AcDbLine
 10
174.4058706256549
 20
409.2234674686614
 30
0.0
 11
174.4058706256549
 21
402.0223554699581
 31
0.0
  0
LINE
  5
175
330
3F
100
AcDbEntity
  8
1
  6
Continuous
 62
     7
100
AcDbLine
 10
291.405870625667
 20
273.7901823463719
 30
0.0
 11
291.405870625667
 21
295.790182346372
 31
0.0
  0
LINE
  5
176
330
3F
100
AcDbEntity
  8
1
  6
Continuous
 62
     7
100
AcDbLine
 10
279.405870625667
 20
273.7901823463719
 30
0.0
 11
279.405870625667
 21
295.790182346372
 31
0.0
  0
LINE
  5
177
330
3F
100
AcDbEntity
  8
1
  6
DOT_CENTER
 62
     2
100
AcDbLine
 10
162.9058706256549
 20
273.7901823463724
 30
0.0
 11
162.9058706256548
 21
268.7901823463723
 31
0.0
  0
LINE
  5
178
330
3F
100
AcDbEntity
  8
1
  6
PHANTOM
 62
     4
100
AcDbLine
 10
146.9058706256548
 20
284.7901823463723
 30
0.0
 11
178.9058706256548
 21
284.7901823463723
 31
0.0
  0
LINE
  5
179
330
3F
100
AcDbEntity
  8
1
  6
PHANTOM
 62
     4
100
AcDbLine
 10
162.9058706256548
 20
300.7901823463723
 30
0.0
 11
162.9058706256549
 21
273.7901823463724
 31
0.0
  0
LINE
  5
17A
330
3F
100
AcDbEntity
  8
1
  6
Continuous
 62
     7
100
AcDbLine
 10
174.4058706256549
 20
290.8523601728634
 30
0.0
 11
174.4058706256549
 21
278.7280045198813
 31
0.0
  0
LINE
  5
17B
330
3F
100
AcDbEntity
  8
1
  6
Continuous
 62
     7
100
AcDbLine
 10
163.4058706256549
 20
297.780563403139
 30
0.0
 11
173.9058706256549
 21
291.7183855766479
 31
0.0
  0
LINE
  5
17C
330
3F
100
AcDbEntity
  8
1
  6
Continuous
 62
     7
100
AcDbLine
 10
151.9058706256549
 20
291.718385576648
 30
0.0
 11
162.4058706256549
 21
297.780563403139
 31
0.0
  0
LINE
  5
17D
330
3F
100
AcDbEntity
  8
1
  6
Continuous
 62
     7
100
AcDbLine
 10
151.4058706256549
 20
278.7280045198813
 30
0.0
 11
151.4058706256549
 21
290.8523601728634
 31
0.0
  0
LINE
  5
17E
330
3F
100
AcDbEntity
  8
1
  6
Continuous
 62
     7
100
AcDbLine
 10
162.4058706256549
 20
271.7998012896057
 30
0.0
 11
151.9058706256549
 21
277.8619791160968
 31
0.0
  0
LINE
  5
17F
330
3F
100
AcDbEntity
  8
1
  6
Continuous
 62
     7
100
AcDbLine
 10
173.9058706256549
 20
277.8619791160968
 30
0.0
 11
163.4058706256549
 21
271.7998012896057
 31
0.0
  0
ARC
  5
180
330
3F
100
AcDbEntity
  8
1
  6
Continuous
 62
     7
100
AcDbCircle
 10
165.9058706256549
 20
407.2901823463843
 30
0.0
 40
9.999999999999943
100
AcDbArc
 50
31.78833061705202
 51
36.86989764584431
  0
ARC
  5
181
330
3F
100
AcDbEntity
  8
1
  6
Continuous
 62
     7
100
AcDbCircle
 10
165.9058706256549
 20
407.2901823463843
 30
0.0
 40
9.999999999999933
100
AcDbArc
 50
-36.86989764584431
 51
-31.78833061705093
  0
ARC
  5
182
330
3F
100
AcDbEntity
  8
1
  6
Continuous
 62
     7
100
AcDbCircle
 10
159.9058706256547
 20
407.2901823463843
 30
0.0
 40
9.999999999999909
100
AcDbArc
 50
143.1301023541556
 51
148.2116693829479
  0
ARC
  5
183
330
3F
100
AcDbEntity
  8
1
  6
Continuous
 62
     7
100
AcDbCircle
 10
159.9058706256547
 20
407.2901823463843
 30
0.0
 40
9.999999999999918
100
AcDbArc
 50
-148.2116693829479
 51
-143.1301023541556
  0
ARC
  5
184
330
3F
100
AcDbEntity
  8
1
  6
Continuous
 62
     7
100
AcDbCircle
 10
285.405870625667
 20
287.790182346372
 30
0.0
 40
10.0
100
AcDbArc
 50
53.13010235415598
 51
126.869897645844
  0
ARC
  5
185
330
3F
100
AcDbEntity
  8
1
  6
Continuous
 62
     7
100
AcDbCircle
 10
285.405870625667
 20
281.7901823463718
 30
0.0
 40
9.999999999999909
100
AcDbArc
 50
-126.8698976458444
 51
-53.13010235415559
  0
ARC
  5
186
330
3F
100
AcDbEntity
  8
1
  6
Continuous
 62
     7
100
AcDbCircle
 10
162.9058706256548
 20
284.7901823463723
 30
0.0
 40
13.00000000000005
100
AcDbArc
 50
-92.20422750397165
 51
-89.99999999999963
  0
ARC
  5
187
330
3F
100
AcDbEntity
  8
1
  6
Continuous
 62
     7
100
AcDbCircle
 10
162.9058706256548
 20
284.7901823463723
 30
0.0
 40
13.00000000000012
100
AcDbArc
 50
87.79577249602761
 51
89.99999999999963
  0
ARC
  5
188
330
3F
100
AcDbEntity
  8
1
  6
Continuous
 62
     7
100
AcDbCircle
 10
162.9058706256548
 20
284.7901823463723
 30
0.0
 40
12.99999999999994
100
AcDbArc
 50
-89.99999999999963
 51
-87.79577249602761
  0
ARC
  5
189
330
3F
100
AcDbEntity
  8
1
  6
Continuous
 62
     7
100
AcDbCircle
 10
162.9058706256548
 20
284.7901823463723
 30
0.0
 40
12.99999999999989
100
AcDbArc
 50
-152.2042275039722
 51
-147.7957724960277
  0
ARC
  5
18A
330
3F
100
AcDbEntity
  8
1
  6
Continuous
 62
     7
100
AcDbCircle
 10
162.9058706256548
 20
284.7901823463723
 30
0.0
 40
13.00000000000003
100
AcDbArc
 50
147.7957724960271
 51
152.2042275039717
  0
ARC
  5
18B
330
3F
100
AcDbEntity
  8
1
  6
Continuous
 62
     7
100
AcDbCircle
 10
162.9058706256548
 20
284.7901823463723
 30
0.0
 40
13.00000000000006
100
AcDbArc
 50
89.99999999999963
 51
92.20422750397164
  0
ARC
  5
18C
330
3F
100
AcDbEntity
  8
1
  6
Continuous
 62
     7
100
AcDbCircle
 10
162.9058706256548
 20
284.7901823463723
 30
0.0
 40
13.00000000000009
100
AcDbArc
 50
27.79577249602794
 51
32.20422750397212
  0
ARC
  5
18D
330
3F
100
AcDbEntity
  8
1
  6
Continuous
 62
     7
100
AcDbCircle
 10
162.9058706256548
 20
284.7901823463723
 30
0.0
 40
13.00000000000008
100
AcDbArc
 50
-32.2042275039719
 51
-27.7957724960275
  0
CIRCLE
  5
18E
330
3F
100
AcDbEntity
  8
1
  6
Continuous
 62
     7
100
AcDbCircle
 10
162.9058706256548
 20
284.7901823463723
 30
0.0
 40
10.99999999999994
  0
SPLINE
  5
18F
330
3F
100
AcDbEntity
  8
1
  6
Continuous
 62
     7
100
AcDbSpline
210
0.0
220
0.0
230
1.0
 70
    11
 71
     3
 72
    79
 73
    75
 74
    73
 42
0.0000000001
 43
0.0000000001
 44
0.00000001
 40
0.0
 40
0.0
 40
0.0
 40
0.0
 40
0.4580629073445899
 40
0.9161250954497604
 40
1.374321004625591
 40
1.832515564104252
 40
2.290914921249949
 40
2.74931246413466
 40
3.207961104920483
 40
3.66660768841644
 40
4.125521335344313
 40
4.584432931141717
 40
5.043595344343938
 40
5.502755958881752
 40
5.962120941340507
 40
6.421484591837734
 40
6.880981585492476
 40
7.340477871484145
 40
7.800020458108093
 40
8.259563044732042
 40
8.719059330723715
 40
9.178556324378549
 40
9.637919974875976
 40
10.09728495733457
 40
10.55644557187235
 40
11.0156079850746
 40
11.47451958087196
 40
11.93343322779987
 40
12.39207981129574
 40
12.85072845208157
 40
13.30912599496627
 40
13.76752535211205
 40
14.22571991159073
 40
14.6839158207666
 40
15.1419780088717
 40
15.60004091621631
 40
16.05805737367897
 40
16.51607383114158
 40
16.97413673848614
 40
17.43219892659123
 40
17.89039483576708
 40
18.34858939524578
 40
18.80698875239155
 40
19.2653862952763
 40
19.7240349360622
 40
20.18268151955809
 40
20.64159516648588
 40
21.10050676228324
 40
21.55966917548551
 40
22.01882979002336
 40
22.4781947724821
 40
22.9375584229794
 40
23.39705541663413
 40
23.85655170262586
 40
24.31609428924975
 40
24.77563687587371
 40
25.23513316186538
 40
25.69463015552016
 40
26.15399380601746
 40
26.61335878847607
 40
27.07251940301375
 40
27.53168181621607
 40
27.99059341201352
 40
28.44950705894131
 40
28.90815364243727
 40
29.36680228322318
 40
29.82519982610796
 40
30.28359918325365
 40
30.74179374273229
 40
31.19998965190806
 40
31.65805184001313
 40
32.11611474735774
 40
32.57413120482044
 40
33.03214766228308
 40
33.03214766228308
 40
33.03214766228308
 40
33.03214766228308
 10
156.6982948039154
 20
402.0424413522156
 30
0.0
 10
156.5464778051147
 20
402.0596247689223
 30
0.0
 10
156.2428440458929
 20
402.0939915753548
 30
0.0
 10
155.7953202568325
 20
402.195963873499
 30
0.0
 10
155.3578646798312
 20
402.3336276931673
 30
0.0
 10
154.9342182300836
 20
402.5100084643971
 30
0.0
 10
154.5273986096689
 20
402.7223419661234
 30
0.0
 10
154.1406765212155
 20
402.9697126873838
 30
0.0
 10
153.7768065828604
 20
403.2497375205674
 30
0.0
 10
153.4387729246544
 20
403.5607161693957
 30
0.0
 10
153.1289013267862
 20
403.8998825060485
 30
0.0
 10
152.8498264843458
 20
404.2650247382081
 30
0.0
 10
152.6033627952206
 20
404.6530230876562
 30
0.0
 10
152.3917223874867
 20
405.0612309874139
 30
0.0
 10
152.2161498262819
 20
405.4862735469849
 30
0.0
 10
152.078369011766
 20
405.9251425239139
 30
0.0
 10
151.9790183202351
 20
406.3743186024433
 30
0.0
 10
151.9192780713862
 20
406.8305152935278
 30
0.0
 10
151.8991665650596
 20
407.2901823463831
 30
0.0
 10
151.9192780713859
 20
407.7498493992458
 30
0.0
 10
151.9790183202367
 20
408.2060460903078
 30
0.0
 10
152.0783690117603
 20
408.6552221689204
 30
0.0
 10
152.2161498263032
 20
409.0940911455397
 30
0.0
 10
152.3917223874067
 20
409.5191337062664
 30
0.0
 10
152.6033627955191
 20
409.9273416017128
 30
0.0
 10
152.849826483232
 20
410.3153399672464
 30
0.0
 10
153.12890133094
 20
410.6804821394051
 30
0.0
 10
153.4387729091554
 20
411.0196486999158
 30
0.0
 10
153.7768066406663
 20
411.3306265137597
 30
0.0
 10
154.1406763055266
 20
411.6106544622129
 30
0.0
 10
154.5273994141432
 20
411.8580135631995
 30
0.0
 10
154.9342152282435
 20
412.0703904211366
 30
0.0
 10
155.3578758773063
 20
412.2466094536229
 30
0.0
 10
155.7952784716784
 20
412.384876777317
 30
0.0
 10
156.2429999398021
 20
412.484597391986
 30
0.0
 10
156.6976976231378
 20
412.5445484880583
 30
0.0
 10
157.1558706256549
 20
412.564739248924
 30
0.0
 10
157.6140436281717
 20
412.5445484880584
 30
0.0
 10
158.0687413115075
 20
412.484597391986
 30
0.0
 10
158.5164627796311
 20
412.3848767773171
 30
0.0
 10
158.9538653740033
 20
412.246609453623
 30
0.0
 10
159.3775260230661
 20
412.0703904211366
 30
0.0
 10
159.7843418371663
 20
411.8580135631995
 30
0.0
 10
160.171064945783
 20
411.6106544622128
 30
0.0
 10
160.5349346106434
 20
411.3306265137597
 30
0.0
 10
160.8729683421542
 20
411.0196486999157
 30
0.0
 10
161.1828399203695
 20
410.6804821394051
 30
0.0
 10
161.4619147680776
 20
410.3153399672465
 30
0.0
 10
161.7083784557904
 20
409.9273416017127
 30
0.0
 10
161.9200188639029
 20
409.5191337062663
 30
0.0
 10
162.0955914250065
 20
409.0940911455396
 30
0.0
 10
162.2333722395493
 20
408.6552221689202
 30
0.0
 10
162.3327229310729
 20
408.2060460903078
 30
0.0
 10
162.3924631799237
 20
407.7498493992455
 30
0.0
 10
162.4125746862499
 20
407.2901823463841
 30
0.0
 10
162.3924631799238
 20
406.8305152935236
 30
0.0
 10
162.3327229310727
 20
406.3743186024595
 30
0.0
 10
162.2333722395498
 20
405.925142523853
 30
0.0
 10
162.0955914250049
 20
405.4862735472116
 30
0.0
 10
161.9200188639087
 20
405.0612309865678
 30
0.0
 10
161.7083784557691
 20
404.6530230908121
 30
0.0
 10
161.4619147681575
 20
404.2650247264331
 30
0.0
 10
161.1828399200714
 20
403.8998825499667
 30
0.0
 10
160.872968343267
 20
403.5607160055275
 30
0.0
 10
160.5349346064934
 20
403.2497381317376
 30
0.0
 10
160.171064961268
 20
402.969710406939
 30
0.0
 10
159.7843417794106
 20
402.7223504716969
 30
0.0
 10
159.3775262385775
 20
402.5099767264368
 30
0.0
 10
158.9538645701018
 20
402.333746082225
 30
0.0
 10
158.5164657795168
 20
402.1955220859546
 30
0.0
 10
158.0687301194009
 20
402.0956398159534
 30
0.0
 10
157.6140853963746
 20
402.0362919696725
 30
0.0
 10
157.1557147620956
 20
402.0138500641206
 30
0.0
 10
156.8507681233087
 20
402.0329109228507
 30
0.0
 10
156.6982948039154
 20
402.0424413522156
 30
0.0
 11
156.6982948039154
 21
402.0424413522156
 31
0.0
 11
156.2441721890351
 21
402.1023936477453
 31
0.0
 11
155.7970484090201
 21
402.2018988914101
 31
0.0
 11
155.3601833194
 21
402.3400740869291
 31
0.0
 11
154.9370947029395
 21
402.515966886547
 31
0.0
 11
154.5307694530849
 21
402.7281690589255
 31
0.0
 11
154.1445649624655
 21
402.9750990059715
 31
0.0
 11
153.7811340195504
 21
403.254878428779
 31
0.0
 11
153.4435397768447
 21
403.5653406903253
 31
0.0
 11
153.1340520999542
 21
403.9041903814711
 31
0.0
 11
152.8553173898035
 21
404.2687542498324
 31
0.0
 11
152.6091790398651
 21
404.6563700833419
 31
0.0
 11
152.3977671254412
 21
405.0639648237182
 31
0.0
 11
152.2224548359058
 21
405.4885608531946
 31
0.0
 11
152.0847873842625
 21
405.9268103667781
 31
0.0
 11
151.9856219493277
 21
406.3754791797036
 31
0.0
 11
151.9258844211795
 21
406.8310757826001
 31
0.0
 11
151.9058706256548
 21
407.2901823463843
 31
0.0
 11
151.9258844211795
 21
407.7492889101685
 31
0.0
 11
151.9856219493278
 21
408.2048855130651
 31
0.0
 11
152.0847873842625
 21
408.6535543259906
 31
0.0
 11
152.2224548359057
 21
409.0918038395744
 31
0.0
 11
152.3977671254412
 21
409.5163998690506
 31
0.0
 11
152.6091790398651
 21
409.9239946094268
 31
0.0
 11
152.8553173898035
 21
410.3116104429364
 31
0.0
 11
153.1340520999541
 21
410.6761743112976
 31
0.0
 11
153.4435397768447
 21
411.0150240024433
 31
0.0
 11
153.7811340195505
 21
411.3254862639894
 31
0.0
 11
154.1445649624656
 21
411.605265686797
 31
0.0
 11
154.5307694530849
 21
411.8521956338432
 31
0.0
 11
154.9370947029395
 21
412.0643978062219
 31
0.0
 11
155.3601833194
 21
412.2402906058399
 31
0.0
 11
155.7970484090201
 21
412.3784658013589
 31
0.0
 11
156.2441721890351
 21
412.4779710450235
 31
0.0
 11
156.6982948039154
 21
412.5379233405531
 31
0.0
 11
157.1558706256548
 21
412.5580092228113
 31
0.0
 11
157.6134464473943
 21
412.5379233405531
 31
0.0
 11
158.0675690622745
 21
412.4779710450237
 31
0.0
 11
158.5146928422895
 21
412.378465801359
 31
0.0
 11
158.9515579319096
 21
412.24029060584
 31
0.0
 11
159.37464654837
 21
412.0643978062219
 31
0.0
 11
159.7809717982246
 21
411.8521956338432
 31
0.0
 11
160.167176288844
 21
411.605265686797
 31
0.0
 11
160.5306072317592
 21
411.3254862639894
 31
0.0
 11
160.8682014744649
 21
411.0150240024433
 31
0.0
 11
161.1776891513554
 21
410.6761743112976
 31
0.0
 11
161.4564238615061
 21
410.3116104429364
 31
0.0
 11
161.7025622114444
 21
409.9239946094268
 31
0.0
 11
161.9139741258684
 21
409.5163998690505
 31
0.0
 11
162.0892864154039
 21
409.0918038395741
 31
0.0
 11
162.2269538670471
 21
408.6535543259905
 31
0.0
 11
162.3261193019818
 21
408.2048855130651
 31
0.0
 11
162.3858568301301
 21
407.7492889101685
 31
0.0
 11
162.4058706256548
 21
407.2901823463843
 31
0.0
 11
162.3858568301301
 21
406.8310757826001
 31
0.0
 11
162.3261193019818
 21
406.3754791797036
 31
0.0
 11
162.2269538670471
 21
405.9268103667781
 31
0.0
 11
162.0892864154039
 21
405.4885608531944
 31
0.0
 11
161.9139741258684
 21
405.0639648237182
 31
0.0
 11
161.7025622114445
 21
404.6563700833421
 31
0.0
 11
161.4564238615061
 21
404.2687542498325
 31
0.0
 11
161.1776891513555
 21
403.9041903814711
 31
0.0
 11
160.868201474465
 21
403.5653406903255
 31
0.0
 11
160.5306072317591
 21
403.2548784287793
 31
0.0
 11
160.167176288844
 21
402.9750990059716
 31
0.0
 11
159.7809717982246
 21
402.7281690589255
 31
0.0
 11
159.37464654837
 21
402.5159668865468
 31
0.0
 11
158.9515579319096
 21
402.340074086929
 31
0.0
 11
158.5146928422896
 21
402.20189889141
 31
0.0
 11
158.0675690622746
 21
402.1023936477453
 31
0.0
 11
157.6134464473943
 21
402.0424413522156
 31
0.0
 11
157.1558706256548
 21
402.0223554699575
 31
0.0
 11
156.6982948039154
 21
402.0424413522156
 31
0.0
  0
SPLINE
  5
190
330
3F
100
AcDbEntity
  8
1
  6
Continuous
 62
     7
100
AcDbSpline
210
0.0
220
0.0
230
1.0
 70
     8
 71
     3
 72
    45
 73
    41
 74
    39
 42
0.0000000001
 43
0.0000000001
 44
0.00000001
 40
0.0
 40
0.0
 40
0.0
 40
0.0
 40
0.2639815460523743
 40
0.5283419841192749
 40
1.054652170762732
 40
1.580985067100835
 40
2.101700160272605
 40
2.622460348438503
 40
3.134495226137511
 40
3.646596368619123
 40
4.147789061289655
 40
4.649065936797218
 40
5.138470095605288
 40
5.627969508813884
 40
6.106046361246516
 40
6.584217829940304
 40
7.052873649570528
 40
7.521607363809339
 40
7.984025556627858
 40
8.446488192993231
 40
8.906737372259109
 40
9.3669865515251
 40
9.829449187890377
 40
10.29186738070876
 40
10.76060109494767
 40
11.2292569145779
 40
11.70742838327178
 40
12.18550523570441
 40
12.67500464891293
 40
13.16440880772099
 40
13.66568568322856
 40
14.16687837589915
 40
14.67897951838072
 40
15.19101439607968
 40
15.71177458424558
 40
16.23248967741733
 40
16.75882257375549
 40
17.28513276039889
 40
17.54949319846381
 40
17.81347474451374
 40
17.81347474451374
 40
17.81347474451374
 40
17.81347474451374
 10
280.1380437492401
 20
284.7901823463764
 30
0.0
 10
280.1390122605892
 20
284.7021825824495
 30
0.0
 10
280.1409506733892
 20
284.5260567487675
 30
0.0
 10
280.161586008633
 20
284.1750033013108
 30
0.0
 10
280.2110796365572
 20
283.7383765616999
 30
0.0
 10
280.3102827353642
 20
283.2228585278053
 30
0.0
 10
280.4481628652243
 20
282.7182401982701
 30
0.0
 10
280.623380993392
 20
282.2303750714389
 30
0.0
 10
280.8353801395854
 20
281.7604782693389
 30
0.0
 10
281.0814861083071
 20
281.314915159239
 30
0.0
 10
281.3613363486767
 20
280.8940276761544
 30
0.0
 10
281.6710581124495
 20
280.5041814319567
 30
0.0
 10
282.0104390435359
 20
280.1451967215609
 30
0.0
 10
282.3746285480665
 20
279.8229033586321
 30
0.0
 10
282.7633526439589
 20
279.5369268282225
 30
0.0
 10
283.1711988934194
 20
279.2921224855807
 30
0.0
 10
283.5974638710616
 20
279.0881059255846
 30
0.0
 10
284.0367214060949
 20
278.9285109788226
 30
0.0
 10
284.4874279625958
 20
278.8129091122124
 30
0.0
 10
284.9447055521599
 20
278.7437039042366
 30
0.0
 10
285.405870625667
 20
278.7201736580209
 30
0.0
 10
285.8670356991739
 20
278.7437039042366
 30
0.0
 10
286.324313288738
 20
278.8129091122125
 30
0.0
 10
286.7750198452389
 20
278.9285109788227
 30
0.0
 10
287.2142773802723
 20
279.0881059255845
 30
0.0
 10
287.6405423579144
 20
279.2921224855808
 30
0.0
 10
288.0483886073752
 20
279.5369268282225
 30
0.0
 10
288.4371127032675
 20
279.8229033586321
 30
0.0
 10
288.8013022077979
 20
280.1451967215609
 30
0.0
 10
289.1406831388844
 20
280.5041814319567
 30
0.0
 10
289.4504049026572
 20
280.8940276761545
 30
0.0
 10
289.7302551430266
 20
281.3149151592392
 30
0.0
 10
289.9763611117486
 20
281.7604782693389
 30
0.0
 10
290.1883602579417
 20
282.230375071439
 30
0.0
 10
290.3635783861096
 20
282.7182401982701
 30
0.0
 10
290.5014585159694
 20
283.2228585278052
 30
0.0
 10
290.6006616147765
 20
283.7383765617
 30
0.0
 10
290.6501552427006
 20
284.17500330131
 30
0.0
 10
290.6707905779444
 20
284.5260567487653
 30
0.0
 10
290.6727289907445
 20
284.7021825824458
 30
0.0
 10
290.6736975020937
 20
284.790182346372
 30
0.0
 11
280.1380437492401
 21
284.7901823463764
 31
0.0
 11
280.1430460556924
 21
284.5262482000703
 31
0.0
 11
280.1580529750497
 21
284.2623140537642
 31
0.0
 11
280.2177815510573
 21
283.7394040139172
 31
0.0
 11
280.3172230179821
 21
283.2225503475632
 31
0.0
 11
280.4546269462423
 21
282.7202910830837
 31
0.0
 11
280.6307817626557
 21
282.2302291949176
 31
0.0
 11
280.8415459642075
 21
281.7635835399239
 31
0.0
 11
281.0893089077059
 21
281.3154082349818
 31
0.0
 11
281.3670424045523
 21
280.8982053827434
 31
0.0
 11
281.679021312422
 21
280.5058437294654
 31
0.0
 11
282.0154767468832
 21
280.1504366793381
 31
0.0
 11
282.382167162875
 21
279.8261716421366
 31
0.0
 11
282.7674748432675
 21
279.5431602143418
 31
0.0
 11
283.1775209025964
 21
279.2971720384031
 31
0.0
 11
283.6004092274453
 21
279.095172677068
 31
0.0
 11
284.0409707142185
 21
278.9351199631383
 31
0.0
 11
284.4889683961509
 21
278.8205395894581
 31
0.0
 11
284.946207848532
 21
278.7512303316331
 31
0.0
 11
285.4058706256669
 21
278.7280045198809
 31
0.0
 11
285.8655334028019
 21
278.7512303316331
 31
0.0
 11
286.3227728551829
 21
278.8205395894582
 31
0.0
 11
286.7707705371153
 21
278.9351199631383
 31
0.0
 11
287.2113320238886
 21
279.095172677068
 31
0.0
 11
287.6342203487375
 21
279.2971720384031
 31
0.0
 11
288.0442664080665
 21
279.5431602143418
 31
0.0
 11
288.4295740884589
 21
279.8261716421366
 31
0.0
 11
288.7962645044507
 21
280.1504366793381
 31
0.0
 11
289.1327199389118
 21
280.5058437294654
 31
0.0
 11
289.4446988467815
 21
280.8982053827434
 31
0.0
 11
289.7224323436279
 21
281.3154082349819
 31
0.0
 11
289.9701952871264
 21
281.7635835399239
 31
0.0
 11
290.1809594886781
 21
282.2302291949176
 31
0.0
 11
290.3571143050915
 21
282.7202910830837
 31
0.0
 11
290.4945182333516
 21
283.2225503475632
 31
0.0
 11
290.5939597002764
 21
283.7394040139172
 31
0.0
 11
290.6536882762841
 21
284.2623140537642
 31
0.0
 11
290.6686951956413
 21
284.5262482000683
 31
0.0
 11
290.6736975020937
 21
284.790182346372
 31
0.0
  0
SPLINE
  5
191
330
3F
100
AcDbEntity
  8
1
  6
Continuous
 62
     7
100
AcDbSpline
210
0.0
220
0.0
230
1.0
 70
    11
 71
     3
 72
    79
 73
    75
 74
    73
 42
0.0000000001
 43
0.0000000001
 44
0.00000001
 40
0.0
 40
0.0
 40
0.0
 40
0.0
 40
0.274625586086433
 40
0.5489296448749529
 40
0.8445351226057145
 40
1.139720930735191
 40
1.464847760107543
 40
1.789634474685686
 40
2.147784125837274
 40
2.505702211207266
 40
2.896040828699687
 40
3.286231079274798
 40
3.70462494671584
 40
4.122927269101383
 40
4.562895988146316
 40
5.002812031778006
 40
5.456315478849962
 40
5.909794870758516
 40
6.36789940017984
 40
6.82600392960128
 40
7.279483321509663
 40
7.732986768581612
 40
8.172902812213236
 40
8.612871531258238
 40
9.031173853643836
 40
9.449567721084877
 40
9.839757971659935
 40
10.23009658915231
 40
10.58801467452238
 40
10.94616432567393
 40
11.27095104025211
 40
11.59607786962443
 40
11.8912636777539
 40
12.18686915548449
 40
12.46117321427295
 40
12.73579880035943
 40
13.00262036940782
 40
13.26944193845615
 40
13.54406752454268
 40
13.81837158333114
 40
14.11397706106178
 40
14.40916286919121
 40
14.73428969856353
 40
15.05907641314171
 40
15.41722606429334
 40
15.77514414966329
 40
16.16548276715571
 40
16.55567301773074
 40
16.97406688517184
 40
17.39236920755738
 40
17.83233792660245
 40
18.27225397023411
 40
18.72575741730599
 40
19.17923680921443
 40
19.63734133863576
 40
20.09544586805714
 40
20.54892525996564
 40
21.00242870703765
 40
21.44234475066939
 40
21.88231346971421
 40
22.30061579209974
 40
22.71900965954084
 40
23.10919991011597
 40
23.49953852760839
 40
23.85745661297842
 40
24.21560626412992
 40
24.54039297870815
 40
24.86551980808054
 40
25.16070561621002
 40
25.45631109394071
 40
25.73061515272915
 40
26.0052407388157
 40
26.27206230786397
 40
26.53888387691231
 40
26.53888387691231
 40
26.53888387691231
 40
26.53888387691231
 10
280.1587320909229
 20
274.5648718910229
 30
0.0
 10
280.1764751195915
 20
274.4748826227623
 30
0.0
 10
280.2119404036711
 20
274.2950094442548
 30
0.0
 10
280.3178168100095
 20
274.0326231080129
 30
0.0
 10
280.457481681638
 20
273.7796732266672
 30
0.0
 10
280.6382509384497
 20
273.5326959818157
 30
0.0
 10
280.8514890735813
 20
273.3000107312467
 30
0.0
 10
281.102505534793
 20
273.0758954740838
 30
0.0
 10
281.3816087710428
 20
272.8690349340135
 30
0.0
 10
281.6950292245987
 20
272.6739925459708
 30
0.0
 10
282.0317526030718
 20
272.4982453322398
 30
0.0
 10
282.3980351885198
 20
272.337718952614
 30
0.0
 10
282.7826749006434
 20
272.1979805431173
 30
0.0
 10
283.1907639808514
 20
272.0765123976371
 30
0.0
 10
283.6121119935626
 20
271.9769195228457
 30
0.0
 10
284.0497094355271
 20
271.8979541006325
 30
0.0
 10
284.4953280252749
 20
271.8415871894555
 30
0.0
 10
284.9492566171226
 20
271.8073232596171
 30
0.0
 10
285.4058706256642
 20
271.7960212223491
 30
0.0
 10
285.8624846342221
 20
271.8073232596157
 30
0.0
 10
286.3164132260217
 20
271.8415871894613
 30
0.0
 10
286.7620318159437
 20
271.8979541006112
 30
0.0
 10
287.1996292572777
 20
271.9769195229226
 30
0.0
 10
287.6209772722887
 20
272.0765123973551
 30
0.0
 10
288.0290663443171
 20
272.1979805441127
 30
0.0
 10
288.4137060859674
 20
272.337718948998
 30
0.0
 10
288.77998856829
 20
272.4982453447291
 30
0.0
 10
289.1167123155184
 20
272.6739925008712
 30
0.0
 10
289.4301315012789
 20
272.8690350869069
 30
0.0
 10
289.709239239237
 20
273.0758949239405
 30
0.0
 10
289.96024037926
 20
273.3000125738304
 30
0.0
 10
290.173532821069
 20
273.5326893432662
 30
0.0
 10
290.3541169880459
 20
273.7796954937987
 30
0.0
 10
290.4944428593786
 20
274.032542146101
 30
0.0
 10
290.5980194291201
 20
274.2952876503279
 30
0.0
 10
290.6590985861368
 20
274.5612849378707
 30
0.0
 10
290.6808917511078
 20
274.8308902028507
 30
0.0
 10
290.6590985861367
 20
275.100495467831
 30
0.0
 10
290.5980194291202
 20
275.3664927553737
 30
0.0
 10
290.4944428593785
 20
275.6292382596007
 30
0.0
 10
290.3541169880459
 20
275.8820849119029
 30
0.0
 10
290.1735328210691
 20
276.1290910624353
 30
0.0
 10
289.96024037926
 20
276.3617678318715
 30
0.0
 10
289.709239239237
 20
276.5858854817609
 30
0.0
 10
289.4301315012789
 20
276.7927453187947
 30
0.0
 10
289.1167123155184
 20
276.9877879048305
 30
0.0
 10
288.7799885682901
 20
277.1635350609724
 30
0.0
 10
288.4137060859673
 20
277.3240614567035
 30
0.0
 10
288.0290663443171
 20
277.4637998615888
 30
0.0
 10
287.6209772722887
 20
277.5852680083465
 30
0.0
 10
287.1996292572776
 20
277.6848608827789
 30
0.0
 10
286.7620318159436
 20
277.7638263050908
 30
0.0
 10
286.316413226022
 20
277.8201932162404
 30
0.0
 10
285.8624846342215
 20
277.8544571460862
 30
0.0
 10
285.4058706256668
 20
277.865759183352
 30
0.0
 10
284.9492566171134
 20
277.8544571460864
 30
0.0
 10
284.4953280253094
 20
277.82019321624
 30
0.0
 10
284.0497094354
 20
277.7638263050922
 30
0.0
 10
283.6121119940213
 20
277.6848608827736
 30
0.0
 10
283.190763979173
 20
277.5852680083666
 30
0.0
 10
282.7826749065659
 20
277.4637998615187
 30
0.0
 10
282.3980351670048
 20
277.3240614569596
 30
0.0
 10
282.0317526773854
 20
277.1635350600889
 30
0.0
 10
281.6950289562486
 20
276.9877879080216
 30
0.0
 10
281.3816096807838
 20
276.7927453079767
 30
0.0
 10
281.1025022613501
 20
276.5858855206873
 30
0.0
 10
280.8515000372555
 20
276.3617677014969
 30
0.0
 10
280.6382114379896
 20
276.1290915321551
 30
0.0
 10
280.4576141747277
 20
275.8820833363615
 30
0.0
 10
280.3173350733358
 20
275.6292439881719
 30
0.0
 10
280.2135957755009
 20
275.3664730705212
 30
0.0
 10
280.1531092064047
 20
275.1005683280794
 30
0.0
 10
280.1291631007923
 20
274.8306268360153
 30
0.0
 10
280.1488757608794
 20
274.653456872687
 30
0.0
 10
280.1587320909229
 20
274.5648718910229
 30
0.0
 11
280.1587320909229
 21
274.5648718910229
 31
0.0
 11
280.2203089726038
 21
274.2972387462598
 31
0.0
 11
280.3199095485958
 21
274.0416561922192
 31
0.0
 11
280.4628622080835
 21
273.7829147467377
 31
0.0
 11
280.6363114666438
 21
273.5440632949399
 31
0.0
 11
280.8553691121328
 21
273.3038109211108
 31
0.0
 11
281.0971541687714
 21
273.0869552171214
 31
0.0
 11
281.3843810890587
 21
272.8730116056667
 31
0.0
 11
281.6879846585466
 21
272.6834588994631
 31
0.0
 11
282.0336969037026
 21
272.502220714041
 31
0.0
 11
282.3909248534532
 21
272.3452601344011
 31
0.0
 11
282.7839889737178
 21
272.2018933820738
 31
0.0
 11
283.1848400912623
 21
272.0823307855962
 31
0.0
 11
283.6129250620154
 21
271.9807643957158
 31
0.0
 11
284.045827157443
 21
271.9025218163939
 31
0.0
 11
284.495716776414
 21
271.8453841996407
 31
0.0
 11
284.9479089343815
 21
271.811240222742
 31
0.0
 11
285.405870625667
 21
271.7998012896053
 31
0.0
 11
285.8638323169525
 21
271.811240222742
 31
0.0
 11
286.3160244749199
 21
271.8453841996407
 31
0.0
 11
286.7659140938909
 21
271.9025218163939
 31
0.0
 11
287.1988161893185
 21
271.9807643957157
 31
0.0
 11
287.6269011600716
 21
272.0823307855962
 31
0.0
 11
288.0277522776162
 21
272.2018933820738
 31
0.0
 11
288.4208163978808
 21
272.3452601344011
 31
0.0
 11
288.7780443476313
 21
272.502220714041
 31
0.0
 11
289.1237565927872
 21
272.6834588994631
 31
0.0
 11
289.4273601622752
 21
272.8730116056668
 31
0.0
 11
289.7145870825625
 21
273.0869552171214
 31
0.0
 11
289.9563721392011
 21
273.3038109211108
 31
0.0
 11
290.1754297846901
 21
273.5440632949399
 31
0.0
 11
290.3488790432504
 21
273.7829147467378
 31
0.0
 11
290.491831702738
 21
274.0416561922191
 31
0.0
 11
290.59143227873
 21
274.2972387462596
 31
0.0
 11
290.6530091604109
 21
274.5648718910227
 31
0.0
 11
290.6736975020937
 21
274.8308902028508
 31
0.0
 11
290.6530091604109
 21
275.0969085146788
 31
0.0
 11
290.59143227873
 21
275.364541659442
 31
0.0
 11
290.491831702738
 21
275.6201242134825
 31
0.0
 11
290.3488790432504
 21
275.8788656589639
 31
0.0
 11
290.1754297846901
 21
276.1177171107617
 31
0.0
 11
289.9563721392012
 21
276.3579694845909
 31
0.0
 11
289.7145870825625
 21
276.5748251885802
 31
0.0
 11
289.4273601622751
 21
276.7887688000349
 31
0.0
 11
289.1237565927873
 21
276.9783215062386
 31
0.0
 11
288.7780443476313
 21
277.1595596916607
 31
0.0
 11
288.4208163978808
 21
277.3165202713005
 31
0.0
 11
288.0277522776161
 21
277.4598870236277
 31
0.0
 11
287.6269011600716
 21
277.5794496201053
 31
0.0
 11
287.1988161893184
 21
277.6810160099859
 31
0.0
 11
286.7659140938908
 21
277.7592585893079
 31
0.0
 11
286.3160244749199
 21
277.816396206061
 31
0.0
 11
285.8638323169525
 21
277.8505401829597
 31
0.0
 11
285.405870625667
 21
277.8619791160964
 31
0.0
 11
284.9479089343815
 21
277.8505401829598
 31
0.0
 11
284.4957167764141
 21
277.8163962060611
 31
0.0
 11
284.045827157443
 21
277.7592585893079
 31
0.0
 11
283.6129250620153
 21
277.681016009986
 31
0.0
 11
283.1848400912623
 21
277.5794496201055
 31
0.0
 11
282.7839889737178
 21
277.459887023628
 31
0.0
 11
282.3909248534532
 21
277.3165202713007
 31
0.0
 11
282.0336969037026
 21
277.1595596916608
 31
0.0
 11
281.6879846585466
 21
276.9783215062387
 31
0.0
 11
281.3843810890587
 21
276.788768800035
 31
0.0
 11
281.0971541687715
 21
276.5748251885804
 31
0.0
 11
280.8553691121328
 21
276.3579694845909
 31
0.0
 11
280.6363114666438
 21
276.1177171107618
 31
0.0
 11
280.4628622080835
 21
275.8788656589639
 31
0.0
 11
280.3199095485958
 21
275.6201242134825
 31
0.0
 11
280.2203089726038
 21
275.364541659442
 31
0.0
 11
280.1587320909229
 21
275.0969085146788
 31
0.0
 11
280.1380437492401
 21
274.8308902028509
 31
0.0
 11
280.1587320909229
 21
274.5648718910229
 31
0.0
  0
SPLINE
  5
192
330
3F
100
AcDbEntity
  8
1
  6
Continuous
 62
     7
100
AcDbSpline
210
0.0
220
0.0
230
1.0
 70
     8
 71
     3
 72
    45
 73
    41
 74
    39
 42
0.0000000001
 43
0.0000000001
 44
0.00000001
 40
0.0
 40
0.0
 40
0.0
 40
0.0
 40
0.263981546052147
 40
0.5283419841189909
 40
1.054652170762618
 40
1.580985067100777
 40
2.101700160272382
 40
2.622460348438334
 40
3.134495226137497
 40
3.646596368618959
 40
4.147789061289586
 40
4.649065936797061
 40
5.138470095605048
 40
5.627969508813644
 40
6.106046361246309
 40
6.584217829940068
 40
7.052873649570342
 40
7.521607363809152
 40
7.984025556627671
 40
8.446488192993044
 40
8.90673737225892
 40
9.366986551524915
 40
9.829449187890193
 40
10.29186738070857
 40
10.76060109494747
 40
11.22925691457772
 40
11.7074283832716
 40
12.18550523570427
 40
12.67500464891274
 40
13.16440880772073
 40
13.66568568322825
 40
14.16687837589879
 40
14.67897951838046
 40
15.19101439607947
 40
15.71177458424537
 40
16.23248967741696
 40
16.75882257375507
 40
17.28513276039858
 40
17.54949319846355
 40
17.81347474451349
 40
17.81347474451349
 40
17.81347474451349
 40
17.81347474451349
 10
280.1380437492401
 20
284.7901823463677
 30
0.0
 10
280.1390122605892
 20
284.8781821102945
 30
0.0
 10
280.1409506733892
 20
285.0543079439765
 30
0.0
 10
280.161586008633
 20
285.4053613914333
 30
0.0
 10
280.2110796365573
 20
285.8419881310441
 30
0.0
 10
280.3102827353641
 20
286.3575061649387
 30
0.0
 10
280.4481628652243
 20
286.8621244944739
 30
0.0
 10
280.623380993392
 20
287.349989621305
 30
0.0
 10
280.8353801395853
 20
287.819886423405
 30
0.0
 10
281.0814861083072
 20
288.265449533505
 30
0.0
 10
281.3613363486766
 20
288.6863370165895
 30
0.0
 10
281.6710581124495
 20
289.0761832607873
 30
0.0
 10
282.0104390435361
 20
289.435167971183
 30
0.0
 10
282.3746285480665
 20
289.7574613341117
 30
0.0
 10
282.7633526439588
 20
290.0434378645214
 30
0.0
 10
283.1711988934195
 20
290.2882422071631
 30
0.0
 10
283.5974638710615
 20
290.4922587671595
 30
0.0
 10
284.0367214060949
 20
290.6518537139213
 30
0.0
 10
284.4874279625958
 20
290.7674555805317
 30
0.0
 10
284.9447055521599
 20
290.8366607885073
 30
0.0
 10
285.405870625667
 20
290.860191034723
 30
0.0
 10
285.8670356991739
 20
290.8366607885072
 30
0.0
 10
286.324313288738
 20
290.7674555805314
 30
0.0
 10
286.775019845239
 20
290.6518537139212
 30
0.0
 10
287.2142773802723
 20
290.4922587671594
 30
0.0
 10
287.6405423579143
 20
290.2882422071631
 30
0.0
 10
288.0483886073751
 20
290.0434378645214
 30
0.0
 10
288.4371127032674
 20
289.7574613341118
 30
0.0
 10
288.8013022077979
 20
289.4351679711829
 30
0.0
 10
289.1406831388844
 20
289.0761832607873
 30
0.0
 10
289.4504049026572
 20
288.6863370165896
 30
0.0
 10
289.7302551430267
 20
288.2654495335049
 30
0.0
 10
289.9763611117485
 20
287.8198864234049
 30
0.0
 10
290.1883602579418
 20
287.349989621305
 30
0.0
 10
290.3635783861095
 20
286.8621244944739
 30
0.0
 10
290.5014585159695
 20
286.3575061649387
 30
0.0
 10
290.6006616147765
 20
285.8419881310442
 30
0.0
 10
290.6501552427008
 20
285.405361391434
 30
0.0
 10
290.6707905779444
 20
285.0543079439786
 30
0.0
 10
290.6727289907445
 20
284.878182110298
 30
0.0
 10
290.6736975020937
 20
284.790182346372
 30
0.0
 11
280.1380437492401
 21
284.7901823463677
 31
0.0
 11
280.1430460556924
 21
285.0541164926736
 31
0.0
 11
280.1580529750497
 21
285.3180506389797
 31
0.0
 11
280.2177815510573
 21
285.8409606788268
 31
0.0
 11
280.3172230179821
 21
286.3578143451808
 31
0.0
 11
280.4546269462423
 21
286.8600736096602
 31
0.0
 11
280.6307817626557
 21
287.3501354978264
 31
0.0
 11
280.8415459642075
 21
287.8167811528202
 31
0.0
 11
281.0893089077059
 21
288.2649564577622
 31
0.0
 11
281.3670424045523
 21
288.6821593100007
 31
0.0
 11
281.679021312422
 21
289.0745209632785
 31
0.0
 11
282.0154767468832
 21
289.4299280134057
 31
0.0
 11
282.382167162875
 21
289.7541930506072
 31
0.0
 11
282.7674748432675
 21
290.0372044784021
 31
0.0
 11
283.1775209025964
 21
290.2831926543407
 31
0.0
 11
283.6004092274453
 21
290.4851920156759
 31
0.0
 11
284.0409707142185
 21
290.6452447296057
 31
0.0
 11
284.4889683961509
 21
290.7598251032858
 31
0.0
 11
284.946207848532
 21
290.8291343611109
 31
0.0
 11
285.4058706256669
 21
290.852360172863
 31
0.0
 11
285.8655334028019
 21
290.8291343611107
 31
0.0
 11
286.3227728551829
 21
290.7598251032856
 31
0.0
 11
286.7707705371153
 21
290.6452447296056
 31
0.0
 11
287.2113320238886
 21
290.4851920156759
 31
0.0
 11
287.6342203487375
 21
290.2831926543407
 31
0.0
 11
288.0442664080665
 21
290.037204478402
 31
0.0
 11
288.4295740884589
 21
289.7541930506072
 31
0.0
 11
288.7962645044507
 21
289.4299280134057
 31
0.0
 11
289.1327199389118
 21
289.0745209632785
 31
0.0
 11
289.4446988467815
 21
288.6821593100006
 31
0.0
 11
289.7224323436279
 21
288.2649564577622
 31
0.0
 11
289.9701952871264
 21
287.8167811528201
 31
0.0
 11
290.1809594886781
 21
287.3501354978263
 31
0.0
 11
290.3571143050915
 21
286.8600736096602
 31
0.0
 11
290.4945182333516
 21
286.3578143451808
 31
0.0
 11
290.5939597002764
 21
285.8409606788269
 31
0.0
 11
290.6536882762841
 21
285.3180506389799
 31
0.0
 11
290.6686951956413
 21
285.0541164926757
 31
0.0
 11
290.6736975020937
 21
284.790182346372
 31
0.0
  0
SPLINE
  5
193
330
3F
100
AcDbEntity
  8
1
  6
Continuous
 62
     7
100
AcDbSpline
210
0.0
220
0.0
230
1.0
 70
    11
 71
     3
 72
    79
 73
    75
 74
    73
 42
0.0000000001
 43
0.0000000001
 44
0.00000001
 40
0.0
 40
0.0
 40
0.0
 40
0.0
 40
0.2746255860864884
 40
0.5489296448750612
 40
0.8445351226058229
 40
1.139720930735208
 40
1.464847760107518
 40
1.789634474685698
 40
2.14778412583732
 40
2.505702211207312
 40
2.896040828699733
 40
3.286231079274844
 40
3.704624946715886
 40
4.122927269101446
 40
4.562895988146405
 40
5.002812031778074
 40
5.456315478850016
 40
5.90979487075857
 40
6.367899400179894
 40
6.826003929601332
 40
7.279483321509712
 40
7.732986768581654
 40
8.172902812213287
 40
8.612871531258289
 40
9.031173853643903
 40
9.449567721084945
 40
9.83975797165998
 40
10.23009658915238
 40
10.58801467452236
 40
10.94616432567395
 40
11.27095104025205
 40
11.59607786962441
 40
11.89126367775388
 40
12.18686915548457
 40
12.46117321427309
 40
12.73579880035967
 40
13.00262036940801
 40
13.26944193845634
 40
13.54406752454276
 40
13.81837158333123
 40
14.11397706106186
 40
14.40916286919134
 40
14.7342896985637
 40
15.05907641314184
 40
15.41722606429348
 40
15.77514414966342
 40
16.16548276715587
 40
16.55567301773093
 40
16.97406688517203
 40
17.39236920755757
 40
17.83233792660264
 40
18.27225397023426
 40
18.72575741730615
 40
19.17923680921459
 40
19.63734133863592
 40
20.0954458680573
 40
20.5489252599658
 40
21.0024287070378
 40
21.44234475066954
 40
21.88231346971439
 40
22.30061579209993
 40
22.71900965954103
 40
23.10919991011611
 40
23.49953852760859
 40
23.85745661297858
 40
24.21560626413012
 40
24.54039297870827
 40
24.86551980808071
 40
25.16070561621018
 40
25.45631109394087
 40
25.73061515272932
 40
26.00524073881575
 40
26.27206230786408
 40
26.53888387691236
 40
26.53888387691236
 40
26.53888387691236
 40
26.53888387691236
 10
280.1587320909229
 20
295.015492801721
 30
0.0
 10
280.1764751195914
 20
295.1054820699815
 30
0.0
 10
280.211940403671
 20
295.2853552484889
 30
0.0
 10
280.3178168100098
 20
295.5477415847312
 30
0.0
 10
280.4574816816378
 20
295.8006914660766
 30
0.0
 10
280.6382509384499
 20
296.0476687109281
 30
0.0
 10
280.8514890735813
 20
296.280353961497
 30
0.0
 10
281.1025055347931
 20
296.50446921866
 30
0.0
 10
281.3816087710427
 20
296.7113297587304
 30
0.0
 10
281.6950292245987
 20
296.906372146773
 30
0.0
 10
282.0317526030718
 20
297.0821193605041
 30
0.0
 10
282.3980351885197
 20
297.2426457401301
 30
0.0
 10
282.7826749006434
 20
297.3823841496266
 30
0.0
 10
283.1907639808514
 20
297.5038522951068
 30
0.0
 10
283.6121119935626
 20
297.6034451698985
 30
0.0
 10
284.0497094355271
 20
297.6824105921115
 30
0.0
 10
284.495328025275
 20
297.7387775032884
 30
0.0
 10
284.9492566171227
 20
297.7730414331268
 30
0.0
 10
285.4058706256644
 20
297.7843434703947
 30
0.0
 10
285.8624846342221
 20
297.7730414331281
 30
0.0
 10
286.3164132260218
 20
297.7387775032827
 30
0.0
 10
286.7620318159437
 20
297.6824105921329
 30
0.0
 10
287.1996292572776
 20
297.6034451698213
 30
0.0
 10
287.6209772722887
 20
297.5038522953889
 30
0.0
 10
288.029066344317
 20
297.3823841486312
 30
0.0
 10
288.4137060859674
 20
297.2426457437459
 30
0.0
 10
288.7799885682901
 20
297.0821193480148
 30
0.0
 10
289.1167123155183
 20
296.9063721918726
 30
0.0
 10
289.430131501279
 20
296.7113296058373
 30
0.0
 10
289.709239239237
 20
296.5044697688034
 30
0.0
 10
289.9602403792599
 20
296.2803521189139
 30
0.0
 10
290.1735328210691
 20
296.0476753494778
 30
0.0
 10
290.3541169880459
 20
295.8006691989453
 30
0.0
 10
290.4944428593785
 20
295.5478225466432
 30
0.0
 10
290.5980194291201
 20
295.2850770424158
 30
0.0
 10
290.6590985861368
 20
295.0190797548733
 30
0.0
 10
290.6808917511078
 20
294.749474489893
 30
0.0
 10
290.6590985861367
 20
294.4798692249129
 30
0.0
 10
290.5980194291202
 20
294.2138719373703
 30
0.0
 10
290.4944428593785
 20
293.9511264331433
 30
0.0
 10
290.3541169880459
 20
293.698279780841
 30
0.0
 10
290.1735328210691
 20
293.4512736303087
 30
0.0
 10
289.9602403792599
 20
293.2185968608724
 30
0.0
 10
289.7092392392371
 20
292.994479210983
 30
0.0
 10
289.4301315012789
 20
292.7876193739492
 30
0.0
 10
289.1167123155184
 20
292.5925767879135
 30
0.0
 10
288.7799885682902
 20
292.4168296317714
 30
0.0
 10
288.4137060859674
 20
292.2563032360403
 30
0.0
 10
288.0290663443171
 20
292.1165648311549
 30
0.0
 10
287.6209772722887
 20
291.9950966843973
 30
0.0
 10
287.1996292572777
 20
291.8955038099649
 30
0.0
 10
286.7620318159436
 20
291.8165383876533
 30
0.0
 10
286.3164132260218
 20
291.7601714765034
 30
0.0
 10
285.8624846342215
 20
291.7259075466578
 30
0.0
 10
285.4058706256668
 20
291.7146055093918
 30
0.0
 10
284.9492566171133
 20
291.7259075466577
 30
0.0
 10
284.4953280253095
 20
291.7601714765039
 30
0.0
 10
284.0497094354
 20
291.8165383876518
 30
0.0
 10
283.6121119940213
 20
291.8955038099703
 30
0.0
 10
283.1907639791731
 20
291.9950966843774
 30
0.0
 10
282.7826749065658
 20
292.1165648312253
 30
0.0
 10
282.3980351670048
 20
292.2563032357845
 30
0.0
 10
282.0317526773852
 20
292.416829632655
 30
0.0
 10
281.6950289562488
 20
292.5925767847224
 30
0.0
 10
281.3816096807836
 20
292.7876193847673
 30
0.0
 10
281.1025022613501
 20
292.9944791720569
 30
0.0
 10
280.8515000372555
 20
293.218596991247
 30
0.0
 10
280.6382114379898
 20
293.4512731605889
 30
0.0
 10
280.4576141747277
 20
293.6982813563825
 30
0.0
 10
280.3173350733359
 20
293.9511207045721
 30
0.0
 10
280.2135957755009
 20
294.2138916222226
 30
0.0
 10
280.1531092064047
 20
294.4797963646646
 30
0.0
 10
280.1291631007923
 20
294.7497378567285
 30
0.0
 10
280.1488757608794
 20
294.9269078200569
 30
0.0
 10
280.1587320909229
 20
295.015492801721
 30
0.0
 11
280.1587320909229
 21
295.015492801721
 31
0.0
 11
280.2203089726038
 21
295.2831259464841
 31
0.0
 11
280.3199095485958
 21
295.5387085005248
 31
0.0
 11
280.4628622080835
 21
295.7974499460062
 31
0.0
 11
280.6363114666438
 21
296.036301397804
 31
0.0
 11
280.8553691121328
 21
296.276553771633
 31
0.0
 11
281.0971541687714
 21
296.4934094756225
 31
0.0
 11
281.3843810890587
 21
296.7073530870772
 31
0.0
 11
281.6879846585466
 21
296.8969057932808
 31
0.0
 11
282.0336969037026
 21
297.0781439787029
 31
0.0
 11
282.3909248534532
 21
297.2351045583428
 31
0.0
 11
282.7839889737178
 21
297.3784713106701
 31
0.0
 11
283.1848400912623
 21
297.4980339071477
 31
0.0
 11
283.6129250620154
 21
297.5996002970283
 31
0.0
 11
284.045827157443
 21
297.6778428763501
 31
0.0
 11
284.495716776414
 21
297.7349804931032
 31
0.0
 11
284.9479089343815
 21
297.7691244700019
 31
0.0
 11
285.405870625667
 21
297.7805634031386
 31
0.0
 11
285.8638323169525
 21
297.7691244700019
 31
0.0
 11
286.3160244749199
 21
297.7349804931033
 31
0.0
 11
286.7659140938909
 21
297.6778428763502
 31
0.0
 11
287.1988161893185
 21
297.5996002970283
 31
0.0
 11
287.6269011600716
 21
297.4980339071477
 31
0.0
 11
288.0277522776162
 21
297.3784713106701
 31
0.0
 11
288.4208163978808
 21
297.2351045583428
 31
0.0
 11
288.7780443476313
 21
297.078143978703
 31
0.0
 11
289.1237565927872
 21
296.8969057932808
 31
0.0
 11
289.4273601622752
 21
296.7073530870773
 31
0.0
 11
289.7145870825625
 21
296.4934094756226
 31
0.0
 11
289.9563721392011
 21
296.2765537716333
 31
0.0
 11
290.1754297846901
 21
296.0363013978042
 31
0.0
 11
290.3488790432504
 21
295.7974499460063
 31
0.0
 11
290.491831702738
 21
295.5387085005249
 31
0.0
 11
290.59143227873
 21
295.2831259464843
 31
0.0
 11
290.6530091604109
 21
295.0154928017211
 31
0.0
 11
290.6736975020937
 21
294.749474489893
 31
0.0
 11
290.6530091604109
 21
294.483456178065
 31
0.0
 11
290.59143227873
 21
294.2158230333019
 31
0.0
 11
290.491831702738
 21
293.9602404792614
 31
0.0
 11
290.3488790432504
 21
293.7014990337801
 31
0.0
 11
290.1754297846901
 21
293.4626475819822
 31
0.0
 11
289.9563721392012
 21
293.222395208153
 31
0.0
 11
289.7145870825625
 21
293.0055395041637
 31
0.0
 11
289.4273601622751
 21
292.791595892709
 31
0.0
 11
289.1237565927873
 21
292.6020431865053
 31
0.0
 11
288.7780443476313
 21
292.4208050010832
 31
0.0
 11
288.4208163978808
 21
292.2638444214433
 31
0.0
 11
288.0277522776161
 21
292.120477669116
 31
0.0
 11
287.6269011600716
 21
292.0009150726385
 31
0.0
 11
287.1988161893184
 21
291.8993486827579
 31
0.0
 11
286.7659140938908
 21
291.821106103436
 31
0.0
 11
286.3160244749199
 21
291.7639684866829
 31
0.0
 11
285.8638323169525
 21
291.7298245097842
 31
0.0
 11
285.405870625667
 21
291.7183855766475
 31
0.0
 11
284.9479089343815
 21
291.7298245097842
 31
0.0
 11
284.4957167764141
 21
291.7639684866829
 31
0.0
 11
284.045827157443
 21
291.821106103436
 31
0.0
 11
283.6129250620153
 21
291.8993486827579
 31
0.0
 11
283.1848400912623
 21
292.0009150726385
 31
0.0
 11
282.7839889737178
 21
292.120477669116
 31
0.0
 11
282.3909248534532
 21
292.2638444214433
 31
0.0
 11
282.0336969037026
 21
292.4208050010831
 31
0.0
 11
281.6879846585466
 21
292.6020431865053
 31
0.0
 11
281.3843810890587
 21
292.791595892709
 31
0.0
 11
281.0971541687715
 21
293.0055395041637
 31
0.0
 11
280.8553691121328
 21
293.222395208153
 31
0.0
 11
280.6363114666438
 21
293.4626475819822
 31
0.0
 11
280.4628622080835
 21
293.7014990337801
 31
0.0
 11
280.3199095485958
 21
293.9602404792614
 31
0.0
 11
280.2203089726038
 21
294.2158230333019
 31
0.0
 11
280.1587320909229
 21
294.483456178065
 31
0.0
 11
280.1380437492401
 21
294.749474489893
 31
0.0
 11
280.1587320909229
 21
295.015492801721
 31
0.0
  0
SPLINE
  5
194
330
3F
100
AcDbEntity
  8
1
  6
Continuous
 62
     7
100
AcDbSpline
210
0.0
220
0.0
230
1.0
 70
    11
 71
     3
 72
    79
 73
    75
 74
    73
 42
0.0000000001
 43
0.0000000001
 44
0.00000001
 40
0.0
 40
0.0
 40
0.0
 40
0.0
 40
0.4580629073446181
 40
0.9161250954497053
 40
1.374321004625509
 40
1.832515564104196
 40
2.290914921249919
 40
2.749312464134606
 40
3.207961104920428
 40
3.666607688416385
 40
4.125521335344279
 40
4.584432931141717
 40
5.043595344343938
 40
5.502755958881752
 40
5.962120941340518
 40
6.421484591837711
 40
6.880981585492447
 40
7.340477871484124
 40
7.800020458108074
 40
8.259563044732026
 40
8.719059330723706
 40
9.178556324378535
 40
9.637919974875945
 40
10.09728495733455
 40
10.55644557187236
 40
11.0156079850746
 40
11.47451958087197
 40
11.93343322779982
 40
12.39207981129567
 40
12.85072845208153
 40
13.30912599496628
 40
13.76752535211208
 40
14.22571991159079
 40
14.68391582076665
 40
15.14197800887173
 40
15.60004091621628
 40
16.05805737367886
 40
16.51607383114152
 40
16.97413673848614
 40
17.43219892659128
 40
17.8903948357671
 40
18.34858939524578
 40
18.8069887523915
 40
19.26538629527625
 40
19.72403493606213
 40
20.18268151955804
 40
20.64159516648587
 40
21.10050676228321
 40
21.55966917548553
 40
22.01882979002337
 40
22.47819477248209
 40
22.93755842297941
 40
23.39705541663413
 40
23.85655170262586
 40
24.31609428924975
 40
24.77563687587371
 40
25.23513316186538
 40
25.69463015552016
 40
26.15399380601746
 40
26.61335878847608
 40
27.07251940301379
 40
27.53168181621606
 40
27.99059341201349
 40
28.44950705894135
 40
28.9081536424373
 40
29.36680228322319
 40
29.82519982610793
 40
30.28359918325363
 40
30.74179374273227
 40
31.19998965190807
 40
31.65805184001322
 40
32.11611474735786
 40
32.5741312048205
 40
33.03214766228314
 40
33.03214766228314
 40
33.03214766228314
 40
33.03214766228314
 10
169.1134464473943
 20
402.0424413522156
 30
0.0
 10
169.265263446195
 20
402.0596247689223
 30
0.0
 10
169.5688972054168
 20
402.0939915753548
 30
0.0
 10
170.0164209944771
 20
402.195963873499
 30
0.0
 10
170.4538765714783
 20
402.3336276931672
 30
0.0
 10
170.8775230212261
 20
402.5100084643972
 30
0.0
 10
171.2843426416407
 20
402.7223419661234
 30
0.0
 10
171.6710647300941
 20
402.9697126873836
 30
0.0
 10
172.0349346684492
 20
403.2497375205674
 30
0.0
 10
172.3729683266553
 20
403.5607161693956
 30
0.0
 10
172.6828399245234
 20
403.8998825060486
 30
0.0
 10
172.961914766964
 20
404.265024738208
 30
0.0
 10
173.2083784560892
 20
404.6530230876563
 30
0.0
 10
173.420018863823
 20
405.0612309874138
 30
0.0
 10
173.5955914250279
 20
405.4862735469849
 30
0.0
 10
173.7333722395436
 20
405.925142523914
 30
0.0
 10
173.8327229310745
 20
406.3743186024432
 30
0.0
 10
173.8924631799234
 20
406.8305152935279
 30
0.0
 10
173.9125746862501
 20
407.290182346383
 30
0.0
 10
173.8924631799237
 20
407.7498493992457
 30
0.0
 10
173.8327229310729
 20
408.2060460903079
 30
0.0
 10
173.7333722395494
 20
408.6552221689204
 30
0.0
 10
173.5955914250065
 20
409.0940911455396
 30
0.0
 10
173.420018863903
 20
409.5191337062664
 30
0.0
 10
173.2083784557905
 20
409.9273416017129
 30
0.0
 10
172.9619147680778
 20
410.3153399672465
 30
0.0
 10
172.6828399203695
 20
410.6804821394049
 30
0.0
 10
172.3729683421544
 20
411.019648699916
 30
0.0
 10
172.0349346106434
 20
411.3306265137596
 30
0.0
 10
171.6710649457831
 20
411.6106544622128
 30
0.0
 10
171.2843418371664
 20
411.8580135631996
 30
0.0
 10
170.8775260230662
 20
412.0703904211366
 30
0.0
 10
170.4538653740032
 20
412.2466094536229
 30
0.0
 10
170.0164627796311
 20
412.3848767773171
 30
0.0
 10
169.5687413115076
 20
412.484597391986
 30
0.0
 10
169.1140436281718
 20
412.5445484880582
 30
0.0
 10
168.6558706256549
 20
412.5647392489239
 30
0.0
 10
168.1976976231379
 20
412.5445484880583
 30
0.0
 10
167.7429999398021
 20
412.4845973919861
 30
0.0
 10
167.2952784716785
 20
412.3848767773171
 30
0.0
 10
166.8578758773063
 20
412.2466094536229
 30
0.0
 10
166.4342152282436
 20
412.0703904211366
 30
0.0
 10
166.0273994141433
 20
411.8580135631996
 30
0.0
 10
165.6406763055267
 20
411.6106544622128
 30
0.0
 10
165.2768066406663
 20
411.3306265137599
 30
0.0
 10
164.9387729091555
 20
411.0196486999157
 30
0.0
 10
164.62890133094
 20
410.6804821394051
 30
0.0
 10
164.3498264832321
 20
410.3153399672464
 30
0.0
 10
164.1033627955192
 20
409.9273416017127
 30
0.0
 10
163.8917223874067
 20
409.5191337062663
 30
0.0
 10
163.7161498263032
 20
409.0940911455394
 30
0.0
 10
163.5783690117603
 20
408.6552221689204
 30
0.0
 10
163.4790183202368
 20
408.2060460903078
 30
0.0
 10
163.4192780713859
 20
407.7498493992455
 30
0.0
 10
163.3991665650597
 20
407.2901823463842
 30
0.0
 10
163.4192780713858
 20
406.8305152935236
 30
0.0
 10
163.4790183202368
 20
406.3743186024595
 30
0.0
 10
163.5783690117599
 20
405.925142523853
 30
0.0
 10
163.7161498263046
 20
405.4862735472116
 30
0.0
 10
163.8917223874009
 20
405.0612309865678
 30
0.0
 10
164.1033627955407
 20
404.6530230908121
 30
0.0
 10
164.349826483152
 20
404.2650247264331
 30
0.0
 10
164.6289013312382
 20
403.8998825499667
 30
0.0
 10
164.9387729080427
 20
403.5607160055275
 30
0.0
 10
165.2768066448163
 20
403.2497381317374
 30
0.0
 10
165.6406762900416
 20
402.969710406939
 30
0.0
 10
166.027399471899
 20
402.722350471697
 30
0.0
 10
166.4342150127321
 20
402.5099767264367
 30
0.0
 10
166.8578766812078
 20
402.333746082225
 30
0.0
 10
167.2952754717928
 20
402.1955220859546
 30
0.0
 10
167.7430111319088
 20
402.0956398159534
 30
0.0
 10
168.1976558549351
 20
402.0362919696725
 30
0.0
 10
168.6560264892141
 20
402.0138500641205
 30
0.0
 10
168.9609731280009
 20
402.0329109228507
 30
0.0
 10
169.1134464473943
 20
402.0424413522156
 30
0.0
 11
169.1134464473943
 21
402.0424413522156
 31
0.0
 11
169.5675690622746
 21
402.1023936477453
 31
0.0
 11
170.0146928422896
 21
402.2018988914101
 31
0.0
 11
170.4515579319096
 21
402.3400740869291
 31
0.0
 11
170.8746465483701
 21
402.515966886547
 31
0.0
 11
171.2809717982248
 21
402.7281690589255
 31
0.0
 11
171.6671762888441
 21
402.9750990059715
 31
0.0
 11
172.0306072317592
 21
403.254878428779
 31
0.0
 11
172.368201474465
 21
403.5653406903253
 31
0.0
 11
172.6776891513555
 21
403.9041903814711
 31
0.0
 11
172.9564238615062
 21
404.2687542498324
 31
0.0
 11
173.2025622114446
 21
404.6563700833419
 31
0.0
 11
173.4139741258685
 21
405.0639648237182
 31
0.0
 11
173.589286415404
 21
405.4885608531946
 31
0.0
 11
173.7269538670471
 21
405.9268103667781
 31
0.0
 11
173.8261193019819
 21
406.3754791797036
 31
0.0
 11
173.8858568301302
 21
406.8310757826001
 31
0.0
 11
173.9058706256549
 21
407.2901823463843
 31
0.0
 11
173.8858568301301
 21
407.7492889101685
 31
0.0
 11
173.8261193019818
 21
408.2048855130651
 31
0.0
 11
173.7269538670471
 21
408.6535543259906
 31
0.0
 11
173.589286415404
 21
409.0918038395744
 31
0.0
 11
173.4139741258685
 21
409.5163998690506
 31
0.0
 11
173.2025622114445
 21
409.9239946094268
 31
0.0
 11
172.9564238615062
 21
410.3116104429364
 31
0.0
 11
172.6776891513555
 21
410.6761743112976
 31
0.0
 11
172.368201474465
 21
411.0150240024433
 31
0.0
 11
172.0306072317592
 21
411.3254862639894
 31
0.0
 11
171.6671762888441
 21
411.605265686797
 31
0.0
 11
171.2809717982247
 21
411.8521956338432
 31
0.0
 11
170.8746465483701
 21
412.0643978062219
 31
0.0
 11
170.4515579319096
 21
412.2402906058399
 31
0.0
 11
170.0146928422895
 21
412.3784658013589
 31
0.0
 11
169.5675690622745
 21
412.4779710450235
 31
0.0
 11
169.1134464473943
 21
412.5379233405531
 31
0.0
 11
168.6558706256549
 21
412.5580092228113
 31
0.0
 11
168.1982948039154
 21
412.5379233405531
 31
0.0
 11
167.7441721890351
 21
412.4779710450237
 31
0.0
 11
167.2970484090201
 21
412.378465801359
 31
0.0
 11
166.8601833194
 21
412.24029060584
 31
0.0
 11
166.4370947029396
 21
412.0643978062219
 31
0.0
 11
166.0307694530851
 21
411.8521956338432
 31
0.0
 11
165.6445649624657
 21
411.605265686797
 31
0.0
 11
165.2811340195506
 21
411.3254862639894
 31
0.0
 11
164.9435397768447
 21
411.0150240024433
 31
0.0
 11
164.6340520999542
 21
410.6761743112976
 31
0.0
 11
164.3553173898036
 21
410.3116104429364
 31
0.0
 11
164.1091790398652
 21
409.9239946094268
 31
0.0
 11
163.8977671254412
 21
409.5163998690505
 31
0.0
 11
163.7224548359057
 21
409.0918038395741
 31
0.0
 11
163.5847873842625
 21
408.6535543259905
 31
0.0
 11
163.4856219493278
 21
408.2048855130651
 31
0.0
 11
163.4258844211795
 21
407.7492889101685
 31
0.0
 11
163.4058706256548
 21
407.2901823463843
 31
0.0
 11
163.4258844211795
 21
406.8310757826001
 31
0.0
 11
163.4856219493278
 21
406.3754791797036
 31
0.0
 11
163.5847873842625
 21
405.9268103667781
 31
0.0
 11
163.7224548359057
 21
405.4885608531944
 31
0.0
 11
163.8977671254412
 21
405.0639648237182
 31
0.0
 11
164.1091790398652
 21
404.6563700833421
 31
0.0
 11
164.3553173898035
 21
404.2687542498325
 31
0.0
 11
164.6340520999541
 21
403.9041903814711
 31
0.0
 11
164.9435397768447
 21
403.5653406903255
 31
0.0
 11
165.2811340195505
 21
403.2548784287793
 31
0.0
 11
165.6445649624657
 21
402.9750990059716
 31
0.0
 11
166.030769453085
 21
402.7281690589255
 31
0.0
 11
166.4370947029396
 21
402.5159668865468
 31
0.0
 11
166.8601833194
 21
402.340074086929
 31
0.0
 11
167.2970484090201
 21
402.20189889141
 31
0.0
 11
167.7441721890351
 21
402.1023936477453
 31
0.0
 11
168.1982948039154
 21
402.0424413522156
 31
0.0
 11
168.6558706256549
 21
402.0223554699575
 31
0.0
 11
169.1134464473943
 21
402.0424413522156
 31
0.0
  0
ENDBLK
  5
41
330
3F
100
AcDbEntity
  8
0
100
AcDbBlockEnd
  0
BLOCK
  5
43
330
42
100
AcDbEntity
  8
0
100
AcDbBlockBegin
  2
_J__A4
 70
     0
 71
     0
 10
0.0
 20
0.0
 30
0.0
  3
_J__A4
  1

  0
POINT
  5
195
330
42
100
AcDbEntity
  8
1
 62
     4
100
AcDbPoint
 10
93.75
 20
17.0
 30
0.0
  0
POINT
  5
196
330
42
100
AcDbEntity
  8
1
 62
     4
100
AcDbPoint
 10
85.25
 20
17.0
 30
0.0
  0
POINT
  5
197
330
42
100
AcDbEntity
  8
1
 62
     4
100
AcDbPoint
 10
106.5
 20
19.00000000000001
 30
0.0
  0
POINT
  5
198
330
42
100
AcDbEntity
  8
1
 62
     4
100
AcDbPoint
 10
106.5
 20
12.5
 30
0.0
  0
POINT
  5
199
330
42
100
AcDbEntity
  8
1
 62
     4
100
AcDbPoint
 10
112.25
 20
12.5
 30
0.0
  0
POINT
  5
19A
330
42
100
AcDbEntity
  8
1
 62
     4
100
AcDbPoint
 10
100.75
 20
12.5
 30
0.0
  0
POINT
  5
19B
330
42
100
AcDbEntity
  8
1
 62
     4
100
AcDbPoint
 10
123.5
 20
19.00000000000001
 30
0.0
  0
POINT
  5
19C
330
42
100
AcDbEntity
  8
1
 62
     4
100
AcDbPoint
 10
123.5
 20
12.5
 30
0.0
  0
POINT
  5
19D
330
42
100
AcDbEntity
  8
1
 62
     4
100
AcDbPoint
 10
129.25
 20
12.5
 30
0.0
  0
POINT
  5
19E
330
42
100
AcDbEntity
  8
1
 62
     4
100
AcDbPoint
 10
117.75
 20
12.5
 30
0.0
  0
POINT
  5
19F
330
42
100
AcDbEntity
  8
1
 62
     4
100
AcDbPoint
 10
140.5
 20
19.00000000000001
 30
0.0
  0
POINT
  5
1A0
330
42
100
AcDbEntity
  8
1
 62
     4
100
AcDbPoint
 10
140.5
 20
12.5
 30
0.0
  0
POINT
  5
1A1
330
42
100
AcDbEntity
  8
1
 62
     4
100
AcDbPoint
 10
146.25
 20
12.5
 30
0.0
  0
POINT
  5
1A2
330
42
100
AcDbEntity
  8
1
 62
     4
100
AcDbPoint
 10
134.75
 20
12.5
 30
0.0
  0
POINT
  5
1A3
330
42
100
AcDbEntity
  8
1
 62
     4
100
AcDbPoint
 10
151.75
 20
12.5
 30
0.0
  0
POINT
  5
1A4
330
42
100
AcDbEntity
  8
1
 62
     4
100
AcDbPoint
 10
163.25
 20
12.5
 30
0.0
  0
POINT
  5
1A5
330
42
100
AcDbEntity
  8
1
 62
     4
100
AcDbPoint
 10
157.5
 20
12.5
 30
0.0
  0
POINT
  5
1A6
330
42
100
AcDbEntity
  8
1
 62
     4
100
AcDbPoint
 10
57.0
 20
14.25
 30
0.0
  0
POINT
  5
1A7
330
42
100
AcDbEntity
  8
1
 62
     4
100
AcDbPoint
 10
57.0
 20
22.75000000000001
 30
0.0
  0
POINT
  5
1A8
330
42
100
AcDbEntity
  8
1
 62
     4
100
AcDbPoint
 10
47.5
 20
282.0000000000003
 30
0.0
  0
POINT
  5
1A9
330
42
100
AcDbEntity
  8
1
 62
     4
100
AcDbPoint
 10
157.5
 20
19.00000000000001
 30
0.0
  0
POINT
  5
1AA
330
42
100
AcDbEntity
  8
1
 62
     4
100
AcDbPoint
 10
57.0
 20
16.25
 30
0.0
  0
POINT
  5
1AB
330
42
100
AcDbEntity
  8
1
 62
     4
100
AcDbPoint
 10
57.0
 20
24.75000000000001
 30
0.0
  0
POINT
  5
1AC
330
42
100
AcDbEntity
  8
1
 62
     4
100
AcDbPoint
 10
57.0
 20
20.75000000000001
 30
0.0
  0
POINT
  5
1AD
330
42
100
AcDbEntity
  8
1
 62
     4
100
AcDbPoint
 10
57.0
 20
12.25
 30
0.0
  0
POINT
  5
1AE
330
42
100
AcDbEntity
  8
1
 62
     4
100
AcDbPoint
 10
34.0
 20
34.00000000000001
 30
0.0
  0
LINE
  5
1AF
330
42
100
AcDbEntity
  8
1
  6
Continuous
 62
     7
100
AcDbLine
 10
105.0
 20
10.0
 30
0.0
 11
200.0
 21
10.0
 31
0.0
  0
LINE
  5
1B0
330
42
100
AcDbEntity
  8
1
  6
Continuous
 62
     2
100
AcDbLine
 10
105.0
 20
10.0
 30
0.0
 11
105.0
 21
5.0
 31
0.0
  0
LINE
  5
1B1
330
42
100
AcDbEntity
  8
1
  6
Continuous
 62
     7
100
AcDbLine
 10
200.0
 20
148.5
 30
0.0
 11
200.0
 21
287.0000000000003
 31
0.0
  0
LINE
  5
1B2
330
42
100
AcDbEntity
  8
1
  6
Continuous
 62
     2
100
AcDbLine
 10
200.0
 20
148.5
 30
0.0
 11
205.0
 21
148.5
 31
0.0
  0
LINE
  5
1B3
330
42
100
AcDbEntity
  8
1
  6
Continuous
 62
     7
100
AcDbLine
 10
25.0
 20
148.5
 30
0.0
 11
25.0
 21
287.0000000000003
 31
0.0
  0
LINE
  5
1B4
330
42
100
AcDbEntity
  8
1
  6
Continuous
 62
     2
100
AcDbLine
 10
25.0
 20
148.5
 30
0.0
 11
20.0
 21
148.5
 31
0.0
  0
LINE
  5
1B5
330
42
100
AcDbEntity
  8
1
  6
Continuous
 62
     7
100
AcDbLine
 10
105.0
 20
287.0000000000003
 30
0.0
 11
25.0
 21
287.0000000000003
 31
0.0
  0
LINE
  5
1B6
330
42
100
AcDbEntity
  8
1
  6
Continuous
 62
     2
100
AcDbLine
 10
105.0
 20
287.0000000000003
 30
0.0
 11
105.0
 21
292.0000000000003
 31
0.0
  0
LINE
  5
1B7
330
42
100
AcDbEntity
  8
1
  6
Continuous
 62
     2
100
AcDbLine
 10
166.0
 20
20.00000000000001
 30
0.0
 11
200.0
 21
20.00000000000001
 31
0.0
  0
LINE
  5
1B8
330
42
100
AcDbEntity
  8
1
  6
Continuous
 62
     2
100
AcDbLine
 10
98.0
 20
27.00000000000001
 30
0.0
 11
98.0
 21
9.99999999999999
 31
0.0
  0
LINE
  5
1B9
330
42
100
AcDbEntity
  8
1
  6
Continuous
 62
     2
100
AcDbLine
 10
115.0
 20
27.00000000000001
 30
0.0
 11
115.0
 21
9.99999999999999
 31
0.0
  0
LINE
  5
1BA
330
42
100
AcDbEntity
  8
1
  6
Continuous
 62
     2
100
AcDbLine
 10
149.0
 20
27.00000000000001
 30
0.0
 11
149.0
 21
10.0
 31
0.0
  0
LINE
  5
1BB
330
42
100
AcDbEntity
  8
1
  6
Continuous
 62
     2
100
AcDbLine
 10
132.0
 20
27.00000000000001
 30
0.0
 11
132.0
 21
9.99999999999999
 31
0.0
  0
LINE
  5
1BC
330
42
100
AcDbEntity
  8
1
  6
Continuous
 62
     2
100
AcDbLine
 10
166.0
 20
27.00000000000001
 30
0.0
 11
166.0
 21
10.0
 31
0.0
  0
LINE
  5
1BD
330
42
100
AcDbEntity
  8
1
  6
Continuous
 62
     2
100
AcDbLine
 10
55.0
 20
277.0000000000003
 30
0.0
 11
25.0
 21
277.0000000000003
 31
0.0
  0
LINE
  5
1BE
330
42
100
AcDbEntity
  8
1
  6
Continuous
 62
     7
100
AcDbLine
 10
25.0
 20
10.0
 30
0.0
 11
25.0
 21
148.5
 31
0.0
  0
LINE
  5
1BF
330
42
100
AcDbEntity
  8
1
  6
Continuous
 62
     2
100
AcDbLine
 10
40.0
 20
287.0000000000003
 30
0.0
 11
40.0
 21
277.0000000000003
 31
0.0
  0
LINE
  5
1C0
330
42
100
AcDbEntity
  8
1
  6
Continuous
 62
     2
100
AcDbLine
 10
55.0
 20
287.0000000000003
 30
0.0
 11
55.0
 21
277.0000000000003
 31
0.0
  0
LINE
  5
1C1
330
42
100
AcDbEntity
  8
1
  6
Continuous
 62
     2
100
AcDbLine
 10
33.0
 20
41.00000000000001
 30
0.0
 11
33.0
 21
27.0
 31
0.0
  0
LINE
  5
1C2
330
42
100
AcDbEntity
  8
1
  6
Continuous
 62
     7
100
AcDbLine
 10
200.0
 20
27.00000000000001
 30
0.0
 11
25.0
 21
27.00000000000001
 31
0.0
  0
LINE
  5
1C3
330
42
100
AcDbEntity
  8
1
  6
Continuous
 62
     7
100
AcDbLine
 10
25.0
 20
41.0
 30
0.0
 11
200.0
 21
41.0
 31
0.0
  0
LINE
  5
1C4
330
42
100
AcDbEntity
  8
1
  6
PHANTOM
 62
     4
100
AcDbLine
 10
0.0
 20
0.0
 30
0.0
 11
210.0
 21
0.0
 31
0.0
  0
LINE
  5
1C5
330
42
100
AcDbEntity
  8
1
  6
PHANTOM
 62
     4
100
AcDbLine
 10
210.0
 20
0.0
 30
0.0
 11
210.0
 21
297.0
 31
0.0
  0
LINE
  5
1C6
330
42
100
AcDbEntity
  8
1
  6
PHANTOM
 62
     4
100
AcDbLine
 10
210.0
 20
297.0
 30
0.0
 11
0.0
 21
297.0
 31
0.0
  0
LINE
  5
1C7
330
42
100
AcDbEntity
  8
1
  6
PHANTOM
 62
     4
100
AcDbLine
 10
0.0
 20
297.0
 30
0.0
 11
0.0
 21
0.0
 31
0.0
  0
LINE
  5
1C8
330
42
100
AcDbEntity
  8
1
  6
Continuous
 62
     7
100
AcDbLine
 10
25.0
 20
10.0
 30
0.0
 11
105.0
 21
10.0
 31
0.0
  0
LINE
  5
1C9
330
42
100
AcDbEntity
  8
1
  6
Continuous
 62
     7
100
AcDbLine
 10
200.0
 20
10.0
 30
0.0
 11
200.0
 21
148.5
 31
0.0
  0
LINE
  5
1CA
330
42
100
AcDbEntity
  8
1
  6
Continuous
 62
     7
100
AcDbLine
 10
200.0
 20
287.0000000000003
 30
0.0
 11
105.0
 21
287.0000000000003
 31
0.0
  0
LINE
  5
1CB
330
42
100
AcDbEntity
  8
1
  6
Continuous
 62
     2
100
AcDbLine
 10
25.0
 20
18.50000000000001
 30
0.0
 11
81.0
 21
18.50000000000001
 31
0.0
  0
LINE
  5
1CC
330
42
100
AcDbEntity
  8
1
  6
Continuous
 62
     2
100
AcDbLine
 10
33.0
 20
27.0
 30
0.0
 11
33.0
 21
10.0
 31
0.0
  0
LINE
  5
1CD
330
42
100
AcDbEntity
  8
1
  6
Continuous
 62
     7
100
AcDbLine
 10
191.0
 20
24.70000000000001
 30
0.0
 11
191.0
 21
22.30000000000001
 31
0.0
  0
LINE
  5
1CE
330
42
100
AcDbEntity
  8
1
  6
Continuous
 62
     7
100
AcDbLine
 10
191.0
 20
24.70000000000001
 30
0.0
 11
196.0
 21
25.50000000000001
 31
0.0
  0
LINE
  5
1CF
330
42
100
AcDbEntity
  8
1
  6
Continuous
 62
     7
100
AcDbLine
 10
196.0
 20
25.50000000000001
 30
0.0
 11
196.0
 21
21.50000000000001
 31
0.0
  0
LINE
  5
1D0
330
42
100
AcDbEntity
  8
1
  6
Continuous
 62
     7
100
AcDbLine
 10
196.0
 20
21.50000000000001
 30
0.0
 11
191.0
 21
22.30000000000001
 31
0.0
  0
LINE
  5
1D1
330
42
100
AcDbEntity
  8
1
  6
DOT_CENTER
 62
     2
100
AcDbLine
 10
184.0
 20
23.50000000000001
 30
0.0
 11
197.0
 21
23.50000000000001
 31
0.0
  0
LINE
  5
1D2
330
42
100
AcDbEntity
  8
1
  6
DOT_CENTER
 62
     2
100
AcDbLine
 10
187.0
 20
26.50000000000001
 30
0.0
 11
187.0
 21
20.50000000000001
 31
0.0
  0
LINE
  5
1D3
330
42
100
AcDbEntity
  8
1
  6
Continuous
 62
     2
100
AcDbLine
 10
81.0
 20
27.00000000000001
 30
0.0
 11
81.0
 21
10.0
 31
0.0
  0
CIRCLE
  5
1D4
330
42
100
AcDbEntity
  8
1
  6
Continuous
 62
     7
100
AcDbCircle
 10
103.5
 20
12.5
 30
0.0
 40
0.2999999999999972
  0
CIRCLE
  5
1D5
330
42
100
AcDbEntity
  8
1
  6
Continuous
 62
     7
100
AcDbCircle
 10
109.5
 20
12.5
 30
0.0
 40
0.2999999999999972
  0
CIRCLE
  5
1D6
330
42
100
AcDbEntity
  8
1
  6
Continuous
 62
     7
100
AcDbCircle
 10
120.5
 20
12.5
 30
0.0
 40
0.2999999999999972
  0
CIRCLE
  5
1D7
330
42
100
AcDbEntity
  8
1
  6
Continuous
 62
     7
100
AcDbCircle
 10
126.5
 20
12.5
 30
0.0
 40
0.2999999999999972
  0
CIRCLE
  5
1D8
330
42
100
AcDbEntity
  8
1
  6
Continuous
 62
     7
100
AcDbCircle
 10
137.5
 20
12.5
 30
0.0
 40
0.3000000000000114
  0
CIRCLE
  5
1D9
330
42
100
AcDbEntity
  8
1
  6
Continuous
 62
     7
100
AcDbCircle
 10
143.5
 20
12.5
 30
0.0
 40
0.3000000000000114
  0
CIRCLE
  5
1DA
330
42
100
AcDbEntity
  8
1
  6
Continuous
 62
     7
100
AcDbCircle
 10
160.5
 20
12.5
 30
0.0
 40
0.3000000000000114
  0
CIRCLE
  5
1DB
330
42
100
AcDbEntity
  8
1
  6
Continuous
 62
     7
100
AcDbCircle
 10
154.5
 20
12.5
 30
0.0
 40
0.3000000000000114
  0
CIRCLE
  5
1DC
330
42
100
AcDbEntity
  8
1
  6
Continuous
 62
     7
100
AcDbCircle
 10
187.0
 20
23.50000000000001
 30
0.0
 40
1.200000000000102
  0
CIRCLE
  5
1DD
330
42
100
AcDbEntity
  8
1
  6
Continuous
 62
     7
100
AcDbCircle
 10
187.0
 20
23.50000000000001
 30
0.0
 40
2.0
  0
CIRCLE
  5
1DE
330
42
100
AcDbEntity
  8
1
  6
DOT_CENTER
 62
     7
100
AcDbCircle
 10
89.5
 20
16.0
 30
0.0
 40
0.1000000000000227
  0
CIRCLE
  5
1DF
330
42
100
AcDbEntity
  8
1
  6
DOT_CENTER
 62
     7
100
AcDbCircle
 10
89.5
 20
18.0
 30
0.0
 40
0.1000000000000227
  0
MTEXT
  5
1E1
330
42
100
AcDbEntity
  8
1
 62
     7
100
AcDbMText
 10
188.5
 20
15.0
 30
0.0
 40
3.0
 41
0.0
 71
     5
 72
     1
  1
三栄水栓製作所
  7
CONVERTER_1
 73
     1
 44
1.32052821128451
  0
MTEXT
  5
1E2
330
42
100
AcDbEntity
  8
1
 62
     7
100
AcDbMText
 10
171.5
 20
15.0
 30
0.0
 40
2.5
 41
0.0
 71
     5
 72
     1
  1
株式会社
  7
CONVERTER_1
 73
     1
 44
1.32052821128451
  0
MTEXT
  5
1E3
330
42
100
AcDbEntity
  8
1
 62
     2
100
AcDbMText
 10
32.5
 20
282.0000000000003
 30
0.0
 40
5.0
 41
0.0
 71
     5
 72
     1
  1
図番
  7
CONVERTER_1
 73
     1
 44
0.60024009603842
  0
MTEXT
  5
1E4
330
42
100
AcDbEntity
  8
1
 62
     2
100
AcDbMText
 10
29.0
 20
34.00000000000001
 30
0.0
 40
3.5
 41
0.0
 71
     5
 72
     1
  1
備考
  7
CONVERTER_1
 73
     1
 44
0.60024009603842
  0
MTEXT
  5
1E5
330
42
100
AcDbEntity
  8
1
 62
     2
100
AcDbMText
 10
29.0
 20
22.75
 30
0.0
 40
3.5
 41
0.0
 71
     5
 72
     1
  1
品名
  7
CONVERTER_1
 73
     1
 44
0.96038415366146
  0
MTEXT
  5
1E6
330
42
100
AcDbEntity
  8
1
 62
     2
100
AcDbMText
 10
29.0
 20
14.25
 30
0.0
 40
3.5
 41
0.0
 71
     5
 72
     1
  1
品番
  7
CONVERTER_1
 73
     1
 44
0.96038415366146
  0
MTEXT
  5
1E7
330
42
100
AcDbEntity
  8
1
 62
     2
100
AcDbMText
 10
101.5
 20
25.00000000000001
 30
0.0
 40
3.0
 41
0.0
 71
     5
 72
     1
  1
承認
  7
CONVERTER_1
 73
     1
 44
0.78031212484994
  0
MTEXT
  5
1E8
330
42
100
AcDbEntity
  8
1
 62
     2
100
AcDbMText
 10
175.0
 20
23.50000000000001
 30
0.0
 40
3.5
 41
0.0
 71
     5
 72
     1
  1
第三角法
  7
CONVERTER_1
 73
     1
 44
0.7202881152461
  0
MTEXT
  5
1E9
330
42
100
AcDbEntity
  8
1
 62
     2
100
AcDbMText
 10
118.5
 20
25.00000000000001
 30
0.0
 40
3.0
 41
0.0
 71
     5
 72
     1
  1
検図
  7
CONVERTER_1
 73
     1
 44
0.78031212484994
  0
MTEXT
  5
1EA
330
42
100
AcDbEntity
  8
1
 62
     2
100
AcDbMText
 10
152.5
 20
25.00000000000001
 30
0.0
 40
3.0
 41
0.0
 71
     5
 72
     1
  1
設計
  7
CONVERTER_1
 73
     1
 44
0.78031212484994
  0
MTEXT
  5
1EB
330
42
100
AcDbEntity
  8
1
 62
     2
100
AcDbMText
 10
135.5
 20
25.00000000000001
 30
0.0
 40
3.0
 41
0.0
 71
     5
 72
     1
  1
製図
  7
CONVERTER_1
 73
     1
 44
0.78031212484994
  0
MTEXT
  5
1EC
330
42
100
AcDbEntity
  8
1
 62
     2
100
AcDbMText
 10
89.5
 20
24.00000000000001
 30
0.0
 40
3.5
 41
0.0
 71
     5
 72
     1
  1
尺度
  7
CONVERTER_1
 73
     1
 44
0.7202881152461
  0
MTEXT
  5
1ED
330
42
100
AcDbEntity
  8
1
 62
   250
100
AcDbMText
 10
25.0
 20
5.0
 30
0.0
 40
3.5
 41
0.0
 71
     4
 72
     1
  1
備考欄の文字列 原点位置=4
  7
CONVERTER_1
 73
     1
 44
0.7202881152461
  0
ENDBLK
  5
44
330
42
100
AcDbEntity
  8
0
100
AcDbBlockEnd
  0
BLOCK
  5
20F
330
207
100
AcDbEntity
  8
0
100
AcDbBlockBegin
  2
*D06
 70
     1
 71
     0
 10
0.0
 20
0.0
 30
0.0
  3
*D06
  1

  0
LINE
  5
208
330
207
100
AcDbEntity
  8
1
  6
Continuous
 62
     2
100
AcDbLine
 10
151.4058706256548
 20
381.2901823463843
 30
0.0
 11
174.4058706256549
 21
381.2901823463843
 31
0.0
  0
LINE
  5
209
330
207
100
AcDbEntity
  8
1
  6
Continuous
 62
     2
100
AcDbLine
 10
174.4058706256549
 20
381.2901823463843
 30
0.0
 11
188.822370504019
 21
381.2901823463843
 31
0.0
  0
LINE
  5
20A
330
207
100
AcDbEntity
  8
1
  6
Continuous
 62
     2
100
AcDbLine
 10
174.4058706256549
 20
402.0223554699581
 30
0.0
 11
174.4058706256549
 21
379.2901823463843
 31
0.0
  0
LINE
  5
20B
330
207
100
AcDbEntity
  8
1
  6
Continuous
 62
     2
100
AcDbLine
 10
151.4058706256548
 20
402.0223554699579
 30
0.0
 11
151.4058706256548
 21
379.2901823463843
 31
0.0
  0
SOLID
  5
20C
330
207
100
AcDbEntity
  8
1
 62
     2
100
AcDbTrace
 10
158.4058706256548
 20
382.2117498294961
 30
0.0
 11
158.4058706256548
 21
380.3686148632726
 31
0.0
 12
151.4058706256548
 22
381.2901823463843
 32
0.0
 13
151.4058706256548
 23
381.2901823463843
 33
0.0
  0
SOLID
  5
20D
330
207
100
AcDbEntity
  8
1
 62
     2
100
AcDbTrace
 10
167.4058706256549
 20
380.3686148632726
 30
0.0
 11
167.4058706256549
 21
382.2117498294961
 31
0.0
 12
174.4058706256549
 22
381.2901823463843
 32
0.0
 13
174.4058706256549
 23
381.2901823463843
 33
0.0
  0
MTEXT
  5
20E
330
207
100
AcDbEntity
  8
1
 62
     7
100
AcDbMText
 10
178.322370504019
 20
383.2901823463843
 30
0.0
 40
7.0
 41
0.0
 71
     7
 72
     1
  1
23
  7
CONVERTER_2
 11
0.9999999999970621
 21
2.424068405545307E-6
 31
0.0
 73
     1
 44
0.60024009603842
  0
ENDBLK
  5
210
330
207
100
AcDbEntity
  8
0
100
AcDbBlockEnd
  0
BLOCK
  5
21A
330
213
100
AcDbEntity
  8
0
100
AcDbBlockBegin
  2
*D17
 70
     1
 71
     0
 10
0.0
 20
0.0
 30
0.0
  3
*D17
  1

  0
LINE
  5
214
330
213
100
AcDbEntity
  8
1
  6
Continuous
 62
     2
100
AcDbLine
 10
197.9058706256548
 20
365.2901823463843
 30
0.0
 11
162.9058706256548
 21
365.2901823463843
 31
0.0
  0
LINE
  5
215
330
213
100
AcDbEntity
  8
1
  6
Continuous
 62
     2
100
AcDbLine
 10
162.9058706256548
 20
401.2901823463843
 30
0.0
 11
162.9058706256548
 21
363.2901823463843
 31
0.0
  0
LINE
  5
216
330
213
100
AcDbEntity
  8
1
  6
Continuous
 62
     2
100
AcDbLine
 10
197.9058706256548
 20
425.5318520971745
 30
0.0
 11
197.9058706256548
 21
363.2901823463843
 31
0.0
  0
SOLID
  5
217
330
213
100
AcDbEntity
  8
1
 62
     2
100
AcDbTrace
 10
190.9058706256548
 20
364.3686148632726
 30
0.0
 11
190.9058706256548
 21
366.2117498294961
 31
0.0
 12
197.9058706256548
 22
365.2901823463843
 32
0.0
 13
197.9058706256548
 23
365.2901823463843
 33
0.0
  0
SOLID
  5
218
330
213
100
AcDbEntity
  8
1
 62
     2
100
AcDbTrace
 10
169.9058706256548
 20
366.2117498294961
 30
0.0
 11
169.9058706256548
 21
364.3686148632726
 31
0.0
 12
162.9058706256548
 22
365.2901823463843
 32
0.0
 13
162.9058706256548
 23
365.2901823463843
 33
0.0
  0
MTEXT
  5
219
330
213
100
AcDbEntity
  8
1
 62
     7
100
AcDbMText
 10
176.543402160796
 20
367.2901823463843
 30
0.0
 40
7.0
 41
0.0
 71
     7
 72
     1
  1
35
  7
CONVERTER_2
 11
0.9999999999970621
 21
2.424068405545307E-6
 31
0.0
 73
     1
 44
0.60024009603842
  0
ENDBLK
  5
21B
330
213
100
AcDbEntity
  8
0
100
AcDbBlockEnd
  0
BLOCK
  5
225
330
21E
100
AcDbEntity
  8
0
100
AcDbBlockBegin
  2
*D28
 70
     1
 71
     0
 10
0.0
 20
0.0
 30
0.0
  3
*D28
  1

  0
LINE
  5
21F
330
21E
100
AcDbEntity
  8
1
  6
Continuous
 62
     2
100
AcDbLine
 10
129.9058706256548
 20
365.2901823463843
 30
0.0
 11
162.9058706256548
 21
365.2901823463843
 31
0.0
  0
LINE
  5
220
330
21E
100
AcDbEntity
  8
1
  6
Continuous
 62
     2
100
AcDbLine
 10
162.9058706256548
 20
399.5172237542262
 30
0.0
 11
162.9058706256548
 21
363.2901823463843
 31
0.0
  0
LINE
  5
221
330
21E
100
AcDbEntity
  8
1
  6
Continuous
 62
     2
100
AcDbLine
 10
129.9058706256548
 20
427.4521823463721
 30
0.0
 11
129.9058706256548
 21
363.2901823463843
 31
0.0
  0
SOLID
  5
222
330
21E
100
AcDbEntity
  8
1
 62
     2
100
AcDbTrace
 10
136.9058706256548
 20
366.2117498294961
 30
0.0
 11
136.9058706256548
 21
364.3686148632726
 31
0.0
 12
129.9058706256548
 22
365.2901823463843
 32
0.0
 13
129.9058706256548
 23
365.2901823463843
 33
0.0
  0
SOLID
  5
223
330
21E
100
AcDbEntity
  8
1
 62
     2
100
AcDbTrace
 10
155.9058706256548
 20
364.3686148632726
 30
0.0
 11
155.9058706256548
 21
366.2117498294961
 31
0.0
 12
162.9058706256548
 22
365.2901823463843
 32
0.0
 13
162.9058706256548
 23
365.2901823463843
 33
0.0
  0
MTEXT
  5
224
330
21E
100
AcDbEntity
  8
1
 62
     7
100
AcDbMText
 10
140.438472125183
 20
367.2901823463843
 30
0.0
 40
7.0
 41
0.0
 71
     7
 72
     1
  1
33
  7
CONVERTER_2
 11
0.9999999999970621
 21
2.424068405545307E-6
 31
0.0
 73
     1
 44
0.60024009603842
  0
ENDBLK
  5
226
330
21E
100
AcDbEntity
  8
0
100
AcDbBlockEnd
  0
BLOCK
  5
230
330
229
100
AcDbEntity
  8
0
100
AcDbBlockBegin
  2
*D39
 70
     1
 71
     0
 10
0.0
 20
0.0
 30
0.0
  3
*D39
  1

  0
LINE
  5
22A
330
229
100
AcDbEntity
  8
0
  6
Continuous
 62
     2
100
AcDbLine
 10
217.9058706256549
 20
297.7901823463723
 30
0.0
 11
217.9058706256549
 21
271.7901823463723
 31
0.0
  0
LINE
  5
22B
330
229
100
AcDbEntity
  8
0
  6
Continuous
 62
     2
100
AcDbLine
 10
197.9058706256549
 20
271.7901823463723
 30
0.0
 11
219.9058706256549
 21
271.7901823463723
 31
0.0
  0
LINE
  5
22C
330
229
100
AcDbEntity
  8
0
  6
Continuous
 62
     2
100
AcDbLine
 10
197.9058706256549
 20
297.7901823463723
 30
0.0
 11
219.9058706256549
 21
297.7901823463723
 31
0.0
  0
SOLID
  5
22D
330
229
100
AcDbEntity
  8
0
 62
     2
100
AcDbTrace
 10
218.8274381087667
 20
290.7901823463723
 30
0.0
 11
216.9843031425431
 21
290.7901823463723
 31
0.0
 12
217.9058706256549
 22
297.7901823463723
 32
0.0
 13
217.9058706256549
 23
297.7901823463723
 33
0.0
  0
SOLID
  5
22E
330
229
100
AcDbEntity
  8
0
 62
     2
100
AcDbTrace
 10
216.9843031425431
 20
278.7901823463723
 30
0.0
 11
218.8274381087667
 21
278.7901823463723
 31
0.0
 12
217.9058706256549
 22
271.7901823463723
 32
0.0
 13
217.9058706256549
 23
271.7901823463723
 33
0.0
  0
MTEXT
  5
22F
330
229
100
AcDbEntity
  8
0
 62
     7
100
AcDbMText
 10
215.9058706256549
 20
279.870767419696
 30
0.0
 40
7.0
 41
0.0
 71
     7
 72
     1
  1
26
  7
CONVERTER_2
 11
0.0
 21
1.0
 31
0.0
 73
     1
 44
0.60024009603842
  0
ENDBLK
  5
231
330
229
100
AcDbEntity
  8
0
100
AcDbBlockEnd
  0
BLOCK
  5
23B
330
234
100
AcDbEntity
  8
0
100
AcDbBlockBegin
  2
*D410
 70
     1
 71
     0
 10
0.0
 20
0.0
 30
0.0
  3
*D410
  1

  0
LINE
  5
235
330
234
100
AcDbEntity
  8
0
  6
Continuous
 62
     2
100
AcDbLine
 10
129.9058706256548
 20
251.7901823463723
 30
0.0
 11
197.9058706256549
 21
251.7901823463723
 31
0.0
  0
LINE
  5
236
330
234
100
AcDbEntity
  8
0
  6
Continuous
 62
     2
100
AcDbLine
 10
197.9058706256549
 20
271.7901823463723
 30
0.0
 11
197.9058706256549
 21
249.7901823463723
 31
0.0
  0
LINE
  5
237
330
234
100
AcDbEntity
  8
0
  6
Continuous
 62
     2
100
AcDbLine
 10
129.9058706256548
 20
275.4521823463844
 30
0.0
 11
129.9058706256548
 21
249.7901823463723
 31
0.0
  0
SOLID
  5
238
330
234
100
AcDbEntity
  8
0
 62
     2
100
AcDbTrace
 10
136.9058706256548
 20
252.7117498294841
 30
0.0
 11
136.9058706256548
 21
250.8686148632606
 31
0.0
 12
129.9058706256548
 22
251.7901823463723
 32
0.0
 13
129.9058706256548
 23
251.7901823463723
 33
0.0
  0
SOLID
  5
239
330
234
100
AcDbEntity
  8
0
 62
     2
100
AcDbTrace
 10
190.9058706256549
 20
250.8686148632606
 30
0.0
 11
190.9058706256549
 21
252.7117498294841
 31
0.0
 12
197.9058706256549
 22
251.7901823463723
 32
0.0
 13
197.9058706256549
 23
251.7901823463723
 33
0.0
  0
MTEXT
  5
23A
330
234
100
AcDbEntity
  8
0
 62
     7
100
AcDbMText
 10
156.468700271411
 20
253.7901823463723
 30
0.0
 40
7.0
 41
0.0
 71
     7
 72
     1
  1
68
  7
CONVERTER_2
 11
0.9999999999970621
 21
2.424068405545307E-6
 31
0.0
 73
     1
 44
0.60024009603842
  0
ENDBLK
  5
23C
330
234
100
AcDbEntity
  8
0
100
AcDbBlockEnd
  0
BLOCK
  5
248
330
23F
100
AcDbEntity
  8
0
100
AcDbBlockBegin
  2
*D511
 70
     1
 71
     0
 10
0.0
 20
0.0
 30
0.0
  3
*D511
  1

  0
LINE
  5
240
330
23F
100
AcDbEntity
  8
1
  6
Continuous
 62
     2
100
AcDbLine
 10
115.9058706256548
 20
467.267682346372
 30
0.0
 11
129.9058706256548
 21
467.267682346372
 31
0.0
  0
LINE
  5
241
330
23F
100
AcDbEntity
  8
1
  6
Continuous
 62
     2
100
AcDbLine
 10
129.9058706256548
 20
467.267682346372
 30
0.0
 11
138.9058706256548
 21
467.267682346372
 31
0.0
  0
LINE
  5
242
330
23F
100
AcDbEntity
  8
1
  6
Continuous
 62
     2
100
AcDbLine
 10
138.9058706256548
 20
467.267682346372
 30
0.0
 11
152.9058706256548
 21
467.267682346372
 31
0.0
  0
LINE
  5
243
330
23F
100
AcDbEntity
  8
1
  6
Continuous
 62
     2
100
AcDbLine
 10
138.9058706256548
 20
447.267682346372
 30
0.0
 11
138.9058706256548
 21
469.267682346372
 31
0.0
  0
LINE
  5
244
330
23F
100
AcDbEntity
  8
1
  6
Continuous
 62
     2
100
AcDbLine
 10
129.9058706256548
 20
446.1281823463722
 30
0.0
 11
129.9058706256548
 21
469.267682346372
 31
0.0
  0
SOLID
  5
245
330
23F
100
AcDbEntity
  8
1
 62
     2
100
AcDbTrace
 10
122.9058706256548
 20
466.3461148632603
 30
0.0
 11
122.9058706256548
 21
468.1892498294837
 31
0.0
 12
129.9058706256548
 22
467.267682346372
 32
0.0
 13
129.9058706256548
 23
467.267682346372
 33
0.0
  0
SOLID
  5
246
330
23F
100
AcDbEntity
  8
1
 62
     2
100
AcDbTrace
 10
145.9058706256548
 20
468.1892498294837
 30
0.0
 11
145.9058706256548
 21
466.3461148632603
 31
0.0
 12
138.9058706256548
 22
467.267682346372
 32
0.0
 13
138.9058706256548
 23
467.267682346372
 33
0.0
  0
MTEXT
  5
247
330
23F
100
AcDbEntity
  8
1
 62
     7
100
AcDbMText
 10
132.152298426419
 20
469.267682346372
 30
0.0
 40
7.0
 41
0.0
 71
     7
 72
     1
  1
9
  7
CONVERTER_2
 11
0.9999999999970621
 21
2.424068405545307E-6
 31
0.0
 73
     1
 44
0.60024009603842
  0
ENDBLK
  5
249
330
23F
100
AcDbEntity
  8
0
100
AcDbBlockEnd
  0
BLOCK
  5
254
330
24C
100
AcDbEntity
  8
0
100
AcDbBlockBegin
  2
*D612
 70
     1
 71
     0
 10
0.0
 20
0.0
 30
0.0
  3
*D612
  1

  0
LINE
  5
24D
330
24C
100
AcDbEntity
  8
1
  6
Continuous
 62
     2
100
AcDbLine
 10
349.9169776245971
 20
326.7901823463723
 30
0.0
 11
349.9169776245971
 21
367.402143394504
 31
0.0
  0
LINE
  5
24E
330
24C
100
AcDbEntity
  8
1
  6
Continuous
 62
     2
100
AcDbLine
 10
349.9169776245971
 20
284.7901823463723
 30
0.0
 11
349.9169776245971
 21
326.7901823463723
 31
0.0
  0
LINE
  5
24F
330
24C
100
AcDbEntity
  8
1
  6
Continuous
 62
     2
100
AcDbLine
 10
329.9169776245971
 20
284.7901823463723
 30
0.0
 11
351.9169776245971
 21
284.7901823463723
 31
0.0
  0
LINE
  5
250
330
24C
100
AcDbEntity
  8
1
  6
Continuous
 62
     2
100
AcDbLine
 10
315.8058706256671
 20
326.7901823463723
 30
0.0
 11
351.9169776245971
 21
326.7901823463723
 31
0.0
  0
SOLID
  5
251
330
24C
100
AcDbEntity
  8
1
 62
     2
100
AcDbTrace
 10
348.9954101414854
 20
291.7901823463723
 30
0.0
 11
350.8385451077089
 21
291.7901823463723
 31
0.0
 12
349.9169776245971
 22
284.7901823463723
 32
0.0
 13
349.9169776245971
 23
284.7901823463723
 33
0.0
  0
SOLID
  5
252
330
24C
100
AcDbEntity
  8
1
 62
     2
100
AcDbTrace
 10
350.8385451077089
 20
319.7901823463723
 30
0.0
 11
348.9954101414854
 21
319.7901823463723
 31
0.0
 12
349.9169776245971
 22
326.7901823463723
 32
0.0
 13
349.9169776245971
 23
326.7901823463723
 33
0.0
  0
MTEXT
  5
253
330
24C
100
AcDbEntity
  8
1
 62
     7
100
AcDbMText
 10
347.9169776245971
 20
329.602143394504
 30
0.0
 40
7.0
 41
0.0
 71
     7
 72
     1
  1
42リフト5
  7
CONVERTER_1
 11
0.0
 21
1.0
 31
0.0
 73
     1
 44
0.60024009603842
  0
ENDBLK
  5
255
330
24C
100
AcDbEntity
  8
0
100
AcDbBlockEnd
  0
BLOCK
  5
25F
330
258
100
AcDbEntity
  8
0
100
AcDbBlockBegin
  2
*D713
 70
     1
 71
     0
 10
0.0
 20
0.0
 30
0.0
  3
*D713
  1

  0
LINE
  5
259
330
258
100
AcDbEntity
  8
1
  6
Continuous
 62
     2
100
AcDbLine
 10
279.405870625667
 20
251.7901823463723
 30
0.0
 11
314.9058706256662
 21
251.7901823463723
 31
0.0
  0
LINE
  5
25A
330
258
100
AcDbEntity
  8
1
  6
Continuous
 62
     2
100
AcDbLine
 10
314.9058706256662
 20
265.7901823463723
 30
0.0
 11
314.9058706256662
 21
249.7901823463723
 31
0.0
  0
LINE
  5
25B
330
258
100
AcDbEntity
  8
1
  6
Continuous
 62
     2
100
AcDbLine
 10
279.405870625667
 20
273.7901823463719
 30
0.0
 11
279.405870625667
 21
249.7901823463723
 31
0.0
  0
SOLID
  5
25C
330
258
100
AcDbEntity
  8
1
 62
     2
100
AcDbTrace
 10
286.405870625667
 20
252.7117498294841
 30
0.0
 11
286.405870625667
 21
250.8686148632606
 31
0.0
 12
279.405870625667
 22
251.7901823463723
 32
0.0
 13
279.405870625667
 23
251.7901823463723
 33
0.0
  0
SOLID
  5
25D
330
258
100
AcDbEntity
  8
1
 62
     2
100
AcDbTrace
 10
307.9058706256662
 20
250.8686148632606
 30
0.0
 11
307.9058706256662
 21
252.7117498294841
 31
0.0
 12
314.9058706256662
 22
251.7901823463723
 32
0.0
 13
314.9058706256662
 23
251.7901823463723
 33
0.0
  0
MTEXT
  5
25E
330
258
100
AcDbEntity
  8
1
 62
     7
100
AcDbMText
 10
291.368942273259
 20
253.7901823463723
 30
0.0
 40
7.0
 41
0.0
 71
     7
 72
     1
  1
36
  7
CONVERTER_2
 11
0.9999999999970621
 21
2.424068405545307E-6
 31
0.0
 73
     1
 44
0.60024009603842
  0
ENDBLK
  5
260
330
258
100
AcDbEntity
  8
0
100
AcDbBlockEnd
  0
ENDSEC
  0
SECTION
  2
ENTITIES
  0
INSERT
  5
45
330
1F
100
AcDbEntity
  8
1
100
AcDbBlockReference
  2
36-45
 10
570.6050298258701
 20
323.817354325722
 30
0.0
  0
INSERT
  5
46
330
1F
100
AcDbEntity
  8
1
100
AcDbBlockReference
  2
B4111L-0-13
 10
1378.724277485667
 20
190.2901823463721
 30
0.0
  0
INSERT
  5
47
330
1F
100
AcDbEntity
  8
0
100
AcDbBlockReference
  2
37-1-13
 10
71.10464040888382
 20
213.2944764562276
 30
0.0
  0
INSERT
  5
48
330
1F
100
AcDbEntity
  8
1
100
AcDbBlockReference
  2
32-213
 10
490.9058706256672
 20
190.2901823463721
 30
0.0
  0
INSERT
  5
49
330
1F
100
AcDbEntity
  8
1
100
AcDbBlockReference
  2
_J__A4
 10
0.0
 20
0.0
 30
0.0
 41
2.0
 42
2.0
 43
2.0
  0
LINE
  5
1EE
330
1F
100
AcDbEntity
  8
0
  6
DASH_CENTER
 62
     2
100
AcDbLine
 10
162.9058706256548
 20
284.7901823463723
 30
0.0
 11
200.9058706256549
 21
284.7901823463723
 31
0.0
  0
LINE
  5
1EF
330
1F
100
AcDbEntity
  8
1
  6
DASH_CENTER
 62
     2
100
AcDbLine
 10
162.9058706256548
 20
284.1901823463724
 30
0.0
 11
162.9058706256548
 21
268.7901823463723
 31
0.0
  0
LINE
  5
1F0
330
1F
100
AcDbEntity
  8
1
  6
DASH_CENTER
 62
     2
100
AcDbLine
 10
162.9058706256547
 20
329.7901823463723
 30
0.0
 11
162.9058706256548
 21
284.1901823463724
 31
0.0
  0
LINE
  5
1F1
330
1F
100
AcDbEntity
  8
0
  6
DASH_CENTER
 62
     2
100
AcDbLine
 10
162.9058706256548
 20
457.4260988152217
 30
0.0
 11
162.9058706256548
 21
399.5172237542262
 31
0.0
  0
LINE
  5
1F2
330
1F
100
AcDbEntity
  8
0
  6
DASH_CENTER
 62
     2
100
AcDbLine
 10
126.9058706256548
 20
436.790182346372
 30
0.0
 11
200.9058706256548
 21
436.790182346372
 31
0.0
  0
LINE
  5
1F3
330
1F
100
AcDbEntity
  8
0
  6
DASH_CENTER
 62
     2
100
AcDbLine
 10
126.9058706256548
 20
284.7901823463723
 30
0.0
 11
162.9058706256548
 21
284.7901823463723
 31
0.0
  0
LINE
  5
1F4
330
1F
100
AcDbEntity
  8
1
  6
DASH_CENTER
 62
     2
100
AcDbLine
 10
314.9058706256662
 20
265.7901823463723
 30
0.0
 11
314.9058706256662
 21
332.7901823463723
 31
0.0
  0
LINE
  5
1F5
330
1F
100
AcDbEntity
  8
0
  6
DASH_CENTER
 62
     2
100
AcDbLine
 10
276.4058706256674
 20
284.7901823463723
 30
0.0
 11
332.4058706256671
 21
284.7901823463723
 31
0.0
  0
LINE
  5
1F6
330
1F
100
AcDbEntity
  8
0
  6
PHANTOM
 62
     4
100
AcDbLine
 10
162.9058706256519
 20
419.686392235384
 30
0.0
 11
162.9058706256519
 21
399.5172237542262
 31
0.0
  0
SOLID
  5
1F7
330
1F
100
AcDbEntity
  8
1
 62
     2
100
AcDbTrace
 10
149.7220984133504
 20
411.5172207783374
 30
0.0
 11
148.1258967099975
 21
412.4387882614492
 31
0.0
 12
152.423997561674
 22
418.0401823463843
 32
0.0
 13
152.423997561674
 23
418.0401823463843
 33
0.0
  0
LEADER
  5
1F8
330
1F
100
AcDbEntity
  8
1
  6
Continuous
 62
     2
100
AcDbLeader
  3
Standard
 71
     0
 76
     3
 10
152.423997561674
 20
418.0401823463843
 30
0.0
 10
121.9687708619212
 20
365.2901823463843
 30
0.0
 10
94.44367878635975
 20
365.2901823463843
 30
0.0
  0
SOLID
  5
1F9
330
1F
100
AcDbEntity
  8
1
 62
     2
100
AcDbTrace
 10
130.6887697739783
 20
300.8690764313072
 30
0.0
 11
132.2849714773312
 21
301.790643914419
 31
0.0
 12
134.9868706256548
 22
295.2676823463721
 32
0.0
 13
134.9868706256548
 23
295.2676823463721
 33
0.0
  0
LEADER
  5
1FA
330
1F
100
AcDbEntity
  8
1
  6
Continuous
 62
     2
100
AcDbLeader
  3
Standard
 71
     0
 76
     3
 10
134.9868706256548
 20
295.2676823463721
 30
0.0
 10
122.7909711204594
 20
316.3915999333747
 30
0.0
 10
100.5140199464804
 20
316.3915999333747
 30
0.0
  0
SOLID
  5
1FB
330
1F
100
AcDbEntity
  8
1
 62
     2
100
AcDbTrace
 10
202.2039714773314
 20
268.4562882614372
 30
0.0
 11
200.6077697739785
 21
267.5347207783254
 31
0.0
 12
197.9058706256549
 22
274.0576823463723
 32
0.0
 13
197.9058706256549
 23
274.0576823463723
 33
0.0
  0
LEADER
  5
1FC
330
1F
100
AcDbEntity
  8
1
  6
Continuous
 62
     2
100
AcDbLeader
  3
Standard
 71
     0
 76
     3
 10
197.9058706256549
 20
274.0576823463723
 30
0.0
 10
217.3777916703456
 20
240.3313257759984
 30
0.0
 10
247.5987540501576
 20
240.3313257759984
 30
0.0
  0
MTEXT
  5
1FE
330
1F
100
AcDbEntity
  8
1
 62
     7
100
AcDbMText
 10
107.3020784881142
 20
371.2901823463843
 30
0.0
 40
7.0
 41
0.0
 71
     5
 72
     1
  1
G1/2
  7
CONVERTER_2
 73
     1
 44
0.7202881152461
  0
MTEXT
  5
1FF
330
1F
100
AcDbEntity
  8
1
 62
     7
100
AcDbMText
 10
111.5228136638139
 20
322.3915999333747
 30
0.0
 40
7.0
 41
0.0
 71
     5
 72
     1
  1
G1/2
  7
CONVERTER_2
 73
     1
 44
0.7202881152461
  0
MTEXT
  5
200
330
1F
100
AcDbEntity
  8
1
 62
     7
100
AcDbMText
 10
187.5
 20
34.0
 30
0.0
 40
7.0
 41
0.0
 71
     5
 72
     1
  1
2
  7
CONVERTER_2
 73
     1
 44
0.7202881152461
  0
MTEXT
  5
201
330
1F
100
AcDbEntity
  8
1
 62
     7
100
AcDbMText
 10
170.5
 20
34.0
 30
0.0
 40
7.0
 41
0.0
 71
     5
 72
     1
  1
1
  7
CONVERTER_2
 73
     1
 44
0.7202881152461
  0
MTEXT
  5
202
330
1F
100
AcDbEntity
  8
1
 62
     7
100
AcDbMText
 10
114.0
 20
28.5
 30
0.0
 40
7.0
 41
0.0
 71
     5
 72
     1
  1
B4111D-L-13
  7
CONVERTER_2
 73
     1
 44
0.7202881152461
  0
MTEXT
  5
203
330
1F
100
AcDbEntity
  8
1
 62
     7
100
AcDbMText
 10
114.0
 20
45.50000000000003
 30
0.0
 40
7.0
 41
0.0
 71
     5
 72
     1
  1
D式ストレート分岐バルブ
  7
CONVERTER_1
 73
     1
 44
0.7202881152461
  0
MTEXT
  5
204
330
1F
100
AcDbEntity
  8
1
 62
     7
100
AcDbMText
 10
232.5649443066715
 20
246.3313257759984
 30
0.0
 40
7.0
 41
0.0
 71
     5
 72
     1
  1
Rc1/2
  7
CONVERTER_2
 73
     1
 44
0.7202881152461
  0
MTEXT
  5
205
330
1F
100
AcDbEntity
  8
1
 62
     7
100
AcDbMText
 10
68.0
 20
75.0
 30
0.0
 40
7.0
 41
0.0
 71
     4
 72
     1
  1
JIS
  7
CONVERTER_2
 73
     1
 44
0.7202881152461
  0
MTEXT
  5
206
330
1F
100
AcDbEntity
  8
1
 62
     7
100
AcDbMText
 10
68.0
 20
61.00000000000001
 30
0.0
 40
7.0
 41
0.0
 71
     4
 72
     1
  1
共用形
  7
CONVERTER_1
 73
     1
 44
0.7202881152461
  0
DIMENSION
  5
212
330
1F
100
AcDbEntity
  8
1
100
AcDbDimension
  2
*D06
 10
151.4058706256548
 20
381.2901823463843
 30
0.0
 11
183.572370504019
 21
386.7901823463843
 31
0.0
  1
<>
 71
     5
 42
0.0
 53
0.00013888888889
  3
ME10_DIM_0
100
AcDbAlignedDimension
 13
174.4058706256549
 23
402.0223554699581
 33
0.0
 14
151.4058706256548
 24
402.0223554699579
 34
0.0
100
AcDbRotatedDimension
  0
DIMENSION
  5
21D
330
1F
100
AcDbEntity
  8
1
100
AcDbDimension
  2
*D17
 10
197.9058706256548
 20
365.2901823463843
 30
0.0
 11
181.793402160796
 21
370.7901823463843
 31
0.0
  1
<>
 71
     5
 42
0.0
 53
0.00013888888889
  3
ME10_DIM_1
100
AcDbAlignedDimension
 13
162.9058706256548
 23
401.2901823463843
 33
0.0
 14
197.9058706256548
 24
425.5318520971745
 34
0.0
100
AcDbRotatedDimension
  0
DIMENSION
  5
228
330
1F
100
AcDbEntity
  8
1
100
AcDbDimension
  2
*D28
 10
129.9058706256548
 20
365.2901823463843
 30
0.0
 11
145.688472125183
 21
370.7901823463843
 31
0.0
  1
<>
 71
     5
 42
0.0
 53
0.00013888888889
  3
ME10_DIM_2
100
AcDbAlignedDimension
 13
162.9058706256548
 23
399.5172237542262
 33
0.0
 14
129.9058706256548
 24
427.4521823463721
 34
0.0
100
AcDbRotatedDimension
  0
DIMENSION
  5
233
330
1F
100
AcDbEntity
  8
0
100
AcDbDimension
  2
*D39
 10
217.9058706256549
 20
297.7901823463723
 30
0.0
 11
212.4058706256549
 21
285.120767419696
 31
0.0
  1
<>
 71
     5
 42
0.0
 53
90.0
  3
ME10_DIM_3
100
AcDbAlignedDimension
 13
197.9058706256549
 23
271.7901823463723
 33
0.0
 14
197.9058706256549
 24
297.7901823463723
 34
0.0
 50
90.0
100
AcDbRotatedDimension
  0
DIMENSION
  5
23E
330
1F
100
AcDbEntity
  8
0
100
AcDbDimension
  2
*D410
 10
129.9058706256548
 20
251.7901823463723
 30
0.0
 11
161.718700271411
 21
257.2901823463723
 31
0.0
  1
<>
 71
     5
 42
0.0
 53
0.00013888888889
  3
ME10_DIM_4
100
AcDbAlignedDimension
 13
197.9058706256549
 23
271.7901823463723
 33
0.0
 14
129.9058706256548
 24
275.4521823463844
 34
0.0
100
AcDbRotatedDimension
  0
DIMENSION
  5
24B
330
1F
100
AcDbEntity
  8
1
100
AcDbDimension
  2
*D511
 10
129.9058706256548
 20
467.267682346372
 30
0.0
 11
134.252298426419
 21
472.767682346372
 31
0.0
  1
<>
 71
     5
 42
0.0
 53
0.00013888888889
  3
ME10_DIM_5
100
AcDbAlignedDimension
 13
138.9058706256548
 23
447.267682346372
 33
0.0
 14
129.9058706256548
 24
446.1281823463722
 34
0.0
100
AcDbRotatedDimension
  0
DIMENSION
  5
257
330
1F
100
AcDbEntity
  8
1
100
AcDbDimension
  2
*D612
 10
349.9169776245971
 20
284.7901823463723
 30
0.0
 11
344.4169776245971
 21
348.502143394504
 31
0.0
  1
42リフト5
 71
     5
 42
0.0
 53
90.0
  3
ME10_DIM_6
100
AcDbAlignedDimension
 13
315.8058706256671
 23
326.7901823463723
 33
0.0
 14
329.9169776245971
 24
284.7901823463723
 34
0.0
 50
90.0
100
AcDbRotatedDimension
  0
DIMENSION
  5
262
330
1F
100
AcDbEntity
  8
1
100
AcDbDimension
  2
*D713
 10
279.405870625667
 20
251.7901823463723
 30
0.0
 11
296.618942273259
 21
257.2901823463723
 31
0.0
  1
36
 71
     5
 42
0.0
 53
0.00013888888889
  3
ME10_DIM_7
100
AcDbAlignedDimension
 13
314.9058706256662
 23
265.7901823463723
 33
0.0
 14
279.405870625667
 24
273.7901823463719
 34
0.0
100
AcDbRotatedDimension
  0
ENDSEC
  0
SECTION
  2
OBJECTS
  0
DICTIONARY
  5
C
330
0
100
AcDbDictionary
281
     1
  3
ACAD_GROUP
350
D
  3
ACAD_LAYOUT
350
1A
  3
ACAD_MLINESTYLE
350
17
  3
ACAD_PLOTSETTINGS
350
19
  3
ACAD_PLOTSTYLENAME
350
E
  3
ACAD_TABLESTYLE
350
2A
  3
AcDbVariableDictionary
350
2C
  0
DICTIONARY
  5
D
102
{ACAD_REACTORS
330
C
102
}
330
C
100
AcDbDictionary
281
     1
  0
DICTIONARY
  5
1A
102
{ACAD_REACTORS
330
C
102
}
330
C
100
AcDbDictionary
281
     1
  3
Layout1
350
1E
  3
Layout2
350
26
  3
Model
350
22
  0
DICTIONARY
  5
17
102
{ACAD_REACTORS
330
C
102
}
330
C
100
AcDbDictionary
281
     1
  3
Standard
350
18
  0
DICTIONARY
  5
19
102
{ACAD_REACTORS
330
C
102
}
330
C
100
AcDbDictionary
281
     1
  0
ACDBDICTIONARYWDFLT
  5
E
102
{ACAD_REACTORS
330
C
102
}
330
C
100
AcDbDictionary
281
     1
  3
Normal
350
F
100
AcDbDictionaryWithDefault
340
F
  0
DICTIONARY
  5
2A
102
{ACAD_REACTORS
330
C
102
}
330
C
100
AcDbDictionary
281
     1
  3
Standard
350
2B
  0
DICTIONARY
  5
2C
102
{ACAD_REACTORS
330
C
102
}
330
C
100
AcDbDictionary
281
     1
  3
CTABLESTYLE
350
2D
  0
LAYOUT
  5
1E
102
{ACAD_REACTORS
330
1A
102
}
330
1A
100
AcDbPlotSettings
  1

  2

  4

  6

 40
0.0
 41
0.0
 42
0.0
 43
0.0
 44
0.0
 45
0.0
 46
0.0
 47
0.0
 48
0.0
 49
0.0
140
0.0
141
0.0
142
1.0
143
1.0
 70
   688
 72
     0
 73
     0
 74
     5
  7

 75
    16
147
1.0
148
0.0
149
0.0
100
AcDbLayout
  1
Layout1
 70
     1
 71
     1
 10
0.0
 20
0.0
 11
12.0
 21
9.0
 12
0.0
 22
0.0
 32
0.0
 14
1.00000000000000E+20
 24
1.00000000000000E+20
 34
1.00000000000000E+20
 15
-1.00000000000000E+20
 25
-1.00000000000000E+20
 35
-1.00000000000000E+20
146
0.0
 13
0.0
 23
0.0
 33
0.0
 16
1.0
 26
0.0
 36
0.0
 17
0.0
 27
1.0
 37
0.0
 76
     0
330
1B
  0
LAYOUT
  5
26
102
{ACAD_REACTORS
330
1A
102
}
330
1A
100
AcDbPlotSettings
  1

  2

  4

  6

 40
0.0
 41
0.0
 42
0.0
 43
0.0
 44
0.0
 45
0.0
 46
0.0
 47
0.0
 48
0.0
 49
0.0
140
0.0
141
0.0
142
1.0
143
1.0
 70
   688
 72
     0
 73
     0
 74
     5
  7

 75
    16
147
1.0
148
0.0
149
0.0
100
AcDbLayout
  1
Layout2
 70
     1
 71
     2
 10
0.0
 20
0.0
 11
0.0
 21
0.0
 12
0.0
 22
0.0
 32
0.0
 14
0.0
 24
0.0
 34
0.0
 15
0.0
 25
0.0
 35
0.0
146
0.0
 13
0.0
 23
0.0
 33
0.0
 16
1.0
 26
0.0
 36
0.0
 17
0.0
 27
1.0
 37
0.0
 76
     0
330
23
  0
LAYOUT
  5
22
102
{ACAD_REACTORS
330
1A
102
}
330
1A
100
AcDbPlotSettings
  1

  2

  4

  6

 40
0.0
 41
0.0
 42
0.0
 43
0.0
 44
0.0
 45
0.0
 46
0.0
 47
0.0
 48
0.0
 49
0.0
140
0.0
141
0.0
142
1.0
143
1.0
 70
  1712
 72
     0
 73
     0
 74
     0
  7

 75
     0
147
1.0
148
0.0
149
0.0
100
AcDbLayout
  1
Model
 70
     1
 71
     0
 10
0.0
 20
0.0
 11
0.0
 21
0.0
 12
0.0
 22
0.0
 32
0.0
 14
0.0
 24
0.0
 34
0.0
 15
420.0
 25
594.0
 35
0.0
146
0.0
 13
0.0
 23
0.0
 33
0.0
 16
1.0
 26
0.0
 36
0.0
 17
0.0
 27
1.0
 37
0.0
 76
     0
330
1F
  0
MLINESTYLE
  5
18
102
{ACAD_REACTORS
330
17
102
}
330
17
100
AcDbMlineStyle
  2
Standard
 70
     0
  3

 62
   256
 51
90.0
 52
90.0
 71
     2
 49
0.5
 62
   256
  6
BYLAYER
 49
-0.5
 62
   256
  6
BYLAYER
  0
ACDBPLACEHOLDER
  5
F
102
{ACAD_REACTORS
330
E
102
}
330
E
  0
TABLESTYLE
  5
2B
102
{ACAD_REACTORS
330
2A
102
}
330
2A
100
AcDbTableStyle
  3
Standard
 70
     0
 71
     0
 40
0.06
 41
0.06
280
     0
281
     0
  7
Standard
140
0.18
170
     2
 62
     0
 63
     7
283
     0
274
    -2
284
     1
 64
     0
275
    -2
285
     1
 65
     0
276
    -2
286
     1
 66
     0
277
    -2
287
     1
 67
     0
278
    -2
288
     1
 68
     0
279
    -2
289
     1
 69
     0
  7
Standard
140
0.25
170
     5
 62
     0
 63
     7
283
     0
274
    -2
284
     1
 64
     0
275
    -2
285
     1
 65
     0
276
    -2
286
     1
 66
     0
277
    -2
287
     1
 67
     0
278
    -2
288
     1
 68
     0
279
    -2
289
     1
 69
     0
  7
Standard
140
0.18
170
     5
 62
     0
 63
     7
283
     0
274
    -2
284
     1
 64
     0
275
    -2
285
     1
 65
     0
276
    -2
286
     1
 66
     0
277
    -2
287
     1
 67
     0
278
    -2
288
     1
 68
     0
279
    -2
289
     1
 69
     0
  0
DICTIONARYVAR
  5
2D
102
{ACAD_REACTORS
330
2C
102
}
330
2C
100
DictionaryVariables
280
     0
  1
Standard
  0
ENDSEC
  0
EOF
