  0
SECTION
  2
HEADER
  9
$ACADVER
  1
AC1015
  9
$ACADMAINTVER
 70
     6
  9
$DWGCODEPAGE
  3
DOS932
  9
$INSBASE
 10
0.0
 20
0.0
 30
0.0
  9
$EXTMIN
 10
0.0
 20
0.0
 30
0.0
  9
$EXTMAX
 10
420.0
 20
594.0
 30
0.0
  9
$LIMMIN
 10
0.0
 20
0.0
  9
$LIMMAX
 10
12.0
 20
9.0
  9
$ORTHOMODE
 70
     0
  9
$REGENMODE
 70
     1
  9
$FILLMODE
 70
     1
  9
$QTEXTMODE
 70
     0
  9
$MIRRTEXT
 70
     1
  9
$LTSCALE
 40
1.0
  9
$ATTMODE
 70
     1
  9
$TEXTSIZE
 40
0.2
  9
$TRACEWID
 40
0.05
  9
$TEXTSTYLE
  7
Standard
  9
$CLAYER
  8
0
  9
$CELTYPE
  6
ByLayer
  9
$CECOLOR
 62
   256
  9
$CELTSCALE
 40
1.0
  9
$DISPSILH
 70
     0
  9
$DIMSCALE
 40
1.0
  9
$DIMASZ
 40
0.18
  9
$DIMEXO
 40
0.0625
  9
$DIMDLI
 40
0.38
  9
$DIMRND
 40
0.0
  9
$DIMDLE
 40
0.0
  9
$DIMEXE
 40
0.18
  9
$DIMTP
 40
0.0
  9
$DIMTM
 40
0.0
  9
$DIMTXT
 40
0.18
  9
$DIMCEN
 40
0.09
  9
$DIMTSZ
 40
0.0
  9
$DIMTOL
 70
     0
  9
$DIMLIM
 70
     0
  9
$DIMTIH
 70
     1
  9
$DIMTOH
 70
     1
  9
$DIMSE1
 70
     0
  9
$DIMSE2
 70
     0
  9
$DIMTAD
 70
     0
  9
$DIMZIN
 70
     0
  9
$DIMBLK
  1

  9
$DIMASO
 70
     1
  9
$DIMSHO
 70
     1
  9
$DIMPOST
  1

  9
$DIMAPOST
  1

  9
$DIMALT
 70
     0
  9
$DIMALTD
 70
     2
  9
$DIMALTF
 40
25.4
  9
$DIMLFAC
 40
1.0
  9
$DIMTOFL
 70
     0
  9
$DIMTVP
 40
0.0
  9
$DIMTIX
 70
     0
  9
$DIMSOXD
 70
     0
  9
$DIMSAH
 70
     0
  9
$DIMBLK1
  1

  9
$DIMBLK2
  1

  9
$DIMSTYLE
  2
Standard
  9
$DIMCLRD
 70
     0
  9
$DIMCLRE
 70
     0
  9
$DIMCLRT
 70
     0
  9
$DIMTFAC
 40
1.0
  9
$DIMGAP
 40
0.09
  9
$DIMJUST
 70
     0
  9
$DIMSD1
 70
     0
  9
$DIMSD2
 70
     0
  9
$DIMTOLJ
 70
     1
  9
$DIMTZIN
 70
     0
  9
$DIMALTZ
 70
     0
  9
$DIMALTTZ
 70
     0
  9
$DIMUPT
 70
     0
  9
$DIMDEC
 70
     4
  9
$DIMTDEC
 70
     4
  9
$DIMALTU
 70
     2
  9
$DIMALTTD
 70
     2
  9
$DIMTXSTY
  7
Standard
  9
$DIMAUNIT
 70
     0
  9
$DIMADEC
 70
     0
  9
$DIMALTRND
 40
0.0
  9
$DIMAZIN
 70
     0
  9
$DIMDSEP
 70
    46
  9
$DIMATFIT
 70
     3
  9
$DIMFRAC
 70
     0
  9
$DIMLDRBLK
  1

  9
$DIMLUNIT
 70
     2
  9
$DIMLWD
 70
    -2
  9
$DIMLWE
 70
    -2
  9
$DIMTMOVE
 70
     0
  9
$LUNITS
 70
     2
  9
$LUPREC
 70
     4
  9
$SKETCHINC
 40
0.1
  9
$FILLETRAD
 40
0.5
  9
$AUNITS
 70
     0
  9
$AUPREC
 70
     0
  9
$MENU
  1
.
  9
$ELEVATION
 40
0.0
  9
$PELEVATION
 40
0.0
  9
$THICKNESS
 40
0.0
  9
$LIMCHECK
 70
     0
  9
$CHAMFERA
 40
0.5
  9
$CHAMFERB
 40
0.5
  9
$CHAMFERC
 40
1.0
  9
$CHAMFERD
 40
0.0
  9
$SKPOLY
 70
     0
  9
$TDCREATE
 40
2456134.667735995
  9
$TDUCREATE
 40
2456134.292735995
  9
$TDUPDATE
 40
2456134.667736007
  9
$TDUUPDATE
 40
2456134.292736007
  9
$TDINDWG
 40
0.0000000116
  9
$TDUSRTIMER
 40
0.0000000116
  9
$USRTIMER
 70
     1
  9
$ANGBASE
 50
0.0
  9
$ANGDIR
 70
     0
  9
$PDMODE
 70
     0
  9
$PDSIZE
 40
0.0
  9
$PLINEWID
 40
0.0
  9
$SPLFRAME
 70
     0
  9
$SPLINETYPE
 70
     6
  9
$SPLINESEGS
 70
     8
  9
$HANDSEED
  5
259
  9
$SURFTAB1
 70
     6
  9
$SURFTAB2
 70
     6
  9
$SURFTYPE
 70
     6
  9
$SURFU
 70
     6
  9
$SURFV
 70
     6
  9
$UCSBASE
  2

  9
$UCSNAME
  2

  9
$UCSORG
 10
0.0
 20
0.0
 30
0.0
  9
$UCSXDIR
 10
1.0
 20
0.0
 30
0.0
  9
$UCSYDIR
 10
0.0
 20
1.0
 30
0.0
  9
$UCSORTHOREF
  2

  9
$UCSORTHOVIEW
 70
     0
  9
$UCSORGTOP
 10
0.0
 20
0.0
 30
0.0
  9
$UCSORGBOTTOM
 10
0.0
 20
0.0
 30
0.0
  9
$UCSORGLEFT
 10
0.0
 20
0.0
 30
0.0
  9
$UCSORGRIGHT
 10
0.0
 20
0.0
 30
0.0
  9
$UCSORGFRONT
 10
0.0
 20
0.0
 30
0.0
  9
$UCSORGBACK
 10
0.0
 20
0.0
 30
0.0
  9
$PUCSBASE
  2

  9
$PUCSNAME
  2

  9
$PUCSORG
 10
0.0
 20
0.0
 30
0.0
  9
$PUCSXDIR
 10
1.0
 20
0.0
 30
0.0
  9
$PUCSYDIR
 10
0.0
 20
1.0
 30
0.0
  9
$PUCSORTHOREF
  2

  9
$PUCSORTHOVIEW
 70
     0
  9
$PUCSORGTOP
 10
0.0
 20
0.0
 30
0.0
  9
$PUCSORGBOTTOM
 10
0.0
 20
0.0
 30
0.0
  9
$PUCSORGLEFT
 10
0.0
 20
0.0
 30
0.0
  9
$PUCSORGRIGHT
 10
0.0
 20
0.0
 30
0.0
  9
$PUCSORGFRONT
 10
0.0
 20
0.0
 30
0.0
  9
$PUCSORGBACK
 10
0.0
 20
0.0
 30
0.0
  9
$USERI1
 70
     0
  9
$USERI2
 70
     0
  9
$USERI3
 70
     0
  9
$USERI4
 70
     0
  9
$USERI5
 70
     0
  9
$USERR1
 40
13.2
  9
$USERR2
 40
0.0
  9
$USERR3
 40
0.0
  9
$USERR4
 40
0.0
  9
$USERR5
 40
0.0
  9
$WORLDVIEW
 70
     1
  9
$SHADEDGE
 70
     3
  9
$SHADEDIF
 70
    70
  9
$TILEMODE
 70
     1
  9
$MAXACTVP
 70
    64
  9
$PINSBASE
 10
0.0
 20
0.0
 30
0.0
  9
$PLIMCHECK
 70
     0
  9
$PEXTMIN
 10
1.00000000000000E+20
 20
1.00000000000000E+20
 30
1.00000000000000E+20
  9
$PEXTMAX
 10
-1.00000000000000E+20
 20
-1.00000000000000E+20
 30
-1.00000000000000E+20
  9
$PLIMMIN
 10
0.0
 20
0.0
  9
$PLIMMAX
 10
12.0
 20
9.0
  9
$UNITMODE
 70
     0
  9
$VISRETAIN
 70
     1
  9
$PLINEGEN
 70
     0
  9
$PSLTSCALE
 70
     1
  9
$TREEDEPTH
 70
  3020
  9
$CMLSTYLE
  2
Standard
  9
$CMLJUST
 70
     0
  9
$CMLSCALE
 40
1.0
  9
$PROXYGRAPHICS
 70
     1
  9
$MEASUREMENT
 70
     1
  9
$CELWEIGHT
370
    -1
  9
$ENDCAPS
280
     0
  9
$JOINSTYLE
280
     0
  9
$LWDISPLAY
290
     0
  9
$INSUNITS
 70
     1
  9
$HYPERLINKBASE
  1

  9
$STYLESHEET
  1

  9
$XEDIT
290
     1
  9
$CEPSNTYPE
380
     0
  9
$PSTYLEMODE
290
     0
  9
$FINGERPRINTGUID
  2
{FAEB1C30-E019-11D5-929B-00C0DF256EC4}
  9
$VERSIONGUID
  2
{FAEB1C32-E019-11D5-929B-00C0DF256EC4}
  9
$EXTNAMES
290
     1
  9
$PSVPSCALE
 40
0.0
  9
$OLESTARTUP
290
     0
  0
ENDSEC
  0
SECTION
  2
CLASSES
  0
CLASS
  1
ACDBDICTIONARYWDFLT
  2
AcDbDictionaryWithDefault
  3
ObjectDBX Classes
 90
        0
280
     0
281
     0
  0
CLASS
  1
TABLESTYLE
  2
AcDbTableStyle
  3
ObjectDBX Classes
 90
     2047
280
     0
281
     0
  0
CLASS
  1
DICTIONARYVAR
  2
AcDbDictionaryVar
  3
ObjectDBX Classes
 90
        0
280
     0
281
     0
  0
CLASS
  1

  2
exOdDbCircle
  3

 90
        0
280
     0
281
     1
  0
CLASS
  1

  2
exOdDbSpline
  3

 90
        0
280
     0
281
     1
  0
CLASS
  1
ACDBPLACEHOLDER
  2
AcDbPlaceHolder
  3
ObjectDBX Classes
 90
        0
280
     0
281
     0
  0
CLASS
  1
LAYOUT
  2
AcDbLayout
  3
ObjectDBX Classes
 90
        0
280
     0
281
     0
  0
ENDSEC
  0
SECTION
  2
TABLES
  0
TABLE
  2
VPORT
  5
8
330
0
100
AcDbSymbolTable
 70
     2
  0
VPORT
  5
29
330
8
100
AcDbSymbolTableRecord
100
AcDbViewportTableRecord
  2
*Active
 70
     0
 10
0.0
 20
0.0
 11
1.0
 21
1.0
 12
210.0
 22
297.0
 13
0.0
 23
0.0
 14
0.5
 24
0.5
 15
0.5
 25
0.5
 16
0.0
 26
0.0
 36
1.0
 17
0.0
 27
0.0
 37
0.0
 40
653.4000000000001
 41
1.60267857142857
 42
50.0
 43
0.0
 44
0.0
 50
0.0
 51
0.0
 71
     0
 72
   100
 73
     1
 74
     3
 75
     0
 76
     0
 77
     0
 78
     0
281
     0
 65
     1
110
0.0
120
0.0
130
0.0
111
1.0
121
0.0
131
0.0
112
0.0
122
1.0
132
0.0
 79
     0
146
0.0
  0
ENDTAB
  0
TABLE
  2
LTYPE
  5
5
330
0
100
AcDbSymbolTable
 70
     8
  0
LTYPE
  5
14
330
5
100
AcDbSymbolTableRecord
100
AcDbLinetypeTableRecord
  2
ByBlock
 70
     0
  3

 72
    65
 73
     0
 40
0.0
  0
LTYPE
  5
15
330
5
100
AcDbSymbolTableRecord
100
AcDbLinetypeTableRecord
  2
ByLayer
 70
     0
  3

 72
    65
 73
     0
 40
0.0
  0
LTYPE
  5
16
330
5
100
AcDbSymbolTableRecord
100
AcDbLinetypeTableRecord
  2
Continuous
 70
     0
  3
Solid line
 72
    65
 73
     0
 40
0.0
  0
LTYPE
  5
2E
330
5
100
AcDbSymbolTableRecord
100
AcDbLinetypeTableRecord
  2
DASHED
 70
     0
  3
Dashed
 72
    65
 73
     2
 40
15.0
 49
7.0
 74
     0
 49
-8.0
 74
     0
  0
LTYPE
  5
2F
330
5
100
AcDbSymbolTableRecord
100
AcDbLinetypeTableRecord
  2
DOTTED
 70
     0
  3
Dotted
 72
    65
 73
     2
 40
1.0
 49
0.0
 74
     0
 49
-1.0
 74
     0
  0
LTYPE
  5
30
330
5
100
AcDbSymbolTableRecord
100
AcDbLinetypeTableRecord
  2
DOT_CENTER
 70
     0
  3
Dot_Center
 72
    65
 73
     4
 40
14.0
 49
12.0
 74
     0
 49
-1.0
 74
     0
 49
0.0
 74
     0
 49
-1.0
 74
     0
  0
LTYPE
  5
31
330
5
100
AcDbSymbolTableRecord
100
AcDbLinetypeTableRecord
  2
LONG_DASHED
 70
     0
  3
Long_Dashed
 72
    65
 73
     2
 40
15.0
 49
10.0
 74
     0
 49
-5.0
 74
     0
  0
LTYPE
  5
32
330
5
100
AcDbSymbolTableRecord
100
AcDbLinetypeTableRecord
  2
DASH_CENTER
 70
     0
  3
Dash_Center
 72
    65
 73
     4
 40
14.0
 49
11.0
 74
     0
 49
-1.0
 74
     0
 49
1.0
 74
     0
 49
-1.0
 74
     0
  0
LTYPE
  5
33
330
5
100
AcDbSymbolTableRecord
100
AcDbLinetypeTableRecord
  2
PHANTOM
 70
     0
  3
Phantom
 72
    65
 73
     6
 40
13.0
 49
10.0
 74
     0
 49
-1.0
 74
     0
 49
0.0
 74
     0
 49
-1.0
 74
     0
 49
0.0
 74
     0
 49
-1.0
 74
     0
  0
LTYPE
  5
34
330
5
100
AcDbSymbolTableRecord
100
AcDbLinetypeTableRecord
  2
CENTER_DASH_DASH
 70
     0
  3
Center_Dash_Dash
 72
    65
 73
     6
 40
14.0
 49
9.0
 74
     0
 49
-1.0
 74
     0
 49
1.0
 74
     0
 49
-1.0
 74
     0
 49
1.0
 74
     0
 49
-1.0
 74
     0
  0
ENDTAB
  0
TABLE
  2
LAYER
  5
2
330
0
100
AcDbSymbolTable
 70
     2
  0
LAYER
  5
10
330
2
100
AcDbSymbolTableRecord
100
AcDbLayerTableRecord
  2
0
 70
     0
 62
     7
  6
Continuous
370
    -3
390
F
  0
LAYER
  5
35
330
2
100
AcDbSymbolTableRecord
100
AcDbLayerTableRecord
  2
1
 70
     0
 62
     7
  6
Continuous
370
    -3
390
F
  0
ENDTAB
  0
TABLE
  2
STYLE
  5
3
330
0
100
AcDbSymbolTable
 70
     3
  0
STYLE
  5
11
330
3
100
AcDbSymbolTableRecord
100
AcDbTextStyleTableRecord
  2
Standard
 70
     0
 40
0.0
 41
1.0
 50
0.0
 71
     0
 42
0.2
  3
txt
  4

  0
STYLE
  5
1DA
330
3
100
AcDbSymbolTableRecord
100
AcDbTextStyleTableRecord
  2
CONVERTER_1
 70
     0
 40
0.0
 41
0.89
 50
0.0
 71
     0
 42
0.2
  3
msmincho.ttc
  4

1001
ACAD
1000
MS Mincho
1071
    32785
  0
STYLE
  5
1F5
330
3
100
AcDbSymbolTableRecord
100
AcDbTextStyleTableRecord
  2
CONVERTER_2
 70
     0
 40
0.0
 41
0.9
 50
0.0
 71
     0
 42
0.2
  3
txt.shx
  4

  0
ENDTAB
  0
TABLE
  2
VIEW
  5
6
330
0
100
AcDbSymbolTable
 70
     0
  0
ENDTAB
  0
TABLE
  2
UCS
  5
7
330
0
100
AcDbSymbolTable
 70
     0
  0
ENDTAB
  0
TABLE
  2
APPID
  5
9
330
0
100
AcDbSymbolTable
 70
     1
  0
APPID
  5
12
330
9
100
AcDbSymbolTableRecord
100
AcDbRegAppTableRecord
  2
ACAD
 70
     0
  0
ENDTAB
  0
TABLE
  2
DIMSTYLE
  5
A
330
0
100
AcDbSymbolTable
 70
     9
100
AcDbDimStyleTable
  0
DIMSTYLE
105
27
330
A
100
AcDbSymbolTableRecord
100
AcDbDimStyleTableRecord
  2
Standard
 70
     0
340
11
  0
DIMSTYLE
105
208
102
{ACAD_REACTORS
330
209
102
}
330
A
100
AcDbSymbolTableRecord
100
AcDbDimStyleTableRecord
  2
ME10_DIM_0
 70
     0
 41
7.0
 42
0.0
 44
2.0
 73
     0
 74
     0
 77
     1
 78
     8
140
7.0
147
0.625
172
     1
173
     1
176
     2
177
     2
178
     7
271
     2
340
1F5
  0
DIMSTYLE
105
213
102
{ACAD_REACTORS
330
214
102
}
330
A
100
AcDbSymbolTableRecord
100
AcDbDimStyleTableRecord
  2
ME10_DIM_1
 70
     0
 41
7.0
 42
0.0
 44
2.0
 73
     0
 74
     0
 77
     1
 78
     8
140
7.0
147
0.625
172
     1
173
     1
176
     2
177
     2
178
     7
271
     2
340
1F5
  0
DIMSTYLE
105
21E
102
{ACAD_REACTORS
330
21F
102
}
330
A
100
AcDbSymbolTableRecord
100
AcDbDimStyleTableRecord
  2
ME10_DIM_2
 70
     0
 41
7.0
 42
0.0
 44
2.0
 77
     1
 78
     8
140
7.0
147
0.625
172
     1
173
     1
176
     2
177
     2
178
     7
271
     2
340
1F5
  0
DIMSTYLE
105
229
102
{ACAD_REACTORS
330
22A
102
}
330
A
100
AcDbSymbolTableRecord
100
AcDbDimStyleTableRecord
  2
ME10_DIM_3
 70
     0
 41
7.0
 42
0.0
 44
2.0
 77
     1
 78
     8
140
7.0
147
0.625
172
     1
173
     1
176
     2
177
     2
178
     7
271
     2
340
1F5
  0
DIMSTYLE
105
234
102
{ACAD_REACTORS
330
235
102
}
330
A
100
AcDbSymbolTableRecord
100
AcDbDimStyleTableRecord
  2
ME10_DIM_4
 70
     0
 41
7.0
 42
0.0
 44
2.0
 73
     0
 74
     0
 77
     1
 78
     8
140
7.0
147
0.625
172
     1
173
     1
176
     2
177
     2
178
     7
271
     2
340
1F5
  0
DIMSTYLE
105
23F
102
{ACAD_REACTORS
330
240
102
}
330
A
100
AcDbSymbolTableRecord
100
AcDbDimStyleTableRecord
  2
ME10_DIM_5
 70
     0
 41
7.0
 42
0.0
 44
2.0
 73
     0
 74
     0
 77
     1
 78
     8
140
7.0
147
0.625
172
     1
173
     1
176
     2
177
     2
178
     7
271
     2
340
1DA
  0
DIMSTYLE
105
24C
102
{ACAD_REACTORS
330
24D
102
}
330
A
100
AcDbSymbolTableRecord
100
AcDbDimStyleTableRecord
  2
ME10_DIM_6
 70
     0
 41
7.0
 42
0.0
 44
2.0
 73
     0
 74
     0
 77
     1
 78
     8
140
7.0
147
0.625
172
     1
173
     1
176
     2
177
     2
178
     7
271
     2
340
1F5
  0
DIMSTYLE
105
257
102
{ACAD_REACTORS
330
258
102
}
330
A
100
AcDbSymbolTableRecord
100
AcDbDimStyleTableRecord
  2
ME10_DIM_7
 70
     0
 41
7.0
 42
0.0
 44
2.0
 73
     0
 74
     0
 77
     1
 78
     8
140
7.0
147
0.625
172
     1
173
     1
176
     2
177
     2
178
     7
271
     2
340
1F5
  0
ENDTAB
  0
TABLE
  2
BLOCK_RECORD
  5
1
330
0
100
AcDbSymbolTable
 70
    15
  0
BLOCK_RECORD
  5
1F
330
1
100
AcDbSymbolTableRecord
100
AcDbBlockTableRecord
  2
*Model_Space
340
22
  0
BLOCK_RECORD
  5
1B
330
1
100
AcDbSymbolTableRecord
100
AcDbBlockTableRecord
  2
*Paper_Space
340
1E
  0
BLOCK_RECORD
  5
23
330
1
100
AcDbSymbolTableRecord
100
AcDbBlockTableRecord
  2
*Paper_Space0
340
26
  0
BLOCK_RECORD
  5
36
330
1
100
AcDbSymbolTableRecord
100
AcDbBlockTableRecord
  2
B4111L-0-13
340
0
102
{BLKREFS
331
49
102
}
  0
BLOCK_RECORD
  5
39
330
1
100
AcDbSymbolTableRecord
100
AcDbBlockTableRecord
  2
32-213
340
0
102
{BLKREFS
331
3D
102
}
  0
BLOCK_RECORD
  5
3C
330
1
100
AcDbSymbolTableRecord
100
AcDbBlockTableRecord
  2
B041A-24A-13
340
0
102
{BLKREFS
331
4A
102
}
  0
BLOCK_RECORD
  5
40
330
1
100
AcDbSymbolTableRecord
100
AcDbBlockTableRecord
  2
36-45A-M11
340
0
102
{BLKREFS
331
4B
102
}
  0
BLOCK_RECORD
  5
43
330
1
100
AcDbSymbolTableRecord
100
AcDbBlockTableRecord
  2
37-1-13
340
0
102
{BLKREFS
331
4C
102
}
  0
BLOCK_RECORD
  5
46
330
1
100
AcDbSymbolTableRecord
100
AcDbBlockTableRecord
  2
_J__A4
340
0
102
{BLKREFS
331
4D
102
}
  0
BLOCK_RECORD
  5
1FE
330
1
100
AcDbSymbolTableRecord
100
AcDbBlockTableRecord
  2
*D07
340
0
  0
BLOCK_RECORD
  5
20A
330
1
100
AcDbSymbolTableRecord
100
AcDbBlockTableRecord
  2
*D18
340
0
  0
BLOCK_RECORD
  5
215
330
1
100
AcDbSymbolTableRecord
100
AcDbBlockTableRecord
  2
*D29
340
0
  0
BLOCK_RECORD
  5
220
330
1
100
AcDbSymbolTableRecord
100
AcDbBlockTableRecord
  2
*D310
340
0
  0
BLOCK_RECORD
  5
22B
330
1
100
AcDbSymbolTableRecord
100
AcDbBlockTableRecord
  2
*D411
340
0
  0
BLOCK_RECORD
  5
236
330
1
100
AcDbSymbolTableRecord
100
AcDbBlockTableRecord
  2
*D512
340
0
  0
BLOCK_RECORD
  5
241
330
1
100
AcDbSymbolTableRecord
100
AcDbBlockTableRecord
  2
*D613
340
0
  0
BLOCK_RECORD
  5
24E
330
1
100
AcDbSymbolTableRecord
100
AcDbBlockTableRecord
  2
*D714
340
0
  0
ENDTAB
  0
ENDSEC
  0
SECTION
  2
BLOCKS
  0
BLOCK
  5
20
330
1F
100
AcDbEntity
  8
0
100
AcDbBlockBegin
  2
*Model_Space
 70
     0
 71
     0
 10
0.0
 20
0.0
 30
0.0
  3
*Model_Space
  1

  0
ENDBLK
  5
21
330
1F
100
AcDbEntity
  8
0
100
AcDbBlockEnd
  0
BLOCK
  5
1C
330
1B
100
AcDbEntity
 67
     1
  8
0
100
AcDbBlockBegin
  2
*Paper_Space
 70
     0
 71
     0
 10
0.0
 20
0.0
 30
0.0
  3
*Paper_Space
  1

  0
ENDBLK
  5
1D
330
1B
100
AcDbEntity
 67
     1
  8
0
100
AcDbBlockEnd
  0
BLOCK
  5
24
330
23
100
AcDbEntity
  8
0
100
AcDbBlockBegin
  2
*Paper_Space0
 70
     0
 71
     0
 10
0.0
 20
0.0
 30
0.0
  3
*Paper_Space0
  1

  0
ENDBLK
  5
25
330
23
100
AcDbEntity
  8
0
100
AcDbBlockEnd
  0
BLOCK
  5
37
330
36
100
AcDbEntity
  8
0
100
AcDbBlockBegin
  2
B4111L-0-13
 70
     0
 71
     0
 10
2022.858943412414
 20
202.9453701154545
 30
0.0
  3
B4111L-0-13
  1

  0
LINE
  5
4E
330
36
100
AcDbEntity
  8
1
  6
Continuous
 62
     7
100
AcDbLine
 10
149.4631572168045
 20
301.2904805862785
 30
0.0
 11
172.7131572168046
 21
301.2904805862785
 31
0.0
  0
LINE
  5
4F
330
36
100
AcDbEntity
  8
1
  6
Continuous
 62
     7
100
AcDbLine
 10
172.7131572168046
 20
299.9914424806015
 30
0.0
 11
148.7131572168045
 21
299.9914424806015
 31
0.0
  0
LINE
  5
50
330
36
100
AcDbEntity
  8
1
  6
Continuous
 62
     7
100
AcDbLine
 10
139.1328321949711
 20
388.0404805862662
 30
0.0
 11
139.1328321949711
 21
392.1625243550412
 31
0.0
  0
LINE
  5
51
330
36
100
AcDbEntity
  8
1
  6
Continuous
 62
     7
100
AcDbLine
 10
138.6868291120293
 20
388.8129805862784
 30
0.0
 11
138.6868291120292
 21
392.2820305209373
 31
0.0
  0
LINE
  5
52
330
36
100
AcDbEntity
  8
1
  6
Continuous
 62
     7
100
AcDbLine
 10
136.7131572168046
 20
388.8129805862784
 30
0.0
 11
136.7131572168046
 21
392.8108743113867
 31
0.0
  0
LINE
  5
53
330
36
100
AcDbEntity
  8
1
  6
Continuous
 62
     7
100
AcDbLine
 10
151.3932841528236
 20
415.3031236246612
 30
0.0
 11
159.0541891441228
 21
415.3031236246614
 31
0.0
  0
LINE
  5
54
330
36
100
AcDbEntity
  8
1
  6
Continuous
 62
     7
100
AcDbLine
 10
150.2400302807854
 20
413.2904805862787
 30
0.0
 11
156.6243661244558
 21
413.2904805862787
 31
0.0
  0
LINE
  5
55
330
36
100
AcDbEntity
  8
1
  6
Continuous
 62
     7
100
AcDbLine
 10
173.9912787763389
 20
298.7133209210672
 30
0.0
 11
174.0353813892236
 21
297.8717929363348
 31
0.0
  0
LINE
  5
56
330
36
100
AcDbEntity
  8
1
  6
Continuous
 62
     7
100
AcDbLine
 10
139.1328321949852
 20
388.0404805862662
 30
0.0
 11
139.1328321949711
 21
388.0404805862662
 31
0.0
  0
LINE
  5
57
330
36
100
AcDbEntity
  8
1
  6
Continuous
 62
     7
100
AcDbLine
 10
139.1328321949711
 20
406.4184368175157
 30
0.0
 11
139.1328321949711
 21
410.5404805862661
 31
0.0
  0
LINE
  5
58
330
36
100
AcDbEntity
  8
1
  6
Continuous
 62
     7
100
AcDbLine
 10
139.1328321949711
 20
410.5404805862661
 30
0.0
 11
138.6868291120292
 21
409.7679805862784
 31
0.0
  0
LINE
  5
59
330
36
100
AcDbEntity
  8
1
  6
Continuous
 62
     7
100
AcDbLine
 10
139.1328321949711
 20
388.0404805862662
 30
0.0
 11
138.6868291120293
 21
388.8129805862784
 31
0.0
  0
LINE
  5
5A
330
36
100
AcDbEntity
  8
1
  6
Continuous
 62
     7
100
AcDbLine
 10
138.6868291120293
 20
266.8129805862908
 30
0.0
 11
139.1328321949854
 21
266.0404805862785
 31
0.0
  0
LINE
  5
5B
330
36
100
AcDbEntity
  8
1
  6
Continuous
 62
     7
100
AcDbLine
 10
147.2992194306402
 20
296.1217929363284
 30
0.0
 11
147.2992194306406
 21
296.1217929363349
 31
0.0
  0
LINE
  5
5C
330
36
100
AcDbEntity
  8
1
  6
Continuous
 62
     7
100
AcDbLine
 10
139.1328321949712
 20
288.5404805862785
 30
0.0
 11
138.6868291120293
 21
287.7679805862907
 31
0.0
  0
LINE
  5
5D
330
36
100
AcDbEntity
  8
1
  6
Continuous
 62
     7
100
AcDbLine
 10
147.2992194306402
 20
296.1217929363284
 30
0.0
 11
147.43503565727
 21
298.7133209210671
 31
0.0
  0
LINE
  5
5E
330
36
100
AcDbEntity
  8
1
  6
Continuous
 62
     7
100
AcDbLine
 10
127.7131572168046
 20
270.7904805862785
 30
0.0
 11
127.7131572168046
 21
286.6284805862907
 31
0.0
  0
LINE
  5
5F
330
36
100
AcDbEntity
  8
1
  6
Continuous
 62
     7
100
AcDbLine
 10
127.7131572168046
 20
270.7904805862785
 30
0.0
 11
127.7131572168046
 21
267.9524805862906
 31
0.0
  0
LINE
  5
60
330
36
100
AcDbEntity
  8
1
  6
Continuous
 62
     7
100
AcDbLine
 10
136.7131572168046
 20
266.8129805862908
 30
0.0
 11
136.7131572168046
 21
267.9524805862906
 31
0.0
  0
LINE
  5
61
330
36
100
AcDbEntity
  8
1
  6
Continuous
 62
     7
100
AcDbLine
 10
140.4169137220093
 20
266.0404805862785
 30
0.0
 11
139.1328321949854
 21
266.0404805862785
 31
0.0
  0
LINE
  5
62
330
36
100
AcDbEntity
  8
1
  6
Continuous
 62
     7
100
AcDbLine
 10
128.8751572168045
 20
266.8129805862908
 30
0.0
 11
127.7131572168046
 21
267.9524805862906
 31
0.0
  0
LINE
  5
63
330
36
100
AcDbEntity
  8
1
  6
Continuous
 62
     7
100
AcDbLine
 10
138.6868291120293
 20
287.7679805862907
 30
0.0
 11
128.8751572168045
 21
287.7679805862907
 31
0.0
  0
LINE
  5
64
330
36
100
AcDbEntity
  8
1
  6
Continuous
 62
     7
100
AcDbLine
 10
128.8751572168045
 20
287.7679805862907
 30
0.0
 11
127.7131572168046
 21
286.6284805862907
 31
0.0
  0
LINE
  5
65
330
36
100
AcDbEntity
  8
1
  6
Continuous
 62
     7
100
AcDbLine
 10
138.6868291120293
 20
287.7679805862907
 30
0.0
 11
128.8751572168045
 21
287.7679805862907
 31
0.0
  0
LINE
  5
66
330
36
100
AcDbEntity
  8
1
  6
Continuous
 62
     2
100
AcDbLine
 10
127.7131572168046
 20
286.6284805862907
 30
0.0
 11
136.7131572168046
 21
286.6284805862907
 31
0.0
  0
LINE
  5
67
330
36
100
AcDbEntity
  8
1
  6
Continuous
 62
     7
100
AcDbLine
 10
136.7131572168046
 20
286.6284805862907
 30
0.0
 11
136.7131572168046
 21
287.7679805862907
 31
0.0
  0
LINE
  5
68
330
36
100
AcDbEntity
  8
1
  6
Continuous
 62
     2
100
AcDbLine
 10
136.7131572168046
 20
286.6284805862907
 30
0.0
 11
138.6868291120293
 21
287.7679805862907
 31
0.0
  0
LINE
  5
69
330
36
100
AcDbEntity
  8
1
  6
Continuous
 62
     2
100
AcDbLine
 10
138.6868291120293
 20
266.8129805862908
 30
0.0
 11
136.7131572168046
 21
267.9524805862906
 31
0.0
  0
LINE
  5
6A
330
36
100
AcDbEntity
  8
1
  6
Continuous
 62
     2
100
AcDbLine
 10
136.7131572168046
 20
267.9524805862906
 30
0.0
 11
127.7131572168046
 21
267.9524805862906
 31
0.0
  0
LINE
  5
6B
330
36
100
AcDbEntity
  8
1
  6
Continuous
 62
     7
100
AcDbLine
 10
138.6868291120292
 20
406.2989306516196
 30
0.0
 11
138.6868291120292
 21
409.7679805862784
 31
0.0
  0
LINE
  5
6C
330
36
100
AcDbEntity
  8
1
  6
Continuous
 62
     2
100
AcDbLine
 10
138.6868291120293
 20
388.8129805862784
 30
0.0
 11
136.7131572168046
 21
389.9524805862783
 31
0.0
  0
LINE
  5
6D
330
36
100
AcDbEntity
  8
1
  6
Continuous
 62
     7
100
AcDbLine
 10
141.4900302807855
 20
410.5404805862661
 30
0.0
 11
139.1328321949711
 21
410.5404805862661
 31
0.0
  0
LINE
  5
6E
330
36
100
AcDbEntity
  8
1
  6
Continuous
 62
     7
100
AcDbLine
 10
142.9807715905312
 20
388.0404805862662
 30
0.0
 11
139.1328321949852
 21
388.0404805862662
 31
0.0
  0
LINE
  5
6F
330
36
100
AcDbEntity
  8
1
  6
PHANTOM
 62
     4
100
AcDbLine
 10
160.7131572168046
 20
381.7904805862782
 30
0.0
 11
160.7131572168046
 21
433.7904805862662
 31
0.0
  0
LINE
  5
70
330
36
100
AcDbEntity
  8
1
  6
Continuous
 62
     7
100
AcDbLine
 10
177.1068836116476
 20
386.2904805862787
 30
0.0
 11
183.9591727704431
 21
386.2904805862787
 31
0.0
  0
LINE
  5
71
330
36
100
AcDbEntity
  8
1
  6
Continuous
 62
     7
100
AcDbLine
 10
150.2312841528237
 20
415.3031236246609
 30
0.0
 11
151.3932841528236
 21
415.3031236246612
 31
0.0
  0
LINE
  5
72
330
36
100
AcDbEntity
  8
1
  6
Continuous
 62
     2
100
AcDbLine
 10
150.2400302807854
 20
413.2904805862787
 30
0.0
 11
151.3932841528236
 21
415.3031236246612
 31
0.0
  0
LINE
  5
73
330
36
100
AcDbEntity
  8
1
  6
Continuous
 62
     2
100
AcDbLine
 10
151.3932841528236
 20
415.3031236246612
 30
0.0
 11
151.3932841528236
 21
422.7904805862662
 31
0.0
  0
LINE
  5
74
330
36
100
AcDbEntity
  8
1
  6
Continuous
 62
     7
100
AcDbLine
 10
150.2312841528237
 20
413.2904805862661
 30
0.0
 11
150.2312841528237
 21
422.7904805862664
 31
0.0
  0
LINE
  5
75
330
36
100
AcDbEntity
  8
1
  6
Continuous
 62
     7
100
AcDbLine
 10
150.2400302807854
 20
413.2904805862787
 30
0.0
 11
147.526378514598
 21
413.290480586252
 31
0.0
  0
LINE
  5
76
330
36
100
AcDbEntity
  8
1
  6
Continuous
 62
     2
100
AcDbLine
 10
136.7131572168046
 20
408.6284805862786
 30
0.0
 11
138.6868291120292
 21
409.7679805862784
 31
0.0
  0
LINE
  5
77
330
36
100
AcDbEntity
  8
1
  6
Continuous
 62
     7
100
AcDbLine
 10
148.9339382274143
 20
264.2904805862785
 30
0.0
 11
195.7131572168047
 21
264.2904805862785
 31
0.0
  0
LINE
  5
78
330
36
100
AcDbEntity
  8
1
  6
Continuous
 62
     7
100
AcDbLine
 10
147.43503565727
 20
298.7133209210671
 30
0.0
 11
148.7131572168045
 21
299.9914424806015
 31
0.0
  0
LINE
  5
79
330
36
100
AcDbEntity
  8
1
  6
Continuous
 62
     7
100
AcDbLine
 10
172.7131572168046
 20
299.9914424806015
 30
0.0
 11
173.9912787763389
 21
298.7133209210672
 31
0.0
  0
LINE
  5
7A
330
36
100
AcDbEntity
  8
1
  6
Continuous
 62
     7
100
AcDbLine
 10
172.7131572168046
 20
302.7904805862785
 30
0.0
 11
172.7131572168046
 21
301.2904805862785
 31
0.0
  0
LINE
  5
7B
330
36
100
AcDbEntity
  8
1
  6
Continuous
 62
     7
100
AcDbLine
 10
182.0244176672602
 20
290.2904805862785
 30
0.0
 11
195.7131572168047
 21
290.2904805862785
 31
0.0
  0
LINE
  5
7C
330
36
100
AcDbEntity
  8
1
  6
Continuous
 62
     7
100
AcDbLine
 10
195.7131572168047
 20
277.2904805862785
 30
0.0
 11
195.7131572168047
 21
288.0229805862783
 31
0.0
  0
LINE
  5
7D
330
36
100
AcDbEntity
  8
1
  6
Continuous
 62
     7
100
AcDbLine
 10
195.7131572168047
 20
277.2904805862785
 30
0.0
 11
195.7131572168047
 21
266.5579805862784
 31
0.0
  0
LINE
  5
7E
330
36
100
AcDbEntity
  8
1
  6
Continuous
 62
     7
100
AcDbLine
 10
186.8742703840057
 20
384.2793735873482
 30
0.0
 11
194.5520440496031
 21
384.2793735873482
 31
0.0
  0
LINE
  5
7F
330
36
100
AcDbEntity
  8
1
  6
Continuous
 62
     7
100
AcDbLine
 10
186.8742703840036
 20
384.2793735873482
 30
0.0
 11
186.8742703840057
 21
384.2793735873482
 31
0.0
  0
LINE
  5
80
330
36
100
AcDbEntity
  8
1
  6
Continuous
 62
     7
100
AcDbLine
 10
128.8751572168045
 20
409.7679805862784
 30
0.0
 11
127.7131572168046
 21
408.6284805862786
 31
0.0
  0
LINE
  5
81
330
36
100
AcDbEntity
  8
1
  6
Continuous
 62
     7
100
AcDbLine
 10
128.8751572168045
 20
388.8129805862784
 30
0.0
 11
127.7131572168046
 21
389.9524805862784
 31
0.0
  0
LINE
  5
82
330
36
100
AcDbEntity
  8
1
  6
Continuous
 62
     2
100
AcDbLine
 10
136.7131572168046
 20
389.9524805862783
 30
0.0
 11
127.7131572168046
 21
389.9524805862784
 31
0.0
  0
LINE
  5
83
330
36
100
AcDbEntity
  8
1
  6
Continuous
 62
     7
100
AcDbLine
 10
136.7131572168046
 20
405.7700868611702
 30
0.0
 11
136.7131572168046
 21
408.6284805862786
 31
0.0
  0
LINE
  5
84
330
36
100
AcDbEntity
  8
1
  6
Continuous
 62
     7
100
AcDbLine
 10
136.7131572168046
 20
408.6284805862786
 30
0.0
 11
136.7131572168046
 21
409.7679805862784
 31
0.0
  0
LINE
  5
85
330
36
100
AcDbEntity
  8
1
  6
Continuous
 62
     2
100
AcDbLine
 10
127.7131572168046
 20
408.6284805862786
 30
0.0
 11
136.7131572168046
 21
408.6284805862786
 31
0.0
  0
LINE
  5
86
330
36
100
AcDbEntity
  8
1
  6
Continuous
 62
     7
100
AcDbLine
 10
128.8751572168045
 20
409.7679805862784
 30
0.0
 11
128.8751572168045
 21
388.8129805862784
 31
0.0
  0
LINE
  5
87
330
36
100
AcDbEntity
  8
1
  6
Continuous
 62
     7
100
AcDbLine
 10
179.9450302807857
 20
412.2904805862785
 30
0.0
 11
183.9591727704334
 21
412.2904805862785
 31
0.0
  0
LINE
  5
88
330
36
100
AcDbEntity
  8
1
  6
Continuous
 62
     7
100
AcDbLine
 10
195.7131572168047
 20
266.5579805862784
 30
0.0
 11
195.7131572168047
 21
264.2904805862785
 31
0.0
  0
LINE
  5
89
330
36
100
AcDbEntity
  8
1
  6
Continuous
 62
     7
100
AcDbLine
 10
195.7131572168047
 20
288.0229805862783
 30
0.0
 11
195.7131572168047
 21
290.2904805862785
 31
0.0
  0
LINE
  5
8A
330
36
100
AcDbEntity
  8
1
  6
Continuous
 62
     2
100
AcDbLine
 10
148.7131572168045
 20
299.9914424806015
 30
0.0
 11
149.4631572168045
 21
301.2904805862785
 31
0.0
  0
LINE
  5
8B
330
36
100
AcDbEntity
  8
1
  6
Continuous
 62
     2
100
AcDbLine
 10
172.7131572168046
 20
299.9914424806015
 30
0.0
 11
171.9631572168046
 21
301.2904805862785
 31
0.0
  0
LINE
  5
8C
330
36
100
AcDbEntity
  8
1
  6
Continuous
 62
     2
100
AcDbLine
 10
171.9631572168046
 20
301.2904805862785
 30
0.0
 11
171.9631572168046
 21
302.7904805862785
 31
0.0
  0
LINE
  5
8D
330
36
100
AcDbEntity
  8
1
  6
Continuous
 62
     2
100
AcDbLine
 10
149.4631572168045
 20
301.2904805862785
 30
0.0
 11
149.4631572168045
 21
302.7904805862785
 31
0.0
  0
LINE
  5
8E
330
36
100
AcDbEntity
  8
1
  6
Continuous
 62
     7
100
AcDbLine
 10
172.7131572168046
 20
301.2904805862785
 30
0.0
 11
171.9631572168046
 21
301.2904805862785
 31
0.0
  0
LINE
  5
8F
330
36
100
AcDbEntity
  8
1
  6
Continuous
 62
     7
100
AcDbLine
 10
148.7131572168045
 20
299.9914424806015
 30
0.0
 11
148.7131572168046
 21
301.2904805862785
 31
0.0
  0
LINE
  5
90
330
36
100
AcDbEntity
  8
1
  6
Continuous
 62
     7
100
AcDbLine
 10
148.7131572168046
 20
301.2904805862785
 30
0.0
 11
149.4631572168045
 21
301.2904805862785
 31
0.0
  0
LINE
  5
91
330
36
100
AcDbEntity
  8
1
  6
Continuous
 62
     7
100
AcDbLine
 10
148.7131572168046
 20
301.2904805862785
 30
0.0
 11
148.7131572168046
 21
302.7904805862785
 31
0.0
  0
LINE
  5
92
330
36
100
AcDbEntity
  8
1
  6
Continuous
 62
     7
100
AcDbLine
 10
194.5520440496031
 20
384.2793735873482
 30
0.0
 11
194.5520440496053
 21
384.2793735873482
 31
0.0
  0
LINE
  5
93
330
36
100
AcDbEntity
  8
1
  6
Continuous
 62
     7
100
AcDbLine
 10
186.8742703840057
 20
414.3015875852082
 30
0.0
 11
194.5520440496031
 21
414.3015875852082
 31
0.0
  0
LINE
  5
94
330
36
100
AcDbEntity
  8
1
  6
Continuous
 62
     7
100
AcDbLine
 10
195.7131572168046
 20
388.0321503370808
 30
0.0
 11
195.7131572168046
 21
410.5488108354753
 31
0.0
  0
LINE
  5
95
330
36
100
AcDbEntity
  8
1
  6
Continuous
 62
     7
100
AcDbLine
 10
127.7131572168046
 20
389.9524805862784
 30
0.0
 11
127.7131572168046
 21
408.6284805862786
 31
0.0
  0
LINE
  5
96
330
36
100
AcDbEntity
  8
1
  6
Continuous
 62
     7
100
AcDbLine
 10
138.6868291120292
 20
409.7679805862784
 30
0.0
 11
128.8751572168045
 21
409.7679805862784
 31
0.0
  0
LINE
  5
97
330
36
100
AcDbEntity
  8
1
  6
Continuous
 62
     7
100
AcDbLine
 10
138.6868291120293
 20
388.8129805862784
 30
0.0
 11
128.8751572168045
 21
388.8129805862784
 31
0.0
  0
LINE
  5
98
330
36
100
AcDbEntity
  8
1
  6
Continuous
 62
     7
100
AcDbLine
 10
186.8742703840057
 20
406.7960340857433
 30
0.0
 11
194.5520440496031
 21
406.7960340857433
 31
0.0
  0
LINE
  5
99
330
36
100
AcDbEntity
  8
1
  6
Continuous
 62
     7
100
AcDbLine
 10
186.8742703840057
 20
391.7849270868135
 30
0.0
 11
194.5520440496031
 21
391.7849270868135
 31
0.0
  0
LINE
  5
9A
330
36
100
AcDbEntity
  8
1
  6
PHANTOM
 62
     4
100
AcDbLine
 10
160.7131572168046
 20
266.2904805862785
 30
0.0
 11
160.7131572168046
 21
277.2904805862785
 31
0.0
  0
LINE
  5
9B
330
36
100
AcDbEntity
  8
1
  6
PHANTOM
 62
     4
100
AcDbLine
 10
124.7131572168046
 20
399.2904805862784
 30
0.0
 11
198.7131572168046
 21
399.2904805862784
 31
0.0
  0
LINE
  5
9C
330
36
100
AcDbEntity
  8
1
  6
PHANTOM
 62
     4
100
AcDbLine
 10
160.7131572168046
 20
261.2904805862785
 30
0.0
 11
160.7131572168046
 21
266.2904805862785
 31
0.0
  0
LINE
  5
9D
330
36
100
AcDbEntity
  8
1
  6
Continuous
 62
     7
100
AcDbLine
 10
139.3101831526104
 20
288.5404805862785
 30
0.0
 11
139.1328321949712
 21
288.5404805862785
 31
0.0
  0
LINE
  5
9E
330
36
100
AcDbEntity
  8
1
  6
PHANTOM
 62
     4
100
AcDbLine
 10
124.7131572168046
 20
277.2904805862785
 30
0.0
 11
160.7131572168046
 21
277.2904805862785
 31
0.0
  0
LINE
  5
9F
330
36
100
AcDbEntity
  8
1
  6
Continuous
 62
     7
100
AcDbLine
 10
138.6868291120293
 20
266.8129805862908
 30
0.0
 11
128.8751572168045
 21
266.8129805862908
 31
0.0
  0
LINE
  5
A0
330
36
100
AcDbEntity
  8
1
  6
Continuous
 62
     7
100
AcDbLine
 10
174.5966005930385
 20
386.2904805862787
 30
0.0
 11
183.9591727704431
 21
386.2904805862787
 31
0.0
  0
LINE
  5
A1
330
36
100
AcDbEntity
  8
1
  6
Continuous
 62
     7
100
AcDbLine
 10
171.1862841528168
 20
413.2904805862785
 30
0.0
 11
176.072046934578
 21
413.2904805862785
 31
0.0
  0
LINE
  5
A2
330
36
100
AcDbEntity
  8
1
  6
Continuous
 62
     7
100
AcDbLine
 10
171.1862841528168
 20
413.2904805862785
 30
0.0
 11
176.072046934578
 21
413.2904805862785
 31
0.0
  0
LINE
  5
A3
330
36
100
AcDbEntity
  8
1
  6
Continuous
 62
     7
100
AcDbLine
 10
150.2400302807854
 20
413.2904805862787
 30
0.0
 11
171.1862841528168
 21
413.2904805862785
 31
0.0
  0
LINE
  5
A4
330
36
100
AcDbEntity
  8
1
  6
Continuous
 62
     7
100
AcDbLine
 10
174.5966005930385
 20
386.2904805862787
 30
0.0
 11
183.9591727704431
 21
386.2904805862787
 31
0.0
  0
LINE
  5
A5
330
36
100
AcDbEntity
  8
1
  6
Continuous
 62
     2
100
AcDbLine
 10
170.0242841528242
 20
415.3031236246614
 30
0.0
 11
170.0242841528242
 21
422.7904805862662
 31
0.0
  0
LINE
  5
A6
330
36
100
AcDbEntity
  8
1
  6
Continuous
 62
     7
100
AcDbLine
 10
151.3932841528236
 20
415.3031236246612
 30
0.0
 11
170.0242841528242
 21
415.3031236246614
 31
0.0
  0
LINE
  5
A7
330
36
100
AcDbEntity
  8
1
  6
Continuous
 62
     7
100
AcDbLine
 10
151.3932841528236
 20
415.3031236246612
 30
0.0
 11
170.0242841528242
 21
415.3031236246614
 31
0.0
  0
LINE
  5
A8
330
36
100
AcDbEntity
  8
1
  6
Continuous
 62
     2
100
AcDbLine
 10
171.1862841528168
 20
413.2904805862785
 30
0.0
 11
170.0242841528242
 21
415.3031236246614
 31
0.0
  0
LINE
  5
A9
330
36
100
AcDbEntity
  8
1
  6
Continuous
 62
     7
100
AcDbLine
 10
171.1862841528239
 20
422.7904805862662
 30
0.0
 11
171.1862841528238
 21
415.3031236246614
 31
0.0
  0
LINE
  5
AA
330
36
100
AcDbEntity
  8
1
  6
Continuous
 62
     7
100
AcDbLine
 10
171.1862841528239
 20
422.7904805862662
 30
0.0
 11
171.1862841528238
 21
415.3031236246614
 31
0.0
  0
LINE
  5
AB
330
36
100
AcDbEntity
  8
0
  6
DOT_CENTER
 62
     2
100
AcDbLine
 10
198.7131572168046
 20
399.2904805862784
 30
0.0
 11
124.7131572168046
 21
399.2904805862784
 31
0.0
  0
LINE
  5
AC
330
36
100
AcDbEntity
  8
1
  6
Continuous
 62
     7
100
AcDbLine
 10
136.7131572168046
 20
388.8129805862784
 30
0.0
 11
136.7131572168046
 21
408.6284805862786
 31
0.0
  0
LINE
  5
AD
330
36
100
AcDbEntity
  8
1
  6
Continuous
 62
     7
100
AcDbLine
 10
139.1328321949711
 20
388.0404805862662
 30
0.0
 11
139.1328321949711
 21
410.5404805862661
 31
0.0
  0
LINE
  5
AE
330
36
100
AcDbEntity
  8
1
  6
Continuous
 62
     7
100
AcDbLine
 10
138.6868291120293
 20
388.8129805862784
 30
0.0
 11
138.6868291120292
 21
409.7679805862784
 31
0.0
  0
LINE
  5
AF
330
36
100
AcDbEntity
  8
1
  6
Continuous
 62
     7
100
AcDbLine
 10
138.6868291120293
 20
388.8129805862784
 30
0.0
 11
138.6868291120292
 21
409.7679805862784
 31
0.0
  0
LINE
  5
B0
330
36
100
AcDbEntity
  8
1
  6
Continuous
 62
     7
100
AcDbLine
 10
170.0242841528242
 20
415.3031236246614
 30
0.0
 11
171.1862841528238
 21
415.3031236246614
 31
0.0
  0
LINE
  5
B1
330
36
100
AcDbEntity
  8
1
  6
Continuous
 62
     7
100
AcDbLine
 10
171.1862841528238
 20
415.3031236246614
 30
0.0
 11
171.1862841528238
 21
413.2904805862661
 31
0.0
  0
LINE
  5
B2
330
36
100
AcDbEntity
  8
1
  6
Continuous
 62
     7
100
AcDbLine
 10
171.1862841528238
 20
415.3031236246614
 30
0.0
 11
171.1862841528238
 21
413.2904805862661
 31
0.0
  0
LINE
  5
B3
330
36
100
AcDbEntity
  8
1
  6
Continuous
 62
     7
100
AcDbLine
 10
172.7131572168046
 20
301.2904805862785
 30
0.0
 11
172.7131572168046
 21
299.9914424806015
 31
0.0
  0
LINE
  5
B4
330
36
100
AcDbEntity
  8
1
  6
PHANTOM
 62
     4
100
AcDbLine
 10
160.7131572168046
 20
277.2904805862785
 30
0.0
 11
198.7131572168047
 21
277.2904805862785
 31
0.0
  0
LINE
  5
B5
330
36
100
AcDbEntity
  8
1
  6
Continuous
 62
     7
100
AcDbLine
 10
303.6308277296687
 20
275.2904805862785
 30
0.0
 11
321.7954867039648
 21
275.2904805862785
 31
0.0
  0
LINE
  5
B6
330
36
100
AcDbEntity
  8
1
  6
Continuous
 62
     7
100
AcDbLine
 10
297.7020502178878
 20
277.2904805862785
 30
0.0
 11
305.2076037173529
 21
290.2904805862785
 31
0.0
  0
LINE
  5
B7
330
36
100
AcDbEntity
  8
1
  6
Continuous
 62
     7
100
AcDbLine
 10
305.2076037173529
 20
264.2904805862785
 30
0.0
 11
297.7020502178878
 21
277.2904805862785
 31
0.0
  0
LINE
  5
B8
330
36
100
AcDbEntity
  8
1
  6
Continuous
 62
     7
100
AcDbLine
 10
305.2076037173529
 20
290.2904805862785
 30
0.0
 11
320.2187107162827
 21
290.2904805862785
 31
0.0
  0
LINE
  5
B9
330
36
100
AcDbEntity
  8
1
  6
Continuous
 62
     7
100
AcDbLine
 10
320.2187107162827
 20
290.2904805862785
 30
0.0
 11
327.7242642157487
 21
277.2904805862785
 31
0.0
  0
LINE
  5
BA
330
36
100
AcDbEntity
  8
1
  6
Continuous
 62
     7
100
AcDbLine
 10
327.7242642157487
 20
277.2904805862785
 30
0.0
 11
320.2187107162827
 21
264.2904805862785
 31
0.0
  0
LINE
  5
BB
330
36
100
AcDbEntity
  8
1
  6
Continuous
 62
     7
100
AcDbLine
 10
320.2187107162827
 20
264.2904805862785
 30
0.0
 11
305.2076037173529
 21
264.2904805862785
 31
0.0
  0
LINE
  5
BC
330
36
100
AcDbEntity
  8
1
  6
Continuous
 62
     2
100
AcDbLine
 10
301.5261572168188
 20
301.2904805862783
 30
0.0
 11
300.7131572168169
 21
299.9914424806015
 31
0.0
  0
LINE
  5
BD
330
36
100
AcDbEntity
  8
1
  6
Continuous
 62
     2
100
AcDbLine
 10
301.5261572168188
 20
301.2904805862783
 30
0.0
 11
301.5261572168188
 21
302.7545037045033
 31
0.0
  0
LINE
  5
BE
330
36
100
AcDbEntity
  8
1
  6
Continuous
 62
     7
100
AcDbLine
 10
300.7131572168169
 20
302.7545037045033
 30
0.0
 11
300.7131572168169
 21
299.9914424806015
 31
0.0
  0
LINE
  5
BF
330
36
100
AcDbEntity
  8
1
  6
Continuous
 62
     7
100
AcDbLine
 10
326.1737478427888
 20
266.0404805862783
 30
0.0
 11
326.7131572168169
 21
266.0404805862783
 31
0.0
  0
LINE
  5
C0
330
36
100
AcDbEntity
  8
1
  6
Continuous
 62
     7
100
AcDbLine
 10
298.4487366278058
 20
279.8936143246366
 30
0.0
 11
299.4350356572827
 21
298.7133209210676
 31
0.0
  0
LINE
  5
C1
330
36
100
AcDbEntity
  8
1
  6
Continuous
 62
     2
100
AcDbLine
 10
323.9001572168168
 20
302.7545037045033
 30
0.0
 11
323.9001572168177
 21
301.2904805862783
 31
0.0
  0
LINE
  5
C2
330
36
100
AcDbEntity
  8
1
  6
Continuous
 62
     7
100
AcDbLine
 10
326.7131572168169
 20
266.8129805862783
 30
0.0
 11
326.7131572168169
 21
266.0404805862783
 31
0.0
  0
LINE
  5
C3
330
36
100
AcDbEntity
  8
1
  6
Continuous
 62
     7
100
AcDbLine
 10
299.4350356572827
 20
298.7133209210676
 30
0.0
 11
300.7131572168169
 21
299.9914424806015
 31
0.0
  0
LINE
  5
C4
330
36
100
AcDbEntity
  8
1
  6
Continuous
 62
     7
100
AcDbLine
 10
324.7131572168169
 20
299.9914424806015
 30
0.0
 11
325.9912787763508
 21
298.7133209210673
 31
0.0
  0
LINE
  5
C5
330
36
100
AcDbEntity
  8
1
  6
Continuous
 62
     7
100
AcDbLine
 10
328.7258002552128
 20
267.9749805862784
 30
0.0
 11
328.7258002552128
 21
266.8129805862783
 31
0.0
  0
LINE
  5
C6
330
36
100
AcDbEntity
  8
1
  6
Continuous
 62
     7
100
AcDbLine
 10
300.7131572168169
 20
301.2904805862785
 30
0.0
 11
301.5261572168188
 21
301.2904805862783
 31
0.0
  0
LINE
  5
C7
330
36
100
AcDbEntity
  8
1
  6
Continuous
 62
     7
100
AcDbLine
 10
336.2131572168171
 20
266.8129805862783
 30
0.0
 11
326.7131572168169
 21
266.8129805862783
 31
0.0
  0
LINE
  5
C8
330
36
100
AcDbEntity
  8
1
  6
Continuous
 62
     2
100
AcDbLine
 10
328.7258002552128
 20
267.9749805862784
 30
0.0
 11
336.2131572168171
 21
267.9749805862784
 31
0.0
  0
LINE
  5
C9
330
36
100
AcDbEntity
  8
1
  6
Continuous
 62
     2
100
AcDbLine
 10
328.7258002552128
 20
267.9749805862784
 30
0.0
 11
326.7131572168169
 21
266.8129805862783
 31
0.0
  0
LINE
  5
CA
330
36
100
AcDbEntity
  8
1
  6
Continuous
 62
     7
100
AcDbLine
 10
328.7258002552117
 20
287.767980586278
 30
0.0
 11
328.7258002552117
 21
286.6059805862782
 31
0.0
  0
LINE
  5
CB
330
36
100
AcDbEntity
  8
1
  6
Continuous
 62
     7
100
AcDbLine
 10
324.7131572168169
 20
300.1005616814777
 30
0.0
 11
324.7131572168169
 21
302.7545037045033
 31
0.0
  0
LINE
  5
CC
330
36
100
AcDbEntity
  8
1
  6
Continuous
 62
     7
100
AcDbLine
 10
323.9001572168177
 20
301.2904805862783
 30
0.0
 11
324.7131572168169
 21
301.2904805862783
 31
0.0
  0
LINE
  5
CD
330
36
100
AcDbEntity
  8
1
  6
Continuous
 62
     7
100
AcDbLine
 10
324.7131572168169
 20
300.1005616814777
 30
0.0
 11
324.7131572168169
 21
301.2904805862783
 31
0.0
  0
LINE
  5
CE
330
36
100
AcDbEntity
  8
1
  6
Continuous
 62
     2
100
AcDbLine
 10
324.7131572168169
 20
299.9914424806015
 30
0.0
 11
323.9001572168177
 21
301.2904805862783
 31
0.0
  0
LINE
  5
CF
330
36
100
AcDbEntity
  8
1
  6
Continuous
 62
     7
100
AcDbLine
 10
326.7131572168169
 20
287.767980586278
 30
0.0
 11
336.2131572168171
 21
287.767980586278
 31
0.0
  0
LINE
  5
D0
330
36
100
AcDbEntity
  8
1
  6
Continuous
 62
     2
100
AcDbLine
 10
328.7258002552117
 20
286.6059805862782
 30
0.0
 11
336.2131572168171
 21
286.6059805862782
 31
0.0
  0
LINE
  5
D1
330
36
100
AcDbEntity
  8
1
  6
Continuous
 62
     2
100
AcDbLine
 10
326.7131572168169
 20
287.767980586278
 30
0.0
 11
328.7258002552117
 21
286.6059805862782
 31
0.0
  0
LINE
  5
D2
330
36
100
AcDbEntity
  8
1
  6
Continuous
 62
     7
100
AcDbLine
 10
324.7131572168169
 20
299.9914424806015
 30
0.0
 11
324.7131572168169
 21
300.1005616814777
 31
0.0
  0
LINE
  5
D3
330
36
100
AcDbEntity
  8
1
  6
Continuous
 62
     7
100
AcDbLine
 10
324.7131572168169
 20
299.9914424806015
 30
0.0
 11
324.7131572168169
 21
300.1005616814777
 31
0.0
  0
LINE
  5
D4
330
36
100
AcDbEntity
  8
1
  6
Continuous
 62
     7
100
AcDbLine
 10
301.5261572168188
 20
301.2904805862783
 30
0.0
 11
323.9001572168177
 21
301.2904805862783
 31
0.0
  0
LINE
  5
D5
330
36
100
AcDbEntity
  8
1
  6
Continuous
 62
     7
100
AcDbLine
 10
324.7131572168169
 20
299.9914424806015
 30
0.0
 11
300.7131572168169
 21
299.9914424806015
 31
0.0
  0
LINE
  5
D6
330
36
100
AcDbEntity
  8
1
  6
Continuous
 62
     7
100
AcDbLine
 10
299.4350356572827
 20
298.7133209210676
 30
0.0
 11
325.9912787763508
 21
298.7133209210673
 31
0.0
  0
LINE
  5
D7
330
36
100
AcDbEntity
  8
1
  6
Continuous
 62
     7
100
AcDbLine
 10
326.7131572168169
 20
279.0417692803139
 30
0.0
 11
326.7131572168169
 21
287.767980586278
 31
0.0
  0
LINE
  5
D8
330
36
100
AcDbEntity
  8
1
  6
Continuous
 62
     7
100
AcDbLine
 10
328.7258002552117
 20
286.6059805862782
 30
0.0
 11
328.7258002552128
 21
267.9749805862784
 31
0.0
  0
LINE
  5
D9
330
36
100
AcDbEntity
  8
1
  6
Continuous
 62
     7
100
AcDbLine
 10
326.7131572168169
 20
266.8129805862783
 30
0.0
 11
326.7131572168169
 21
275.539191892243
 31
0.0
  0
LINE
  5
DA
330
36
100
AcDbEntity
  8
1
  6
Continuous
 62
     7
100
AcDbLine
 10
326.7131572168169
 20
287.767980586278
 30
0.0
 11
326.7131572168178
 21
293.5079939820566
 31
0.0
  0
LINE
  5
DB
330
36
100
AcDbEntity
  8
1
  6
Continuous
 62
     7
100
AcDbLine
 10
325.9912787763508
 20
298.7133209210673
 30
0.0
 11
326.1270950029805
 21
296.1217929363352
 31
0.0
  0
LINE
  5
DC
330
36
100
AcDbEntity
  8
1
  6
Continuous
 62
     7
100
AcDbLine
 10
195.7131572168047
 20
277.2904805862785
 30
0.0
 11
195.7131572168047
 21
288.0229805862783
 31
0.0
  0
LINE
  5
DD
330
36
100
AcDbEntity
  8
1
  6
Continuous
 62
     7
100
AcDbLine
 10
195.7131572168047
 20
277.2904805862785
 30
0.0
 11
195.7131572168047
 21
266.5579805862784
 31
0.0
  0
LINE
  5
DE
330
36
100
AcDbEntity
  8
1
  6
Continuous
 62
     7
100
AcDbLine
 10
195.7131572168047
 20
288.0229805862783
 30
0.0
 11
195.7131572168047
 21
290.2904805862785
 31
0.0
  0
LINE
  5
DF
330
36
100
AcDbEntity
  8
1
  6
Continuous
 62
     7
100
AcDbLine
 10
195.7131572168047
 20
266.5579805862784
 30
0.0
 11
195.7131572168047
 21
264.2904805862785
 31
0.0
  0
LINE
  5
E0
330
36
100
AcDbEntity
  8
1
  6
Continuous
 62
     7
100
AcDbLine
 10
138.6868291120293
 20
266.8129805862908
 30
0.0
 11
138.6868291120293
 21
287.7679805862907
 31
0.0
  0
LINE
  5
E1
330
36
100
AcDbEntity
  8
1
  6
Continuous
 62
     7
100
AcDbLine
 10
136.7131572168046
 20
267.9524805862906
 30
0.0
 11
136.7131572168046
 21
286.6284805862907
 31
0.0
  0
LINE
  5
E2
330
36
100
AcDbEntity
  8
1
  6
Continuous
 62
     7
100
AcDbLine
 10
179.6231572168045
 20
401.2904805862784
 30
0.0
 11
174.5695636773558
 21
401.2904805862784
 31
0.0
  0
LINE
  5
E3
330
36
100
AcDbEntity
  8
1
  6
Continuous
 62
     7
100
AcDbLine
 10
179.6231572168045
 20
397.2904805862784
 30
0.0
 11
179.6231572168045
 21
401.2904805862784
 31
0.0
  0
LINE
  5
E4
330
36
100
AcDbEntity
  8
1
  6
Continuous
 62
     7
100
AcDbLine
 10
174.5695636773558
 20
397.2904805862784
 30
0.0
 11
179.6231572168045
 21
397.2904805862784
 31
0.0
  0
LINE
  5
E5
330
36
100
AcDbEntity
  8
1
  6
Continuous
 62
     7
100
AcDbLine
 10
176.1083378841605
 20
295.2904805862785
 30
0.0
 11
177.3804948687696
 21
295.2904805862785
 31
0.0
  0
LINE
  5
E6
330
36
100
AcDbEntity
  8
1
  6
Continuous
 62
     7
100
AcDbLine
 10
179.3728842649532
 20
293.4647920717738
 30
0.0
 11
179.4887169285237
 21
292.1408186687952
 31
0.0
  0
LINE
  5
E7
330
36
100
AcDbEntity
  8
1
  6
PHANTOM
 62
     4
100
AcDbLine
 10
160.7131572168046
 20
277.2904805862785
 30
0.0
 11
160.7131572168046
 21
310.2904805862785
 31
0.0
  0
LINE
  5
E8
330
36
100
AcDbEntity
  8
1
  6
Continuous
 62
     7
100
AcDbLine
 10
310.2757138991872
 20
290.2904805862785
 30
0.0
 11
310.5534301686682
 21
293.4647920717738
 31
0.0
  0
LINE
  5
E9
330
36
100
AcDbEntity
  8
1
  6
Continuous
 62
     7
100
AcDbLine
 10
314.8728842649655
 20
293.4647920717738
 30
0.0
 11
315.1506005344464
 21
290.2904805862785
 31
0.0
  0
LINE
  5
EA
330
36
100
AcDbEntity
  8
1
  6
Continuous
 62
     7
100
AcDbLine
 10
312.5458195648517
 20
295.2904805862785
 30
0.0
 11
312.8804948687819
 21
295.2904805862785
 31
0.0
  0
ARC
  5
EB
330
36
100
AcDbEntity
  8
1
  6
Continuous
 62
     7
100
AcDbCircle
 10
179.9450302806923
 20
420.2904805859174
 30
0.0
 40
7.999999999639095
100
AcDbArc
 50
-109.8105225356459
 51
-89.99999999933111
  0
LINE
  5
EC
330
36
100
AcDbEntity
  8
1
  6
Continuous
 62
     7
100
AcDbLine
 10
147.526378514598
 20
413.290480586252
 30
0.0
 11
147.5263785146103
 21
413.2904805862661
 31
0.0
  0
ARC
  5
ED
330
36
100
AcDbEntity
  8
1
  6
Continuous
 62
     7
100
AcDbCircle
 10
141.4900302807855
 20
418.5404805862661
 30
0.0
 40
8.0
100
AcDbArc
 50
-90.0
 51
-41.01449966586458
  0
ARC
  5
EE
330
36
100
AcDbEntity
  8
1
  6
Continuous
 62
     7
100
AcDbCircle
 10
160.7131572168046
 20
312.7904805862785
 30
0.0
 40
50.00000000000013
100
AcDbArc
 50
-108.1948723387672
 51
-104.5143030815589
  0
ARC
  5
EF
330
36
100
AcDbEntity
  8
1
  6
Continuous
 62
     7
100
AcDbCircle
 10
160.7131572168044
 20
434.7904805862704
 30
0.0
 40
49.99999999999254
100
AcDbArc
 50
-110.7718550452921
 51
-94.13029832017521
  0
ARC
  5
F0
330
36
100
AcDbEntity
  8
1
  6
Continuous
 62
     7
100
AcDbCircle
 10
192.3582963627061
 20
410.5488108354753
 30
0.0
 40
6.64513914590151
100
AcDbArc
 50
180.0
 51
-145.6157525319706
  0
ARC
  5
F1
330
36
100
AcDbEntity
  8
1
  6
Continuous
 62
     7
100
AcDbCircle
 10
189.0680180709028
 20
410.5488108354753
 30
0.0
 40
6.645139145901794
100
AcDbArc
 50
0.0
 51
34.38424746803641
  0
ARC
  5
F2
330
36
100
AcDbEntity
  8
1
  6
Continuous
 62
     7
100
AcDbCircle
 10
189.0680180709037
 20
388.0321503370808
 30
0.0
 40
6.645139145900913
100
AcDbArc
 50
0.0
 51
34.38424746803949
  0
ARC
  5
F3
330
36
100
AcDbEntity
  8
1
  6
Continuous
 62
     7
100
AcDbCircle
 10
192.3582963627052
 20
388.0321503370808
 30
0.0
 40
6.6451391459006
100
AcDbArc
 50
180.0
 51
-145.6157525319617
  0
ARC
  5
F4
330
36
100
AcDbEntity
  8
1
  6
Continuous
 62
     7
100
AcDbCircle
 10
192.3582963627052
 20
388.0321503370808
 30
0.0
 40
6.645139145900972
100
AcDbArc
 50
145.6157525319609
 51
180.0
  0
ARC
  5
F5
330
36
100
AcDbEntity
  8
1
  6
Continuous
 62
     7
100
AcDbCircle
 10
192.3582963627061
 20
410.5488108354753
 30
0.0
 40
6.645139145901818
100
AcDbArc
 50
145.6157525319642
 51
180.0
  0
ARC
  5
F6
330
36
100
AcDbEntity
  8
1
  6
Continuous
 62
     7
100
AcDbCircle
 10
210.5520440496028
 20
399.2904805862784
 30
0.0
 40
24.83888683279855
100
AcDbArc
 50
162.4120462260069
 51
-162.4120462260069
  0
ARC
  5
F7
330
36
100
AcDbEntity
  8
1
  6
Continuous
 62
     7
100
AcDbCircle
 10
189.0680180709028
 20
410.5488108354753
 30
0.0
 40
6.645139145901211
100
AcDbArc
 50
-34.38424746802994
 51
0.0
  0
ARC
  5
F8
330
36
100
AcDbEntity
  8
1
  6
Continuous
 62
     7
100
AcDbCircle
 10
189.0680180709037
 20
388.0321503370808
 30
0.0
 40
6.645139145900837
100
AcDbArc
 50
-34.38424746803868
 51
0.0
  0
ARC
  5
F9
330
36
100
AcDbEntity
  8
1
  6
Continuous
 62
     7
100
AcDbCircle
 10
170.8742703840061
 20
399.2904805862784
 30
0.0
 40
24.83888683279844
100
AcDbArc
 50
-17.58795377399321
 51
17.58795377399321
  0
ARC
  5
FA
330
36
100
AcDbEntity
  8
1
  6
Continuous
 62
     7
100
AcDbCircle
 10
183.9591727704334
 20
415.2904805862911
 30
0.0
 40
3.000000000012619
100
AcDbArc
 50
-90.0
 51
-29.44661342154426
  0
ARC
  5
FB
330
36
100
AcDbEntity
  8
1
  6
Continuous
 62
     7
100
AcDbCircle
 10
183.9591727704438
 20
383.2904805862807
 30
0.0
 40
2.999999999997758
100
AcDbArc
 50
29.44661342136318
 51
90.00000000001303
  0
ARC
  5
FC
330
36
100
AcDbEntity
  8
1
  6
Continuous
 62
     7
100
AcDbCircle
 10
139.3101831526104
 20
296.5404805862716
 30
0.0
 40
7.99999999999091
100
AcDbArc
 50
-32.05513469261987
 51
-3.0
  0
ARC
  5
FD
330
36
100
AcDbEntity
  8
1
  6
Continuous
 62
     7
100
AcDbCircle
 10
139.3101831526104
 20
296.5404805862716
 30
0.0
 40
7.999999999993122
100
AcDbArc
 50
-90.0
 51
-32.05513469261987
  0
ARC
  5
FE
330
36
100
AcDbEntity
  8
1
  6
Continuous
 62
     7
100
AcDbCircle
 10
160.7131572168044
 20
434.7904805862704
 30
0.0
 40
49.99999999999254
100
AcDbArc
 50
-110.7718550452921
 51
-77.66709689946516
  0
ARC
  5
FF
330
36
100
AcDbEntity
  8
1
  6
Continuous
 62
     7
100
AcDbCircle
 10
174.5966005930385
 20
371.2904805920578
 30
0.0
 40
14.9999999942209
100
AcDbArc
 50
90.0
 51
102.3329031005343
  0
ARC
  5
100
330
36
100
AcDbEntity
  8
1
  6
Continuous
 62
     7
100
AcDbCircle
 10
160.7131572168044
 20
434.7904805862704
 30
0.0
 40
49.99999999999254
100
AcDbArc
 50
-110.7718550452921
 51
-77.66709689946516
  0
ARC
  5
101
330
36
100
AcDbEntity
  8
1
  6
Continuous
 62
     7
100
AcDbCircle
 10
160.7131572168044
 20
434.7904805862704
 30
0.0
 40
49.99999999999254
100
AcDbArc
 50
-110.7718550452921
 51
-77.66709689946516
  0
ARC
  5
102
330
36
100
AcDbEntity
  8
1
  6
Continuous
 62
     7
100
AcDbCircle
 10
160.7131572168044
 20
434.7904805862704
 30
0.0
 40
49.99999999999254
100
AcDbArc
 50
-110.7718550452921
 51
-77.66709689946516
  0
ARC
  5
103
330
36
100
AcDbEntity
  8
1
  6
Continuous
 62
     7
100
AcDbCircle
 10
160.7131572168044
 20
434.7904805862704
 30
0.0
 40
49.99999999999254
100
AcDbArc
 50
-110.7718550452921
 51
-77.66709689946516
  0
ARC
  5
104
330
36
100
AcDbEntity
  8
1
  6
Continuous
 62
     7
100
AcDbCircle
 10
179.9450302806923
 20
420.2904805859174
 30
0.0
 40
7.999999999638982
100
AcDbArc
 50
-118.9550243725282
 51
-89.99999999933111
  0
ARC
  5
105
330
36
100
AcDbEntity
  8
1
  6
Continuous
 62
     7
100
AcDbCircle
 10
179.9450302806923
 20
420.2904805859174
 30
0.0
 40
7.999999999638982
100
AcDbArc
 50
-118.9550243725282
 51
-89.99999999933111
  0
ARC
  5
106
330
36
100
AcDbEntity
  8
1
  6
Continuous
 62
     7
100
AcDbCircle
 10
174.5966005930385
 20
371.2904805920578
 30
0.0
 40
14.9999999942209
100
AcDbArc
 50
90.0
 51
102.3329031005343
  0
ARC
  5
107
330
36
100
AcDbEntity
  8
1
  6
Continuous
 62
     7
100
AcDbCircle
 10
174.5966005930385
 20
371.2904805920578
 30
0.0
 40
14.9999999942209
100
AcDbArc
 50
90.0
 51
102.3329031005343
  0
ARC
  5
108
330
36
100
AcDbEntity
  8
1
  6
Continuous
 62
     7
100
AcDbCircle
 10
312.7131572168169
 20
277.2904805862785
 30
0.0
 40
9.299930586467623
100
AcDbArc
 50
12.41877567666974
 51
167.5812243233307
  0
ARC
  5
109
330
36
100
AcDbEntity
  8
1
  6
Continuous
 62
     7
100
AcDbCircle
 10
312.7131572168169
 20
277.2904805862785
 30
0.0
 40
9.299930586467955
100
AcDbArc
 50
167.5812243233307
 51
12.41877567666974
  0
ARC
  5
10A
330
36
100
AcDbEntity
  8
1
  6
Continuous
 62
     7
100
AcDbCircle
 10
312.7131572168169
 20
277.2904805862785
 30
0.0
 40
13.00000000000004
100
AcDbArc
 50
53.70321870117196
 51
126.296781298826
  0
ARC
  5
10B
330
36
100
AcDbEntity
  8
1
  6
Continuous
 62
     7
100
AcDbCircle
 10
312.7131572168169
 20
277.2904805862785
 30
0.0
 40
13.00000000000017
100
AcDbArc
 50
-53.70321870117241
 51
-0.00000000000075
  0
ARC
  5
10C
330
36
100
AcDbEntity
  8
1
  6
Continuous
 62
     7
100
AcDbCircle
 10
312.7131572168169
 20
277.2904805862785
 30
0.0
 40
13.0
100
AcDbArc
 50
-0.00000000000075
 51
53.70321870117196
  0
ARC
  5
10D
330
36
100
AcDbEntity
  8
1
  6
Continuous
 62
     7
100
AcDbCircle
 10
312.7131572168169
 20
277.2904805862785
 30
0.0
 40
12.9999999999997
100
AcDbArc
 50
126.296781298826
 51
-126.2967812988256
  0
ARC
  5
10E
330
36
100
AcDbEntity
  8
1
  6
Continuous
 62
     7
100
AcDbCircle
 10
312.7131572168169
 20
277.2904805862785
 30
0.0
 40
12.99999999999984
100
AcDbArc
 50
-126.2967812988256
 51
-53.70321870117241
  0
ARC
  5
10F
330
36
100
AcDbEntity
  8
1
  6
Continuous
 62
     7
100
AcDbCircle
 10
312.7131572168169
 20
277.2904805862785
 30
0.0
 40
14.49999999999942
100
AcDbArc
 50
169.6578210630536
 51
176.2915552747308
  0
ARC
  5
110
330
36
100
AcDbEntity
  8
1
  6
Continuous
 62
     7
100
AcDbCircle
 10
326.1737478427888
 20
251.0404805862782
 30
0.0
 40
15.00000000000011
100
AcDbArc
 50
90.0
 51
111.7651771110157
  0
ARC
  5
111
330
36
100
AcDbEntity
  8
1
  6
Continuous
 62
     7
100
AcDbCircle
 10
312.7131572168169
 20
277.2904805862785
 30
0.0
 40
14.49999999999913
100
AcDbArc
 50
-176.2915552747306
 51
-123.7084447252689
  0
ARC
  5
112
330
36
100
AcDbEntity
  8
1
  6
Continuous
 62
     7
100
AcDbCircle
 10
334.1161312810189
 20
296.5404805862785
 30
0.0
 40
8.000000000001775
100
AcDbArc
 50
-177.0000000000028
 51
-157.7244798402211
  0
ARC
  5
113
330
36
100
AcDbEntity
  8
1
  6
Continuous
 62
     7
100
AcDbCircle
 10
204.0520440496053
 20
283.7904805862785
 30
0.0
 40
18.36643427850255
100
AcDbArc
 50
159.2735604049807
 51
-159.2735604049807
  0
ARC
  5
114
330
36
100
AcDbEntity
  8
1
  6
Continuous
 62
     7
100
AcDbCircle
 10
204.0520440496053
 20
270.7904805862785
 30
0.0
 40
18.36643427850255
100
AcDbArc
 50
159.2735604049807
 51
-159.2735604049807
  0
ARC
  5
115
330
36
100
AcDbEntity
  8
1
  6
Continuous
 62
     7
100
AcDbCircle
 10
177.3742703840056
 20
283.7904805862785
 30
0.0
 40
18.36643427850106
100
AcDbArc
 50
-20.7264395950211
 51
20.7264395950211
  0
ARC
  5
116
330
36
100
AcDbEntity
  8
1
  6
Continuous
 62
     7
100
AcDbCircle
 10
177.3742703840056
 20
270.7904805862785
 30
0.0
 40
18.36643427850106
100
AcDbArc
 50
-20.7264395950211
 51
20.7264395950211
  0
ARC
  5
117
330
36
100
AcDbEntity
  8
1
  6
Continuous
 62
     7
100
AcDbCircle
 10
182.0244176672601
 20
298.2904805862785
 30
0.0
 40
7.999999999999922
100
AcDbArc
 50
-176.9999999999993
 51
-170.4059317731406
  0
ARC
  5
118
330
36
100
AcDbEntity
  8
1
  6
Continuous
 62
     7
100
AcDbCircle
 10
182.0244176672601
 20
298.2904805862785
 30
0.0
 40
8.000000000000382
100
AcDbArc
 50
-95.19535772789662
 51
-89.99999999999939
  0
CIRCLE
  5
119
330
36
100
AcDbEntity
  8
1
  6
Continuous
 62
     2
100
AcDbCircle
 10
312.7131572168169
 20
277.2904805862785
 30
0.0
 40
10.5
  0
ARC
  5
11A
330
36
100
AcDbEntity
  8
1
  6
Continuous
 62
     7
100
AcDbCircle
 10
148.9339382274143
 20
267.2904805862785
 30
0.0
 40
2.999999999999972
100
AcDbArc
 50
-104.5143030815598
 51
-90.0
  0
ARC
  5
11B
330
36
100
AcDbEntity
  8
1
  6
Continuous
 62
     7
100
AcDbCircle
 10
140.4169137220093
 20
251.0404805862785
 30
0.0
 40
15.00000000000001
100
AcDbArc
 50
71.8051276612328
 51
90.0
  0
ARC
  5
11C
330
36
100
AcDbEntity
  8
1
  6
Continuous
 62
     7
100
AcDbCircle
 10
177.3804948687696
 20
293.2904805862785
 30
0.0
 40
2.000000000000105
100
AcDbArc
 50
4.99999999999953
 51
90.0
  0
ARC
  5
11D
330
36
100
AcDbEntity
  8
1
  6
Continuous
 62
     7
100
AcDbCircle
 10
181.4811063247072
 20
292.3151301542906
 30
0.0
 40
2.00000000000003
100
AcDbArc
 50
-174.999999999997
 51
-95.19535772790005
  0
ARC
  5
11E
330
36
100
AcDbEntity
  8
1
  6
Continuous
 62
     7
100
AcDbCircle
 10
176.1083378841605
 20
297.2904805862785
 30
0.0
 40
2.000000000000451
100
AcDbArc
 50
-170.405931773144
 51
-90.0
  0
ARC
  5
11F
330
36
100
AcDbEntity
  8
1
  6
Continuous
 62
     7
100
AcDbCircle
 10
312.8804948687819
 20
293.2904805862785
 30
0.0
 40
2.000000000000077
100
AcDbArc
 50
4.9999999999996
 51
90.0
  0
ARC
  5
120
330
36
100
AcDbEntity
  8
1
  6
Continuous
 62
     7
100
AcDbCircle
 10
312.5458195648517
 20
293.2904805862785
 30
0.0
 40
2.0
100
AcDbArc
 50
90.0
 51
175.0000000000001
  0
ENDBLK
  5
38
330
36
100
AcDbEntity
  8
0
100
AcDbBlockEnd
  0
BLOCK
  5
3A
330
39
100
AcDbEntity
  8
0
100
AcDbBlockBegin
  2
32-213
 70
     0
 71
     0
 10
488.7131572168164
 20
479.7904805862784
 30
0.0
  3
32-213
  1

  0
LINE
  5
121
330
39
100
AcDbEntity
  8
1
  6
Continuous
 62
     7
100
AcDbLine
 10
348.2131572168171
 20
288.2904805862787
 30
0.0
 11
348.2131572168171
 21
266.2904805862785
 31
0.0
  0
LINE
  5
122
330
39
100
AcDbEntity
  8
1
  6
Continuous
 62
     7
100
AcDbLine
 10
336.2131572168171
 20
288.2904805862787
 30
0.0
 11
336.2131572168171
 21
266.2904805862785
 31
0.0
  0
LINE
  5
123
330
39
100
AcDbEntity
  8
1
  6
Continuous
 62
     7
100
AcDbLine
 10
154.8490736856661
 20
422.7904805862662
 30
0.0
 11
171.7131572168047
 21
422.7904805862662
 31
0.0
  0
LINE
  5
124
330
39
100
AcDbEntity
  8
1
  6
Continuous
 62
     7
100
AcDbLine
 10
172.2131572168048
 20
434.0583074626924
 30
0.0
 11
172.2131572168047
 21
423.5226537098398
 31
0.0
  0
LINE
  5
125
330
39
100
AcDbEntity
  8
1
  6
Continuous
 62
     7
100
AcDbLine
 10
172.2044110888458
 20
434.0583074626926
 30
0.0
 11
172.2044110888458
 21
426.8571954639892
 31
0.0
  0
LINE
  5
126
330
39
100
AcDbEntity
  8
1
  6
Continuous
 62
     7
100
AcDbLine
 10
149.7044110888456
 20
422.7904805862664
 30
0.0
 11
166.5684946199841
 21
422.7904805862664
 31
0.0
  0
LINE
  5
127
330
39
100
AcDbEntity
  8
1
  6
Continuous
 62
     7
100
AcDbLine
 10
149.7044110888456
 20
434.7904805862661
 30
0.0
 11
160.7044110888458
 21
434.7904805862662
 31
0.0
  0
LINE
  5
128
330
39
100
AcDbEntity
  8
1
  6
PHANTOM
 62
     4
100
AcDbLine
 10
160.7131572168075
 20
421.7904805862664
 30
0.0
 11
160.7131572168075
 21
434.7904805862662
 31
0.0
  0
LINE
  5
129
330
39
100
AcDbEntity
  8
1
  6
Continuous
 62
     7
100
AcDbLine
 10
160.7044110888458
 20
434.7904805862662
 30
0.0
 11
171.7044110888456
 21
434.7904805862661
 31
0.0
  0
LINE
  5
12A
330
39
100
AcDbEntity
  8
1
  6
PHANTOM
 62
     4
100
AcDbLine
 10
160.7131572168075
 20
434.7904805862662
 30
0.0
 11
160.7131572168075
 21
435.7904805862664
 31
0.0
  0
LINE
  5
12B
330
39
100
AcDbEntity
  8
1
  6
Continuous
 62
     7
100
AcDbLine
 10
149.2044110888456
 20
423.52265370984
 30
0.0
 11
149.2044110888456
 21
434.0583074626928
 31
0.0
  0
ARC
  5
12C
330
39
100
AcDbEntity
  8
1
  6
Continuous
 62
     7
100
AcDbCircle
 10
342.2131572168171
 20
274.2904805862783
 30
0.0
 40
9.999999999999863
100
AcDbArc
 50
-126.8698976458446
 51
-53.13010235415539
  0
ARC
  5
12D
330
39
100
AcDbEntity
  8
1
  6
Continuous
 62
     7
100
AcDbCircle
 10
342.2131572168171
 20
280.2904805862787
 30
0.0
 40
10.0
100
AcDbArc
 50
53.13010235415598
 51
126.869897645844
  0
ARC
  5
12E
330
39
100
AcDbEntity
  8
1
  6
Continuous
 62
     7
100
AcDbCircle
 10
163.7131572168047
 20
428.7904805862662
 30
0.0
 40
10.0
100
AcDbArc
 50
-36.86989764584402
 51
-31.78833061705176
  0
ARC
  5
12F
330
39
100
AcDbEntity
  8
1
  6
Continuous
 62
     7
100
AcDbCircle
 10
157.7044110888455
 20
428.7904805862664
 30
0.0
 40
9.999999999999705
100
AcDbArc
 50
143.1301023541572
 51
148.2116693829479
  0
ARC
  5
130
330
39
100
AcDbEntity
  8
1
  6
Continuous
 62
     7
100
AcDbCircle
 10
157.7044110888455
 20
428.7904805862664
 30
0.0
 40
9.999999999999949
100
AcDbArc
 50
-148.2116693829476
 51
-143.1301023541556
  0
ARC
  5
131
330
39
100
AcDbEntity
  8
1
  6
Continuous
 62
     7
100
AcDbCircle
 10
163.7044110888458
 20
428.7904805862664
 30
0.0
 40
9.999999999999895
100
AcDbArc
 50
31.78833061705065
 51
36.86989764584315
  0
SPLINE
  5
132
330
39
100
AcDbEntity
  8
1
  6
Continuous
 62
     7
100
AcDbSpline
210
0.0
220
0.0
230
1.0
 70
    11
 71
     3
 72
    79
 73
    75
 74
    73
 42
0.0000000001
 43
0.0000000001
 44
0.00000001
 40
0.0
 40
0.0
 40
0.0
 40
0.0
 40
0.2746255860864756
 40
0.5489296448750485
 40
0.8445351226057879
 40
1.139720930735152
 40
1.464847760107504
 40
1.789634474685604
 40
2.147784125837226
 40
2.505702211207218
 40
2.896040828699714
 40
3.286231079274824
 40
3.7046249467159
 40
4.122927269101405
 40
4.562895988146364
 40
5.002812031777988
 40
5.45631547884993
 40
5.909794870758375
 40
6.367899400179812
 40
6.826003929601193
 40
7.279483321509686
 40
7.732986768581635
 40
8.17290281221327
 40
8.612871531258229
 40
9.031173853643718
 40
9.449567721084813
 40
9.839757971659923
 40
10.23009658915239
 40
10.58801467452218
 40
10.94616432567383
 40
11.27095104025197
 40
11.59607786962433
 40
11.89126367775377
 40
12.18686915548443
 40
12.46117321427295
 40
12.73579880035948
 40
13.00262036940787
 40
13.2694419384562
 40
13.54406752454268
 40
13.81837158333109
 40
14.11397706106167
 40
14.40916286919115
 40
14.73428969856346
 40
15.05907641314164
 40
15.4172260642933
 40
15.77514414966329
 40
16.16548276715574
 40
16.55567301773085
 40
16.97406688517189
 40
17.39236920755743
 40
17.83233792660239
 40
18.27225397023402
 40
18.72575741730596
 40
19.1792368092144
 40
19.63734133863589
 40
20.09544586805727
 40
20.54892525996564
 40
21.00242870703763
 40
21.44234475066927
 40
21.88231346971423
 40
22.30061579209972
 40
22.71900965954081
 40
23.10919991011598
 40
23.49953852760853
 40
23.8574566129785
 40
24.21560626413012
 40
24.54039297870826
 40
24.86551980808062
 40
25.16070561621006
 40
25.45631109394067
 40
25.73061515272914
 40
26.00524073881556
 40
26.27206230786389
 40
26.53888387691217
 40
26.53888387691217
 40
26.53888387691217
 40
26.53888387691217
 10
347.460295751561
 20
287.5157910416276
 30
0.0
 10
347.4425527228925
 20
287.6057803098882
 30
0.0
 10
347.4070874388128
 20
287.7856534883956
 30
0.0
 10
347.3012110324745
 20
288.0480398246376
 30
0.0
 10
347.1615461608459
 20
288.3009897059832
 30
0.0
 10
346.9807769040342
 20
288.5479669508347
 30
0.0
 10
346.7675387689027
 20
288.7806522014035
 30
0.0
 10
346.5165223076911
 20
289.0047674585666
 30
0.0
 10
346.2374190714412
 20
289.2116279986369
 30
0.0
 10
345.9239986178855
 20
289.4066703866798
 30
0.0
 10
345.5872752394122
 20
289.5824176004105
 30
0.0
 10
345.2209926539643
 20
289.7429439800366
 30
0.0
 10
344.8363529418405
 20
289.8826823895329
 30
0.0
 10
344.4282638616326
 20
290.0041505350133
 30
0.0
 10
344.0069158489214
 20
290.1037434098049
 30
0.0
 10
343.5693184069569
 20
290.182708832018
 30
0.0
 10
343.1236998172091
 20
290.2390757431947
 30
0.0
 10
342.6697712253614
 20
290.2733396730334
 30
0.0
 10
342.2131572168198
 20
290.2846417103013
 30
0.0
 10
341.7565432082618
 20
290.2733396730347
 30
0.0
 10
341.3026146164623
 20
290.2390757431892
 30
0.0
 10
340.8569960265403
 20
290.1827088320395
 30
0.0
 10
340.4193985852064
 20
290.1037434097278
 30
0.0
 10
339.9980505701953
 20
290.0041505352954
 30
0.0
 10
339.5899614981669
 20
289.8826823885377
 30
0.0
 10
339.2053217565167
 20
289.7429439836524
 30
0.0
 10
338.839039274194
 20
289.5824175879213
 30
0.0
 10
338.5023155269655
 20
289.4066704317793
 30
0.0
 10
338.1888963412051
 20
289.2116278457435
 30
0.0
 10
337.9097886032469
 20
289.0047680087101
 30
0.0
 10
337.6587874632241
 20
288.7806503588204
 30
0.0
 10
337.445495021415
 20
288.5479735893842
 30
0.0
 10
337.2649108544382
 20
288.3009674388518
 30
0.0
 10
337.1245849831055
 20
288.0481207865495
 30
0.0
 10
337.0210084133637
 20
287.7853752823225
 30
0.0
 10
336.9599292563473
 20
287.5193779947798
 30
0.0
 10
336.9381360913761
 20
287.2497727297995
 30
0.0
 10
336.9599292563472
 20
286.9801674648194
 30
0.0
 10
337.0210084133638
 20
286.7141701772768
 30
0.0
 10
337.1245849831055
 20
286.4514246730498
 30
0.0
 10
337.2649108544382
 20
286.1985780207477
 30
0.0
 10
337.4454950214147
 20
285.9515718702152
 30
0.0
 10
337.6587874632243
 20
285.7188951007792
 30
0.0
 10
337.9097886032469
 20
285.4947774508895
 30
0.0
 10
338.1888963412051
 20
285.2879176138556
 30
0.0
 10
338.5023155269656
 20
285.09287502782
 30
0.0
 10
338.8390392741941
 20
284.917127871678
 30
0.0
 10
339.2053217565165
 20
284.7566014759466
 30
0.0
 10
339.589961498167
 20
284.6168630710615
 30
0.0
 10
339.9980505701952
 20
284.4953949243037
 30
0.0
 10
340.4193985852063
 20
284.3958020498714
 30
0.0
 10
340.8569960265402
 20
284.3168366275597
 30
0.0
 10
341.3026146164621
 20
284.2604697164102
 30
0.0
 10
341.7565432082624
 20
284.2262057865643
 30
0.0
 10
342.2131572168173
 20
284.2149037492986
 30
0.0
 10
342.6697712253707
 20
284.2262057865643
 30
0.0
 10
343.1236998171747
 20
284.2604697164106
 30
0.0
 10
343.569318407084
 20
284.3168366275582
 30
0.0
 10
344.0069158484628
 20
284.3958020498768
 30
0.0
 10
344.4282638633109
 20
284.4953949242838
 30
0.0
 10
344.8363529359181
 20
284.6168630711319
 30
0.0
 10
345.2209926754792
 20
284.7566014756909
 30
0.0
 10
345.5872751650988
 20
284.9171278725617
 30
0.0
 10
345.9239988862352
 20
285.0928750246288
 30
0.0
 10
346.2374181617005
 20
285.2879176246739
 30
0.0
 10
346.5165255811339
 20
285.4947774119634
 30
0.0
 10
346.7675278052286
 20
285.7188952311536
 30
0.0
 10
346.9808164044944
 20
285.9515714004956
 30
0.0
 10
347.1614136677562
 20
286.1985795962891
 30
0.0
 10
347.3016927691481
 20
286.4514189444786
 30
0.0
 10
347.4054320669831
 20
286.7141898621292
 30
0.0
 10
347.4659186360792
 20
286.9800946045712
 30
0.0
 10
347.4898647416915
 20
287.2500360966351
 30
0.0
 10
347.4701520816046
 20
287.4272060599634
 30
0.0
 10
347.460295751561
 20
287.5157910416276
 30
0.0
 11
347.460295751561
 21
287.5157910416276
 31
0.0
 11
347.3987188698802
 21
287.7834241863907
 31
0.0
 11
347.2991182938881
 21
288.0390067404313
 31
0.0
 11
347.1561656344004
 21
288.2977481859127
 31
0.0
 11
346.9827163758403
 21
288.5365996377105
 31
0.0
 11
346.7636587303512
 21
288.7768520115396
 31
0.0
 11
346.5218736737127
 21
288.993707715529
 31
0.0
 11
346.2346467534254
 21
289.2076513269838
 31
0.0
 11
345.9310431839375
 21
289.3972040331874
 31
0.0
 11
345.5853309387813
 21
289.5784422186094
 31
0.0
 11
345.2281029890308
 21
289.7354027982493
 31
0.0
 11
344.8350388687661
 21
289.8787695505765
 31
0.0
 11
344.4341877512217
 21
289.9983321470542
 31
0.0
 11
344.0061027804686
 21
290.0998985369348
 31
0.0
 11
343.573200685041
 21
290.1781411162566
 31
0.0
 11
343.12331106607
 21
290.2352787330097
 31
0.0
 11
342.6711189081026
 21
290.2694227099084
 31
0.0
 11
342.213157216817
 21
290.2808616430451
 31
0.0
 11
341.7551955255315
 21
290.2694227099084
 31
0.0
 11
341.3030033675641
 21
290.2352787330098
 31
0.0
 11
340.8531137485931
 21
290.1781411162567
 31
0.0
 11
340.4202116531655
 21
290.0998985369348
 31
0.0
 11
339.9921266824124
 21
289.9983321470542
 31
0.0
 11
339.5912755648679
 21
289.8787695505766
 31
0.0
 11
339.1982114446033
 21
289.7354027982493
 31
0.0
 11
338.8409834948527
 21
289.5784422186094
 31
0.0
 11
338.4952712496967
 21
289.3972040331873
 31
0.0
 11
338.1916676802089
 21
289.2076513269838
 31
0.0
 11
337.9044407599215
 21
288.9937077155292
 31
0.0
 11
337.6626557032829
 21
288.7768520115398
 31
0.0
 11
337.4435980577939
 21
288.5365996377107
 31
0.0
 11
337.2701487992337
 21
288.2977481859128
 31
0.0
 11
337.1271961397461
 21
288.0390067404314
 31
0.0
 11
337.027595563754
 21
287.7834241863909
 31
0.0
 11
336.9660186820731
 21
287.5157910416277
 31
0.0
 11
336.9453303403903
 21
287.2497727297996
 31
0.0
 11
336.9660186820731
 21
286.9837544179716
 31
0.0
 11
337.027595563754
 21
286.7161212732084
 31
0.0
 11
337.1271961397461
 21
286.460538719168
 31
0.0
 11
337.2701487992337
 21
286.2017972736867
 31
0.0
 11
337.4435980577939
 21
285.9629458218888
 31
0.0
 11
337.6626557032829
 21
285.7226934480597
 31
0.0
 11
337.9044407599215
 21
285.5058377440703
 31
0.0
 11
338.1916676802088
 21
285.2918941326155
 31
0.0
 11
338.4952712496967
 21
285.1023414264118
 31
0.0
 11
338.8409834948527
 21
284.9211032409897
 31
0.0
 11
339.1982114446033
 21
284.7641426613498
 31
0.0
 11
339.5912755648679
 21
284.6207759090225
 31
0.0
 11
339.9921266824124
 21
284.501213312545
 31
0.0
 11
340.4202116531655
 21
284.3996469226644
 31
0.0
 11
340.8531137485931
 21
284.3214043433425
 31
0.0
 11
341.3030033675641
 21
284.2642667265894
 31
0.0
 11
341.7551955255315
 21
284.2301227496908
 31
0.0
 11
342.2131572168171
 21
284.2186838165542
 31
0.0
 11
342.6711189081026
 21
284.2301227496909
 31
0.0
 11
343.1233110660699
 21
284.2642667265894
 31
0.0
 11
343.573200685041
 21
284.3214043433425
 31
0.0
 11
344.0061027804686
 21
284.3996469226644
 31
0.0
 11
344.4341877512217
 21
284.501213312545
 31
0.0
 11
344.8350388687661
 21
284.6207759090225
 31
0.0
 11
345.2281029890308
 21
284.7641426613498
 31
0.0
 11
345.5853309387814
 21
284.9211032409897
 31
0.0
 11
345.9310431839375
 21
285.1023414264118
 31
0.0
 11
346.2346467534254
 21
285.2918941326155
 31
0.0
 11
346.5218736737127
 21
285.5058377440703
 31
0.0
 11
346.7636587303513
 21
285.7226934480597
 31
0.0
 11
346.9827163758403
 21
285.9629458218888
 31
0.0
 11
347.1561656344005
 21
286.2017972736867
 31
0.0
 11
347.2991182938881
 21
286.460538719168
 31
0.0
 11
347.3987188698802
 21
286.7161212732085
 31
0.0
 11
347.460295751561
 21
286.9837544179716
 31
0.0
 11
347.4809840932439
 21
287.2497727297996
 31
0.0
 11
347.460295751561
 21
287.5157910416276
 31
0.0
  0
SPLINE
  5
133
330
39
100
AcDbEntity
  8
1
  6
Continuous
 62
     7
100
AcDbSpline
210
0.0
220
0.0
230
1.0
 70
     8
 71
     3
 72
    45
 73
    41
 74
    39
 42
0.0000000001
 43
0.0000000001
 44
0.00000001
 40
0.0
 40
0.0
 40
0.0
 40
0.0
 40
0.2639815460521459
 40
0.5283419841189898
 40
1.054652170762573
 40
1.58098506710061
 40
2.101700160272294
 40
2.622460348438247
 40
3.134495226137386
 40
3.646596368618981
 40
4.147789061289561
 40
4.649065936797079
 40
5.138470095605069
 40
5.627969508813664
 40
6.106046361246341
 40
6.584217829940168
 40
7.052873649570314
 40
7.521607363809251
 40
7.984025556627715
 40
8.446488192993032
 40
8.906737372258908
 40
9.366986551524789
 40
9.82944918789018
 40
10.29186738070867
 40
10.76060109494757
 40
11.22925691457771
 40
11.70742838327157
 40
12.18550523570417
 40
12.67500464891276
 40
13.16440880772071
 40
13.6656856832283
 40
14.16687837589887
 40
14.67897951838051
 40
15.19101439607959
 40
15.71177458424547
 40
16.23248967741714
 40
16.75882257375518
 40
17.2851327603987
 40
17.54949319846361
 40
17.81347474451338
 40
17.81347474451338
 40
17.81347474451338
 40
17.81347474451338
 10
347.4809840932439
 20
277.2904805862743
 30
0.0
 10
347.4800155818948
 20
277.3784803502011
 30
0.0
 10
347.4780771690949
 20
277.5546061838832
 30
0.0
 10
347.4574418338511
 20
277.9056596313397
 30
0.0
 10
347.4079482059267
 20
278.3422863709507
 30
0.0
 10
347.3087451071198
 20
278.8578044048451
 30
0.0
 10
347.1708649772601
 20
279.3624227343805
 30
0.0
 10
346.9956468490919
 20
279.8502878612116
 30
0.0
 10
346.783647702899
 20
280.3201846633117
 30
0.0
 10
346.5375417341768
 20
280.7657477734116
 30
0.0
 10
346.2576914938072
 20
281.1866352564961
 30
0.0
 10
345.9479697300345
 20
281.5764815006939
 30
0.0
 10
345.6085887989481
 20
281.9354662110897
 30
0.0
 10
345.2443992944176
 20
282.2577595740185
 30
0.0
 10
344.8556751985252
 20
282.543736104428
 30
0.0
 10
344.4478289490643
 20
282.7885404470695
 30
0.0
 10
344.0215639714225
 20
282.9925570070661
 30
0.0
 10
343.582306436389
 20
283.1521519538278
 30
0.0
 10
343.1315998798881
 20
283.2677538204382
 30
0.0
 10
342.674322290324
 20
283.3369590284138
 30
0.0
 10
342.2131572168171
 20
283.3604892746295
 30
0.0
 10
341.7519921433101
 20
283.3369590284138
 30
0.0
 10
341.2947145537459
 20
283.2677538204379
 30
0.0
 10
340.8440079972451
 20
283.1521519538277
 30
0.0
 10
340.4047504622116
 20
282.992557007066
 30
0.0
 10
339.9784854845696
 20
282.7885404470696
 30
0.0
 10
339.570639235109
 20
282.543736104428
 30
0.0
 10
339.1819151392165
 20
282.2577595740184
 30
0.0
 10
338.817725634686
 20
281.9354662110897
 30
0.0
 10
338.4783447035998
 20
281.5764815006939
 30
0.0
 10
338.1686229398266
 20
281.1866352564962
 30
0.0
 10
337.8887726994574
 20
280.7657477734114
 30
0.0
 10
337.6426667307354
 20
280.3201846633116
 30
0.0
 10
337.4306675845422
 20
279.8502878612115
 30
0.0
 10
337.2554494563746
 20
279.3624227343804
 30
0.0
 10
337.1175693265144
 20
278.8578044048452
 30
0.0
 10
337.0183662277074
 20
278.3422863709506
 30
0.0
 10
336.9688725997834
 20
277.9056596313407
 30
0.0
 10
336.9482372645393
 20
277.5546061838851
 30
0.0
 10
336.9462988517394
 20
277.3784803502047
 30
0.0
 10
336.9453303403902
 20
277.2904805862787
 30
0.0
 11
347.4809840932439
 21
277.2904805862743
 31
0.0
 11
347.4759817867916
 21
277.5544147325803
 31
0.0
 11
347.4609748674344
 21
277.8183488788863
 31
0.0
 11
347.4012462914266
 21
278.3412589187334
 31
0.0
 11
347.3018048245019
 21
278.8581125850873
 31
0.0
 11
347.1644008962418
 21
279.3603718495668
 31
0.0
 11
346.9882460798284
 21
279.8504337377329
 31
0.0
 11
346.7774818782767
 21
280.3170793927268
 31
0.0
 11
346.5297189347781
 21
280.7652546976688
 31
0.0
 11
346.2519854379317
 21
281.1824575499072
 31
0.0
 11
345.940006530062
 21
281.5748192031851
 31
0.0
 11
345.6035510956009
 21
281.9302262533124
 31
0.0
 11
345.236860679609
 21
282.2544912905139
 31
0.0
 11
344.8515529992165
 21
282.5375027183087
 31
0.0
 11
344.4415069398875
 21
282.7834908942473
 31
0.0
 11
344.0186186150388
 21
282.9854902555824
 31
0.0
 11
343.5780571282654
 21
283.1455429695122
 31
0.0
 11
343.130059446333
 21
283.2601233431924
 31
0.0
 11
342.672819993952
 21
283.3294326010174
 31
0.0
 11
342.2131572168171
 21
283.3526584127696
 31
0.0
 11
341.7534944396822
 21
283.3294326010173
 31
0.0
 11
341.2962549873011
 21
283.2601233431922
 31
0.0
 11
340.8482573053686
 21
283.1455429695121
 31
0.0
 11
340.4076958185953
 21
282.9854902555824
 31
0.0
 11
339.9848074937465
 21
282.7834908942473
 31
0.0
 11
339.5747614344176
 21
282.5375027183086
 31
0.0
 11
339.1894537540251
 21
282.2544912905139
 31
0.0
 11
338.8227633380332
 21
281.9302262533124
 31
0.0
 11
338.4863079035722
 21
281.5748192031851
 31
0.0
 11
338.1743289957024
 21
281.1824575499072
 31
0.0
 11
337.8965954988561
 21
280.7652546976688
 31
0.0
 11
337.6488325553576
 21
280.3170793927266
 31
0.0
 11
337.4380683538059
 21
279.8504337377328
 31
0.0
 11
337.2619135373925
 21
279.3603718495667
 31
0.0
 11
337.1245096091323
 21
278.8581125850873
 31
0.0
 11
337.0250681422075
 21
278.3412589187334
 31
0.0
 11
336.9653395661999
 21
277.8183488788864
 31
0.0
 11
336.9503326468426
 21
277.5544147325823
 31
0.0
 11
336.9453303403902
 21
277.2904805862787
 31
0.0
  0
SPLINE
  5
134
330
39
100
AcDbEntity
  8
1
  6
Continuous
 62
     7
100
AcDbSpline
210
0.0
220
0.0
230
1.0
 70
    11
 71
     3
 72
    79
 73
    75
 74
    73
 42
0.0000000001
 43
0.0000000001
 44
0.00000001
 40
0.0
 40
0.0
 40
0.0
 40
0.0
 40
0.2746255860864756
 40
0.5489296448749426
 40
0.844535122605682
 40
1.139720930735046
 40
1.46484776010744
 40
1.78963447468554
 40
2.147784125837128
 40
2.505702211207151
 40
2.896040828699699
 40
3.28623107927481
 40
3.704624946715905
 40
4.122927269101361
 40
4.562895988146307
 40
5.002812031777951
 40
5.456315478849899
 40
5.90979487075834
 40
6.367899400179776
 40
6.826003929601155
 40
7.279483321509653
 40
7.732986768581609
 40
8.172902812213243
 40
8.61287153125819
 40
9.031173853643645
 40
9.44956772108474
 40
9.83975797165985
 40
10.23009658915235
 40
10.58801467452223
 40
10.94616432567394
 40
11.27095104025204
 40
11.5960778696244
 40
11.8912636777538
 40
12.18686915548441
 40
12.46117321427293
 40
12.73579880035941
 40
13.00262036940774
 40
13.26944193845607
 40
13.54406752454255
 40
13.81837158333101
 40
14.1139770610617
 40
14.40916286919117
 40
14.73428969856353
 40
15.05907641314167
 40
15.41722606429326
 40
15.77514414966325
 40
16.16548276715567
 40
16.55567301773076
 40
16.97406688517178
 40
17.39236920755734
 40
17.83233792660232
 40
18.27225397023395
 40
18.72575741730589
 40
19.17923680921433
 40
19.63734133863583
 40
20.09544586805721
 40
20.5489252599656
 40
21.0024287070376
 40
21.44234475066924
 40
21.88231346971417
 40
22.30061579209966
 40
22.71900965954076
 40
23.10919991011592
 40
23.49953852760844
 40
23.85745661297839
 40
24.21560626412997
 40
24.54039297870812
 40
24.86551980808051
 40
25.16070561620996
 40
25.45631109394062
 40
25.73061515272914
 40
26.00524073881561
 40
26.27206230786389
 40
26.53888387691223
 40
26.53888387691223
 40
26.53888387691223
 40
26.53888387691223
 10
347.460295751561
 20
267.0651701309294
 30
0.0
 10
347.4425527228924
 20
266.9751808626688
 30
0.0
 10
347.4070874388129
 20
266.7953076841615
 30
0.0
 10
347.3012110324743
 20
266.5329213479195
 30
0.0
 10
347.1615461608459
 20
266.2799714665739
 30
0.0
 10
346.9807769040341
 20
266.0329942217225
 30
0.0
 10
346.7675387689027
 20
265.8003089711534
 30
0.0
 10
346.5165223076911
 20
265.5761937139905
 30
0.0
 10
346.2374190714413
 20
265.3693331739201
 30
0.0
 10
345.9239986178853
 20
265.1742907858773
 30
0.0
 10
345.5872752394122
 20
264.9985435721463
 30
0.0
 10
345.2209926539643
 20
264.8380171925204
 30
0.0
 10
344.8363529418404
 20
264.6982787830237
 30
0.0
 10
344.4282638616326
 20
264.5768106375439
 30
0.0
 10
344.0069158489214
 20
264.4772177627522
 30
0.0
 10
343.5693184069568
 20
264.3982523405389
 30
0.0
 10
343.1236998172093
 20
264.3418854293622
 30
0.0
 10
342.6697712253614
 20
264.3076214995236
 30
0.0
 10
342.2131572168197
 20
264.2963194622558
 30
0.0
 10
341.756543208262
 20
264.3076214995222
 30
0.0
 10
341.3026146164623
 20
264.3418854293679
 30
0.0
 10
340.8569960265402
 20
264.3982523405176
 30
0.0
 10
340.4193985852064
 20
264.4772177628293
 30
0.0
 10
339.9980505701953
 20
264.5768106372617
 30
0.0
 10
339.5899614981669
 20
264.6982787840192
 30
0.0
 10
339.2053217565167
 20
264.8380171889045
 30
0.0
 10
338.8390392741939
 20
264.9985435846357
 30
0.0
 10
338.5023155269656
 20
265.1742907407777
 30
0.0
 10
338.1888963412052
 20
265.3693333268137
 30
0.0
 10
337.909788603247
 20
265.5761931638472
 30
0.0
 10
337.658787463224
 20
265.8003108137368
 30
0.0
 10
337.4454950214151
 20
266.0329875831731
 30
0.0
 10
337.2649108544382
 20
266.2799937337053
 30
0.0
 10
337.1245849831054
 20
266.5328403860075
 30
0.0
 10
337.0210084133639
 20
266.7955858902346
 30
0.0
 10
336.9599292563472
 20
267.0615831777772
 30
0.0
 10
336.9381360913762
 20
267.3311884427574
 30
0.0
 10
336.9599292563472
 20
267.6007937077375
 30
0.0
 10
337.0210084133639
 20
267.8667909952802
 30
0.0
 10
337.1245849831055
 20
268.1295364995071
 30
0.0
 10
337.264910854438
 20
268.3823831518095
 30
0.0
 10
337.445495021415
 20
268.6293893023419
 30
0.0
 10
337.658787463224
 20
268.862066071778
 30
0.0
 10
337.909788603247
 20
269.0861837216676
 30
0.0
 10
338.1888963412051
 20
269.2930435587014
 30
0.0
 10
338.5023155269655
 20
269.4880861447369
 30
0.0
 10
338.839039274194
 20
269.6638333008791
 30
0.0
 10
339.2053217565166
 20
269.8243596966101
 30
0.0
 10
339.589961498167
 20
269.9640981014954
 30
0.0
 10
339.9980505701952
 20
270.0855662482531
 30
0.0
 10
340.4193985852064
 20
270.1851591226857
 30
0.0
 10
340.8569960265402
 20
270.2641245449972
 30
0.0
 10
341.302614616462
 20
270.3204914561468
 30
0.0
 10
341.7565432082625
 20
270.3547553859928
 30
0.0
 10
342.2131572168172
 20
270.3660574232586
 30
0.0
 10
342.6697712253708
 20
270.354755385993
 30
0.0
 10
343.1236998171747
 20
270.3204914561465
 30
0.0
 10
343.569318407084
 20
270.2641245449987
 30
0.0
 10
344.0069158484627
 20
270.18515912268
 30
0.0
 10
344.4282638633108
 20
270.0855662482733
 30
0.0
 10
344.8363529359182
 20
269.9640981014251
 30
0.0
 10
345.2209926754792
 20
269.8243596968662
 30
0.0
 10
345.5872751650987
 20
269.6638332999954
 30
0.0
 10
345.9239988862354
 20
269.4880861479282
 30
0.0
 10
346.2374181617003
 20
269.2930435478833
 30
0.0
 10
346.516525581134
 20
269.0861837605937
 30
0.0
 10
346.7675278052286
 20
268.8620659414036
 30
0.0
 10
346.9808164044943
 20
268.6293897720616
 30
0.0
 10
347.1614136677562
 20
268.382381576268
 30
0.0
 10
347.3016927691481
 20
268.1295422280784
 30
0.0
 10
347.4054320669829
 20
267.8667713104278
 30
0.0
 10
347.4659186360792
 20
267.6008665679859
 30
0.0
 10
347.4898647416915
 20
267.3309250759218
 30
0.0
 10
347.4701520816045
 20
267.1537551125935
 30
0.0
 10
347.460295751561
 20
267.0651701309294
 30
0.0
 11
347.460295751561
 21
267.0651701309294
 31
0.0
 11
347.3987188698802
 21
266.7975369861663
 31
0.0
 11
347.2991182938881
 21
266.5419544321258
 31
0.0
 11
347.1561656344004
 21
266.2832129866443
 31
0.0
 11
346.9827163758403
 21
266.0443615348465
 31
0.0
 11
346.7636587303512
 21
265.8041091610174
 31
0.0
 11
346.5218736737127
 21
265.587253457028
 31
0.0
 11
346.2346467534254
 21
265.3733098455733
 31
0.0
 11
345.9310431839375
 21
265.1837571393696
 31
0.0
 11
345.5853309387813
 21
265.0025189539475
 31
0.0
 11
345.2281029890308
 21
264.8455583743076
 31
0.0
 11
344.8350388687661
 21
264.7021916219803
 31
0.0
 11
344.4341877512217
 21
264.5826290255029
 31
0.0
 11
344.0061027804686
 21
264.4810626356223
 31
0.0
 11
343.573200685041
 21
264.4028200563004
 31
0.0
 11
343.12331106607
 21
264.3456824395472
 31
0.0
 11
342.6711189081026
 21
264.3115384626485
 31
0.0
 11
342.213157216817
 21
264.3000995295119
 31
0.0
 11
341.7551955255315
 21
264.3115384626485
 31
0.0
 11
341.3030033675641
 21
264.3456824395472
 31
0.0
 11
340.8531137485931
 21
264.4028200563004
 31
0.0
 11
340.4202116531655
 21
264.4810626356223
 31
0.0
 11
339.9921266824124
 21
264.5826290255029
 31
0.0
 11
339.5912755648679
 21
264.7021916219803
 31
0.0
 11
339.1982114446033
 21
264.8455583743076
 31
0.0
 11
338.8409834948527
 21
265.0025189539475
 31
0.0
 11
338.4952712496967
 21
265.1837571393696
 31
0.0
 11
338.1916676802089
 21
265.3733098455733
 31
0.0
 11
337.9044407599215
 21
265.5872534570281
 31
0.0
 11
337.6626557032829
 21
265.8041091610174
 31
0.0
 11
337.4435980577939
 21
266.0443615348465
 31
0.0
 11
337.2701487992337
 21
266.2832129866443
 31
0.0
 11
337.1271961397461
 21
266.5419544321256
 31
0.0
 11
337.027595563754
 21
266.7975369861662
 31
0.0
 11
336.9660186820731
 21
267.0651701309294
 31
0.0
 11
336.9453303403903
 21
267.3311884427574
 31
0.0
 11
336.9660186820731
 21
267.5972067545854
 31
0.0
 11
337.027595563754
 21
267.8648398993485
 31
0.0
 11
337.1271961397461
 21
268.120422453389
 31
0.0
 11
337.2701487992337
 21
268.3791638988704
 31
0.0
 11
337.4435980577939
 21
268.6180153506683
 31
0.0
 11
337.6626557032829
 21
268.8582677244975
 31
0.0
 11
337.9044407599215
 21
269.0751234284869
 31
0.0
 11
338.1916676802088
 21
269.2890670399415
 31
0.0
 11
338.4952712496967
 21
269.4786197461452
 31
0.0
 11
338.8409834948527
 21
269.6598579315673
 31
0.0
 11
339.1982114446033
 21
269.8168185112071
 31
0.0
 11
339.5912755648679
 21
269.9601852635343
 31
0.0
 11
339.9921266824124
 21
270.0797478600119
 31
0.0
 11
340.4202116531655
 21
270.1813142498926
 31
0.0
 11
340.8531137485931
 21
270.2595568292145
 31
0.0
 11
341.3030033675641
 21
270.3166944459676
 31
0.0
 11
341.7551955255315
 21
270.3508384228663
 31
0.0
 11
342.2131572168171
 21
270.362277356003
 31
0.0
 11
342.6711189081026
 21
270.3508384228663
 31
0.0
 11
343.1233110660699
 21
270.3166944459676
 31
0.0
 11
343.573200685041
 21
270.2595568292144
 31
0.0
 11
344.0061027804686
 21
270.1813142498925
 31
0.0
 11
344.4341877512217
 21
270.0797478600121
 31
0.0
 11
344.8350388687661
 21
269.9601852635345
 31
0.0
 11
345.2281029890308
 21
269.8168185112072
 31
0.0
 11
345.5853309387814
 21
269.6598579315673
 31
0.0
 11
345.9310431839375
 21
269.4786197461452
 31
0.0
 11
346.2346467534254
 21
269.2890670399416
 31
0.0
 11
346.5218736737127
 21
269.0751234284869
 31
0.0
 11
346.7636587303513
 21
268.8582677244975
 31
0.0
 11
346.9827163758403
 21
268.6180153506683
 31
0.0
 11
347.1561656344005
 21
268.3791638988704
 31
0.0
 11
347.2991182938881
 21
268.1204224533891
 31
0.0
 11
347.3987188698802
 21
267.8648398993485
 31
0.0
 11
347.460295751561
 21
267.5972067545854
 31
0.0
 11
347.4809840932439
 21
267.3311884427574
 31
0.0
 11
347.460295751561
 21
267.0651701309294
 31
0.0
  0
SPLINE
  5
135
330
39
100
AcDbEntity
  8
1
  6
Continuous
 62
     7
100
AcDbSpline
210
0.0
220
0.0
230
1.0
 70
     8
 71
     3
 72
    45
 73
    41
 74
    39
 42
0.0000000001
 43
0.0000000001
 44
0.00000001
 40
0.0
 40
0.0
 40
0.0
 40
0.0
 40
0.2639815460523732
 40
0.5283419841192172
 40
1.054652170762631
 40
1.580985067100891
 40
2.101700160272575
 40
2.622460348438474
 40
3.134495226137458
 40
3.646596368619103
 40
4.147789061289729
 40
4.649065936797248
 40
5.138470095605237
 40
5.627969508813871
 40
6.106046361246548
 40
6.584217829940404
 40
7.052873649570501
 40
7.521607363809438
 40
7.984025556627902
 40
8.44648819299322
 40
8.906737372259096
 40
9.366986551524974
 40
9.829449187890356
 40
10.29186738070885
 40
10.76060109494774
 40
11.22925691457784
 40
11.70742838327176
 40
12.18550523570439
 40
12.67500464891298
 40
13.16440880772097
 40
13.66568568322861
 40
14.16687837589912
 40
14.67897951838071
 40
15.19101439607975
 40
15.71177458424563
 40
16.23248967741735
 40
16.75882257375556
 40
17.28513276039896
 40
17.54949319846388
 40
17.81347474451398
 40
17.81347474451398
 40
17.81347474451398
 40
17.81347474451398
 10
347.4809840932439
 20
277.2904805862829
 30
0.0
 10
347.4800155818948
 20
277.202480822356
 30
0.0
 10
347.4780771690949
 20
277.026354988674
 30
0.0
 10
347.4574418338512
 20
276.6753015412172
 30
0.0
 10
347.4079482059266
 20
276.2386748016064
 30
0.0
 10
347.3087451071199
 20
275.7231567677118
 30
0.0
 10
347.1708649772598
 20
275.2185384381766
 30
0.0
 10
346.9956468490921
 20
274.7306733113455
 30
0.0
 10
346.7836477028989
 20
274.2607765092454
 30
0.0
 10
346.5375417341768
 20
273.8152133991457
 30
0.0
 10
346.2576914938074
 20
273.3943259160609
 30
0.0
 10
345.9479697300345
 20
273.0044796718632
 30
0.0
 10
345.608588798948
 20
272.6454949614674
 30
0.0
 10
345.2443992944175
 20
272.3232015985385
 30
0.0
 10
344.8556751985252
 20
272.037225068129
 30
0.0
 10
344.4478289490644
 20
271.7924207254873
 30
0.0
 10
344.0215639714224
 20
271.5884041654912
 30
0.0
 10
343.5823064363891
 20
271.4288092187292
 30
0.0
 10
343.131599879888
 20
271.3132073521189
 30
0.0
 10
342.6743222903241
 20
271.2440021441432
 30
0.0
 10
342.2131572168171
 20
271.2204718979276
 30
0.0
 10
341.7519921433101
 20
271.2440021441432
 30
0.0
 10
341.294714553746
 20
271.3132073521191
 30
0.0
 10
340.844007997245
 20
271.4288092187292
 30
0.0
 10
340.4047504622115
 20
271.5884041654909
 30
0.0
 10
339.9784854845697
 20
271.7924207254872
 30
0.0
 10
339.5706392351089
 20
272.037225068129
 30
0.0
 10
339.1819151392165
 20
272.3232015985386
 30
0.0
 10
338.817725634686
 20
272.6454949614673
 30
0.0
 10
338.4783447035997
 20
273.0044796718632
 30
0.0
 10
338.1686229398267
 20
273.394325916061
 30
0.0
 10
337.8887726994574
 20
273.8152133991456
 30
0.0
 10
337.6426667307354
 20
274.2607765092454
 30
0.0
 10
337.4306675845422
 20
274.7306733113455
 30
0.0
 10
337.2554494563746
 20
275.2185384381767
 30
0.0
 10
337.1175693265143
 20
275.7231567677118
 30
0.0
 10
337.0183662277075
 20
276.2386748016064
 30
0.0
 10
336.9688725997831
 20
276.6753015412165
 30
0.0
 10
336.9482372645396
 20
277.026354988672
 30
0.0
 10
336.9462988517394
 20
277.2024808223526
 30
0.0
 10
336.9453303403902
 20
277.2904805862787
 30
0.0
 11
347.4809840932439
 21
277.2904805862829
 31
0.0
 11
347.4759817867916
 21
277.0265464399768
 31
0.0
 11
347.4609748674344
 21
276.7626122936707
 31
0.0
 11
347.4012462914266
 21
276.2397022538238
 31
0.0
 11
347.3018048245019
 21
275.7228485874697
 31
0.0
 11
347.1644008962418
 21
275.2205893229902
 31
0.0
 11
346.9882460798284
 21
274.7305274348241
 31
0.0
 11
346.7774818782767
 21
274.2638817798304
 31
0.0
 11
346.5297189347781
 21
273.8157064748883
 31
0.0
 11
346.2519854379317
 21
273.3985036226499
 31
0.0
 11
345.940006530062
 21
273.0061419693719
 31
0.0
 11
345.6035510956009
 21
272.6507349192447
 31
0.0
 11
345.236860679609
 21
272.3264698820431
 31
0.0
 11
344.8515529992165
 21
272.0434584542483
 31
0.0
 11
344.4415069398875
 21
271.7974702783097
 31
0.0
 11
344.0186186150388
 21
271.5954709169747
 31
0.0
 11
343.5780571282654
 21
271.4354182030448
 31
0.0
 11
343.130059446333
 21
271.3208378293647
 31
0.0
 11
342.672819993952
 21
271.2515285715397
 31
0.0
 11
342.2131572168171
 21
271.2283027597875
 31
0.0
 11
341.7534944396822
 21
271.2515285715397
 31
0.0
 11
341.2962549873011
 21
271.3208378293648
 31
0.0
 11
340.8482573053686
 21
271.4354182030448
 31
0.0
 11
340.4076958185953
 21
271.5954709169745
 31
0.0
 11
339.9848074937465
 21
271.7974702783096
 31
0.0
 11
339.5747614344176
 21
272.0434584542483
 31
0.0
 11
339.1894537540251
 21
272.3264698820431
 31
0.0
 11
338.8227633380332
 21
272.6507349192446
 31
0.0
 11
338.4863079035722
 21
273.0061419693719
 31
0.0
 11
338.1743289957024
 21
273.3985036226499
 31
0.0
 11
337.8965954988561
 21
273.8157064748883
 31
0.0
 11
337.6488325553576
 21
274.2638817798304
 31
0.0
 11
337.4380683538059
 21
274.7305274348241
 31
0.0
 11
337.2619135373925
 21
275.2205893229902
 31
0.0
 11
337.1245096091323
 21
275.7228485874697
 31
0.0
 11
337.0250681422075
 21
276.2397022538238
 31
0.0
 11
336.9653395661999
 21
276.7626122936707
 31
0.0
 11
336.9503326468426
 21
277.0265464399748
 31
0.0
 11
336.9453303403902
 21
277.2904805862787
 31
0.0
  0
SPLINE
  5
136
330
39
100
AcDbEntity
  8
1
  6
Continuous
 62
     7
100
AcDbSpline
210
0.0
220
0.0
230
1.0
 70
    11
 71
     3
 72
    79
 73
    75
 74
    73
 42
0.0000000001
 43
0.0000000001
 44
0.00000001
 40
0.0
 40
0.0
 40
0.0
 40
0.0
 40
0.4580629073446313
 40
0.9161250954497586
 40
1.37432100462565
 40
1.832515564104294
 40
2.290914921250043
 40
2.749312464134785
 40
3.207961104920585
 40
3.666607688416583
 40
4.125521335344454
 40
4.584432931141802
 40
5.043595344343959
 40
5.502755958881824
 40
5.96212094134059
 40
6.421484591837945
 40
6.880981585492725
 40
7.340477871484349
 40
7.800020458108299
 40
8.259563044732195
 40
8.719059330723935
 40
9.178556324378702
 40
9.637919974875986
 40
10.09728495733471
 40
10.55644557187262
 40
11.01560798507481
 40
11.47451958087223
 40
11.93343322780008
 40
12.39207981129588
 40
12.85072845208175
 40
13.3091259949665
 40
13.76752535211233
 40
14.22571991159109
 40
14.68391582076692
 40
15.14197800887203
 40
15.60004091621663
 40
16.05805737367921
 40
16.51607383114184
 40
16.97413673848645
 40
17.43219892659151
 40
17.89039483576727
 40
18.34858939524593
 40
18.80698875239171
 40
19.26538629527645
 40
19.72403493606233
 40
20.18268151955822
 40
20.64159516648603
 40
21.10050676228345
 40
21.55966917548566
 40
22.01882979002352
 40
22.47819477248224
 40
22.93755842297959
 40
23.39705541663437
 40
23.8565517026261
 40
24.31609428925
 40
24.77563687587389
 40
25.23513316186568
 40
25.69463015552041
 40
26.15399380601771
 40
26.61335878847624
 40
27.07251940301401
 40
27.53168181621619
 40
27.99059341201356
 40
28.44950705894154
 40
28.90815364243748
 40
29.36680228322342
 40
29.82519982610814
 40
30.28359918325389
 40
30.7417937427325
 40
31.1999896519083
 40
31.65805184001339
 40
32.11611474735799
 40
32.5741312048206
 40
33.03214766228324
 40
33.03214766228324
 40
33.03214766228324
 40
33.03214766228324
 10
166.9207330385469
 20
434.0382215804351
 30
0.0
 10
167.0725500373476
 20
434.0210381637285
 30
0.0
 10
167.3761837965694
 20
433.9866713572961
 30
0.0
 10
167.8237075856299
 20
433.8846990591519
 30
0.0
 10
168.261163162631
 20
433.7470352394833
 30
0.0
 10
168.6848096123788
 20
433.5706544682536
 30
0.0
 10
169.0916292327934
 20
433.3583209665271
 30
0.0
 10
169.4783513212469
 20
433.110950245267
 30
0.0
 10
169.8422212596019
 20
432.8309254120832
 30
0.0
 10
170.180254917808
 20
432.5199467632551
 30
0.0
 10
170.4901265156762
 20
432.1807804266021
 30
0.0
 10
170.7692013581167
 20
431.8156381944427
 30
0.0
 10
171.0156650472419
 20
431.4276398449948
 30
0.0
 10
171.2273054549757
 20
431.0194319452369
 30
0.0
 10
171.4028780161808
 20
430.594389385666
 30
0.0
 10
171.5406588306964
 20
430.1555204087367
 30
0.0
 10
171.6400095222271
 20
429.7063443302073
 30
0.0
 10
171.6997497710762
 20
429.2501476391228
 30
0.0
 10
171.7198612774029
 20
428.7904805862675
 30
0.0
 10
171.6997497710765
 20
428.3308135334049
 30
0.0
 10
171.6400095222255
 20
427.8746168423427
 30
0.0
 10
171.5406588307021
 20
427.4254407637303
 30
0.0
 10
171.4028780161593
 20
426.986571787111
 30
0.0
 10
171.2273054550557
 20
426.5615292263842
 30
0.0
 10
171.0156650469432
 20
426.1533213309377
 30
0.0
 10
170.7692013592305
 20
425.7653229654043
 30
0.0
 10
170.4901265115223
 20
425.4001807932455
 30
0.0
 10
170.180254933307
 20
425.0610142327348
 30
0.0
 10
169.8422212017961
 20
424.7500364188911
 30
0.0
 10
169.4783515369359
 20
424.4700084704377
 30
0.0
 10
169.0916284283192
 20
424.2226493694513
 30
0.0
 10
168.6848126142189
 20
424.0102725115139
 30
0.0
 10
168.261151965156
 20
423.8340534790277
 30
0.0
 10
167.8237493707838
 20
423.6957861553337
 30
0.0
 10
167.3760279026602
 20
423.5960655406647
 30
0.0
 10
166.9213302193245
 20
423.5361144445923
 30
0.0
 10
166.4631572168075
 20
423.5159236837268
 30
0.0
 10
166.0049842142906
 20
423.5361144445923
 30
0.0
 10
165.5502865309548
 20
423.5960655406648
 30
0.0
 10
165.1025650628313
 20
423.6957861553337
 30
0.0
 10
164.6651624684591
 20
423.8340534790277
 30
0.0
 10
164.2415018193963
 20
424.0102725115142
 30
0.0
 10
163.8346860052961
 20
424.2226493694512
 30
0.0
 10
163.4479628966794
 20
424.4700084704379
 30
0.0
 10
163.084093231819
 20
424.7500364188908
 30
0.0
 10
162.7460595003081
 20
425.0610142327348
 30
0.0
 10
162.4361879220928
 20
425.4001807932454
 30
0.0
 10
162.1571130743848
 20
425.7653229654044
 30
0.0
 10
161.9106493866718
 20
426.1533213309377
 30
0.0
 10
161.6990089785595
 20
426.5615292263843
 30
0.0
 10
161.523436417456
 20
426.9865717871112
 30
0.0
 10
161.3856556029131
 20
427.4254407637303
 30
0.0
 10
161.2863049113896
 20
427.8746168423429
 30
0.0
 10
161.2265646625387
 20
428.3308135334053
 30
0.0
 10
161.2064531562126
 20
428.7904805862665
 30
0.0
 10
161.2265646625387
 20
429.2501476391273
 30
0.0
 10
161.2863049113896
 20
429.7063443301912
 30
0.0
 10
161.3856556029127
 20
430.1555204087975
 30
0.0
 10
161.5234364174575
 20
430.5943893854392
 30
0.0
 10
161.6990089785537
 20
431.0194319460828
 30
0.0
 10
161.9106493866932
 20
431.4276398418387
 30
0.0
 10
162.1571130743047
 20
431.8156382062174
 30
0.0
 10
162.436187922391
 20
432.1807803826839
 30
0.0
 10
162.7460594991953
 20
432.519946927123
 30
0.0
 10
163.0840932359691
 20
432.8309248009133
 30
0.0
 10
163.4479628811943
 20
433.1109525257115
 30
0.0
 10
163.8346860630518
 20
433.3583124609535
 30
0.0
 10
164.2415016038849
 20
433.570686206214
 30
0.0
 10
164.6651632723606
 20
433.7469168504257
 30
0.0
 10
165.1025620629456
 20
433.885140846696
 30
0.0
 10
165.5502977230615
 20
433.9850231166974
 30
0.0
 10
166.0049424460878
 20
434.0443709629783
 30
0.0
 10
166.4633130803668
 20
434.0668128685301
 30
0.0
 10
166.7682597191536
 20
434.0477520098
 30
0.0
 10
166.920733038547
 20
434.0382215804351
 30
0.0
 11
166.9207330385469
 21
434.0382215804351
 31
0.0
 11
167.3748556534273
 21
433.9782692849055
 31
0.0
 11
167.8219794334422
 21
433.8787640412406
 31
0.0
 11
168.2588445230623
 21
433.7405888457216
 31
0.0
 11
168.6819331395228
 21
433.5646960461038
 31
0.0
 11
169.0882583893775
 21
433.3524938737252
 31
0.0
 11
169.4744628799969
 21
433.1055639266791
 31
0.0
 11
169.837893822912
 21
432.8257845038716
 31
0.0
 11
170.1754880656177
 21
432.5153222423253
 31
0.0
 11
170.4849757425083
 21
432.1764725511796
 31
0.0
 11
170.763710452659
 21
431.8119086828184
 31
0.0
 11
171.0098488025974
 21
431.4242928493089
 31
0.0
 11
171.2212607170213
 21
431.0166981089326
 31
0.0
 11
171.3965730065568
 21
430.5921020794562
 31
0.0
 11
171.5342404581999
 21
430.1538525658725
 31
0.0
 11
171.6334058931346
 21
429.705183752947
 31
0.0
 11
171.6931434212829
 21
429.2495871500505
 31
0.0
 11
171.7131572168076
 21
428.7904805862663
 31
0.0
 11
171.6931434212829
 21
428.3313740224822
 31
0.0
 11
171.6334058931345
 21
427.8757774195856
 31
0.0
 11
171.5342404581999
 21
427.4271086066601
 31
0.0
 11
171.3965730065568
 21
426.9888590930764
 31
0.0
 11
171.2212607170213
 21
426.5642630636
 31
0.0
 11
171.0098488025973
 21
426.1566683232238
 31
0.0
 11
170.7637104526589
 21
425.7690524897142
 31
0.0
 11
170.4849757425083
 21
425.4044886213529
 31
0.0
 11
170.1754880656177
 21
425.0656389302073
 31
0.0
 11
169.8378938229119
 21
424.7551766686613
 31
0.0
 11
169.4744628799968
 21
424.4753972458536
 31
0.0
 11
169.0882583893774
 21
424.2284672988075
 31
0.0
 11
168.6819331395228
 21
424.0162651264287
 31
0.0
 11
168.2588445230623
 21
423.8403723268107
 31
0.0
 11
167.8219794334422
 21
423.7021971312917
 31
0.0
 11
167.3748556534272
 21
423.602691887627
 31
0.0
 11
166.9207330385469
 21
423.5427395920975
 31
0.0
 11
166.4631572168075
 21
423.5226537098395
 31
0.0
 11
166.0055813950681
 21
423.5427395920976
 31
0.0
 11
165.5514587801878
 21
423.6026918876272
 31
0.0
 11
165.1043350001729
 21
423.7021971312919
 31
0.0
 11
164.6674699105528
 21
423.8403723268108
 31
0.0
 11
164.2443812940924
 21
424.0162651264287
 31
0.0
 11
163.8380560442378
 21
424.2284672988075
 31
0.0
 11
163.4518515536184
 21
424.4753972458536
 31
0.0
 11
163.0884206107033
 21
424.7551766686612
 31
0.0
 11
162.7508263679974
 21
425.0656389302073
 31
0.0
 11
162.4413386911069
 21
425.4044886213529
 31
0.0
 11
162.1626039809563
 21
425.7690524897142
 31
0.0
 11
161.9164656310179
 21
426.1566683232238
 31
0.0
 11
161.705053716594
 21
426.5642630636
 31
0.0
 11
161.5297414270584
 21
426.9888590930764
 31
0.0
 11
161.3920739754153
 21
427.4271086066601
 31
0.0
 11
161.2929085404806
 21
427.8757774195856
 31
0.0
 11
161.2331710123323
 21
428.3313740224822
 31
0.0
 11
161.2131572168076
 21
428.7904805862664
 31
0.0
 11
161.2331710123323
 21
429.2495871500505
 31
0.0
 11
161.2929085404806
 21
429.7051837529472
 31
0.0
 11
161.3920739754153
 21
430.1538525658726
 31
0.0
 11
161.5297414270585
 21
430.5921020794563
 31
0.0
 11
161.7050537165939
 21
431.0166981089325
 31
0.0
 11
161.9164656310178
 21
431.4242928493086
 31
0.0
 11
162.1626039809561
 21
431.8119086828182
 31
0.0
 11
162.4413386911068
 21
432.1764725511794
 31
0.0
 11
162.7508263679974
 21
432.5153222423252
 31
0.0
 11
163.0884206107033
 21
432.8257845038714
 31
0.0
 11
163.4518515536184
 21
433.105563926679
 31
0.0
 11
163.8380560442378
 21
433.3524938737251
 31
0.0
 11
164.2443812940924
 21
433.5646960461038
 31
0.0
 11
164.6674699105528
 21
433.7405888457217
 31
0.0
 11
165.1043350001729
 21
433.8787640412406
 31
0.0
 11
165.5514587801878
 21
433.9782692849054
 31
0.0
 11
166.0055813950681
 21
434.038221580435
 31
0.0
 11
166.4631572168075
 21
434.0583074626932
 31
0.0
 11
166.920733038547
 21
434.0382215804351
 31
0.0
  0
SPLINE
  5
137
330
39
100
AcDbEntity
  8
1
  6
Continuous
 62
     7
100
AcDbSpline
210
0.0
220
0.0
230
1.0
 70
     8
 71
     3
 72
    47
 73
    43
 74
    41
 42
0.0000000001
 43
0.0000000001
 44
0.00000001
 40
0.0
 40
0.0
 40
0.0
 40
0.0
 40
0.2378827264299813
 40
0.476222503774249
 40
0.9342389612368571
 40
1.392255418699496
 40
1.850318326044079
 40
2.308380514149224
 40
2.766576423325092
 40
3.22477098280377
 40
3.683170339949549
 40
4.141567882834211
 40
4.600216523620069
 40
5.058863107116014
 40
5.517776754043904
 40
5.976688349841326
 40
6.435850763043469
 40
6.895011377581371
 40
7.354376360040062
 40
7.813740010537317
 40
8.273237004192096
 40
8.732733290183829
 40
9.192275876807667
 40
9.651818463431617
 40
10.1113147494234
 40
10.57081174307813
 40
11.03017539357555
 40
11.4895403760341
 40
11.94870099057187
 40
12.40786340377399
 40
12.86677499957141
 40
13.32568864649934
 40
13.7843352299953
 40
14.24298387078124
 40
14.70138141366592
 40
15.1597807708117
 40
15.61797533029031
 40
16.07617123946614
 40
16.53423342757131
 40
16.99229633491589
 40
17.45031279237853
 40
17.90832924984122
 40
17.90832924984122
 40
17.90832924984122
 40
17.90832924984122
 10
167.3838821834004
 20
423.6058681496872
 30
0.0
 10
167.3056549189897
 20
423.5928140131214
 30
0.0
 10
167.1490500898782
 20
423.5666806587021
 30
0.0
 10
166.8393068667309
 20
423.5331516732934
 30
0.0
 10
166.4544156678687
 20
423.5158343522436
 30
0.0
 10
165.9962368592456
 20
423.5361383835779
 30
0.0
 10
165.5415407317993
 20
423.5960591260319
 30
0.0
 10
165.0938188467376
 20
423.695787874685
 30
0.0
 10
164.6564163641146
 20
423.8340530182803
 30
0.0
 10
164.232755685103
 20
424.010272635032
 30
0.0
 10
163.825939879031
 20
424.2226493363491
 30
0.0
 10
163.4392167682626
 20
424.4700084793128
 30
0.0
 10
163.0753471039791
 20
424.7500364165122
 30
0.0
 10
162.7373133723136
 20
425.0610142333726
 30
0.0
 10
162.4274417941396
 20
425.4001807930745
 30
0.0
 10
162.1483669464205
 20
425.76532296545
 30
0.0
 10
161.9019032587106
 20
426.1533213309255
 30
0.0
 10
161.6902628505975
 20
426.5615292263877
 30
0.0
 10
161.5146902894942
 20
426.98657178711
 30
0.0
 10
161.3769094749513
 20
427.4254407637305
 30
0.0
 10
161.2775587834278
 20
427.8746168423427
 30
0.0
 10
161.2178185345769
 20
428.3308135334052
 30
0.0
 10
161.1977070282507
 20
428.7904805862662
 30
0.0
 10
161.2178185345768
 20
429.2501476391271
 30
0.0
 10
161.2775587834277
 20
429.706344330191
 30
0.0
 10
161.3769094749509
 20
430.1555204087978
 30
0.0
 10
161.5146902894956
 20
430.5943893854389
 30
0.0
 10
161.6902628505919
 20
431.0194319460829
 30
0.0
 10
161.9019032587314
 20
431.4276398418386
 30
0.0
 10
162.1483669463429
 20
431.8156382062174
 30
0.0
 10
162.4274417944292
 20
432.1807803826838
 30
0.0
 10
162.7373133712335
 20
432.5199469271231
 30
0.0
 10
163.0753471080072
 20
432.8309248009131
 30
0.0
 10
163.4392167532325
 20
433.1109525257116
 30
0.0
 10
163.8259399350901
 20
433.3583124609535
 30
0.0
 10
164.2327554759231
 20
433.570686206214
 30
0.0
 10
164.6564171443987
 20
433.7469168504256
 30
0.0
 10
165.0938159349839
 20
433.8851408466961
 30
0.0
 10
165.5415515950997
 20
433.9850231166973
 30
0.0
 10
165.996196318126
 20
434.0443709629781
 30
0.0
 10
166.4545669524051
 20
434.0668128685302
 30
0.0
 10
166.7595135911919
 20
434.0477520098002
 30
0.0
 10
166.9119869105853
 20
434.0382215804351
 30
0.0
 11
167.3838821834004
 21
423.6058681496872
 31
0.0
 11
167.1488797930129
 21
423.5689619436248
 31
0.0
 11
166.9119869105852
 21
423.5427395920974
 31
0.0
 11
166.4544110888458
 21
423.5226537098393
 31
0.0
 11
165.9968352671064
 21
423.5427395920975
 31
0.0
 11
165.5427126522261
 21
423.6026918876271
 31
0.0
 11
165.0955888722111
 21
423.7021971312918
 31
0.0
 11
164.6587237825909
 21
423.8403723268107
 31
0.0
 11
164.2356351661305
 21
424.0162651264287
 31
0.0
 11
163.8293099162759
 21
424.2284672988075
 31
0.0
 11
163.4431054256566
 21
424.4753972458535
 31
0.0
 11
163.0796744827415
 21
424.7551766686611
 31
0.0
 11
162.7420802400356
 21
425.0656389302072
 31
0.0
 11
162.432592563145
 21
425.4044886213529
 31
0.0
 11
162.1538578529944
 21
425.7690524897142
 31
0.0
 11
161.907719503056
 21
426.1566683232237
 31
0.0
 11
161.6963075886321
 21
426.5642630636
 31
0.0
 11
161.5209952990967
 21
426.9888590930764
 31
0.0
 11
161.3833278474535
 21
427.42710860666
 31
0.0
 11
161.2841624125188
 21
427.8757774195855
 31
0.0
 11
161.2244248843705
 21
428.3313740224821
 31
0.0
 11
161.2044110888458
 21
428.7904805862662
 31
0.0
 11
161.2244248843705
 21
429.2495871500504
 31
0.0
 11
161.2841624125188
 21
429.7051837529471
 31
0.0
 11
161.3833278474535
 21
430.1538525658725
 31
0.0
 11
161.5209952990967
 21
430.5921020794563
 31
0.0
 11
161.6963075886321
 21
431.0166981089325
 31
0.0
 11
161.9077195030561
 21
431.4242928493086
 31
0.0
 11
162.1538578529944
 21
431.8119086828181
 31
0.0
 11
162.432592563145
 21
432.1764725511794
 31
0.0
 11
162.7420802400356
 21
432.5153222423252
 31
0.0
 11
163.0796744827414
 21
432.8257845038714
 31
0.0
 11
163.4431054256566
 21
433.105563926679
 31
0.0
 11
163.829309916276
 21
433.3524938737251
 31
0.0
 11
164.2356351661306
 21
433.5646960461038
 31
0.0
 11
164.658723782591
 21
433.7405888457217
 31
0.0
 11
165.0955888722111
 21
433.8787640412406
 31
0.0
 11
165.5427126522261
 21
433.9782692849054
 31
0.0
 11
165.9968352671064
 21
434.038221580435
 31
0.0
 11
166.4544110888458
 21
434.0583074626932
 31
0.0
 11
166.9119869105853
 21
434.0382215804351
 31
0.0
  0
SPLINE
  5
138
330
39
100
AcDbEntity
  8
1
  6
Continuous
 62
     7
100
AcDbSpline
210
0.0
220
0.0
230
1.0
 70
     8
 71
     3
 72
    29
 73
    25
 74
    23
 42
0.0000000001
 43
0.0000000001
 44
0.00000001
 40
0.0
 40
0.0
 40
0.0
 40
0.0
 40
0.4580629073444771
 40
0.9161250954496044
 40
1.374321004625425
 40
1.832515564104069
 40
2.290914921249767
 40
2.749312464134485
 40
3.207961104920308
 40
3.666607688416348
 40
4.125521335344302
 40
4.58443293114165
 40
5.043595344343825
 40
5.502755958881666
 40
5.96212094134039
 40
6.421484591837791
 40
6.880981585492521
 40
7.340477871484201
 40
7.800020458108151
 40
8.259563044731991
 40
8.719059330723674
 40
9.178556324378626
 40
9.614052495938795
 40
10.04938656571797
 40
10.04938656571797
 40
10.04938656571797
 40
10.04938656571797
 10
166.9119869105853
 20
434.0382215804351
 30
0.0
 10
167.0638039093859
 20
434.0210381637284
 30
0.0
 10
167.3674376686077
 20
433.986671357296
 30
0.0
 10
167.814961457668
 20
433.8846990591518
 30
0.0
 10
168.2524170346694
 20
433.7470352394833
 30
0.0
 10
168.6760634844166
 20
433.5706544682539
 30
0.0
 10
169.0828831048327
 20
433.3583209665267
 30
0.0
 10
169.4696051932807
 20
433.1109502452687
 30
0.0
 10
169.8334751316556
 20
432.8309254120763
 30
0.0
 10
170.1715087897881
 20
432.5199467632807
 30
0.0
 10
170.4813803879315
 20
432.1807804265062
 30
0.0
 10
170.7604552293444
 20
431.8156381948006
 30
0.0
 10
171.0069189223071
 20
431.4276398436576
 30
0.0
 10
171.2185593157147
 20
431.0194319502273
 30
0.0
 10
171.3941319304089
 20
430.5943893670319
 30
0.0
 10
171.5319125452631
 20
430.1555204782865
 30
0.0
 10
171.6312639821455
 20
429.7063440705602
 30
0.0
 10
171.6910014490478
 20
429.2501486081695
 30
0.0
 10
171.7111233387221
 20
428.7904769693323
 30
0.0
 10
171.6909730817072
 20
428.3308270313702
 30
0.0
 10
171.6313774382427
 20
427.8745664728801
 30
0.0
 10
171.5332168245147
 20
427.4334024803482
 30
0.0
 10
171.4030674913671
 20
427.0086984239696
 30
0.0
 10
171.2893630992873
 20
426.7414362376524
 30
0.0
 10
171.2325214860703
 20
426.6078300194201
 30
0.0
 11
166.9119869105853
 21
434.0382215804351
 31
0.0
 11
167.3661095254655
 21
433.9782692849054
 31
0.0
 11
167.8132333054804
 21
433.8787640412406
 31
0.0
 11
168.2500983951005
 21
433.7405888457216
 31
0.0
 11
168.673187011561
 21
433.5646960461038
 31
0.0
 11
169.0795122614156
 21
433.3524938737252
 31
0.0
 11
169.4657167520349
 21
433.1055639266791
 31
0.0
 11
169.8291476949501
 21
432.8257845038716
 31
0.0
 11
170.1667419376559
 21
432.5153222423253
 31
0.0
 11
170.4762296145464
 21
432.1764725511795
 31
0.0
 11
170.7549643246971
 21
431.8119086828183
 31
0.0
 11
171.0011026746355
 21
431.4242928493088
 31
0.0
 11
171.2125145890594
 21
431.0166981089325
 31
0.0
 11
171.387826878595
 21
430.5921020794561
 31
0.0
 11
171.5254943302381
 21
430.1538525658724
 31
0.0
 11
171.6246597651728
 21
429.7051837529469
 31
0.0
 11
171.6843972933211
 21
429.2495871500504
 31
0.0
 11
171.7044110888458
 21
428.7904805862662
 31
0.0
 11
171.6843972933211
 21
428.3313740224821
 31
0.0
 11
171.6246597651727
 21
427.8757774195856
 31
0.0
 11
171.525494330238
 21
427.4271086066599
 31
0.0
 11
171.3959217711283
 21
427.0113347890988
 31
0.0
 11
171.2325214860703
 21
426.6078300194201
 31
0.0
  0
SPLINE
  5
139
330
39
100
AcDbEntity
  8
1
  6
Continuous
 62
     7
100
AcDbSpline
210
0.0
220
0.0
230
1.0
 70
    11
 71
     3
 72
    79
 73
    75
 74
    73
 42
0.0000000001
 43
0.0000000001
 44
0.00000001
 40
0.0
 40
0.0
 40
0.0
 40
0.0
 40
0.4580629073445676
 40
0.9161250954496796
 40
1.3743210046255
 40
1.832515564104118
 40
2.290914921249816
 40
2.749312464134534
 40
3.207961104920357
 40
3.666607688416376
 40
4.125521335344292
 40
4.58443293114164
 40
5.043595344343831
 40
5.502755958881658
 40
5.962120941340372
 40
6.421484591837781
 40
6.880981585492517
 40
7.340477871484194
 40
7.800020458108145
 40
8.259563044731983
 40
8.71905933072366
 40
9.178556324378494
 40
9.637919974875794
 40
10.09728495733456
 40
10.55644557187235
 40
11.01560798507454
 40
11.47451958087193
 40
11.9334332277998
 40
12.39207981129573
 40
12.8507284520816
 40
13.30912599496639
 40
13.76752535211214
 40
14.22571991159084
 40
14.68391582076662
 40
15.14197800887171
 40
15.60004091621631
 40
16.05805737367895
 40
16.51607383114158
 40
16.97413673848622
 40
17.43219892659137
 40
17.89039483576715
 40
18.34858939524583
 40
18.80698875239163
 40
19.26538629527634
 40
19.72403493606223
 40
20.18268151955811
 40
20.64159516648596
 40
21.10050676228338
 40
21.55966917548552
 40
22.01882979002347
 40
22.47819477248219
 40
22.93755842297944
 40
23.39705541663421
 40
23.85655170262594
 40
24.31609428924978
 40
24.77563687587373
 40
25.23513316186552
 40
25.69463015552024
 40
26.15399380601766
 40
26.61335878847622
 40
27.07251940301398
 40
27.53168181621615
 40
27.99059341201357
 40
28.44950705894147
 40
28.90815364243739
 40
29.3668022832233
 40
29.82519982610804
 40
30.28359918325384
 40
30.74179374273247
 40
31.19998965190828
 40
31.65805184001336
 40
32.11611474735803
 40
32.57413120482067
 40
33.03214766228334
 40
33.03214766228334
 40
33.03214766228334
 40
33.03214766228334
 10
154.4968352671062
 20
434.038221580435
 30
0.0
 10
154.3450182683055
 20
434.0210381637284
 30
0.0
 10
154.0413845090837
 20
433.9866713572961
 30
0.0
 10
153.5938607200234
 20
433.8846990591517
 30
0.0
 10
153.1564051430222
 20
433.7470352394832
 30
0.0
 10
152.7327586932744
 20
433.5706544682537
 30
0.0
 10
152.3259390728599
 20
433.3583209665272
 30
0.0
 10
151.9392169844064
 20
433.1109502452669
 30
0.0
 10
151.5753470460514
 20
432.8309254120832
 30
0.0
 10
151.2373133878452
 20
432.519946763255
 30
0.0
 10
150.9274417899772
 20
432.180780426602
 30
0.0
 10
150.6483669475365
 20
431.8156381944427
 30
0.0
 10
150.4019032584115
 20
431.4276398449945
 30
0.0
 10
150.1902628506776
 20
431.0194319452368
 30
0.0
 10
150.0146902894726
 20
430.5943893856658
 30
0.0
 10
149.876909474957
 20
430.1555204087366
 30
0.0
 10
149.777558783426
 20
429.7063443302073
 30
0.0
 10
149.7178185345771
 20
429.2501476391226
 30
0.0
 10
149.6977070282504
 20
428.7904805862674
 30
0.0
 10
149.7178185345767
 20
428.3308135334049
 30
0.0
 10
149.7775587834276
 20
427.8746168423427
 30
0.0
 10
149.8769094749512
 20
427.4254407637303
 30
0.0
 10
150.0146902894941
 20
426.986571787111
 30
0.0
 10
150.1902628505974
 20
426.5615292263841
 30
0.0
 10
150.40190325871
 20
426.1533213309378
 30
0.0
 10
150.6483669464229
 20
425.7653229654043
 30
0.0
 10
150.9274417941308
 20
425.4001807932453
 30
0.0
 10
151.2373133723462
 20
425.0610142327349
 30
0.0
 10
151.575347103857
 20
424.7500364188907
 30
0.0
 10
151.9392167687174
 20
424.4700084704377
 30
0.0
 10
152.3259398773341
 20
424.2226493694511
 30
0.0
 10
152.7327556914344
 20
424.010272511514
 30
0.0
 10
153.1564163404972
 20
423.8340534790276
 30
0.0
 10
153.5938189348694
 20
423.6957861553336
 30
0.0
 10
154.0415404029929
 20
423.5960655406645
 30
0.0
 10
154.4962380863287
 20
423.5361144445921
 30
0.0
 10
154.9544110888456
 20
423.5159236837268
 30
0.0
 10
155.4125840913627
 20
423.5361144445923
 30
0.0
 10
155.8672817746984
 20
423.5960655406648
 30
0.0
 10
156.315003242822
 20
423.6957861553337
 30
0.0
 10
156.7524058371942
 20
423.8340534790276
 30
0.0
 10
157.1760664862571
 20
424.0102725115141
 30
0.0
 10
157.5828823003572
 20
424.2226493694512
 30
0.0
 10
157.969605408974
 20
424.4700084704377
 30
0.0
 10
158.3334750738343
 20
424.7500364188908
 30
0.0
 10
158.6715088053452
 20
425.0610142327349
 30
0.0
 10
158.9813803835604
 20
425.4001807932453
 30
0.0
 10
159.2604552312685
 20
425.7653229654043
 30
0.0
 10
159.5069189189815
 20
426.1533213309378
 30
0.0
 10
159.7185593270938
 20
426.5615292263842
 30
0.0
 10
159.8941318881974
 20
426.9865717871111
 30
0.0
 10
160.0319127027402
 20
427.4254407637303
 30
0.0
 10
160.1312633942638
 20
427.8746168423427
 30
0.0
 10
160.1910036431146
 20
428.3308135334052
 30
0.0
 10
160.2111151494408
 20
428.7904805862663
 30
0.0
 10
160.1910036431146
 20
429.2501476391269
 30
0.0
 10
160.1312633942638
 20
429.7063443301913
 30
0.0
 10
160.0319127027406
 20
430.1555204087975
 30
0.0
 10
159.8941318881959
 20
430.5943893854391
 30
0.0
 10
159.7185593270996
 20
431.0194319460829
 30
0.0
 10
159.5069189189601
 20
431.4276398418386
 30
0.0
 10
159.2604552313485
 20
431.8156382062173
 30
0.0
 10
158.9813803832623
 20
432.1807803826838
 30
0.0
 10
158.6715088064579
 20
432.5199469271232
 30
0.0
 10
158.3334750696843
 20
432.8309248009131
 30
0.0
 10
157.969605424459
 20
433.1109525257117
 30
0.0
 10
157.5828822426014
 20
433.3583124609534
 30
0.0
 10
157.1760667017684
 20
433.570686206214
 30
0.0
 10
156.7524050332927
 20
433.7469168504257
 30
0.0
 10
156.3150062427076
 20
433.885140846696
 30
0.0
 10
155.8672705825917
 20
433.9850231166975
 30
0.0
 10
155.4126258595654
 20
434.0443709629781
 30
0.0
 10
154.9542552252863
 20
434.0668128685301
 30
0.0
 10
154.6493085864996
 20
434.0477520098
 30
0.0
 10
154.4968352671062
 20
434.038221580435
 30
0.0
 11
154.4968352671062
 21
434.038221580435
 31
0.0
 11
154.0427126522259
 21
433.9782692849055
 31
0.0
 11
153.595588872211
 21
433.8787640412406
 31
0.0
 11
153.1587237825909
 21
433.7405888457216
 31
0.0
 11
152.7356351661304
 21
433.5646960461038
 31
0.0
 11
152.3293099162758
 21
433.3524938737252
 31
0.0
 11
151.9431054256565
 21
433.1055639266791
 31
0.0
 11
151.5796744827414
 21
432.8257845038716
 31
0.0
 11
151.2420802400355
 21
432.5153222423253
 31
0.0
 11
150.9325925631451
 21
432.1764725511795
 31
0.0
 11
150.6538578529944
 21
431.8119086828183
 31
0.0
 11
150.407719503056
 21
431.4242928493088
 31
0.0
 11
150.1963075886321
 21
431.0166981089325
 31
0.0
 11
150.0209952990966
 21
430.5921020794561
 31
0.0
 11
149.8833278474534
 21
430.1538525658724
 31
0.0
 11
149.7841624125187
 21
429.7051837529469
 31
0.0
 11
149.7244248843704
 21
429.2495871500504
 31
0.0
 11
149.7044110888456
 21
428.7904805862662
 31
0.0
 11
149.7244248843704
 21
428.3313740224821
 31
0.0
 11
149.7841624125187
 21
427.8757774195856
 31
0.0
 11
149.8833278474534
 21
427.42710860666
 31
0.0
 11
150.0209952990965
 21
426.9888590930764
 31
0.0
 11
150.196307588632
 21
426.5642630635999
 31
0.0
 11
150.407719503056
 21
426.1566683232238
 31
0.0
 11
150.6538578529943
 21
425.7690524897142
 31
0.0
 11
150.9325925631449
 21
425.4044886213529
 31
0.0
 11
151.2420802400355
 21
425.0656389302072
 31
0.0
 11
151.5796744827413
 21
424.7551766686611
 31
0.0
 11
151.9431054256565
 21
424.4753972458535
 31
0.0
 11
152.3293099162758
 21
424.2284672988072
 31
0.0
 11
152.7356351661304
 21
424.0162651264286
 31
0.0
 11
153.1587237825909
 21
423.8403723268106
 31
0.0
 11
153.5955888722109
 21
423.7021971312917
 31
0.0
 11
154.0427126522259
 21
423.602691887627
 31
0.0
 11
154.4968352671062
 21
423.5427395920974
 31
0.0
 11
154.9544110888456
 21
423.5226537098394
 31
0.0
 11
155.4119869105851
 21
423.5427395920975
 31
0.0
 11
155.8661095254654
 21
423.6026918876271
 31
0.0
 11
156.3132333054804
 21
423.7021971312918
 31
0.0
 11
156.7500983951005
 21
423.8403723268107
 31
0.0
 11
157.1731870115609
 21
424.0162651264287
 31
0.0
 11
157.5795122614155
 21
424.2284672988075
 31
0.0
 11
157.9657167520349
 21
424.4753972458535
 31
0.0
 11
158.3291476949501
 21
424.7551766686611
 31
0.0
 11
158.6667419376558
 21
425.0656389302072
 31
0.0
 11
158.9762296145464
 21
425.4044886213529
 31
0.0
 11
159.254964324697
 21
425.7690524897142
 31
0.0
 11
159.5011026746354
 21
426.1566683232237
 31
0.0
 11
159.7125145890593
 21
426.5642630636
 31
0.0
 11
159.8878268785949
 21
426.9888590930764
 31
0.0
 11
160.025494330238
 21
427.42710860666
 31
0.0
 11
160.1246597651727
 21
427.8757774195855
 31
0.0
 11
160.184397293321
 21
428.3313740224821
 31
0.0
 11
160.2044110888457
 21
428.7904805862662
 31
0.0
 11
160.184397293321
 21
429.2495871500504
 31
0.0
 11
160.1246597651727
 21
429.7051837529471
 31
0.0
 11
160.025494330238
 21
430.1538525658725
 31
0.0
 11
159.8878268785948
 21
430.5921020794563
 31
0.0
 11
159.7125145890593
 21
431.0166981089325
 31
0.0
 11
159.5011026746354
 21
431.4242928493086
 31
0.0
 11
159.254964324697
 21
431.8119086828181
 31
0.0
 11
158.9762296145464
 21
432.1764725511794
 31
0.0
 11
158.6667419376558
 21
432.5153222423252
 31
0.0
 11
158.3291476949501
 21
432.8257845038714
 31
0.0
 11
157.9657167520349
 21
433.105563926679
 31
0.0
 11
157.5795122614155
 21
433.3524938737251
 31
0.0
 11
157.1731870115609
 21
433.5646960461038
 31
0.0
 11
156.7500983951004
 21
433.7405888457217
 31
0.0
 11
156.3132333054804
 21
433.8787640412406
 31
0.0
 11
155.8661095254655
 21
433.9782692849054
 31
0.0
 11
155.4119869105851
 21
434.038221580435
 31
0.0
 11
154.9544110888456
 21
434.0583074626932
 31
0.0
 11
154.4968352671062
 21
434.038221580435
 31
0.0
  0
ENDBLK
  5
3B
330
39
100
AcDbEntity
  8
0
100
AcDbBlockEnd
  0
BLOCK
  5
3E
330
3C
100
AcDbEntity
  8
0
100
AcDbBlockBegin
  2
B041A-24A-13
 70
     0
 71
     0
 10
1328.713157216816
 20
479.7904805862784
 30
0.0
  3
B041A-24A-13
  1

  0
INSERT
  5
3D
330
3C
100
AcDbEntity
  8
1
100
AcDbBlockReference
  2
32-213
 10
488.7131572168164
 20
479.7904805862784
 30
0.0
  0
LINE
  5
13A
330
3C
100
AcDbEntity
  8
0
  6
PHANTOM
 62
     4
100
AcDbLine
 10
160.7131572168075
 20
439.9596490674242
 30
0.0
 11
160.7131572168075
 21
419.7904805862662
 31
0.0
  0
ENDBLK
  5
3F
330
3C
100
AcDbEntity
  8
0
100
AcDbBlockEnd
  0
BLOCK
  5
41
330
40
100
AcDbEntity
  8
0
100
AcDbBlockBegin
  2
36-45A-M11
 70
     0
 71
     0
 10
564.6444253953814
 20
319.2651751284184
 30
0.0
  3
36-45A-M11
  1

  0
LINE
  5
13B
330
40
100
AcDbEntity
  8
1
  6
Continuous
 62
     7
100
AcDbLine
 10
317.4631572168169
 20
316.8179772592523
 30
0.0
 11
317.4631572168169
 21
318.2904805862784
 31
0.0
  0
LINE
  5
13C
330
40
100
AcDbEntity
  8
1
  6
Continuous
 62
     7
100
AcDbLine
 10
165.4631572168046
 20
318.2904805862785
 30
0.0
 11
164.4631572168046
 21
319.2904805862785
 31
0.0
  0
LINE
  5
13D
330
40
100
AcDbEntity
  8
1
  6
Continuous
 62
     7
100
AcDbLine
 10
161.6131572168046
 20
319.2904805862785
 30
0.0
 11
164.4631572168046
 21
319.2904805862785
 31
0.0
  0
LINE
  5
13E
330
40
100
AcDbEntity
  8
1
  6
Continuous
 62
     7
100
AcDbLine
 10
156.9631572168048
 20
319.2904805862785
 30
0.0
 11
159.8131572168048
 21
319.2904805862785
 31
0.0
  0
LINE
  5
13F
330
40
100
AcDbEntity
  8
1
  6
Continuous
 62
     7
100
AcDbLine
 10
159.8131572168048
 20
319.2904805862785
 30
0.0
 11
159.8131572168047
 21
318.2904805862785
 31
0.0
  0
LINE
  5
140
330
40
100
AcDbEntity
  8
1
  6
Continuous
 62
     7
100
AcDbLine
 10
156.9631572168048
 20
319.2904805862785
 30
0.0
 11
155.9631572168048
 21
318.2904805862785
 31
0.0
  0
LINE
  5
141
330
40
100
AcDbEntity
  8
1
  6
Continuous
 62
     7
100
AcDbLine
 10
155.9631572168048
 20
318.2904805862785
 30
0.0
 11
155.9631572168048
 21
316.7904805862785
 31
0.0
  0
LINE
  5
142
330
40
100
AcDbEntity
  8
1
  6
Continuous
 62
     7
100
AcDbLine
 10
307.9631572168171
 20
318.2904805862784
 30
0.0
 11
307.9631572168171
 21
316.8179772592523
 31
0.0
  0
LINE
  5
143
330
40
100
AcDbEntity
  8
1
  6
Continuous
 62
     7
100
AcDbLine
 10
308.9631572168171
 20
319.2904805862784
 30
0.0
 11
307.9631572168171
 21
318.2904805862784
 31
0.0
  0
LINE
  5
144
330
40
100
AcDbEntity
  8
1
  6
Continuous
 62
     7
100
AcDbLine
 10
308.9631572168171
 20
319.2904805862784
 30
0.0
 11
316.4631572168169
 21
319.2904805862784
 31
0.0
  0
LINE
  5
145
330
40
100
AcDbEntity
  8
1
  6
Continuous
 62
     7
100
AcDbLine
 10
317.4631572168169
 20
318.2904805862784
 30
0.0
 11
316.4631572168169
 21
319.2904805862784
 31
0.0
  0
LINE
  5
146
330
40
100
AcDbEntity
  8
1
  6
Continuous
 62
     7
100
AcDbLine
 10
165.4631572168046
 20
316.7904805862785
 30
0.0
 11
165.4631572168046
 21
318.2904805862785
 31
0.0
  0
LINE
  5
147
330
40
100
AcDbEntity
  8
1
  6
Continuous
 62
     7
100
AcDbLine
 10
161.6131572168046
 20
316.7904805862785
 30
0.0
 11
161.6131572168046
 21
318.2904805862785
 31
0.0
  0
LINE
  5
148
330
40
100
AcDbEntity
  8
1
  6
Continuous
 62
     7
100
AcDbLine
 10
161.6131572168043
 20
403.954438133255
 30
0.0
 11
161.6131572168043
 21
403.4737807189488
 31
0.0
  0
LINE
  5
149
330
40
100
AcDbEntity
  8
1
  6
Continuous
 62
     7
100
AcDbLine
 10
161.6131572168043
 20
403.4737807189488
 30
0.0
 11
161.6131572168043
 21
395.107180453608
 31
0.0
  0
LINE
  5
14A
330
40
100
AcDbEntity
  8
1
  6
Continuous
 62
     7
100
AcDbLine
 10
161.6131572168043
 20
395.107180453608
 30
0.0
 11
161.6131572168043
 21
394.6265230393018
 31
0.0
  0
LINE
  5
14B
330
40
100
AcDbEntity
  8
1
  6
Continuous
 62
     7
100
AcDbLine
 10
159.8131572168044
 20
403.954438133255
 30
0.0
 11
159.8131572168044
 21
403.4737807189488
 31
0.0
  0
LINE
  5
14C
330
40
100
AcDbEntity
  8
1
  6
Continuous
 62
     7
100
AcDbLine
 10
159.8131572168044
 20
403.4737807189488
 30
0.0
 11
159.8131572168044
 21
395.107180453608
 31
0.0
  0
LINE
  5
14D
330
40
100
AcDbEntity
  8
1
  6
Continuous
 62
     7
100
AcDbLine
 10
159.8131572168044
 20
395.107180453608
 30
0.0
 11
159.8131572168044
 21
394.6265230393018
 31
0.0
  0
LINE
  5
14E
330
40
100
AcDbEntity
  8
1
  6
Continuous
 62
     7
100
AcDbLine
 10
317.4631572168169
 20
318.2904805862784
 30
0.0
 11
307.9631572168171
 21
318.2904805862784
 31
0.0
  0
LINE
  5
14F
330
40
100
AcDbEntity
  8
1
  6
Continuous
 62
     7
100
AcDbLine
 10
165.4631572168046
 20
318.2904805862785
 30
0.0
 11
161.6131572168046
 21
318.2904805862785
 31
0.0
  0
LINE
  5
150
330
40
100
AcDbEntity
  8
1
  6
Continuous
 62
     7
100
AcDbLine
 10
161.6131572168046
 20
318.2904805862785
 30
0.0
 11
161.6131572168046
 21
319.2904805862785
 31
0.0
  0
LINE
  5
151
330
40
100
AcDbEntity
  8
1
  6
Continuous
 62
     7
100
AcDbLine
 10
159.8131572168047
 20
318.2904805862785
 30
0.0
 11
155.9631572168048
 21
318.2904805862785
 31
0.0
  0
LINE
  5
152
330
40
100
AcDbEntity
  8
1
  6
Continuous
 62
     7
100
AcDbLine
 10
159.8131572168047
 20
318.2904805862785
 30
0.0
 11
159.8131572168046
 21
316.7904805862785
 31
0.0
  0
ARC
  5
153
330
40
100
AcDbEntity
  8
1
  6
Continuous
 62
     7
100
AcDbCircle
 10
160.7131572168044
 20
399.2904805862784
 30
0.0
 40
4.749999999999966
100
AcDbArc
 50
80.91527971260886
 51
-80.91527971260886
  0
ARC
  5
154
330
40
100
AcDbEntity
  8
1
  6
Continuous
 62
     7
100
AcDbCircle
 10
160.7131572168044
 20
399.2904805862784
 30
0.0
 40
4.749999999999966
100
AcDbArc
 50
-80.91527971260886
 51
80.91527971260886
  0
ARC
  5
155
330
40
100
AcDbEntity
  8
1
  6
Continuous
 62
     7
100
AcDbCircle
 10
160.7131572168044
 20
399.2904805862784
 30
0.0
 40
3.749999999999715
100
AcDbArc
 50
-76.11345963737163
 51
0.0
  0
ARC
  5
156
330
40
100
AcDbEntity
  8
1
  6
Continuous
 62
     7
100
AcDbCircle
 10
160.7131572168044
 20
399.2904805862784
 30
0.0
 40
3.75
100
AcDbArc
 50
0.0
 51
76.11345963737142
  0
ARC
  5
157
330
40
100
AcDbEntity
  8
1
  6
Continuous
 62
     7
100
AcDbCircle
 10
160.7131572168044
 20
399.2904805862784
 30
0.0
 40
3.749999999999687
100
AcDbArc
 50
103.8865403626303
 51
-103.8865403626301
  0
ENDBLK
  5
42
330
40
100
AcDbEntity
  8
0
100
AcDbBlockEnd
  0
BLOCK
  5
44
330
43
100
AcDbEntity
  8
0
100
AcDbBlockBegin
  2
37-1-13
 70
     0
 71
     0
 10
68.91192700003364
 20
205.794774696134
 30
0.0
  3
37-1-13
  1

  0
LINE
  5
158
330
43
100
AcDbEntity
  8
1
  6
Continuous
 62
     7
100
AcDbLine
 10
166.4352829471354
 20
316.7904805862785
 30
0.0
 11
160.4352829471354
 21
316.7904805862785
 31
0.0
  0
LINE
  5
159
330
43
100
AcDbEntity
  8
1
  6
Continuous
 62
     7
100
AcDbLine
 10
160.4352829471354
 20
316.7904805862785
 30
0.0
 11
154.4352829471354
 21
316.7904805862785
 31
0.0
  0
LINE
  5
15A
330
43
100
AcDbEntity
  8
1
  6
Continuous
 62
     7
100
AcDbLine
 10
147.9352829471355
 20
310.2904805862785
 30
0.0
 11
160.4352829471354
 21
310.2904805862785
 31
0.0
  0
LINE
  5
15B
330
43
100
AcDbEntity
  8
1
  6
Continuous
 62
     7
100
AcDbLine
 10
160.4352829471354
 20
310.2904805862785
 30
0.0
 11
172.9352829471354
 21
310.2904805862785
 31
0.0
  0
LINE
  5
15C
330
43
100
AcDbEntity
  8
1
  6
Continuous
 62
     7
100
AcDbLine
 10
161.0574086774664
 20
302.7904805862785
 30
0.0
 11
147.364568732864
 21
302.7904805862785
 31
0.0
  0
LINE
  5
15D
330
43
100
AcDbEntity
  8
1
  6
Continuous
 62
     7
100
AcDbLine
 10
173.5059971614069
 20
302.7904805862785
 30
0.0
 11
159.8131572168045
 21
302.7904805862785
 31
0.0
  0
LINE
  5
15E
330
43
100
AcDbEntity
  8
1
  6
Continuous
 62
     7
100
AcDbLine
 10
299.7131572168169
 20
302.8179772592523
 30
0.0
 11
299.7131572168169
 21
309.8886914735237
 31
0.0
  0
LINE
  5
15F
330
43
100
AcDbEntity
  8
1
  6
Continuous
 62
     7
100
AcDbLine
 10
312.7131572168169
 20
302.8179772592523
 30
0.0
 11
299.7131572168169
 21
302.8179772592523
 31
0.0
  0
LINE
  5
160
330
43
100
AcDbEntity
  8
1
  6
Continuous
 62
     7
100
AcDbLine
 10
325.7131572168169
 20
302.8179772592523
 30
0.0
 11
312.7131572168169
 21
302.8179772592523
 31
0.0
  0
LINE
  5
161
330
43
100
AcDbEntity
  8
1
  6
Continuous
 62
     7
100
AcDbLine
 10
323.8435619332856
 20
309.8886914735237
 30
0.0
 11
300.1337706432221
 21
309.8886914735237
 31
0.0
  0
LINE
  5
162
330
43
100
AcDbEntity
  8
1
  6
Continuous
 62
     7
100
AcDbLine
 10
318.7131572168169
 20
316.8179772592523
 30
0.0
 11
306.7131572168169
 21
316.8179772592523
 31
0.0
  0
LINE
  5
163
330
43
100
AcDbEntity
  8
1
  6
Continuous
 62
     7
100
AcDbLine
 10
325.2925437904116
 20
309.8886914735237
 30
0.0
 11
323.8435619332856
 21
309.8886914735237
 31
0.0
  0
LINE
  5
164
330
43
100
AcDbEntity
  8
1
  6
Continuous
 62
     7
100
AcDbLine
 10
325.7131572168169
 20
302.8179772592523
 30
0.0
 11
325.7131572168169
 21
309.8886914735237
 31
0.0
  0
LINE
  5
165
330
43
100
AcDbEntity
  8
1
  6
Continuous
 62
     7
100
AcDbLine
 10
160.7131572168046
 20
412.2904805862779
 30
0.0
 11
167.1357735061372
 21
412.2904805862779
 31
0.0
  0
LINE
  5
166
330
43
100
AcDbEntity
  8
1
  6
Continuous
 62
     7
100
AcDbLine
 10
154.290540927472
 20
412.2904805862779
 30
0.0
 11
160.7131572168046
 21
412.2904805862779
 31
0.0
  0
LINE
  5
167
330
43
100
AcDbEntity
  8
1
  6
Continuous
 62
     7
100
AcDbLine
 10
149.454826967607
 20
405.7904805862779
 30
0.0
 11
152.6661351122732
 21
411.3526294515997
 31
0.0
  0
LINE
  5
168
330
43
100
AcDbEntity
  8
1
  6
Continuous
 62
     7
100
AcDbLine
 10
146.2435188229406
 20
400.2283317209561
 30
0.0
 11
149.454826967607
 21
405.7904805862779
 31
0.0
  0
LINE
  5
169
330
43
100
AcDbEntity
  8
1
  6
Continuous
 62
     7
100
AcDbLine
 10
149.454826967607
 20
392.7904805862779
 30
0.0
 11
146.2435188229406
 21
398.3526294515997
 31
0.0
  0
LINE
  5
16A
330
43
100
AcDbEntity
  8
1
  6
Continuous
 62
     7
100
AcDbLine
 10
152.6661351122732
 20
387.2283317209563
 30
0.0
 11
149.454826967607
 21
392.7904805862779
 31
0.0
  0
LINE
  5
16B
330
43
100
AcDbEntity
  8
1
  6
Continuous
 62
     7
100
AcDbLine
 10
160.7131572168046
 20
386.2904805862779
 30
0.0
 11
154.290540927472
 21
386.2904805862779
 31
0.0
  0
LINE
  5
16C
330
43
100
AcDbEntity
  8
1
  6
Continuous
 62
     7
100
AcDbLine
 10
167.1357735061372
 20
386.2904805862779
 30
0.0
 11
160.7131572168046
 21
386.2904805862779
 31
0.0
  0
LINE
  5
16D
330
43
100
AcDbEntity
  8
1
  6
Continuous
 62
     7
100
AcDbLine
 10
171.9714874660024
 20
392.7904805862779
 30
0.0
 11
168.7601793213361
 21
387.2283317209563
 31
0.0
  0
LINE
  5
16E
330
43
100
AcDbEntity
  8
1
  6
Continuous
 62
     7
100
AcDbLine
 10
175.1827956106687
 20
398.3526294515997
 30
0.0
 11
171.9714874660024
 21
392.7904805862779
 31
0.0
  0
LINE
  5
16F
330
43
100
AcDbEntity
  8
1
  6
Continuous
 62
     7
100
AcDbLine
 10
171.9714874660024
 20
405.7904805862779
 30
0.0
 11
175.1827956106687
 21
400.2283317209561
 31
0.0
  0
LINE
  5
170
330
43
100
AcDbEntity
  8
1
  6
Continuous
 62
     7
100
AcDbLine
 10
168.7601793213361
 20
411.3526294515997
 30
0.0
 11
171.9714874660024
 21
405.7904805862779
 31
0.0
  0
ARC
  5
171
330
43
100
AcDbEntity
  8
1
  6
Continuous
 62
     7
100
AcDbCircle
 10
186.3417381522504
 20
330.1969357913932
 30
0.0
 40
23.99999999999995
100
AcDbArc
 50
-146.0408074999031
 51
-123.959192500098
  0
ARC
  5
172
330
43
100
AcDbEntity
  8
1
  6
Continuous
 62
     7
100
AcDbCircle
 10
134.5288277420204
 20
330.1969357913932
 30
0.0
 40
23.99999999999991
100
AcDbArc
 50
-56.04080749990187
 51
-33.95919250009698
  0
ARC
  5
173
330
43
100
AcDbEntity
  8
1
  6
Continuous
 62
     7
100
AcDbCircle
 10
150.9352829471354
 20
306.2904805862785
 30
0.0
 40
4.999999999999932
100
AcDbArc
 50
126.869897645843
 51
-135.572995999194
  0
ARC
  5
174
330
43
100
AcDbEntity
  8
1
  6
Continuous
 62
     7
100
AcDbCircle
 10
169.9352829471354
 20
306.2904805862785
 30
0.0
 40
5.000000000000057
100
AcDbArc
 50
-44.42700400080507
 51
53.13010235415598
  0
ARC
  5
175
330
43
100
AcDbEntity
  8
1
  6
Continuous
 62
     7
100
AcDbCircle
 10
286.8067020117019
 20
330.2244324643673
 30
0.0
 40
23.99999999999997
100
AcDbArc
 50
-56.04080749990213
 51
-33.95919250009746
  0
ARC
  5
176
330
43
100
AcDbEntity
  8
1
  6
Continuous
 62
     7
100
AcDbCircle
 10
303.2131572168169
 20
306.3179772592523
 30
0.0
 40
5.000000000000137
100
AcDbArc
 50
126.8698976458428
 51
134.427004000806
  0
ARC
  5
177
330
43
100
AcDbEntity
  8
1
  6
Continuous
 62
     7
100
AcDbCircle
 10
338.6196124219318
 20
330.2244324643673
 30
0.0
 40
23.99999999999999
100
AcDbArc
 50
-146.0408074999023
 51
-123.9591925000981
  0
ARC
  5
178
330
43
100
AcDbEntity
  8
1
  6
Continuous
 62
     7
100
AcDbCircle
 10
322.2131572168169
 20
306.3179772592523
 30
0.0
 40
4.999999999999975
100
AcDbArc
 50
45.57299599919402
 51
53.13010235415975
  0
ARC
  5
179
330
43
100
AcDbEntity
  8
1
  6
Continuous
 62
     7
100
AcDbCircle
 10
160.7131572168044
 20
399.2904805862784
 30
0.0
 40
14.49999999999975
100
AcDbArc
 50
56.29155527472741
 51
63.70844472526888
  0
ARC
  5
17A
330
43
100
AcDbEntity
  8
1
  6
Continuous
 62
     7
100
AcDbCircle
 10
160.7131572168044
 20
399.2904805862784
 30
0.0
 40
14.49999999999947
100
AcDbArc
 50
116.2915552747297
 51
123.708444725271
  0
ARC
  5
17B
330
43
100
AcDbEntity
  8
1
  6
Continuous
 62
     7
100
AcDbCircle
 10
160.7131572168044
 20
399.2904805862784
 30
0.0
 40
12.99999999999949
100
AcDbArc
 50
89.99999999999912
 51
150.0000000000013
  0
ARC
  5
17C
330
43
100
AcDbEntity
  8
1
  6
Continuous
 62
     7
100
AcDbCircle
 10
160.7131572168044
 20
399.2904805862784
 30
0.0
 40
14.4999999999998
100
AcDbArc
 50
176.2915552747317
 51
-179.999999999998
  0
ARC
  5
17D
330
43
100
AcDbEntity
  8
1
  6
Continuous
 62
     7
100
AcDbCircle
 10
160.7131572168044
 20
399.2904805862784
 30
0.0
 40
14.4999999999998
100
AcDbArc
 50
-179.999999999998
 51
-176.2915552747274
  0
ARC
  5
17E
330
43
100
AcDbEntity
  8
1
  6
Continuous
 62
     7
100
AcDbCircle
 10
160.7131572168044
 20
399.2904805862784
 30
0.0
 40
12.99999999999948
100
AcDbArc
 50
150.0000000000013
 51
-149.9999999999974
  0
ARC
  5
17F
330
43
100
AcDbEntity
  8
1
  6
Continuous
 62
     7
100
AcDbCircle
 10
160.7131572168044
 20
399.2904805862784
 30
0.0
 40
14.50000000000019
100
AcDbArc
 50
-123.7084447252691
 51
-116.2915552747279
  0
ARC
  5
180
330
43
100
AcDbEntity
  8
1
  6
Continuous
 62
     7
100
AcDbCircle
 10
160.7131572168044
 20
399.2904805862784
 30
0.0
 40
12.99999999999999
100
AcDbArc
 50
-149.9999999999974
 51
-89.99999999999912
  0
ARC
  5
181
330
43
100
AcDbEntity
  8
1
  6
Continuous
 62
     7
100
AcDbCircle
 10
160.7131572168044
 20
399.2904805862784
 30
0.0
 40
14.50000000000057
100
AcDbArc
 50
-63.70844472527067
 51
-56.29155527472928
  0
ARC
  5
182
330
43
100
AcDbEntity
  8
1
  6
Continuous
 62
     7
100
AcDbCircle
 10
160.7131572168044
 20
399.2904805862784
 30
0.0
 40
13.00000000000051
100
AcDbArc
 50
-89.99999999999912
 51
-30.00000000000131
  0
ARC
  5
183
330
43
100
AcDbEntity
  8
1
  6
Continuous
 62
     7
100
AcDbCircle
 10
160.7131572168044
 20
399.2904805862784
 30
0.0
 40
14.50000000000035
100
AcDbArc
 50
-3.70844472527247
 51
-0.00000000000202
  0
ARC
  5
184
330
43
100
AcDbEntity
  8
1
  6
Continuous
 62
     7
100
AcDbCircle
 10
160.7131572168044
 20
399.2904805862784
 30
0.0
 40
14.50000000000028
100
AcDbArc
 50
-0.00000000000202
 51
3.70844472526821
  0
ARC
  5
185
330
43
100
AcDbEntity
  8
1
  6
Continuous
 62
     7
100
AcDbCircle
 10
160.7131572168044
 20
399.2904805862784
 30
0.0
 40
13.00000000000051
100
AcDbArc
 50
-30.00000000000131
 51
29.9999999999974
  0
ARC
  5
186
330
43
100
AcDbEntity
  8
1
  6
Continuous
 62
     7
100
AcDbCircle
 10
160.7131572168044
 20
399.2904805862784
 30
0.0
 40
13.0
100
AcDbArc
 50
29.9999999999974
 51
89.99999999999912
  0
CIRCLE
  5
187
330
43
100
AcDbEntity
  8
1
  6
Continuous
 62
     7
100
AcDbCircle
 10
160.7131572168044
 20
399.2904805862784
 30
0.0
 40
5.000000000000199
  0
CIRCLE
  5
188
330
43
100
AcDbEntity
  8
1
  6
Continuous
 62
     7
100
AcDbCircle
 10
160.7131572168044
 20
399.2904805862784
 30
0.0
 40
6.000000000000199
  0
SPLINE
  5
189
330
43
100
AcDbEntity
  8
1
  6
Continuous
 62
     7
100
AcDbSpline
210
0.0
220
0.0
230
1.0
 70
    11
 71
     3
 72
    79
 73
    75
 74
    73
 42
0.0000000001
 43
0.0000000001
 44
0.00000001
 40
0.0
 40
0.0
 40
0.0
 40
0.0
 40
0.3105305927635378
 40
0.6211097050891912
 40
0.9446853874345162
 40
1.268350833884833
 40
1.615177941516915
 40
1.96207359162132
 40
2.337982254486061
 40
2.713934414182856
 40
3.120408259025685
 40
3.526909442882601
 40
3.961816267817266
 40
4.396740384515953
 40
4.855202007200452
 40
5.313674298559618
 40
5.788867666243181
 40
6.264066854325004
 40
6.747928781316422
 40
7.231792560540428
 40
7.715656339764492
 40
8.199518266756019
 40
8.674717454837898
 40
9.149910822521351
 40
9.608383113880366
 40
10.0668447365649
 40
10.50176885326369
 40
10.93667567819826
 40
11.34317686205522
 40
11.74965070689805
 40
12.12560286659496
 40
12.50151152945954
 40
12.84840717956401
 40
13.19523428719617
 40
13.51889973364644
 40
13.84247541599178
 40
14.15305452831749
 40
14.46358512108095
 40
14.7741157138446
 40
15.08469482617034
 40
15.4082705085157
 40
15.731935954966
 40
16.07876306259806
 40
16.42565871270262
 40
16.80156737556728
 40
17.17751953526411
 40
17.58399338010684
 40
17.99049456396375
 40
18.42540138889844
 40
18.86032550559722
 40
19.31878712828167
 40
19.77725941964072
 40
20.25245278732434
 40
20.72765197540608
 40
21.21151390239756
 40
21.69537768162168
 40
22.17924146084563
 40
22.66310338783711
 40
23.13830257591895
 40
23.61349594360252
 40
24.07196823496156
 40
24.53042985764613
 40
24.96535397434484
 40
25.40026079927961
 40
25.80676198313642
 40
26.21323582797919
 40
26.58918798767603
 40
26.96509665054073
 40
27.31199230064518
 40
27.65881940827721
 40
27.98248485472763
 40
28.30606053707291
 40
28.61663964939863
 40
28.92717024216234
 40
28.92717024216234
 40
28.92717024216234
 40
28.92717024216234
 10
311.7753060821387
 20
306.3533343663882
 30
0.0
 10
311.7710900314196
 20
306.4569194007192
 30
0.0
 10
311.7626572712351
 20
306.6641056542619
 30
0.0
 10
311.6959293382095
 20
306.973325250872
 30
0.0
 10
311.5902219566721
 20
307.2753303970932
 30
0.0
 10
311.4416990885425
 20
307.5724905858402
 30
0.0
 10
311.2552313531485
 20
307.8566372512045
 30
0.0
 10
311.028060297659
 20
308.1322368363389
 30
0.0
 10
310.7676268395994
 20
308.3906019561891
 30
0.0
 10
310.4692207286021
 20
308.6363699336465
 30
0.0
 10
310.1427070091903
 20
308.8618025861754
 30
0.0
 10
309.7824801509346
 20
309.070548315475
 30
0.0
 10
309.399466943693
 20
309.2566171097082
 30
0.0
 10
308.9885171859374
 20
309.4222660593241
 30
0.0
 10
308.5602678782732
 20
309.5634804799838
 30
0.0
 10
308.1111276162756
 20
309.6812266020571
 30
0.0
 10
307.6503409454543
 20
309.7732976842358
 30
0.0
 10
307.1766420766492
 20
309.839759257756
 30
0.0
 10
306.6970832578115
 20
309.8798029111783
 30
0.0
 10
306.2131572168162
 20
309.8931357632029
 30
0.0
 10
305.729231175825
 20
309.8798029111782
 30
0.0
 10
305.2496723569747
 20
309.8397592577559
 30
0.0
 10
304.7759734882156
 20
309.7732976842358
 30
0.0
 10
304.3151868172249
 20
309.6812266020571
 30
0.0
 10
303.8660465558391
 20
309.5634804799837
 30
0.0
 10
303.4377972459473
 20
309.422266059324
 30
0.0
 10
303.0268474960972
 20
309.2566171097082
 30
0.0
 10
302.6438342603184
 20
309.0705483154751
 30
0.0
 10
302.2836075019275
 20
308.8618025861754
 30
0.0
 10
301.9570934244172
 20
308.6363699336464
 30
0.0
 10
301.6586885542592
 20
308.3906019561891
 30
0.0
 10
301.3982506605698
 20
308.1322368363389
 30
0.0
 10
301.1710949428183
 20
307.8566372512046
 30
0.0
 10
300.9845722165767
 20
307.5724905858403
 30
0.0
 10
300.8362415277038
 20
307.2753303970933
 30
0.0
 10
300.7298371683372
 20
306.9733252508718
 30
0.0
 10
300.6656110425907
 20
306.6641056542619
 30
0.0
 10
300.6437075763105
 20
306.353334366388
 30
0.0
 10
300.6656110425909
 20
306.0425630785145
 30
0.0
 10
300.7298371683372
 20
305.7333434819043
 30
0.0
 10
300.8362415277038
 20
305.4313383356829
 30
0.0
 10
300.9845722165767
 20
305.1341781469358
 30
0.0
 10
301.1710949428183
 20
304.8500314815717
 30
0.0
 10
301.3982506605697
 20
304.5744318964373
 30
0.0
 10
301.6586885542592
 20
304.316066776587
 30
0.0
 10
301.9570934244172
 20
304.0702987991298
 30
0.0
 10
302.2836075019276
 20
303.8448661466009
 30
0.0
 10
302.6438342603184
 20
303.6361204173014
 30
0.0
 10
303.0268474960972
 20
303.4500516230681
 30
0.0
 10
303.4377972459471
 20
303.284402673452
 30
0.0
 10
303.8660465558392
 20
303.1431882527926
 30
0.0
 10
304.3151868172247
 20
303.0254421307191
 30
0.0
 10
304.7759734882158
 20
302.9333710485407
 30
0.0
 10
305.2496723569747
 20
302.8669094750202
 30
0.0
 10
305.729231175825
 20
302.8268658215977
 30
0.0
 10
306.2131572168161
 20
302.8135329695732
 30
0.0
 10
306.6970832578115
 20
302.8268658215977
 30
0.0
 10
307.1766420766489
 20
302.8669094750202
 30
0.0
 10
307.6503409454544
 20
302.9333710485406
 30
0.0
 10
308.1111276162754
 20
303.0254421307192
 30
0.0
 10
308.5602678782732
 20
303.1431882527925
 30
0.0
 10
308.9885171859373
 20
303.2844026734519
 30
0.0
 10
309.3994669436931
 20
303.4500516230681
 30
0.0
 10
309.7824801509347
 20
303.6361204173014
 30
0.0
 10
310.1427070091902
 20
303.8448661466009
 30
0.0
 10
310.4692207286022
 20
304.0702987991297
 30
0.0
 10
310.7676268395995
 20
304.316066776587
 30
0.0
 10
311.028060297659
 20
304.5744318964372
 30
0.0
 10
311.2552313531485
 20
304.8500314815717
 30
0.0
 10
311.4416990885425
 20
305.1341781469359
 30
0.0
 10
311.5902219566722
 20
305.4313383356829
 30
0.0
 10
311.6959293382093
 20
305.7333434819042
 30
0.0
 10
311.7626572712352
 20
306.0425630785145
 30
0.0
 10
311.7710900314197
 20
306.249749332057
 30
0.0
 10
311.7753060821387
 20
306.3533343663882
 30
0.0
 11
311.7753060821387
 21
306.3533343663882
 31
0.0
 11
311.7537994699253
 21
306.6631193154628
 31
0.0
 11
311.6908045427938
 21
306.967242685444
 31
0.0
 11
311.5839154605149
 21
307.2726537957442
 31
0.0
 11
311.4398674612723
 21
307.562497710878
 31
0.0
 11
311.2501977772463
 21
307.8528672229655
 31
0.0
 11
311.0301194338163
 21
308.1210129199559
 31
0.0
 11
310.7637672342866
 21
308.3862747314223
 31
0.0
 11
310.4740104468972
 21
308.6258181106722
 31
0.0
 11
310.1398608044649
 21
308.8572592543864
 31
0.0
 11
309.7884375906779
 21
309.0615750327508
 31
0.0
 11
309.3974513828629
 21
309.2520316726276
 31
0.0
 11
308.9942316494778
 21
309.4150434326175
 31
0.0
 11
308.558931872754
 21
309.5589224229486
 31
0.0
 11
308.1155241689329
 21
309.6754833518066
 31
0.0
 11
307.6495794648912
 21
309.76878002627
 31
0.0
 11
307.1790142311921
 21
309.8349814551622
 31
0.0
 11
306.6968359530289
 21
309.8753110033798
 31
0.0
 11
306.2131572168169
 21
309.8886914735237
 31
0.0
 11
305.7294784806048
 21
309.8753110033797
 31
0.0
 11
305.2473002024415
 21
309.8349814551622
 31
0.0
 11
304.7767349687424
 21
309.76878002627
 31
0.0
 11
304.3107902647008
 21
309.6754833518066
 31
0.0
 11
303.8673825608799
 21
309.5589224229486
 31
0.0
 11
303.432082784156
 21
309.4150434326175
 31
0.0
 11
303.0288630507708
 21
309.2520316726276
 31
0.0
 11
302.6378768429559
 21
309.0615750327508
 31
0.0
 11
302.2864536291688
 21
308.8572592543864
 31
0.0
 11
301.9523039867366
 21
308.6258181106722
 31
0.0
 11
301.6625471993472
 21
308.3862747314221
 31
0.0
 11
301.3961949998175
 21
308.1210129199559
 31
0.0
 11
301.1761166563874
 21
307.8528672229655
 31
0.0
 11
300.9864469723613
 21
307.562497710878
 31
0.0
 11
300.8423989731188
 21
307.2726537957443
 31
0.0
 11
300.7355098908399
 21
306.967242685444
 31
0.0
 11
300.6725149637084
 21
306.6631193154628
 31
0.0
 11
300.6510083514952
 21
306.3533343663882
 31
0.0
 11
300.6725149637085
 21
306.0435494173134
 31
0.0
 11
300.7355098908399
 21
305.7394260473322
 31
0.0
 11
300.8423989731188
 21
305.4340149370319
 31
0.0
 11
300.9864469723613
 21
305.1441710218981
 31
0.0
 11
301.1761166563874
 21
304.8538015098107
 31
0.0
 11
301.3961949998175
 21
304.5856558128202
 31
0.0
 11
301.6625471993472
 21
304.3203940013539
 31
0.0
 11
301.9523039867366
 21
304.0808506221039
 31
0.0
 11
302.2864536291688
 21
303.8494094783899
 31
0.0
 11
302.6378768429559
 21
303.6450937000256
 31
0.0
 11
303.0288630507709
 21
303.4546370601486
 31
0.0
 11
303.432082784156
 21
303.2916253001586
 31
0.0
 11
303.8673825608798
 21
303.1477463098277
 31
0.0
 11
304.3107902647008
 21
303.0311853809697
 31
0.0
 11
304.7767349687426
 21
302.9378887065063
 31
0.0
 11
305.2473002024415
 21
302.8716872776139
 31
0.0
 11
305.7294784806048
 21
302.8313577293963
 31
0.0
 11
306.2131572168169
 21
302.8179772592523
 31
0.0
 11
306.6968359530289
 21
302.8313577293963
 31
0.0
 11
307.1790142311921
 21
302.8716872776139
 31
0.0
 11
307.6495794648912
 21
302.9378887065062
 31
0.0
 11
308.1155241689329
 21
303.0311853809697
 31
0.0
 11
308.5589318727539
 21
303.1477463098276
 31
0.0
 11
308.9942316494778
 21
303.2916253001586
 31
0.0
 11
309.3974513828629
 21
303.4546370601486
 31
0.0
 11
309.7884375906779
 21
303.6450937000256
 31
0.0
 11
310.1398608044649
 21
303.8494094783899
 31
0.0
 11
310.4740104468972
 21
304.0808506221039
 31
0.0
 11
310.7637672342866
 21
304.3203940013539
 31
0.0
 11
311.0301194338163
 21
304.5856558128202
 31
0.0
 11
311.2501977772463
 21
304.8538015098107
 31
0.0
 11
311.4398674612723
 21
305.1441710218981
 31
0.0
 11
311.583915460515
 21
305.434014937032
 31
0.0
 11
311.6908045427938
 21
305.7394260473322
 31
0.0
 11
311.7537994699254
 21
306.0435494173134
 31
0.0
 11
311.7753060821387
 21
306.3533343663882
 31
0.0
  0
SPLINE
  5
18A
330
43
100
AcDbEntity
  8
1
  6
Continuous
 62
     7
100
AcDbSpline
210
0.0
220
0.0
230
1.0
 70
    11
 71
     3
 72
    79
 73
    75
 74
    73
 42
0.0000000001
 43
0.0000000001
 44
0.00000001
 40
0.0
 40
0.0
 40
0.0
 40
0.0
 40
0.3105305927635378
 40
0.6211097050891912
 40
0.94468538743446
 40
1.268350833884701
 40
1.615177941516907
 40
1.962073591621457
 40
2.337982254486076
 40
2.713934414182909
 40
3.120408259025785
 40
3.526909442882749
 40
3.961816267817313
 40
4.396740384515999
 40
4.855202007200498
 40
5.313674298559554
 40
5.788867666243172
 40
6.264066854324995
 40
6.74792878131647
 40
7.23179256054059
 40
7.71565633976454
 40
8.199518266755897
 40
8.674717454837721
 40
9.149910822521283
 40
9.608383113880354
 40
10.06684473656489
 40
10.50176885326355
 40
10.93667567819809
 40
11.34317686205513
 40
11.74965070689798
 40
12.1256028665949
 40
12.50151152945964
 40
12.84840717956406
 40
13.19523428719603
 40
13.5188997336464
 40
13.84247541599167
 40
14.15305452831739
 40
14.46358512108087
 40
14.77411571384451
 40
15.08469482617029
 40
15.40827050851554
 40
15.73193595496598
 40
16.07876306259799
 40
16.42565871270236
 40
16.80156737556714
 40
17.17751953526403
 40
17.5839933801068
 40
17.99049456396376
 40
18.42540138889835
 40
18.86032550559708
 40
19.31878712828159
 40
19.77725941964063
 40
20.2524527873242
 40
20.72765197540604
 40
21.21151390239747
 40
21.69537768162136
 40
22.17924146084543
 40
22.66310338783697
 40
23.13830257591886
 40
23.61349594360243
 40
24.07196823496146
 40
24.53042985764594
 40
24.96535397434465
 40
25.40026079927932
 40
25.80676198313622
 40
26.213235827979
 40
26.58918798767584
 40
26.96509665054046
 40
27.31199230064505
 40
27.65881940827721
 40
27.98248485472752
 40
28.30606053707277
 40
28.61663964939859
 40
28.92717024216219
 40
28.92717024216219
 40
28.92717024216219
 40
28.92717024216219
 10
313.651008351495
 20
306.3533343663882
 30
0.0
 10
313.655224402214
 20
306.4569194007192
 30
0.0
 10
313.6636571623987
 20
306.6641056542619
 30
0.0
 10
313.7303850954243
 20
306.9733252508719
 30
0.0
 10
313.8360924769615
 20
307.2753303970932
 30
0.0
 10
313.9846153450908
 20
307.5724905858403
 30
0.0
 10
314.1710830804851
 20
307.8566372512045
 30
0.0
 10
314.3982541359749
 20
308.1322368363388
 30
0.0
 10
314.6586875940342
 20
308.3906019561891
 30
0.0
 10
314.9570937050316
 20
308.6363699336465
 30
0.0
 10
315.2836074244435
 20
308.8618025861753
 30
0.0
 10
315.6438342826991
 20
309.0705483154751
 30
0.0
 10
316.0268474899407
 20
309.2566171097082
 30
0.0
 10
316.4377972476964
 20
309.422266059324
 30
0.0
 10
316.8660465553604
 20
309.5634804799838
 30
0.0
 10
317.3151868173582
 20
309.6812266020571
 30
0.0
 10
317.7759734881793
 20
309.7732976842357
 30
0.0
 10
318.2496723569846
 20
309.8397592577559
 30
0.0
 10
318.7292311758221
 20
309.8798029111783
 30
0.0
 10
319.2131572168176
 20
309.8931357632029
 30
0.0
 10
319.6970832578086
 20
309.8798029111782
 30
0.0
 10
320.1766420766589
 20
309.8397592577559
 30
0.0
 10
320.6503409454179
 20
309.7732976842357
 30
0.0
 10
321.1111276164088
 20
309.6812266020572
 30
0.0
 10
321.5602678777946
 20
309.5634804799838
 30
0.0
 10
321.9885171876865
 20
309.4222660593241
 30
0.0
 10
322.3994669375363
 20
309.2566171097082
 30
0.0
 10
322.7824801733151
 20
309.0705483154751
 30
0.0
 10
323.142706931706
 20
308.8618025861753
 30
0.0
 10
323.4692210092164
 20
308.6363699336464
 30
0.0
 10
323.7676258793746
 20
308.3906019561892
 30
0.0
 10
324.0280637730641
 20
308.132236836339
 30
0.0
 10
324.2552194908153
 20
307.8566372512044
 30
0.0
 10
324.4417422170567
 20
307.5724905858402
 30
0.0
 10
324.5900729059297
 20
307.2753303970931
 30
0.0
 10
324.6964772652963
 20
306.9733252508719
 30
0.0
 10
324.7607033910429
 20
306.6641056542618
 30
0.0
 10
324.7826068573231
 20
306.3533343663881
 30
0.0
 10
324.760703391043
 20
306.0425630785145
 30
0.0
 10
324.6964772652963
 20
305.7333434819043
 30
0.0
 10
324.5900729059297
 20
305.431338335683
 30
0.0
 10
324.4417422170568
 20
305.134178146936
 30
0.0
 10
324.2552194908153
 20
304.8500314815717
 30
0.0
 10
324.0280637730641
 20
304.5744318964371
 30
0.0
 10
323.7676258793745
 20
304.3160667765869
 30
0.0
 10
323.4692210092164
 20
304.0702987991297
 30
0.0
 10
323.142706931706
 20
303.8448661466008
 30
0.0
 10
322.7824801733152
 20
303.6361204173015
 30
0.0
 10
322.3994669375363
 20
303.450051623068
 30
0.0
 10
321.9885171876864
 20
303.284402673452
 30
0.0
 10
321.5602678777945
 20
303.1431882527925
 30
0.0
 10
321.1111276164087
 20
303.0254421307191
 30
0.0
 10
320.650340945418
 20
302.9333710485407
 30
0.0
 10
320.1766420766588
 20
302.8669094750202
 30
0.0
 10
319.6970832578086
 20
302.8268658215977
 30
0.0
 10
319.2131572168175
 20
302.8135329695731
 30
0.0
 10
318.7292311758222
 20
302.8268658215978
 30
0.0
 10
318.2496723569846
 20
302.8669094750202
 30
0.0
 10
317.7759734881792
 20
302.9333710485404
 30
0.0
 10
317.3151868173583
 20
303.0254421307193
 30
0.0
 10
316.8660465553604
 20
303.1431882527923
 30
0.0
 10
316.4377972476963
 20
303.2844026734521
 30
0.0
 10
316.0268474899406
 20
303.4500516230679
 30
0.0
 10
315.6438342826992
 20
303.6361204173014
 30
0.0
 10
315.2836074244435
 20
303.8448661466009
 30
0.0
 10
314.9570937050316
 20
304.0702987991297
 30
0.0
 10
314.6586875940342
 20
304.316066776587
 30
0.0
 10
314.3982541359748
 20
304.5744318964373
 30
0.0
 10
314.1710830804852
 20
304.8500314815717
 30
0.0
 10
313.9846153450908
 20
305.1341781469358
 30
0.0
 10
313.8360924769614
 20
305.431338335683
 30
0.0
 10
313.7303850954242
 20
305.7333434819043
 30
0.0
 10
313.6636571623988
 20
306.0425630785144
 30
0.0
 10
313.6552244022141
 20
306.2497493320572
 30
0.0
 10
313.651008351495
 20
306.3533343663882
 30
0.0
 11
313.651008351495
 21
306.3533343663882
 31
0.0
 11
313.6725149637084
 21
306.6631193154628
 31
0.0
 11
313.7355098908399
 21
306.967242685444
 31
0.0
 11
313.8423989731187
 21
307.2726537957442
 31
0.0
 11
313.9864469723611
 21
307.562497710878
 31
0.0
 11
314.1761166563873
 21
307.8528672229655
 31
0.0
 11
314.3961949998175
 21
308.1210129199559
 31
0.0
 11
314.6625471993472
 21
308.3862747314222
 31
0.0
 11
314.9523039867365
 21
308.6258181106722
 31
0.0
 11
315.2864536291688
 21
308.8572592543864
 31
0.0
 11
315.6378768429559
 21
309.0615750327508
 31
0.0
 11
316.0288630507708
 21
309.2520316726276
 31
0.0
 11
316.4320827841559
 21
309.4150434326175
 31
0.0
 11
316.8673825608797
 21
309.5589224229486
 31
0.0
 11
317.3107902647007
 21
309.6754833518066
 31
0.0
 11
317.7767349687425
 21
309.76878002627
 31
0.0
 11
318.2473002024415
 21
309.8349814551622
 31
0.0
 11
318.7294784806048
 21
309.8753110033798
 31
0.0
 11
319.2131572168169
 21
309.8886914735237
 31
0.0
 11
319.6968359530289
 21
309.8753110033797
 31
0.0
 11
320.179014231192
 21
309.8349814551622
 31
0.0
 11
320.6495794648911
 21
309.76878002627
 31
0.0
 11
321.1155241689328
 21
309.6754833518066
 31
0.0
 11
321.5589318727538
 21
309.5589224229486
 31
0.0
 11
321.9942316494776
 21
309.4150434326175
 31
0.0
 11
322.3974513828627
 21
309.2520316726277
 31
0.0
 11
322.7884375906776
 21
309.0615750327508
 31
0.0
 11
323.1398608044647
 21
308.8572592543863
 31
0.0
 11
323.474010446897
 21
308.6258181106722
 31
0.0
 11
323.7637672342866
 21
308.3862747314223
 31
0.0
 11
324.0301194338163
 21
308.1210129199559
 31
0.0
 11
324.2501977772462
 21
307.8528672229654
 31
0.0
 11
324.4398674612721
 21
307.562497710878
 31
0.0
 11
324.5839154605147
 21
307.2726537957441
 31
0.0
 11
324.6908045427936
 21
306.967242685444
 31
0.0
 11
324.7537994699252
 21
306.6631193154628
 31
0.0
 11
324.7753060821385
 21
306.3533343663882
 31
0.0
 11
324.7537994699252
 21
306.0435494173134
 31
0.0
 11
324.6908045427936
 21
305.7394260473322
 31
0.0
 11
324.5839154605147
 21
305.434014937032
 31
0.0
 11
324.4398674612721
 21
305.1441710218981
 31
0.0
 11
324.2501977772462
 21
304.8538015098107
 31
0.0
 11
324.0301194338163
 21
304.5856558128202
 31
0.0
 11
323.7637672342865
 21
304.3203940013539
 31
0.0
 11
323.474010446897
 21
304.0808506221039
 31
0.0
 11
323.1398608044647
 21
303.8494094783899
 31
0.0
 11
322.7884375906776
 21
303.6450937000256
 31
0.0
 11
322.3974513828627
 21
303.4546370601486
 31
0.0
 11
321.9942316494776
 21
303.2916253001586
 31
0.0
 11
321.5589318727538
 21
303.1477463098276
 31
0.0
 11
321.1155241689328
 21
303.0311853809697
 31
0.0
 11
320.6495794648911
 21
302.9378887065063
 31
0.0
 11
320.179014231192
 21
302.8716872776139
 31
0.0
 11
319.6968359530288
 21
302.8313577293963
 31
0.0
 11
319.2131572168169
 21
302.8179772592523
 31
0.0
 11
318.7294784806048
 21
302.8313577293963
 31
0.0
 11
318.2473002024415
 21
302.8716872776139
 31
0.0
 11
317.7767349687424
 21
302.9378887065062
 31
0.0
 11
317.3107902647007
 21
303.0311853809697
 31
0.0
 11
316.8673825608797
 21
303.1477463098275
 31
0.0
 11
316.4320827841559
 21
303.2916253001586
 31
0.0
 11
316.0288630507708
 21
303.4546370601486
 31
0.0
 11
315.6378768429559
 21
303.6450937000256
 31
0.0
 11
315.2864536291688
 21
303.8494094783899
 31
0.0
 11
314.9523039867365
 21
304.0808506221039
 31
0.0
 11
314.6625471993472
 21
304.3203940013539
 31
0.0
 11
314.3961949998175
 21
304.5856558128202
 31
0.0
 11
314.1761166563873
 21
304.8538015098107
 31
0.0
 11
313.9864469723611
 21
305.1441710218981
 31
0.0
 11
313.8423989731186
 21
305.434014937032
 31
0.0
 11
313.7355098908399
 21
305.7394260473322
 31
0.0
 11
313.6725149637084
 21
306.0435494173135
 31
0.0
 11
313.651008351495
 21
306.3533343663882
 31
0.0
  0
SPLINE
  5
18B
330
43
100
AcDbEntity
  8
1
  6
Continuous
 62
     7
100
AcDbSpline
210
0.0
220
0.0
230
1.0
 70
     8
 71
     3
 72
    29
 73
    25
 74
    23
 42
0.0000000001
 43
0.0000000001
 44
0.00000001
 40
0.0
 40
0.0
 40
0.0
 40
0.0
 40
0.6069077131758505
 40
1.212222625822616
 40
1.842666707826777
 40
2.47463190059551
 40
3.102420172365441
 40
3.729333891456376
 40
4.271042939833095
 40
4.812985328221084
 40
5.340107980728334
 40
5.866248927280263
 40
6.263874837343493
 40
6.661485236222586
 40
7.280966497569247
 40
7.902596738528342
 40
8.549168915178921
 40
9.195896772489267
 40
9.722415974179313
 40
10.24911841725713
 40
11.07897537274022
 40
11.90732207846639
 40
12.67331709995038
 40
13.44191271185832
 40
13.44191271185832
 40
13.44191271185832
 40
13.44191271185832
 10
160.4352829471354
 20
309.7904805862785
 30
0.0
 10
160.233223117578
 20
309.7806052128161
 30
0.0
 10
159.8296337549093
 20
309.7608803833411
 30
0.0
 10
159.2179282045705
 20
309.6970900292881
 30
0.0
 10
158.6085111426807
 20
309.5629067319707
 30
0.0
 10
158.0101049671752
 20
309.3624511112864
 30
0.0
 10
157.4355424352797
 20
309.1038899944681
 30
0.0
 10
156.9206446376082
 20
308.7949606046968
 30
0.0
 10
156.47162576361
 20
308.4411436801221
 30
0.0
 10
156.0976841611189
 20
308.0531190119592
 30
0.0
 10
155.7907182596586
 20
307.6161886081966
 30
0.0
 10
155.5834096021247
 20
307.1759746410962
 30
0.0
 10
155.4675070138539
 20
306.7492655204115
 30
0.0
 10
155.4168038089597
 20
306.2783500779093
 30
0.0
 10
155.4772601322376
 20
305.7293754848652
 30
0.0
 10
155.6902073639842
 20
305.1316294186452
 30
0.0
 10
156.0374443013305
 20
304.5900271726468
 30
0.0
 10
156.458802027163
 20
304.1494192045092
 30
0.0
 10
156.9062155174201
 20
303.7995452808723
 30
0.0
 10
157.4420519033427
 20
303.4706348978834
 30
0.0
 10
158.1069429532562
 20
303.1668962762563
 30
0.0
 10
158.88660401473
 20
302.942126410913
 30
0.0
 10
159.6690096330396
 20
302.8377396055038
 30
0.0
 10
160.1795701024021
 20
302.8063171267547
 30
0.0
 10
160.4352829471354
 20
302.7905792623651
 30
0.0
 11
160.4352829471354
 21
309.7904805862785
 31
0.0
 11
159.8293969253772
 21
309.7552797205161
 31
0.0
 11
159.2279541058958
 21
309.686922728432
 31
0.0
 11
158.6120628941546
 21
309.5522462426076
 31
0.0
 11
158.0126014326058
 21
309.3521813506625
 31
0.0
 11
157.4409026592859
 21
309.092800112412
 31
0.0
 11
156.9043374422729
 21
308.768580157634
 31
0.0
 11
156.4799049034938
 21
308.431971017653
 31
0.0
 11
156.1051559282132
 21
308.0404805862785
 31
0.0
 11
155.803600042253
 21
307.60813542506
 31
0.0
 11
155.5815797284192
 21
307.1311330394436
 31
0.0
 11
155.4778190112762
 21
306.7472840093138
 31
0.0
 11
155.4360609134556
 21
306.3518724634996
 31
0.0
 11
155.500654525077
 21
305.7357680092896
 31
0.0
 11
155.7082726952283
 21
305.1498338390129
 31
0.0
 11
156.0536452960833
 21
304.603232205099
 31
0.0
 11
156.4979194226862
 21
304.1332562250187
 31
0.0
 11
156.9117898414609
 21
303.8077815774476
 31
0.0
 11
157.3598286886852
 21
303.530876079268
 31
0.0
 11
158.1145893953227
 21
303.1859139910906
 31
0.0
 11
158.9107457057107
 21
302.957236501344
 31
0.0
 11
159.6687548363103
 21
302.8469163723293
 31
0.0
 11
160.4352829471354
 21
302.7905792623651
 31
0.0
  0
SPLINE
  5
18C
330
43
100
AcDbEntity
  8
1
  6
Continuous
 62
     7
100
AcDbSpline
210
0.0
220
0.0
230
1.0
 70
     8
 71
     3
 72
    29
 73
    25
 74
    23
 42
0.0000000001
 43
0.0000000001
 44
0.00000001
 40
0.0
 40
0.0
 40
0.0
 40
0.0
 40
0.6069077131758789
 40
1.212222625822645
 40
1.842666707826809
 40
2.474631900595552
 40
3.102420172365379
 40
3.729333891456217
 40
4.27104293983306
 40
4.812985328221086
 40
5.340107980728337
 40
5.866248927280266
 40
6.263874837343503
 40
6.661485236222602
 40
7.280966497569272
 40
7.902596738528442
 40
8.549168915178974
 40
9.195896772489222
 40
9.722415974179336
 40
10.24911841725725
 40
11.07897537274026
 40
11.90732207846635
 40
12.67331709995027
 40
13.44191271185829
 40
13.44191271185829
 40
13.44191271185829
 40
13.44191271185829
 10
160.4352829471354
 20
309.7904805862785
 30
0.0
 10
160.6373427766929
 20
309.7806052128161
 30
0.0
 10
161.0409321393616
 20
309.760880383341
 30
0.0
 10
161.6526376897002
 20
309.6970900292881
 30
0.0
 10
162.2620547515902
 20
309.5629067319709
 30
0.0
 10
162.8604609270956
 20
309.3624511112864
 30
0.0
 10
163.435023458991
 20
309.1038899944682
 30
0.0
 10
163.9499212566625
 20
308.7949606046969
 30
0.0
 10
164.3989401306606
 20
308.441143680122
 30
0.0
 10
164.772881733152
 20
308.0531190119593
 30
0.0
 10
165.0798476346123
 20
307.6161886081965
 30
0.0
 10
165.2871562921462
 20
307.1759746410962
 30
0.0
 10
165.403058880417
 20
306.7492655204115
 30
0.0
 10
165.4537620853113
 20
306.2783500779092
 30
0.0
 10
165.3933057620332
 20
305.7293754848652
 30
0.0
 10
165.1803585302863
 20
305.1316294186453
 30
0.0
 10
164.8331215929402
 20
304.5900271726467
 30
0.0
 10
164.4117638671078
 20
304.1494192045092
 30
0.0
 10
163.9643503768506
 20
303.7995452808723
 30
0.0
 10
163.428513990928
 20
303.4706348978835
 30
0.0
 10
162.7636229410146
 20
303.1668962762562
 30
0.0
 10
161.9839618795408
 20
302.9421264109132
 30
0.0
 10
161.2015562612313
 20
302.8377396055035
 30
0.0
 10
160.6909957918687
 20
302.8063171267546
 30
0.0
 10
160.4352829471354
 20
302.7905792623651
 30
0.0
 11
160.4352829471354
 21
309.7904805862785
 31
0.0
 11
161.0411689688936
 21
309.7552797205161
 31
0.0
 11
161.642611788375
 21
309.686922728432
 31
0.0
 11
162.2585030001162
 21
309.5522462426077
 31
0.0
 11
162.857964461665
 21
309.3521813506625
 31
0.0
 11
163.4296632349848
 21
309.092800112412
 31
0.0
 11
163.9662284519977
 21
308.768580157634
 31
0.0
 11
164.3906609907769
 21
308.431971017653
 31
0.0
 11
164.7654099660576
 21
308.0404805862785
 31
0.0
 11
165.0669658520178
 21
307.60813542506
 31
0.0
 11
165.2889861658516
 21
307.1311330394436
 31
0.0
 11
165.3927468829946
 21
306.7472840093138
 31
0.0
 11
165.4345049808153
 21
306.3518724634996
 31
0.0
 11
165.3699113691938
 21
305.7357680092896
 31
0.0
 11
165.1622931990423
 21
305.1498338390129
 31
0.0
 11
164.8169205981874
 21
304.603232205099
 31
0.0
 11
164.3726464715846
 21
304.1332562250187
 31
0.0
 11
163.9587760528098
 21
303.8077815774476
 31
0.0
 11
163.5107372055854
 21
303.530876079268
 31
0.0
 11
162.755976498948
 21
303.1859139910906
 31
0.0
 11
161.9598201885601
 21
302.957236501344
 31
0.0
 11
161.2018110579605
 21
302.8469163723293
 31
0.0
 11
160.4352829471354
 21
302.7905792623651
 31
0.0
  0
SPLINE
  5
18D
330
43
100
AcDbEntity
  8
1
  6
Continuous
 62
     7
100
AcDbSpline
210
0.0
220
0.0
230
1.0
 70
    11
 71
     3
 72
    79
 73
    75
 74
    73
 42
0.0000000001
 43
0.0000000001
 44
0.00000001
 40
0.0
 40
0.0
 40
0.0
 40
0.0
 40
0.2803981145479286
 40
0.5607977859033146
 40
0.8427454841467925
 40
1.124697473048448
 40
1.409536451638051
 40
1.694381500885845
 40
1.983071310125144
 40
2.271767843422797
 40
2.564776142200842
 40
2.85779085454653
 40
3.155055698552675
 40
3.452325978930657
 40
3.753284827389576
 40
4.054247742882689
 40
4.357919806975738
 40
4.661594368328942
 40
4.966700748943365
 40
5.271807969839198
 40
5.576915190735259
 40
5.882021571349851
 40
6.185696132702882
 40
6.489368196795774
 40
6.790331112288844
 40
7.091289960747751
 40
7.388560241125852
 40
7.685825085132262
 40
7.978839797477801
 40
8.271848096255706
 40
8.560544629553476
 40
8.849234438792857
 40
9.134079488040573
 40
9.418918466630158
 40
9.700870455531796
 40
9.982818153775233
 40
10.26321782513063
 40
10.54361593967855
 40
10.82401405422645
 40
11.10441372558186
 40
11.38636142382536
 40
11.66831341272711
 40
11.95315239131667
 40
12.23799744056441
 40
12.52668724980379
 40
12.81538378310157
 40
13.10839208187939
 40
13.40140679422487
 40
13.69867163823139
 40
13.99594191860949
 40
14.29690076706837
 40
14.59786368256147
 40
14.90153574665432
 40
15.20521030800734
 40
15.51031668862195
 40
15.81542390951802
 40
16.1205311304138
 40
16.42563751102829
 40
16.7293120723816
 40
17.03298413647449
 40
17.33394705196771
 40
17.63490590042653
 40
17.9321761808045
 40
18.22944102481076
 40
18.52245573715641
 40
18.81546403593436
 40
19.10416056923205
 40
19.39285037847131
 40
19.67769542771913
 40
19.96253440630871
 40
20.24448639521055
 40
20.52643409345404
 40
20.80683376480943
 40
21.08723187935733
 40
21.08723187935733
 40
21.08723187935733
 40
21.08723187935733
 10
171.6936131963332
 20
309.7904805862785
 30
0.0
 10
171.7871137393867
 20
309.7878992003892
 30
0.0
 10
171.9741153446212
 20
309.7827364142787
 30
0.0
 10
172.2525997578611
 20
309.7412640642297
 30
0.0
 10
172.5265419542635
 20
309.675363903837
 30
0.0
 10
172.7944701195989
 20
309.5831317946029
 30
0.0
 10
173.0535159071591
 20
309.4660496052438
 30
0.0
 10
173.3026752013119
 20
309.3245733236644
 30
0.0
 10
173.5389852214899
 20
309.1602909776717
 30
0.0
 10
173.7617602154079
 20
308.9738308294552
 30
0.0
 10
173.9682162477059
 20
308.767406354518
 30
0.0
 10
174.1578289913463
 20
308.5416886600814
 30
0.0
 10
174.3282281672719
 20
308.2993978617328
 30
0.0
 10
174.4789409748798
 20
308.0413403688928
 30
0.0
 10
174.6081641114054
 20
307.7705131654109
 30
0.0
 10
174.7154437845898
 20
307.487996311914
 30
0.0
 10
174.799598288145
 20
307.1968083413208
 30
0.0
 10
174.8602415619762
 20
306.8984295684061
 30
0.0
 10
174.8967753242474
 20
306.595668596526
 30
0.0
 10
174.9089943549841
 20
306.2904805862781
 30
0.0
 10
174.8967753242474
 20
305.9852925760317
 30
0.0
 10
174.8602415619763
 20
305.682531604147
 30
0.0
 10
174.7995982881451
 20
305.3841528312491
 30
0.0
 10
174.7154437845898
 20
305.0929648605934
 30
0.0
 10
174.6081641114052
 20
304.8104480073285
 30
0.0
 10
174.4789409748798
 20
304.5396208029869
 30
0.0
 10
174.3282281672719
 20
304.2815633133175
 30
0.0
 10
174.1578289913464
 20
304.0392725032219
 30
0.0
 10
173.968216247706
 20
303.8135548520241
 30
0.0
 10
173.7617602154078
 20
303.6071302169976
 30
0.0
 10
173.5389852214898
 20
303.4206706578204
 30
0.0
 10
173.302675201312
 20
303.2563861301093
 30
0.0
 10
173.0535159071591
 20
303.1149178870394
 30
0.0
 10
172.7944701195988
 20
302.9978058834378
 30
0.0
 10
172.5265419542635
 20
302.9056839649649
 30
0.0
 10
172.2525997578612
 20
302.8393741993974
 30
0.0
 10
171.9741153446212
 20
302.7994225343015
 30
0.0
 10
171.6936131963332
 20
302.7860096246787
 30
0.0
 10
171.4131110480453
 20
302.7994225343015
 30
0.0
 10
171.1346266348052
 20
302.8393741993974
 30
0.0
 10
170.8606844384028
 20
302.9056839649649
 30
0.0
 10
170.5927562730674
 20
302.9978058834379
 30
0.0
 10
170.3337104855071
 20
303.1149178870394
 30
0.0
 10
170.0845511913543
 20
303.2563861301093
 30
0.0
 10
169.8482411711764
 20
303.4206706578203
 30
0.0
 10
169.6254661772584
 20
303.6071302169976
 30
0.0
 10
169.4190101449605
 20
303.8135548520241
 30
0.0
 10
169.2293974013199
 20
304.0392725032219
 30
0.0
 10
169.0589982253944
 20
304.2815633133176
 30
0.0
 10
168.9082854177864
 20
304.5396208029868
 30
0.0
 10
168.7790622812609
 20
304.8104480073284
 30
0.0
 10
168.6717826080764
 20
305.0929648605934
 30
0.0
 10
168.5876281045213
 20
305.3841528312491
 30
0.0
 10
168.5269848306902
 20
305.682531604147
 30
0.0
 10
168.4904510684188
 20
305.9852925760318
 30
0.0
 10
168.4782320376822
 20
306.290480586278
 30
0.0
 10
168.4904510684189
 20
306.595668596526
 30
0.0
 10
168.5269848306902
 20
306.8984295684061
 30
0.0
 10
168.5876281045214
 20
307.1968083413209
 30
0.0
 10
168.6717826080765
 20
307.4879963119142
 30
0.0
 10
168.7790622812608
 20
307.7705131654108
 30
0.0
 10
168.9082854177865
 20
308.0413403688929
 30
0.0
 10
169.0589982253944
 20
308.2993978617325
 30
0.0
 10
169.2293974013201
 20
308.5416886600814
 30
0.0
 10
169.4190101449605
 20
308.767406354518
 30
0.0
 10
169.6254661772583
 20
308.9738308294553
 30
0.0
 10
169.8482411711764
 20
309.1602909776717
 30
0.0
 10
170.0845511913544
 20
309.3245733236645
 30
0.0
 10
170.3337104855071
 20
309.4660496052438
 30
0.0
 10
170.5927562730674
 20
309.583131794603
 30
0.0
 10
170.8606844384029
 20
309.6753639038371
 30
0.0
 10
171.1346266348052
 20
309.7412640642297
 30
0.0
 10
171.4131110480453
 20
309.7827364142787
 30
0.0
 10
171.6001126532797
 20
309.7878992003893
 30
0.0
 10
171.6936131963332
 20
309.7904805862785
 30
0.0
 11
171.6936131963332
 21
309.7904805862785
 31
0.0
 11
171.9736931952028
 21
309.7771278009804
 31
0.0
 11
172.2512510035815
 21
309.7373077218213
 31
0.0
 11
172.5253024079604
 21
309.6710481390973
 31
0.0
 11
172.7919452682347
 21
309.5794047590291
 31
0.0
 11
173.0515336927707
 21
309.4621567587438
 31
0.0
 11
173.2992672686662
 21
309.3215694995238
 31
0.0
 11
173.5363677532752
 21
309.1568723041719
 31
0.0
 11
173.7578022826101
 21
308.9716361371949
 31
0.0
 11
173.9650856719198
 21
308.7645432602795
 31
0.0
 11
174.1536179556974
 21
308.5402372201811
 31
0.0
 11
174.3247065022709
 21
308.2971423894805
 31
0.0
 11
174.4746876289939
 21
308.0404805862785
 31
0.0
 11
174.6043644088683
 21
307.7688923663073
 31
0.0
 11
174.7112557629457
 21
307.4875510879182
 31
0.0
 11
174.795621824276
 21
307.1958336043726
 31
0.0
 11
174.8561343545118
 21
306.8982492081125
 31
0.0
 11
174.8927133030747
 21
306.5953434735783
 31
0.0
 11
174.9049213409994
 21
306.2904805862785
 31
0.0
 11
174.8927133030747
 21
305.9856176989784
 31
0.0
 11
174.8561343545118
 21
305.6827119644441
 31
0.0
 11
174.7956218242761
 21
305.3851275681841
 31
0.0
 11
174.7112557629457
 21
305.0934100846387
 31
0.0
 11
174.6043644088683
 21
304.8120688062497
 31
0.0
 11
174.4746876289939
 21
304.5404805862785
 31
0.0
 11
174.324706502271
 21
304.2838187830763
 31
0.0
 11
174.1536179556974
 21
304.0407239523754
 31
0.0
 11
173.9650856719199
 21
303.8164179122771
 31
0.0
 11
173.7578022826101
 21
303.609325035362
 31
0.0
 11
173.5363677532752
 21
303.4240888683849
 31
0.0
 11
173.2992672686662
 21
303.2593916730328
 31
0.0
 11
173.0515336927707
 21
303.1188044138128
 31
0.0
 11
172.7919452682347
 21
303.0015564135277
 31
0.0
 11
172.5253024079604
 21
302.9099130334596
 31
0.0
 11
172.2512510035815
 21
302.8436534507357
 31
0.0
 11
171.9736931952028
 21
302.8038333715766
 31
0.0
 11
171.6936131963332
 21
302.7904805862785
 31
0.0
 11
171.4135331974636
 21
302.8038333715765
 31
0.0
 11
171.1359753890849
 21
302.8436534507357
 31
0.0
 11
170.861923984706
 21
302.9099130334597
 31
0.0
 11
170.5952811244315
 21
303.0015564135277
 31
0.0
 11
170.3356926998955
 21
303.1188044138128
 31
0.0
 11
170.087959124
 21
303.2593916730328
 31
0.0
 11
169.850858639391
 21
303.4240888683848
 31
0.0
 11
169.6294241100561
 21
303.609325035362
 31
0.0
 11
169.4221407207465
 21
303.8164179122772
 31
0.0
 11
169.233608436969
 21
304.0407239523754
 31
0.0
 11
169.0625198903953
 21
304.2838187830764
 31
0.0
 11
168.9125387636723
 21
304.5404805862785
 31
0.0
 11
168.7828619837979
 21
304.8120688062496
 31
0.0
 11
168.6759706297205
 21
305.0934100846387
 31
0.0
 11
168.5916045683903
 21
305.3851275681841
 31
0.0
 11
168.5310920381546
 21
305.6827119644441
 31
0.0
 11
168.4945130895916
 21
305.9856176989784
 31
0.0
 11
168.4823050516668
 21
306.2904805862785
 31
0.0
 11
168.4945130895916
 21
306.5953434735783
 31
0.0
 11
168.5310920381546
 21
306.8982492081125
 31
0.0
 11
168.5916045683904
 21
307.1958336043728
 31
0.0
 11
168.6759706297205
 21
307.4875510879182
 31
0.0
 11
168.7828619837979
 21
307.7688923663074
 31
0.0
 11
168.9125387636723
 21
308.0404805862785
 31
0.0
 11
169.0625198903954
 21
308.2971423894804
 31
0.0
 11
169.233608436969
 21
308.5402372201811
 31
0.0
 11
169.4221407207465
 21
308.7645432602795
 31
0.0
 11
169.6294241100561
 21
308.9716361371949
 31
0.0
 11
169.850858639391
 21
309.1568723041719
 31
0.0
 11
170.087959124
 21
309.3215694995238
 31
0.0
 11
170.3356926998955
 21
309.4621567587438
 31
0.0
 11
170.5952811244315
 21
309.5794047590291
 31
0.0
 11
170.861923984706
 21
309.6710481390973
 31
0.0
 11
171.1359753890849
 21
309.7373077218213
 31
0.0
 11
171.4135331974636
 21
309.7771278009805
 31
0.0
 11
171.6936131963332
 21
309.7904805862785
 31
0.0
  0
SPLINE
  5
18E
330
43
100
AcDbEntity
  8
1
  6
Continuous
 62
     7
100
AcDbSpline
210
0.0
220
0.0
230
1.0
 70
    11
 71
     3
 72
    79
 73
    75
 74
    73
 42
0.0000000001
 43
0.0000000001
 44
0.00000001
 40
0.0
 40
0.0
 40
0.0
 40
0.0
 40
0.2803981145479002
 40
0.5607977859032862
 40
0.8427454841467365
 40
1.124697473048419
 40
1.409536451638022
 40
1.694381500885816
 40
1.983071310125115
 40
2.271767843422768
 40
2.564776142200833
 40
2.857790854546503
 40
3.155055698552631
 40
3.452325978930627
 40
3.753284827389547
 40
4.05424774288266
 40
4.357919806975716
 40
4.66159436832892
 40
4.966700748943347
 40
5.271807969839179
 40
5.576915190735239
 40
5.882021571349831
 40
6.185696132702878
 40
6.489368196795756
 40
6.790331112288826
 40
7.091289960747733
 40
7.388560241125833
 40
7.685825085132243
 40
7.978839797477819
 40
8.271848096255683
 40
8.56054462955343
 40
8.849234438792836
 40
9.134079488040527
 40
9.418918466630137
 40
9.700870455531828
 40
9.982818153775209
 40
10.2632178251306
 40
10.5436159396785
 40
10.82401405422646
 40
11.10441372558183
 40
11.38636142382527
 40
11.66831341272687
 40
11.95315239131656
 40
12.23799744056437
 40
12.52668724980379
 40
12.81538378310153
 40
13.1083920818794
 40
13.40140679422484
 40
13.6986716382312
 40
13.99594191860935
 40
14.29690076706831
 40
14.59786368256132
 40
14.90153574665416
 40
15.20521030800725
 40
15.51031668862185
 40
15.81542390951791
 40
16.12053113041368
 40
16.42563751102816
 40
16.72931207238147
 40
17.03298413647442
 40
17.33394705196752
 40
17.63490590042644
 40
17.93217618080441
 40
18.22944102481057
 40
18.52245573715617
 40
18.81546403593417
 40
19.10416056923186
 40
19.39285037847113
 40
19.67769542771902
 40
19.96253440630873
 40
20.24448639521041
 40
20.52643409345383
 40
20.8068337648092
 40
21.08723187935715
 40
21.08723187935715
 40
21.08723187935715
 40
21.08723187935715
 10
149.1769526979376
 20
309.7904805862785
 30
0.0
 10
149.0834521548841
 20
309.7878992003892
 30
0.0
 10
148.8964505496496
 20
309.7827364142786
 30
0.0
 10
148.6179661364096
 20
309.7412640642299
 30
0.0
 10
148.3440239400073
 20
309.6753639038369
 30
0.0
 10
148.076095774672
 20
309.5831317946031
 30
0.0
 10
147.8170499871117
 20
309.4660496052438
 30
0.0
 10
147.5678906929589
 20
309.3245733236644
 30
0.0
 10
147.331580672781
 20
309.1602909776718
 30
0.0
 10
147.1088056788628
 20
308.9738308294551
 30
0.0
 10
146.9023496465649
 20
308.7674063545181
 30
0.0
 10
146.7127369029245
 20
308.5416886600814
 30
0.0
 10
146.542337726999
 20
308.2993978617326
 30
0.0
 10
146.391624919391
 20
308.0413403688928
 30
0.0
 10
146.2624017828655
 20
307.7705131654109
 30
0.0
 10
146.155122109681
 20
307.4879963119141
 30
0.0
 10
146.0709676061258
 20
307.1968083413209
 30
0.0
 10
146.0103243322945
 20
306.8984295684061
 30
0.0
 10
145.9737905700233
 20
306.595668596526
 30
0.0
 10
145.9615715392868
 20
306.2904805862781
 30
0.0
 10
145.9737905700234
 20
305.9852925760319
 30
0.0
 10
146.0103243322944
 20
305.6825316041469
 30
0.0
 10
146.0709676061258
 20
305.3841528312491
 30
0.0
 10
146.1551221096811
 20
305.0929648605934
 30
0.0
 10
146.2624017828655
 20
304.8104480073284
 30
0.0
 10
146.3916249193911
 20
304.5396208029869
 30
0.0
 10
146.5423377269989
 20
304.2815633133175
 30
0.0
 10
146.7127369029244
 20
304.0392725032219
 30
0.0
 10
146.902349646565
 20
303.8135548520241
 30
0.0
 10
147.108805678863
 20
303.6071302169975
 30
0.0
 10
147.331580672781
 20
303.4206706578204
 30
0.0
 10
147.5678906929589
 20
303.2563861301093
 30
0.0
 10
147.8170499871117
 20
303.1149178870394
 30
0.0
 10
148.076095774672
 20
302.9978058834378
 30
0.0
 10
148.3440239400074
 20
302.905683964965
 30
0.0
 10
148.6179661364096
 20
302.8393741993973
 30
0.0
 10
148.8964505496496
 20
302.7994225343015
 30
0.0
 10
149.1769526979376
 20
302.7860096246787
 30
0.0
 10
149.4574548462256
 20
302.7994225343014
 30
0.0
 10
149.7359392594656
 20
302.8393741993974
 30
0.0
 10
150.0098814558678
 20
302.905683964965
 30
0.0
 10
150.2778096212032
 20
302.9978058834379
 30
0.0
 10
150.5368554087636
 20
303.1149178870394
 30
0.0
 10
150.7860147029166
 20
303.2563861301093
 30
0.0
 10
151.0223247230945
 20
303.4206706578203
 30
0.0
 10
151.2450997170124
 20
303.6071302169976
 30
0.0
 10
151.4515557493104
 20
303.8135548520241
 30
0.0
 10
151.6411684929508
 20
304.0392725032219
 30
0.0
 10
151.8115676688764
 20
304.2815633133175
 30
0.0
 10
151.9622804764842
 20
304.5396208029869
 30
0.0
 10
152.0915036130096
 20
304.8104480073284
 30
0.0
 10
152.1987832861941
 20
305.0929648605934
 30
0.0
 10
152.2829377897494
 20
305.3841528312491
 30
0.0
 10
152.3435810635807
 20
305.682531604147
 30
0.0
 10
152.3801148258519
 20
305.9852925760318
 30
0.0
 10
152.3923338565884
 20
306.2904805862781
 30
0.0
 10
152.3801148258518
 20
306.595668596526
 30
0.0
 10
152.3435810635806
 20
306.8984295684062
 30
0.0
 10
152.2829377897495
 20
307.1968083413209
 30
0.0
 10
152.1987832861941
 20
307.4879963119141
 30
0.0
 10
152.0915036130097
 20
307.7705131654109
 30
0.0
 10
151.9622804764842
 20
308.0413403688928
 30
0.0
 10
151.8115676688763
 20
308.2993978617327
 30
0.0
 10
151.6411684929506
 20
308.5416886600813
 30
0.0
 10
151.4515557493105
 20
308.767406354518
 30
0.0
 10
151.2450997170125
 20
308.9738308294553
 30
0.0
 10
151.0223247230944
 20
309.1602909776717
 30
0.0
 10
150.7860147029165
 20
309.3245733236645
 30
0.0
 10
150.5368554087636
 20
309.4660496052438
 30
0.0
 10
150.2778096212032
 20
309.5831317946029
 30
0.0
 10
150.0098814558678
 20
309.6753639038369
 30
0.0
 10
149.7359392594656
 20
309.7412640642299
 30
0.0
 10
149.4574548462256
 20
309.7827364142787
 30
0.0
 10
149.2704532409911
 20
309.7878992003893
 30
0.0
 10
149.1769526979376
 20
309.7904805862785
 30
0.0
 11
149.1769526979376
 21
309.7904805862785
 31
0.0
 11
148.896872699068
 21
309.7771278009804
 31
0.0
 11
148.6193148906893
 21
309.7373077218213
 31
0.0
 11
148.3452634863105
 21
309.6710481390973
 31
0.0
 11
148.0786206260361
 21
309.5794047590291
 31
0.0
 11
147.8190322015001
 21
309.4621567587438
 31
0.0
 11
147.5712986256046
 21
309.3215694995238
 31
0.0
 11
147.3341981409956
 21
309.1568723041719
 31
0.0
 11
147.1127636116607
 21
308.9716361371949
 31
0.0
 11
146.905480222351
 21
308.7645432602795
 31
0.0
 11
146.7169479385734
 21
308.5402372201811
 31
0.0
 11
146.5458593919999
 21
308.2971423894805
 31
0.0
 11
146.3958782652769
 21
308.0404805862785
 31
0.0
 11
146.2662014854025
 21
307.7688923663073
 31
0.0
 11
146.1593101313251
 21
307.4875510879182
 31
0.0
 11
146.0749440699948
 21
307.1958336043726
 31
0.0
 11
146.014431539759
 21
306.8982492081125
 31
0.0
 11
145.977852591196
 21
306.5953434735783
 31
0.0
 11
145.9656445532714
 21
306.2904805862785
 31
0.0
 11
145.9778525911961
 21
305.9856176989784
 31
0.0
 11
146.014431539759
 21
305.6827119644441
 31
0.0
 11
146.0749440699948
 21
305.3851275681841
 31
0.0
 11
146.1593101313251
 21
305.0934100846387
 31
0.0
 11
146.2662014854025
 21
304.8120688062497
 31
0.0
 11
146.3958782652769
 21
304.5404805862785
 31
0.0
 11
146.5458593919998
 21
304.2838187830763
 31
0.0
 11
146.7169479385734
 21
304.0407239523754
 31
0.0
 11
146.905480222351
 21
303.8164179122771
 31
0.0
 11
147.1127636116607
 21
303.609325035362
 31
0.0
 11
147.3341981409956
 21
303.4240888683849
 31
0.0
 11
147.5712986256046
 21
303.2593916730328
 31
0.0
 11
147.8190322015001
 21
303.1188044138128
 31
0.0
 11
148.0786206260361
 21
303.0015564135277
 31
0.0
 11
148.3452634863105
 21
302.9099130334596
 31
0.0
 11
148.6193148906893
 21
302.8436534507357
 31
0.0
 11
148.896872699068
 21
302.8038333715766
 31
0.0
 11
149.1769526979376
 21
302.7904805862785
 31
0.0
 11
149.4570326968073
 21
302.8038333715765
 31
0.0
 11
149.7345905051859
 21
302.8436534507357
 31
0.0
 11
150.0086419095647
 21
302.9099130334597
 31
0.0
 11
150.2752847698391
 21
303.0015564135277
 31
0.0
 11
150.5348731943752
 21
303.1188044138128
 31
0.0
 11
150.7826067702708
 21
303.2593916730328
 31
0.0
 11
151.0197072548799
 21
303.4240888683848
 31
0.0
 11
151.2411417842147
 21
303.609325035362
 31
0.0
 11
151.4484251735244
 21
303.8164179122772
 31
0.0
 11
151.6369574573018
 21
304.0407239523754
 31
0.0
 11
151.8080460038754
 21
304.2838187830762
 31
0.0
 11
151.9580271305983
 21
304.5404805862785
 31
0.0
 11
152.0877039104727
 21
304.8120688062497
 31
0.0
 11
152.1945952645501
 21
305.0934100846387
 31
0.0
 11
152.2789613258804
 21
305.385127568184
 31
0.0
 11
152.3394738561162
 21
305.6827119644441
 31
0.0
 11
152.3760528046792
 21
305.9856176989784
 31
0.0
 11
152.3882608426038
 21
306.2904805862785
 31
0.0
 11
152.3760528046791
 21
306.5953434735783
 31
0.0
 11
152.3394738561162
 21
306.8982492081125
 31
0.0
 11
152.2789613258805
 21
307.1958336043728
 31
0.0
 11
152.1945952645501
 21
307.4875510879182
 31
0.0
 11
152.0877039104727
 21
307.7688923663073
 31
0.0
 11
151.9580271305983
 21
308.0404805862785
 31
0.0
 11
151.8080460038754
 21
308.2971423894805
 31
0.0
 11
151.6369574573018
 21
308.5402372201811
 31
0.0
 11
151.4484251735244
 21
308.7645432602795
 31
0.0
 11
151.2411417842147
 21
308.9716361371949
 31
0.0
 11
151.0197072548799
 21
309.1568723041719
 31
0.0
 11
150.7826067702708
 21
309.3215694995238
 31
0.0
 11
150.5348731943752
 21
309.4621567587438
 31
0.0
 11
150.2752847698391
 21
309.5794047590291
 31
0.0
 11
150.0086419095647
 21
309.6710481390973
 31
0.0
 11
149.7345905051859
 21
309.7373077218213
 31
0.0
 11
149.4570326968073
 21
309.7771278009805
 31
0.0
 11
149.1769526979376
 21
309.7904805862785
 31
0.0
  0
ENDBLK
  5
45
330
43
100
AcDbEntity
  8
0
100
AcDbBlockEnd
  0
BLOCK
  5
47
330
46
100
AcDbEntity
  8
0
100
AcDbBlockBegin
  2
_J__A4
 70
     0
 71
     0
 10
0.0
 20
0.0
 30
0.0
  3
_J__A4
  1

  0
POINT
  5
18F
330
46
100
AcDbEntity
  8
1
 62
     4
100
AcDbPoint
 10
93.75
 20
17.0
 30
0.0
  0
POINT
  5
190
330
46
100
AcDbEntity
  8
1
 62
     4
100
AcDbPoint
 10
85.25
 20
17.0
 30
0.0
  0
POINT
  5
191
330
46
100
AcDbEntity
  8
1
 62
     4
100
AcDbPoint
 10
106.5
 20
19.00000000000001
 30
0.0
  0
POINT
  5
192
330
46
100
AcDbEntity
  8
1
 62
     4
100
AcDbPoint
 10
106.5
 20
12.5
 30
0.0
  0
POINT
  5
193
330
46
100
AcDbEntity
  8
1
 62
     4
100
AcDbPoint
 10
112.25
 20
12.5
 30
0.0
  0
POINT
  5
194
330
46
100
AcDbEntity
  8
1
 62
     4
100
AcDbPoint
 10
100.75
 20
12.5
 30
0.0
  0
POINT
  5
195
330
46
100
AcDbEntity
  8
1
 62
     4
100
AcDbPoint
 10
123.5
 20
19.00000000000001
 30
0.0
  0
POINT
  5
196
330
46
100
AcDbEntity
  8
1
 62
     4
100
AcDbPoint
 10
123.5
 20
12.5
 30
0.0
  0
POINT
  5
197
330
46
100
AcDbEntity
  8
1
 62
     4
100
AcDbPoint
 10
129.25
 20
12.5
 30
0.0
  0
POINT
  5
198
330
46
100
AcDbEntity
  8
1
 62
     4
100
AcDbPoint
 10
117.75
 20
12.5
 30
0.0
  0
POINT
  5
199
330
46
100
AcDbEntity
  8
1
 62
     4
100
AcDbPoint
 10
140.5
 20
19.00000000000001
 30
0.0
  0
POINT
  5
19A
330
46
100
AcDbEntity
  8
1
 62
     4
100
AcDbPoint
 10
140.5
 20
12.5
 30
0.0
  0
POINT
  5
19B
330
46
100
AcDbEntity
  8
1
 62
     4
100
AcDbPoint
 10
146.25
 20
12.5
 30
0.0
  0
POINT
  5
19C
330
46
100
AcDbEntity
  8
1
 62
     4
100
AcDbPoint
 10
134.75
 20
12.5
 30
0.0
  0
POINT
  5
19D
330
46
100
AcDbEntity
  8
1
 62
     4
100
AcDbPoint
 10
151.75
 20
12.5
 30
0.0
  0
POINT
  5
19E
330
46
100
AcDbEntity
  8
1
 62
     4
100
AcDbPoint
 10
163.25
 20
12.5
 30
0.0
  0
POINT
  5
19F
330
46
100
AcDbEntity
  8
1
 62
     4
100
AcDbPoint
 10
157.5
 20
12.5
 30
0.0
  0
POINT
  5
1A0
330
46
100
AcDbEntity
  8
1
 62
     4
100
AcDbPoint
 10
57.0
 20
14.25
 30
0.0
  0
POINT
  5
1A1
330
46
100
AcDbEntity
  8
1
 62
     4
100
AcDbPoint
 10
57.0
 20
22.75000000000001
 30
0.0
  0
POINT
  5
1A2
330
46
100
AcDbEntity
  8
1
 62
     4
100
AcDbPoint
 10
47.5
 20
282.0000000000003
 30
0.0
  0
POINT
  5
1A3
330
46
100
AcDbEntity
  8
1
 62
     4
100
AcDbPoint
 10
157.5
 20
19.00000000000001
 30
0.0
  0
POINT
  5
1A4
330
46
100
AcDbEntity
  8
1
 62
     4
100
AcDbPoint
 10
57.0
 20
16.25
 30
0.0
  0
POINT
  5
1A5
330
46
100
AcDbEntity
  8
1
 62
     4
100
AcDbPoint
 10
57.0
 20
24.75000000000001
 30
0.0
  0
POINT
  5
1A6
330
46
100
AcDbEntity
  8
1
 62
     4
100
AcDbPoint
 10
57.0
 20
20.75000000000001
 30
0.0
  0
POINT
  5
1A7
330
46
100
AcDbEntity
  8
1
 62
     4
100
AcDbPoint
 10
57.0
 20
12.25
 30
0.0
  0
POINT
  5
1A8
330
46
100
AcDbEntity
  8
1
 62
     4
100
AcDbPoint
 10
34.0
 20
34.00000000000001
 30
0.0
  0
LINE
  5
1A9
330
46
100
AcDbEntity
  8
1
  6
Continuous
 62
     7
100
AcDbLine
 10
105.0
 20
10.0
 30
0.0
 11
200.0
 21
10.0
 31
0.0
  0
LINE
  5
1AA
330
46
100
AcDbEntity
  8
1
  6
Continuous
 62
     2
100
AcDbLine
 10
105.0
 20
10.0
 30
0.0
 11
105.0
 21
5.0
 31
0.0
  0
LINE
  5
1AB
330
46
100
AcDbEntity
  8
1
  6
Continuous
 62
     7
100
AcDbLine
 10
200.0
 20
148.5
 30
0.0
 11
200.0
 21
287.0000000000003
 31
0.0
  0
LINE
  5
1AC
330
46
100
AcDbEntity
  8
1
  6
Continuous
 62
     2
100
AcDbLine
 10
200.0
 20
148.5
 30
0.0
 11
205.0
 21
148.5
 31
0.0
  0
LINE
  5
1AD
330
46
100
AcDbEntity
  8
1
  6
Continuous
 62
     7
100
AcDbLine
 10
25.0
 20
148.5
 30
0.0
 11
25.0
 21
287.0000000000003
 31
0.0
  0
LINE
  5
1AE
330
46
100
AcDbEntity
  8
1
  6
Continuous
 62
     2
100
AcDbLine
 10
25.0
 20
148.5
 30
0.0
 11
20.0
 21
148.5
 31
0.0
  0
LINE
  5
1AF
330
46
100
AcDbEntity
  8
1
  6
Continuous
 62
     7
100
AcDbLine
 10
105.0
 20
287.0000000000003
 30
0.0
 11
25.0
 21
287.0000000000003
 31
0.0
  0
LINE
  5
1B0
330
46
100
AcDbEntity
  8
1
  6
Continuous
 62
     2
100
AcDbLine
 10
105.0
 20
287.0000000000003
 30
0.0
 11
105.0
 21
292.0000000000003
 31
0.0
  0
LINE
  5
1B1
330
46
100
AcDbEntity
  8
1
  6
Continuous
 62
     2
100
AcDbLine
 10
166.0
 20
20.00000000000001
 30
0.0
 11
200.0
 21
20.00000000000001
 31
0.0
  0
LINE
  5
1B2
330
46
100
AcDbEntity
  8
1
  6
Continuous
 62
     2
100
AcDbLine
 10
98.0
 20
27.00000000000001
 30
0.0
 11
98.0
 21
9.99999999999999
 31
0.0
  0
LINE
  5
1B3
330
46
100
AcDbEntity
  8
1
  6
Continuous
 62
     2
100
AcDbLine
 10
115.0
 20
27.00000000000001
 30
0.0
 11
115.0
 21
9.99999999999999
 31
0.0
  0
LINE
  5
1B4
330
46
100
AcDbEntity
  8
1
  6
Continuous
 62
     2
100
AcDbLine
 10
149.0
 20
27.00000000000001
 30
0.0
 11
149.0
 21
10.0
 31
0.0
  0
LINE
  5
1B5
330
46
100
AcDbEntity
  8
1
  6
Continuous
 62
     2
100
AcDbLine
 10
132.0
 20
27.00000000000001
 30
0.0
 11
132.0
 21
9.99999999999999
 31
0.0
  0
LINE
  5
1B6
330
46
100
AcDbEntity
  8
1
  6
Continuous
 62
     2
100
AcDbLine
 10
166.0
 20
27.00000000000001
 30
0.0
 11
166.0
 21
10.0
 31
0.0
  0
LINE
  5
1B7
330
46
100
AcDbEntity
  8
1
  6
Continuous
 62
     2
100
AcDbLine
 10
55.0
 20
277.0000000000003
 30
0.0
 11
25.0
 21
277.0000000000003
 31
0.0
  0
LINE
  5
1B8
330
46
100
AcDbEntity
  8
1
  6
Continuous
 62
     7
100
AcDbLine
 10
25.0
 20
10.0
 30
0.0
 11
25.0
 21
148.5
 31
0.0
  0
LINE
  5
1B9
330
46
100
AcDbEntity
  8
1
  6
Continuous
 62
     2
100
AcDbLine
 10
40.0
 20
287.0000000000003
 30
0.0
 11
40.0
 21
277.0000000000003
 31
0.0
  0
LINE
  5
1BA
330
46
100
AcDbEntity
  8
1
  6
Continuous
 62
     2
100
AcDbLine
 10
55.0
 20
287.0000000000003
 30
0.0
 11
55.0
 21
277.0000000000003
 31
0.0
  0
LINE
  5
1BB
330
46
100
AcDbEntity
  8
1
  6
Continuous
 62
     2
100
AcDbLine
 10
33.0
 20
41.00000000000001
 30
0.0
 11
33.0
 21
27.0
 31
0.0
  0
LINE
  5
1BC
330
46
100
AcDbEntity
  8
1
  6
Continuous
 62
     7
100
AcDbLine
 10
200.0
 20
27.00000000000001
 30
0.0
 11
25.0
 21
27.00000000000001
 31
0.0
  0
LINE
  5
1BD
330
46
100
AcDbEntity
  8
1
  6
Continuous
 62
     7
100
AcDbLine
 10
25.0
 20
41.0
 30
0.0
 11
200.0
 21
41.0
 31
0.0
  0
LINE
  5
1BE
330
46
100
AcDbEntity
  8
1
  6
PHANTOM
 62
     4
100
AcDbLine
 10
0.0
 20
0.0
 30
0.0
 11
210.0
 21
0.0
 31
0.0
  0
LINE
  5
1BF
330
46
100
AcDbEntity
  8
1
  6
PHANTOM
 62
     4
100
AcDbLine
 10
210.0
 20
0.0
 30
0.0
 11
210.0
 21
297.0
 31
0.0
  0
LINE
  5
1C0
330
46
100
AcDbEntity
  8
1
  6
PHANTOM
 62
     4
100
AcDbLine
 10
210.0
 20
297.0
 30
0.0
 11
0.0
 21
297.0
 31
0.0
  0
LINE
  5
1C1
330
46
100
AcDbEntity
  8
1
  6
PHANTOM
 62
     4
100
AcDbLine
 10
0.0
 20
297.0
 30
0.0
 11
0.0
 21
0.0
 31
0.0
  0
LINE
  5
1C2
330
46
100
AcDbEntity
  8
1
  6
Continuous
 62
     7
100
AcDbLine
 10
25.0
 20
10.0
 30
0.0
 11
105.0
 21
10.0
 31
0.0
  0
LINE
  5
1C3
330
46
100
AcDbEntity
  8
1
  6
Continuous
 62
     7
100
AcDbLine
 10
200.0
 20
10.0
 30
0.0
 11
200.0
 21
148.5
 31
0.0
  0
LINE
  5
1C4
330
46
100
AcDbEntity
  8
1
  6
Continuous
 62
     7
100
AcDbLine
 10
200.0
 20
287.0000000000003
 30
0.0
 11
105.0
 21
287.0000000000003
 31
0.0
  0
LINE
  5
1C5
330
46
100
AcDbEntity
  8
1
  6
Continuous
 62
     2
100
AcDbLine
 10
25.0
 20
18.50000000000001
 30
0.0
 11
81.0
 21
18.50000000000001
 31
0.0
  0
LINE
  5
1C6
330
46
100
AcDbEntity
  8
1
  6
Continuous
 62
     2
100
AcDbLine
 10
33.0
 20
27.0
 30
0.0
 11
33.0
 21
10.0
 31
0.0
  0
LINE
  5
1C7
330
46
100
AcDbEntity
  8
1
  6
Continuous
 62
     7
100
AcDbLine
 10
191.0
 20
24.70000000000001
 30
0.0
 11
191.0
 21
22.30000000000001
 31
0.0
  0
LINE
  5
1C8
330
46
100
AcDbEntity
  8
1
  6
Continuous
 62
     7
100
AcDbLine
 10
191.0
 20
24.70000000000001
 30
0.0
 11
196.0
 21
25.50000000000001
 31
0.0
  0
LINE
  5
1C9
330
46
100
AcDbEntity
  8
1
  6
Continuous
 62
     7
100
AcDbLine
 10
196.0
 20
25.50000000000001
 30
0.0
 11
196.0
 21
21.50000000000001
 31
0.0
  0
LINE
  5
1CA
330
46
100
AcDbEntity
  8
1
  6
Continuous
 62
     7
100
AcDbLine
 10
196.0
 20
21.50000000000001
 30
0.0
 11
191.0
 21
22.30000000000001
 31
0.0
  0
LINE
  5
1CB
330
46
100
AcDbEntity
  8
1
  6
DOT_CENTER
 62
     2
100
AcDbLine
 10
184.0
 20
23.50000000000001
 30
0.0
 11
197.0
 21
23.50000000000001
 31
0.0
  0
LINE
  5
1CC
330
46
100
AcDbEntity
  8
1
  6
DOT_CENTER
 62
     2
100
AcDbLine
 10
187.0
 20
26.50000000000001
 30
0.0
 11
187.0
 21
20.50000000000001
 31
0.0
  0
LINE
  5
1CD
330
46
100
AcDbEntity
  8
1
  6
Continuous
 62
     2
100
AcDbLine
 10
81.0
 20
27.00000000000001
 30
0.0
 11
81.0
 21
10.0
 31
0.0
  0
CIRCLE
  5
1CE
330
46
100
AcDbEntity
  8
1
  6
Continuous
 62
     7
100
AcDbCircle
 10
103.5
 20
12.5
 30
0.0
 40
0.2999999999999972
  0
CIRCLE
  5
1CF
330
46
100
AcDbEntity
  8
1
  6
Continuous
 62
     7
100
AcDbCircle
 10
109.5
 20
12.5
 30
0.0
 40
0.2999999999999972
  0
CIRCLE
  5
1D0
330
46
100
AcDbEntity
  8
1
  6
Continuous
 62
     7
100
AcDbCircle
 10
120.5
 20
12.5
 30
0.0
 40
0.2999999999999972
  0
CIRCLE
  5
1D1
330
46
100
AcDbEntity
  8
1
  6
Continuous
 62
     7
100
AcDbCircle
 10
126.5
 20
12.5
 30
0.0
 40
0.2999999999999972
  0
CIRCLE
  5
1D2
330
46
100
AcDbEntity
  8
1
  6
Continuous
 62
     7
100
AcDbCircle
 10
137.5
 20
12.5
 30
0.0
 40
0.3000000000000114
  0
CIRCLE
  5
1D3
330
46
100
AcDbEntity
  8
1
  6
Continuous
 62
     7
100
AcDbCircle
 10
143.5
 20
12.5
 30
0.0
 40
0.3000000000000114
  0
CIRCLE
  5
1D4
330
46
100
AcDbEntity
  8
1
  6
Continuous
 62
     7
100
AcDbCircle
 10
160.5
 20
12.5
 30
0.0
 40
0.3000000000000114
  0
CIRCLE
  5
1D5
330
46
100
AcDbEntity
  8
1
  6
Continuous
 62
     7
100
AcDbCircle
 10
154.5
 20
12.5
 30
0.0
 40
0.3000000000000114
  0
CIRCLE
  5
1D6
330
46
100
AcDbEntity
  8
1
  6
Continuous
 62
     7
100
AcDbCircle
 10
187.0
 20
23.50000000000001
 30
0.0
 40
1.200000000000102
  0
CIRCLE
  5
1D7
330
46
100
AcDbEntity
  8
1
  6
Continuous
 62
     7
100
AcDbCircle
 10
187.0
 20
23.50000000000001
 30
0.0
 40
2.0
  0
CIRCLE
  5
1D8
330
46
100
AcDbEntity
  8
1
  6
DOT_CENTER
 62
     7
100
AcDbCircle
 10
89.5
 20
16.0
 30
0.0
 40
0.1000000000000227
  0
CIRCLE
  5
1D9
330
46
100
AcDbEntity
  8
1
  6
DOT_CENTER
 62
     7
100
AcDbCircle
 10
89.5
 20
18.0
 30
0.0
 40
0.1000000000000227
  0
MTEXT
  5
1DB
330
46
100
AcDbEntity
  8
1
 62
     7
100
AcDbMText
 10
188.5
 20
15.0
 30
0.0
 40
3.0
 41
0.0
 71
     5
 72
     1
  1
三栄水栓製作所
  7
CONVERTER_1
 73
     1
 44
1.32052821128451
  0
MTEXT
  5
1DC
330
46
100
AcDbEntity
  8
1
 62
     7
100
AcDbMText
 10
171.5
 20
15.0
 30
0.0
 40
2.5
 41
0.0
 71
     5
 72
     1
  1
株式会社
  7
CONVERTER_1
 73
     1
 44
1.32052821128451
  0
MTEXT
  5
1DD
330
46
100
AcDbEntity
  8
1
 62
     2
100
AcDbMText
 10
32.5
 20
282.0000000000003
 30
0.0
 40
5.0
 41
0.0
 71
     5
 72
     1
  1
図番
  7
CONVERTER_1
 73
     1
 44
0.60024009603842
  0
MTEXT
  5
1DE
330
46
100
AcDbEntity
  8
1
 62
     2
100
AcDbMText
 10
29.0
 20
34.00000000000001
 30
0.0
 40
3.5
 41
0.0
 71
     5
 72
     1
  1
備考
  7
CONVERTER_1
 73
     1
 44
0.60024009603842
  0
MTEXT
  5
1DF
330
46
100
AcDbEntity
  8
1
 62
     2
100
AcDbMText
 10
29.0
 20
22.75
 30
0.0
 40
3.5
 41
0.0
 71
     5
 72
     1
  1
品名
  7
CONVERTER_1
 73
     1
 44
0.96038415366146
  0
MTEXT
  5
1E0
330
46
100
AcDbEntity
  8
1
 62
     2
100
AcDbMText
 10
29.0
 20
14.25
 30
0.0
 40
3.5
 41
0.0
 71
     5
 72
     1
  1
品番
  7
CONVERTER_1
 73
     1
 44
0.96038415366146
  0
MTEXT
  5
1E1
330
46
100
AcDbEntity
  8
1
 62
     2
100
AcDbMText
 10
101.5
 20
25.00000000000001
 30
0.0
 40
3.0
 41
0.0
 71
     5
 72
     1
  1
承認
  7
CONVERTER_1
 73
     1
 44
0.78031212484994
  0
MTEXT
  5
1E2
330
46
100
AcDbEntity
  8
1
 62
     2
100
AcDbMText
 10
175.0
 20
23.50000000000001
 30
0.0
 40
3.5
 41
0.0
 71
     5
 72
     1
  1
第三角法
  7
CONVERTER_1
 73
     1
 44
0.7202881152461
  0
MTEXT
  5
1E3
330
46
100
AcDbEntity
  8
1
 62
     2
100
AcDbMText
 10
118.5
 20
25.00000000000001
 30
0.0
 40
3.0
 41
0.0
 71
     5
 72
     1
  1
検図
  7
CONVERTER_1
 73
     1
 44
0.78031212484994
  0
MTEXT
  5
1E4
330
46
100
AcDbEntity
  8
1
 62
     2
100
AcDbMText
 10
152.5
 20
25.00000000000001
 30
0.0
 40
3.0
 41
0.0
 71
     5
 72
     1
  1
設計
  7
CONVERTER_1
 73
     1
 44
0.78031212484994
  0
MTEXT
  5
1E5
330
46
100
AcDbEntity
  8
1
 62
     2
100
AcDbMText
 10
135.5
 20
25.00000000000001
 30
0.0
 40
3.0
 41
0.0
 71
     5
 72
     1
  1
製図
  7
CONVERTER_1
 73
     1
 44
0.78031212484994
  0
MTEXT
  5
1E6
330
46
100
AcDbEntity
  8
1
 62
     2
100
AcDbMText
 10
89.5
 20
24.00000000000001
 30
0.0
 40
3.5
 41
0.0
 71
     5
 72
     1
  1
尺度
  7
CONVERTER_1
 73
     1
 44
0.7202881152461
  0
MTEXT
  5
1E7
330
46
100
AcDbEntity
  8
1
 62
   250
100
AcDbMText
 10
25.0
 20
5.0
 30
0.0
 40
3.5
 41
0.0
 71
     4
 72
     1
  1
備考欄の文字列 原点位置=4
  7
CONVERTER_1
 73
     1
 44
0.7202881152461
  0
ENDBLK
  5
48
330
46
100
AcDbEntity
  8
0
100
AcDbBlockEnd
  0
BLOCK
  5
206
330
1FE
100
AcDbEntity
  8
0
100
AcDbBlockBegin
  2
*D07
 70
     1
 71
     0
 10
0.0
 20
0.0
 30
0.0
  3
*D07
  1

  0
LINE
  5
1FF
330
1FE
100
AcDbEntity
  8
1
  6
Continuous
 62
     2
100
AcDbLine
 10
133.741456617601
 20
454.7904805862661
 30
0.0
 11
149.2044110888456
 21
454.7904805862661
 31
0.0
  0
LINE
  5
200
330
1FE
100
AcDbEntity
  8
1
  6
Continuous
 62
     2
100
AcDbLine
 10
149.2044110888456
 20
454.7904805862661
 30
0.0
 11
172.2044110888458
 21
454.7904805862661
 31
0.0
  0
LINE
  5
201
330
1FE
100
AcDbEntity
  8
1
  6
Continuous
 62
     2
100
AcDbLine
 10
172.2044110888458
 20
434.0583074626926
 30
0.0
 11
172.2044110888458
 21
456.7904805862661
 31
0.0
  0
LINE
  5
202
330
1FE
100
AcDbEntity
  8
1
  6
Continuous
 62
     2
100
AcDbLine
 10
149.2044110888456
 20
434.0583074626928
 30
0.0
 11
149.2044110888456
 21
456.7904805862661
 31
0.0
  0
SOLID
  5
203
330
1FE
100
AcDbEntity
  8
1
 62
     2
100
AcDbTrace
 10
156.2044110888456
 20
455.7120480693778
 30
0.0
 11
156.2044110888456
 21
453.8689131031543
 31
0.0
 12
149.2044110888456
 22
454.7904805862661
 32
0.0
 13
149.2044110888456
 23
454.7904805862661
 33
0.0
  0
SOLID
  5
204
330
1FE
100
AcDbEntity
  8
1
 62
     2
100
AcDbTrace
 10
165.2044110888458
 20
453.8689131031543
 30
0.0
 11
165.2044110888458
 21
455.7120480693778
 31
0.0
 12
172.2044110888458
 22
454.7904805862661
 32
0.0
 13
172.2044110888458
 23
454.7904805862661
 33
0.0
  0
MTEXT
  5
205
330
1FE
100
AcDbEntity
  8
1
 62
     7
100
AcDbMText
 10
133.741456617601
 20
456.7904805862661
 30
0.0
 40
7.0
 41
0.0
 71
     7
 72
     1
  1
23
  7
CONVERTER_2
 11
0.9999999999970621
 21
2.424068405545307E-6
 31
0.0
 73
     1
 44
0.60024009603842
  0
ENDBLK
  5
207
330
1FE
100
AcDbEntity
  8
0
100
AcDbBlockEnd
  0
BLOCK
  5
211
330
20A
100
AcDbEntity
  8
0
100
AcDbBlockBegin
  2
*D18
 70
     1
 71
     0
 10
0.0
 20
0.0
 30
0.0
  3
*D18
  1

  0
LINE
  5
20B
330
20A
100
AcDbEntity
  8
0
  6
Continuous
 62
     2
100
AcDbLine
 10
127.7131572168046
 20
244.2904805862785
 30
0.0
 11
195.7131572168047
 21
244.2904805862785
 31
0.0
  0
LINE
  5
20C
330
20A
100
AcDbEntity
  8
0
  6
Continuous
 62
     2
100
AcDbLine
 10
195.7131572168047
 20
264.2904805862785
 30
0.0
 11
195.7131572168047
 21
242.2904805862785
 31
0.0
  0
LINE
  5
20D
330
20A
100
AcDbEntity
  8
0
  6
Continuous
 62
     2
100
AcDbLine
 10
127.7131572168046
 20
267.9524805862906
 30
0.0
 11
127.7131572168046
 21
242.2904805862785
 31
0.0
  0
SOLID
  5
20E
330
20A
100
AcDbEntity
  8
0
 62
     2
100
AcDbTrace
 10
134.7131572168046
 20
245.2120480693903
 30
0.0
 11
134.7131572168046
 21
243.3689131031667
 31
0.0
 12
127.7131572168046
 22
244.2904805862785
 32
0.0
 13
127.7131572168046
 23
244.2904805862785
 33
0.0
  0
SOLID
  5
20F
330
20A
100
AcDbEntity
  8
0
 62
     2
100
AcDbTrace
 10
188.7131572168047
 20
243.3689131031667
 30
0.0
 11
188.7131572168047
 21
245.2120480693903
 31
0.0
 12
195.7131572168047
 22
244.2904805862785
 32
0.0
 13
195.7131572168047
 23
244.2904805862785
 33
0.0
  0
MTEXT
  5
210
330
20A
100
AcDbEntity
  8
0
 62
     7
100
AcDbMText
 10
156.4631572168046
 20
246.2904805862785
 30
0.0
 40
7.0
 41
0.0
 71
     7
 72
     1
  1
68
  7
CONVERTER_2
 11
0.9999999999970621
 21
2.424068405545307E-6
 31
0.0
 73
     1
 44
0.60024009603842
  0
ENDBLK
  5
212
330
20A
100
AcDbEntity
  8
0
100
AcDbBlockEnd
  0
BLOCK
  5
21C
330
215
100
AcDbEntity
  8
0
100
AcDbBlockBegin
  2
*D29
 70
     1
 71
     0
 10
0.0
 20
0.0
 30
0.0
  3
*D29
  1

  0
LINE
  5
216
330
215
100
AcDbEntity
  8
0
  6
Continuous
 62
     2
100
AcDbLine
 10
127.7131572168046
 20
474.7904805862661
 30
0.0
 11
160.7131572168046
 21
474.7904805862661
 31
0.0
  0
LINE
  5
217
330
215
100
AcDbEntity
  8
0
  6
Continuous
 62
     2
100
AcDbLine
 10
160.7131572168046
 20
437.7904805862662
 30
0.0
 11
160.7131572168046
 21
476.7904805862661
 31
0.0
  0
LINE
  5
218
330
215
100
AcDbEntity
  8
0
  6
Continuous
 62
     2
100
AcDbLine
 10
127.7131572168046
 20
408.6284805862786
 30
0.0
 11
127.7131572168046
 21
476.7904805862661
 31
0.0
  0
SOLID
  5
219
330
215
100
AcDbEntity
  8
0
 62
     2
100
AcDbTrace
 10
134.7131572168046
 20
475.7120480693778
 30
0.0
 11
134.7131572168046
 21
473.8689131031543
 31
0.0
 12
127.7131572168046
 22
474.7904805862661
 32
0.0
 13
127.7131572168046
 23
474.7904805862661
 33
0.0
  0
SOLID
  5
21A
330
215
100
AcDbEntity
  8
0
 62
     2
100
AcDbTrace
 10
153.7131572168046
 20
473.8689131031543
 30
0.0
 11
153.7131572168046
 21
475.7120480693778
 31
0.0
 12
160.7131572168046
 22
474.7904805862661
 32
0.0
 13
160.7131572168046
 23
474.7904805862661
 33
0.0
  0
MTEXT
  5
21B
330
215
100
AcDbEntity
  8
0
 62
     7
100
AcDbMText
 10
138.310775386457
 20
476.7904805862661
 30
0.0
 40
7.0
 41
0.0
 71
     7
 72
     1
  1
33
  7
CONVERTER_2
 11
0.9999999999970621
 21
2.424068405545307E-6
 31
0.0
 73
     1
 44
0.60024009603842
  0
ENDBLK
  5
21D
330
215
100
AcDbEntity
  8
0
100
AcDbBlockEnd
  0
BLOCK
  5
227
330
220
100
AcDbEntity
  8
0
100
AcDbBlockBegin
  2
*D310
 70
     1
 71
     0
 10
0.0
 20
0.0
 30
0.0
  3
*D310
  1

  0
LINE
  5
221
330
220
100
AcDbEntity
  8
0
  6
Continuous
 62
     2
100
AcDbLine
 10
160.7131572168046
 20
474.7904805862663
 30
0.0
 11
195.7131572168046
 21
474.7904805862663
 31
0.0
  0
LINE
  5
222
330
220
100
AcDbEntity
  8
0
  6
Continuous
 62
     2
100
AcDbLine
 10
195.7131572168046
 20
410.5488108354753
 30
0.0
 11
195.7131572168046
 21
476.7904805862663
 31
0.0
  0
LINE
  5
223
330
220
100
AcDbEntity
  8
0
  6
Continuous
 62
     2
100
AcDbLine
 10
160.7131572168046
 20
437.7904805862662
 30
0.0
 11
160.7131572168046
 21
476.7904805862663
 31
0.0
  0
SOLID
  5
224
330
220
100
AcDbEntity
  8
0
 62
     2
100
AcDbTrace
 10
167.7131572168046
 20
475.7120480693781
 30
0.0
 11
167.7131572168046
 21
473.8689131031546
 31
0.0
 12
160.7131572168046
 22
474.7904805862663
 32
0.0
 13
160.7131572168046
 23
474.7904805862663
 33
0.0
  0
SOLID
  5
225
330
220
100
AcDbEntity
  8
0
 62
     2
100
AcDbTrace
 10
188.7131572168046
 20
473.8689131031546
 30
0.0
 11
188.7131572168046
 21
475.7120480693781
 31
0.0
 12
195.7131572168046
 22
474.7904805862663
 32
0.0
 13
195.7131572168046
 23
474.7904805862663
 33
0.0
  0
MTEXT
  5
226
330
220
100
AcDbEntity
  8
0
 62
     7
100
AcDbMText
 10
173.722995845086
 20
476.7904805862663
 30
0.0
 40
7.0
 41
0.0
 71
     7
 72
     1
  1
35
  7
CONVERTER_2
 11
0.9999999999970621
 21
2.424068405545307E-6
 31
0.0
 73
     1
 44
0.60024009603842
  0
ENDBLK
  5
228
330
220
100
AcDbEntity
  8
0
100
AcDbBlockEnd
  0
BLOCK
  5
232
330
22B
100
AcDbEntity
  8
0
100
AcDbBlockBegin
  2
*D411
 70
     1
 71
     0
 10
0.0
 20
0.0
 30
0.0
  3
*D411
  1

  0
LINE
  5
22C
330
22B
100
AcDbEntity
  8
1
  6
Continuous
 62
     2
100
AcDbLine
 10
348.2131572168171
 20
244.2904805862785
 30
0.0
 11
312.7131572168169
 21
244.2904805862785
 31
0.0
  0
LINE
  5
22D
330
22B
100
AcDbEntity
  8
1
  6
Continuous
 62
     2
100
AcDbLine
 10
312.7131572168169
 20
261.2904805862785
 30
0.0
 11
312.7131572168169
 21
242.2904805862785
 31
0.0
  0
LINE
  5
22E
330
22B
100
AcDbEntity
  8
1
  6
Continuous
 62
     2
100
AcDbLine
 10
348.2131572168171
 20
266.2904805862785
 30
0.0
 11
348.2131572168171
 21
242.2904805862785
 31
0.0
  0
SOLID
  5
22F
330
22B
100
AcDbEntity
  8
1
 62
     2
100
AcDbTrace
 10
341.2131572168171
 20
243.3689131031667
 30
0.0
 11
341.2131572168171
 21
245.2120480693903
 31
0.0
 12
348.2131572168171
 22
244.2904805862785
 32
0.0
 13
348.2131572168171
 23
244.2904805862785
 33
0.0
  0
SOLID
  5
230
330
22B
100
AcDbEntity
  8
1
 62
     2
100
AcDbTrace
 10
319.7131572168169
 20
245.2120480693903
 30
0.0
 11
319.7131572168169
 21
243.3689131031667
 31
0.0
 12
312.7131572168169
 22
244.2904805862785
 32
0.0
 13
312.7131572168169
 23
244.2904805862785
 33
0.0
  0
MTEXT
  5
231
330
22B
100
AcDbEntity
  8
1
 62
     7
100
AcDbMText
 10
324.395203058658
 20
246.2904805862785
 30
0.0
 40
7.0
 41
0.0
 71
     7
 72
     1
  1
36
  7
CONVERTER_2
 11
0.9999999999970621
 21
2.424068405545307E-6
 31
0.0
 73
     1
 44
0.60024009603842
  0
ENDBLK
  5
233
330
22B
100
AcDbEntity
  8
0
100
AcDbBlockEnd
  0
BLOCK
  5
23D
330
236
100
AcDbEntity
  8
0
100
AcDbBlockBegin
  2
*D512
 70
     1
 71
     0
 10
0.0
 20
0.0
 30
0.0
  3
*D512
  1

  0
LINE
  5
237
330
236
100
AcDbEntity
  8
1
  6
Continuous
 62
     2
100
AcDbLine
 10
364.920201827866
 20
277.2904805862785
 30
0.0
 11
364.920201827866
 21
319.2904805862784
 31
0.0
  0
LINE
  5
238
330
236
100
AcDbEntity
  8
1
  6
Continuous
 62
     2
100
AcDbLine
 10
351.2131572168166
 20
277.2904805862785
 30
0.0
 11
366.920201827866
 21
277.2904805862785
 31
0.0
  0
LINE
  5
239
330
236
100
AcDbEntity
  8
1
  6
Continuous
 62
     2
100
AcDbLine
 10
316.4631572168169
 20
319.2904805862784
 30
0.0
 11
366.920201827866
 21
319.2904805862784
 31
0.0
  0
SOLID
  5
23A
330
236
100
AcDbEntity
  8
1
 62
     2
100
AcDbTrace
 10
363.9986343447542
 20
284.2904805862785
 30
0.0
 11
365.8417693109777
 21
284.2904805862785
 31
0.0
 12
364.920201827866
 22
277.2904805862785
 32
0.0
 13
364.920201827866
 23
277.2904805862785
 33
0.0
  0
SOLID
  5
23B
330
236
100
AcDbEntity
  8
1
 62
     2
100
AcDbTrace
 10
365.8417693109777
 20
312.2904805862784
 30
0.0
 11
363.9986343447542
 21
312.2904805862784
 31
0.0
 12
364.920201827866
 22
319.2904805862784
 32
0.0
 13
364.920201827866
 23
319.2904805862784
 33
0.0
  0
MTEXT
  5
23C
330
236
100
AcDbEntity
  8
1
 62
     7
100
AcDbMText
 10
362.920201827866
 20
287.399688910393
 30
0.0
 40
7.0
 41
0.0
 71
     7
 72
     1
  1
42リフト5
  7
CONVERTER_1
 11
0.0
 21
1.0
 31
0.0
 73
     1
 44
0.60024009603842
  0
ENDBLK
  5
23E
330
236
100
AcDbEntity
  8
0
100
AcDbBlockEnd
  0
BLOCK
  5
24A
330
241
100
AcDbEntity
  8
0
100
AcDbBlockBegin
  2
*D613
 70
     1
 71
     0
 10
0.0
 20
0.0
 30
0.0
  3
*D613
  1

  0
LINE
  5
242
330
241
100
AcDbEntity
  8
1
  6
Continuous
 62
     2
100
AcDbLine
 10
113.7131572168046
 20
368.8129805862784
 30
0.0
 11
127.7131572168046
 21
368.8129805862784
 31
0.0
  0
LINE
  5
243
330
241
100
AcDbEntity
  8
1
  6
Continuous
 62
     2
100
AcDbLine
 10
127.7131572168046
 20
368.8129805862784
 30
0.0
 11
136.7131572168046
 21
368.8129805862784
 31
0.0
  0
LINE
  5
244
330
241
100
AcDbEntity
  8
1
  6
Continuous
 62
     2
100
AcDbLine
 10
136.7131572168046
 20
368.8129805862784
 30
0.0
 11
150.7131572168046
 21
368.8129805862784
 31
0.0
  0
LINE
  5
245
330
241
100
AcDbEntity
  8
1
  6
Continuous
 62
     2
100
AcDbLine
 10
136.7131572168046
 20
388.8129805862784
 30
0.0
 11
136.7131572168046
 21
366.8129805862784
 31
0.0
  0
LINE
  5
246
330
241
100
AcDbEntity
  8
1
  6
Continuous
 62
     2
100
AcDbLine
 10
127.7131572168046
 20
389.9524805862784
 30
0.0
 11
127.7131572168046
 21
366.8129805862784
 31
0.0
  0
SOLID
  5
247
330
241
100
AcDbEntity
  8
1
 62
     2
100
AcDbTrace
 10
120.7131572168046
 20
367.8914131031667
 30
0.0
 11
120.7131572168046
 21
369.7345480693901
 31
0.0
 12
127.7131572168046
 22
368.8129805862784
 32
0.0
 13
127.7131572168046
 23
368.8129805862784
 33
0.0
  0
SOLID
  5
248
330
241
100
AcDbEntity
  8
1
 62
     2
100
AcDbTrace
 10
143.7131572168046
 20
369.7345480693901
 30
0.0
 11
143.7131572168046
 21
367.8914131031667
 31
0.0
 12
136.7131572168046
 22
368.8129805862784
 32
0.0
 13
136.7131572168046
 23
368.8129805862784
 33
0.0
  0
MTEXT
  5
249
330
241
100
AcDbEntity
  8
1
 62
     7
100
AcDbMText
 10
145.696660969442
 20
370.8129805862784
 30
0.0
 40
7.0
 41
0.0
 71
     7
 72
     1
  1
9
  7
CONVERTER_2
 11
0.9999999999970621
 21
2.424068405545307E-6
 31
0.0
 73
     1
 44
0.60024009603842
  0
ENDBLK
  5
24B
330
241
100
AcDbEntity
  8
0
100
AcDbBlockEnd
  0
BLOCK
  5
255
330
24E
100
AcDbEntity
  8
0
100
AcDbBlockBegin
  2
*D714
 70
     1
 71
     0
 10
0.0
 20
0.0
 30
0.0
  3
*D714
  1

  0
LINE
  5
24F
330
24E
100
AcDbEntity
  8
1
  6
Continuous
 62
     2
100
AcDbLine
 10
215.7131572168047
 20
264.2904805862785
 30
0.0
 11
215.7131572168047
 21
290.2904805862785
 31
0.0
  0
LINE
  5
250
330
24E
100
AcDbEntity
  8
1
  6
Continuous
 62
     2
100
AcDbLine
 10
195.7131572168047
 20
290.2904805862785
 30
0.0
 11
217.7131572168047
 21
290.2904805862785
 31
0.0
  0
LINE
  5
251
330
24E
100
AcDbEntity
  8
1
  6
Continuous
 62
     2
100
AcDbLine
 10
195.7131572168047
 20
264.2904805862785
 30
0.0
 11
217.7131572168047
 21
264.2904805862785
 31
0.0
  0
SOLID
  5
252
330
24E
100
AcDbEntity
  8
1
 62
     2
100
AcDbTrace
 10
214.7915897336929
 20
271.2904805862785
 30
0.0
 11
216.6347246999165
 21
271.2904805862785
 31
0.0
 12
215.7131572168047
 22
264.2904805862785
 32
0.0
 13
215.7131572168047
 23
264.2904805862785
 33
0.0
  0
SOLID
  5
253
330
24E
100
AcDbEntity
  8
1
 62
     2
100
AcDbTrace
 10
216.6347246999165
 20
283.2904805862785
 30
0.0
 11
214.7915897336929
 21
283.2904805862785
 31
0.0
 12
215.7131572168047
 22
290.2904805862785
 32
0.0
 13
215.7131572168047
 23
290.2904805862785
 33
0.0
  0
MTEXT
  5
254
330
24E
100
AcDbEntity
  8
1
 62
     7
100
AcDbMText
 10
213.7131572168047
 20
272.0404805862785
 30
0.0
 40
7.0
 41
0.0
 71
     7
 72
     1
  1
26
  7
CONVERTER_2
 11
0.0
 21
1.0
 31
0.0
 73
     1
 44
0.60024009603842
  0
ENDBLK
  5
256
330
24E
100
AcDbEntity
  8
0
100
AcDbBlockEnd
  0
ENDSEC
  0
SECTION
  2
ENTITIES
  0
INSERT
  5
49
330
1F
100
AcDbEntity
  8
1
100
AcDbBlockReference
  2
B4111L-0-13
 10
2022.858943412414
 20
202.9453701154545
 30
0.0
  0
INSERT
  5
4A
330
1F
100
AcDbEntity
  8
0
100
AcDbBlockReference
  2
B041A-24A-13
 10
1328.713157216816
 20
479.7904805862784
 30
0.0
  0
INSERT
  5
4B
330
1F
100
AcDbEntity
  8
1
100
AcDbBlockReference
  2
36-45A-M11
 10
564.6444253953814
 20
319.2651751284184
 30
0.0
  0
INSERT
  5
4C
330
1F
100
AcDbEntity
  8
0
100
AcDbBlockReference
  2
37-1-13
 10
68.91192700003364
 20
205.794774696134
 30
0.0
  0
INSERT
  5
4D
330
1F
100
AcDbEntity
  8
1
100
AcDbBlockReference
  2
_J__A4
 10
0.0
 20
0.0
 30
0.0
 41
2.0
 42
2.0
 43
2.0
  0
LINE
  5
1E8
330
1F
100
AcDbEntity
  8
0
  6
DASH_CENTER
 62
     2
100
AcDbLine
 10
312.7131572168169
 20
322.2904805862784
 30
0.0
 11
312.7131572168169
 21
261.2904805862785
 31
0.0
  0
LINE
  5
1E9
330
1F
100
AcDbEntity
  8
1
  6
DASH_CENTER
 62
     2
100
AcDbLine
 10
160.7131572168045
 20
322.2904805862785
 30
0.0
 11
160.7131572168046
 21
261.2904805862785
 31
0.0
  0
LINE
  5
1EA
330
1F
100
AcDbEntity
  8
0
  6
DASH_CENTER
 62
     2
100
AcDbLine
 10
124.7131572168046
 20
399.2904805862784
 30
0.0
 11
198.7131572168046
 21
399.2904805862784
 31
0.0
  0
LINE
  5
1EB
330
1F
100
AcDbEntity
  8
0
  6
DASH_CENTER
 62
     2
100
AcDbLine
 10
160.7131572168046
 20
437.7904805862662
 30
0.0
 11
160.7131572168046
 21
378.6545641174292
 31
0.0
  0
LINE
  5
1EC
330
1F
100
AcDbEntity
  8
0
  6
DASH_CENTER
 62
     2
100
AcDbLine
 10
295.2131572168169
 20
277.2904805862785
 30
0.0
 11
351.2131572168166
 21
277.2904805862785
 31
0.0
  0
LINE
  5
1ED
330
1F
100
AcDbEntity
  8
0
  6
DASH_CENTER
 62
     2
100
AcDbLine
 10
124.7131572168046
 20
277.2904805862785
 30
0.0
 11
198.7131572168047
 21
277.2904805862785
 31
0.0
  0
SOLID
  5
1EE
330
1F
100
AcDbEntity
  8
1
 62
     2
100
AcDbTrace
 10
128.4960563651281
 20
293.3693746712135
 30
0.0
 11
130.092258068481
 21
294.2909421543253
 31
0.0
 12
132.7941572168046
 22
287.7679805862784
 32
0.0
 13
132.7941572168046
 23
287.7679805862784
 33
0.0
  0
LEADER
  5
1EF
330
1F
100
AcDbEntity
  8
1
  6
Continuous
 62
     2
100
AcDbLeader
  3
Standard
 71
     0
 76
     3
 10
132.7941572168046
 20
287.7679805862784
 30
0.0
 10
126.5813146734503
 20
298.5289395307937
 30
0.0
 10
104.3043634994713
 20
298.5289395307937
 30
0.0
  0
SOLID
  5
1F0
330
1F
100
AcDbEntity
  8
0
 62
     2
100
AcDbTrace
 10
200.0112580684812
 20
261.1550240013434
 30
0.0
 11
198.4150563651283
 21
260.2334565182316
 31
0.0
 12
195.7131572168047
 22
266.7564180862785
 32
0.0
 13
195.7131572168047
 23
266.7564180862785
 33
0.0
  0
LEADER
  5
1F1
330
1F
100
AcDbEntity
  8
0
  6
Continuous
 62
     2
100
AcDbLeader
  3
Standard
 71
     0
 76
     3
 10
195.7131572168047
 20
266.7564180862785
 30
0.0
 10
208.683872280027
 20
244.2904805862785
 30
0.0
 10
239.8549620567242
 20
244.2904805862785
 30
0.0
  0
SOLID
  5
1F2
330
1F
100
AcDbEntity
  8
1
 62
     2
100
AcDbTrace
 10
145.9331833011472
 20
425.7730565045015
 30
0.0
 11
147.5293850045001
 21
426.6946239876133
 31
0.0
 12
150.2312841528237
 22
420.1716624195664
 32
0.0
 13
150.2312841528237
 23
420.1716624195664
 33
0.0
  0
LEADER
  5
1F3
330
1F
100
AcDbEntity
  8
1
  6
Continuous
 62
     2
100
AcDbLeader
  3
Standard
 71
     0
 76
     3
 10
150.2312841528237
 20
420.1716624195664
 30
0.0
 10
136.2096839487582
 20
444.457786376426
 30
0.0
 10
103.8983402354895
 20
444.457786376426
 30
0.0
  0
MTEXT
  5
1F4
330
1F
100
AcDbEntity
  8
1
 62
     7
100
AcDbMText
 10
114.0
 20
45.50000000000003
 30
0.0
 40
7.0
 41
0.0
 71
     5
 72
     1
  1
D式ストレート分岐バルブ
  7
CONVERTER_1
 73
     1
 44
0.7202881152461
  0
MTEXT
  5
1F6
330
1F
100
AcDbEntity
  8
1
 62
     7
100
AcDbMText
 10
114.0
 20
28.5
 30
0.0
 40
7.0
 41
0.0
 71
     5
 72
     1
  1
B4111D-R-13
  7
CONVERTER_2
 73
     1
 44
0.7202881152461
  0
MTEXT
  5
1F7
330
1F
100
AcDbEntity
  8
1
 62
     7
100
AcDbMText
 10
170.5
 20
34.0
 30
0.0
 40
7.0
 41
0.0
 71
     5
 72
     1
  1
1
  7
CONVERTER_2
 73
     1
 44
0.7202881152461
  0
MTEXT
  5
1F8
330
1F
100
AcDbEntity
  8
1
 62
     7
100
AcDbMText
 10
187.5
 20
34.0
 30
0.0
 40
7.0
 41
0.0
 71
     5
 72
     1
  1
2
  7
CONVERTER_2
 73
     1
 44
0.7202881152461
  0
MTEXT
  5
1F9
330
1F
100
AcDbEntity
  8
1
 62
     7
100
AcDbMText
 10
115.2131572168047
 20
304.0289395307937
 30
0.0
 40
7.0
 41
0.0
 71
     5
 72
     1
  1
G1/2
  7
CONVERTER_2
 73
     1
 44
0.7202881152461
  0
MTEXT
  5
1FA
330
1F
100
AcDbEntity
  8
1
 62
     7
100
AcDbMText
 10
224.6366599087013
 20
250.2904805862785
 30
0.0
 40
7.0
 41
0.0
 71
     5
 72
     1
  1
Rc1/2
  7
CONVERTER_2
 73
     1
 44
0.7202881152461
  0
MTEXT
  5
1FB
330
1F
100
AcDbEntity
  8
1
 62
     7
100
AcDbMText
 10
115.7034613717619
 20
449.957786376426
 30
0.0
 40
7.0
 41
0.0
 71
     5
 72
     1
  1
G1/2
  7
CONVERTER_2
 73
     1
 44
0.7202881152461
  0
MTEXT
  5
1FC
330
1F
100
AcDbEntity
  8
1
 62
     7
100
AcDbMText
 10
68.0
 20
75.0
 30
0.0
 40
7.0
 41
0.0
 71
     4
 72
     1
  1
JIS
  7
CONVERTER_2
 73
     1
 44
0.7202881152461
  0
MTEXT
  5
1FD
330
1F
100
AcDbEntity
  8
1
 62
     7
100
AcDbMText
 10
68.0
 20
61.00000000000001
 30
0.0
 40
7.0
 41
0.0
 71
     4
 72
     1
  1
共用形
  7
CONVERTER_1
 73
     1
 44
0.7202881152461
  0
DIMENSION
  5
209
330
1F
100
AcDbEntity
  8
1
100
AcDbDimension
  2
*D07
 10
149.2044110888456
 20
454.7904805862661
 30
0.0
 11
138.991456617601
 21
460.2904805862661
 31
0.0
  1
<>
 71
     5
 42
0.0
 53
0.00013888888889
  3
ME10_DIM_0
100
AcDbAlignedDimension
 13
172.2044110888458
 23
434.0583074626926
 33
0.0
 14
149.2044110888456
 24
434.0583074626928
 34
0.0
100
AcDbRotatedDimension
  0
DIMENSION
  5
214
330
1F
100
AcDbEntity
  8
0
100
AcDbDimension
  2
*D18
 10
127.7131572168046
 20
244.2904805862785
 30
0.0
 11
161.7131572168046
 21
249.7904805862785
 31
0.0
  1
<>
 71
     5
 42
0.0
 53
0.00013888888889
  3
ME10_DIM_1
100
AcDbAlignedDimension
 13
195.7131572168047
 23
264.2904805862785
 33
0.0
 14
127.7131572168046
 24
267.9524805862906
 34
0.0
100
AcDbRotatedDimension
  0
DIMENSION
  5
21F
330
1F
100
AcDbEntity
  8
0
100
AcDbDimension
  2
*D29
 10
127.7131572168046
 20
474.7904805862661
 30
0.0
 11
143.560775386457
 21
480.2904805862661
 31
0.0
  1
<>
 71
     5
 42
0.0
 53
0.00013888888889
  3
ME10_DIM_2
100
AcDbAlignedDimension
 13
160.7131572168046
 23
437.7904805862662
 33
0.0
 14
127.7131572168046
 24
408.6284805862786
 34
0.0
100
AcDbRotatedDimension
  0
DIMENSION
  5
22A
330
1F
100
AcDbEntity
  8
0
100
AcDbDimension
  2
*D310
 10
160.7131572168046
 20
474.7904805862663
 30
0.0
 11
178.972995845086
 21
480.2904805862663
 31
0.0
  1
<>
 71
     5
 42
0.0
 53
0.00013888888889
  3
ME10_DIM_3
100
AcDbAlignedDimension
 13
195.7131572168046
 23
410.5488108354753
 33
0.0
 14
160.7131572168046
 24
437.7904805862662
 34
0.0
100
AcDbRotatedDimension
  0
DIMENSION
  5
235
330
1F
100
AcDbEntity
  8
1
100
AcDbDimension
  2
*D411
 10
348.2131572168171
 20
244.2904805862785
 30
0.0
 11
329.645203058658
 21
249.7904805862785
 31
0.0
  1
36
 71
     5
 42
0.0
 53
0.00013888888889
  3
ME10_DIM_4
100
AcDbAlignedDimension
 13
312.7131572168169
 23
261.2904805862785
 33
0.0
 14
348.2131572168171
 24
266.2904805862785
 34
0.0
100
AcDbRotatedDimension
  0
DIMENSION
  5
240
330
1F
100
AcDbEntity
  8
1
100
AcDbDimension
  2
*D512
 10
364.920201827866
 20
277.2904805862785
 30
0.0
 11
359.420201827866
 21
306.299688910393
 31
0.0
  1
42リフト5
 71
     5
 42
0.0
 53
90.0
  3
ME10_DIM_5
100
AcDbAlignedDimension
 13
316.4631572168169
 23
319.2904805862784
 33
0.0
 14
351.2131572168166
 24
277.2904805862785
 34
0.0
 50
90.0
100
AcDbRotatedDimension
  0
DIMENSION
  5
24D
330
1F
100
AcDbEntity
  8
1
100
AcDbDimension
  2
*D613
 10
127.7131572168046
 20
368.8129805862784
 30
0.0
 11
147.796660969442
 21
374.3129805862784
 31
0.0
  1
<>
 71
     5
 42
0.0
 53
0.00013888888889
  3
ME10_DIM_6
100
AcDbAlignedDimension
 13
136.7131572168046
 23
388.8129805862784
 33
0.0
 14
127.7131572168046
 24
389.9524805862784
 34
0.0
100
AcDbRotatedDimension
  0
DIMENSION
  5
258
330
1F
100
AcDbEntity
  8
1
100
AcDbDimension
  2
*D714
 10
215.7131572168047
 20
264.2904805862785
 30
0.0
 11
210.2131572168047
 21
277.2904805862785
 31
0.0
 70
     1
  1
<>
 71
     5
 42
0.0
 53
90.0
  3
ME10_DIM_7
100
AcDbAlignedDimension
 13
195.7131572168047
 23
290.2904805862785
 33
0.0
 14
195.7131572168047
 24
264.2904805862785
 34
0.0
  0
ENDSEC
  0
SECTION
  2
OBJECTS
  0
DICTIONARY
  5
C
330
0
100
AcDbDictionary
281
     1
  3
ACAD_GROUP
350
D
  3
ACAD_LAYOUT
350
1A
  3
ACAD_MLINESTYLE
350
17
  3
ACAD_PLOTSETTINGS
350
19
  3
ACAD_PLOTSTYLENAME
350
E
  3
ACAD_TABLESTYLE
350
2A
  3
AcDbVariableDictionary
350
2C
  0
DICTIONARY
  5
D
102
{ACAD_REACTORS
330
C
102
}
330
C
100
AcDbDictionary
281
     1
  0
DICTIONARY
  5
1A
102
{ACAD_REACTORS
330
C
102
}
330
C
100
AcDbDictionary
281
     1
  3
Layout1
350
1E
  3
Layout2
350
26
  3
Model
350
22
  0
DICTIONARY
  5
17
102
{ACAD_REACTORS
330
C
102
}
330
C
100
AcDbDictionary
281
     1
  3
Standard
350
18
  0
DICTIONARY
  5
19
102
{ACAD_REACTORS
330
C
102
}
330
C
100
AcDbDictionary
281
     1
  0
ACDBDICTIONARYWDFLT
  5
E
102
{ACAD_REACTORS
330
C
102
}
330
C
100
AcDbDictionary
281
     1
  3
Normal
350
F
100
AcDbDictionaryWithDefault
340
F
  0
DICTIONARY
  5
2A
102
{ACAD_REACTORS
330
C
102
}
330
C
100
AcDbDictionary
281
     1
  3
Standard
350
2B
  0
DICTIONARY
  5
2C
102
{ACAD_REACTORS
330
C
102
}
330
C
100
AcDbDictionary
281
     1
  3
CTABLESTYLE
350
2D
  0
LAYOUT
  5
1E
102
{ACAD_REACTORS
330
1A
102
}
330
1A
100
AcDbPlotSettings
  1

  2

  4

  6

 40
0.0
 41
0.0
 42
0.0
 43
0.0
 44
0.0
 45
0.0
 46
0.0
 47
0.0
 48
0.0
 49
0.0
140
0.0
141
0.0
142
1.0
143
1.0
 70
   688
 72
     0
 73
     0
 74
     5
  7

 75
    16
147
1.0
148
0.0
149
0.0
100
AcDbLayout
  1
Layout1
 70
     1
 71
     1
 10
0.0
 20
0.0
 11
12.0
 21
9.0
 12
0.0
 22
0.0
 32
0.0
 14
1.00000000000000E+20
 24
1.00000000000000E+20
 34
1.00000000000000E+20
 15
-1.00000000000000E+20
 25
-1.00000000000000E+20
 35
-1.00000000000000E+20
146
0.0
 13
0.0
 23
0.0
 33
0.0
 16
1.0
 26
0.0
 36
0.0
 17
0.0
 27
1.0
 37
0.0
 76
     0
330
1B
  0
LAYOUT
  5
26
102
{ACAD_REACTORS
330
1A
102
}
330
1A
100
AcDbPlotSettings
  1

  2

  4

  6

 40
0.0
 41
0.0
 42
0.0
 43
0.0
 44
0.0
 45
0.0
 46
0.0
 47
0.0
 48
0.0
 49
0.0
140
0.0
141
0.0
142
1.0
143
1.0
 70
   688
 72
     0
 73
     0
 74
     5
  7

 75
    16
147
1.0
148
0.0
149
0.0
100
AcDbLayout
  1
Layout2
 70
     1
 71
     2
 10
0.0
 20
0.0
 11
0.0
 21
0.0
 12
0.0
 22
0.0
 32
0.0
 14
0.0
 24
0.0
 34
0.0
 15
0.0
 25
0.0
 35
0.0
146
0.0
 13
0.0
 23
0.0
 33
0.0
 16
1.0
 26
0.0
 36
0.0
 17
0.0
 27
1.0
 37
0.0
 76
     0
330
23
  0
LAYOUT
  5
22
102
{ACAD_REACTORS
330
1A
102
}
330
1A
100
AcDbPlotSettings
  1

  2

  4

  6

 40
0.0
 41
0.0
 42
0.0
 43
0.0
 44
0.0
 45
0.0
 46
0.0
 47
0.0
 48
0.0
 49
0.0
140
0.0
141
0.0
142
1.0
143
1.0
 70
  1712
 72
     0
 73
     0
 74
     0
  7

 75
     0
147
1.0
148
0.0
149
0.0
100
AcDbLayout
  1
Model
 70
     1
 71
     0
 10
0.0
 20
0.0
 11
0.0
 21
0.0
 12
0.0
 22
0.0
 32
0.0
 14
0.0
 24
0.0
 34
0.0
 15
420.0
 25
594.0
 35
0.0
146
0.0
 13
0.0
 23
0.0
 33
0.0
 16
1.0
 26
0.0
 36
0.0
 17
0.0
 27
1.0
 37
0.0
 76
     0
330
1F
  0
MLINESTYLE
  5
18
102
{ACAD_REACTORS
330
17
102
}
330
17
100
AcDbMlineStyle
  2
Standard
 70
     0
  3

 62
   256
 51
90.0
 52
90.0
 71
     2
 49
0.5
 62
   256
  6
BYLAYER
 49
-0.5
 62
   256
  6
BYLAYER
  0
ACDBPLACEHOLDER
  5
F
102
{ACAD_REACTORS
330
E
102
}
330
E
  0
TABLESTYLE
  5
2B
102
{ACAD_REACTORS
330
2A
102
}
330
2A
100
AcDbTableStyle
  3
Standard
 70
     0
 71
     0
 40
0.06
 41
0.06
280
     0
281
     0
  7
Standard
140
0.18
170
     2
 62
     0
 63
     7
283
     0
274
    -2
284
     1
 64
     0
275
    -2
285
     1
 65
     0
276
    -2
286
     1
 66
     0
277
    -2
287
     1
 67
     0
278
    -2
288
     1
 68
     0
279
    -2
289
     1
 69
     0
  7
Standard
140
0.25
170
     5
 62
     0
 63
     7
283
     0
274
    -2
284
     1
 64
     0
275
    -2
285
     1
 65
     0
276
    -2
286
     1
 66
     0
277
    -2
287
     1
 67
     0
278
    -2
288
     1
 68
     0
279
    -2
289
     1
 69
     0
  7
Standard
140
0.18
170
     5
 62
     0
 63
     7
283
     0
274
    -2
284
     1
 64
     0
275
    -2
285
     1
 65
     0
276
    -2
286
     1
 66
     0
277
    -2
287
     1
 67
     0
278
    -2
288
     1
 68
     0
279
    -2
289
     1
 69
     0
  0
DICTIONARYVAR
  5
2D
102
{ACAD_REACTORS
330
2C
102
}
330
2C
100
DictionaryVariables
280
     0
  1
Standard
  0
ENDSEC
  0
EOF
