  0
SECTION
  2
HEADER
  9
$ACADVER
  1
AC1015
  9
$ACADMAINTVER
 70
     6
  9
$DWGCODEPAGE
  3
DOS932
  9
$INSBASE
 10
0.0
 20
0.0
 30
0.0
  9
$EXTMIN
 10
0.0
 20
0.0
 30
0.0
  9
$EXTMAX
 10
420.0
 20
594.0
 30
0.0
  9
$LIMMIN
 10
0.0
 20
0.0
  9
$LIMMAX
 10
12.0
 20
9.0
  9
$ORTHOMODE
 70
     0
  9
$REGENMODE
 70
     1
  9
$FILLMODE
 70
     1
  9
$QTEXTMODE
 70
     0
  9
$MIRRTEXT
 70
     1
  9
$LTSCALE
 40
1.0
  9
$ATTMODE
 70
     1
  9
$TEXTSIZE
 40
0.2
  9
$TRACEWID
 40
0.05
  9
$TEXTSTYLE
  7
Standard
  9
$CLAYER
  8
0
  9
$CELTYPE
  6
ByLayer
  9
$CECOLOR
 62
   256
  9
$CELTSCALE
 40
1.0
  9
$DISPSILH
 70
     0
  9
$DIMSCALE
 40
1.0
  9
$DIMASZ
 40
0.18
  9
$DIMEXO
 40
0.0625
  9
$DIMDLI
 40
0.38
  9
$DIMRND
 40
0.0
  9
$DIMDLE
 40
0.0
  9
$DIMEXE
 40
0.18
  9
$DIMTP
 40
0.0
  9
$DIMTM
 40
0.0
  9
$DIMTXT
 40
0.18
  9
$DIMCEN
 40
0.09
  9
$DIMTSZ
 40
0.0
  9
$DIMTOL
 70
     0
  9
$DIMLIM
 70
     0
  9
$DIMTIH
 70
     1
  9
$DIMTOH
 70
     1
  9
$DIMSE1
 70
     0
  9
$DIMSE2
 70
     0
  9
$DIMTAD
 70
     0
  9
$DIMZIN
 70
     0
  9
$DIMBLK
  1

  9
$DIMASO
 70
     1
  9
$DIMSHO
 70
     1
  9
$DIMPOST
  1

  9
$DIMAPOST
  1

  9
$DIMALT
 70
     0
  9
$DIMALTD
 70
     2
  9
$DIMALTF
 40
25.4
  9
$DIMLFAC
 40
1.0
  9
$DIMTOFL
 70
     0
  9
$DIMTVP
 40
0.0
  9
$DIMTIX
 70
     0
  9
$DIMSOXD
 70
     0
  9
$DIMSAH
 70
     0
  9
$DIMBLK1
  1

  9
$DIMBLK2
  1

  9
$DIMSTYLE
  2
Standard
  9
$DIMCLRD
 70
     0
  9
$DIMCLRE
 70
     0
  9
$DIMCLRT
 70
     0
  9
$DIMTFAC
 40
1.0
  9
$DIMGAP
 40
0.09
  9
$DIMJUST
 70
     0
  9
$DIMSD1
 70
     0
  9
$DIMSD2
 70
     0
  9
$DIMTOLJ
 70
     1
  9
$DIMTZIN
 70
     0
  9
$DIMALTZ
 70
     0
  9
$DIMALTTZ
 70
     0
  9
$DIMUPT
 70
     0
  9
$DIMDEC
 70
     4
  9
$DIMTDEC
 70
     4
  9
$DIMALTU
 70
     2
  9
$DIMALTTD
 70
     2
  9
$DIMTXSTY
  7
Standard
  9
$DIMAUNIT
 70
     0
  9
$DIMADEC
 70
     0
  9
$DIMALTRND
 40
0.0
  9
$DIMAZIN
 70
     0
  9
$DIMDSEP
 70
    46
  9
$DIMATFIT
 70
     3
  9
$DIMFRAC
 70
     0
  9
$DIMLDRBLK
  1

  9
$DIMLUNIT
 70
     2
  9
$DIMLWD
 70
    -2
  9
$DIMLWE
 70
    -2
  9
$DIMTMOVE
 70
     0
  9
$LUNITS
 70
     2
  9
$LUPREC
 70
     4
  9
$SKETCHINC
 40
0.1
  9
$FILLETRAD
 40
0.5
  9
$AUNITS
 70
     0
  9
$AUPREC
 70
     0
  9
$MENU
  1
.
  9
$ELEVATION
 40
0.0
  9
$PELEVATION
 40
0.0
  9
$THICKNESS
 40
0.0
  9
$LIMCHECK
 70
     0
  9
$CHAMFERA
 40
0.5
  9
$CHAMFERB
 40
0.5
  9
$CHAMFERC
 40
1.0
  9
$CHAMFERD
 40
0.0
  9
$SKPOLY
 70
     0
  9
$TDCREATE
 40
2456141.636050347
  9
$TDUCREATE
 40
2456141.261050347
  9
$TDUPDATE
 40
2456141.636050359
  9
$TDUUPDATE
 40
2456141.261050359
  9
$TDINDWG
 40
0.0000000116
  9
$TDUSRTIMER
 40
0.0000000116
  9
$USRTIMER
 70
     1
  9
$ANGBASE
 50
0.0
  9
$ANGDIR
 70
     0
  9
$PDMODE
 70
     0
  9
$PDSIZE
 40
0.0
  9
$PLINEWID
 40
0.0
  9
$SPLFRAME
 70
     0
  9
$SPLINETYPE
 70
     6
  9
$SPLINESEGS
 70
     8
  9
$HANDSEED
  5
21E
  9
$SURFTAB1
 70
     6
  9
$SURFTAB2
 70
     6
  9
$SURFTYPE
 70
     6
  9
$SURFU
 70
     6
  9
$SURFV
 70
     6
  9
$UCSBASE
  2

  9
$UCSNAME
  2

  9
$UCSORG
 10
0.0
 20
0.0
 30
0.0
  9
$UCSXDIR
 10
1.0
 20
0.0
 30
0.0
  9
$UCSYDIR
 10
0.0
 20
1.0
 30
0.0
  9
$UCSORTHOREF
  2

  9
$UCSORTHOVIEW
 70
     0
  9
$UCSORGTOP
 10
0.0
 20
0.0
 30
0.0
  9
$UCSORGBOTTOM
 10
0.0
 20
0.0
 30
0.0
  9
$UCSORGLEFT
 10
0.0
 20
0.0
 30
0.0
  9
$UCSORGRIGHT
 10
0.0
 20
0.0
 30
0.0
  9
$UCSORGFRONT
 10
0.0
 20
0.0
 30
0.0
  9
$UCSORGBACK
 10
0.0
 20
0.0
 30
0.0
  9
$PUCSBASE
  2

  9
$PUCSNAME
  2

  9
$PUCSORG
 10
0.0
 20
0.0
 30
0.0
  9
$PUCSXDIR
 10
1.0
 20
0.0
 30
0.0
  9
$PUCSYDIR
 10
0.0
 20
1.0
 30
0.0
  9
$PUCSORTHOREF
  2

  9
$PUCSORTHOVIEW
 70
     0
  9
$PUCSORGTOP
 10
0.0
 20
0.0
 30
0.0
  9
$PUCSORGBOTTOM
 10
0.0
 20
0.0
 30
0.0
  9
$PUCSORGLEFT
 10
0.0
 20
0.0
 30
0.0
  9
$PUCSORGRIGHT
 10
0.0
 20
0.0
 30
0.0
  9
$PUCSORGFRONT
 10
0.0
 20
0.0
 30
0.0
  9
$PUCSORGBACK
 10
0.0
 20
0.0
 30
0.0
  9
$USERI1
 70
     0
  9
$USERI2
 70
     0
  9
$USERI3
 70
     0
  9
$USERI4
 70
     0
  9
$USERI5
 70
     0
  9
$USERR1
 40
13.2
  9
$USERR2
 40
0.0
  9
$USERR3
 40
0.0
  9
$USERR4
 40
0.0
  9
$USERR5
 40
0.0
  9
$WORLDVIEW
 70
     1
  9
$SHADEDGE
 70
     3
  9
$SHADEDIF
 70
    70
  9
$TILEMODE
 70
     1
  9
$MAXACTVP
 70
    64
  9
$PINSBASE
 10
0.0
 20
0.0
 30
0.0
  9
$PLIMCHECK
 70
     0
  9
$PEXTMIN
 10
1.00000000000000E+20
 20
1.00000000000000E+20
 30
1.00000000000000E+20
  9
$PEXTMAX
 10
-1.00000000000000E+20
 20
-1.00000000000000E+20
 30
-1.00000000000000E+20
  9
$PLIMMIN
 10
0.0
 20
0.0
  9
$PLIMMAX
 10
12.0
 20
9.0
  9
$UNITMODE
 70
     0
  9
$VISRETAIN
 70
     1
  9
$PLINEGEN
 70
     0
  9
$PSLTSCALE
 70
     1
  9
$TREEDEPTH
 70
  3020
  9
$CMLSTYLE
  2
Standard
  9
$CMLJUST
 70
     0
  9
$CMLSCALE
 40
1.0
  9
$PROXYGRAPHICS
 70
     1
  9
$MEASUREMENT
 70
     1
  9
$CELWEIGHT
370
    -1
  9
$ENDCAPS
280
     0
  9
$JOINSTYLE
280
     0
  9
$LWDISPLAY
290
     0
  9
$INSUNITS
 70
     1
  9
$HYPERLINKBASE
  1

  9
$STYLESHEET
  1

  9
$XEDIT
290
     1
  9
$CEPSNTYPE
380
     0
  9
$PSTYLEMODE
290
     0
  9
$FINGERPRINTGUID
  2
{FAEB1C30-E019-11D5-929B-00C0DF256EC4}
  9
$VERSIONGUID
  2
{FAEB1C32-E019-11D5-929B-00C0DF256EC4}
  9
$EXTNAMES
290
     1
  9
$PSVPSCALE
 40
0.0
  9
$OLESTARTUP
290
     0
  0
ENDSEC
  0
SECTION
  2
CLASSES
  0
CLASS
  1
ACDBDICTIONARYWDFLT
  2
AcDbDictionaryWithDefault
  3
ObjectDBX Classes
 90
        0
280
     0
281
     0
  0
CLASS
  1
TABLESTYLE
  2
AcDbTableStyle
  3
ObjectDBX Classes
 90
     2047
280
     0
281
     0
  0
CLASS
  1
DICTIONARYVAR
  2
AcDbDictionaryVar
  3
ObjectDBX Classes
 90
        0
280
     0
281
     0
  0
CLASS
  1

  2
exOdDbCircle
  3

 90
        0
280
     0
281
     1
  0
CLASS
  1

  2
exOdDbSpline
  3

 90
        0
280
     0
281
     1
  0
CLASS
  1
ACDBPLACEHOLDER
  2
AcDbPlaceHolder
  3
ObjectDBX Classes
 90
        0
280
     0
281
     0
  0
CLASS
  1
LAYOUT
  2
AcDbLayout
  3
ObjectDBX Classes
 90
        0
280
     0
281
     0
  0
ENDSEC
  0
SECTION
  2
TABLES
  0
TABLE
  2
VPORT
  5
8
330
0
100
AcDbSymbolTable
 70
     2
  0
VPORT
  5
29
330
8
100
AcDbSymbolTableRecord
100
AcDbViewportTableRecord
  2
*Active
 70
     0
 10
0.0
 20
0.0
 11
1.0
 21
1.0
 12
210.0
 22
297.0
 13
0.0
 23
0.0
 14
0.5
 24
0.5
 15
0.5
 25
0.5
 16
0.0
 26
0.0
 36
1.0
 17
0.0
 27
0.0
 37
0.0
 40
653.4000000000001
 41
1.60267857142857
 42
50.0
 43
0.0
 44
0.0
 50
0.0
 51
0.0
 71
     0
 72
   100
 73
     1
 74
     3
 75
     0
 76
     0
 77
     0
 78
     0
281
     0
 65
     1
110
0.0
120
0.0
130
0.0
111
1.0
121
0.0
131
0.0
112
0.0
122
1.0
132
0.0
 79
     0
146
0.0
  0
ENDTAB
  0
TABLE
  2
LTYPE
  5
5
330
0
100
AcDbSymbolTable
 70
     8
  0
LTYPE
  5
14
330
5
100
AcDbSymbolTableRecord
100
AcDbLinetypeTableRecord
  2
ByBlock
 70
     0
  3

 72
    65
 73
     0
 40
0.0
  0
LTYPE
  5
15
330
5
100
AcDbSymbolTableRecord
100
AcDbLinetypeTableRecord
  2
ByLayer
 70
     0
  3

 72
    65
 73
     0
 40
0.0
  0
LTYPE
  5
16
330
5
100
AcDbSymbolTableRecord
100
AcDbLinetypeTableRecord
  2
Continuous
 70
     0
  3
Solid line
 72
    65
 73
     0
 40
0.0
  0
LTYPE
  5
2E
330
5
100
AcDbSymbolTableRecord
100
AcDbLinetypeTableRecord
  2
DASHED
 70
     0
  3
Dashed
 72
    65
 73
     2
 40
15.0
 49
7.0
 74
     0
 49
-8.0
 74
     0
  0
LTYPE
  5
2F
330
5
100
AcDbSymbolTableRecord
100
AcDbLinetypeTableRecord
  2
DOTTED
 70
     0
  3
Dotted
 72
    65
 73
     2
 40
1.0
 49
0.0
 74
     0
 49
-1.0
 74
     0
  0
LTYPE
  5
30
330
5
100
AcDbSymbolTableRecord
100
AcDbLinetypeTableRecord
  2
DOT_CENTER
 70
     0
  3
Dot_Center
 72
    65
 73
     4
 40
14.0
 49
12.0
 74
     0
 49
-1.0
 74
     0
 49
0.0
 74
     0
 49
-1.0
 74
     0
  0
LTYPE
  5
31
330
5
100
AcDbSymbolTableRecord
100
AcDbLinetypeTableRecord
  2
LONG_DASHED
 70
     0
  3
Long_Dashed
 72
    65
 73
     2
 40
15.0
 49
10.0
 74
     0
 49
-5.0
 74
     0
  0
LTYPE
  5
32
330
5
100
AcDbSymbolTableRecord
100
AcDbLinetypeTableRecord
  2
DASH_CENTER
 70
     0
  3
Dash_Center
 72
    65
 73
     4
 40
14.0
 49
11.0
 74
     0
 49
-1.0
 74
     0
 49
1.0
 74
     0
 49
-1.0
 74
     0
  0
LTYPE
  5
33
330
5
100
AcDbSymbolTableRecord
100
AcDbLinetypeTableRecord
  2
PHANTOM
 70
     0
  3
Phantom
 72
    65
 73
     6
 40
13.0
 49
10.0
 74
     0
 49
-1.0
 74
     0
 49
0.0
 74
     0
 49
-1.0
 74
     0
 49
0.0
 74
     0
 49
-1.0
 74
     0
  0
LTYPE
  5
34
330
5
100
AcDbSymbolTableRecord
100
AcDbLinetypeTableRecord
  2
CENTER_DASH_DASH
 70
     0
  3
Center_Dash_Dash
 72
    65
 73
     6
 40
14.0
 49
9.0
 74
     0
 49
-1.0
 74
     0
 49
1.0
 74
     0
 49
-1.0
 74
     0
 49
1.0
 74
     0
 49
-1.0
 74
     0
  0
ENDTAB
  0
TABLE
  2
LAYER
  5
2
330
0
100
AcDbSymbolTable
 70
     2
  0
LAYER
  5
10
330
2
100
AcDbSymbolTableRecord
100
AcDbLayerTableRecord
  2
0
 70
     0
 62
     7
  6
Continuous
370
    -3
390
F
  0
LAYER
  5
35
330
2
100
AcDbSymbolTableRecord
100
AcDbLayerTableRecord
  2
1
 70
     0
 62
     7
  6
Continuous
370
    -3
390
F
  0
ENDTAB
  0
TABLE
  2
STYLE
  5
3
330
0
100
AcDbSymbolTable
 70
     3
  0
STYLE
  5
11
330
3
100
AcDbSymbolTableRecord
100
AcDbTextStyleTableRecord
  2
Standard
 70
     0
 40
0.0
 41
1.0
 50
0.0
 71
     0
 42
0.2
  3
txt
  4

  0
STYLE
  5
9D
330
3
100
AcDbSymbolTableRecord
100
AcDbTextStyleTableRecord
  2
CONVERTER_1
 70
     0
 40
0.0
 41
0.89
 50
0.0
 71
     0
 42
0.2
  3
msmincho.ttc
  4

1001
ACAD
1000
MS Mincho
1071
    32785
  0
STYLE
  5
1DC
330
3
100
AcDbSymbolTableRecord
100
AcDbTextStyleTableRecord
  2
CONVERTER_2
 70
     0
 40
0.0
 41
0.9
 50
0.0
 71
     0
 42
0.2
  3
txt.shx
  4

  0
ENDTAB
  0
TABLE
  2
VIEW
  5
6
330
0
100
AcDbSymbolTable
 70
     0
  0
ENDTAB
  0
TABLE
  2
UCS
  5
7
330
0
100
AcDbSymbolTable
 70
     0
  0
ENDTAB
  0
TABLE
  2
APPID
  5
9
330
0
100
AcDbSymbolTable
 70
     1
  0
APPID
  5
12
330
9
100
AcDbSymbolTableRecord
100
AcDbRegAppTableRecord
  2
ACAD
 70
     0
  0
ENDTAB
  0
TABLE
  2
DIMSTYLE
  5
A
330
0
100
AcDbSymbolTable
 70
     6
100
AcDbDimStyleTable
  0
DIMSTYLE
105
27
330
A
100
AcDbSymbolTableRecord
100
AcDbDimStyleTableRecord
  2
Standard
 70
     0
340
11
  0
DIMSTYLE
105
1F0
102
{ACAD_REACTORS
330
1F1
102
}
330
A
100
AcDbSymbolTableRecord
100
AcDbDimStyleTableRecord
  2
ME10_DIM_0
 70
     0
 41
7.0
 42
0.0
 44
2.0
 73
     0
 74
     0
 77
     1
 78
     8
140
7.0
147
0.625
172
     1
173
     1
176
     2
177
     2
178
     7
271
     2
340
1DC
  0
DIMSTYLE
105
1FB
102
{ACAD_REACTORS
330
1FC
102
}
330
A
100
AcDbSymbolTableRecord
100
AcDbDimStyleTableRecord
  2
ME10_DIM_1
 70
     0
 41
7.0
 42
0.0
 44
2.0
 73
     0
 74
     0
 77
     1
 78
     8
140
7.0
147
0.625
172
     1
173
     1
176
     2
177
     2
178
     7
271
     2
340
1DC
  0
DIMSTYLE
105
206
102
{ACAD_REACTORS
330
207
102
}
330
A
100
AcDbSymbolTableRecord
100
AcDbDimStyleTableRecord
  2
ME10_DIM_2
 70
     0
 41
7.0
 42
0.0
 44
2.0
 73
     0
 74
     0
 77
     1
 78
     8
140
7.0
147
0.625
172
     1
173
     1
176
     2
177
     2
178
     7
271
     2
340
9D
  0
DIMSTYLE
105
211
102
{ACAD_REACTORS
330
212
102
}
330
A
100
AcDbSymbolTableRecord
100
AcDbDimStyleTableRecord
  2
ME10_DIM_3
 70
     0
 41
7.0
 42
0.0
 44
2.0
 73
     0
 74
     0
 77
     1
 78
     8
140
7.0
147
0.625
172
     1
173
     1
176
     2
177
     2
178
     7
271
     2
340
1DC
  0
DIMSTYLE
105
21C
102
{ACAD_REACTORS
330
21D
102
}
330
A
100
AcDbSymbolTableRecord
100
AcDbDimStyleTableRecord
  2
ME10_DIM_4
 70
     0
 41
7.0
 42
0.0
 44
2.0
 77
     1
 78
     8
140
7.0
147
0.625
172
     1
173
     1
176
     2
177
     2
178
     7
271
     2
340
1DC
  0
ENDTAB
  0
TABLE
  2
BLOCK_RECORD
  5
1
330
0
100
AcDbSymbolTable
 70
    13
  0
BLOCK_RECORD
  5
1F
330
1
100
AcDbSymbolTableRecord
100
AcDbBlockTableRecord
  2
*Model_Space
340
22
  0
BLOCK_RECORD
  5
1B
330
1
100
AcDbSymbolTableRecord
100
AcDbBlockTableRecord
  2
*Paper_Space
340
1E
  0
BLOCK_RECORD
  5
23
330
1
100
AcDbSymbolTableRecord
100
AcDbBlockTableRecord
  2
*Paper_Space0
340
26
  0
BLOCK_RECORD
  5
36
330
1
100
AcDbSymbolTableRecord
100
AcDbBlockTableRecord
  2
_J__A4
340
0
102
{BLKREFS
331
4B
102
}
  0
BLOCK_RECORD
  5
39
330
1
100
AcDbSymbolTableRecord
100
AcDbBlockTableRecord
  2
37-1-13
340
0
102
{BLKREFS
331
4C
102
}
  0
BLOCK_RECORD
  5
3C
330
1
100
AcDbSymbolTableRecord
100
AcDbBlockTableRecord
  2
B4112L-0A-13-M11
340
0
102
{BLKREFS
331
4D
102
}
  0
BLOCK_RECORD
  5
3F
330
1
100
AcDbSymbolTableRecord
100
AcDbBlockTableRecord
  2
21-1A
340
0
102
{BLKREFS
331
4E
102
}
  0
BLOCK_RECORD
  5
42
330
1
100
AcDbSymbolTableRecord
100
AcDbBlockTableRecord
  2
42-15
340
0
102
{BLKREFS
331
4F
102
}
  0
BLOCK_RECORD
  5
45
330
1
100
AcDbSymbolTableRecord
100
AcDbBlockTableRecord
  2
36-54-M11
340
0
102
{BLKREFS
331
50
102
}
  0
BLOCK_RECORD
  5
48
330
1
100
AcDbSymbolTableRecord
100
AcDbBlockTableRecord
  2
32-213
340
0
102
{BLKREFS
331
51
102
}
  0
BLOCK_RECORD
  5
1E5
330
1
100
AcDbSymbolTableRecord
100
AcDbBlockTableRecord
  2
*D08
340
0
  0
BLOCK_RECORD
  5
1F2
330
1
100
AcDbSymbolTableRecord
100
AcDbBlockTableRecord
  2
*D19
340
0
  0
BLOCK_RECORD
  5
1FD
330
1
100
AcDbSymbolTableRecord
100
AcDbBlockTableRecord
  2
*D210
340
0
  0
BLOCK_RECORD
  5
208
330
1
100
AcDbSymbolTableRecord
100
AcDbBlockTableRecord
  2
*D311
340
0
  0
BLOCK_RECORD
  5
213
330
1
100
AcDbSymbolTableRecord
100
AcDbBlockTableRecord
  2
*D412
340
0
  0
ENDTAB
  0
ENDSEC
  0
SECTION
  2
BLOCKS
  0
BLOCK
  5
20
330
1F
100
AcDbEntity
  8
0
100
AcDbBlockBegin
  2
*Model_Space
 70
     0
 71
     0
 10
0.0
 20
0.0
 30
0.0
  3
*Model_Space
  1

  0
ENDBLK
  5
21
330
1F
100
AcDbEntity
  8
0
100
AcDbBlockEnd
  0
BLOCK
  5
1C
330
1B
100
AcDbEntity
 67
     1
  8
0
100
AcDbBlockBegin
  2
*Paper_Space
 70
     0
 71
     0
 10
0.0
 20
0.0
 30
0.0
  3
*Paper_Space
  1

  0
ENDBLK
  5
1D
330
1B
100
AcDbEntity
 67
     1
  8
0
100
AcDbBlockEnd
  0
BLOCK
  5
24
330
23
100
AcDbEntity
  8
0
100
AcDbBlockBegin
  2
*Paper_Space0
 70
     0
 71
     0
 10
0.0
 20
0.0
 30
0.0
  3
*Paper_Space0
  1

  0
ENDBLK
  5
25
330
23
100
AcDbEntity
  8
0
100
AcDbBlockEnd
  0
BLOCK
  5
37
330
36
100
AcDbEntity
  8
0
100
AcDbBlockBegin
  2
_J__A4
 70
     0
 71
     0
 10
0.0
 20
0.0
 30
0.0
  3
_J__A4
  1

  0
POINT
  5
52
330
36
100
AcDbEntity
  8
1
 62
     4
100
AcDbPoint
 10
34.0
 20
34.0
 30
0.0
  0
POINT
  5
53
330
36
100
AcDbEntity
  8
1
 62
     4
100
AcDbPoint
 10
57.0
 20
12.25
 30
0.0
  0
POINT
  5
54
330
36
100
AcDbEntity
  8
1
 62
     4
100
AcDbPoint
 10
57.0
 20
20.75000000000001
 30
0.0
  0
POINT
  5
55
330
36
100
AcDbEntity
  8
1
 62
     4
100
AcDbPoint
 10
57.0
 20
24.75000000000001
 30
0.0
  0
POINT
  5
56
330
36
100
AcDbEntity
  8
1
 62
     4
100
AcDbPoint
 10
57.0
 20
16.25
 30
0.0
  0
POINT
  5
57
330
36
100
AcDbEntity
  8
1
 62
     4
100
AcDbPoint
 10
157.5
 20
19.00000000000001
 30
0.0
  0
POINT
  5
58
330
36
100
AcDbEntity
  8
1
 62
     4
100
AcDbPoint
 10
47.5
 20
282.0000000000003
 30
0.0
  0
POINT
  5
59
330
36
100
AcDbEntity
  8
1
 62
     4
100
AcDbPoint
 10
57.0
 20
22.75000000000001
 30
0.0
  0
POINT
  5
5A
330
36
100
AcDbEntity
  8
1
 62
     4
100
AcDbPoint
 10
57.0
 20
14.25
 30
0.0
  0
POINT
  5
5B
330
36
100
AcDbEntity
  8
1
 62
     4
100
AcDbPoint
 10
157.5
 20
12.5
 30
0.0
  0
POINT
  5
5C
330
36
100
AcDbEntity
  8
1
 62
     4
100
AcDbPoint
 10
163.25
 20
12.5
 30
0.0
  0
POINT
  5
5D
330
36
100
AcDbEntity
  8
1
 62
     4
100
AcDbPoint
 10
151.75
 20
12.5
 30
0.0
  0
POINT
  5
5E
330
36
100
AcDbEntity
  8
1
 62
     4
100
AcDbPoint
 10
134.75
 20
12.5
 30
0.0
  0
POINT
  5
5F
330
36
100
AcDbEntity
  8
1
 62
     4
100
AcDbPoint
 10
146.25
 20
12.5
 30
0.0
  0
POINT
  5
60
330
36
100
AcDbEntity
  8
1
 62
     4
100
AcDbPoint
 10
140.5
 20
12.5
 30
0.0
  0
POINT
  5
61
330
36
100
AcDbEntity
  8
1
 62
     4
100
AcDbPoint
 10
140.5
 20
19.00000000000001
 30
0.0
  0
POINT
  5
62
330
36
100
AcDbEntity
  8
1
 62
     4
100
AcDbPoint
 10
117.75
 20
12.5
 30
0.0
  0
POINT
  5
63
330
36
100
AcDbEntity
  8
1
 62
     4
100
AcDbPoint
 10
129.25
 20
12.5
 30
0.0
  0
POINT
  5
64
330
36
100
AcDbEntity
  8
1
 62
     4
100
AcDbPoint
 10
123.5
 20
12.5
 30
0.0
  0
POINT
  5
65
330
36
100
AcDbEntity
  8
1
 62
     4
100
AcDbPoint
 10
123.5
 20
19.00000000000001
 30
0.0
  0
POINT
  5
66
330
36
100
AcDbEntity
  8
1
 62
     4
100
AcDbPoint
 10
100.75
 20
12.5
 30
0.0
  0
POINT
  5
67
330
36
100
AcDbEntity
  8
1
 62
     4
100
AcDbPoint
 10
112.25
 20
12.5
 30
0.0
  0
POINT
  5
68
330
36
100
AcDbEntity
  8
1
 62
     4
100
AcDbPoint
 10
106.5
 20
12.5
 30
0.0
  0
POINT
  5
69
330
36
100
AcDbEntity
  8
1
 62
     4
100
AcDbPoint
 10
106.5
 20
19.00000000000001
 30
0.0
  0
POINT
  5
6A
330
36
100
AcDbEntity
  8
1
 62
     4
100
AcDbPoint
 10
85.25
 20
17.0
 30
0.0
  0
POINT
  5
6B
330
36
100
AcDbEntity
  8
1
 62
     4
100
AcDbPoint
 10
93.75
 20
17.0
 30
0.0
  0
LINE
  5
6C
330
36
100
AcDbEntity
  8
1
  6
Continuous
 62
     2
100
AcDbLine
 10
81.0
 20
27.00000000000001
 30
0.0
 11
81.0
 21
10.0
 31
0.0
  0
LINE
  5
6D
330
36
100
AcDbEntity
  8
1
  6
DOT_CENTER
 62
     2
100
AcDbLine
 10
187.0
 20
26.50000000000001
 30
0.0
 11
187.0
 21
20.50000000000001
 31
0.0
  0
LINE
  5
6E
330
36
100
AcDbEntity
  8
1
  6
DOT_CENTER
 62
     2
100
AcDbLine
 10
184.0
 20
23.50000000000001
 30
0.0
 11
197.0
 21
23.50000000000001
 31
0.0
  0
LINE
  5
6F
330
36
100
AcDbEntity
  8
1
  6
Continuous
 62
     7
100
AcDbLine
 10
196.0
 20
21.50000000000001
 30
0.0
 11
191.0
 21
22.30000000000001
 31
0.0
  0
LINE
  5
70
330
36
100
AcDbEntity
  8
1
  6
Continuous
 62
     7
100
AcDbLine
 10
196.0
 20
25.50000000000001
 30
0.0
 11
196.0
 21
21.50000000000001
 31
0.0
  0
LINE
  5
71
330
36
100
AcDbEntity
  8
1
  6
Continuous
 62
     7
100
AcDbLine
 10
191.0
 20
24.70000000000001
 30
0.0
 11
196.0
 21
25.50000000000001
 31
0.0
  0
LINE
  5
72
330
36
100
AcDbEntity
  8
1
  6
Continuous
 62
     7
100
AcDbLine
 10
191.0
 20
24.70000000000001
 30
0.0
 11
191.0
 21
22.30000000000001
 31
0.0
  0
LINE
  5
73
330
36
100
AcDbEntity
  8
1
  6
Continuous
 62
     2
100
AcDbLine
 10
33.0
 20
27.0
 30
0.0
 11
33.0
 21
10.0
 31
0.0
  0
LINE
  5
74
330
36
100
AcDbEntity
  8
1
  6
Continuous
 62
     2
100
AcDbLine
 10
25.0
 20
18.50000000000001
 30
0.0
 11
81.0
 21
18.50000000000001
 31
0.0
  0
LINE
  5
75
330
36
100
AcDbEntity
  8
1
  6
Continuous
 62
     7
100
AcDbLine
 10
200.0
 20
287.0000000000003
 30
0.0
 11
105.0
 21
287.0000000000003
 31
0.0
  0
LINE
  5
76
330
36
100
AcDbEntity
  8
1
  6
Continuous
 62
     7
100
AcDbLine
 10
200.0
 20
10.0
 30
0.0
 11
200.0
 21
148.5
 31
0.0
  0
LINE
  5
77
330
36
100
AcDbEntity
  8
1
  6
Continuous
 62
     7
100
AcDbLine
 10
25.0
 20
10.0
 30
0.0
 11
105.0
 21
10.0
 31
0.0
  0
LINE
  5
78
330
36
100
AcDbEntity
  8
1
  6
PHANTOM
 62
     4
100
AcDbLine
 10
0.0
 20
297.0
 30
0.0
 11
0.0
 21
0.0
 31
0.0
  0
LINE
  5
79
330
36
100
AcDbEntity
  8
1
  6
PHANTOM
 62
     4
100
AcDbLine
 10
210.0
 20
297.0
 30
0.0
 11
0.0
 21
297.0
 31
0.0
  0
LINE
  5
7A
330
36
100
AcDbEntity
  8
1
  6
PHANTOM
 62
     4
100
AcDbLine
 10
210.0
 20
0.0
 30
0.0
 11
210.0
 21
297.0
 31
0.0
  0
LINE
  5
7B
330
36
100
AcDbEntity
  8
1
  6
PHANTOM
 62
     4
100
AcDbLine
 10
0.0
 20
0.0
 30
0.0
 11
210.0
 21
0.0
 31
0.0
  0
LINE
  5
7C
330
36
100
AcDbEntity
  8
1
  6
Continuous
 62
     7
100
AcDbLine
 10
25.0
 20
41.0
 30
0.0
 11
200.0
 21
41.0
 31
0.0
  0
LINE
  5
7D
330
36
100
AcDbEntity
  8
1
  6
Continuous
 62
     7
100
AcDbLine
 10
200.0
 20
27.00000000000001
 30
0.0
 11
25.0
 21
27.00000000000001
 31
0.0
  0
LINE
  5
7E
330
36
100
AcDbEntity
  8
1
  6
Continuous
 62
     2
100
AcDbLine
 10
33.0
 20
41.00000000000001
 30
0.0
 11
33.0
 21
27.0
 31
0.0
  0
LINE
  5
7F
330
36
100
AcDbEntity
  8
1
  6
Continuous
 62
     2
100
AcDbLine
 10
55.0
 20
287.0000000000003
 30
0.0
 11
55.0
 21
277.0000000000003
 31
0.0
  0
LINE
  5
80
330
36
100
AcDbEntity
  8
1
  6
Continuous
 62
     2
100
AcDbLine
 10
40.0
 20
287.0000000000003
 30
0.0
 11
40.0
 21
277.0000000000003
 31
0.0
  0
LINE
  5
81
330
36
100
AcDbEntity
  8
1
  6
Continuous
 62
     7
100
AcDbLine
 10
25.0
 20
10.0
 30
0.0
 11
25.0
 21
148.5
 31
0.0
  0
LINE
  5
82
330
36
100
AcDbEntity
  8
1
  6
Continuous
 62
     2
100
AcDbLine
 10
55.0
 20
277.0000000000003
 30
0.0
 11
25.0
 21
277.0000000000003
 31
0.0
  0
LINE
  5
83
330
36
100
AcDbEntity
  8
1
  6
Continuous
 62
     2
100
AcDbLine
 10
166.0
 20
27.00000000000001
 30
0.0
 11
166.0
 21
10.0
 31
0.0
  0
LINE
  5
84
330
36
100
AcDbEntity
  8
1
  6
Continuous
 62
     2
100
AcDbLine
 10
132.0
 20
27.00000000000001
 30
0.0
 11
132.0
 21
9.99999999999999
 31
0.0
  0
LINE
  5
85
330
36
100
AcDbEntity
  8
1
  6
Continuous
 62
     2
100
AcDbLine
 10
149.0
 20
27.00000000000001
 30
0.0
 11
149.0
 21
10.0
 31
0.0
  0
LINE
  5
86
330
36
100
AcDbEntity
  8
1
  6
Continuous
 62
     2
100
AcDbLine
 10
115.0
 20
27.00000000000001
 30
0.0
 11
115.0
 21
9.99999999999999
 31
0.0
  0
LINE
  5
87
330
36
100
AcDbEntity
  8
1
  6
Continuous
 62
     2
100
AcDbLine
 10
98.0
 20
27.00000000000001
 30
0.0
 11
98.0
 21
9.99999999999999
 31
0.0
  0
LINE
  5
88
330
36
100
AcDbEntity
  8
1
  6
Continuous
 62
     2
100
AcDbLine
 10
166.0
 20
20.00000000000001
 30
0.0
 11
200.0
 21
20.00000000000001
 31
0.0
  0
LINE
  5
89
330
36
100
AcDbEntity
  8
1
  6
Continuous
 62
     2
100
AcDbLine
 10
105.0
 20
287.0000000000003
 30
0.0
 11
105.0
 21
292.0000000000003
 31
0.0
  0
LINE
  5
8A
330
36
100
AcDbEntity
  8
1
  6
Continuous
 62
     7
100
AcDbLine
 10
105.0
 20
287.0000000000003
 30
0.0
 11
25.0
 21
287.0000000000003
 31
0.0
  0
LINE
  5
8B
330
36
100
AcDbEntity
  8
1
  6
Continuous
 62
     2
100
AcDbLine
 10
25.0
 20
148.5
 30
0.0
 11
20.0
 21
148.5
 31
0.0
  0
LINE
  5
8C
330
36
100
AcDbEntity
  8
1
  6
Continuous
 62
     7
100
AcDbLine
 10
25.0
 20
148.5
 30
0.0
 11
25.0
 21
287.0000000000003
 31
0.0
  0
LINE
  5
8D
330
36
100
AcDbEntity
  8
1
  6
Continuous
 62
     2
100
AcDbLine
 10
200.0
 20
148.5
 30
0.0
 11
205.0
 21
148.5
 31
0.0
  0
LINE
  5
8E
330
36
100
AcDbEntity
  8
1
  6
Continuous
 62
     7
100
AcDbLine
 10
200.0
 20
148.5
 30
0.0
 11
200.0
 21
287.0000000000003
 31
0.0
  0
LINE
  5
8F
330
36
100
AcDbEntity
  8
1
  6
Continuous
 62
     2
100
AcDbLine
 10
105.0
 20
10.0
 30
0.0
 11
105.0
 21
5.0
 31
0.0
  0
LINE
  5
90
330
36
100
AcDbEntity
  8
1
  6
Continuous
 62
     7
100
AcDbLine
 10
105.0
 20
10.0
 30
0.0
 11
200.0
 21
10.0
 31
0.0
  0
CIRCLE
  5
91
330
36
100
AcDbEntity
  8
1
  6
DOT_CENTER
 62
     7
100
AcDbCircle
 10
89.5
 20
18.0
 30
0.0
 40
0.1000000000000227
  0
CIRCLE
  5
92
330
36
100
AcDbEntity
  8
1
  6
DOT_CENTER
 62
     7
100
AcDbCircle
 10
89.5
 20
16.0
 30
0.0
 40
0.1000000000000227
  0
CIRCLE
  5
93
330
36
100
AcDbEntity
  8
1
  6
Continuous
 62
     7
100
AcDbCircle
 10
187.0
 20
23.50000000000001
 30
0.0
 40
2.0
  0
CIRCLE
  5
94
330
36
100
AcDbEntity
  8
1
  6
Continuous
 62
     7
100
AcDbCircle
 10
187.0
 20
23.50000000000001
 30
0.0
 40
1.200000000000102
  0
CIRCLE
  5
95
330
36
100
AcDbEntity
  8
1
  6
Continuous
 62
     7
100
AcDbCircle
 10
154.5
 20
12.5
 30
0.0
 40
0.3000000000000114
  0
CIRCLE
  5
96
330
36
100
AcDbEntity
  8
1
  6
Continuous
 62
     7
100
AcDbCircle
 10
160.5
 20
12.5
 30
0.0
 40
0.3000000000000114
  0
CIRCLE
  5
97
330
36
100
AcDbEntity
  8
1
  6
Continuous
 62
     7
100
AcDbCircle
 10
143.5
 20
12.5
 30
0.0
 40
0.3000000000000114
  0
CIRCLE
  5
98
330
36
100
AcDbEntity
  8
1
  6
Continuous
 62
     7
100
AcDbCircle
 10
137.5
 20
12.5
 30
0.0
 40
0.3000000000000114
  0
CIRCLE
  5
99
330
36
100
AcDbEntity
  8
1
  6
Continuous
 62
     7
100
AcDbCircle
 10
126.5
 20
12.5
 30
0.0
 40
0.2999999999999972
  0
CIRCLE
  5
9A
330
36
100
AcDbEntity
  8
1
  6
Continuous
 62
     7
100
AcDbCircle
 10
120.5
 20
12.5
 30
0.0
 40
0.2999999999999972
  0
CIRCLE
  5
9B
330
36
100
AcDbEntity
  8
1
  6
Continuous
 62
     7
100
AcDbCircle
 10
109.5
 20
12.5
 30
0.0
 40
0.2999999999999972
  0
CIRCLE
  5
9C
330
36
100
AcDbEntity
  8
1
  6
Continuous
 62
     7
100
AcDbCircle
 10
103.5
 20
12.5
 30
0.0
 40
0.2999999999999972
  0
MTEXT
  5
9E
330
36
100
AcDbEntity
  8
1
 62
   250
100
AcDbMText
 10
25.0
 20
5.0
 30
0.0
 40
3.5
 41
0.0
 71
     4
 72
     1
  1
備考欄の文字列 原点位置=4
  7
CONVERTER_1
 73
     1
 44
0.7202881152461
  0
MTEXT
  5
9F
330
36
100
AcDbEntity
  8
1
 62
     2
100
AcDbMText
 10
89.5
 20
24.00000000000001
 30
0.0
 40
3.5
 41
0.0
 71
     5
 72
     1
  1
尺度
  7
CONVERTER_1
 73
     1
 44
0.7202881152461
  0
MTEXT
  5
A0
330
36
100
AcDbEntity
  8
1
 62
     2
100
AcDbMText
 10
135.5
 20
25.00000000000001
 30
0.0
 40
3.0
 41
0.0
 71
     5
 72
     1
  1
製図
  7
CONVERTER_1
 73
     1
 44
0.78031212484994
  0
MTEXT
  5
A1
330
36
100
AcDbEntity
  8
1
 62
     2
100
AcDbMText
 10
152.5
 20
25.00000000000001
 30
0.0
 40
3.0
 41
0.0
 71
     5
 72
     1
  1
設計
  7
CONVERTER_1
 73
     1
 44
0.78031212484994
  0
MTEXT
  5
A2
330
36
100
AcDbEntity
  8
1
 62
     2
100
AcDbMText
 10
118.5
 20
25.00000000000001
 30
0.0
 40
3.0
 41
0.0
 71
     5
 72
     1
  1
検図
  7
CONVERTER_1
 73
     1
 44
0.78031212484994
  0
MTEXT
  5
A3
330
36
100
AcDbEntity
  8
1
 62
     2
100
AcDbMText
 10
175.0
 20
23.50000000000001
 30
0.0
 40
3.5
 41
0.0
 71
     5
 72
     1
  1
第三角法
  7
CONVERTER_1
 73
     1
 44
0.7202881152461
  0
MTEXT
  5
A4
330
36
100
AcDbEntity
  8
1
 62
     2
100
AcDbMText
 10
101.5
 20
25.00000000000001
 30
0.0
 40
3.0
 41
0.0
 71
     5
 72
     1
  1
承認
  7
CONVERTER_1
 73
     1
 44
0.78031212484994
  0
MTEXT
  5
A5
330
36
100
AcDbEntity
  8
1
 62
     2
100
AcDbMText
 10
29.0
 20
14.25
 30
0.0
 40
3.5
 41
0.0
 71
     5
 72
     1
  1
品番
  7
CONVERTER_1
 73
     1
 44
0.96038415366146
  0
MTEXT
  5
A6
330
36
100
AcDbEntity
  8
1
 62
     2
100
AcDbMText
 10
29.0
 20
22.75
 30
0.0
 40
3.5
 41
0.0
 71
     5
 72
     1
  1
品名
  7
CONVERTER_1
 73
     1
 44
0.96038415366146
  0
MTEXT
  5
A7
330
36
100
AcDbEntity
  8
1
 62
     2
100
AcDbMText
 10
29.0
 20
34.00000000000001
 30
0.0
 40
3.5
 41
0.0
 71
     5
 72
     1
  1
備考
  7
CONVERTER_1
 73
     1
 44
0.60024009603842
  0
MTEXT
  5
A8
330
36
100
AcDbEntity
  8
1
 62
     2
100
AcDbMText
 10
32.5
 20
282.0000000000003
 30
0.0
 40
5.0
 41
0.0
 71
     5
 72
     1
  1
図番
  7
CONVERTER_1
 73
     1
 44
0.60024009603842
  0
MTEXT
  5
A9
330
36
100
AcDbEntity
  8
1
 62
     7
100
AcDbMText
 10
171.5
 20
15.0
 30
0.0
 40
2.5
 41
0.0
 71
     5
 72
     1
  1
株式会社
  7
CONVERTER_1
 73
     1
 44
1.32052821128451
  0
MTEXT
  5
AA
330
36
100
AcDbEntity
  8
1
 62
     7
100
AcDbMText
 10
188.5
 20
15.0
 30
0.0
 40
3.0
 41
0.0
 71
     5
 72
     1
  1
三栄水栓製作所
  7
CONVERTER_1
 73
     1
 44
1.32052821128451
  0
ENDBLK
  5
38
330
36
100
AcDbEntity
  8
0
100
AcDbBlockEnd
  0
BLOCK
  5
3A
330
39
100
AcDbEntity
  8
0
100
AcDbBlockBegin
  2
37-1-13
 70
     0
 71
     0
 10
401.1403569146027
 20
175.0597751394753
 30
0.0
  3
37-1-13
  1

  0
LINE
  5
AB
330
39
100
AcDbEntity
  8
1
  6
Continuous
 62
     7
100
AcDbLine
 10
242.5169438273071
 20
286.8603395190811
 30
0.0
 11
242.5172291881036
 21
280.860339525867
 31
0.0
  0
LINE
  5
AC
330
39
100
AcDbEntity
  8
1
  6
Continuous
 62
     7
100
AcDbLine
 10
242.5166584665105
 20
292.8603395122953
 30
0.0
 11
242.5169438273071
 21
286.8603395190811
 31
0.0
  0
LINE
  5
AD
330
39
100
AcDbEntity
  8
1
  6
Continuous
 62
     7
100
AcDbLine
 10
249.0169438199556
 20
286.860648659944
 30
0.0
 11
249.0163493182962
 21
299.3606486458067
 31
0.0
  0
LINE
  5
AE
330
39
100
AcDbEntity
  8
1
  6
Continuous
 62
     7
100
AcDbLine
 10
249.017538321615
 20
274.3606486740815
 30
0.0
 11
249.0169438199556
 21
286.860648659944
 31
0.0
  0
LINE
  5
AF
330
39
100
AcDbEntity
  8
1
  6
Continuous
 62
     7
100
AcDbLine
 10
256.5163221665701
 20
299.9317195604284
 30
0.0
 11
256.5169733998555
 21
286.238879631312
 31
0.0
  0
LINE
  5
B0
330
39
100
AcDbEntity
  8
1
  6
Continuous
 62
     7
100
AcDbLine
 10
256.516914223091
 20
287.4831310905671
 30
0.0
 11
256.5175654563765
 21
273.790291161451
 31
0.0
  0
LINE
  5
B1
330
39
100
AcDbEntity
  8
1
  6
Continuous
 62
     7
100
AcDbLine
 10
249.3447321413796
 20
376.8610053562464
 30
0.0
 11
249.3447321413796
 21
396.8610053562467
 31
0.0
  0
LINE
  5
B2
330
39
100
AcDbEntity
  8
1
  6
Continuous
 62
     7
100
AcDbLine
 10
249.3447321413796
 20
373.8610053562467
 30
0.0
 11
256.5169733998555
 21
373.8610053562467
 31
0.0
  0
LINE
  5
B3
330
39
100
AcDbEntity
  8
1
  6
Continuous
 62
     7
100
AcDbLine
 10
256.5169733998555
 20
399.8610053562464
 30
0.0
 11
249.3447321413796
 21
399.8610053562464
 31
0.0
  0
LINE
  5
B4
330
39
100
AcDbEntity
  8
1
  6
Continuous
 62
     7
100
AcDbLine
 10
256.5169733998555
 20
373.8610053562467
 30
0.0
 11
256.5169733998555
 21
399.8610053562464
 31
0.0
  0
LINE
  5
B5
330
39
100
AcDbEntity
  8
1
  6
Continuous
 62
     7
100
AcDbLine
 10
242.5169733998555
 20
380.8610053562463
 30
0.0
 11
242.5169733998555
 21
392.8610053562466
 31
0.0
  0
LINE
  5
B6
330
39
100
AcDbEntity
  8
1
  6
PHANTOM
 62
     4
100
AcDbLine
 10
256.5168747237686
 20
386.8610053562464
 30
0.0
 11
240.4762428357695
 21
386.8610053562464
 31
0.0
  0
LINE
  5
B7
330
39
100
AcDbEntity
  8
1
  6
PHANTOM
 62
     4
100
AcDbLine
 10
256.5168747237686
 20
386.8610053562464
 30
0.0
 11
258.9428779882866
 21
386.8610053562466
 31
0.0
  0
ARC
  5
B8
330
39
100
AcDbEntity
  8
1
  6
Continuous
 62
     7
100
AcDbCircle
 10
229.1117207518034
 20
260.9532467304768
 30
0.0
 40
23.99999999999992
100
AcDbArc
 50
33.96191749497871
 51
56.04353249478325
  0
ARC
  5
B9
330
39
100
AcDbEntity
  8
1
  6
Continuous
 62
     7
100
AcDbCircle
 10
229.1092565229062
 20
312.766157082107
 30
0.0
 40
23.99999999999975
100
AcDbArc
 50
-56.03808250502225
 51
-33.95646750521723
  0
ARC
  5
BA
330
39
100
AcDbEntity
  8
1
  6
Continuous
 62
     7
100
AcDbCircle
 10
253.0164919941705
 20
296.3608388897306
 30
0.0
 40
5.000000000000179
100
AcDbArc
 50
45.57572099407592
 51
143.1328273490362
  0
ARC
  5
BB
330
39
100
AcDbEntity
  8
1
  6
Continuous
 62
     7
100
AcDbCircle
 10
253.0173956366928
 20
277.3608389112194
 30
0.0
 40
4.999999999999882
100
AcDbArc
 50
-143.1273773592768
 51
-45.57027100431299
  0
ARC
  5
BC
330
39
100
AcDbEntity
  8
1
  6
Continuous
 62
     7
100
AcDbCircle
 10
229.1105181947406
 20
360.9545501511317
 30
0.0
 40
24.00000000000004
100
AcDbArc
 50
32.53189151774839
 51
33.95919250009798
  0
ARC
  5
BD
330
39
100
AcDbEntity
  8
1
  6
Continuous
 62
     7
100
AcDbCircle
 10
229.1105181947406
 20
412.7674605613614
 30
0.0
 40
23.99999999999989
100
AcDbArc
 50
-56.04080749990241
 51
-33.95919250009798
  0
ARC
  5
BE
330
39
100
AcDbEntity
  8
1
  6
Continuous
 62
     7
100
AcDbCircle
 10
229.1105181947406
 20
360.9545501511317
 30
0.0
 40
24.0
100
AcDbArc
 50
33.95919250009798
 51
56.04080749990219
  0
ARC
  5
BF
330
39
100
AcDbEntity
  8
1
  6
Continuous
 62
     7
100
AcDbCircle
 10
229.1105181947406
 20
412.7674605613614
 30
0.0
 40
24.0
100
AcDbArc
 50
-33.95919250009798
 51
-32.53189151774839
  0
SPLINE
  5
C0
330
39
100
AcDbEntity
  8
1
  6
Continuous
 62
     7
100
AcDbSpline
210
0.0
220
0.0
230
1.0
 70
    11
 71
     3
 72
    79
 73
    75
 74
    73
 42
0.0000000001
 43
0.0000000001
 44
0.00000001
 40
0.0
 40
0.0
 40
0.0
 40
0.0
 40
0.3142773867008704
 40
0.6283112411574723
 40
0.9612293766542572
 40
1.293805038039611
 40
1.653399990663224
 40
2.012687710360723
 40
2.402596358667211
 40
2.792277135713638
 40
3.212125602383461
 40
3.631818889113265
 40
4.078023830870358
 40
4.524128916246221
 40
4.990742665932578
 40
5.45729738887317
 40
5.936768753151418
 40
6.416212753073542
 40
6.90006253648825
 40
7.383912319902788
 40
7.863356319824859
 40
8.342827684103106
 40
8.809382407043703
 40
9.275996156730122
 40
9.722101242106021
 40
10.16830618386306
 40
10.58799947059285
 40
11.00784793726274
 40
11.39752871430918
 40
11.78743736261565
 40
12.14672508231301
 40
12.50632003493658
 40
12.83889569632192
 40
13.17181383181878
 40
13.48584768627536
 40
13.80012507297632
 40
14.10756996787611
 40
14.4150148627759
 40
14.72929224947683
 40
15.04332610393341
 40
15.37624423943024
 40
15.70881990081567
 40
16.06841485343922
 40
16.42770257313666
 40
16.81761122144315
 40
17.20729199848957
 40
17.6271404651594
 40
18.04683375188917
 40
18.49303869364625
 40
18.93914377902216
 40
19.40575752870864
 40
19.87231225164918
 40
20.35178361592747
 40
20.83122761584943
 40
21.31507739926403
 40
21.79892718267874
 40
22.27837118260082
 40
22.75784254687912
 40
23.22439726981953
 40
23.69101101950593
 40
24.13711610488185
 40
24.58332104663905
 40
25.00301433336885
 40
25.42286280003867
 40
25.81254357708499
 40
26.20245222539154
 40
26.56173994508896
 40
26.92133489771269
 40
27.25391055909805
 40
27.58682869459481
 40
27.90086254905125
 40
28.21513993575225
 40
28.5225848306521
 40
28.83002972555191
 40
28.83002972555191
 40
28.83002972555191
 40
28.83002972555191
 10
252.7102946398553
 20
387.8205475389561
 30
0.0
 10
252.6070230851551
 20
387.839140011555
 30
0.0
 10
252.4005600004544
 20
387.8763105495225
 30
0.0
 10
252.0984751679626
 20
387.9872568127349
 30
0.0
 10
251.8062802749171
 20
388.1343216555182
 30
0.0
 10
251.521425908919
 20
388.3244762077684
 30
0.0
 10
251.2519849861637
 20
388.5496109362925
 30
0.0
 10
250.9931876294063
 20
388.814247006403
 30
0.0
 10
250.7535099650808
 20
389.1093072320839
 30
0.0
 10
250.5281717233972
 20
389.4400732796449
 30
0.0
 10
250.3246082024666
 20
389.7961406016098
 30
0.0
 10
250.1391159347527
 20
390.1828736737925
 30
0.0
 10
249.977345822033
 20
390.5895471314627
 30
0.0
 10
249.8369782613657
 20
391.0205233272212
 30
0.0
 10
249.7217352029804
 20
391.4658970115711
 30
0.0
 10
249.6304818647623
 20
391.9281099614606
 30
0.0
 10
249.5652743230309
 20
392.3990285541593
 30
0.0
 10
249.5256838555995
 20
392.878560118443
 30
0.0
 10
249.5125982526286
 20
393.3610053562442
 30
0.0
 10
249.5256838555982
 20
393.8434505940605
 30
0.0
 10
249.5652743230359
 20
394.3229821582992
 30
0.0
 10
249.6304818647441
 20
394.7939007511613
 30
0.0
 10
249.7217352030464
 20
395.2561137004572
 30
0.0
 10
249.8369782611241
 20
395.7014873869777
 30
0.0
 10
249.9773458228912
 20
396.1324635749753
 30
0.0
 10
250.1391159316244
 20
396.5391370607716
 30
0.0
 10
250.3246082133748
 20
396.9258700339237
 30
0.0
 10
250.5281716838252
 20
397.281937712035
 30
0.0
 10
250.7535101010544
 20
397.6127025210961
 30
0.0
 10
250.9931871372342
 20
397.9077671784338
 30
0.0
 10
251.2519866640072
 20
398.1723879387802
 30
0.0
 10
251.5214198234497
 20
398.3975774385635
 30
0.0
 10
251.8063011074142
 20
398.5875420807845
 30
0.0
 10
252.0983989968717
 20
398.7352912974855
 30
0.0
 10
252.4008265109349
 20
398.8438198941597
 30
0.0
 10
252.7070612028787
 20
398.9080314215333
 30
0.0
 10
253.0169733998555
 20
398.930632524671
 30
0.0
 10
253.3268855968323
 20
398.9080314215332
 30
0.0
 10
253.6331202887761
 20
398.8438198941595
 30
0.0
 10
253.9355478028393
 20
398.7352912974857
 30
0.0
 10
254.2276456922967
 20
398.5875420807847
 30
0.0
 10
254.5125269762613
 20
398.3975774385635
 30
0.0
 10
254.7819601357039
 20
398.1723879387803
 30
0.0
 10
255.0407596624769
 20
397.9077671784338
 30
0.0
 10
255.2804366986566
 20
397.6127025210961
 30
0.0
 10
255.5057751158859
 20
397.281937712035
 30
0.0
 10
255.7093385863362
 20
396.9258700339238
 30
0.0
 10
255.8948308680866
 20
396.5391370607717
 30
0.0
 10
256.0566009768197
 20
396.1324635749752
 30
0.0
 10
256.1969685385869
 20
395.7014873869778
 30
0.0
 10
256.3122115966646
 20
395.2561137004572
 30
0.0
 10
256.403464934967
 20
394.7939007511612
 30
0.0
 10
256.468672476675
 20
394.3229821582994
 30
0.0
 10
256.5082629441129
 20
393.8434505940599
 30
0.0
 10
256.521348547082
 20
393.3610053562466
 30
0.0
 10
256.508262944113
 20
392.8785601184343
 30
0.0
 10
256.4686724766746
 20
392.3990285541915
 30
0.0
 10
256.4034649349682
 20
391.9281099613413
 30
0.0
 10
256.31221159666
 20
391.4658970120032
 30
0.0
 10
256.1969685386042
 20
391.0205233256369
 30
0.0
 10
256.0566009767589
 20
390.5895471370883
 30
0.0
 10
255.8948308683088
 20
390.1828736532888
 30
0.0
 10
255.7093385855616
 20
389.7961406731052
 30
0.0
 10
255.5057751186956
 20
389.4400730202815
 30
0.0
 10
255.2804366890021
 20
389.1093081232833
 30
0.0
 10
255.0407596974226
 20
388.8142437806064
 30
0.0
 10
254.7819600165719
 20
388.5496219332213
 30
0.0
 10
254.5125274083475
 20
388.3244363223591
 30
0.0
 10
254.2276442131278
 20
388.1344581959652
 30
0.0
 10
253.9355532112116
 20
387.9867575718332
 30
0.0
 10
253.633101365745
 20
387.8780573136962
 30
0.0
 10
253.3269557676344
 20
387.814474355808
 30
0.0
 10
253.0167178199926
 20
387.7895750360516
 30
0.0
 10
252.812435699901
 20
387.8102233713213
 30
0.0
 10
252.7102946398553
 20
387.8205475389562
 30
0.0
 11
252.7102946398553
 21
387.8205475389561
 31
0.0
 11
252.4027327670945
 21
387.8851692861889
 31
0.0
 11
252.1068438882984
 21
387.9903692536301
 31
0.0
 11
251.8095788234307
 21
388.1402624361031
 31
0.0
 11
251.5323902066855
 21
388.3240368665682
 31
0.0
 11
251.2560163066046
 21
388.5540933755099
 31
0.0
 11
251.0042897268846
 21
388.810455218591
 31
0.0
 11
250.757865555893
 21
389.1126205408489
 31
0.0
 11
250.5380160434448
 21
389.4343615855973
 31
0.0
 11
250.3290621382415
 21
389.7985195190071
 31
0.0
 11
250.1472060766596
 21
390.1767665649863
 31
0.0
 11
249.981797597534
 21
390.5911804704984
 31
0.0
 11
249.8434007301112
 21
391.0152748636302
 31
0.0
 11
249.7261530477421
 21
391.4669178336579
 31
0.0
 11
249.6356542150892
 21
391.9246112581099
 31
0.0
 11
249.5696612945554
 21
392.3995193793315
 31
0.0
 11
249.5301950634666
 21
392.8773362539446
 31
0.0
 11
249.5169733998555
 21
393.3610053562468
 31
0.0
 11
249.5301950634666
 21
393.8446744585488
 31
0.0
 11
249.5696612945554
 21
394.3224913331618
 31
0.0
 11
249.6356542150892
 21
394.7973994543834
 31
0.0
 11
249.7261530477421
 21
395.2550928788355
 31
0.0
 11
249.8434007301112
 21
395.7067358488632
 31
0.0
 11
249.981797597534
 21
396.130830241995
 31
0.0
 11
250.1472060766596
 21
396.5452441475071
 31
0.0
 11
250.3290621382414
 21
396.9234911934863
 31
0.0
 11
250.5380160434448
 21
397.2876491268961
 31
0.0
 11
250.757865555893
 21
397.6093901716445
 31
0.0
 11
251.0042897268846
 21
397.9115554939025
 31
0.0
 11
251.2560163066046
 21
398.1679173369834
 31
0.0
 11
251.5323902066855
 21
398.397973845925
 31
0.0
 11
251.8095788234306
 21
398.5817482763903
 31
0.0
 11
252.1068438882983
 21
398.7316414588632
 31
0.0
 11
252.4027327670944
 21
398.8368414263046
 31
0.0
 11
252.7102946398553
 21
398.9014631735372
 31
0.0
 11
253.0169733998555
 21
398.9231542215684
 31
0.0
 11
253.3236521598557
 21
398.9014631735372
 31
0.0
 11
253.6312140326165
 21
398.8368414263046
 31
0.0
 11
253.9271029114127
 21
398.7316414588634
 31
0.0
 11
254.2243679762804
 21
398.5817482763904
 31
0.0
 11
254.5015565930256
 21
398.3979738459251
 31
0.0
 11
254.7779304931065
 21
398.1679173369835
 31
0.0
 11
255.0296570728264
 21
397.9115554939025
 31
0.0
 11
255.2760812438181
 21
397.6093901716445
 31
0.0
 11
255.4959307562663
 21
397.2876491268961
 31
0.0
 11
255.7048846614696
 21
396.9234911934863
 31
0.0
 11
255.8867407230514
 21
396.5452441475071
 31
0.0
 11
256.052149202177
 21
396.130830241995
 31
0.0
 11
256.1905460695998
 21
395.7067358488632
 31
0.0
 11
256.3077937519689
 21
395.2550928788354
 31
0.0
 11
256.3982925846218
 21
394.7973994543834
 31
0.0
 11
256.4642855051555
 21
394.3224913331617
 31
0.0
 11
256.5037517362444
 21
393.8446744585489
 31
0.0
 11
256.5169733998555
 21
393.3610053562468
 31
0.0
 11
256.5037517362445
 21
392.8773362539446
 31
0.0
 11
256.4642855051555
 21
392.3995193793316
 31
0.0
 11
256.3982925846217
 21
391.9246112581099
 31
0.0
 11
256.3077937519689
 21
391.466917833658
 31
0.0
 11
256.1905460695999
 21
391.0152748636303
 31
0.0
 11
256.0521492021771
 21
390.5911804704985
 31
0.0
 11
255.8867407230515
 21
390.1767665649863
 31
0.0
 11
255.7048846614696
 21
389.7985195190071
 31
0.0
 11
255.4959307562663
 21
389.4343615855973
 31
0.0
 11
255.2760812438181
 21
389.112620540849
 31
0.0
 11
255.0296570728264
 21
388.810455218591
 31
0.0
 11
254.7779304931064
 21
388.55409337551
 31
0.0
 11
254.5015565930254
 21
388.3240368665682
 31
0.0
 11
254.2243679762803
 21
388.140262436103
 31
0.0
 11
253.9271029114126
 21
387.9903692536301
 31
0.0
 11
253.6312140326166
 21
387.885169286189
 31
0.0
 11
253.3236521598557
 21
387.8205475389561
 31
0.0
 11
253.0169733998555
 21
387.7988564909248
 31
0.0
 11
252.7102946398553
 21
387.8205475389562
 31
0.0
  0
SPLINE
  5
C1
330
39
100
AcDbEntity
  8
1
  6
Continuous
 62
     7
100
AcDbSpline
210
0.0
220
0.0
230
1.0
 70
    11
 71
     3
 72
    79
 73
    75
 74
    73
 42
0.0000000001
 43
0.0000000001
 44
0.00000001
 40
0.0
 40
0.0
 40
0.0
 40
0.0
 40
0.3142773867008469
 40
0.6283112411574487
 40
0.9612293766541826
 40
1.2938050380396
 40
1.653399990663176
 40
2.012687710360716
 40
2.402596358667203
 40
2.792277135713537
 40
3.21212560238336
 40
3.631818889113164
 40
4.07802383087031
 40
4.524128916246173
 40
4.990742665932695
 40
5.457297388873119
 40
5.936768753151367
 40
6.416212753073435
 40
6.9000625364882
 40
7.383912319902851
 40
7.863356319824751
 40
8.342827684102943
 40
8.809382407043596
 40
9.275996156730015
 40
9.722101242106023
 40
10.16830618386312
 40
10.58799947059286
 40
11.0078479372627
 40
11.39752871430909
 40
11.78743736261556
 40
12.14672508231304
 40
12.50632003493657
 40
12.83889569632194
 40
13.17181383181878
 40
13.48584768627533
 40
13.80012507297631
 40
14.1075699678761
 40
14.41501486277591
 40
14.72929224947684
 40
15.04332610393341
 40
15.37624423943027
 40
15.7088199008156
 40
16.06841485343919
 40
16.42770257313663
 40
16.81761122144312
 40
17.2072919984895
 40
17.62714046515947
 40
18.04683375188915
 40
18.49303869364622
 40
18.93914377902219
 40
19.40575752870867
 40
19.87231225164915
 40
20.35178361592739
 40
20.83122761584935
 40
21.31507739926406
 40
21.79892718267871
 40
22.27837118260073
 40
22.75784254687898
 40
23.22439726981956
 40
23.69101101950601
 40
24.13711610488198
 40
24.58332104663908
 40
25.00301433336888
 40
25.42286280003865
 40
25.81254357708502
 40
26.20245222539148
 40
26.56173994508902
 40
26.92133489771264
 40
27.25391055909804
 40
27.58682869459477
 40
27.90086254905122
 40
28.21513993575219
 40
28.52258483065204
 40
28.83002972555184
 40
28.83002972555184
 40
28.83002972555184
 40
28.83002972555184
 10
252.7102946398553
 20
385.9014631735369
 30
0.0
 10
252.6070230851551
 20
385.8828707009382
 30
0.0
 10
252.4005600004543
 20
385.8457001629707
 30
0.0
 10
252.0984751679626
 20
385.7347538997581
 30
0.0
 10
251.806280274917
 20
385.587689056975
 30
0.0
 10
251.521425908919
 20
385.3975345047248
 30
0.0
 10
251.2519849861637
 20
385.1723997762005
 30
0.0
 10
250.9931876294064
 20
384.90776370609
 30
0.0
 10
250.7535099650807
 20
384.6127034804093
 30
0.0
 10
250.5281717233972
 20
384.2819374328481
 30
0.0
 10
250.3246082024665
 20
383.9258701108836
 30
0.0
 10
250.1391159347527
 20
383.5391370387006
 30
0.0
 10
249.9773458220329
 20
383.1324635810305
 30
0.0
 10
249.8369782613657
 20
382.7014873852719
 30
0.0
 10
249.7217352029804
 20
382.256113700922
 30
0.0
 10
249.6304818647623
 20
381.7939007510325
 30
0.0
 10
249.5652743230309
 20
381.322982158334
 30
0.0
 10
249.5256838555995
 20
380.8434505940503
 30
0.0
 10
249.5125982526286
 20
380.3610053562489
 30
0.0
 10
249.5256838555982
 20
379.8785601184327
 30
0.0
 10
249.5652743230358
 20
379.3990285541939
 30
0.0
 10
249.630481864744
 20
378.928109961332
 30
0.0
 10
249.7217352030464
 20
378.4658970120361
 30
0.0
 10
249.8369782611241
 20
378.0205233255155
 30
0.0
 10
249.9773458228912
 20
377.5895471375179
 30
0.0
 10
250.1391159316243
 20
377.1828736517214
 30
0.0
 10
250.3246082133749
 20
376.7961406785695
 30
0.0
 10
250.5281716838251
 20
376.440073000458
 30
0.0
 10
250.7535101010545
 20
376.1093081913971
 30
0.0
 10
250.9931871372341
 20
375.8142435340594
 30
0.0
 10
251.2519866640072
 20
375.5496227737129
 30
0.0
 10
251.5214198234498
 20
375.3244332739297
 30
0.0
 10
251.8063011074143
 20
375.1344686317084
 30
0.0
 10
252.0983989968716
 20
374.9867194150075
 30
0.0
 10
252.400826510935
 20
374.8781908183338
 30
0.0
 10
252.7070612028786
 20
374.8139792909598
 30
0.0
 10
253.0169733998555
 20
374.7913781878221
 30
0.0
 10
253.3268855968323
 20
374.81397929096
 30
0.0
 10
253.633120288776
 20
374.8781908183337
 30
0.0
 10
253.9355478028394
 20
374.9867194150077
 30
0.0
 10
254.2276456922966
 20
375.1344686317084
 30
0.0
 10
254.5125269762614
 20
375.3244332739296
 30
0.0
 10
254.7819601357038
 20
375.5496227737127
 30
0.0
 10
255.0407596624769
 20
375.8142435340595
 30
0.0
 10
255.2804366986566
 20
376.109308191397
 30
0.0
 10
255.5057751158859
 20
376.440073000458
 30
0.0
 10
255.7093385863361
 20
376.7961406785695
 30
0.0
 10
255.8948308680866
 20
377.1828736517215
 30
0.0
 10
256.0566009768197
 20
377.5895471375179
 30
0.0
 10
256.1969685385869
 20
378.0205233255155
 30
0.0
 10
256.3122115966647
 20
378.4658970120362
 30
0.0
 10
256.4034649349669
 20
378.9281099613319
 30
0.0
 10
256.468672476675
 20
379.3990285541939
 30
0.0
 10
256.5082629441127
 20
379.8785601184331
 30
0.0
 10
256.521348547082
 20
380.3610053562466
 30
0.0
 10
256.508262944113
 20
380.8434505940588
 30
0.0
 10
256.4686724766747
 20
381.3229821583016
 30
0.0
 10
256.403464934968
 20
381.7939007511516
 30
0.0
 10
256.3122115966601
 20
382.25611370049
 30
0.0
 10
256.1969685386042
 20
382.7014873868565
 30
0.0
 10
256.0566009767589
 20
383.132463575405
 30
0.0
 10
255.8948308683087
 20
383.5391370592044
 30
0.0
 10
255.7093385855617
 20
383.925870039388
 30
0.0
 10
255.5057751186956
 20
384.2819376922117
 30
0.0
 10
255.2804366890022
 20
384.61270258921
 30
0.0
 10
255.0407596974225
 20
384.9077669318868
 30
0.0
 10
254.7819600165721
 20
385.1723887792721
 30
0.0
 10
254.5125274083474
 20
385.397574390134
 30
0.0
 10
254.2276442131278
 20
385.5875525165279
 30
0.0
 10
253.9355532112116
 20
385.7352531406597
 30
0.0
 10
253.6331013657451
 20
385.8439533987971
 30
0.0
 10
253.3269557676344
 20
385.9075363566849
 30
0.0
 10
253.0167178199926
 20
385.9324356764414
 30
0.0
 10
252.8124356999011
 20
385.9117873411717
 30
0.0
 10
252.7102946398553
 20
385.9014631735369
 30
0.0
 11
252.7102946398553
 21
385.9014631735369
 31
0.0
 11
252.4027327670945
 21
385.8368414263042
 31
0.0
 11
252.1068438882984
 21
385.731641458863
 31
0.0
 11
251.8095788234307
 21
385.5817482763902
 31
0.0
 11
251.5323902066855
 21
385.3979738459249
 31
0.0
 11
251.2560163066046
 21
385.1679173369832
 31
0.0
 11
251.0042897268846
 21
384.9115554939021
 31
0.0
 11
250.757865555893
 21
384.6093901716442
 31
0.0
 11
250.5380160434448
 21
384.2876491268959
 31
0.0
 11
250.3290621382415
 21
383.9234911934861
 31
0.0
 11
250.1472060766596
 21
383.5452441475069
 31
0.0
 11
249.981797597534
 21
383.1308302419947
 31
0.0
 11
249.8434007301112
 21
382.706735848863
 31
0.0
 11
249.7261530477421
 21
382.2550928788351
 31
0.0
 11
249.6356542150892
 21
381.7973994543833
 31
0.0
 11
249.5696612945554
 21
381.3224913331616
 31
0.0
 11
249.5301950634666
 21
380.8446744585486
 31
0.0
 11
249.5169733998555
 21
380.3610053562464
 31
0.0
 11
249.5301950634666
 21
379.8773362539442
 31
0.0
 11
249.5696612945554
 21
379.3995193793314
 31
0.0
 11
249.6356542150892
 21
378.9246112581099
 31
0.0
 11
249.7261530477421
 21
378.4669178336578
 31
0.0
 11
249.8434007301112
 21
378.01527486363
 31
0.0
 11
249.981797597534
 21
377.5911804704981
 31
0.0
 11
250.1472060766596
 21
377.176766564986
 31
0.0
 11
250.3290621382414
 21
376.7985195190069
 31
0.0
 11
250.5380160434448
 21
376.4343615855971
 31
0.0
 11
250.757865555893
 21
376.1126205408487
 31
0.0
 11
251.0042897268846
 21
375.8104552185907
 31
0.0
 11
251.2560163066046
 21
375.5540933755097
 31
0.0
 11
251.5323902066855
 21
375.3240368665681
 31
0.0
 11
251.8095788234306
 21
375.1402624361028
 31
0.0
 11
252.1068438882983
 21
374.9903692536299
 31
0.0
 11
252.4027327670944
 21
374.8851692861887
 31
0.0
 11
252.7102946398553
 21
374.8205475389559
 31
0.0
 11
253.0169733998555
 21
374.7988564909246
 31
0.0
 11
253.3236521598557
 21
374.820547538956
 31
0.0
 11
253.6312140326165
 21
374.8851692861887
 31
0.0
 11
253.9271029114127
 21
374.9903692536299
 31
0.0
 11
254.2243679762804
 21
375.1402624361028
 31
0.0
 11
254.5015565930256
 21
375.324036866568
 31
0.0
 11
254.7779304931065
 21
375.5540933755097
 31
0.0
 11
255.0296570728264
 21
375.8104552185907
 31
0.0
 11
255.2760812438181
 21
376.1126205408486
 31
0.0
 11
255.4959307562663
 21
376.434361585597
 31
0.0
 11
255.7048846614696
 21
376.798519519007
 31
0.0
 11
255.8867407230514
 21
377.1767665649861
 31
0.0
 11
256.052149202177
 21
377.5911804704982
 31
0.0
 11
256.1905460695998
 21
378.01527486363
 31
0.0
 11
256.3077937519689
 21
378.4669178336578
 31
0.0
 11
256.3982925846218
 21
378.9246112581097
 31
0.0
 11
256.4642855051555
 21
379.3995193793314
 31
0.0
 11
256.5037517362444
 21
379.8773362539442
 31
0.0
 11
256.5169733998555
 21
380.3610053562464
 31
0.0
 11
256.5037517362445
 21
380.8446744585486
 31
0.0
 11
256.4642855051555
 21
381.3224913331615
 31
0.0
 11
256.3982925846217
 21
381.7973994543831
 31
0.0
 11
256.3077937519689
 21
382.2550928788352
 31
0.0
 11
256.1905460695999
 21
382.706735848863
 31
0.0
 11
256.0521492021771
 21
383.1308302419948
 31
0.0
 11
255.8867407230515
 21
383.5452441475069
 31
0.0
 11
255.7048846614696
 21
383.9234911934861
 31
0.0
 11
255.4959307562663
 21
384.2876491268959
 31
0.0
 11
255.2760812438181
 21
384.6093901716442
 31
0.0
 11
255.0296570728264
 21
384.9115554939021
 31
0.0
 11
254.7779304931064
 21
385.1679173369832
 31
0.0
 11
254.5015565930254
 21
385.3979738459249
 31
0.0
 11
254.2243679762803
 21
385.5817482763902
 31
0.0
 11
253.9271029114126
 21
385.731641458863
 31
0.0
 11
253.6312140326166
 21
385.8368414263042
 31
0.0
 11
253.3236521598557
 21
385.9014631735369
 31
0.0
 11
253.0169733998555
 21
385.9231542215682
 31
0.0
 11
252.7102946398553
 21
385.9014631735369
 31
0.0
  0
SPLINE
  5
C2
330
39
100
AcDbEntity
  8
1
  6
Continuous
 62
     7
100
AcDbSpline
210
0.0
220
0.0
230
1.0
 70
    11
 71
     3
 72
    81
 73
    77
 74
    75
 42
0.0000000001
 43
0.0000000001
 44
0.00000001
 40
0.0
 40
0.0
 40
0.0
 40
0.0
 40
0.1532050504069064
 40
0.3069947445857469
 40
0.6183611734475947
 40
0.9296075610436896
 40
1.254072936031584
 40
1.578323204886555
 40
1.921678511409678
 40
2.264821653835943
 40
2.630052639338425
 40
2.995108699569093
 40
3.38230329099
 40
3.769368862274901
 40
4.176152396379173
 40
4.582847953667415
 40
5.004942989670258
 40
5.426983984040377
 40
5.858945499720472
 40
6.29088201104882
 40
6.725993667226995
 40
7.161104095545002
 40
7.592713658698028
 40
8.024349427800738
 40
8.446390427039976
 40
8.868485464580843
 40
9.275181019916111
 40
9.681964551872254
 40
10.06903012544926
 40
10.45622472984863
 40
10.82128077706332
 40
11.18651167559714
 40
11.52965490282126
 40
11.87301076567088
 40
12.19726049543465
 40
12.52172244009685
 40
12.83308538008089
 40
13.14458738194447
 40
13.4514092397396
 40
13.75823109753471
 40
14.06973309939829
 40
14.38109603938233
 40
14.70555798404513
 40
15.02980771381052
 40
15.37316357665817
 40
15.71630680387302
 40
16.08153770241617
 40
16.44659374967704
 40
16.83378835403174
 40
17.22085392739507
 40
17.62763745954247
 40
18.03433301573195
 40
18.45642805260964
 40
18.8784690494275
 40
19.31026769206669
 40
19.74204072910278
 40
20.17715177134952
 40
20.61226281359526
 40
21.04403585063412
 40
21.47583449329708
 40
21.89787549008354
 40
22.31997052672348
 40
22.72666608318079
 40
23.13344961722464
 40
23.52051518861203
 40
23.90770977945603
 40
24.27276584014482
 40
24.6379968283592
 40
24.9811399687067
 40
25.3244952648216
 40
25.648745540891
 40
25.97321094481533
 40
26.28457050061952
 40
26.59605190454819
 40
26.74995645610603
 40
26.90327505700475
 40
26.90327505700475
 40
26.90327505700475
 40
26.90327505700475
 10
253.0175551281498
 20
291.860623944121
 30
0.0
 10
252.9664763262636
 20
291.8596908977914
 30
0.0
 10
252.8641238013491
 20
291.8578212445465
 30
0.0
 10
252.6588333373122
 20
291.8375480121004
 30
0.0
 10
252.4037683254084
 20
291.7899461616316
 30
0.0
 10
252.1024893639203
 20
291.6931352489702
 30
0.0
 10
251.8103624926872
 20
291.5608353081715
 30
0.0
 10
251.5259278831536
 20
291.3909100474389
 30
0.0
 10
251.2557440381769
 20
291.1886284844471
 30
0.0
 10
250.9969714364682
 20
290.9513441250612
 30
0.0
 10
250.7563591526894
 20
290.6858441957987
 30
0.0
 10
250.5308594264331
 20
290.3888309713117
 30
0.0
 10
250.3264863369456
 20
290.068249004645
 30
0.0
 10
250.1407830302421
 20
289.720716542417
 30
0.0
 10
249.9784220260909
 20
289.3545672617835
 30
0.0
 10
249.8378581993444
 20
288.967108870004
 30
0.0
 10
249.7222314584961
 20
288.5661977919632
 30
0.0
 10
249.6308164630829
 20
288.1504820696338
 30
0.0
 10
249.5653794897046
 20
287.7265746826258
 30
0.0
 10
249.5257126942023
 20
287.2951215340817
 30
0.0
 10
249.5125532633428
 20
286.8609989579164
 30
0.0
 10
249.525669852526
 20
286.4269841375673
 30
0.0
 10
249.5652677620544
 20
285.9957441201043
 30
0.0
 10
249.63060388151
 20
285.572041907053
 30
0.0
 10
249.7219196787008
 20
285.156415588782
 30
0.0
 10
249.8374730712031
 20
284.7554833748109
 30
0.0
 10
249.9779660297974
 20
284.3679992780984
 30
0.0
 10
250.1402600586456
 20
284.0018203065412
 30
0.0
 10
250.3258998063357
 20
283.654253887415
 30
0.0
 10
250.5302142846407
 20
283.333634547021
 30
0.0
 10
250.7556596812443
 20
283.0365801723563
 30
0.0
 10
250.9962232423418
 20
282.7710359332992
 30
0.0
 10
251.2549527465832
 20
282.5337048680204
 30
0.0
 10
251.5250994608637
 20
282.3313716632613
 30
0.0
 10
251.8095039224709
 20
282.1614046240583
 30
0.0
 10
252.1016323918498
 20
282.0289981907498
 30
0.0
 10
252.403001944158
 20
281.9322396352744
 30
0.0
 10
252.7083240132174
 20
281.8747487275865
 30
0.0
 10
253.0168687372763
 20
281.8547703739096
 30
0.0
 10
253.3254171100198
 20
281.8746922974544
 30
0.0
 10
253.6307496884947
 20
281.9321273637746
 30
0.0
 10
253.9321369319519
 20
282.0288308001025
 30
0.0
 10
254.2242896122812
 20
282.1611838037705
 30
0.0
 10
254.5087251544341
 20
282.331098825348
 30
0.0
 10
254.7789088689494
 20
282.533382619542
 30
0.0
 10
255.0376817743721
 20
282.7706663617787
 30
0.0
 10
255.2782938968872
 20
283.0361665996973
 30
0.0
 10
255.503793618122
 20
283.3331797375761
 30
0.0
 10
255.7081667311809
 20
283.6537617054462
 30
0.0
 10
255.8938700413693
 20
284.0012941673878
 30
0.0
 10
256.0562310387581
 20
284.3674434512614
 30
0.0
 10
256.1967948637699
 20
284.7549018443385
 30
0.0
 10
256.3124215933254
 20
285.1558129200975
 30
0.0
 10
256.4038249958564
 20
285.5714755866624
 30
0.0
 10
256.4692502883364
 20
285.9952744082576
 30
0.0
 10
256.508922079041
 20
286.4266173664559
 30
0.0
 10
256.5220997799138
 20
286.8606848619509
 30
0.0
 10
256.5090014659775
 20
287.2947547602596
 30
0.0
 10
256.469408564324
 20
287.726104966838
 30
0.0
 10
256.4040607813638
 20
288.1499157469508
 30
0.0
 10
256.3127334009737
 20
288.5655951232714
 30
0.0
 10
256.1971799971566
 20
288.9665273395189
 30
0.0
 10
256.0566870368029
 20
289.3540114349679
 30
0.0
 10
255.8943930013097
 20
289.7201904033523
 30
0.0
 10
255.708753257225
 20
290.0677568226088
 30
0.0
 10
255.5044388018623
 20
290.3883761613542
 30
0.0
 10
255.2789933993559
 20
290.6854306228812
 30
0.0
 10
255.0384296813373
 20
290.9509745576137
 30
0.0
 10
254.7797004816462
 20
291.188306237145
 30
0.0
 10
254.509553626636
 20
291.3906371936597
 30
0.0
 10
254.2251500613652
 20
291.5606144369467
 30
0.0
 10
253.9330131375219
 20
291.6929836831205
 30
0.0
 10
253.6316765690857
 20
291.7898666897668
 30
0.0
 10
253.3765038056769
 20
291.8375183186805
 30
0.0
 10
253.1711005196065
 20
291.8578175711559
 30
0.0
 10
253.0686718063252
 20
291.8596896766556
 30
0.0
 10
253.0175551281498
 20
291.860623944121
 30
0.0
 11
253.0175551281498
 21
291.860623944121
 31
0.0
 11
252.8644265539136
 21
291.8557837765004
 31
0.0
 11
252.7113238389568
 21
291.841263834749
 31
0.0
 11
252.4053494723341
 21
291.7835686010464
 31
0.0
 11
252.1087979529575
 21
291.6890619338369
 31
0.0
 11
251.8131537509605
 21
291.5553746667108
 31
0.0
 11
251.5344602486622
 21
291.3896394301762
 31
0.0
 11
251.2593393081244
 21
291.1842097960063
 31
0.0
 11
251.0060449858631
 21
290.9527163781638
 31
0.0
 11
250.7604041900765
 21
290.6824308398595
 31
0.0
 11
250.5392969911388
 21
290.391952727622
 31
0.0
 11
250.3307512404748
 21
290.0657191893315
 31
0.0
 11
250.1480348453271
 21
289.724494226267
 31
0.0
 11
249.9827785356443
 21
289.3527911246814
 31
0.0
 11
249.8438657404228
 21
288.9705549259223
 31
0.0
 11
249.7266172764211
 21
288.5650712430108
 31
0.0
 11
249.6358549103778
 21
288.1529052645032
 31
0.0
 11
249.5697736280157
 21
287.7260282152841
 31
0.0
 11
249.5302057942527
 21
287.2959078410285
 31
0.0
 11
249.5169438267432
 21
286.8609983406035
 31
0.0
 11
249.5301662060165
 21
286.4260888632206
 31
0.0
 11
249.5696553055245
 21
285.9962895774776
 31
0.0
 11
249.6356186474049
 21
285.5697239029364
 31
0.0
 11
249.7263056741629
 21
285.157541336327
 31
0.0
 11
249.8434799855861
 21
284.7520362174208
 31
0.0
 11
249.9823228634155
 21
284.3697746185052
 31
0.0
 11
250.1475111836026
 21
283.9980412991155
 31
0.0
 11
250.3301651743082
 21
283.6567829249651
 31
0.0
 11
250.5386512818567
 21
283.3305112519145
 31
0.0
 11
250.759705329134
 21
283.0399927055352
 31
0.0
 11
251.0052965546161
 21
282.7696622425643
 31
0.0
 11
251.2585486528159
 21
282.5381225069957
 31
0.0
 11
251.533632727554
 21
282.3326425800473
 31
0.0
 11
251.8122952754871
 21
282.166856357365
 31
0.0
 11
252.1079112070626
 21
282.0331149107872
 31
0.0
 11
252.4045589436683
 21
281.9385263239373
 31
0.0
 11
252.7106606619044
 21
281.8807748282171
 31
0.0
 11
253.0168693423141
 21
281.8613867787379
 31
0.0
 11
253.3230815634863
 21
281.8807188253343
 31
0.0
 11
253.6291938387841
 21
281.9384143370924
 31
0.0
 11
253.9258588697515
 21
282.0329486684045
 31
0.0
 11
254.22149925638
 21
282.1666360474966
 31
0.0
 11
254.5001921203257
 21
282.3323713027644
 31
0.0
 11
254.7753137707197
 21
282.5378009161026
 31
0.0
 11
255.0286082110124
 21
282.7692943304803
 31
0.0
 11
255.2742488731879
 21
283.0395798727067
 31
0.0
 11
255.4953560498441
 21
283.3300579856049
 31
0.0
 11
255.7039018256893
 21
283.6562915231489
 31
0.0
 11
255.8866182255798
 21
283.9975164860314
 31
0.0
 11
256.0518745299925
 21
284.3692195878185
 31
0.0
 11
256.1907873209129
 21
284.7514557869716
 31
0.0
 11
256.3080357895196
 21
285.1569394694622
 31
0.0
 11
256.3987981772993
 21
285.5691054456897
 31
0.0
 11
256.4648594980203
 21
285.9958207719783
 31
0.0
 11
256.5044272729281
 21
286.4257769868424
 31
0.0
 11
256.517709216539
 21
286.8606852634467
 31
0.0
 11
256.5045068136309
 21
287.2955959619144
 31
0.0
 11
256.4650176741213
 21
287.7255594061449
 31
0.0
 11
256.3990343963937
 21
288.152286807264
 31
0.0
 11
256.3083473913815
 21
288.5644693761464
 31
0.0
 11
256.191173084559
 21
288.9699744954442
 31
0.0
 11
256.052330202432
 21
289.3522360939926
 31
0.0
 11
255.8871418770072
 21
289.7239694133393
 31
0.0
 11
255.7044878910156
 21
290.0652277875294
 31
0.0
 11
255.4960018084727
 21
290.391499460472
 31
0.0
 11
255.2749477390692
 21
290.6820180069466
 31
0.0
 11
255.0293563809111
 21
290.9523484705466
 31
0.0
 11
254.7761043999166
 21
291.1838882055596
 31
0.0
 11
254.5010210300663
 21
291.3893681291579
 31
0.0
 11
254.2223578482485
 21
291.555154354853
 31
0.0
 11
253.9267381280095
 21
291.6888958194389
 31
0.0
 11
253.6300939380824
 21
291.7834843894307
 31
0.0
 11
253.3240131624151
 21
291.8412357856068
 31
0.0
 11
253.1707970967786
 21
291.855777044874
 31
0.0
 11
253.0175551281498
 21
291.860623944121
 31
0.0
  0
SPLINE
  5
C3
330
39
100
AcDbEntity
  8
1
  6
Continuous
 62
     7
100
AcDbSpline
210
0.0
220
0.0
230
1.0
 70
    11
 71
     3
 72
    79
 73
    75
 74
    73
 42
0.0000000001
 43
0.0000000001
 44
0.00000001
 40
0.0
 40
0.0
 40
0.0
 40
0.0
 40
0.2811908795385174
 40
0.5623675859725086
 40
0.8457841413246765
 40
1.129175126910972
 40
1.415964157698004
 40
1.702720791237135
 40
1.993592069958798
 40
2.284429116500127
 40
2.579582515333962
 40
2.874704184291182
 40
3.173825713166303
 40
3.472921207644388
 40
3.775238661115352
 40
4.077537827279209
 40
4.381921768784307
 40
4.686296317522054
 40
4.99139160179125
 40
5.296486886060445
 40
5.600861434798187
 40
5.90524537630324
 40
6.207544542467058
 40
6.509861995938055
 40
6.80895749041614
 40
7.10807901929131
 40
7.403200688248562
 40
7.698354087082361
 40
7.989191133623589
 40
8.280062412345252
 40
8.566819045884447
 40
8.853608076671486
 40
9.136999062257795
 40
9.42041561761007
 40
9.70159232404411
 40
9.982783203582528
 40
10.26319204577866
 40
10.54360088797484
 40
10.82479176751337
 40
11.10596847394736
 40
11.38938502929947
 40
11.67277601488578
 40
11.9595650456728
 40
12.24632167921194
 40
12.53719295793361
 40
12.82803000447496
 40
13.12318340330885
 40
13.4183050722661
 40
13.71742660114119
 40
14.0165220956193
 40
14.31883954909025
 40
14.62113871525403
 40
14.92552265675904
 40
15.22989720549682
 40
15.5349924897661
 40
15.84008777403529
 40
16.14446232277299
 40
16.44884626427804
 40
16.75114543044191
 40
17.05346288391291
 40
17.35255837839107
 40
17.6516799072662
 40
17.94680157622342
 40
18.24195497505718
 40
18.5327920215984
 40
18.82366330032011
 40
19.11041993385935
 40
19.39720896464642
 40
19.68059995023273
 40
19.96401650558481
 40
20.24519321201883
 40
20.52638409155725
 40
20.80679293375344
 40
21.08720177594968
 40
21.08720177594968
 40
21.08720177594968
 40
21.08720177594968
 10
249.5308605161714
 20
275.32225282325
 30
0.0
 10
249.5423110957077
 20
275.2291522130662
 30
0.0
 10
249.565211677627
 20
275.0429556853282
 30
0.0
 10
249.6332456492661
 20
274.7687046223444
 30
0.0
 10
249.7248635891244
 20
274.5009642420525
 30
0.0
 10
249.8424689453166
 20
274.2413907948004
 30
0.0
 10
249.9836809455999
 20
273.9926434505882
 30
0.0
 10
250.148495196574
 20
273.7558173564865
 30
0.0
 10
250.3345643646856
 20
273.5335470690376
 30
0.0
 10
250.5415797433971
 20
273.3266810355489
 30
0.0
 10
250.7667689098687
 20
273.1375569093172
 30
0.0
 10
251.0096229562645
 20
272.9668996011279
 30
0.0
 10
251.2670807362257
 20
272.8165739832165
 30
0.0
 10
251.538346751295
 20
272.6872437924093
 30
0.0
 10
251.8202881084594
 20
272.5802049149363
 30
0.0
 10
252.1117127174954
 20
272.49605327391
 30
0.0
 10
252.4096382017809
 20
272.4355053824716
 30
0.0
 10
252.7123910140147
 20
272.3990162363131
 30
0.0
 10
253.0173265328702
 20
272.3867884667828
 30
0.0
 10
253.3222620517315
 20
272.3990162363128
 30
0.0
 10
253.6250148639484
 20
272.4355053824727
 30
0.0
 10
253.9229403482957
 20
272.4960532739054
 30
0.0
 10
254.2143649571028
 20
272.5802049149536
 30
0.0
 10
254.4963063151171
 20
272.6872437923453
 30
0.0
 10
254.7675723270467
 20
272.8165739834525
 30
0.0
 10
255.0250301186481
 20
272.966899600252
 30
0.0
 10
255.2678841221568
 20
273.1375569125382
 30
0.0
 10
255.4930734474721
 20
273.3266810235955
 30
0.0
 10
255.7000882416379
 20
273.5335471129257
 30
0.0
 10
255.886159574557
 20
273.755817193571
 30
0.0
 10
256.0509658551972
 20
273.9926440490775
 30
0.0
 10
256.1922073984728
 20
274.2413885710515
 30
0.0
 10
256.3097037410217
 20
274.5009724323633
 30
0.0
 10
256.4017264768523
 20
274.7686741425471
 30
0.0
 10
256.4682610547092
 20
275.0430684424291
 30
0.0
 10
256.5081620088984
 20
275.3215734392542
 30
0.0
 10
256.5216734190207
 20
275.6023422035456
 30
0.0
 10
256.5081620088984
 20
275.883110967837
 30
0.0
 10
256.4682610547091
 20
276.161615964662
 30
0.0
 10
256.4017264768525
 20
276.4360102645441
 30
0.0
 10
256.3097037410216
 20
276.7037119747278
 30
0.0
 10
256.1922073984728
 20
276.9632958360395
 30
0.0
 10
256.0509658551971
 20
277.2120403580133
 30
0.0
 10
255.8861595745571
 20
277.4488672135201
 30
0.0
 10
255.7000882416379
 20
277.6711372941653
 30
0.0
 10
255.4930734474721
 20
277.8780033834956
 30
0.0
 10
255.2678841221568
 20
278.067127494553
 30
0.0
 10
255.025030118648
 20
278.2377848068392
 30
0.0
 10
254.7675723270467
 20
278.3881104236386
 30
0.0
 10
254.4963063151171
 20
278.5174406147457
 30
0.0
 10
254.2143649571028
 20
278.6244794921373
 30
0.0
 10
253.9229403482956
 20
278.7086311331856
 30
0.0
 10
253.6250148639486
 20
278.7691790246184
 30
0.0
 10
253.3222620517313
 20
278.8056681707784
 30
0.0
 10
253.0173265328712
 20
278.8178959403081
 30
0.0
 10
252.7123910140115
 20
278.8056681707785
 30
0.0
 10
252.4096382017931
 20
278.7691790246182
 30
0.0
 10
252.1117127174503
 20
278.7086311331859
 30
0.0
 10
251.8202881086268
 20
278.6244794921362
 30
0.0
 10
251.5383467506733
 20
278.5174406147503
 30
0.0
 10
251.2670807385185
 20
278.3881104236216
 30
0.0
 10
251.0096229477518
 20
278.2377848069018
 30
0.0
 10
250.7667689411682
 20
278.0671274943218
 30
0.0
 10
250.5415796272415
 20
277.8780033843527
 30
0.0
 10
250.334564791166
 20
277.6711372910188
 30
0.0
 10
250.1484936134549
 20
277.4488672252005
 30
0.0
 10
249.9836867613739
 20
277.2120403151041
 30
0.0
 10
249.8424473362116
 20
276.9632959954732
 30
0.0
 10
249.7249431778244
 20
276.7037113875156
 30
0.0
 10
249.6329494642314
 20
276.4360124498224
 30
0.0
 10
249.5663073858914
 20
276.1616078804329
 30
0.0
 10
249.5268066126687
 20
275.8831411128449
 30
0.0
 10
249.5118056015419
 20
275.6022300471582
 30
0.0
 10
249.5245088779616
 20
275.4155785645528
 30
0.0
 10
249.5308605161714
 20
275.32225282325
 30
0.0
 11
249.5308605161714
 21
275.32225282325
 31
0.0
 11
249.5707964525325
 21
275.0439123272337
 31
0.0
 11
249.6369307572243
 21
274.7706238459836
 31
0.0
 11
249.729080130434
 21
274.5026062404709
 31
0.0
 11
249.8458052609007
 21
274.2443705058618
 31
0.0
 11
249.987397292645
 21
273.9949719398549
 31
0.0
 11
250.1510682244998
 21
273.759512404171
 31
0.0
 11
250.3377476260383
 21
273.5364498527949
 31
0.0
 11
250.5433736231889
 21
273.3307701577915
 31
0.0
 11
250.7693569530263
 21
273.1409095155331
 31
0.0
 11
251.0107501658688
 21
272.9711269596516
 31
0.0
 11
251.26903717813
 21
272.82025778343
 31
0.0
 11
251.5389757673264
 21
272.69145066841
 31
0.0
 11
251.8215964705541
 21
272.5841129733526
 31
0.0
 11
252.1120101270699
 21
272.5001802981153
 31
0.0
 11
252.4102929437264
 21
272.4395424787807
 31
0.0
 11
252.7124758525606
 21
272.4030821506448
 31
0.0
 11
253.0173265328712
 21
272.3908676020465
 31
0.0
 11
253.3221772131818
 21
272.4030821506448
 31
0.0
 11
253.6243601220161
 21
272.4395424787806
 31
0.0
 11
253.9226429386725
 21
272.5001802981153
 31
0.0
 11
254.2130565951882
 21
272.5841129733527
 31
0.0
 11
254.495677298416
 21
272.69145066841
 31
0.0
 11
254.7656158876124
 21
272.82025778343
 31
0.0
 11
255.0239028998736
 21
272.9711269596516
 31
0.0
 11
255.2652961127161
 21
273.1409095155332
 31
0.0
 11
255.4912794425535
 21
273.3307701577915
 31
0.0
 11
255.6969054397041
 21
273.5364498527948
 31
0.0
 11
255.8835848412426
 21
273.7595124041709
 31
0.0
 11
256.0472557730974
 21
273.9949719398549
 31
0.0
 11
256.1888478048417
 21
274.2443705058618
 31
0.0
 11
256.3055729353084
 21
274.5026062404709
 31
0.0
 11
256.397722308518
 21
274.7706238459837
 31
0.0
 11
256.4638566132098
 21
275.0439123272338
 31
0.0
 11
256.503792549571
 21
275.32225282325
 31
0.0
 11
256.517173798671
 21
275.6023422035455
 31
0.0
 11
256.503792549571
 21
275.882431583841
 31
0.0
 11
256.4638566132098
 21
276.1607720798573
 31
0.0
 11
256.397722308518
 21
276.4340605611075
 31
0.0
 11
256.3055729353084
 21
276.7020781666201
 31
0.0
 11
256.1888478048417
 21
276.9603139012292
 31
0.0
 11
256.0472557730973
 21
277.2097124672361
 31
0.0
 11
255.8835848412426
 21
277.44517200292
 31
0.0
 11
255.6969054397042
 21
277.6682345542961
 31
0.0
 11
255.4912794425535
 21
277.8739142492996
 31
0.0
 11
255.2652961127161
 21
278.063774891558
 31
0.0
 11
255.0239028998736
 21
278.2335574474395
 31
0.0
 11
254.7656158876124
 21
278.3844266236611
 31
0.0
 11
254.495677298416
 21
278.513233738681
 31
0.0
 11
254.2130565951882
 21
278.6205714337383
 31
0.0
 11
253.9226429386725
 21
278.7045041089757
 31
0.0
 11
253.6243601220162
 21
278.7651419283105
 31
0.0
 11
253.3221772131819
 21
278.8016022564464
 31
0.0
 11
253.0173265328712
 21
278.8138168050446
 31
0.0
 11
252.7124758525606
 21
278.8016022564464
 31
0.0
 11
252.4102929437264
 21
278.7651419283104
 31
0.0
 11
252.11201012707
 21
278.7045041089757
 31
0.0
 11
251.8215964705542
 21
278.6205714337384
 31
0.0
 11
251.5389757673264
 21
278.513233738681
 31
0.0
 11
251.26903717813
 21
278.3844266236611
 31
0.0
 11
251.0107501658688
 21
278.2335574474394
 31
0.0
 11
250.7693569530263
 21
278.0637748915578
 31
0.0
 11
250.5433736231889
 21
277.8739142492996
 31
0.0
 11
250.3377476260384
 21
277.6682345542963
 31
0.0
 11
250.1510682244999
 21
277.4451720029201
 31
0.0
 11
249.987397292645
 21
277.2097124672361
 31
0.0
 11
249.8458052609007
 21
276.9603139012292
 31
0.0
 11
249.729080130434
 21
276.7020781666201
 31
0.0
 11
249.6369307572244
 21
276.4340605611075
 31
0.0
 11
249.5707964525327
 21
276.1607720798573
 31
0.0
 11
249.5308605161715
 21
275.8824315838411
 31
0.0
 11
249.5174792670714
 21
275.6023422035456
 31
0.0
 11
249.5308605161714
 21
275.32225282325
 31
0.0
  0
SPLINE
  5
C4
330
39
100
AcDbEntity
  8
1
  6
Continuous
 62
     7
100
AcDbSpline
210
0.0
220
0.0
230
1.0
 70
    11
 71
     3
 72
    79
 73
    75
 74
    73
 42
0.0000000001
 43
0.0000000001
 44
0.00000001
 40
0.0
 40
0.0
 40
0.0
 40
0.0
 40
0.2811908795384612
 40
0.5623675859725076
 40
0.8457841413247292
 40
1.129175126910974
 40
1.415964157698054
 40
1.702720791237186
 40
1.993592069958849
 40
2.284429116500177
 40
2.579582515334013
 40
2.8747041842912
 40
3.173825713166263
 40
3.472921207644373
 40
3.775238661115337
 40
4.077537827279209
 40
4.381921768784295
 40
4.68629631752205
 40
4.99139160179124
 40
5.29648688606043
 40
5.600861434798178
 40
5.90524537630322
 40
6.207544542467054
 40
6.50986199593803
 40
6.808957490416115
 40
7.108079019291257
 40
7.403200688248542
 40
7.698354087082304
 40
7.989191133623532
 40
8.280062412345238
 40
8.566819045884385
 40
8.853608076671472
 40
9.136999062257781
 40
9.420415617610056
 40
9.701592324044096
 40
9.982783203582569
 40
10.2631920457787
 40
10.54360088797483
 40
10.82479176751325
 40
11.10596847394729
 40
11.38938502929951
 40
11.67277601488582
 40
11.95956504567283
 40
12.24632167921193
 40
12.5371929579336
 40
12.82803000447495
 40
13.12318340330881
 40
13.41830507226605
 40
13.71742660114115
 40
14.01652209561928
 40
14.31883954909027
 40
14.62113871525403
 40
14.92552265675904
 40
15.22989720549681
 40
15.53499248976609
 40
15.84008777403528
 40
16.14446232277298
 40
16.44884626427803
 40
16.7511454304419
 40
17.0534628839129
 40
17.35255837839103
 40
17.65167990726613
 40
17.94680157622335
 40
18.24195497505719
 40
18.53279202159841
 40
18.82366330032016
 40
19.11041993385931
 40
19.39720896464638
 40
19.68059995023269
 40
19.96401650558483
 40
20.2451932120189
 40
20.52638409155732
 40
20.80679293375345
 40
21.08720177594969
 40
21.08720177594969
 40
21.08720177594969
 40
21.08720177594969
 10
249.5308605161714
 20
298.3997578892435
 30
0.0
 10
249.5423110957077
 20
298.4928584994273
 30
0.0
 10
249.5652116776269
 20
298.6790550271652
 30
0.0
 10
249.6332456492661
 20
298.9533060901492
 30
0.0
 10
249.7248635891245
 20
299.2210464704409
 30
0.0
 10
249.8424689453165
 20
299.4806199176929
 30
0.0
 10
249.9836809456
 20
299.7293672619055
 30
0.0
 10
250.148495196574
 20
299.9661933560069
 30
0.0
 10
250.3345643646856
 20
300.1884636434559
 30
0.0
 10
250.541579743397
 20
300.3953296769447
 30
0.0
 10
250.7667689098687
 20
300.5844538031763
 30
0.0
 10
251.0096229562645
 20
300.7551111113654
 30
0.0
 10
251.2670807362258
 20
300.9054367292768
 30
0.0
 10
251.5383467512949
 20
301.034766920084
 30
0.0
 10
251.8202881084594
 20
301.141805797557
 30
0.0
 10
252.1117127174953
 20
301.2259574385834
 30
0.0
 10
252.409638201781
 20
301.2865053300219
 30
0.0
 10
252.7123910140148
 20
301.3229944761804
 30
0.0
 10
253.0173265328702
 20
301.3352222457104
 30
0.0
 10
253.3222620517315
 20
301.3229944761807
 30
0.0
 10
253.6250148639483
 20
301.2865053300207
 30
0.0
 10
253.9229403482957
 20
301.225957438588
 30
0.0
 10
254.2143649571027
 20
301.1418057975396
 30
0.0
 10
254.4963063151171
 20
301.0347669201482
 30
0.0
 10
254.7675723270466
 20
300.905436729041
 30
0.0
 10
255.0250301186481
 20
300.7551111122416
 30
0.0
 10
255.2678841221567
 20
300.5844537999552
 30
0.0
 10
255.493073447472
 20
300.395329688898
 30
0.0
 10
255.700088241638
 20
300.1884635995679
 30
0.0
 10
255.8861595745569
 20
299.9661935189225
 30
0.0
 10
256.0509658551973
 20
299.729366663416
 30
0.0
 10
256.1922073984727
 20
299.4806221414419
 30
0.0
 10
256.3097037410218
 20
299.2210382801302
 30
0.0
 10
256.4017264768523
 20
298.9533365699464
 30
0.0
 10
256.4682610547092
 20
298.6789422700643
 30
0.0
 10
256.5081620088984
 20
298.4004372732393
 30
0.0
 10
256.5216734190207
 20
298.1196685089478
 30
0.0
 10
256.5081620088984
 20
297.8388997446565
 30
0.0
 10
256.4682610547091
 20
297.5603947478314
 30
0.0
 10
256.4017264768525
 20
297.2860004479495
 30
0.0
 10
256.3097037410216
 20
297.0182987377656
 30
0.0
 10
256.1922073984728
 20
296.758714876454
 30
0.0
 10
256.0509658551972
 20
296.5099703544801
 30
0.0
 10
255.886159574557
 20
296.2731434989735
 30
0.0
 10
255.700088241638
 20
296.0508734183281
 30
0.0
 10
255.4930734474721
 20
295.8440073289979
 30
0.0
 10
255.2678841221567
 20
295.6548832179405
 30
0.0
 10
255.0250301186481
 20
295.4842259056544
 30
0.0
 10
254.7675723270467
 20
295.3339002888549
 30
0.0
 10
254.4963063151171
 20
295.2045700977477
 30
0.0
 10
254.2143649571028
 20
295.0975312203561
 30
0.0
 10
253.9229403482956
 20
295.0133795793078
 30
0.0
 10
253.6250148639485
 20
294.952831687875
 30
0.0
 10
253.3222620517313
 20
294.9163425417151
 30
0.0
 10
253.0173265328712
 20
294.9041147721853
 30
0.0
 10
252.7123910140114
 20
294.916342541715
 30
0.0
 10
252.4096382017932
 20
294.9528316878754
 30
0.0
 10
252.1117127174502
 20
295.0133795793074
 30
0.0
 10
251.8202881086269
 20
295.0975312203573
 30
0.0
 10
251.5383467506733
 20
295.2045700977433
 30
0.0
 10
251.2670807385186
 20
295.3339002888717
 30
0.0
 10
251.0096229477518
 20
295.4842259055915
 30
0.0
 10
250.7667689411683
 20
295.6548832181716
 30
0.0
 10
250.5415796272415
 20
295.8440073281408
 30
0.0
 10
250.334564791166
 20
296.0508734214748
 30
0.0
 10
250.148493613455
 20
296.2731434872931
 30
0.0
 10
249.9836867613738
 20
296.5099703973891
 30
0.0
 10
249.8424473362117
 20
296.7587147170202
 30
0.0
 10
249.7249431778244
 20
297.0182993249779
 30
0.0
 10
249.6329494642314
 20
297.2859982626709
 30
0.0
 10
249.5663073858915
 20
297.5604028320606
 30
0.0
 10
249.5268066126687
 20
297.8388695996486
 30
0.0
 10
249.5118056015419
 20
298.1197806653352
 30
0.0
 10
249.5245088779615
 20
298.3064321479407
 30
0.0
 10
249.5308605161714
 20
298.3997578892435
 30
0.0
 11
249.5308605161714
 21
298.3997578892435
 31
0.0
 11
249.5707964525325
 21
298.6780983852597
 31
0.0
 11
249.6369307572243
 21
298.9513868665099
 31
0.0
 11
249.729080130434
 21
299.2194044720226
 31
0.0
 11
249.8458052609007
 21
299.4776402066317
 31
0.0
 11
249.987397292645
 21
299.7270387726386
 31
0.0
 11
250.1510682244998
 21
299.9624983083225
 31
0.0
 11
250.3377476260383
 21
300.1855608596986
 31
0.0
 11
250.5433736231889
 21
300.391240554702
 31
0.0
 11
250.7693569530263
 21
300.5811011969604
 31
0.0
 11
251.0107501658688
 21
300.7508837528418
 31
0.0
 11
251.26903717813
 21
300.9017529290634
 31
0.0
 11
251.5389757673264
 21
301.0305600440834
 31
0.0
 11
251.8215964705541
 21
301.1378977391408
 31
0.0
 11
252.1120101270699
 21
301.2218304143781
 31
0.0
 11
252.4102929437264
 21
301.2824682337127
 31
0.0
 11
252.7124758525606
 21
301.3189285618487
 31
0.0
 11
253.0173265328712
 21
301.3311431104469
 31
0.0
 11
253.3221772131818
 21
301.3189285618487
 31
0.0
 11
253.6243601220161
 21
301.2824682337128
 31
0.0
 11
253.9226429386725
 21
301.2218304143781
 31
0.0
 11
254.2130565951882
 21
301.1378977391407
 31
0.0
 11
254.495677298416
 21
301.0305600440835
 31
0.0
 11
254.7656158876124
 21
300.9017529290635
 31
0.0
 11
255.0239028998736
 21
300.7508837528419
 31
0.0
 11
255.2652961127161
 21
300.5811011969603
 31
0.0
 11
255.4912794425535
 21
300.391240554702
 31
0.0
 11
255.6969054397041
 21
300.1855608596987
 31
0.0
 11
255.8835848412426
 21
299.9624983083226
 31
0.0
 11
256.0472557730974
 21
299.7270387726387
 31
0.0
 11
256.1888478048417
 21
299.4776402066317
 31
0.0
 11
256.3055729353084
 21
299.2194044720226
 31
0.0
 11
256.397722308518
 21
298.9513868665098
 31
0.0
 11
256.4638566132098
 21
298.6780983852596
 31
0.0
 11
256.503792549571
 21
298.3997578892434
 31
0.0
 11
256.517173798671
 21
298.1196685089479
 31
0.0
 11
256.503792549571
 21
297.8395791286524
 31
0.0
 11
256.4638566132098
 21
297.5612386326362
 31
0.0
 11
256.397722308518
 21
297.287950151386
 31
0.0
 11
256.3055729353084
 21
297.0199325458733
 31
0.0
 11
256.1888478048417
 21
296.7616968112642
 31
0.0
 11
256.0472557730973
 21
296.5122982452573
 31
0.0
 11
255.8835848412426
 21
296.2768387095734
 31
0.0
 11
255.6969054397042
 21
296.0537761581973
 31
0.0
 11
255.4912794425535
 21
295.8480964631939
 31
0.0
 11
255.2652961127161
 21
295.6582358209355
 31
0.0
 11
255.0239028998736
 21
295.488453265054
 31
0.0
 11
254.7656158876124
 21
295.3375840888324
 31
0.0
 11
254.495677298416
 21
295.2087769738124
 31
0.0
 11
254.2130565951882
 21
295.101439278755
 31
0.0
 11
253.9226429386725
 21
295.0175066035177
 31
0.0
 11
253.6243601220162
 21
294.9568687841829
 31
0.0
 11
253.3221772131819
 21
294.9204084560471
 31
0.0
 11
253.0173265328712
 21
294.9081939074488
 31
0.0
 11
252.7124758525606
 21
294.9204084560471
 31
0.0
 11
252.4102929437264
 21
294.956868784183
 31
0.0
 11
252.11201012707
 21
295.0175066035178
 31
0.0
 11
251.8215964705542
 21
295.1014392787551
 31
0.0
 11
251.5389757673264
 21
295.2087769738124
 31
0.0
 11
251.26903717813
 21
295.3375840888323
 31
0.0
 11
251.0107501658688
 21
295.488453265054
 31
0.0
 11
250.7693569530263
 21
295.6582358209355
 31
0.0
 11
250.5433736231889
 21
295.8480964631939
 31
0.0
 11
250.3377476260384
 21
296.0537761581972
 31
0.0
 11
250.1510682244999
 21
296.2768387095734
 31
0.0
 11
249.987397292645
 21
296.5122982452573
 31
0.0
 11
249.8458052609007
 21
296.7616968112642
 31
0.0
 11
249.729080130434
 21
297.0199325458733
 31
0.0
 11
249.6369307572244
 21
297.287950151386
 31
0.0
 11
249.5707964525327
 21
297.5612386326362
 31
0.0
 11
249.5308605161715
 21
297.8395791286524
 31
0.0
 11
249.5174792670714
 21
298.1196685089479
 31
0.0
 11
249.5308605161714
 21
298.3997578892435
 31
0.0
  0
ENDBLK
  5
3B
330
39
100
AcDbEntity
  8
0
100
AcDbBlockEnd
  0
BLOCK
  5
3D
330
3C
100
AcDbEntity
  8
0
100
AcDbBlockBegin
  2
B4112L-0A-13-M11
 70
     0
 71
     0
 10
157.9101100251476
 20
-44.85276281195115
 30
0.0
  3
B4112L-0A-13-M11
  1

  0
LINE
  5
C5
330
3C
100
AcDbEntity
  8
1
  6
Continuous
 62
     7
100
AcDbLine
 10
292.4944733998555
 20
307.8610053562466
 30
0.0
 11
292.4944733998554
 21
305.8483623178514
 31
0.0
  0
LINE
  5
C6
330
3C
100
AcDbEntity
  8
1
  6
Continuous
 62
     7
100
AcDbLine
 10
312.0169733998556
 20
286.8610053562466
 30
0.0
 11
312.0169733998556
 21
273.8610053562466
 31
0.0
  0
LINE
  5
C7
330
3C
100
AcDbEntity
  8
1
  6
Continuous
 62
     7
100
AcDbLine
 10
312.0169733998556
 20
286.8610053562466
 30
0.0
 11
312.0169733998556
 21
299.8610053562466
 31
0.0
  0
LINE
  5
C8
330
3C
100
AcDbEntity
  8
1
  6
Continuous
 62
     7
100
AcDbLine
 10
301.795538860445
 20
299.8610053562466
 30
0.0
 11
312.0169733998556
 21
299.8610053562466
 31
0.0
  0
LINE
  5
C9
330
3C
100
AcDbEntity
  8
1
  6
Continuous
 62
     7
100
AcDbLine
 10
280.0169733998556
 20
273.8610053562466
 30
0.0
 11
312.0169733998556
 21
273.8610053562466
 31
0.0
  0
LINE
  5
CA
330
3C
100
AcDbEntity
  8
1
  6
Continuous
 62
     7
100
AcDbLine
 10
258.0169733998556
 20
274.8610053562466
 30
0.0
 11
256.5169733998555
 21
274.8610053562466
 31
0.0
  0
LINE
  5
CB
330
3C
100
AcDbEntity
  8
1
  6
Continuous
 62
     7
100
AcDbLine
 10
258.0169733998556
 20
274.8610053562466
 30
0.0
 11
258.0169733998556
 21
275.6110053562466
 31
0.0
  0
LINE
  5
CC
330
3C
100
AcDbEntity
  8
1
  6
Continuous
 62
     7
100
AcDbLine
 10
259.3160115055325
 20
274.8610053562466
 30
0.0
 11
258.0169733998556
 21
274.8610053562466
 31
0.0
  0
LINE
  5
CD
330
3C
100
AcDbEntity
  8
1
  6
Continuous
 62
     2
100
AcDbLine
 10
258.0169733998556
 20
275.6110053562466
 30
0.0
 11
256.5169733998555
 21
275.6110053562466
 31
0.0
  0
LINE
  5
CE
330
3C
100
AcDbEntity
  8
1
  6
Continuous
 62
     2
100
AcDbLine
 10
259.3160115055325
 20
274.8610053562466
 30
0.0
 11
258.0169733998556
 21
275.6110053562466
 31
0.0
  0
LINE
  5
CF
330
3C
100
AcDbEntity
  8
1
  6
Continuous
 62
     7
100
AcDbLine
 10
280.0169733998556
 20
273.8610053562466
 30
0.0
 11
260.3160115055325
 21
273.8610053562466
 31
0.0
  0
LINE
  5
D0
330
3C
100
AcDbEntity
  8
1
  6
Continuous
 62
     7
100
AcDbLine
 10
260.3160115055325
 20
273.8610053562466
 30
0.0
 11
259.3160115055325
 21
274.8610053562466
 31
0.0
  0
LINE
  5
D1
330
3C
100
AcDbEntity
  8
1
  6
Continuous
 62
     2
100
AcDbLine
 10
291.3324733998555
 20
307.8610053562466
 30
0.0
 11
292.4944733998554
 21
305.8483623178514
 31
0.0
  0
LINE
  5
D2
330
3C
100
AcDbEntity
  8
1
  6
Continuous
 62
     2
100
AcDbLine
 10
271.5394733998555
 20
305.8483623178515
 30
0.0
 11
272.7014733998554
 21
307.8610053562466
 31
0.0
  0
LINE
  5
D3
330
3C
100
AcDbEntity
  8
1
  6
Continuous
 62
     2
100
AcDbLine
 10
272.7014733998554
 20
315.6990053562466
 30
0.0
 11
272.7014733998554
 21
316.8610053562466
 31
0.0
  0
LINE
  5
D4
330
3C
100
AcDbEntity
  8
1
  6
Continuous
 62
     2
100
AcDbLine
 10
272.7014733998554
 20
307.8610053562466
 30
0.0
 11
272.7014733998554
 21
315.6990053562466
 31
0.0
  0
LINE
  5
D5
330
3C
100
AcDbEntity
  8
1
  6
Continuous
 62
     2
100
AcDbLine
 10
291.3324733998555
 20
316.8610053562466
 30
0.0
 11
291.3324733998554
 21
315.6990053562466
 31
0.0
  0
LINE
  5
D6
330
3C
100
AcDbEntity
  8
1
  6
Continuous
 62
     7
100
AcDbLine
 10
291.3324733998554
 20
315.6990053562466
 30
0.0
 11
292.4944733998555
 21
315.6990053562467
 31
0.0
  0
LINE
  5
D7
330
3C
100
AcDbEntity
  8
1
  6
Continuous
 62
     7
100
AcDbLine
 10
272.7014733998554
 20
315.6990053562466
 30
0.0
 11
271.5394733998556
 21
315.6990053562467
 31
0.0
  0
LINE
  5
D8
330
3C
100
AcDbEntity
  8
1
  6
Continuous
 62
     7
100
AcDbLine
 10
271.5394733998555
 20
307.8610053562466
 30
0.0
 11
271.5394733998556
 21
315.6990053562467
 31
0.0
  0
LINE
  5
D9
330
3C
100
AcDbEntity
  8
1
  6
Continuous
 62
     7
100
AcDbLine
 10
271.5394733998556
 20
315.6990053562467
 30
0.0
 11
272.7014733998554
 21
316.8610053562466
 31
0.0
  0
LINE
  5
DA
330
3C
100
AcDbEntity
  8
1
  6
Continuous
 62
     7
100
AcDbLine
 10
292.4944733998555
 20
307.8610053562466
 30
0.0
 11
292.4944733998555
 21
315.6990053562467
 31
0.0
  0
LINE
  5
DB
330
3C
100
AcDbEntity
  8
1
  6
Continuous
 62
     7
100
AcDbLine
 10
292.4944733998555
 20
315.6990053562467
 30
0.0
 11
291.3324733998555
 21
316.8610053562466
 31
0.0
  0
LINE
  5
DC
330
3C
100
AcDbEntity
  8
1
  6
Continuous
 62
     7
100
AcDbLine
 10
271.5394733998555
 20
307.8610053562466
 30
0.0
 11
272.7014733998554
 21
307.8610053562466
 31
0.0
  0
LINE
  5
DD
330
3C
100
AcDbEntity
  8
1
  6
Continuous
 62
     2
100
AcDbLine
 10
291.3324733998554
 20
315.6990053562466
 30
0.0
 11
291.3324733998555
 21
307.8610053562466
 31
0.0
  0
LINE
  5
DE
330
3C
100
AcDbEntity
  8
1
  6
Continuous
 62
     7
100
AcDbLine
 10
291.3324733998555
 20
307.8610053562466
 30
0.0
 11
292.4944733998555
 21
307.8610053562466
 31
0.0
  0
LINE
  5
DF
330
3C
100
AcDbEntity
  8
1
  6
Continuous
 62
     7
100
AcDbLine
 10
258.0169733998556
 20
298.1110053562466
 30
0.0
 11
258.0169733998556
 21
298.8610053562466
 31
0.0
  0
LINE
  5
E0
330
3C
100
AcDbEntity
  8
1
  6
Continuous
 62
     7
100
AcDbLine
 10
258.0169733998556
 20
298.8610053562466
 30
0.0
 11
259.3160115055325
 21
298.8610053562466
 31
0.0
  0
LINE
  5
E1
330
3C
100
AcDbEntity
  8
1
  6
Continuous
 62
     2
100
AcDbLine
 10
258.0169733998556
 20
298.1110053562466
 30
0.0
 11
259.3160115055325
 21
298.8610053562466
 31
0.0
  0
LINE
  5
E2
330
3C
100
AcDbEntity
  8
1
  6
Continuous
 62
     7
100
AcDbLine
 10
259.3160115055325
 20
298.8610053562466
 30
0.0
 11
260.3160115055325
 21
299.8610053562466
 31
0.0
  0
LINE
  5
E3
330
3C
100
AcDbEntity
  8
1
  6
Continuous
 62
     7
100
AcDbLine
 10
271.5394733998555
 20
305.8483623178515
 30
0.0
 11
271.5394733998555
 21
307.8610053562466
 31
0.0
  0
LINE
  5
E4
330
3C
100
AcDbEntity
  8
1
  6
Continuous
 62
     7
100
AcDbLine
 10
272.7014733998554
 20
316.8610053562466
 30
0.0
 11
291.3324733998555
 21
316.8610053562466
 31
0.0
  0
LINE
  5
E5
330
3C
100
AcDbEntity
  8
1
  6
Continuous
 62
     7
100
AcDbLine
 10
260.3160115055325
 20
299.8610053562466
 30
0.0
 11
262.2384079392659
 21
299.8610053562466
 31
0.0
  0
LINE
  5
E6
330
3C
100
AcDbEntity
  8
1
  6
PHANTOM
 62
     4
100
AcDbLine
 10
282.0182233998557
 20
270.8610053562466
 30
0.0
 11
282.0182233998558
 21
319.8610053562466
 31
0.0
  0
LINE
  5
E7
330
3C
100
AcDbEntity
  8
1
  6
Continuous
 62
     7
100
AcDbLine
 10
296.1386846109526
 20
302.2041511067541
 30
0.0
 11
292.4944733998554
 21
305.8483623178514
 31
0.0
  0
LINE
  5
E8
330
3C
100
AcDbEntity
  8
1
  6
Continuous
 62
     7
100
AcDbLine
 10
271.5394733998555
 20
305.8483623178515
 30
0.0
 11
267.8952621887583
 21
302.2041511067541
 31
0.0
  0
LINE
  5
E9
330
3C
100
AcDbEntity
  8
1
  6
Continuous
 62
     7
100
AcDbLine
 10
256.5169733998555
 20
298.8610053562466
 30
0.0
 11
258.0169733998556
 21
298.8610053562466
 31
0.0
  0
LINE
  5
EA
330
3C
100
AcDbEntity
  8
1
  6
Continuous
 62
     2
100
AcDbLine
 10
256.5169733998555
 20
298.1110053562466
 30
0.0
 11
258.0169733998556
 21
298.1110053562466
 31
0.0
  0
LINE
  5
EB
330
3C
100
AcDbEntity
  8
1
  6
Continuous
 62
     7
100
AcDbLine
 10
271.5394733998555
 20
305.8483623178515
 30
0.0
 11
292.4944733998554
 21
305.8483623178514
 31
0.0
  0
LINE
  5
EC
330
3C
100
AcDbEntity
  8
1
  6
Continuous
 62
     7
100
AcDbLine
 10
272.7014733998554
 20
307.8610053562466
 30
0.0
 11
291.3324733998555
 21
307.8610053562466
 31
0.0
  0
LINE
  5
ED
330
3C
100
AcDbEntity
  8
1
  6
Continuous
 62
     7
100
AcDbLine
 10
272.7014733998554
 20
315.6990053562466
 30
0.0
 11
291.3324733998554
 21
315.6990053562466
 31
0.0
  0
LINE
  5
EE
330
3C
100
AcDbEntity
  8
1
  6
Continuous
 62
     7
100
AcDbLine
 10
259.3160115055325
 20
274.8610053562466
 30
0.0
 11
259.3160115055325
 21
298.8610053562466
 31
0.0
  0
LINE
  5
EF
330
3C
100
AcDbEntity
  8
1
  6
Continuous
 62
     7
100
AcDbLine
 10
258.0169733998556
 20
275.6110053562466
 30
0.0
 11
258.0169733998556
 21
298.1110053562466
 31
0.0
  0
LINE
  5
F0
330
3C
100
AcDbEntity
  8
1
  6
Continuous
 62
     7
100
AcDbLine
 10
256.5169733998555
 20
274.8610053562466
 30
0.0
 11
256.5169733998555
 21
298.8610053562466
 31
0.0
  0
LINE
  5
F1
330
3C
100
AcDbEntity
  8
1
  6
Continuous
 62
     7
100
AcDbLine
 10
135.4347009183233
 20
304.3411107771801
 30
0.0
 11
133.9274493776519
 21
305.8483623178514
 31
0.0
  0
LINE
  5
F2
330
3C
100
AcDbEntity
  8
1
  6
Continuous
 62
     7
100
AcDbLine
 10
135.4347009183233
 20
304.3411107771801
 30
0.0
 11
135.8478512854728
 21
296.4577321490142
 31
0.0
  0
LINE
  5
F3
330
3C
100
AcDbEntity
  8
1
  6
Continuous
 62
     7
100
AcDbLine
 10
114.1344493776516
 20
316.8610053562466
 30
0.0
 11
132.7654493776517
 21
316.8610053562466
 31
0.0
  0
LINE
  5
F4
330
3C
100
AcDbEntity
  8
1
  6
Continuous
 62
     7
100
AcDbLine
 10
133.9274493776519
 20
307.8610053562466
 30
0.0
 11
133.9274493776519
 21
305.8483623178514
 31
0.0
  0
LINE
  5
F5
330
3C
100
AcDbEntity
  8
1
  6
Continuous
 62
     7
100
AcDbLine
 10
132.7654493776517
 20
307.8610053562466
 30
0.0
 11
133.9274493776519
 21
307.8610053562466
 31
0.0
  0
LINE
  5
F6
330
3C
100
AcDbEntity
  8
1
  6
Continuous
 62
     7
100
AcDbLine
 10
114.1344493776516
 20
316.8610053562466
 30
0.0
 11
112.9724493776517
 21
315.6990053562465
 31
0.0
  0
LINE
  5
F7
330
3C
100
AcDbEntity
  8
1
  6
Continuous
 62
     7
100
AcDbLine
 10
112.9724493776517
 20
315.6990053562465
 30
0.0
 11
112.9724493776517
 21
314.1626184614083
 31
0.0
  0
LINE
  5
F8
330
3C
100
AcDbEntity
  8
1
  6
Continuous
 62
     7
100
AcDbLine
 10
132.7654493776517
 20
316.8610053562466
 30
0.0
 11
133.9274493776519
 21
315.6990053562465
 31
0.0
  0
LINE
  5
F9
330
3C
100
AcDbEntity
  8
1
  6
Continuous
 62
     7
100
AcDbLine
 10
133.9274493776519
 20
315.6990053562465
 30
0.0
 11
133.9274493776519
 21
307.8610053562466
 31
0.0
  0
LINE
  5
FA
330
3C
100
AcDbEntity
  8
1
  6
Continuous
 62
     7
100
AcDbLine
 10
133.9274493776519
 20
315.6990053562465
 30
0.0
 11
132.7654493776517
 21
315.6990053562465
 31
0.0
  0
LINE
  5
FB
330
3C
100
AcDbEntity
  8
1
  6
Continuous
 62
     7
100
AcDbLine
 10
112.9724493776517
 20
315.6990053562465
 30
0.0
 11
132.7654493776517
 21
315.6990053562465
 31
0.0
  0
LINE
  5
FC
330
3C
100
AcDbEntity
  8
1
  6
Continuous
 62
     2
100
AcDbLine
 10
114.1344493776516
 20
315.6990053562465
 30
0.0
 11
114.1344493776516
 21
316.8610053562466
 31
0.0
  0
LINE
  5
FD
330
3C
100
AcDbEntity
  8
1
  6
Continuous
 62
     2
100
AcDbLine
 10
132.7654493776517
 20
315.6990053562465
 30
0.0
 11
132.7654493776517
 21
307.8610053562466
 31
0.0
  0
LINE
  5
FE
330
3C
100
AcDbEntity
  8
1
  6
Continuous
 62
     2
100
AcDbLine
 10
132.7654493776517
 20
316.8610053562466
 30
0.0
 11
132.7654493776517
 21
315.6990053562465
 31
0.0
  0
LINE
  5
FF
330
3C
100
AcDbEntity
  8
1
  6
Continuous
 62
     2
100
AcDbLine
 10
132.7654493776517
 20
307.8610053562466
 30
0.0
 11
133.9274493776519
 21
305.8483623178514
 31
0.0
  0
LINE
  5
100
330
3C
100
AcDbEntity
  8
1
  6
PHANTOM
 62
     4
100
AcDbLine
 10
282.0182233998557
 20
370.8610053562478
 30
0.0
 11
282.0182233998557
 21
421.3610053562462
 31
0.0
  0
LINE
  5
101
330
3C
100
AcDbEntity
  8
1
  6
Continuous
 62
     7
100
AcDbLine
 10
300.2642389534928
 20
373.8610053562492
 30
0.0
 11
260.3172615055327
 21
373.8610053562468
 31
0.0
  0
LINE
  5
102
330
3C
100
AcDbEntity
  8
1
  6
Continuous
 62
     7
100
AcDbLine
 10
292.4957233998558
 20
407.3483623178511
 30
0.0
 11
271.5407233998556
 21
407.3483623178511
 31
0.0
  0
LINE
  5
103
330
3C
100
AcDbEntity
  8
1
  6
Continuous
 62
     7
100
AcDbLine
 10
259.3172615055327
 20
398.8610053562468
 30
0.0
 11
259.3172615055327
 21
374.8610053562468
 31
0.0
  0
LINE
  5
104
330
3C
100
AcDbEntity
  8
1
  6
Continuous
 62
     7
100
AcDbLine
 10
312.0182233998557
 20
397.5935053562465
 30
0.0
 11
312.0182233998557
 21
386.8610053562467
 31
0.0
  0
LINE
  5
105
330
3C
100
AcDbEntity
  8
1
  6
Continuous
 62
     7
100
AcDbLine
 10
312.0182233998557
 20
376.1285053562468
 30
0.0
 11
312.0182233998557
 21
386.8610053562467
 31
0.0
  0
LINE
  5
106
330
3C
100
AcDbEntity
  8
1
  6
Continuous
 62
     2
100
AcDbLine
 10
291.3337233998557
 20
409.3610053562462
 30
0.0
 11
292.4957233998558
 21
407.3483623178511
 31
0.0
  0
LINE
  5
107
330
3C
100
AcDbEntity
  8
1
  6
Continuous
 62
     2
100
AcDbLine
 10
271.5407233998556
 20
407.3483623178511
 30
0.0
 11
272.7027233998555
 21
409.3610053562462
 31
0.0
  0
LINE
  5
108
330
3C
100
AcDbEntity
  8
1
  6
Continuous
 62
     2
100
AcDbLine
 10
272.7027233998555
 20
409.3610053562462
 30
0.0
 11
272.7027233998555
 21
410.3610053562462
 31
0.0
  0
LINE
  5
109
330
3C
100
AcDbEntity
  8
1
  6
Continuous
 62
     7
100
AcDbLine
 10
271.5407233998556
 20
409.3610053562462
 30
0.0
 11
271.5407233998556
 21
410.3610053562462
 31
0.0
  0
LINE
  5
10A
330
3C
100
AcDbEntity
  8
1
  6
Continuous
 62
     7
100
AcDbLine
 10
292.4957233998558
 20
409.3610053562462
 30
0.0
 11
292.4957233998558
 21
410.3610053562462
 31
0.0
  0
LINE
  5
10B
330
3C
100
AcDbEntity
  8
1
  6
Continuous
 62
     7
100
AcDbLine
 10
271.5407233998556
 20
409.3610053562462
 30
0.0
 11
272.7027233998555
 21
409.3610053562462
 31
0.0
  0
LINE
  5
10C
330
3C
100
AcDbEntity
  8
1
  6
Continuous
 62
     2
100
AcDbLine
 10
291.3337233998557
 20
410.3610053562462
 30
0.0
 11
291.3337233998557
 21
409.3610053562462
 31
0.0
  0
LINE
  5
10D
330
3C
100
AcDbEntity
  8
1
  6
Continuous
 62
     7
100
AcDbLine
 10
272.7027233998555
 20
409.3610053562462
 30
0.0
 11
292.4957233998558
 21
409.3610053562462
 31
0.0
  0
LINE
  5
10E
330
3C
100
AcDbEntity
  8
1
  6
Continuous
 62
     7
100
AcDbLine
 10
258.0182233998557
 20
398.1110053562468
 30
0.0
 11
258.0182233998557
 21
398.8610053562468
 31
0.0
  0
LINE
  5
10F
330
3C
100
AcDbEntity
  8
1
  6
Continuous
 62
     7
100
AcDbLine
 10
258.0182233998557
 20
398.8610053562468
 30
0.0
 11
259.3172615055327
 21
398.8610053562468
 31
0.0
  0
LINE
  5
110
330
3C
100
AcDbEntity
  8
1
  6
Continuous
 62
     2
100
AcDbLine
 10
258.0182233998557
 20
398.1110053562468
 30
0.0
 11
259.3172615055327
 21
398.8610053562468
 31
0.0
  0
LINE
  5
111
330
3C
100
AcDbEntity
  8
1
  6
Continuous
 62
     7
100
AcDbLine
 10
292.4957233998558
 20
409.3610053562462
 30
0.0
 11
292.4957233998558
 21
407.3483623178511
 31
0.0
  0
LINE
  5
112
330
3C
100
AcDbEntity
  8
1
  6
Continuous
 62
     7
100
AcDbLine
 10
271.5407233998556
 20
407.3483623178511
 30
0.0
 11
271.5407233998556
 21
409.3610053562462
 31
0.0
  0
LINE
  5
113
330
3C
100
AcDbEntity
  8
1
  6
Continuous
 62
     7
100
AcDbLine
 10
258.0182233998557
 20
374.8610053562468
 30
0.0
 11
256.5169733998555
 21
374.8610053562467
 31
0.0
  0
LINE
  5
114
330
3C
100
AcDbEntity
  8
1
  6
Continuous
 62
     7
100
AcDbLine
 10
258.0182233998557
 20
374.8610053562468
 30
0.0
 11
258.0182233998557
 21
398.8610053562468
 31
0.0
  0
LINE
  5
115
330
3C
100
AcDbEntity
  8
1
  6
Continuous
 62
     7
100
AcDbLine
 10
259.3172615055327
 20
374.8610053562468
 30
0.0
 11
258.0182233998557
 21
374.8610053562468
 31
0.0
  0
LINE
  5
116
330
3C
100
AcDbEntity
  8
1
  6
Continuous
 62
     2
100
AcDbLine
 10
258.0182233998557
 20
375.6110053562461
 30
0.0
 11
256.5169733998555
 21
375.6110053562463
 31
0.0
  0
LINE
  5
117
330
3C
100
AcDbEntity
  8
1
  6
Continuous
 62
     2
100
AcDbLine
 10
259.3172615055327
 20
374.8610053562468
 30
0.0
 11
258.0182233998557
 21
375.6110053562461
 31
0.0
  0
LINE
  5
118
330
3C
100
AcDbEntity
  8
1
  6
Continuous
 62
     7
100
AcDbLine
 10
310.8571102326543
 20
394.3665588557116
 30
0.0
 11
303.179336567057
 21
394.3665588557116
 31
0.0
  0
LINE
  5
119
330
3C
100
AcDbEntity
  8
1
  6
Continuous
 62
     7
100
AcDbLine
 10
310.8571102326543
 20
379.3554518567819
 30
0.0
 11
303.179336567057
 21
379.3554518567819
 31
0.0
  0
LINE
  5
11A
330
3C
100
AcDbEntity
  8
1
  6
Continuous
 62
     7
100
AcDbLine
 10
312.0182233998557
 20
375.6026751070493
 30
0.0
 11
312.0182233998557
 21
398.1193356054437
 31
0.0
  0
LINE
  5
11B
330
3C
100
AcDbEntity
  8
1
  6
Continuous
 62
     7
100
AcDbLine
 10
310.8571102326543
 20
371.8498983573164
 30
0.0
 11
303.179336567057
 21
371.8498983573164
 31
0.0
  0
LINE
  5
11C
330
3C
100
AcDbEntity
  8
1
  6
Continuous
 62
     7
100
AcDbLine
 10
310.8571102326566
 20
401.8721123551766
 30
0.0
 11
310.8571102326543
 21
401.8721123551766
 31
0.0
  0
LINE
  5
11D
330
3C
100
AcDbEntity
  8
1
  6
Continuous
 62
     7
100
AcDbLine
 10
303.179336567057
 20
401.8721123551766
 30
0.0
 11
303.1793365670547
 21
401.8721123551766
 31
0.0
  0
LINE
  5
11E
330
3C
100
AcDbEntity
  8
1
  6
Continuous
 62
     7
100
AcDbLine
 10
310.8571102326543
 20
401.8721123551766
 30
0.0
 11
303.179336567057
 21
401.8721123551766
 31
0.0
  0
LINE
  5
11F
330
3C
100
AcDbEntity
  8
1
  6
Continuous
 62
     7
100
AcDbLine
 10
263.768223399763
 20
373.8610053562462
 30
0.0
 11
263.7634468127126
 21
373.8610053562462
 31
0.0
  0
LINE
  5
120
330
3C
100
AcDbEntity
  8
1
  6
PHANTOM
 62
     4
100
AcDbLine
 10
249.0182233998557
 20
386.8610053562466
 30
0.0
 11
315.0182233998557
 21
386.8610053562463
 31
0.0
  0
LINE
  5
121
330
3C
100
AcDbEntity
  8
1
  6
Continuous
 62
     7
100
AcDbLine
 10
279.0194733998554
 20
381.0962417010742
 30
0.0
 11
279.0194733998554
 21
392.625769011419
 31
0.0
  0
LINE
  5
122
330
3C
100
AcDbEntity
  8
1
  6
Continuous
 62
     7
100
AcDbLine
 10
256.5169733998555
 20
398.8610053562468
 30
0.0
 11
258.0182233998557
 21
398.8610053562468
 31
0.0
  0
LINE
  5
123
330
3C
100
AcDbEntity
  8
1
  6
Continuous
 62
     2
100
AcDbLine
 10
256.5169733998555
 20
398.1110053562468
 30
0.0
 11
258.0182233998557
 21
398.1110053562468
 31
0.0
  0
LINE
  5
124
330
3C
100
AcDbEntity
  8
1
  6
Continuous
 62
     7
100
AcDbLine
 10
292.4957233998558
 20
407.3483623178511
 30
0.0
 11
293.3802094470464
 21
406.4638762706604
 31
0.0
  0
LINE
  5
125
330
3C
100
AcDbEntity
  8
1
  6
Continuous
 62
     7
100
AcDbLine
 10
271.5407233998556
 20
407.3483623178511
 30
0.0
 11
270.6429040894153
 21
406.4505430074106
 31
0.0
  0
LINE
  5
126
330
3C
100
AcDbEntity
  8
1
  6
Continuous
 62
     7
100
AcDbLine
 10
270.6429040894153
 20
406.4505430074106
 30
0.0
 11
293.3802094470464
 21
406.4505430074106
 31
0.0
  0
LINE
  5
127
330
3C
100
AcDbEntity
  8
1
  6
Continuous
 62
     7
100
AcDbLine
 10
259.3172615055327
 20
398.8610053562468
 30
0.0
 11
260.3172615055327
 21
399.8610053562468
 31
0.0
  0
LINE
  5
128
330
3C
100
AcDbEntity
  8
1
  6
Continuous
 62
     7
100
AcDbLine
 10
260.3172615055327
 20
399.8610053562468
 30
0.0
 11
262.7682233998524
 21
399.8610053562469
 31
0.0
  0
LINE
  5
129
330
3C
100
AcDbEntity
  8
1
  6
Continuous
 62
     7
100
AcDbLine
 10
260.3172615055327
 20
373.8610053562468
 30
0.0
 11
259.3172615055327
 21
374.8610053562468
 31
0.0
  0
LINE
  5
12A
330
3C
100
AcDbEntity
  8
1
  6
Continuous
 62
     7
100
AcDbLine
 10
260.3172615055327
 20
399.8610053562468
 30
0.0
 11
260.3172615055327
 21
373.8610053562468
 31
0.0
  0
LINE
  5
12B
330
3C
100
AcDbEntity
  8
1
  6
Continuous
 62
     2
100
AcDbLine
 10
114.1344493776516
 20
313.598940146606
 30
0.0
 11
114.1344493776516
 21
315.6990053562465
 31
0.0
  0
LINE
  5
12C
330
3C
100
AcDbEntity
  8
1
  6
Continuous
 62
     7
100
AcDbLine
 10
120.0879949698894
 20
307.8610053562466
 30
0.0
 11
132.7654493776517
 21
307.8610053562466
 31
0.0
  0
LINE
  5
12D
330
3C
100
AcDbEntity
  8
1
  6
Continuous
 62
     7
100
AcDbLine
 10
122.1006380082846
 20
305.8483623178514
 30
0.0
 11
133.9274493776519
 21
305.8483623178514
 31
0.0
  0
LINE
  5
12E
330
3C
100
AcDbEntity
  8
1
  6
Continuous
 62
     7
100
AcDbLine
 10
123.6078895489558
 20
304.3411107771801
 30
0.0
 11
135.4347009183233
 21
304.3411107771801
 31
0.0
  0
LINE
  5
12F
330
3C
100
AcDbEntity
  8
1
  6
Continuous
 62
     7
100
AcDbLine
 10
103.8604117264877
 20
275.4856860458061
 30
0.0
 11
103.8604117264877
 21
298.2229914034372
 31
0.0
  0
LINE
  5
130
330
3C
100
AcDbEntity
  8
1
  6
Continuous
 62
     7
100
AcDbLine
 10
102.9625924160473
 20
276.3835053562464
 30
0.0
 11
103.8604117264877
 21
275.4856860458061
 31
0.0
  0
LINE
  5
131
330
3C
100
AcDbEntity
  8
1
  6
Continuous
 62
     7
100
AcDbLine
 10
102.9625924160473
 20
297.3385053562466
 30
0.0
 11
103.8470784632379
 21
298.2229914034372
 31
0.0
  0
LINE
  5
132
330
3C
100
AcDbEntity
  8
1
  6
PHANTOM
 62
     4
100
AcDbLine
 10
123.4499493776518
 20
253.8610053562465
 30
0.0
 11
123.449949377652
 21
319.8610053562465
 31
0.0
  0
LINE
  5
133
330
3C
100
AcDbEntity
  8
1
  6
Continuous
 62
     7
100
AcDbLine
 10
102.9625924160473
 20
276.3835053562464
 30
0.0
 11
100.9499493776521
 21
276.3835053562464
 31
0.0
  0
LINE
  5
134
330
3C
100
AcDbEntity
  8
1
  6
Continuous
 62
     7
100
AcDbLine
 10
100.9499493776521
 20
297.3385053562466
 30
0.0
 11
102.9625924160473
 21
297.3385053562466
 31
0.0
  0
LINE
  5
135
330
3C
100
AcDbEntity
  8
1
  6
Continuous
 62
     7
100
AcDbLine
 10
100.9499493776521
 20
277.5455053562463
 30
0.0
 11
100.9499493776521
 21
297.3385053562466
 31
0.0
  0
LINE
  5
136
330
3C
100
AcDbEntity
  8
1
  6
Continuous
 62
     7
100
AcDbLine
 10
100.9499493776521
 20
276.3835053562464
 30
0.0
 11
100.9499493776521
 21
277.5455053562463
 31
0.0
  0
LINE
  5
137
330
3C
100
AcDbEntity
  8
1
  6
Continuous
 62
     7
100
AcDbLine
 10
100.9499493776521
 20
297.3385053562466
 30
0.0
 11
99.9499493776521
 21
297.3385053562466
 31
0.0
  0
LINE
  5
138
330
3C
100
AcDbEntity
  8
1
  6
Continuous
 62
     7
100
AcDbLine
 10
100.9499493776521
 20
276.3835053562464
 30
0.0
 11
99.9499493776521
 21
276.3835053562464
 31
0.0
  0
LINE
  5
139
330
3C
100
AcDbEntity
  8
1
  6
Continuous
 62
     2
100
AcDbLine
 10
100.9499493776521
 20
277.5455053562463
 30
0.0
 11
99.9499493776521
 21
277.5455053562463
 31
0.0
  0
LINE
  5
13A
330
3C
100
AcDbEntity
  8
1
  6
Continuous
 62
     2
100
AcDbLine
 10
102.9625924160473
 20
276.3835053562464
 30
0.0
 11
100.9499493776521
 21
277.5455053562463
 31
0.0
  0
LINE
  5
13B
330
3C
100
AcDbEntity
  8
1
  6
Continuous
 62
     2
100
AcDbLine
 10
100.9499493776521
 20
296.1765053562465
 30
0.0
 11
102.9625924160473
 21
297.3385053562466
 31
0.0
  0
LINE
  5
13C
330
3C
100
AcDbEntity
  8
1
  6
Continuous
 62
     7
100
AcDbLine
 10
102.9625924160473
 20
297.3385053562466
 30
0.0
 11
102.9625924160473
 21
276.3835053562464
 31
0.0
  0
LINE
  5
13D
330
3C
100
AcDbEntity
  8
1
  6
PHANTOM
 62
     4
100
AcDbLine
 10
139.4499493776505
 20
286.8610053562465
 30
0.0
 11
88.94994937765213
 21
286.8610053562465
 31
0.0
  0
LINE
  5
13E
330
3C
100
AcDbEntity
  8
1
  6
Continuous
 62
     2
100
AcDbLine
 10
99.9499493776521
 20
296.1765053562465
 30
0.0
 11
100.9499493776521
 21
296.1765053562465
 31
0.0
  0
LINE
  5
13F
330
3C
100
AcDbEntity
  8
1
  6
PHANTOM
 62
     4
100
AcDbLine
 10
249.0169733998556
 20
286.8610053562466
 30
0.0
 11
303.1780865670569
 21
286.8610053562466
 31
0.0
  0
LINE
  5
140
330
3C
100
AcDbEntity
  8
1
  6
PHANTOM
 62
     4
100
AcDbLine
 10
310.8558602326541
 20
286.8610053562466
 30
0.0
 11
315.0169733998556
 21
286.8610053562466
 31
0.0
  0
LINE
  5
141
330
3C
100
AcDbEntity
  8
1
  6
PHANTOM
 62
     4
100
AcDbLine
 10
303.1780865670569
 20
286.8610053562466
 30
0.0
 11
310.8558602326541
 21
286.8610053562466
 31
0.0
  0
LINE
  5
142
330
3C
100
AcDbEntity
  8
1
  6
Continuous
 62
     7
100
AcDbLine
 10
303.1780865670569
 20
286.8610053562466
 30
0.0
 11
310.8558602326541
 21
286.8610053562466
 31
0.0
  0
ARC
  5
143
330
3C
100
AcDbEntity
  8
1
  6
Continuous
 62
     7
100
AcDbCircle
 10
293.6780865670566
 20
280.3610053562466
 30
0.0
 40
18.36643427850096
100
AcDbArc
 50
-20.72643959502122
 51
20.72643959502122
  0
ARC
  5
144
330
3C
100
AcDbEntity
  8
1
  6
Continuous
 62
     7
100
AcDbCircle
 10
293.6780865670566
 20
293.3610053562466
 30
0.0
 40
18.36643427850096
100
AcDbArc
 50
-20.72643959502122
 51
20.72643959502122
  0
ARC
  5
145
330
3C
100
AcDbEntity
  8
1
  6
Continuous
 62
     7
100
AcDbCircle
 10
320.3558602326562
 20
280.3610053562466
 30
0.0
 40
18.36643427850266
100
AcDbArc
 50
159.2735604049808
 51
-159.2735604049808
  0
ARC
  5
146
330
3C
100
AcDbEntity
  8
1
  6
Continuous
 62
     7
100
AcDbCircle
 10
320.3558602326562
 20
293.3610053562466
 30
0.0
 40
18.36643427850266
100
AcDbArc
 50
159.2735604049808
 51
-159.2735604049808
  0
ARC
  5
147
330
3C
100
AcDbEntity
  8
1
  6
Continuous
 62
     7
100
AcDbCircle
 10
301.795538860445
 20
307.8610053562466
 30
0.0
 40
8.000000000000064
100
AcDbArc
 50
-134.9999999999994
 51
-90.0
  0
ARC
  5
148
330
3C
100
AcDbEntity
  8
1
  6
Continuous
 62
     7
100
AcDbCircle
 10
262.2384079392659
 20
307.8610053562466
 30
0.0
 40
8.0
100
AcDbArc
 50
-90.0
 51
-45.00000000000058
  0
ARC
  5
149
330
3C
100
AcDbEntity
  8
1
  6
Continuous
 62
     7
100
AcDbCircle
 10
308.6633625457295
 20
398.1193356054612
 30
0.0
 40
6.645139145868929
100
AcDbArc
 50
145.6157525319524
 51
150.5533865786222
  0
ARC
  5
14A
330
3C
100
AcDbEntity
  8
1
  6
Continuous
 62
     7
100
AcDbCircle
 10
300.2642389534888
 20
402.8610053562543
 30
0.0
 40
3.000000000007486
100
AcDbArc
 50
-112.9908861769503
 51
-29.44661342147428
  0
ARC
  5
14B
330
3C
100
AcDbEntity
  8
1
  6
Continuous
 62
     7
100
AcDbCircle
 10
301.2682233998577
 20
407.7977562803649
 30
0.0
 40
8.000000000002153
100
AcDbArc
 50
-170.401960930101
 51
-105.7813674011378
  0
ARC
  5
14C
330
3C
100
AcDbEntity
  8
1
  6
Continuous
 62
     7
100
AcDbCircle
 10
287.1793365670572
 20
386.8610053562467
 30
0.0
 40
24.83888683279854
100
AcDbArc
 50
-17.587953773993
 51
17.58795377399313
  0
ARC
  5
14D
330
3C
100
AcDbEntity
  8
1
  6
Continuous
 62
     7
100
AcDbCircle
 10
305.3730842539539
 20
398.1193356054437
 30
0.0
 40
6.645139145901794
100
AcDbArc
 50
0.0
 51
34.38424746803586
  0
ARC
  5
14E
330
3C
100
AcDbEntity
  8
1
  6
Continuous
 62
     7
100
AcDbCircle
 10
305.3730842539548
 20
375.6026751070493
 30
0.0
 40
6.645139145900885
100
AcDbArc
 50
0.0
 51
34.38424746803786
  0
ARC
  5
14F
330
3C
100
AcDbEntity
  8
1
  6
Continuous
 62
     7
100
AcDbCircle
 10
326.8571102326541
 20
386.8610053562467
 30
0.0
 40
24.83888683279855
100
AcDbArc
 50
162.4120462260069
 51
-162.412046226007
  0
ARC
  5
150
330
3C
100
AcDbEntity
  8
1
  6
Continuous
 62
     7
100
AcDbCircle
 10
305.3730842539539
 20
398.1193356054437
 30
0.0
 40
6.645139145901369
100
AcDbArc
 50
-34.3842474680302
 51
0.0
  0
ARC
  5
151
330
3C
100
AcDbEntity
  8
1
  6
Continuous
 62
     7
100
AcDbCircle
 10
305.3730842539548
 20
375.6026751070493
 30
0.0
 40
6.645139145901068
100
AcDbArc
 50
-34.38424746804029
 51
0.0
  0
ARC
  5
152
330
3C
100
AcDbEntity
  8
1
  6
Continuous
 62
     7
100
AcDbCircle
 10
308.6633625457574
 20
375.6026751070491
 30
0.0
 40
6.645139145901737
100
AcDbArc
 50
179.999999999998
 51
-145.6157525319658
  0
ARC
  5
153
330
3C
100
AcDbEntity
  8
1
  6
Continuous
 62
     7
100
AcDbCircle
 10
308.6633625457562
 20
398.1193356054436
 30
0.0
 40
6.64513914590085
100
AcDbArc
 50
145.6157525319573
 51
179.999999999999
  0
ARC
  5
154
330
3C
100
AcDbEntity
  8
1
  6
Continuous
 62
     7
100
AcDbCircle
 10
300.2642389534929
 20
370.8610053562463
 30
0.0
 40
3.000000000000032
100
AcDbArc
 50
29.44661342138603
 51
90.00000000000217
  0
ARC
  5
155
330
3C
100
AcDbEntity
  8
1
  6
Continuous
 62
     7
100
AcDbCircle
 10
263.7658351062426
 20
368.8586170626305
 30
0.0
 40
5.002388863737933
100
AcDbArc
 50
89.97264524052778
 51
90.02735475958291
  0
ARC
  5
156
330
3C
100
AcDbEntity
  8
1
  6
Continuous
 62
     7
100
AcDbCircle
 10
308.6633625457562
 20
398.1193356054436
 30
0.0
 40
6.645139145900487
100
AcDbArc
 50
179.999999999999
 51
-145.6157525319646
  0
ARC
  5
157
330
3C
100
AcDbEntity
  8
1
  6
Continuous
 62
     7
100
AcDbCircle
 10
282.0169733998554
 20
386.8610053562467
 30
0.0
 40
6.497499999999845
100
AcDbArc
 50
-117.4730460630315
 51
117.4730460630327
  0
ARC
  5
158
330
3C
100
AcDbEntity
  8
1
  6
Continuous
 62
     7
100
AcDbCircle
 10
282.0169733998554
 20
386.8610053562467
 30
0.0
 40
6.497499999999593
100
AcDbArc
 50
117.4730460630327
 51
-117.4730460630315
  0
ARC
  5
159
330
3C
100
AcDbEntity
  8
1
  6
Continuous
 62
     7
100
AcDbCircle
 10
308.6633625457574
 20
375.6026751070491
 30
0.0
 40
6.645139145901753
100
AcDbArc
 50
145.615752531965
 51
179.999999999998
  0
ARC
  5
15A
330
3C
100
AcDbEntity
  8
1
  6
Continuous
 62
     7
100
AcDbCircle
 10
262.7682233998519
 20
407.8610053562496
 30
0.0
 40
8.000000000003695
100
AcDbArc
 50
-89.99999999997273
 51
-10.15477259716024
  0
ARC
  5
15B
330
3C
100
AcDbEntity
  8
1
  6
Continuous
 62
     7
100
AcDbCircle
 10
102.4499493776487
 20
267.6110053562427
 30
0.0
 40
8.00000000000475
100
AcDbArc
 50
54.27435101096451
 51
79.84522740283985
  0
ARC
  5
15C
330
3C
100
AcDbEntity
  8
1
  6
Continuous
 62
     7
100
AcDbCircle
 10
102.5131984535335
 20
306.1110053562485
 30
0.0
 40
8.000000000002137
100
AcDbArc
 50
-80.40196093010171
 51
-54.73304979626136
  0
CIRCLE
  5
15D
330
3C
100
AcDbEntity
  8
1
  6
Continuous
 62
     7
100
AcDbCircle
 10
282.0169733998554
 20
386.8610053562467
 30
0.0
 40
10.5
  0
CIRCLE
  5
15E
330
3C
100
AcDbEntity
  8
1
  6
Continuous
 62
     2
100
AcDbCircle
 10
282.0169733998554
 20
386.8610053562467
 30
0.0
 40
9.315500000000327
  0
ENDBLK
  5
3E
330
3C
100
AcDbEntity
  8
0
100
AcDbBlockEnd
  0
BLOCK
  5
40
330
3F
100
AcDbEntity
  8
0
100
AcDbBlockBegin
  2
21-1A
 70
     0
 71
     0
 10
355.7808106331592
 20
778.2418005817145
 30
0.0
  3
21-1A
  1

  0
LINE
  5
15F
330
3F
100
AcDbEntity
  8
0
  6
Continuous
 62
     7
100
AcDbLine
 10
238.9498868493755
 20
359.2904204308752
 30
0.0
 11
235.2398106767183
 21
359.8118376329901
 31
0.0
  0
LINE
  5
160
330
3F
100
AcDbEntity
  8
0
  6
Continuous
 62
     7
100
AcDbLine
 10
235.2398106767183
 20
413.9101730795028
 30
0.0
 11
238.9498868493755
 21
414.4315902816173
 31
0.0
  0
LINE
  5
161
330
3F
100
AcDbEntity
  8
0
  6
Continuous
 62
     7
100
AcDbLine
 10
235.2398106767183
 20
413.9101730795028
 30
0.0
 11
238.9498868493755
 21
414.4315902816173
 31
0.0
  0
LINE
  5
162
330
3F
100
AcDbEntity
  8
1
  6
Continuous
 62
     7
100
AcDbLine
 10
239.5194733998555
 20
359.7855544652459
 30
0.0
 11
239.5194733998555
 21
360.7953820377646
 31
0.0
  0
LINE
  5
163
330
3F
100
AcDbEntity
  8
1
  6
Continuous
 62
     7
100
AcDbLine
 10
239.5194733998555
 20
360.7953820377646
 30
0.0
 11
239.5194733998555
 21
392.6110053562463
 31
0.0
  0
LINE
  5
164
330
3F
100
AcDbEntity
  8
1
  6
Continuous
 62
     7
100
AcDbLine
 10
239.5194733998555
 20
392.6110053562463
 30
0.0
 11
239.5194733998555
 21
413.9364562472465
 31
0.0
  0
LINE
  5
165
330
3F
100
AcDbEntity
  8
0
  6
Continuous
 62
     7
100
AcDbLine
 10
230.9195102761227
 20
381.065450398512
 30
0.0
 11
238.9473514671433
 21
381.065450398512
 31
0.0
  0
LINE
  5
166
330
3F
100
AcDbEntity
  8
0
  6
Continuous
 62
     7
100
AcDbLine
 10
230.9195102761227
 20
392.6565603139807
 30
0.0
 11
238.9473514671433
 21
392.6565603139807
 31
0.0
  0
LINE
  5
167
330
3F
100
AcDbEntity
  8
1
  6
Continuous
 62
     7
100
AcDbLine
 10
235.7343936445049
 20
293.3314814838097
 30
0.0
 11
237.6645820285625
 21
293.3314814838097
 31
0.0
  0
LINE
  5
168
330
3F
100
AcDbEntity
  8
1
  6
Continuous
 62
     7
100
AcDbLine
 10
235.7343936445049
 20
259.6671443262572
 30
0.0
 11
238.9498868493757
 21
259.215236227265
 31
0.0
  0
LINE
  5
169
330
3F
100
AcDbEntity
  8
1
  6
Continuous
 62
     7
100
AcDbLine
 10
238.9498868493757
 20
314.5067744852285
 30
0.0
 11
235.7343936445049
 21
314.054866386236
 31
0.0
  0
LINE
  5
16A
330
3F
100
AcDbEntity
  8
1
  6
Continuous
 62
     7
100
AcDbLine
 10
239.5194733998557
 20
259.7103702616357
 30
0.0
 11
239.5194733998557
 21
314.0116404508576
 31
0.0
  0
LINE
  5
16B
330
3F
100
AcDbEntity
  8
1
  6
Continuous
 62
     7
100
AcDbLine
 10
237.5117428672169
 20
280.3905292286838
 30
0.0
 11
235.7343936445049
 21
280.3905292286838
 31
0.0
  0
LINE
  5
16C
330
3F
100
AcDbEntity
  8
1
  6
Continuous
 62
     7
100
AcDbLine
 10
136.3756189518342
 20
277.4161703104297
 30
0.0
 11
150.0028636482671
 21
281.0675795219001
 31
0.0
  0
LINE
  5
16D
330
3F
100
AcDbEntity
  8
1
  6
Continuous
 62
     7
100
AcDbLine
 10
125.1684255497335
 20
270.9456941828668
 30
0.0
 11
115.1925900647712
 21
260.9698586979043
 31
0.0
  0
LINE
  5
16E
330
3F
100
AcDbEntity
  8
1
  6
Continuous
 62
     7
100
AcDbLine
 10
108.8058036313879
 20
280.3926583520716
 30
0.0
 11
104.9506177454204
 21
266.0049087530183
 31
0.0
  0
LINE
  5
16F
330
3F
100
AcDbEntity
  8
1
  6
Continuous
 62
     7
100
AcDbLine
 10
108.8058036313879
 20
293.3336106071977
 30
0.0
 11
105.1543944199175
 21
306.9608553036305
 31
0.0
  0
LINE
  5
170
330
3F
100
AcDbEntity
  8
1
  6
Continuous
 62
     7
100
AcDbLine
 10
125.1684255497335
 20
302.7805747764024
 30
0.0
 11
115.1925900647712
 21
312.7564102613649
 31
0.0
  0
LINE
  5
171
330
3F
100
AcDbEntity
  8
1
  6
Continuous
 62
     7
100
AcDbLine
 10
136.3756189518342
 20
296.3100986488395
 30
0.0
 11
150.0028636482671
 21
292.6586894373689
 31
0.0
  0
ARC
  5
172
330
3F
100
AcDbEntity
  8
0
  6
Continuous
 62
     7
100
AcDbCircle
 10
378.5194733998486
 20
386.861005356247
 30
0.0
 40
149.9999999999931
100
AcDbArc
 50
171.571199977175
 51
178.4719314053895
  0
ARC
  5
173
330
3F
100
AcDbEntity
  8
0
  6
Continuous
 62
     7
100
AcDbCircle
 10
236.0748492824787
 20
407.9685646670532
 30
0.0
 40
6.000000000000148
100
AcDbArc
 50
98.00000000000004
 51
171.5711999771764
  0
ARC
  5
174
330
3F
100
AcDbEntity
  8
0
  6
Continuous
 62
     7
100
AcDbCircle
 10
236.0748492824787
 20
365.7534460454393
 30
0.0
 40
6.000000000000056
100
AcDbArc
 50
-171.5711999771747
 51
-98.0000000000005
  0
ARC
  5
175
330
3F
100
AcDbEntity
  8
0
  6
Continuous
 62
     7
100
AcDbCircle
 10
378.5194733998486
 20
386.8610053562455
 30
0.0
 40
149.9999999999931
100
AcDbArc
 50
-178.4719314053895
 51
-171.571199977175
  0
ARC
  5
176
330
3F
100
AcDbEntity
  8
1
  6
Continuous
 62
     7
100
AcDbCircle
 10
355.8896259401801
 20
288.4980957071359
 30
0.0
 40
127.4948334081409
100
AcDbArc
 50
-177.4658831052026
 51
-169.1905067536478
  0
ARC
  5
177
330
3F
100
AcDbEntity
  8
1
  6
Continuous
 62
     7
100
AcDbCircle
 10
355.8896259401801
 20
285.2239150053574
 30
0.0
 40
127.4948334081409
100
AcDbArc
 50
169.1905067536478
 51
177.4658831052027
  0
ARC
  5
178
330
3F
100
AcDbEntity
  8
1
  6
Continuous
 62
     7
100
AcDbCircle
 10
110.9499493776519
 20
265.2124993850237
 30
0.0
 40
6.000000000000153
100
AcDbArc
 50
172.4757589210599
 51
-45.00000000000096
  0
ARC
  5
179
330
3F
100
AcDbEntity
  8
1
  6
Continuous
 62
     7
100
AcDbCircle
 10
110.9499493776519
 20
308.5137695742455
 30
0.0
 40
6.000000000000109
100
AcDbArc
 50
45.00000000000096
 51
-165.0000000000015
  0
ARC
  5
17A
330
3F
100
AcDbEntity
  8
1
  6
Continuous
 62
     7
100
AcDbCircle
 10
148.4499493776519
 20
286.8631344796346
 30
0.0
 40
6.000000000000114
100
AcDbArc
 50
-74.99999999999965
 51
74.99999999999909
  0
SPLINE
  5
17B
330
3F
100
AcDbEntity
  8
0
  6
Continuous
 62
     7
100
AcDbSpline
210
0.0
220
0.0
230
1.0
 70
     8
 71
     3
 72
    35
 73
    31
 74
    29
 42
0.0000000001
 43
0.0000000001
 44
0.00000001
 40
0.0
 40
0.0
 40
0.0
 40
0.0
 40
0.6095664701735676
 40
1.217631710174576
 40
1.818364858744306
 40
2.420251448870647
 40
3.012574584768541
 40
3.604379366438554
 40
4.187127320374274
 40
4.770042709358981
 40
5.344635662521419
 40
5.919155670249358
 40
6.487495311598066
 40
7.055844637159789
 40
7.620860568606181
 40
8.185865086527214
 40
8.750867887076904
 40
9.31588583184611
 40
9.884245147472008
 40
10.45257411423276
 40
11.02705120930331
 40
11.60168882067753
 40
12.26274694007693
 40
12.92355591635751
 40
13.43733587887819
 40
13.95144934917282
 40
14.55327005497663
 40
15.15406389004654
 40
15.76214773013165
 40
16.37169678613069
 40
16.37169678613069
 40
16.37169678613069
 40
16.37169678613069
 10
233.3096445859795
 20
280.7807466862041
 30
0.0
 10
233.1200106245585
 20
280.853709610503
 30
0.0
 10
232.7412097290852
 20
280.9994557672234
 30
0.0
 10
232.1870649137478
 20
281.2468467888924
 30
0.0
 10
231.6637766662053
 20
281.549810460695
 30
0.0
 10
231.1750157338727
 20
281.8960761543236
 30
0.0
 10
230.7177966947565
 20
282.2783706723367
 30
0.0
 10
230.2990997251706
 20
282.6936729119025
 30
0.0
 10
229.9213797677969
 20
283.1424913203483
 30
0.0
 10
229.5887735652921
 20
283.6187241157896
 30
0.0
 10
229.3021718783729
 20
284.1208238686996
 30
0.0
 10
229.0649022272298
 20
284.6427398776894
 30
0.0
 10
228.8782764568344
 20
285.182631768004
 30
0.0
 10
228.7439551429384
 20
285.7346138838385
 30
0.0
 10
228.6630211152097
 20
286.2957864485087
 30
0.0
 10
228.6358431490875
 20
286.8610047283877
 30
0.0
 10
228.6630167816245
 20
287.4262240107572
 30
0.0
 10
228.7439540235507
 20
287.987399880084
 30
0.0
 10
228.8782874475544
 20
288.5393797841502
 30
0.0
 10
229.0649022140686
 20
289.0792578248554
 30
0.0
 10
229.3021424726851
 20
289.6011884590816
 30
0.0
 10
229.6016821643554
 20
290.1259219420426
 30
0.0
 10
229.9675420278559
 20
290.6428439125281
 30
0.0
 10
230.370492372068
 20
291.1047382698237
 30
0.0
 10
230.7772581439786
 20
291.4945979531357
 30
0.0
 10
231.1963131551686
 20
291.8409694214079
 30
0.0
 10
231.6638021757469
 20
292.1721242441003
 30
0.0
 10
232.1870443489396
 20
292.4751683858561
 30
0.0
 10
232.7412038954844
 20
292.7225860004438
 30
0.0
 10
233.1200124117521
 20
292.8683128984226
 30
0.0
 10
233.3096445859795
 20
292.941264026289
 30
0.0
 11
233.3096445859795
 21
280.7807466862041
 31
0.0
 11
232.742679691064
 21
281.0046263179114
 31
0.0
 11
232.1896476612011
 21
281.2574086551961
 31
0.0
 11
231.6691217060711
 21
281.5572970441452
 31
0.0
 11
231.1773560493972
 21
281.9043330743928
 31
0.0
 11
230.7233022399793
 21
282.2847037297712
 31
0.0
 11
230.3035277189482
 21
282.7018634726763
 31
0.0
 11
229.9283488621198
 21
283.1477737811524
 31
0.0
 11
229.5947135014966
 21
283.625767292465
 31
0.0
 11
229.3100091383627
 21
284.1248669693197
 31
0.0
 11
229.0724503583623
 21
284.647972183712
 31
0.0
 11
228.8868387363244
 21
285.1851483872922
 31
0.0
 11
228.7526069908716
 21
285.7374189680578
 31
0.0
 11
228.6719535552959
 21
286.2966488189403
 31
0.0
 11
228.6449016778969
 21
286.8610053562466
 31
0.0
 11
228.6719502860146
 21
287.4253603309105
 31
0.0
 11
228.7526069908716
 21
287.9845917444352
 31
0.0
 11
228.8868486217912
 21
288.536870203355
 31
0.0
 11
229.0724503583623
 21
289.0740385287811
 31
0.0
 11
229.3099723209042
 21
289.5971133322948
 31
0.0
 11
229.5947135014966
 21
290.0962434200282
 31
0.0
 11
229.9763842680013
 21
290.6359889741735
 31
0.0
 11
230.4107084178758
 21
291.1340161179807
 31
0.0
 11
230.7813533085079
 21
291.4898141153558
 31
0.0
 11
231.1773560493972
 21
291.8176776381004
 31
0.0
 11
231.6690988337511
 21
292.1646318079414
 31
0.0
 11
232.1896476612011
 21
292.464602057297
 31
0.0
 11
232.7426874495051
 21
292.7174121621688
 31
0.0
 11
233.3096445859795
 21
292.941264026289
 31
0.0
  0
ARC
  5
17C
330
3F
100
AcDbEntity
  8
0
  6
Continuous
 62
     7
100
AcDbCircle
 10
239.0194733998555
 20
413.9364562472465
 30
0.0
 40
0.5
100
AcDbArc
 50
0.0
 51
97.99999999999766
  0
ARC
  5
17D
330
3F
100
AcDbEntity
  8
0
  6
Continuous
 62
     7
100
AcDbCircle
 10
239.0194733998555
 20
359.7855544652459
 30
0.0
 40
0.499999999999934
100
AcDbArc
 50
-97.99999999999857
 51
0.0
  0
ARC
  5
17E
330
3F
100
AcDbEntity
  8
1
  6
Continuous
 62
     7
100
AcDbCircle
 10
239.0194733998557
 20
259.7103702616357
 30
0.0
 40
0.499999999999934
100
AcDbArc
 50
-97.99999999999857
 51
0.0
  0
ARC
  5
17F
330
3F
100
AcDbEntity
  8
1
  6
Continuous
 62
     7
100
AcDbCircle
 10
236.5694322502653
 20
265.6087527387068
 30
0.0
 40
5.999999999999846
100
AcDbArc
 50
-170.1970982062306
 51
-97.99999999999969
  0
ARC
  5
180
330
3F
100
AcDbEntity
  8
1
  6
Continuous
 62
     7
100
AcDbCircle
 10
236.5694322502653
 20
308.1132579737866
 30
0.0
 40
5.999999999999976
100
AcDbArc
 50
98.0
 51
170.1970982062306
  0
ARC
  5
181
330
3F
100
AcDbEntity
  8
1
  6
Continuous
 62
     7
100
AcDbCircle
 10
239.0194733998557
 20
314.0116404508576
 30
0.0
 40
0.5
100
AcDbArc
 50
0.0
 51
97.99999999999584
  0
ARC
  5
182
330
3F
100
AcDbEntity
  8
1
  6
Continuous
 62
     7
100
AcDbCircle
 10
142.8460950793972
 20
253.268024653203
 30
0.0
 40
24.99999999999999
100
AcDbArc
 50
104.9999999999999
 51
134.9999999999999
  0
ARC
  5
183
330
3F
100
AcDbEntity
  8
1
  6
Continuous
 62
     7
100
AcDbCircle
 10
84.65765797416128
 20
286.8631344796346
 30
0.0
 40
24.99999999999992
100
AcDbArc
 50
-15.00000000000005
 51
15.0000000000003
  0
ARC
  5
184
330
3F
100
AcDbEntity
  8
1
  6
Continuous
 62
     7
100
AcDbCircle
 10
142.8460950793972
 20
320.4582443060662
 30
0.0
 40
25.00000000000011
100
AcDbArc
 50
-134.9999999999998
 51
-105.0
  0
ENDBLK
  5
41
330
3F
100
AcDbEntity
  8
0
100
AcDbBlockEnd
  0
BLOCK
  5
43
330
42
100
AcDbEntity
  8
0
100
AcDbBlockBegin
  2
42-15
 70
     0
 71
     0
 10
455.1349770928001
 20
752.5752673598188
 30
0.0
  3
42-15
  1

  0
LINE
  5
185
330
42
100
AcDbEntity
  8
1
  6
Continuous
 62
     7
100
AcDbLine
 10
225.7169733998559
 20
393.8610053562466
 30
0.0
 11
225.3872076796522
 21
392.6110053562466
 31
0.0
  0
LINE
  5
186
330
42
100
AcDbEntity
  8
1
  6
Continuous
 62
     7
100
AcDbLine
 10
225.7169733998559
 20
393.8610053562466
 30
0.0
 11
228.5169733998559
 21
393.8610053562466
 31
0.0
  0
LINE
  5
187
330
42
100
AcDbEntity
  8
1
  6
Continuous
 62
     2
100
AcDbLine
 10
226.4306532416342
 20
385.3610053562466
 30
0.0
 11
227.5793795714867
 21
385.3610053562466
 31
0.0
  0
LINE
  5
188
330
42
100
AcDbEntity
  8
1
  6
Continuous
 62
     2
100
AcDbLine
 10
226.18543027257
 20
384.3610053562466
 30
0.0
 11
227.9034242091786
 21
384.3610053562466
 31
0.0
  0
LINE
  5
189
330
42
100
AcDbEntity
  8
1
  6
Continuous
 62
     2
100
AcDbLine
 10
225.9927550825911
 20
383.3610053562466
 30
0.0
 11
228.2625006995939
 21
383.3610053562466
 31
0.0
  0
LINE
  5
18A
330
42
100
AcDbEntity
  8
1
  6
Continuous
 62
     2
100
AcDbLine
 10
225.8613856348782
 20
382.3610053562466
 30
0.0
 11
228.4113860736685
 21
382.3610053562466
 31
0.0
  0
LINE
  5
18B
330
42
100
AcDbEntity
  8
1
  6
Continuous
 62
     7
100
AcDbLine
 10
228.5169733998559
 20
379.8610053562466
 30
0.0
 11
228.5169733998559
 21
393.8610053562466
 31
0.0
  0
LINE
  5
18C
330
42
100
AcDbEntity
  8
1
  6
Continuous
 62
     2
100
AcDbLine
 10
225.716973399856
 20
381.3610053562466
 30
0.0
 11
228.5169733998559
 21
381.3610053562466
 31
0.0
  0
LINE
  5
18D
330
42
100
AcDbEntity
  8
1
  6
Continuous
 62
     2
100
AcDbLine
 10
225.716973399856
 20
380.3610053562466
 30
0.0
 11
228.5169733998559
 21
380.3610053562466
 31
0.0
  0
LINE
  5
18E
330
42
100
AcDbEntity
  8
1
  6
Continuous
 62
     7
100
AcDbLine
 10
228.5169733998559
 20
379.8610053562466
 30
0.0
 11
225.716973399856
 21
379.8610053562466
 31
0.0
  0
LINE
  5
18F
330
42
100
AcDbEntity
  8
1
  6
Continuous
 62
     7
100
AcDbLine
 10
225.716973399856
 20
379.8610053562466
 30
0.0
 11
225.4476512008327
 21
380.8610053562464
 31
0.0
  0
LINE
  5
190
330
42
100
AcDbEntity
  8
1
  6
Continuous
 62
     2
100
AcDbLine
 10
225.716973399856
 20
380.8610053562466
 30
0.0
 11
228.5169733998559
 21
380.8610053562466
 31
0.0
  0
LINE
  5
191
330
42
100
AcDbEntity
  8
1
  6
Continuous
 62
     2
100
AcDbLine
 10
225.716973399856
 20
381.8610053562466
 30
0.0
 11
228.5169733998559
 21
381.8610053562466
 31
0.0
  0
LINE
  5
192
330
42
100
AcDbEntity
  8
1
  6
Continuous
 62
     2
100
AcDbLine
 10
225.9068998083082
 20
382.8610053562466
 30
0.0
 11
228.3509250874044
 21
382.8610053562466
 31
0.0
  0
LINE
  5
193
330
42
100
AcDbEntity
  8
1
  6
Continuous
 62
     2
100
AcDbLine
 10
226.0204469061836
 20
383.8610053562466
 30
0.0
 11
228.1562729196182
 21
383.8610053562466
 31
0.0
  0
LINE
  5
194
330
42
100
AcDbEntity
  8
1
  6
Continuous
 62
     2
100
AcDbLine
 10
226.231320087952
 20
384.8610053562466
 30
0.0
 11
227.7994106120101
 21
384.8610053562466
 31
0.0
  0
LINE
  5
195
330
42
100
AcDbEntity
  8
1
  6
Continuous
 62
     2
100
AcDbLine
 10
226.4746352976847
 20
385.8610053562466
 30
0.0
 11
227.5398743882952
 21
385.8610053562466
 31
0.0
  0
LINE
  5
196
330
42
100
AcDbEntity
  8
1
  6
Continuous
 62
     7
100
AcDbLine
 10
225.7169733998559
 20
393.8610053562466
 30
0.0
 11
225.716973399856
 21
379.8610053562466
 31
0.0
  0
LINE
  5
197
330
42
100
AcDbEntity
  8
1
  6
Continuous
 62
     7
100
AcDbLine
 10
225.7169733998559
 20
293.8610053562468
 30
0.0
 11
225.716973399856
 21
279.8610053562468
 31
0.0
  0
LINE
  5
198
330
42
100
AcDbEntity
  8
1
  6
Continuous
 62
     2
100
AcDbLine
 10
226.4746352976847
 20
285.8610053562468
 30
0.0
 11
227.5398743882952
 21
285.8610053562468
 31
0.0
  0
LINE
  5
199
330
42
100
AcDbEntity
  8
1
  6
Continuous
 62
     2
100
AcDbLine
 10
226.231320087952
 20
284.8610053562468
 30
0.0
 11
227.7994106120101
 21
284.8610053562468
 31
0.0
  0
LINE
  5
19A
330
42
100
AcDbEntity
  8
1
  6
Continuous
 62
     2
100
AcDbLine
 10
226.0204469061836
 20
283.8610053562468
 30
0.0
 11
228.1562729196182
 21
283.8610053562468
 31
0.0
  0
LINE
  5
19B
330
42
100
AcDbEntity
  8
1
  6
Continuous
 62
     2
100
AcDbLine
 10
225.9068998083082
 20
282.8610053562468
 30
0.0
 11
228.3509250874044
 21
282.8610053562468
 31
0.0
  0
LINE
  5
19C
330
42
100
AcDbEntity
  8
1
  6
Continuous
 62
     2
100
AcDbLine
 10
225.716973399856
 20
281.8610053562468
 30
0.0
 11
228.5169733998559
 21
281.8610053562468
 31
0.0
  0
LINE
  5
19D
330
42
100
AcDbEntity
  8
1
  6
Continuous
 62
     2
100
AcDbLine
 10
225.716973399856
 20
280.8610053562468
 30
0.0
 11
228.5169733998559
 21
280.8610053562468
 31
0.0
  0
LINE
  5
19E
330
42
100
AcDbEntity
  8
1
  6
Continuous
 62
     7
100
AcDbLine
 10
225.716973399856
 20
279.8610053562468
 30
0.0
 11
225.4476512008327
 21
280.8610053562467
 31
0.0
  0
LINE
  5
19F
330
42
100
AcDbEntity
  8
1
  6
Continuous
 62
     7
100
AcDbLine
 10
228.5169733998559
 20
279.8610053562468
 30
0.0
 11
225.716973399856
 21
279.8610053562468
 31
0.0
  0
LINE
  5
1A0
330
42
100
AcDbEntity
  8
1
  6
Continuous
 62
     2
100
AcDbLine
 10
225.716973399856
 20
280.3610053562468
 30
0.0
 11
228.5169733998559
 21
280.3610053562468
 31
0.0
  0
LINE
  5
1A1
330
42
100
AcDbEntity
  8
1
  6
Continuous
 62
     2
100
AcDbLine
 10
225.716973399856
 20
281.3610053562468
 30
0.0
 11
228.5169733998559
 21
281.3610053562468
 31
0.0
  0
LINE
  5
1A2
330
42
100
AcDbEntity
  8
1
  6
Continuous
 62
     7
100
AcDbLine
 10
228.5169733998559
 20
279.8610053562468
 30
0.0
 11
228.5169733998559
 21
293.8610053562468
 31
0.0
  0
LINE
  5
1A3
330
42
100
AcDbEntity
  8
1
  6
Continuous
 62
     2
100
AcDbLine
 10
225.8613856348782
 20
282.3610053562468
 30
0.0
 11
228.4113860736685
 21
282.3610053562468
 31
0.0
  0
LINE
  5
1A4
330
42
100
AcDbEntity
  8
1
  6
Continuous
 62
     2
100
AcDbLine
 10
225.9927550825911
 20
283.3610053562468
 30
0.0
 11
228.2625006995939
 21
283.3610053562468
 31
0.0
  0
LINE
  5
1A5
330
42
100
AcDbEntity
  8
1
  6
Continuous
 62
     2
100
AcDbLine
 10
226.18543027257
 20
284.3610053562468
 30
0.0
 11
227.9034242091786
 21
284.3610053562468
 31
0.0
  0
LINE
  5
1A6
330
42
100
AcDbEntity
  8
1
  6
Continuous
 62
     2
100
AcDbLine
 10
226.4306532416342
 20
285.3610053562468
 30
0.0
 11
227.5793795714867
 21
285.3610053562468
 31
0.0
  0
LINE
  5
1A7
330
42
100
AcDbEntity
  8
1
  6
Continuous
 62
     7
100
AcDbLine
 10
225.7169733998559
 20
293.8610053562468
 30
0.0
 11
228.5169733998559
 21
293.8610053562468
 31
0.0
  0
LINE
  5
1A8
330
42
100
AcDbEntity
  8
1
  6
Continuous
 62
     7
100
AcDbLine
 10
225.7169733998559
 20
293.8610053562468
 30
0.0
 11
225.3872076796522
 21
292.6110053562468
 31
0.0
  0
ARC
  5
1A9
330
42
100
AcDbEntity
  8
1
  6
Continuous
 62
     7
100
AcDbCircle
 10
249.7169733998559
 20
386.8610053562466
 30
0.0
 40
24.99999999999999
100
AcDbArc
 50
166.7029282527909
 51
180.0
  0
ARC
  5
1AA
330
42
100
AcDbEntity
  8
1
  6
Continuous
 62
     7
100
AcDbCircle
 10
249.7169733998559
 20
386.8610053562466
 30
0.0
 40
24.99999999999999
100
AcDbArc
 50
-166.7029282527909
 51
-166.1134596373705
  0
ARC
  5
1AB
330
42
100
AcDbEntity
  8
1
  6
Continuous
 62
     7
100
AcDbCircle
 10
249.7169733998559
 20
386.8610053562466
 30
0.0
 40
25.0
100
AcDbArc
 50
180.0
 51
-166.7029282527909
  0
ARC
  5
1AC
330
42
100
AcDbEntity
  8
1
  6
Continuous
 62
     7
100
AcDbCircle
 10
249.7169733998559
 20
286.8610053562468
 30
0.0
 40
24.99999999999999
100
AcDbArc
 50
166.7029282527909
 51
-166.7029282527909
  0
ARC
  5
1AD
330
42
100
AcDbEntity
  8
1
  6
Continuous
 62
     7
100
AcDbCircle
 10
249.7169733998559
 20
286.8610053562468
 30
0.0
 40
24.99999999999999
100
AcDbArc
 50
-166.7029282527909
 51
-166.1134596373709
  0
CIRCLE
  5
1AE
330
42
100
AcDbEntity
  8
1
  6
Continuous
 62
     7
100
AcDbCircle
 10
123.4499493776519
 20
286.8610053562466
 30
0.0
 40
7.0
  0
ENDBLK
  5
44
330
42
100
AcDbEntity
  8
0
100
AcDbBlockEnd
  0
BLOCK
  5
46
330
45
100
AcDbEntity
  8
0
100
AcDbBlockBegin
  2
36-54-M11
 70
     0
 71
     0
 10
760.3878702738241
 20
711.9998012946826
 30
0.0
  3
36-54-M11
  1

  0
LINE
  5
1AF
330
45
100
AcDbEntity
  8
1
  6
Continuous
 62
     7
100
AcDbLine
 10
242.5169733998555
 20
391.6110053562464
 30
0.0
 11
239.5194733998555
 21
391.6110053562464
 31
0.0
  0
LINE
  5
1B0
330
45
100
AcDbEntity
  8
1
  6
PHANTOM
 62
     4
100
AcDbLine
 10
264.5655954556927
 20
386.8610053562464
 30
0.0
 11
229.0447976949064
 21
386.8610053562464
 31
0.0
  0
LINE
  5
1B1
330
45
100
AcDbEntity
  8
1
  6
Continuous
 62
     7
100
AcDbLine
 10
239.5194733998555
 20
382.1110053562464
 30
0.0
 11
242.5169733998555
 21
382.1110053562464
 31
0.0
  0
LINE
  5
1B2
330
45
100
AcDbEntity
  8
1
  6
Continuous
 62
     7
100
AcDbLine
 10
278.5169733998556
 20
392.3352638676799
 30
0.0
 11
278.5169733998556
 21
381.3867468448134
 31
0.0
  0
LINE
  5
1B3
330
45
100
AcDbEntity
  8
1
  6
Continuous
 62
     7
100
AcDbLine
 10
239.5194733998555
 20
282.1110053562467
 30
0.0
 11
242.5169733998555
 21
282.1110053562467
 31
0.0
  0
LINE
  5
1B4
330
45
100
AcDbEntity
  8
1
  6
PHANTOM
 62
     4
100
AcDbLine
 10
264.5655954556927
 20
286.8610053562467
 30
0.0
 11
229.0447976949064
 21
286.8610053562467
 31
0.0
  0
LINE
  5
1B5
330
45
100
AcDbEntity
  8
1
  6
Continuous
 62
     7
100
AcDbLine
 10
242.5169733998555
 20
291.6110053562467
 30
0.0
 11
239.5194733998555
 21
291.6110053562467
 31
0.0
  0
ENDBLK
  5
47
330
45
100
AcDbEntity
  8
0
100
AcDbBlockEnd
  0
BLOCK
  5
49
330
48
100
AcDbEntity
  8
0
100
AcDbBlockBegin
  2
32-213
 70
     0
 71
     0
 10
1068.084363691157
 20
807.6142021018902
 30
0.0
  3
32-213
  1

  0
LINE
  5
1B6
330
48
100
AcDbEntity
  8
1
  6
Continuous
 62
     7
100
AcDbLine
 10
282.0182233998557
 20
410.3610053562462
 30
0.0
 11
293.0182233998557
 21
410.3610053562462
 31
0.0
  0
LINE
  5
1B7
330
48
100
AcDbEntity
  8
1
  6
Continuous
 62
     7
100
AcDbLine
 10
282.0182233998557
 20
422.3610053562462
 30
0.0
 11
293.0182233998557
 21
422.3610053562462
 31
0.0
  0
LINE
  5
1B8
330
48
100
AcDbEntity
  8
1
  6
PHANTOM
 62
     4
100
AcDbLine
 10
282.0182233998557
 20
423.3610053562462
 30
0.0
 11
282.0182233998557
 21
422.3610053562462
 31
0.0
  0
LINE
  5
1B9
330
48
100
AcDbEntity
  8
1
  6
Continuous
 62
     7
100
AcDbLine
 10
271.0182233998557
 20
422.3610053562462
 30
0.0
 11
282.0182233998557
 21
422.3610053562462
 31
0.0
  0
LINE
  5
1BA
330
48
100
AcDbEntity
  8
1
  6
Continuous
 62
     7
100
AcDbLine
 10
271.0182233998557
 20
410.3610053562462
 30
0.0
 11
282.0182233998557
 21
410.3610053562462
 31
0.0
  0
LINE
  5
1BB
330
48
100
AcDbEntity
  8
1
  6
PHANTOM
 62
     4
100
AcDbLine
 10
282.0182233998557
 20
422.3610053562462
 30
0.0
 11
282.0182233998557
 21
409.3610053562462
 31
0.0
  0
LINE
  5
1BC
330
48
100
AcDbEntity
  8
1
  6
Continuous
 62
     7
100
AcDbLine
 10
87.9499493776521
 20
297.8610053562465
 30
0.0
 11
87.9499493776521
 21
280.996921825108
 31
0.0
  0
LINE
  5
1BD
330
48
100
AcDbEntity
  8
1
  6
Continuous
 62
     7
100
AcDbLine
 10
88.68212250122548
 20
298.3610053562464
 30
0.0
 11
99.21777625407827
 21
298.3610053562464
 31
0.0
  0
LINE
  5
1BE
330
48
100
AcDbEntity
  8
1
  6
Continuous
 62
     7
100
AcDbLine
 10
99.21777625407827
 20
275.3610053562464
 30
0.0
 11
88.68212250122548
 21
275.3610053562465
 31
0.0
  0
LINE
  5
1BF
330
48
100
AcDbEntity
  8
1
  6
PHANTOM
 62
     4
100
AcDbLine
 10
100.9499493776521
 20
286.8610053562464
 30
0.0
 11
99.9499493776521
 21
286.8610053562465
 31
0.0
  0
LINE
  5
1C0
330
48
100
AcDbEntity
  8
1
  6
Continuous
 62
     7
100
AcDbLine
 10
99.9499493776521
 20
297.8610053562464
 30
0.0
 11
99.9499493776521
 21
286.8610053562465
 31
0.0
  0
LINE
  5
1C1
330
48
100
AcDbEntity
  8
1
  6
PHANTOM
 62
     4
100
AcDbLine
 10
99.9499493776521
 20
286.8610053562465
 30
0.0
 11
86.9499493776521
 21
286.8610053562465
 31
0.0
  0
LINE
  5
1C2
330
48
100
AcDbEntity
  8
1
  6
Continuous
 62
     7
100
AcDbLine
 10
99.9499493776521
 20
286.8610053562465
 30
0.0
 11
99.9499493776521
 21
275.8610053562464
 31
0.0
  0
LINE
  5
1C3
330
48
100
AcDbEntity
  8
1
  6
Continuous
 62
     7
100
AcDbLine
 10
87.9499493776521
 20
292.7250888873851
 30
0.0
 11
87.9499493776521
 21
275.8610053562465
 31
0.0
  0
LINE
  5
1C4
330
48
100
AcDbEntity
  8
1
  6
Continuous
 62
     7
100
AcDbLine
 10
92.01666425537502
 20
298.3610053562464
 30
0.0
 11
99.21777625407827
 21
298.3610053562464
 31
0.0
  0
ARC
  5
1C5
330
48
100
AcDbEntity
  8
1
  6
Continuous
 62
     7
100
AcDbCircle
 10
285.0182233998557
 20
416.3610053562462
 30
0.0
 40
10.0
100
AcDbArc
 50
-36.86989764584402
 51
36.86989764584402
  0
ARC
  5
1C6
330
48
100
AcDbEntity
  8
1
  6
Continuous
 62
     7
100
AcDbCircle
 10
279.0182233998555
 20
416.3610053562462
 30
0.0
 40
9.999999999999863
100
AcDbArc
 50
143.1301023541554
 51
-143.1301023541554
  0
ARC
  5
1C7
330
48
100
AcDbEntity
  8
1
  6
Continuous
 62
     7
100
AcDbCircle
 10
93.94994937765199
 20
289.8610053562464
 30
0.0
 40
10.00000000000008
100
AcDbArc
 50
121.7883306170523
 51
126.8698976458431
  0
ARC
  5
1C8
330
48
100
AcDbEntity
  8
1
  6
Continuous
 62
     7
100
AcDbCircle
 10
93.94994937765199
 20
289.8610053562464
 30
0.0
 40
10.00000000000007
100
AcDbArc
 50
53.13010235415545
 51
58.2116693829488
  0
ARC
  5
1C9
330
48
100
AcDbEntity
  8
1
  6
Continuous
 62
     7
100
AcDbCircle
 10
93.94994937765199
 20
283.8610053562463
 30
0.0
 40
9.999999999999796
100
AcDbArc
 50
-126.8698976458441
 51
-121.7883306170528
  0
ARC
  5
1CA
330
48
100
AcDbEntity
  8
1
  6
Continuous
 62
     7
100
AcDbCircle
 10
93.94994937765199
 20
283.8610053562463
 30
0.0
 40
9.999999999999906
100
AcDbArc
 50
-58.21166938294864
 51
-53.13010235415526
  0
SPLINE
  5
1CB
330
48
100
AcDbEntity
  8
1
  6
Continuous
 62
     7
100
AcDbSpline
210
0.0
220
0.0
230
1.0
 70
     8
 71
     3
 72
    45
 73
    41
 74
    39
 42
0.0000000001
 43
0.0000000001
 44
0.00000001
 40
0.0
 40
0.0
 40
0.0
 40
0.0
 40
0.2639815460521502
 40
0.528341984118994
 40
1.054652170762558
 40
1.580985067100661
 40
2.101700160272251
 40
2.622460348438242
 40
3.13449522613733
 40
3.646596368619002
 40
4.147789061289597
 40
4.649065936797036
 40
5.138470095604987
 40
5.627969508813583
 40
6.106046361246214
 40
6.584217829940197
 40
7.05287364957037
 40
7.5216073638092
 40
7.984025556627595
 40
8.446488192992929
 40
8.906737372258858
 40
9.366986551524679
 40
9.829449187890022
 40
10.29186738070846
 40
10.76060109494735
 40
11.22925691457758
 40
11.70742838327151
 40
12.1855052357041
 40
12.67500464891273
 40
13.16440880772064
 40
13.66568568322815
 40
14.16687837589879
 40
14.67897951838046
 40
15.19101439607943
 40
15.71177458424534
 40
16.23248967741696
 40
16.75882257375509
 40
17.28513276039859
 40
17.5494931984635
 40
17.81347474451338
 40
17.81347474451338
 40
17.81347474451338
 40
17.81347474451338
 10
282.0182233998514
 20
421.6288322326731
 30
0.0
 10
282.1062231637782
 20
421.6278637213239
 30
0.0
 10
282.2823489974602
 20
421.6259253085239
 30
0.0
 10
282.633402444917
 20
421.6052899732802
 30
0.0
 10
283.0700291845277
 20
421.5557963453558
 30
0.0
 10
283.5855472184224
 20
421.456593246549
 30
0.0
 10
284.0901655479574
 20
421.318713116689
 30
0.0
 10
284.5780306747886
 20
421.143494988521
 30
0.0
 10
285.0479274768888
 20
420.9314958423279
 30
0.0
 10
285.4934905869886
 20
420.6853898736057
 30
0.0
 10
285.9143780700732
 20
420.4055396332363
 30
0.0
 10
286.3042243142709
 20
420.0958178694635
 30
0.0
 10
286.6632090246666
 20
419.7564369383771
 30
0.0
 10
286.9855023875955
 20
419.3922474338467
 30
0.0
 10
287.2714789180051
 20
419.0035233379543
 30
0.0
 10
287.5162832606468
 20
418.5956770884934
 30
0.0
 10
287.7202998206429
 20
418.1694121108515
 30
0.0
 10
287.879894767405
 20
417.730154575818
 30
0.0
 10
287.9954966340151
 20
417.2794480193172
 30
0.0
 10
288.064701841991
 20
416.8221704297531
 30
0.0
 10
288.0882320882066
 20
416.3610053562462
 30
0.0
 10
288.0647018419909
 20
415.8998402827391
 30
0.0
 10
287.995496634015
 20
415.4425626931753
 30
0.0
 10
287.8798947674049
 20
414.9918561366743
 30
0.0
 10
287.720299820643
 20
414.5525986016407
 30
0.0
 10
287.5162832606469
 20
414.1263336239988
 30
0.0
 10
287.271478918005
 20
413.7184873745379
 30
0.0
 10
286.9855023875955
 20
413.3297632786456
 30
0.0
 10
286.6632090246666
 20
412.9655737741152
 30
0.0
 10
286.3042243142709
 20
412.6261928430288
 30
0.0
 10
285.9143780700732
 20
412.3164710792557
 30
0.0
 10
285.4934905869885
 20
412.0366208388865
 30
0.0
 10
285.0479274768887
 20
411.7905148701644
 30
0.0
 10
284.5780306747886
 20
411.5785157239716
 30
0.0
 10
284.0901655479573
 20
411.4032975958035
 30
0.0
 10
283.5855472184224
 20
411.2654174659435
 30
0.0
 10
283.0700291845277
 20
411.1662143671363
 30
0.0
 10
282.6334024449178
 20
411.1167207392124
 30
0.0
 10
282.2823489974622
 20
411.0960854039686
 30
0.0
 10
282.1062231637817
 20
411.0941469911685
 30
0.0
 10
282.0182233998557
 20
411.0931784798194
 30
0.0
 11
282.0182233998514
 21
421.6288322326731
 31
0.0
 11
282.2821575461574
 21
421.6238299262207
 31
0.0
 11
282.5460916924634
 21
421.6088230068634
 31
0.0
 11
283.0690017323105
 21
421.5490944308558
 31
0.0
 11
283.5858553986644
 21
421.449652963931
 31
0.0
 11
284.0881146631438
 21
421.3122490356709
 31
0.0
 11
284.57817655131
 21
421.1360942192574
 31
0.0
 11
285.0448222063038
 21
420.9253300177056
 31
0.0
 11
285.4929975112459
 21
420.677567074207
 31
0.0
 11
285.9102003634843
 21
420.3998335773607
 31
0.0
 11
286.3025620167622
 21
420.087854669491
 31
0.0
 11
286.6579690668895
 21
419.75139923503
 31
0.0
 11
286.9822341040909
 21
419.3847088190381
 31
0.0
 11
287.2652455318857
 21
418.9994011386456
 31
0.0
 11
287.5112337078244
 21
418.5893550793165
 31
0.0
 11
287.7132330691595
 21
418.1664667544677
 31
0.0
 11
287.8732857830893
 21
417.7259052676945
 31
0.0
 11
287.9878661567694
 21
417.2779075857621
 31
0.0
 11
288.0571754145946
 21
416.8206681333811
 31
0.0
 11
288.0804012263467
 21
416.3610053562462
 31
0.0
 11
288.0571754145944
 21
415.9013425791113
 31
0.0
 11
287.9878661567693
 21
415.4441031267303
 31
0.0
 11
287.8732857830892
 21
414.9961054447979
 31
0.0
 11
287.7132330691595
 21
414.5555439580245
 31
0.0
 11
287.5112337078244
 21
414.1326556331757
 31
0.0
 11
287.2652455318857
 21
413.7226095738466
 31
0.0
 11
286.9822341040909
 21
413.3373018934542
 31
0.0
 11
286.6579690668894
 21
412.9706114774623
 31
0.0
 11
286.3025620167622
 21
412.6341560430013
 31
0.0
 11
285.9102003634843
 21
412.3221771351315
 31
0.0
 11
285.4929975112458
 21
412.0444436382852
 31
0.0
 11
285.0448222063037
 21
411.7966806947867
 31
0.0
 11
284.5781765513099
 21
411.5859164932351
 31
0.0
 11
284.0881146631438
 21
411.4097616768216
 31
0.0
 11
283.5858553986644
 21
411.2723577485614
 31
0.0
 11
283.0690017323105
 21
411.1729162816365
 31
0.0
 11
282.5460916924635
 21
411.113187705629
 31
0.0
 11
282.2821575461593
 21
411.0981807862718
 31
0.0
 11
282.0182233998557
 21
411.0931784798194
 31
0.0
  0
SPLINE
  5
1CC
330
48
100
AcDbEntity
  8
1
  6
Continuous
 62
     7
100
AcDbSpline
210
0.0
220
0.0
230
1.0
 70
    11
 71
     3
 72
    79
 73
    75
 74
    73
 42
0.0000000001
 43
0.0000000001
 44
0.00000001
 40
0.0
 40
0.0
 40
0.0
 40
0.0
 40
0.2746255860864075
 40
0.5489296448749803
 40
0.844535122605742
 40
1.139720930735194
 40
1.464847760107626
 40
1.789634474685806
 40
2.147784125837428
 40
2.505702211207246
 40
2.896040828699667
 40
3.286231079274702
 40
3.704624946715798
 40
4.122927269101287
 40
4.562895988146246
 40
5.002812031778047
 40
5.456315478850088
 40
5.909794870758476
 40
6.367899400179802
 40
6.826003929601068
 40
7.279483321509452
 40
7.732986768581457
 40
8.172902812213145
 40
8.612871531258215
 40
9.031173853643757
 40
9.449567721084746
 40
9.839757971659855
 40
10.23009658915225
 40
10.58801467452216
 40
10.94616432567381
 40
11.27095104025191
 40
11.5960778696243
 40
11.89126367775367
 40
12.18686915548441
 40
12.46117321427297
 40
12.73579880035956
 40
13.00262036940793
 40
13.26944193845626
 40
13.54406752454272
 40
13.81837158333123
 40
14.11397706106192
 40
14.40916286919133
 40
14.73428969856369
 40
15.05907641314183
 40
15.41722606429342
 40
15.77514414966346
 40
16.16548276715588
 40
16.55567301773099
 40
16.97406688517205
 40
17.39236920755758
 40
17.83233792660261
 40
18.27225397023424
 40
18.72575741730619
 40
19.17923680921463
 40
19.63734133863601
 40
20.09544586805728
 40
20.54892525996566
 40
21.00242870703773
 40
21.44234475066948
 40
21.88231346971448
 40
22.30061579209995
 40
22.71900965954105
 40
23.10919991011613
 40
23.4995385276086
 40
23.85745661297845
 40
24.21560626413004
 40
24.54039297870823
 40
24.86551980808062
 40
25.16070561621013
 40
25.45631109394074
 40
25.73061515272923
 40
26.00524073881564
 40
26.27206230786403
 40
26.53888387691231
 40
26.53888387691231
 40
26.53888387691231
 40
26.53888387691231
 10
292.2435338552047
 20
421.6081438909902
 30
0.0
 10
292.3335231234652
 20
421.5904008623216
 30
0.0
 10
292.5133963019727
 20
421.5549355782422
 30
0.0
 10
292.7757826382146
 20
421.4490591719035
 30
0.0
 10
293.0287325195603
 20
421.3093943002752
 30
0.0
 10
293.2757097644117
 20
421.1286250434632
 30
0.0
 10
293.5083950149807
 20
420.9153869083316
 30
0.0
 10
293.7325102721437
 20
420.6643704471202
 30
0.0
 10
293.939370812214
 20
420.38526721087
 30
0.0
 10
294.1344132002569
 20
420.0718467573145
 30
0.0
 10
294.3101604139876
 20
419.7351233788413
 30
0.0
 10
294.4706867936137
 20
419.3688407933936
 30
0.0
 10
294.6104252031101
 20
418.9842010812697
 30
0.0
 10
294.7318933485904
 20
418.5761120010617
 30
0.0
 10
294.8314862233821
 20
418.1547639883506
 30
0.0
 10
294.9104516455952
 20
417.717166546386
 30
0.0
 10
294.9668185567717
 20
417.2715479566381
 30
0.0
 10
295.0010824866104
 20
416.8176193647905
 30
0.0
 10
295.0123845238783
 20
416.3610053562488
 30
0.0
 10
295.001082486612
 20
415.9043913476912
 30
0.0
 10
294.9668185567663
 20
415.4504627558915
 30
0.0
 10
294.9104516456166
 20
415.0048441659696
 30
0.0
 10
294.8314862233049
 20
414.5672467246355
 30
0.0
 10
294.7318933488724
 20
414.1458987096245
 30
0.0
 10
294.6104252021149
 20
413.7378096375962
 30
0.0
 10
294.4706867972295
 20
413.3531698959457
 30
0.0
 10
294.3101604014983
 20
412.9868874136232
 30
0.0
 10
294.1344132453564
 20
412.6501636663947
 30
0.0
 10
293.9393706593206
 20
412.3367444806344
 30
0.0
 10
293.7325108222871
 20
412.057636742676
 30
0.0
 10
293.5083931723973
 20
411.8066356026533
 30
0.0
 10
293.2757164029615
 20
411.593343160844
 30
0.0
 10
293.0287102524288
 20
411.4127589938673
 30
0.0
 10
292.7758636001269
 20
411.2724331225347
 30
0.0
 10
292.5131180958996
 20
411.1688565527925
 30
0.0
 10
292.2471208083569
 20
411.107777395776
 30
0.0
 10
291.9775155433767
 20
411.0859842308055
 30
0.0
 10
291.7079102783965
 20
411.1077773957761
 30
0.0
 10
291.4419129908538
 20
411.1688565527927
 30
0.0
 10
291.1791674866269
 20
411.2724331225345
 30
0.0
 10
290.9263208343248
 20
411.4127589938674
 30
0.0
 10
290.6793146837922
 20
411.5933431608439
 30
0.0
 10
290.4466379143561
 20
411.8066356026534
 30
0.0
 10
290.2225202644665
 20
412.057636742676
 30
0.0
 10
290.0156604274329
 20
412.3367444806343
 30
0.0
 10
289.8206178413972
 20
412.6501636663949
 30
0.0
 10
289.6448706852551
 20
412.9868874136232
 30
0.0
 10
289.484344289524
 20
413.3531698959458
 30
0.0
 10
289.3446058846385
 20
413.7378096375961
 30
0.0
 10
289.223137737881
 20
414.1458987096245
 30
0.0
 10
289.1235448634485
 20
414.5672467246357
 30
0.0
 10
289.0445794411368
 20
415.0048441659694
 30
0.0
 10
288.9882125299872
 20
415.4504627558914
 30
0.0
 10
288.9539486001413
 20
415.9043913476916
 30
0.0
 10
288.9426465628755
 20
416.3610053562464
 30
0.0
 10
288.9539486001412
 20
416.8176193647997
 30
0.0
 10
288.9882125299874
 20
417.2715479566037
 30
0.0
 10
289.0445794411353
 20
417.7171665465131
 30
0.0
 10
289.123544863454
 20
418.1547639878918
 30
0.0
 10
289.2231377378609
 20
418.5761120027402
 30
0.0
 10
289.3446058847089
 20
418.9842010753472
 30
0.0
 10
289.4843442892679
 20
419.3688408149085
 30
0.0
 10
289.6448706861387
 20
419.735123304528
 30
0.0
 10
289.820617838206
 20
420.0718470256643
 30
0.0
 10
290.015660438251
 20
420.3852663011294
 30
0.0
 10
290.2225202255405
 20
420.6643737205629
 30
0.0
 10
290.4466380447306
 20
420.9153759446575
 30
0.0
 10
290.6793142140726
 20
421.1286645439233
 30
0.0
 10
290.9263224098661
 20
421.3092618071854
 30
0.0
 10
291.1791617580557
 20
421.4495409085771
 30
0.0
 10
291.4419326757062
 20
421.5532802064123
 30
0.0
 10
291.7078374181482
 20
421.6137667755083
 30
0.0
 10
291.9777789102122
 20
421.6377128811208
 30
0.0
 10
292.1549488735404
 20
421.6180002210336
 30
0.0
 10
292.2435338552047
 20
421.6081438909902
 30
0.0
 11
292.2435338552047
 21
421.6081438909902
 31
0.0
 11
292.5111669999677
 21
421.5465670093093
 31
0.0
 11
292.7667495540084
 21
421.4469664333173
 31
0.0
 11
293.0254909994898
 21
421.3040137738296
 31
0.0
 11
293.2643424512876
 21
421.1305645152693
 31
0.0
 11
293.5045948251167
 21
420.9115068697802
 31
0.0
 11
293.7214505291062
 21
420.6697218131416
 31
0.0
 11
293.9353941405609
 21
420.3824948928543
 31
0.0
 11
294.1249468467645
 21
420.0788913233665
 31
0.0
 11
294.3061850321866
 21
419.7331790782105
 31
0.0
 11
294.4631456118264
 21
419.37595112846
 31
0.0
 11
294.6065123641537
 21
418.9828870081954
 31
0.0
 11
294.7260749606313
 21
418.5820358906509
 31
0.0
 11
294.8276413505118
 21
418.1539509198978
 31
0.0
 11
294.9058839298338
 21
417.7210488244701
 31
0.0
 11
294.9630215465867
 21
417.2711592054989
 31
0.0
 11
294.9971655234855
 21
416.8189670475316
 31
0.0
 11
295.0086044566222
 21
416.3610053562462
 31
0.0
 11
294.9971655234856
 21
415.9030436649608
 31
0.0
 11
294.9630215465869
 21
415.4508515069934
 31
0.0
 11
294.9058839298338
 21
415.0009618880224
 31
0.0
 11
294.8276413505118
 21
414.5680597925947
 31
0.0
 11
294.7260749606313
 21
414.1399748218415
 31
0.0
 11
294.6065123641537
 21
413.739123704297
 31
0.0
 11
294.4631456118264
 21
413.3460595840325
 31
0.0
 11
294.3061850321865
 21
412.9888316342819
 31
0.0
 11
294.1249468467645
 21
412.6431193891259
 31
0.0
 11
293.9353941405609
 21
412.3395158196381
 31
0.0
 11
293.7214505291063
 21
412.0522888993506
 31
0.0
 11
293.5045948251169
 21
411.8105038427121
 31
0.0
 11
293.2643424512878
 21
411.591446197223
 31
0.0
 11
293.0254909994899
 21
411.4179969386629
 31
0.0
 11
292.7667495540086
 21
411.2750442791751
 31
0.0
 11
292.511166999968
 21
411.1754437031829
 31
0.0
 11
292.2435338552048
 21
411.113866821502
 31
0.0
 11
291.9775155433767
 21
411.0931784798194
 31
0.0
 11
291.7114972315487
 21
411.1138668215021
 31
0.0
 11
291.4438640867855
 21
411.1754437031829
 31
0.0
 11
291.188281532745
 21
411.2750442791751
 31
0.0
 11
290.9295400872637
 21
411.4179969386629
 31
0.0
 11
290.6906886354659
 21
411.591446197223
 31
0.0
 11
290.4504362616367
 21
411.810503842712
 31
0.0
 11
290.2335805576473
 21
412.0522888993506
 31
0.0
 11
290.0196369461926
 21
412.3395158196379
 31
0.0
 11
289.830084239989
 21
412.6431193891259
 31
0.0
 11
289.6488460545669
 21
412.9888316342819
 31
0.0
 11
289.491885474927
 21
413.3460595840325
 31
0.0
 11
289.3485187225997
 21
413.7391237042971
 31
0.0
 11
289.2289561261222
 21
414.1399748218416
 31
0.0
 11
289.1273897362415
 21
414.5680597925947
 31
0.0
 11
289.0491471569196
 21
415.0009618880223
 31
0.0
 11
288.9920095401665
 21
415.4508515069933
 31
0.0
 11
288.9578655632678
 21
415.9030436649607
 31
0.0
 11
288.9464266301312
 21
416.3610053562462
 31
0.0
 11
288.9578655632678
 21
416.8189670475316
 31
0.0
 11
288.9920095401664
 21
417.2711592054989
 31
0.0
 11
289.0491471569196
 21
417.7210488244701
 31
0.0
 11
289.1273897362415
 21
418.1539509198977
 31
0.0
 11
289.2289561261221
 21
418.5820358906509
 31
0.0
 11
289.3485187225996
 21
418.9828870081954
 31
0.0
 11
289.4918854749269
 21
419.37595112846
 31
0.0
 11
289.6488460545668
 21
419.7331790782105
 31
0.0
 11
289.830084239989
 21
420.0788913233665
 31
0.0
 11
290.0196369461926
 21
420.3824948928543
 31
0.0
 11
290.2335805576473
 21
420.6697218131416
 31
0.0
 11
290.4504362616367
 21
420.9115068697802
 31
0.0
 11
290.6906886354659
 21
421.1305645152693
 31
0.0
 11
290.9295400872637
 21
421.3040137738296
 31
0.0
 11
291.188281532745
 21
421.4469664333172
 31
0.0
 11
291.4438640867855
 21
421.5465670093093
 31
0.0
 11
291.7114972315486
 21
421.6081438909902
 31
0.0
 11
291.9775155433767
 21
421.628832232673
 31
0.0
 11
292.2435338552047
 21
421.6081438909902
 31
0.0
  0
SPLINE
  5
1CD
330
48
100
AcDbEntity
  8
1
  6
Continuous
 62
     7
100
AcDbSpline
210
0.0
220
0.0
230
1.0
 70
    11
 71
     3
 72
    79
 73
    75
 74
    73
 42
0.0000000001
 43
0.0000000001
 44
0.00000001
 40
0.0
 40
0.0
 40
0.0
 40
0.0
 40
0.2746255860864629
 40
0.5489296448750887
 40
0.8445351226058007
 40
1.139720930735298
 40
1.464847760107647
 40
1.789634474685789
 40
2.147784125837411
 40
2.505702211207259
 40
2.896040828699707
 40
3.286231079274742
 40
3.704624946715818
 40
4.12292726910129
 40
4.562895988146236
 40
5.002812031778038
 40
5.456315478850106
 40
5.909794870758486
 40
6.367899400179811
 40
6.826003929601078
 40
7.279483321509458
 40
7.73298676858147
 40
8.17290281221316
 40
8.612871531258216
 40
9.031173853643743
 40
9.449567721084712
 40
9.839757971659822
 40
10.2300965891523
 40
10.5880146745223
 40
10.94616432567391
 40
11.27095104025197
 40
11.59607786962429
 40
11.89126367775365
 40
12.18686915548449
 40
12.46117321427311
 40
12.73579880035958
 40
13.0026203694079
 40
13.26944193845622
 40
13.54406752454263
 40
13.81837158333119
 40
14.11397706106204
 40
14.4091628691914
 40
14.73428969856367
 40
15.05907641314178
 40
15.41722606429333
 40
15.7751441496634
 40
16.16548276715585
 40
16.55567301773094
 40
16.974066885172
 40
17.39236920755756
 40
17.83233792660258
 40
18.2722539702342
 40
18.72575741730615
 40
19.17923680921459
 40
19.63734133863597
 40
20.09544586805724
 40
20.54892525996562
 40
21.00242870703768
 40
21.44234475066943
 40
21.88231346971443
 40
22.3006157920999
 40
22.71900965954098
 40
23.10919991011604
 40
23.49953852760851
 40
23.85745661297842
 40
24.21560626412994
 40
24.54039297870805
 40
24.86551980808044
 40
25.16070561620995
 40
25.45631109394071
 40
25.7306151527292
 40
26.00524073881566
 40
26.272062307864
 40
26.53888387691233
 40
26.53888387691233
 40
26.53888387691233
 40
26.53888387691233
 10
271.7929129445065
 20
421.6081438909902
 30
0.0
 10
271.7029236762459
 20
421.5904008623215
 30
0.0
 10
271.5230504977384
 20
421.554935578242
 30
0.0
 10
271.2606641614966
 20
421.4490591719037
 30
0.0
 10
271.0077142801508
 20
421.3093943002753
 30
0.0
 10
270.7607370352994
 20
421.1286250434631
 30
0.0
 10
270.5280517847303
 20
420.9153869083316
 30
0.0
 10
270.3039365275677
 20
420.66437044712
 30
0.0
 10
270.0970759874971
 20
420.3852672108703
 30
0.0
 10
269.9020335994543
 20
420.0718467573144
 30
0.0
 10
269.7262863857234
 20
419.7351233788414
 30
0.0
 10
269.5657600060974
 20
419.3688407933935
 30
0.0
 10
269.4260215966011
 20
418.9842010812698
 30
0.0
 10
269.3045534511208
 20
418.5761120010617
 30
0.0
 10
269.2049605763293
 20
418.1547639883507
 30
0.0
 10
269.1259951541161
 20
417.7171665463859
 30
0.0
 10
269.0696282429391
 20
417.271547956638
 30
0.0
 10
269.0353643131008
 20
416.8176193647905
 30
0.0
 10
269.0240622758329
 20
416.3610053562491
 30
0.0
 10
269.0353643130993
 20
415.9043913476911
 30
0.0
 10
269.0696282429449
 20
415.4504627558916
 30
0.0
 10
269.1259951540948
 20
415.0048441659696
 30
0.0
 10
269.2049605764064
 20
414.5672467246356
 30
0.0
 10
269.3045534508387
 20
414.1458987096245
 30
0.0
 10
269.4260215975965
 20
413.7378096375962
 30
0.0
 10
269.5657600024816
 20
413.3531698959457
 30
0.0
 10
269.7262863982127
 20
412.9868874136232
 30
0.0
 10
269.9020335543549
 20
412.6501636663949
 30
0.0
 10
270.0970761403908
 20
412.3367444806344
 30
0.0
 10
270.3039359774243
 20
412.0576367426761
 30
0.0
 10
270.528053627314
 20
411.8066356026534
 30
0.0
 10
270.7607303967498
 20
411.5933431608439
 30
0.0
 10
271.0077365472824
 20
411.4127589938674
 30
0.0
 10
271.2605831995846
 20
411.2724331225345
 30
0.0
 10
271.5233287038116
 20
411.1688565527927
 30
0.0
 10
271.7893259913544
 20
411.1077773957762
 30
0.0
 10
272.0589312563345
 20
411.0859842308054
 30
0.0
 10
272.3285365213146
 20
411.1077773957761
 30
0.0
 10
272.5945338088574
 20
411.1688565527928
 30
0.0
 10
272.8572793130844
 20
411.2724331225345
 30
0.0
 10
273.1101259653865
 20
411.4127589938673
 30
0.0
 10
273.3571321159191
 20
411.593343160844
 30
0.0
 10
273.5898088853551
 20
411.8066356026534
 30
0.0
 10
273.8139265352446
 20
412.0576367426761
 30
0.0
 10
274.0207863722783
 20
412.3367444806342
 30
0.0
 10
274.2158289583139
 20
412.6501636663948
 30
0.0
 10
274.3915761144561
 20
412.986887413623
 30
0.0
 10
274.5521025101871
 20
413.3531698959459
 30
0.0
 10
274.6918409150727
 20
413.7378096375961
 30
0.0
 10
274.8133090618302
 20
414.1458987096245
 30
0.0
 10
274.9129019362627
 20
414.5672467246355
 30
0.0
 10
274.9918673585743
 20
415.0048441659696
 30
0.0
 10
275.0482342697239
 20
415.4504627558913
 30
0.0
 10
275.0824981995698
 20
415.9043913476916
 30
0.0
 10
275.0938002368358
 20
416.3610053562464
 30
0.0
 10
275.0824981995699
 20
416.8176193647998
 30
0.0
 10
275.0482342697236
 20
417.2715479566036
 30
0.0
 10
274.9918673585758
 20
417.7171665465131
 30
0.0
 10
274.9129019362572
 20
418.1547639878919
 30
0.0
 10
274.8133090618502
 20
418.57611200274
 30
0.0
 10
274.6918409150023
 20
418.9842010753475
 30
0.0
 10
274.5521025104432
 20
419.3688408149083
 30
0.0
 10
274.3915761135726
 20
419.7351233045279
 30
0.0
 10
274.2158289615053
 20
420.0718470256645
 30
0.0
 10
274.0207863614601
 20
420.3852663011292
 30
0.0
 10
273.8139265741709
 20
420.6643737205629
 30
0.0
 10
273.5898087549808
 20
420.9153759446576
 30
0.0
 10
273.3571325856387
 20
421.1286645439233
 30
0.0
 10
273.1101243898452
 20
421.3092618071853
 30
0.0
 10
272.8572850416556
 20
421.4495409085772
 30
0.0
 10
272.594514124005
 20
421.5532802064124
 30
0.0
 10
272.328609381563
 20
421.6137667755082
 30
0.0
 10
272.058667889499
 20
421.6377128811208
 30
0.0
 10
271.8814979261707
 20
421.6180002210336
 30
0.0
 10
271.7929129445065
 20
421.6081438909902
 30
0.0
 11
271.7929129445065
 21
421.6081438909902
 31
0.0
 11
271.5252797997434
 21
421.5465670093093
 31
0.0
 11
271.2696972457027
 21
421.4469664333173
 31
0.0
 11
271.0109558002213
 21
421.3040137738296
 31
0.0
 11
270.7721043484235
 21
421.1305645152693
 31
0.0
 11
270.5318519745944
 21
420.9115068697802
 31
0.0
 11
270.314996270605
 21
420.6697218131416
 31
0.0
 11
270.1010526591503
 21
420.3824948928543
 31
0.0
 11
269.9114999529467
 21
420.0788913233665
 31
0.0
 11
269.7302617675245
 21
419.7331790782105
 31
0.0
 11
269.5733011878847
 21
419.37595112846
 31
0.0
 11
269.4299344355575
 21
418.9828870081954
 31
0.0
 11
269.31037183908
 21
418.5820358906509
 31
0.0
 11
269.2088054491994
 21
418.1539509198978
 31
0.0
 11
269.1305628698775
 21
417.7210488244701
 31
0.0
 11
269.0734252531243
 21
417.2711592054989
 31
0.0
 11
269.0392812762257
 21
416.8189670475316
 31
0.0
 11
269.027842343089
 21
416.3610053562462
 31
0.0
 11
269.0392812762257
 21
415.9030436649608
 31
0.0
 11
269.0734252531243
 21
415.4508515069934
 31
0.0
 11
269.1305628698775
 21
415.0009618880224
 31
0.0
 11
269.2088054491994
 21
414.5680597925947
 31
0.0
 11
269.31037183908
 21
414.1399748218415
 31
0.0
 11
269.4299344355575
 21
413.739123704297
 31
0.0
 11
269.5733011878847
 21
413.3460595840325
 31
0.0
 11
269.7302617675246
 21
412.9888316342819
 31
0.0
 11
269.9114999529468
 21
412.6431193891259
 31
0.0
 11
270.1010526591505
 21
412.3395158196381
 31
0.0
 11
270.3149962706051
 21
412.0522888993506
 31
0.0
 11
270.5318519745944
 21
411.8105038427121
 31
0.0
 11
270.7721043484235
 21
411.591446197223
 31
0.0
 11
271.0109558002213
 21
411.4179969386629
 31
0.0
 11
271.2696972457027
 21
411.2750442791751
 31
0.0
 11
271.5252797997434
 21
411.1754437031829
 31
0.0
 11
271.7929129445065
 21
411.113866821502
 31
0.0
 11
272.0589312563345
 21
411.0931784798194
 31
0.0
 11
272.3249495681625
 21
411.1138668215021
 31
0.0
 11
272.5925827129256
 21
411.1754437031829
 31
0.0
 11
272.8481652669662
 21
411.2750442791751
 31
0.0
 11
273.1069067124477
 21
411.4179969386629
 31
0.0
 11
273.3457581642455
 21
411.591446197223
 31
0.0
 11
273.5860105380745
 21
411.810503842712
 31
0.0
 11
273.8028662420638
 21
412.0522888993506
 31
0.0
 11
274.0168098535185
 21
412.3395158196379
 31
0.0
 11
274.2063625597222
 21
412.6431193891259
 31
0.0
 11
274.3876007451443
 21
412.9888316342819
 31
0.0
 11
274.5445613247841
 21
413.3460595840325
 31
0.0
 11
274.6879280771115
 21
413.7391237042971
 31
0.0
 11
274.8074906735891
 21
414.1399748218416
 31
0.0
 11
274.9090570634697
 21
414.5680597925947
 31
0.0
 11
274.9872996427915
 21
415.0009618880223
 31
0.0
 11
275.0444372595447
 21
415.4508515069933
 31
0.0
 11
275.0785812364434
 21
415.9030436649607
 31
0.0
 11
275.09002016958
 21
416.3610053562462
 31
0.0
 11
275.0785812364434
 21
416.8189670475316
 31
0.0
 11
275.0444372595447
 21
417.2711592054989
 31
0.0
 11
274.9872996427915
 21
417.7210488244701
 31
0.0
 11
274.9090570634696
 21
418.1539509198977
 31
0.0
 11
274.8074906735891
 21
418.5820358906509
 31
0.0
 11
274.6879280771116
 21
418.9828870081954
 31
0.0
 11
274.5445613247844
 21
419.37595112846
 31
0.0
 11
274.3876007451445
 21
419.7331790782105
 31
0.0
 11
274.2063625597223
 21
420.0788913233665
 31
0.0
 11
274.0168098535185
 21
420.3824948928543
 31
0.0
 11
273.8028662420639
 21
420.6697218131416
 31
0.0
 11
273.5860105380747
 21
420.9115068697802
 31
0.0
 11
273.3457581642455
 21
421.1305645152693
 31
0.0
 11
273.1069067124477
 21
421.3040137738296
 31
0.0
 11
272.8481652669662
 21
421.4469664333172
 31
0.0
 11
272.5925827129257
 21
421.5465670093093
 31
0.0
 11
272.3249495681625
 21
421.6081438909902
 31
0.0
 11
272.0589312563345
 21
421.628832232673
 31
0.0
 11
271.7929129445065
 21
421.6081438909902
 31
0.0
  0
SPLINE
  5
1CE
330
48
100
AcDbEntity
  8
1
  6
Continuous
 62
     7
100
AcDbSpline
210
0.0
220
0.0
230
1.0
 70
     8
 71
     3
 72
    45
 73
    41
 74
    39
 42
0.0000000001
 43
0.0000000001
 44
0.00000001
 40
0.0
 40
0.0
 40
0.0
 40
0.0
 40
0.2639815460523207
 40
0.5283419841191646
 40
1.054652170762559
 40
1.580985067100829
 40
2.101700160272529
 40
2.62246034843852
 40
3.134495226137556
 40
3.646596368619228
 40
4.147789061289728
 40
4.649065936797212
 40
5.138470095605163
 40
5.627969508813759
 40
6.10604636124639
 40
6.584217829940344
 40
7.052873649570516
 40
7.521607363809327
 40
7.984025556627736
 40
8.446488192993062
 40
8.906737372258991
 40
9.366986551524812
 40
9.82944918789013
 40
10.29186738070857
 40
10.76060109494746
 40
11.22925691457769
 40
11.70742838327165
 40
12.18550523570424
 40
12.67500464891283
 40
13.16440880772078
 40
13.66568568322834
 40
14.16687837589893
 40
14.6789795183805
 40
15.19101439607941
 40
15.71177458424533
 40
16.23248967741712
 40
16.75882257375535
 40
17.28513276039869
 40
17.5494931984636
 40
17.81347474451364
 40
17.81347474451364
 40
17.81347474451364
 40
17.81347474451364
 10
282.01822339986
 20
421.6288322326731
 30
0.0
 10
281.9302236359332
 20
421.6278637213239
 30
0.0
 10
281.7540978022512
 20
421.6259253085238
 30
0.0
 10
281.4030443547943
 20
421.6052899732802
 30
0.0
 10
280.9664176151836
 20
421.5557963453559
 30
0.0
 10
280.4508995812889
 20
421.4565932465489
 30
0.0
 10
279.9462812517537
 20
421.318713116689
 30
0.0
 10
279.4584161249226
 20
421.143494988521
 30
0.0
 10
278.9885193228224
 20
420.9314958423278
 30
0.0
 10
278.5429562127227
 20
420.6853898736059
 30
0.0
 10
278.1220687296381
 20
420.4055396332362
 30
0.0
 10
277.7322224854404
 20
420.0958178694635
 30
0.0
 10
277.3732377750445
 20
419.7564369383771
 30
0.0
 10
277.0509444121159
 20
419.3922474338467
 30
0.0
 10
276.7649678817061
 20
419.0035233379542
 30
0.0
 10
276.5201635390646
 20
418.5956770884936
 30
0.0
 10
276.3161469790682
 20
418.1694121108513
 30
0.0
 10
276.1565520323064
 20
417.7301545758181
 30
0.0
 10
276.0409501656961
 20
417.2794480193171
 30
0.0
 10
275.9717449577203
 20
416.8221704297532
 30
0.0
 10
275.9482147115049
 20
416.3610053562463
 30
0.0
 10
275.9717449577204
 20
415.8998402827392
 30
0.0
 10
276.0409501656962
 20
415.4425626931752
 30
0.0
 10
276.1565520323064
 20
414.9918561366744
 30
0.0
 10
276.3161469790681
 20
414.5525986016407
 30
0.0
 10
276.5201635390644
 20
414.1263336239987
 30
0.0
 10
276.7649678817062
 20
413.7184873745381
 30
0.0
 10
277.0509444121158
 20
413.3297632786457
 30
0.0
 10
277.3732377750446
 20
412.9655737741151
 30
0.0
 10
277.7322224854405
 20
412.6261928430289
 30
0.0
 10
278.1220687296381
 20
412.3164710792559
 30
0.0
 10
278.5429562127226
 20
412.0366208388864
 30
0.0
 10
278.9885193228225
 20
411.7905148701645
 30
0.0
 10
279.4584161249226
 20
411.5785157239715
 30
0.0
 10
279.9462812517536
 20
411.4032975958036
 30
0.0
 10
280.4508995812889
 20
411.2654174659435
 30
0.0
 10
280.9664176151836
 20
411.1662143671364
 30
0.0
 10
281.4030443547936
 20
411.1167207392123
 30
0.0
 10
281.754097802249
 20
411.0960854039686
 30
0.0
 10
281.9302236359296
 20
411.0941469911686
 30
0.0
 10
282.0182233998557
 20
411.0931784798194
 30
0.0
 11
282.01822339986
 21
421.6288322326731
 31
0.0
 11
281.7542892535539
 21
421.6238299262207
 31
0.0
 11
281.4903551072479
 21
421.6088230068634
 31
0.0
 11
280.9674450674009
 21
421.5490944308558
 31
0.0
 11
280.4505914010468
 21
421.449652963931
 31
0.0
 11
279.9483321365673
 21
421.3122490356709
 31
0.0
 11
279.4582702484012
 21
421.1360942192574
 31
0.0
 11
278.9916245934074
 21
420.9253300177056
 31
0.0
 11
278.5434492884654
 21
420.677567074207
 31
0.0
 11
278.126246436227
 21
420.3998335773607
 31
0.0
 11
277.7338847829491
 21
420.087854669491
 31
0.0
 11
277.3784777328218
 21
419.75139923503
 31
0.0
 11
277.0542126956203
 21
419.3847088190381
 31
0.0
 11
276.7712012678255
 21
418.9994011386456
 31
0.0
 11
276.5252130918869
 21
418.5893550793165
 31
0.0
 11
276.3232137305518
 21
418.1664667544677
 31
0.0
 11
276.163161016622
 21
417.7259052676945
 31
0.0
 11
276.0485806429419
 21
417.2779075857621
 31
0.0
 11
275.9792713851168
 21
416.8206681333811
 31
0.0
 11
275.9560455733647
 21
416.3610053562462
 31
0.0
 11
275.9792713851169
 21
415.9013425791113
 31
0.0
 11
276.0485806429419
 21
415.4441031267303
 31
0.0
 11
276.163161016622
 21
414.9961054447979
 31
0.0
 11
276.3232137305517
 21
414.5555439580245
 31
0.0
 11
276.5252130918868
 21
414.1326556331757
 31
0.0
 11
276.7712012678255
 21
413.7226095738466
 31
0.0
 11
277.0542126956203
 21
413.3373018934542
 31
0.0
 11
277.3784777328218
 21
412.9706114774623
 31
0.0
 11
277.7338847829491
 21
412.6341560430013
 31
0.0
 11
278.126246436227
 21
412.3221771351315
 31
0.0
 11
278.5434492884655
 21
412.0444436382852
 31
0.0
 11
278.9916245934075
 21
411.7966806947867
 31
0.0
 11
279.4582702484012
 21
411.5859164932351
 31
0.0
 11
279.9483321365673
 21
411.4097616768216
 31
0.0
 11
280.4505914010468
 21
411.2723577485614
 31
0.0
 11
280.9674450674009
 21
411.1729162816365
 31
0.0
 11
281.4903551072478
 21
411.113187705629
 31
0.0
 11
281.7542892535519
 21
411.0981807862718
 31
0.0
 11
282.0182233998557
 21
411.0931784798194
 31
0.0
  0
SPLINE
  5
1CF
330
48
100
AcDbEntity
  8
1
  6
Continuous
 62
     7
100
AcDbSpline
210
0.0
220
0.0
230
1.0
 70
    11
 71
     3
 72
    79
 73
    75
 74
    73
 42
0.0000000001
 43
0.0000000001
 44
0.00000001
 40
0.0
 40
0.0
 40
0.0
 40
0.0
 40
0.4580629073446125
 40
0.9161250954497059
 40
1.374321004625549
 40
1.832515564104198
 40
2.290914921250001
 40
2.749312464134782
 40
3.207961104920661
 40
3.666607688416547
 40
4.125521335344367
 40
4.584432931141674
 40
5.043595344343895
 40
5.50275595888175
 40
5.962120941340432
 40
6.421484591837723
 40
6.880981585492398
 40
7.340477871484135
 40
7.800020458108057
 40
8.259563044731923
 40
8.719059330723631
 40
9.178556324378459
 40
9.637919974875885
 40
10.09728495733463
 40
10.55644557187246
 40
11.01560798507467
 40
11.47451958087198
 40
11.93343322779983
 40
12.39207981129568
 40
12.85072845208152
 40
13.30912599496627
 40
13.76752535211208
 40
14.22571991159084
 40
14.68391582076667
 40
15.14197800887177
 40
15.60004091621638
 40
16.05805737367908
 40
16.51607383114166
 40
16.97413673848627
 40
17.43219892659143
 40
17.8903948357672
 40
18.3485893952458
 40
18.80698875239147
 40
19.26538629527621
 40
19.72403493606204
 40
20.18268151955795
 40
20.64159516648577
 40
21.1005067622831
 40
21.55966917548528
 40
22.01882979002311
 40
22.47819477248188
 40
22.93755842297934
 40
23.39705541663413
 40
23.85655170262583
 40
24.31609428924969
 40
24.77563687587362
 40
25.23513316186533
 40
25.69463015551999
 40
26.15399380601728
 40
26.61335878847593
 40
27.07251940301372
 40
27.53168181621598
 40
27.99059341201341
 40
28.44950705894135
 40
28.90815364243738
 40
29.36680228322325
 40
29.82519982610798
 40
30.28359918325354
 40
30.74179374273211
 40
31.19998965190792
 40
31.65805184001303
 40
32.1161147473577
 40
32.57413120482034
 40
33.03214766228304
 40
33.03214766228304
 40
33.03214766228304
 40
33.03214766228304
 10
99.19769037182056
 20
280.6534295345069
 30
0.0
 10
99.18050695511386
 20
280.5016125357063
 30
0.0
 10
99.14614014868145
 20
280.1979787764845
 30
0.0
 10
99.04416785053728
 20
279.7504549874242
 30
0.0
 10
98.90650403086876
 20
279.3129994104228
 30
0.0
 10
98.73012325963924
 20
278.8893529606751
 30
0.0
 10
98.51778975791291
 20
278.4825333402604
 30
0.0
 10
98.2704190366527
 20
278.0958112518069
 30
0.0
 10
97.99039420346881
 20
277.7319413134518
 30
0.0
 10
97.67941555464068
 20
277.3939076552458
 30
0.0
 10
97.34024921798758
 20
277.0840360573779
 30
0.0
 10
96.97510698582812
 20
276.8049612149374
 30
0.0
 10
96.58710863638012
 20
276.5584975258124
 30
0.0
 10
96.17890073662247
 20
276.3468571180782
 30
0.0
 10
95.75385817705141
 20
276.1712845568733
 30
0.0
 10
95.31498920012247
 20
276.0335037423576
 30
0.0
 10
94.86581312159311
 20
275.9341530508266
 30
0.0
 10
94.40961643050845
 20
275.8744128019778
 30
0.0
 10
93.94994937765328
 20
275.8543012956509
 30
0.0
 10
93.49028232479063
 20
275.8744128019773
 30
0.0
 10
93.03408563372859
 20
275.9341530508282
 30
0.0
 10
92.58490955511604
 20
276.0335037423519
 30
0.0
 10
92.14604057849665
 20
276.1712845568947
 30
0.0
 10
91.72099801776989
 20
276.3468571179983
 30
0.0
 10
91.31279012232345
 20
276.5584975261106
 30
0.0
 10
90.92479175678997
 20
276.8049612138237
 30
0.0
 10
90.55964958463119
 20
277.0840360615316
 30
0.0
 10
90.22048302412068
 20
277.3939076397471
 30
0.0
 10
89.90950521027666
 20
277.7319413712579
 30
0.0
 10
89.62947726182355
 20
278.0958110361182
 30
0.0
 10
89.38211816083683
 20
278.4825341447348
 30
0.0
 10
89.16974130289975
 20
278.8893499588351
 30
0.0
 10
88.99352227041327
 20
279.313010607898
 30
0.0
 10
88.85525494671933
 20
279.7504132022701
 30
0.0
 10
88.75553433205043
 20
280.1981346703939
 30
0.0
 10
88.69558323597796
 20
280.6528323537295
 30
0.0
 10
88.67539247511242
 20
281.1110053562466
 30
0.0
 10
88.69558323597795
 20
281.5691783587633
 30
0.0
 10
88.75553433205045
 20
282.0238760420993
 30
0.0
 10
88.85525494671927
 20
282.4715975102229
 30
0.0
 10
88.99352227041331
 20
282.909000104595
 30
0.0
 10
89.16974130289971
 20
283.3326607536578
 30
0.0
 10
89.38211816083691
 20
283.7394765677577
 30
0.0
 10
89.62947726182355
 20
284.1261996763745
 30
0.0
 10
89.90950521027665
 20
284.4900693412347
 30
0.0
 10
90.22048302412065
 20
284.8281030727458
 30
0.0
 10
90.55964958463119
 20
285.1379746509611
 30
0.0
 10
90.92479175678993
 20
285.417049498669
 30
0.0
 10
91.31279012232349
 20
285.663513186382
 30
0.0
 10
91.72099801776989
 20
285.8751535944944
 30
0.0
 10
92.14604057849667
 20
286.050726155598
 30
0.0
 10
92.58490955511604
 20
286.188506970141
 30
0.0
 10
93.03408563372847
 20
286.2878576616645
 30
0.0
 10
93.49028232479095
 20
286.3475979105152
 30
0.0
 10
93.94994937765212
 20
286.3677094168414
 30
0.0
 10
94.40961643051277
 20
286.3475979105153
 30
0.0
 10
94.86581312157682
 20
286.2878576616644
 30
0.0
 10
95.31498920018325
 20
286.1885069701414
 30
0.0
 10
95.75385817682471
 20
286.0507261555966
 30
0.0
 10
96.17890073746844
 20
285.8751535945003
 30
0.0
 10
96.58710863322443
 20
285.6635131863609
 30
0.0
 10
96.97510699760306
 20
285.4170494987491
 30
0.0
 10
97.34024917406947
 20
285.1379746506628
 30
0.0
 10
97.67941571850884
 20
284.8281030738585
 30
0.0
 10
97.99039359229896
 20
284.4900693370847
 30
0.0
 10
98.27042131709729
 20
284.1261996918595
 30
0.0
 10
98.51778125233915
 20
283.7394765100019
 30
0.0
 10
98.73015499759966
 20
283.3326609691691
 30
0.0
 10
98.90638564181145
 20
282.9089993006935
 30
0.0
 10
99.04460963808171
 20
282.4716005101085
 30
0.0
 10
99.1444919080829
 20
282.0238648499924
 30
0.0
 10
99.20383975436371
 20
281.5692201269661
 30
0.0
 10
99.22628165991571
 20
281.1108494926871
 30
0.0
 10
99.20722080118559
 20
280.8059028539003
 30
0.0
 10
99.19769037182056
 20
280.6534295345069
 30
0.0
 11
99.19769037182056
 21
280.6534295345069
 31
0.0
 11
99.13773807629092
 21
280.1993069196266
 31
0.0
 11
99.03823283262609
 21
279.7521831396117
 31
0.0
 11
98.9000576371071
 21
279.3153180499916
 31
0.0
 11
98.72416483748938
 21
278.8922294335311
 31
0.0
 11
98.51196266511091
 21
278.4859041836763
 31
0.0
 11
98.26503271806482
 21
278.0996996930569
 31
0.0
 11
97.98525329525718
 21
277.7362687501418
 31
0.0
 11
97.6747910337109
 21
277.3986745074361
 31
0.0
 11
97.33594134256509
 21
277.0891868305458
 31
0.0
 11
96.97137747420385
 21
276.8104521203952
 31
0.0
 11
96.58376164069432
 21
276.5643137704568
 31
0.0
 11
96.17616690031812
 21
276.3529018560328
 31
0.0
 11
95.75157087084179
 21
276.1775895664972
 31
0.0
 11
95.31332135725819
 21
276.039922114854
 31
0.0
 11
94.86465254433279
 21
275.9407566799193
 31
0.0
 11
94.40905594143618
 21
275.8810191517709
 31
0.0
 11
93.94994937765202
 21
275.8610053562462
 31
0.0
 11
93.49084281386791
 21
275.8810191517709
 31
0.0
 11
93.03524621097134
 21
275.9407566799193
 31
0.0
 11
92.58657739804578
 21
276.039922114854
 31
0.0
 11
92.14832788446203
 21
276.1775895664972
 31
0.0
 11
91.72373185498563
 21
276.3529018560328
 31
0.0
 11
91.31613711460943
 21
276.5643137704568
 31
0.0
 11
90.92852128109992
 21
276.8104521203952
 31
0.0
 11
90.56395741273872
 21
277.0891868305458
 31
0.0
 11
90.22510772159308
 21
277.3986745074363
 31
0.0
 11
89.91464546004697
 21
277.7362687501421
 31
0.0
 11
89.63486603723939
 21
278.0996996930572
 31
0.0
 11
89.38793609019318
 21
278.4859041836766
 31
0.0
 11
89.17573391781437
 21
278.8922294335312
 31
0.0
 11
88.99984111819636
 21
279.3153180499917
 31
0.0
 11
88.86166592267742
 21
279.7521831396118
 31
0.0
 11
88.76216067901279
 21
280.1993069196267
 31
0.0
 11
88.7022083834832
 21
280.653429534507
 31
0.0
 11
88.68212250122504
 21
281.1110053562466
 31
0.0
 11
88.7022083834832
 21
281.568581177986
 31
0.0
 11
88.76216067901279
 21
282.0227037928663
 31
0.0
 11
88.86166592267742
 21
282.4698275728813
 31
0.0
 11
88.99984111819637
 21
282.9066926625013
 31
0.0
 11
89.17573391781437
 21
283.3297812789617
 31
0.0
 11
89.38793609019319
 21
283.7361065288161
 31
0.0
 11
89.63486603723939
 21
284.1223110194354
 31
0.0
 11
89.91464546004696
 21
284.4857419623505
 31
0.0
 11
90.22510772159308
 21
284.8233362050564
 31
0.0
 11
90.56395741273869
 21
285.1328238819469
 31
0.0
 11
90.92852128109992
 21
285.4115585920976
 31
0.0
 11
91.31613711460943
 21
285.6576969420359
 31
0.0
 11
91.72373185498563
 21
285.8691088564599
 31
0.0
 11
92.14832788446203
 21
286.0444211459955
 31
0.0
 11
92.58657739804579
 21
286.1820885976388
 31
0.0
 11
93.03524621097132
 21
286.2812540325734
 31
0.0
 11
93.49084281386791
 21
286.3409915607216
 31
0.0
 11
93.94994937765202
 21
286.3610053562463
 31
0.0
 11
94.40905594143618
 21
286.3409915607216
 31
0.0
 11
94.86465254433279
 21
286.2812540325734
 31
0.0
 11
95.31332135725819
 21
286.1820885976388
 31
0.0
 11
95.75157087084179
 21
286.0444211459956
 31
0.0
 11
96.17616690031811
 21
285.8691088564601
 31
0.0
 11
96.58376164069432
 21
285.6576969420362
 31
0.0
 11
96.97137747420382
 21
285.4115585920977
 31
0.0
 11
97.33594134256509
 21
285.1328238819469
 31
0.0
 11
97.6747910337109
 21
284.8233362050564
 31
0.0
 11
97.98525329525715
 21
284.4857419623505
 31
0.0
 11
98.2650327180647
 21
284.1223110194354
 31
0.0
 11
98.51196266511079
 21
283.736106528816
 31
0.0
 11
98.7241648374895
 21
283.3297812789616
 31
0.0
 11
98.90005763710741
 21
282.9066926625013
 31
0.0
 11
99.03823283262631
 21
282.4698275728812
 31
0.0
 11
99.13773807629096
 21
282.0227037928662
 31
0.0
 11
99.19769037182056
 21
281.5685811779858
 31
0.0
 11
99.21777625407873
 21
281.1110053562464
 31
0.0
 11
99.19769037182056
 21
280.6534295345069
 31
0.0
  0
SPLINE
  5
1D0
330
48
100
AcDbEntity
  8
1
  6
Continuous
 62
     7
100
AcDbSpline
210
0.0
220
0.0
230
1.0
 70
    11
 71
     3
 72
    79
 73
    75
 74
    73
 42
0.0000000001
 43
0.0000000001
 44
0.00000001
 40
0.0
 40
0.0
 40
0.0
 40
0.0
 40
0.4580629073446688
 40
0.9161250954498177
 40
1.374321004625661
 40
1.832515564104309
 40
2.290914921249911
 40
2.749312464134549
 40
3.207961104920293
 40
3.666607688416304
 40
4.125521335344278
 40
4.584432931141723
 40
5.043595344343944
 40
5.50275595888172
 40
5.962120941340381
 40
6.421484591837673
 40
6.880981585492322
 40
7.340477871484044
 40
7.800020458107964
 40
8.259563044731825
 40
8.719059330723519
 40
9.178556324378334
 40
9.637919974875761
 40
10.09728495733449
 40
10.55644557187226
 40
11.01560798507447
 40
11.47451958087189
 40
11.93343322779977
 40
12.39207981129567
 40
12.85072845208151
 40
13.30912599496626
 40
13.76752535211192
 40
14.22571991159052
 40
14.6839158207663
 40
15.14197800887151
 40
15.60004091621606
 40
16.0580573736787
 40
16.51607383114134
 40
16.97413673848589
 40
17.432198926591
 40
17.89039483576677
 40
18.34858939524553
 40
18.80698875239129
 40
19.26538629527608
 40
19.72403493606196
 40
20.18268151955787
 40
20.64159516648569
 40
21.10050676228303
 40
21.55966917548523
 40
22.01882979002306
 40
22.47819477248181
 40
22.93755842297925
 40
23.39705541663405
 40
23.85655170262577
 40
24.31609428924964
 40
24.77563687587357
 40
25.2351331618653
 40
25.69463015551998
 40
26.15399380601725
 40
26.61335878847594
 40
27.07251940301381
 40
27.53168181621595
 40
27.99059341201331
 40
28.44950705894129
 40
28.90815364243728
 40
29.36680228322315
 40
29.82519982610787
 40
30.28359918325364
 40
30.74179374273231
 40
31.19998965190796
 40
31.65805184001307
 40
32.11611474735762
 40
32.57413120482032
 40
33.03214766228302
 40
33.03214766228302
 40
33.03214766228302
 40
33.03214766228302
 10
99.19769037182056
 20
293.0685811779859
 30
0.0
 10
99.18050695511386
 20
293.2203981767866
 30
0.0
 10
99.14614014868144
 20
293.5240319360084
 30
0.0
 10
99.04416785053729
 20
293.9715557250688
 30
0.0
 10
98.90650403086877
 20
294.40901130207
 30
0.0
 10
98.7301232596393
 20
294.8326577518178
 30
0.0
 10
98.51778975791291
 20
295.2394773722323
 30
0.0
 10
98.27041903665267
 20
295.6261994606857
 30
0.0
 10
97.99039420346875
 20
295.9900693990406
 30
0.0
 10
97.67941555464067
 20
296.3281030572468
 30
0.0
 10
97.34024921798761
 20
296.6379746551149
 30
0.0
 10
96.97510698582818
 20
296.9170494975556
 30
0.0
 10
96.58710863638015
 20
297.1635131866807
 30
0.0
 10
96.17890073662245
 20
297.3751535944146
 30
0.0
 10
95.75385817705141
 20
297.5507261556195
 30
0.0
 10
95.3149892001225
 20
297.6885069701353
 30
0.0
 10
94.86581312159309
 20
297.787857661666
 30
0.0
 10
94.40961643050841
 20
297.8475979105149
 30
0.0
 10
93.94994937765333
 20
297.8677094168415
 30
0.0
 10
93.49028232479061
 20
297.8475979105153
 30
0.0
 10
93.03408563372859
 20
297.7878576616645
 30
0.0
 10
92.58490955511599
 20
297.688506970141
 30
0.0
 10
92.1460405784967
 20
297.5507261555981
 30
0.0
 10
91.72099801776989
 20
297.3751535944946
 30
0.0
 10
91.31279012232346
 20
297.1635131863823
 30
0.0
 10
90.9247917567899
 20
296.9170494986693
 30
0.0
 10
90.55964958463122
 20
296.637974650961
 30
0.0
 10
90.22048302412068
 20
296.3281030727458
 30
0.0
 10
89.90950521027666
 20
295.9900693412347
 30
0.0
 10
89.62947726182352
 20
295.6261996763745
 30
0.0
 10
89.38211816083692
 20
295.2394765677578
 30
0.0
 10
89.16974130289971
 20
294.8326607536577
 30
0.0
 10
88.99352227041331
 20
294.4090001045951
 30
0.0
 10
88.85525494671927
 20
293.9715975102228
 30
0.0
 10
88.75553433205045
 20
293.5238760420993
 30
0.0
 10
88.69558323597795
 20
293.0691783587634
 30
0.0
 10
88.67539247511243
 20
292.6110053562466
 30
0.0
 10
88.69558323597796
 20
292.1528323537295
 30
0.0
 10
88.75553433205042
 20
291.6981346703939
 30
0.0
 10
88.85525494671931
 20
291.2504132022702
 30
0.0
 10
88.99352227041334
 20
290.8130106078981
 30
0.0
 10
89.16974130289971
 20
290.3893499588352
 30
0.0
 10
89.3821181608369
 20
289.982534144735
 30
0.0
 10
89.62947726182354
 20
289.5958110361183
 30
0.0
 10
89.90950521027666
 20
289.2319413712579
 30
0.0
 10
90.22048302412065
 20
288.8939076397471
 30
0.0
 10
90.55964958463117
 20
288.5840360615316
 30
0.0
 10
90.92479175678994
 20
288.3049612138237
 30
0.0
 10
91.31279012232346
 20
288.0584975261106
 30
0.0
 10
91.7209980177699
 20
287.8468571179984
 30
0.0
 10
92.14604057849665
 20
287.6712845568947
 30
0.0
 10
92.58490955511606
 20
287.5335037423519
 30
0.0
 10
93.03408563372852
 20
287.4341530508283
 30
0.0
 10
93.49028232479093
 20
287.3744128019773
 30
0.0
 10
93.94994937765213
 20
287.354301295651
 30
0.0
 10
94.40961643051278
 20
287.3744128019773
 30
0.0
 10
94.86581312157682
 20
287.4341530508283
 30
0.0
 10
95.31498920018323
 20
287.5335037423514
 30
0.0
 10
95.75385817682475
 20
287.6712845568962
 30
0.0
 10
96.17890073746847
 20
287.8468571179925
 30
0.0
 10
96.5871086332243
 20
288.0584975261322
 30
0.0
 10
96.97510699760314
 20
288.3049612137437
 30
0.0
 10
97.3402491740695
 20
288.5840360618299
 30
0.0
 10
97.67941571850878
 20
288.8939076386342
 30
0.0
 10
97.990393592299
 20
289.2319413754079
 30
0.0
 10
98.27042131709726
 20
289.5958110206333
 30
0.0
 10
98.51778125233923
 20
289.9825342024906
 30
0.0
 10
98.73015499759964
 20
290.3893497433239
 30
0.0
 10
98.90638564181138
 20
290.8130114117994
 30
0.0
 10
99.04460963808174
 20
291.2504102023845
 30
0.0
 10
99.14449190808293
 20
291.6981458625003
 30
0.0
 10
99.20383975436377
 20
292.1527905855267
 30
0.0
 10
99.22628165991569
 20
292.6111612198056
 30
0.0
 10
99.2072208011856
 20
292.9161078585925
 30
0.0
 10
99.19769037182056
 20
293.0685811779859
 30
0.0
 11
99.19769037182056
 21
293.0685811779859
 31
0.0
 11
99.13773807629092
 21
293.5227037928663
 31
0.0
 11
99.03823283262609
 21
293.9698275728812
 31
0.0
 11
98.9000576371071
 21
294.4066926625013
 31
0.0
 11
98.72416483748938
 21
294.8297812789618
 31
0.0
 11
98.51196266511091
 21
295.2361065288164
 31
0.0
 11
98.26503271806482
 21
295.6223110194356
 31
0.0
 11
97.98525329525718
 21
295.9857419623506
 31
0.0
 11
97.6747910337109
 21
296.3233362050564
 31
0.0
 11
97.33594134256509
 21
296.632823881947
 31
0.0
 11
96.97137747420385
 21
296.9115585920978
 31
0.0
 11
96.58376164069432
 21
297.1576969420362
 31
0.0
 11
96.17616690031812
 21
297.3691088564601
 31
0.0
 11
95.75157087084179
 21
297.5444211459956
 31
0.0
 11
95.31332135725819
 21
297.6820885976388
 31
0.0
 11
94.86465254433279
 21
297.7812540325734
 31
0.0
 11
94.40905594143618
 21
297.8409915607216
 31
0.0
 11
93.94994937765202
 21
297.8610053562463
 31
0.0
 11
93.49084281386791
 21
297.8409915607217
 31
0.0
 11
93.03524621097134
 21
297.7812540325734
 31
0.0
 11
92.58657739804578
 21
297.6820885976388
 31
0.0
 11
92.14832788446203
 21
297.5444211459956
 31
0.0
 11
91.72373185498563
 21
297.3691088564601
 31
0.0
 11
91.31613711460943
 21
297.1576969420362
 31
0.0
 11
90.92852128109992
 21
296.9115585920978
 31
0.0
 11
90.56395741273872
 21
296.632823881947
 31
0.0
 11
90.22510772159308
 21
296.3233362050564
 31
0.0
 11
89.91464546004697
 21
295.9857419623505
 31
0.0
 11
89.63486603723939
 21
295.6223110194354
 31
0.0
 11
89.38793609019318
 21
295.2361065288161
 31
0.0
 11
89.17573391781437
 21
294.8297812789617
 31
0.0
 11
88.99984111819636
 21
294.4066926625013
 31
0.0
 11
88.86166592267742
 21
293.9698275728813
 31
0.0
 11
88.76216067901279
 21
293.5227037928662
 31
0.0
 11
88.7022083834832
 21
293.068581177986
 31
0.0
 11
88.68212250122504
 21
292.6110053562465
 31
0.0
 11
88.7022083834832
 21
292.153429534507
 31
0.0
 11
88.76216067901279
 21
291.6993069196268
 31
0.0
 11
88.86166592267742
 21
291.2521831396118
 31
0.0
 11
88.99984111819637
 21
290.8153180499918
 31
0.0
 11
89.17573391781437
 21
290.3922294335313
 31
0.0
 11
89.38793609019319
 21
289.9859041836767
 31
0.0
 11
89.63486603723939
 21
289.5996996930574
 31
0.0
 11
89.91464546004696
 21
289.2362687501422
 31
0.0
 11
90.22510772159308
 21
288.8986745074363
 31
0.0
 11
90.56395741273869
 21
288.5891868305458
 31
0.0
 11
90.92852128109992
 21
288.3104521203952
 31
0.0
 11
91.31613711460943
 21
288.0643137704568
 31
0.0
 11
91.72373185498563
 21
287.8529018560328
 31
0.0
 11
92.14832788446203
 21
287.6775895664972
 31
0.0
 11
92.58657739804579
 21
287.539922114854
 31
0.0
 11
93.03524621097132
 21
287.4407566799193
 31
0.0
 11
93.49084281386791
 21
287.3810191517709
 31
0.0
 11
93.94994937765202
 21
287.3610053562462
 31
0.0
 11
94.40905594143618
 21
287.3810191517709
 31
0.0
 11
94.86465254433279
 21
287.4407566799193
 31
0.0
 11
95.31332135725819
 21
287.539922114854
 31
0.0
 11
95.75157087084179
 21
287.6775895664972
 31
0.0
 11
96.17616690031811
 21
287.8529018560328
 31
0.0
 11
96.58376164069432
 21
288.0643137704568
 31
0.0
 11
96.97137747420382
 21
288.3104521203951
 31
0.0
 11
97.33594134256509
 21
288.5891868305457
 31
0.0
 11
97.6747910337109
 21
288.8986745074363
 31
0.0
 11
97.98525329525715
 21
289.2362687501421
 31
0.0
 11
98.2650327180647
 21
289.5996996930573
 31
0.0
 11
98.51196266511079
 21
289.9859041836767
 31
0.0
 11
98.7241648374895
 21
290.3922294335313
 31
0.0
 11
98.90005763710741
 21
290.8153180499917
 31
0.0
 11
99.03823283262631
 21
291.2521831396117
 31
0.0
 11
99.13773807629096
 21
291.6993069196266
 31
0.0
 11
99.19769037182056
 21
292.1534295345069
 31
0.0
 11
99.21777625407873
 21
292.6110053562464
 31
0.0
 11
99.19769037182056
 21
293.0685811779859
 31
0.0
  0
ENDBLK
  5
4A
330
48
100
AcDbEntity
  8
0
100
AcDbBlockEnd
  0
BLOCK
  5
1EE
330
1E5
100
AcDbEntity
  8
0
100
AcDbBlockBegin
  2
*D08
 70
     1
 71
     0
 10
0.0
 20
0.0
 30
0.0
  3
*D08
  1

  0
LINE
  5
1E6
330
1E5
100
AcDbEntity
  8
1
  6
Continuous
 62
     2
100
AcDbLine
 10
332.0169733998556
 20
293.8610053562466
 30
0.0
 11
332.0169733998556
 21
307.8610053562466
 31
0.0
  0
LINE
  5
1E7
330
1E5
100
AcDbEntity
  8
1
  6
Continuous
 62
     2
100
AcDbLine
 10
332.0169733998556
 20
307.8610053562466
 30
0.0
 11
332.0169733998556
 21
316.8610053562466
 31
0.0
  0
LINE
  5
1E8
330
1E5
100
AcDbEntity
  8
1
  6
Continuous
 62
     2
100
AcDbLine
 10
332.0169733998556
 20
316.8610053562466
 30
0.0
 11
332.0169733998556
 21
330.8610053562466
 31
0.0
  0
LINE
  5
1E9
330
1E5
100
AcDbEntity
  8
1
  6
Continuous
 62
     2
100
AcDbLine
 10
291.3324733998555
 20
316.8610053562466
 30
0.0
 11
334.0169733998556
 21
316.8610053562466
 31
0.0
  0
LINE
  5
1EA
330
1E5
100
AcDbEntity
  8
1
  6
Continuous
 62
     2
100
AcDbLine
 10
292.4944733998555
 20
307.8610053562466
 30
0.0
 11
334.0169733998556
 21
307.8610053562466
 31
0.0
  0
SOLID
  5
1EB
330
1E5
100
AcDbEntity
  8
1
 62
     2
100
AcDbTrace
 10
332.9385408829674
 20
300.8610053562466
 30
0.0
 11
331.0954059167439
 21
300.8610053562466
 31
0.0
 12
332.0169733998556
 22
307.8610053562466
 32
0.0
 13
332.0169733998556
 23
307.8610053562466
 33
0.0
  0
SOLID
  5
1EC
330
1E5
100
AcDbEntity
  8
1
 62
     2
100
AcDbTrace
 10
331.0954059167439
 20
323.8610053562466
 30
0.0
 11
332.9385408829674
 21
323.8610053562466
 31
0.0
 12
332.0169733998556
 22
316.8610053562466
 32
0.0
 13
332.0169733998556
 23
316.8610053562466
 33
0.0
  0
MTEXT
  5
1ED
330
1E5
100
AcDbEntity
  8
1
 62
     7
100
AcDbMText
 10
330.0169733998556
 20
326.63371866398
 30
0.0
 40
7.0
 41
0.0
 71
     7
 72
     1
  1
9
  7
CONVERTER_2
 11
0.0
 21
1.0
 31
0.0
 73
     1
 44
0.60024009603842
  0
ENDBLK
  5
1EF
330
1E5
100
AcDbEntity
  8
0
100
AcDbBlockEnd
  0
BLOCK
  5
1F9
330
1F2
100
AcDbEntity
  8
0
100
AcDbBlockBegin
  2
*D19
 70
     1
 71
     0
 10
0.0
 20
0.0
 30
0.0
  3
*D19
  1

  0
LINE
  5
1F3
330
1F2
100
AcDbEntity
  8
1
  6
Continuous
 62
     2
100
AcDbLine
 10
282.0182233998557
 20
438.3610053562462
 30
0.0
 11
312.0182233998557
 21
438.3610053562462
 31
0.0
  0
LINE
  5
1F4
330
1F2
100
AcDbEntity
  8
1
  6
Continuous
 62
     2
100
AcDbLine
 10
282.0182233998557
 20
428.3610053562462
 30
0.0
 11
282.0182233998557
 21
440.3610053562462
 31
0.0
  0
LINE
  5
1F5
330
1F2
100
AcDbEntity
  8
1
  6
Continuous
 62
     2
100
AcDbLine
 10
312.0182233998557
 20
398.1193356054437
 30
0.0
 11
312.0182233998557
 21
440.3610053562462
 31
0.0
  0
SOLID
  5
1F6
330
1F2
100
AcDbEntity
  8
1
 62
     2
100
AcDbTrace
 10
289.0182233998557
 20
439.282572839358
 30
0.0
 11
289.0182233998557
 21
437.4394378731345
 31
0.0
 12
282.0182233998557
 22
438.3610053562462
 32
0.0
 13
282.0182233998557
 23
438.3610053562462
 33
0.0
  0
SOLID
  5
1F7
330
1F2
100
AcDbEntity
  8
1
 62
     2
100
AcDbTrace
 10
305.0182233998557
 20
437.4394378731345
 30
0.0
 11
305.0182233998557
 21
439.282572839358
 31
0.0
 12
312.0182233998557
 22
438.3610053562462
 32
0.0
 13
312.0182233998557
 23
438.3610053562462
 33
0.0
  0
MTEXT
  5
1F8
330
1F2
100
AcDbEntity
  8
1
 62
     7
100
AcDbMText
 10
291.7682233998557
 20
440.3610053562462
 30
0.0
 40
7.0
 41
0.0
 71
     7
 72
     1
  1
30
  7
CONVERTER_2
 11
0.9999999999970621
 21
2.424068405545307E-6
 31
0.0
 73
     1
 44
0.60024009603842
  0
ENDBLK
  5
1FA
330
1F2
100
AcDbEntity
  8
0
100
AcDbBlockEnd
  0
BLOCK
  5
204
330
1FD
100
AcDbEntity
  8
0
100
AcDbBlockBegin
  2
*D210
 70
     1
 71
     0
 10
0.0
 20
0.0
 30
0.0
  3
*D210
  1

  0
LINE
  5
1FE
330
1FD
100
AcDbEntity
  8
1
  6
Continuous
 62
     2
100
AcDbLine
 10
282.0182233998558
 20
336.8610053562466
 30
0.0
 11
224.7169733998559
 21
336.8610053562466
 31
0.0
  0
LINE
  5
1FF
330
1FD
100
AcDbEntity
  8
1
  6
Continuous
 62
     2
100
AcDbLine
 10
282.0182233998558
 20
322.8610053562466
 30
0.0
 11
282.0182233998558
 21
338.8610053562466
 31
0.0
  0
LINE
  5
200
330
1FD
100
AcDbEntity
  8
1
  6
Continuous
 62
     2
100
AcDbLine
 10
224.7169733998559
 20
286.8610053562468
 30
0.0
 11
224.7169733998559
 21
338.8610053562466
 31
0.0
  0
SOLID
  5
201
330
1FD
100
AcDbEntity
  8
1
 62
     2
100
AcDbTrace
 10
275.0182233998558
 20
335.9394378731349
 30
0.0
 11
275.0182233998558
 21
337.7825728393584
 31
0.0
 12
282.0182233998558
 22
336.8610053562466
 32
0.0
 13
282.0182233998558
 23
336.8610053562466
 33
0.0
  0
SOLID
  5
202
330
1FD
100
AcDbEntity
  8
1
 62
     2
100
AcDbTrace
 10
231.7169733998559
 20
337.7825728393584
 30
0.0
 11
231.7169733998559
 21
335.9394378731349
 31
0.0
 12
224.7169733998559
 22
336.8610053562466
 32
0.0
 13
224.7169733998559
 23
336.8610053562466
 33
0.0
  0
MTEXT
  5
203
330
1FD
100
AcDbEntity
  8
1
 62
     7
100
AcDbMText
 10
234.4675983998559
 20
338.8610053562466
 30
0.0
 40
7.0
 41
0.0
 71
     7
 72
     1
  1
58リフト5
  7
CONVERTER_1
 11
0.9999999999970621
 21
2.424068405545307E-6
 31
0.0
 73
     1
 44
0.60024009603842
  0
ENDBLK
  5
205
330
1FD
100
AcDbEntity
  8
0
100
AcDbBlockEnd
  0
BLOCK
  5
20F
330
208
100
AcDbEntity
  8
0
100
AcDbBlockBegin
  2
*D311
 70
     1
 71
     0
 10
0.0
 20
0.0
 30
0.0
  3
*D311
  1

  0
LINE
  5
209
330
208
100
AcDbEntity
  8
1
  6
Continuous
 62
     2
100
AcDbLine
 10
312.0169733998555
 20
239.215236227265
 30
0.0
 11
224.7169733998559
 21
239.215236227265
 31
0.0
  0
LINE
  5
20A
330
208
100
AcDbEntity
  8
1
  6
Continuous
 62
     2
100
AcDbLine
 10
224.7169733998559
 20
286.8610053562468
 30
0.0
 11
224.7169733998559
 21
237.215236227265
 31
0.0
  0
LINE
  5
20B
330
208
100
AcDbEntity
  8
1
  6
Continuous
 62
     2
100
AcDbLine
 10
312.0169733998555
 20
273.8610053562466
 30
0.0
 11
312.0169733998555
 21
237.215236227265
 31
0.0
  0
SOLID
  5
20C
330
208
100
AcDbEntity
  8
1
 62
     2
100
AcDbTrace
 10
305.0169733998555
 20
238.2936687441532
 30
0.0
 11
305.0169733998555
 21
240.1368037103768
 31
0.0
 12
312.0169733998555
 22
239.215236227265
 32
0.0
 13
312.0169733998555
 23
239.215236227265
 33
0.0
  0
SOLID
  5
20D
330
208
100
AcDbEntity
  8
1
 62
     2
100
AcDbTrace
 10
231.7169733998559
 20
240.1368037103768
 30
0.0
 11
231.7169733998559
 21
238.2936687441532
 31
0.0
 12
224.7169733998559
 22
239.215236227265
 32
0.0
 13
224.7169733998559
 23
239.215236227265
 33
0.0
  0
MTEXT
  5
20E
330
208
100
AcDbEntity
  8
1
 62
     7
100
AcDbMText
 10
263.1169733998557
 20
241.215236227265
 30
0.0
 40
7.0
 41
0.0
 71
     7
 72
     1
  1
88
  7
CONVERTER_2
 11
0.9999999999970621
 21
2.424068405545307E-6
 31
0.0
 73
     1
 44
0.60024009603842
  0
ENDBLK
  5
210
330
208
100
AcDbEntity
  8
0
100
AcDbBlockEnd
  0
BLOCK
  5
21A
330
213
100
AcDbEntity
  8
0
100
AcDbBlockBegin
  2
*D412
 70
     1
 71
     0
 10
0.0
 20
0.0
 30
0.0
  3
*D412
  1

  0
LINE
  5
214
330
213
100
AcDbEntity
  8
1
  6
Continuous
 62
     2
100
AcDbLine
 10
123.4499493776519
 20
239.2124993850236
 30
0.0
 11
87.9499493776521
 21
239.2124993850236
 31
0.0
  0
LINE
  5
215
330
213
100
AcDbEntity
  8
1
  6
Continuous
 62
     2
100
AcDbLine
 10
87.9499493776521
 20
275.8610053562466
 30
0.0
 11
87.9499493776521
 21
237.2124993850236
 31
0.0
  0
LINE
  5
216
330
213
100
AcDbEntity
  8
1
  6
Continuous
 62
     2
100
AcDbLine
 10
123.4499493776519
 20
263.2272180107851
 30
0.0
 11
123.4499493776519
 21
237.2124993850236
 31
0.0
  0
SOLID
  5
217
330
213
100
AcDbEntity
  8
1
 62
     2
100
AcDbTrace
 10
116.4499493776519
 20
238.2909319019118
 30
0.0
 11
116.4499493776519
 21
240.1340668681354
 31
0.0
 12
123.4499493776519
 22
239.2124993850236
 32
0.0
 13
123.4499493776519
 23
239.2124993850236
 33
0.0
  0
SOLID
  5
218
330
213
100
AcDbEntity
  8
1
 62
     2
100
AcDbTrace
 10
94.9499493776521
 20
240.1340668681354
 30
0.0
 11
94.9499493776521
 21
238.2909319019118
 31
0.0
 12
87.9499493776521
 22
239.2124993850236
 32
0.0
 13
87.9499493776521
 23
239.2124993850236
 33
0.0
  0
MTEXT
  5
219
330
213
100
AcDbEntity
  8
1
 62
     7
100
AcDbMText
 10
100.449949377652
 20
241.2124993850236
 30
0.0
 40
7.0
 41
0.0
 71
     7
 72
     1
  1
36
  7
CONVERTER_2
 11
0.9999999999970621
 21
2.424068405545307E-6
 31
0.0
 73
     1
 44
0.60024009603842
  0
ENDBLK
  5
21B
330
213
100
AcDbEntity
  8
0
100
AcDbBlockEnd
  0
ENDSEC
  0
SECTION
  2
ENTITIES
  0
INSERT
  5
4B
330
1F
100
AcDbEntity
  8
1
100
AcDbBlockReference
  2
_J__A4
 10
0.0
 20
0.0
 30
0.0
 41
2.0
 42
2.0
 43
2.0
  0
INSERT
  5
4C
330
1F
100
AcDbEntity
  8
0
100
AcDbBlockReference
  2
37-1-13
 10
401.1403569146027
 20
175.0597751394753
 30
0.0
  0
INSERT
  5
4D
330
1F
100
AcDbEntity
  8
1
100
AcDbBlockReference
  2
B4112L-0A-13-M11
 10
157.9101100251476
 20
-44.85276281195115
 30
0.0
  0
INSERT
  5
4E
330
1F
100
AcDbEntity
  8
0
100
AcDbBlockReference
  2
21-1A
 10
355.7808106331592
 20
778.2418005817145
 30
0.0
  0
INSERT
  5
4F
330
1F
100
AcDbEntity
  8
0
100
AcDbBlockReference
  2
42-15
 10
455.1349770928001
 20
752.5752673598188
 30
0.0
  0
INSERT
  5
50
330
1F
100
AcDbEntity
  8
1
100
AcDbBlockReference
  2
36-54-M11
 10
760.3878702738241
 20
711.9998012946826
 30
0.0
  0
INSERT
  5
51
330
1F
100
AcDbEntity
  8
1
100
AcDbBlockReference
  2
32-213
 10
1068.084363691157
 20
807.6142021018902
 30
0.0
  0
LINE
  5
1D1
330
1F
100
AcDbEntity
  8
1
  6
DASH_CENTER
 62
     2
100
AcDbLine
 10
123.4499493776519
 20
322.8610053562466
 30
0.0
 11
123.4499493776519
 21
263.2272180107851
 31
0.0
  0
LINE
  5
1D2
330
1F
100
AcDbEntity
  8
1
  6
DASH_CENTER
 62
     2
100
AcDbLine
 10
218.7169733998559
 20
386.8610053562466
 30
0.0
 11
315.0182233998557
 21
386.8610053562463
 31
0.0
  0
LINE
  5
1D3
330
1F
100
AcDbEntity
  8
1
  6
DASH_CENTER
 62
     2
100
AcDbLine
 10
282.0182233998557
 20
428.3610053562462
 30
0.0
 11
282.0182233998557
 21
370.861005356248
 31
0.0
  0
LINE
  5
1D4
330
1F
100
AcDbEntity
  8
1
  6
DASH_CENTER
 62
     2
100
AcDbLine
 10
218.7169733998559
 20
286.8610053562466
 30
0.0
 11
224.7169733998559
 21
286.8610053562468
 31
0.0
  0
LINE
  5
1D5
330
1F
100
AcDbEntity
  8
1
  6
DASH_CENTER
 62
     2
100
AcDbLine
 10
282.0182233998557
 20
267.8610053562466
 30
0.0
 11
282.0182233998558
 21
322.8610053562466
 31
0.0
  0
LINE
  5
1D6
330
1F
100
AcDbEntity
  8
1
  6
DASH_CENTER
 62
     2
100
AcDbLine
 10
224.7169733998559
 20
286.8610053562468
 30
0.0
 11
318.0169733998556
 21
286.8610053562466
 31
0.0
  0
LINE
  5
1D7
330
1F
100
AcDbEntity
  8
1
  6
DASH_CENTER
 62
     2
100
AcDbLine
 10
160.449948999888
 20
286.8610053562466
 30
0.0
 11
81.9499493776521
 21
286.8610053562464
 31
0.0
  0
SOLID
  5
1D8
330
1F
100
AcDbEntity
  8
1
 62
     2
100
AcDbTrace
 10
136.6293485259757
 20
318.3029669242937
 30
0.0
 11
138.2255502293286
 21
317.3813994411819
 31
0.0
 12
133.9274493776521
 22
311.7800053562468
 32
0.0
 13
133.9274493776521
 23
311.7800053562468
 33
0.0
  0
LEADER
  5
1D9
330
1F
100
AcDbEntity
  8
1
  6
Continuous
 62
     2
100
AcDbLeader
  3
Standard
 71
     0
 76
     3
 10
133.9274493776521
 20
311.7800053562468
 30
0.0
 10
142.6344687873007
 20
326.8610053562466
 30
0.0
 10
166.7499252155056
 20
326.8610053562466
 30
0.0
  0
SOLID
  5
1DA
330
1F
100
AcDbEntity
  8
0
 62
     2
100
AcDbTrace
 10
316.3150742515321
 20
270.5296112713115
 30
0.0
 11
314.7188725481792
 21
269.6080437881997
 31
0.0
 12
312.0169733998556
 22
276.1310053562466
 32
0.0
 13
312.0169733998556
 23
276.1310053562466
 33
0.0
  0
LEADER
  5
1DB
330
1F
100
AcDbEntity
  8
0
  6
Continuous
 62
     2
100
AcDbLeader
  3
Standard
 71
     0
 76
     3
 10
312.0169733998556
 20
276.1310053562466
 30
0.0
 10
324.987688463078
 20
253.6650678562465
 30
0.0
 10
355.682884704765
 20
253.6650678562465
 30
0.0
  0
MTEXT
  5
1DD
330
1F
100
AcDbEntity
  8
1
 62
     7
100
AcDbMText
 10
154.6993243776521
 20
332.8610053562466
 30
0.0
 40
7.0
 41
0.0
 71
     5
 72
     1
  1
G1/2
  7
CONVERTER_2
 73
     1
 44
0.7202881152461
  0
MTEXT
  5
1DE
330
1F
100
AcDbEntity
  8
1
 62
     7
100
AcDbMText
 10
114.0
 20
45.50000000000001
 30
0.0
 40
7.0
 41
0.0
 71
     5
 72
     1
  1
アングル分岐バルブ
  7
CONVERTER_1
 73
     1
 44
0.7202881152461
  0
MTEXT
  5
1DF
330
1F
100
AcDbEntity
  8
1
 62
     7
100
AcDbMText
 10
187.5
 20
34.0
 30
0.0
 40
7.0
 41
0.0
 71
     5
 72
     1
  1
2
  7
CONVERTER_2
 73
     1
 44
0.7202881152461
  0
MTEXT
  5
1E0
330
1F
100
AcDbEntity
  8
1
 62
     7
100
AcDbMText
 10
170.5
 20
34.0
 30
0.0
 40
7.0
 41
0.0
 71
     5
 72
     1
  1
1
  7
CONVERTER_2
 73
     1
 44
0.7202881152461
  0
MTEXT
  5
1E1
330
1F
100
AcDbEntity
  8
1
 62
     7
100
AcDbMText
 10
341.2661637980099
 20
259.6650678562465
 30
0.0
 40
7.0
 41
0.0
 71
     5
 72
     1
  1
Rc1/2
  7
CONVERTER_2
 73
     1
 44
0.7202881152461
  0
MTEXT
  5
1E2
330
1F
100
AcDbEntity
  8
1
 62
     7
100
AcDbMText
 10
68.0
 20
75.0
 30
0.0
 40
7.0
 41
0.0
 71
     4
 72
     1
  1
JIS
  7
CONVERTER_2
 73
     1
 44
0.7202881152461
  0
MTEXT
  5
1E3
330
1F
100
AcDbEntity
  8
1
 62
     7
100
AcDbMText
 10
114.0
 20
28.5
 30
0.0
 40
7.0
 41
0.0
 71
     5
 72
     1
  1
B4112-X3-L-13
  7
CONVERTER_2
 73
     1
 44
0.7202881152461
  0
MTEXT
  5
1E4
330
1F
100
AcDbEntity
  8
1
 62
     7
100
AcDbMText
 10
68.0
 20
61.00000000000001
 30
0.0
 40
7.0
 41
0.0
 71
     4
 72
     1
  1
共用形
  7
CONVERTER_1
 73
     1
 44
0.7202881152461
  0
DIMENSION
  5
1F1
330
1F
100
AcDbEntity
  8
1
100
AcDbDimension
  2
*D08
 10
332.0169733998556
 20
307.8610053562466
 30
0.0
 11
326.5169733998556
 21
328.73371866398
 31
0.0
  1
<>
 71
     5
 42
0.0
 53
90.0
  3
ME10_DIM_0
100
AcDbAlignedDimension
 13
291.3324733998555
 23
316.8610053562466
 33
0.0
 14
292.4944733998555
 24
307.8610053562466
 34
0.0
 50
90.0
100
AcDbRotatedDimension
  0
DIMENSION
  5
1FC
330
1F
100
AcDbEntity
  8
1
100
AcDbDimension
  2
*D19
 10
282.0182233998557
 20
438.3610053562462
 30
0.0
 11
297.0182233998557
 21
443.8610053562462
 31
0.0
  1
<>
 71
     5
 42
0.0
 53
0.00013888888889
  3
ME10_DIM_1
100
AcDbAlignedDimension
 13
312.0182233998557
 23
398.1193356054437
 33
0.0
 14
282.0182233998557
 24
428.3610053562462
 34
0.0
100
AcDbRotatedDimension
  0
DIMENSION
  5
207
330
1F
100
AcDbEntity
  8
1
100
AcDbDimension
  2
*D210
 10
282.0182233998558
 20
336.8610053562466
 30
0.0
 11
253.3675983998559
 21
342.3610053562466
 31
0.0
  1
58リフト5
 71
     5
 42
0.0
 53
0.00013888888889
  3
ME10_DIM_2
100
AcDbAlignedDimension
 13
224.7169733998559
 23
286.8610053562468
 33
0.0
 14
282.0182233998558
 24
322.8610053562466
 34
0.0
100
AcDbRotatedDimension
  0
DIMENSION
  5
212
330
1F
100
AcDbEntity
  8
1
100
AcDbDimension
  2
*D311
 10
312.0169733998555
 20
239.215236227265
 30
0.0
 11
268.3669733998557
 21
244.715236227265
 31
0.0
  1
88
 71
     5
 42
0.0
 53
0.00013888888889
  3
ME10_DIM_3
100
AcDbAlignedDimension
 13
224.7169733998559
 23
286.8610053562468
 33
0.0
 14
312.0169733998556
 24
273.8610053562466
 34
0.0
100
AcDbRotatedDimension
  0
DIMENSION
  5
21D
330
1F
100
AcDbEntity
  8
1
100
AcDbDimension
  2
*D412
 10
123.4499493776519
 20
239.2124993850236
 30
0.0
 11
105.699949377652
 21
244.7124993850236
 31
0.0
  1
36
 71
     5
 42
0.0
 53
0.00013888888889
  3
ME10_DIM_4
100
AcDbAlignedDimension
 13
87.9499493776521
 23
275.8610053562465
 33
0.0
 14
123.4499493776519
 24
263.2272180107851
 34
0.0
100
AcDbRotatedDimension
  0
ENDSEC
  0
SECTION
  2
OBJECTS
  0
DICTIONARY
  5
C
330
0
100
AcDbDictionary
281
     1
  3
ACAD_GROUP
350
D
  3
ACAD_LAYOUT
350
1A
  3
ACAD_MLINESTYLE
350
17
  3
ACAD_PLOTSETTINGS
350
19
  3
ACAD_PLOTSTYLENAME
350
E
  3
ACAD_TABLESTYLE
350
2A
  3
AcDbVariableDictionary
350
2C
  0
DICTIONARY
  5
D
102
{ACAD_REACTORS
330
C
102
}
330
C
100
AcDbDictionary
281
     1
  0
DICTIONARY
  5
1A
102
{ACAD_REACTORS
330
C
102
}
330
C
100
AcDbDictionary
281
     1
  3
Layout1
350
1E
  3
Layout2
350
26
  3
Model
350
22
  0
DICTIONARY
  5
17
102
{ACAD_REACTORS
330
C
102
}
330
C
100
AcDbDictionary
281
     1
  3
Standard
350
18
  0
DICTIONARY
  5
19
102
{ACAD_REACTORS
330
C
102
}
330
C
100
AcDbDictionary
281
     1
  0
ACDBDICTIONARYWDFLT
  5
E
102
{ACAD_REACTORS
330
C
102
}
330
C
100
AcDbDictionary
281
     1
  3
Normal
350
F
100
AcDbDictionaryWithDefault
340
F
  0
DICTIONARY
  5
2A
102
{ACAD_REACTORS
330
C
102
}
330
C
100
AcDbDictionary
281
     1
  3
Standard
350
2B
  0
DICTIONARY
  5
2C
102
{ACAD_REACTORS
330
C
102
}
330
C
100
AcDbDictionary
281
     1
  3
CTABLESTYLE
350
2D
  0
LAYOUT
  5
1E
102
{ACAD_REACTORS
330
1A
102
}
330
1A
100
AcDbPlotSettings
  1

  2

  4

  6

 40
0.0
 41
0.0
 42
0.0
 43
0.0
 44
0.0
 45
0.0
 46
0.0
 47
0.0
 48
0.0
 49
0.0
140
0.0
141
0.0
142
1.0
143
1.0
 70
   688
 72
     0
 73
     0
 74
     5
  7

 75
    16
147
1.0
148
0.0
149
0.0
100
AcDbLayout
  1
Layout1
 70
     1
 71
     1
 10
0.0
 20
0.0
 11
12.0
 21
9.0
 12
0.0
 22
0.0
 32
0.0
 14
1.00000000000000E+20
 24
1.00000000000000E+20
 34
1.00000000000000E+20
 15
-1.00000000000000E+20
 25
-1.00000000000000E+20
 35
-1.00000000000000E+20
146
0.0
 13
0.0
 23
0.0
 33
0.0
 16
1.0
 26
0.0
 36
0.0
 17
0.0
 27
1.0
 37
0.0
 76
     0
330
1B
  0
LAYOUT
  5
26
102
{ACAD_REACTORS
330
1A
102
}
330
1A
100
AcDbPlotSettings
  1

  2

  4

  6

 40
0.0
 41
0.0
 42
0.0
 43
0.0
 44
0.0
 45
0.0
 46
0.0
 47
0.0
 48
0.0
 49
0.0
140
0.0
141
0.0
142
1.0
143
1.0
 70
   688
 72
     0
 73
     0
 74
     5
  7

 75
    16
147
1.0
148
0.0
149
0.0
100
AcDbLayout
  1
Layout2
 70
     1
 71
     2
 10
0.0
 20
0.0
 11
0.0
 21
0.0
 12
0.0
 22
0.0
 32
0.0
 14
0.0
 24
0.0
 34
0.0
 15
0.0
 25
0.0
 35
0.0
146
0.0
 13
0.0
 23
0.0
 33
0.0
 16
1.0
 26
0.0
 36
0.0
 17
0.0
 27
1.0
 37
0.0
 76
     0
330
23
  0
LAYOUT
  5
22
102
{ACAD_REACTORS
330
1A
102
}
330
1A
100
AcDbPlotSettings
  1

  2

  4

  6

 40
0.0
 41
0.0
 42
0.0
 43
0.0
 44
0.0
 45
0.0
 46
0.0
 47
0.0
 48
0.0
 49
0.0
140
0.0
141
0.0
142
1.0
143
1.0
 70
  1712
 72
     0
 73
     0
 74
     0
  7

 75
     0
147
1.0
148
0.0
149
0.0
100
AcDbLayout
  1
Model
 70
     1
 71
     0
 10
0.0
 20
0.0
 11
0.0
 21
0.0
 12
0.0
 22
0.0
 32
0.0
 14
0.0
 24
0.0
 34
0.0
 15
420.0
 25
594.0
 35
0.0
146
0.0
 13
0.0
 23
0.0
 33
0.0
 16
1.0
 26
0.0
 36
0.0
 17
0.0
 27
1.0
 37
0.0
 76
     0
330
1F
  0
MLINESTYLE
  5
18
102
{ACAD_REACTORS
330
17
102
}
330
17
100
AcDbMlineStyle
  2
Standard
 70
     0
  3

 62
   256
 51
90.0
 52
90.0
 71
     2
 49
0.5
 62
   256
  6
BYLAYER
 49
-0.5
 62
   256
  6
BYLAYER
  0
ACDBPLACEHOLDER
  5
F
102
{ACAD_REACTORS
330
E
102
}
330
E
  0
TABLESTYLE
  5
2B
102
{ACAD_REACTORS
330
2A
102
}
330
2A
100
AcDbTableStyle
  3
Standard
 70
     0
 71
     0
 40
0.06
 41
0.06
280
     0
281
     0
  7
Standard
140
0.18
170
     2
 62
     0
 63
     7
283
     0
274
    -2
284
     1
 64
     0
275
    -2
285
     1
 65
     0
276
    -2
286
     1
 66
     0
277
    -2
287
     1
 67
     0
278
    -2
288
     1
 68
     0
279
    -2
289
     1
 69
     0
  7
Standard
140
0.25
170
     5
 62
     0
 63
     7
283
     0
274
    -2
284
     1
 64
     0
275
    -2
285
     1
 65
     0
276
    -2
286
     1
 66
     0
277
    -2
287
     1
 67
     0
278
    -2
288
     1
 68
     0
279
    -2
289
     1
 69
     0
  7
Standard
140
0.18
170
     5
 62
     0
 63
     7
283
     0
274
    -2
284
     1
 64
     0
275
    -2
285
     1
 65
     0
276
    -2
286
     1
 66
     0
277
    -2
287
     1
 67
     0
278
    -2
288
     1
 68
     0
279
    -2
289
     1
 69
     0
  0
DICTIONARYVAR
  5
2D
102
{ACAD_REACTORS
330
2C
102
}
330
2C
100
DictionaryVariables
280
     0
  1
Standard
  0
ENDSEC
  0
EOF
