  0
SECTION
  2
HEADER
  9
$ACADVER
  1
AC1015
  9
$ACADMAINTVER
 70
     6
  9
$DWGCODEPAGE
  3
DOS932
  9
$INSBASE
 10
0.0
 20
0.0
 30
0.0
  9
$EXTMIN
 10
0.0
 20
0.0
 30
0.0
  9
$EXTMAX
 10
420.0
 20
594.0
 30
0.0
  9
$LIMMIN
 10
0.0
 20
0.0
  9
$LIMMAX
 10
12.0
 20
9.0
  9
$ORTHOMODE
 70
     0
  9
$REGENMODE
 70
     1
  9
$FILLMODE
 70
     1
  9
$QTEXTMODE
 70
     0
  9
$MIRRTEXT
 70
     1
  9
$LTSCALE
 40
1.0
  9
$ATTMODE
 70
     1
  9
$TEXTSIZE
 40
0.2
  9
$TRACEWID
 40
0.05
  9
$TEXTSTYLE
  7
Standard
  9
$CLAYER
  8
0
  9
$CELTYPE
  6
ByLayer
  9
$CECOLOR
 62
   256
  9
$CELTSCALE
 40
1.0
  9
$DISPSILH
 70
     0
  9
$DIMSCALE
 40
1.0
  9
$DIMASZ
 40
0.18
  9
$DIMEXO
 40
0.0625
  9
$DIMDLI
 40
0.38
  9
$DIMRND
 40
0.0
  9
$DIMDLE
 40
0.0
  9
$DIMEXE
 40
0.18
  9
$DIMTP
 40
0.0
  9
$DIMTM
 40
0.0
  9
$DIMTXT
 40
0.18
  9
$DIMCEN
 40
0.09
  9
$DIMTSZ
 40
0.0
  9
$DIMTOL
 70
     0
  9
$DIMLIM
 70
     0
  9
$DIMTIH
 70
     1
  9
$DIMTOH
 70
     1
  9
$DIMSE1
 70
     0
  9
$DIMSE2
 70
     0
  9
$DIMTAD
 70
     0
  9
$DIMZIN
 70
     0
  9
$DIMBLK
  1

  9
$DIMASO
 70
     1
  9
$DIMSHO
 70
     1
  9
$DIMPOST
  1

  9
$DIMAPOST
  1

  9
$DIMALT
 70
     0
  9
$DIMALTD
 70
     2
  9
$DIMALTF
 40
25.4
  9
$DIMLFAC
 40
1.0
  9
$DIMTOFL
 70
     0
  9
$DIMTVP
 40
0.0
  9
$DIMTIX
 70
     0
  9
$DIMSOXD
 70
     0
  9
$DIMSAH
 70
     0
  9
$DIMBLK1
  1

  9
$DIMBLK2
  1

  9
$DIMSTYLE
  2
Standard
  9
$DIMCLRD
 70
     0
  9
$DIMCLRE
 70
     0
  9
$DIMCLRT
 70
     0
  9
$DIMTFAC
 40
1.0
  9
$DIMGAP
 40
0.09
  9
$DIMJUST
 70
     0
  9
$DIMSD1
 70
     0
  9
$DIMSD2
 70
     0
  9
$DIMTOLJ
 70
     1
  9
$DIMTZIN
 70
     0
  9
$DIMALTZ
 70
     0
  9
$DIMALTTZ
 70
     0
  9
$DIMUPT
 70
     0
  9
$DIMDEC
 70
     4
  9
$DIMTDEC
 70
     4
  9
$DIMALTU
 70
     2
  9
$DIMALTTD
 70
     2
  9
$DIMTXSTY
  7
Standard
  9
$DIMAUNIT
 70
     0
  9
$DIMADEC
 70
     0
  9
$DIMALTRND
 40
0.0
  9
$DIMAZIN
 70
     0
  9
$DIMDSEP
 70
    46
  9
$DIMATFIT
 70
     3
  9
$DIMFRAC
 70
     0
  9
$DIMLDRBLK
  1

  9
$DIMLUNIT
 70
     2
  9
$DIMLWD
 70
    -2
  9
$DIMLWE
 70
    -2
  9
$DIMTMOVE
 70
     0
  9
$LUNITS
 70
     2
  9
$LUPREC
 70
     4
  9
$SKETCHINC
 40
0.1
  9
$FILLETRAD
 40
0.5
  9
$AUNITS
 70
     0
  9
$AUPREC
 70
     0
  9
$MENU
  1
.
  9
$ELEVATION
 40
0.0
  9
$PELEVATION
 40
0.0
  9
$THICKNESS
 40
0.0
  9
$LIMCHECK
 70
     0
  9
$CHAMFERA
 40
0.5
  9
$CHAMFERB
 40
0.5
  9
$CHAMFERC
 40
1.0
  9
$CHAMFERD
 40
0.0
  9
$SKPOLY
 70
     0
  9
$TDCREATE
 40
2456134.669736146
  9
$TDUCREATE
 40
2456134.294736146
  9
$TDUPDATE
 40
2456134.669736158
  9
$TDUUPDATE
 40
2456134.294736158
  9
$TDINDWG
 40
0.0000000116
  9
$TDUSRTIMER
 40
0.0000000116
  9
$USRTIMER
 70
     1
  9
$ANGBASE
 50
0.0
  9
$ANGDIR
 70
     0
  9
$PDMODE
 70
     0
  9
$PDSIZE
 40
0.0
  9
$PLINEWID
 40
0.0
  9
$SPLFRAME
 70
     0
  9
$SPLINETYPE
 70
     6
  9
$SPLINESEGS
 70
     8
  9
$HANDSEED
  5
238
  9
$SURFTAB1
 70
     6
  9
$SURFTAB2
 70
     6
  9
$SURFTYPE
 70
     6
  9
$SURFU
 70
     6
  9
$SURFV
 70
     6
  9
$UCSBASE
  2

  9
$UCSNAME
  2

  9
$UCSORG
 10
0.0
 20
0.0
 30
0.0
  9
$UCSXDIR
 10
1.0
 20
0.0
 30
0.0
  9
$UCSYDIR
 10
0.0
 20
1.0
 30
0.0
  9
$UCSORTHOREF
  2

  9
$UCSORTHOVIEW
 70
     0
  9
$UCSORGTOP
 10
0.0
 20
0.0
 30
0.0
  9
$UCSORGBOTTOM
 10
0.0
 20
0.0
 30
0.0
  9
$UCSORGLEFT
 10
0.0
 20
0.0
 30
0.0
  9
$UCSORGRIGHT
 10
0.0
 20
0.0
 30
0.0
  9
$UCSORGFRONT
 10
0.0
 20
0.0
 30
0.0
  9
$UCSORGBACK
 10
0.0
 20
0.0
 30
0.0
  9
$PUCSBASE
  2

  9
$PUCSNAME
  2

  9
$PUCSORG
 10
0.0
 20
0.0
 30
0.0
  9
$PUCSXDIR
 10
1.0
 20
0.0
 30
0.0
  9
$PUCSYDIR
 10
0.0
 20
1.0
 30
0.0
  9
$PUCSORTHOREF
  2

  9
$PUCSORTHOVIEW
 70
     0
  9
$PUCSORGTOP
 10
0.0
 20
0.0
 30
0.0
  9
$PUCSORGBOTTOM
 10
0.0
 20
0.0
 30
0.0
  9
$PUCSORGLEFT
 10
0.0
 20
0.0
 30
0.0
  9
$PUCSORGRIGHT
 10
0.0
 20
0.0
 30
0.0
  9
$PUCSORGFRONT
 10
0.0
 20
0.0
 30
0.0
  9
$PUCSORGBACK
 10
0.0
 20
0.0
 30
0.0
  9
$USERI1
 70
     0
  9
$USERI2
 70
     0
  9
$USERI3
 70
     0
  9
$USERI4
 70
     0
  9
$USERI5
 70
     0
  9
$USERR1
 40
13.2
  9
$USERR2
 40
0.0
  9
$USERR3
 40
0.0
  9
$USERR4
 40
0.0
  9
$USERR5
 40
0.0
  9
$WORLDVIEW
 70
     1
  9
$SHADEDGE
 70
     3
  9
$SHADEDIF
 70
    70
  9
$TILEMODE
 70
     1
  9
$MAXACTVP
 70
    64
  9
$PINSBASE
 10
0.0
 20
0.0
 30
0.0
  9
$PLIMCHECK
 70
     0
  9
$PEXTMIN
 10
1.00000000000000E+20
 20
1.00000000000000E+20
 30
1.00000000000000E+20
  9
$PEXTMAX
 10
-1.00000000000000E+20
 20
-1.00000000000000E+20
 30
-1.00000000000000E+20
  9
$PLIMMIN
 10
0.0
 20
0.0
  9
$PLIMMAX
 10
12.0
 20
9.0
  9
$UNITMODE
 70
     0
  9
$VISRETAIN
 70
     1
  9
$PLINEGEN
 70
     0
  9
$PSLTSCALE
 70
     1
  9
$TREEDEPTH
 70
  3020
  9
$CMLSTYLE
  2
Standard
  9
$CMLJUST
 70
     0
  9
$CMLSCALE
 40
1.0
  9
$PROXYGRAPHICS
 70
     1
  9
$MEASUREMENT
 70
     1
  9
$CELWEIGHT
370
    -1
  9
$ENDCAPS
280
     0
  9
$JOINSTYLE
280
     0
  9
$LWDISPLAY
290
     0
  9
$INSUNITS
 70
     1
  9
$HYPERLINKBASE
  1

  9
$STYLESHEET
  1

  9
$XEDIT
290
     1
  9
$CEPSNTYPE
380
     0
  9
$PSTYLEMODE
290
     0
  9
$FINGERPRINTGUID
  2
{FAEB1C30-E019-11D5-929B-00C0DF256EC4}
  9
$VERSIONGUID
  2
{FAEB1C32-E019-11D5-929B-00C0DF256EC4}
  9
$EXTNAMES
290
     1
  9
$PSVPSCALE
 40
0.0
  9
$OLESTARTUP
290
     0
  0
ENDSEC
  0
SECTION
  2
CLASSES
  0
CLASS
  1
ACDBDICTIONARYWDFLT
  2
AcDbDictionaryWithDefault
  3
ObjectDBX Classes
 90
        0
280
     0
281
     0
  0
CLASS
  1
TABLESTYLE
  2
AcDbTableStyle
  3
ObjectDBX Classes
 90
     2047
280
     0
281
     0
  0
CLASS
  1
DICTIONARYVAR
  2
AcDbDictionaryVar
  3
ObjectDBX Classes
 90
        0
280
     0
281
     0
  0
CLASS
  1

  2
exOdDbCircle
  3

 90
        0
280
     0
281
     1
  0
CLASS
  1

  2
exOdDbSpline
  3

 90
        0
280
     0
281
     1
  0
CLASS
  1
ACDBPLACEHOLDER
  2
AcDbPlaceHolder
  3
ObjectDBX Classes
 90
        0
280
     0
281
     0
  0
CLASS
  1
LAYOUT
  2
AcDbLayout
  3
ObjectDBX Classes
 90
        0
280
     0
281
     0
  0
ENDSEC
  0
SECTION
  2
TABLES
  0
TABLE
  2
VPORT
  5
8
330
0
100
AcDbSymbolTable
 70
     2
  0
VPORT
  5
29
330
8
100
AcDbSymbolTableRecord
100
AcDbViewportTableRecord
  2
*Active
 70
     0
 10
0.0
 20
0.0
 11
1.0
 21
1.0
 12
210.0
 22
297.0
 13
0.0
 23
0.0
 14
0.5
 24
0.5
 15
0.5
 25
0.5
 16
0.0
 26
0.0
 36
1.0
 17
0.0
 27
0.0
 37
0.0
 40
653.4000000000001
 41
1.60267857142857
 42
50.0
 43
0.0
 44
0.0
 50
0.0
 51
0.0
 71
     0
 72
   100
 73
     1
 74
     3
 75
     0
 76
     0
 77
     0
 78
     0
281
     0
 65
     1
110
0.0
120
0.0
130
0.0
111
1.0
121
0.0
131
0.0
112
0.0
122
1.0
132
0.0
 79
     0
146
0.0
  0
ENDTAB
  0
TABLE
  2
LTYPE
  5
5
330
0
100
AcDbSymbolTable
 70
     8
  0
LTYPE
  5
14
330
5
100
AcDbSymbolTableRecord
100
AcDbLinetypeTableRecord
  2
ByBlock
 70
     0
  3

 72
    65
 73
     0
 40
0.0
  0
LTYPE
  5
15
330
5
100
AcDbSymbolTableRecord
100
AcDbLinetypeTableRecord
  2
ByLayer
 70
     0
  3

 72
    65
 73
     0
 40
0.0
  0
LTYPE
  5
16
330
5
100
AcDbSymbolTableRecord
100
AcDbLinetypeTableRecord
  2
Continuous
 70
     0
  3
Solid line
 72
    65
 73
     0
 40
0.0
  0
LTYPE
  5
2E
330
5
100
AcDbSymbolTableRecord
100
AcDbLinetypeTableRecord
  2
DASHED
 70
     0
  3
Dashed
 72
    65
 73
     2
 40
15.0
 49
7.0
 74
     0
 49
-8.0
 74
     0
  0
LTYPE
  5
2F
330
5
100
AcDbSymbolTableRecord
100
AcDbLinetypeTableRecord
  2
DOTTED
 70
     0
  3
Dotted
 72
    65
 73
     2
 40
1.0
 49
0.0
 74
     0
 49
-1.0
 74
     0
  0
LTYPE
  5
30
330
5
100
AcDbSymbolTableRecord
100
AcDbLinetypeTableRecord
  2
DOT_CENTER
 70
     0
  3
Dot_Center
 72
    65
 73
     4
 40
14.0
 49
12.0
 74
     0
 49
-1.0
 74
     0
 49
0.0
 74
     0
 49
-1.0
 74
     0
  0
LTYPE
  5
31
330
5
100
AcDbSymbolTableRecord
100
AcDbLinetypeTableRecord
  2
LONG_DASHED
 70
     0
  3
Long_Dashed
 72
    65
 73
     2
 40
15.0
 49
10.0
 74
     0
 49
-5.0
 74
     0
  0
LTYPE
  5
32
330
5
100
AcDbSymbolTableRecord
100
AcDbLinetypeTableRecord
  2
DASH_CENTER
 70
     0
  3
Dash_Center
 72
    65
 73
     4
 40
14.0
 49
11.0
 74
     0
 49
-1.0
 74
     0
 49
1.0
 74
     0
 49
-1.0
 74
     0
  0
LTYPE
  5
33
330
5
100
AcDbSymbolTableRecord
100
AcDbLinetypeTableRecord
  2
PHANTOM
 70
     0
  3
Phantom
 72
    65
 73
     6
 40
13.0
 49
10.0
 74
     0
 49
-1.0
 74
     0
 49
0.0
 74
     0
 49
-1.0
 74
     0
 49
0.0
 74
     0
 49
-1.0
 74
     0
  0
LTYPE
  5
34
330
5
100
AcDbSymbolTableRecord
100
AcDbLinetypeTableRecord
  2
CENTER_DASH_DASH
 70
     0
  3
Center_Dash_Dash
 72
    65
 73
     6
 40
14.0
 49
9.0
 74
     0
 49
-1.0
 74
     0
 49
1.0
 74
     0
 49
-1.0
 74
     0
 49
1.0
 74
     0
 49
-1.0
 74
     0
  0
ENDTAB
  0
TABLE
  2
LAYER
  5
2
330
0
100
AcDbSymbolTable
 70
     2
  0
LAYER
  5
10
330
2
100
AcDbSymbolTableRecord
100
AcDbLayerTableRecord
  2
0
 70
     0
 62
     7
  6
Continuous
370
    -3
390
F
  0
LAYER
  5
35
330
2
100
AcDbSymbolTableRecord
100
AcDbLayerTableRecord
  2
1
 70
     0
 62
     7
  6
Continuous
370
    -3
390
F
  0
ENDTAB
  0
TABLE
  2
STYLE
  5
3
330
0
100
AcDbSymbolTable
 70
     3
  0
STYLE
  5
11
330
3
100
AcDbSymbolTableRecord
100
AcDbTextStyleTableRecord
  2
Standard
 70
     0
 40
0.0
 41
1.0
 50
0.0
 71
     0
 42
0.2
  3
txt
  4

  0
STYLE
  5
142
330
3
100
AcDbSymbolTableRecord
100
AcDbTextStyleTableRecord
  2
CONVERTER_1
 70
     0
 40
0.0
 41
0.89
 50
0.0
 71
     0
 42
0.2
  3
msmincho.ttc
  4

1001
ACAD
1000
MS Mincho
1071
    32785
  0
STYLE
  5
1F6
330
3
100
AcDbSymbolTableRecord
100
AcDbTextStyleTableRecord
  2
CONVERTER_2
 70
     0
 40
0.0
 41
0.9
 50
0.0
 71
     0
 42
0.2
  3
txt.shx
  4

  0
ENDTAB
  0
TABLE
  2
VIEW
  5
6
330
0
100
AcDbSymbolTable
 70
     0
  0
ENDTAB
  0
TABLE
  2
UCS
  5
7
330
0
100
AcDbSymbolTable
 70
     0
  0
ENDTAB
  0
TABLE
  2
APPID
  5
9
330
0
100
AcDbSymbolTable
 70
     1
  0
APPID
  5
12
330
9
100
AcDbSymbolTableRecord
100
AcDbRegAppTableRecord
  2
ACAD
 70
     0
  0
ENDTAB
  0
TABLE
  2
DIMSTYLE
  5
A
330
0
100
AcDbSymbolTable
 70
     6
100
AcDbDimStyleTable
  0
DIMSTYLE
105
27
330
A
100
AcDbSymbolTableRecord
100
AcDbDimStyleTableRecord
  2
Standard
 70
     0
340
11
  0
DIMSTYLE
105
20A
102
{ACAD_REACTORS
330
20B
102
}
330
A
100
AcDbSymbolTableRecord
100
AcDbDimStyleTableRecord
  2
ME10_DIM_0
 70
     0
 41
7.0
 42
0.0
 44
2.0
 73
     0
 74
     0
 77
     1
 78
     8
140
7.0
147
0.625
172
     1
173
     1
176
     2
177
     2
178
     7
271
     2
340
1F6
  0
DIMSTYLE
105
215
102
{ACAD_REACTORS
330
216
102
}
330
A
100
AcDbSymbolTableRecord
100
AcDbDimStyleTableRecord
  2
ME10_DIM_1
 70
     0
 41
7.0
 42
0.0
 44
2.0
 73
     0
 74
     0
 77
     1
 78
     8
140
7.0
147
0.625
172
     1
173
     1
176
     2
177
     2
178
     7
271
     2
340
1F6
  0
DIMSTYLE
105
220
102
{ACAD_REACTORS
330
221
102
}
330
A
100
AcDbSymbolTableRecord
100
AcDbDimStyleTableRecord
  2
ME10_DIM_2
 70
     0
 41
7.0
 42
0.0
 44
2.0
 73
     0
 74
     0
 77
     1
 78
     8
140
7.0
147
0.625
172
     1
173
     1
176
     2
177
     2
178
     7
271
     2
340
142
  0
DIMSTYLE
105
22B
102
{ACAD_REACTORS
330
22C
102
}
330
A
100
AcDbSymbolTableRecord
100
AcDbDimStyleTableRecord
  2
ME10_DIM_3
 70
     0
 41
7.0
 42
0.0
 44
2.0
 73
     0
 74
     0
 77
     1
 78
     8
140
7.0
147
0.625
172
     1
173
     1
176
     2
177
     2
178
     7
271
     2
340
1F6
  0
DIMSTYLE
105
236
102
{ACAD_REACTORS
330
237
102
}
330
A
100
AcDbSymbolTableRecord
100
AcDbDimStyleTableRecord
  2
ME10_DIM_4
 70
     0
 41
7.0
 42
0.0
 44
2.0
 73
     0
 74
     0
 77
     1
 78
     8
140
7.0
147
0.625
172
     1
173
     1
176
     2
177
     2
178
     7
271
     2
340
1F6
  0
ENDTAB
  0
TABLE
  2
BLOCK_RECORD
  5
1
330
0
100
AcDbSymbolTable
 70
    13
  0
BLOCK_RECORD
  5
1F
330
1
100
AcDbSymbolTableRecord
100
AcDbBlockTableRecord
  2
*Model_Space
340
22
  0
BLOCK_RECORD
  5
1B
330
1
100
AcDbSymbolTableRecord
100
AcDbBlockTableRecord
  2
*Paper_Space
340
1E
  0
BLOCK_RECORD
  5
23
330
1
100
AcDbSymbolTableRecord
100
AcDbBlockTableRecord
  2
*Paper_Space0
340
26
  0
BLOCK_RECORD
  5
36
330
1
100
AcDbSymbolTableRecord
100
AcDbBlockTableRecord
  2
32-213
340
0
102
{BLKREFS
331
4B
102
}
  0
BLOCK_RECORD
  5
39
330
1
100
AcDbSymbolTableRecord
100
AcDbBlockTableRecord
  2
36-54-M11
340
0
102
{BLKREFS
331
4C
102
}
  0
BLOCK_RECORD
  5
3C
330
1
100
AcDbSymbolTableRecord
100
AcDbBlockTableRecord
  2
21-1C
340
0
102
{BLKREFS
331
4D
102
}
  0
BLOCK_RECORD
  5
3F
330
1
100
AcDbSymbolTableRecord
100
AcDbBlockTableRecord
  2
42-15
340
0
102
{BLKREFS
331
4E
102
}
  0
BLOCK_RECORD
  5
42
330
1
100
AcDbSymbolTableRecord
100
AcDbBlockTableRecord
  2
37-1-13
340
0
102
{BLKREFS
331
4F
102
}
  0
BLOCK_RECORD
  5
45
330
1
100
AcDbSymbolTableRecord
100
AcDbBlockTableRecord
  2
_J__A4
340
0
102
{BLKREFS
331
50
102
}
  0
BLOCK_RECORD
  5
48
330
1
100
AcDbSymbolTableRecord
100
AcDbBlockTableRecord
  2
B4112R-0A-13
340
0
102
{BLKREFS
331
51
102
}
  0
BLOCK_RECORD
  5
1FF
330
1
100
AcDbSymbolTableRecord
100
AcDbBlockTableRecord
  2
*D08
340
0
  0
BLOCK_RECORD
  5
20C
330
1
100
AcDbSymbolTableRecord
100
AcDbBlockTableRecord
  2
*D19
340
0
  0
BLOCK_RECORD
  5
217
330
1
100
AcDbSymbolTableRecord
100
AcDbBlockTableRecord
  2
*D210
340
0
  0
BLOCK_RECORD
  5
222
330
1
100
AcDbSymbolTableRecord
100
AcDbBlockTableRecord
  2
*D311
340
0
  0
BLOCK_RECORD
  5
22D
330
1
100
AcDbSymbolTableRecord
100
AcDbBlockTableRecord
  2
*D412
340
0
  0
ENDTAB
  0
ENDSEC
  0
SECTION
  2
BLOCKS
  0
BLOCK
  5
20
330
1F
100
AcDbEntity
  8
0
100
AcDbBlockBegin
  2
*Model_Space
 70
     0
 71
     0
 10
0.0
 20
0.0
 30
0.0
  3
*Model_Space
  1

  0
ENDBLK
  5
21
330
1F
100
AcDbEntity
  8
0
100
AcDbBlockEnd
  0
BLOCK
  5
1C
330
1B
100
AcDbEntity
 67
     1
  8
0
100
AcDbBlockBegin
  2
*Paper_Space
 70
     0
 71
     0
 10
0.0
 20
0.0
 30
0.0
  3
*Paper_Space
  1

  0
ENDBLK
  5
1D
330
1B
100
AcDbEntity
 67
     1
  8
0
100
AcDbBlockEnd
  0
BLOCK
  5
24
330
23
100
AcDbEntity
  8
0
100
AcDbBlockBegin
  2
*Paper_Space0
 70
     0
 71
     0
 10
0.0
 20
0.0
 30
0.0
  3
*Paper_Space0
  1

  0
ENDBLK
  5
25
330
23
100
AcDbEntity
  8
0
100
AcDbBlockEnd
  0
BLOCK
  5
37
330
36
100
AcDbEntity
  8
0
100
AcDbBlockBegin
  2
32-213
 70
     0
 71
     0
 10
1099.152100264574
 20
1510.551094578063
 30
0.0
  3
32-213
  1

  0
LINE
  5
52
330
36
100
AcDbEntity
  8
1
  6
Continuous
 62
     7
100
AcDbLine
 10
285.7314802904141
 20
399.6857631175611
 30
0.0
 11
296.7314802904141
 21
399.6857631175611
 31
0.0
  0
LINE
  5
53
330
36
100
AcDbEntity
  8
1
  6
Continuous
 62
     7
100
AcDbLine
 10
285.7314802904141
 20
411.6857631175611
 30
0.0
 11
296.7314802904141
 21
411.6857631175611
 31
0.0
  0
LINE
  5
54
330
36
100
AcDbEntity
  8
1
  6
PHANTOM
 62
     4
100
AcDbLine
 10
285.7314802904141
 20
412.6857631175611
 30
0.0
 11
285.7314802904141
 21
411.6857631175611
 31
0.0
  0
LINE
  5
55
330
36
100
AcDbEntity
  8
1
  6
Continuous
 62
     7
100
AcDbLine
 10
274.7314802904141
 20
411.6857631175611
 30
0.0
 11
285.7314802904141
 21
411.6857631175611
 31
0.0
  0
LINE
  5
56
330
36
100
AcDbEntity
  8
1
  6
Continuous
 62
     7
100
AcDbLine
 10
274.7314802904141
 20
399.6857631175611
 30
0.0
 11
285.7314802904141
 21
399.6857631175611
 31
0.0
  0
LINE
  5
57
330
36
100
AcDbEntity
  8
1
  6
PHANTOM
 62
     4
100
AcDbLine
 10
285.7314802904141
 20
411.6857631175611
 30
0.0
 11
285.7314802904141
 21
398.6857631175611
 31
0.0
  0
LINE
  5
58
330
36
100
AcDbEntity
  8
1
  6
Continuous
 62
     7
100
AcDbLine
 10
158.3420470148683
 20
276.6857631175604
 30
0.0
 11
168.8777007677211
 21
276.6857631175604
 31
0.0
  0
LINE
  5
59
330
36
100
AcDbEntity
  8
1
  6
Continuous
 62
     7
100
AcDbLine
 10
168.8777007677211
 20
253.6857631175604
 30
0.0
 11
158.3420470148683
 21
253.6857631175604
 31
0.0
  0
LINE
  5
5A
330
36
100
AcDbEntity
  8
1
  6
PHANTOM
 62
     4
100
AcDbLine
 10
170.6098738912949
 20
265.1857631175604
 30
0.0
 11
169.6098738912949
 21
265.1857631175604
 31
0.0
  0
LINE
  5
5B
330
36
100
AcDbEntity
  8
1
  6
Continuous
 62
     7
100
AcDbLine
 10
169.6098738912949
 20
276.1857631175604
 30
0.0
 11
169.6098738912949
 21
265.1857631175604
 31
0.0
  0
LINE
  5
5C
330
36
100
AcDbEntity
  8
1
  6
PHANTOM
 62
     4
100
AcDbLine
 10
169.6098738912949
 20
265.1857631175604
 30
0.0
 11
156.6098738912949
 21
265.1857631175604
 31
0.0
  0
LINE
  5
5D
330
36
100
AcDbEntity
  8
1
  6
Continuous
 62
     7
100
AcDbLine
 10
169.6098738912949
 20
265.1857631175604
 30
0.0
 11
169.6098738912949
 21
254.1857631175604
 31
0.0
  0
LINE
  5
5E
330
36
100
AcDbEntity
  8
1
  6
Continuous
 62
     7
100
AcDbLine
 10
161.6765887690177
 20
276.6857631175604
 30
0.0
 11
168.8777007677211
 21
276.6857631175604
 31
0.0
  0
LINE
  5
5F
330
36
100
AcDbEntity
  8
1
  6
Continuous
 62
     7
100
AcDbLine
 10
157.6098738912949
 20
258.5073240211225
 30
0.0
 11
157.6098738912949
 21
254.1857631175604
 31
0.0
  0
LINE
  5
60
330
36
100
AcDbEntity
  8
1
  6
Continuous
 62
     7
100
AcDbLine
 10
157.6098738912949
 20
276.1857631175604
 30
0.0
 11
157.6098738912949
 21
271.8684604607744
 31
0.0
  0
LINE
  5
61
330
36
100
AcDbEntity
  8
1
  6
PHANTOM
 62
     4
100
AcDbLine
 10
285.7314802904142
 20
249.1857631175603
 30
0.0
 11
285.7314802904142
 21
281.1857631175603
 31
0.0
  0
LINE
  5
62
330
36
100
AcDbEntity
  8
1
  6
PHANTOM
 62
     4
100
AcDbLine
 10
269.7314802904142
 20
265.1857631175603
 30
0.0
 11
301.7314802904142
 21
265.1857631175603
 31
0.0
  0
LINE
  5
63
330
36
100
AcDbEntity
  8
1
  6
Continuous
 62
     7
100
AcDbLine
 10
279.6693024639232
 20
276.6857631175603
 30
0.0
 11
291.7936581169053
 21
276.6857631175603
 31
0.0
  0
LINE
  5
64
330
36
100
AcDbEntity
  8
1
  6
Continuous
 62
     7
100
AcDbLine
 10
272.7410992336476
 20
265.6857631175603
 30
0.0
 11
278.8032770601387
 21
276.1857631175603
 31
0.0
  0
LINE
  5
65
330
36
100
AcDbEntity
  8
1
  6
Continuous
 62
     7
100
AcDbLine
 10
278.8032770601386
 20
254.1857631175603
 30
0.0
 11
272.7410992336476
 21
264.6857631175603
 31
0.0
  0
LINE
  5
66
330
36
100
AcDbEntity
  8
1
  6
Continuous
 62
     7
100
AcDbLine
 10
291.7936581169052
 20
253.6857631175602
 30
0.0
 11
279.6693024639232
 21
253.6857631175602
 31
0.0
  0
LINE
  5
67
330
36
100
AcDbEntity
  8
1
  6
Continuous
 62
     7
100
AcDbLine
 10
298.7218613471808
 20
264.6857631175602
 30
0.0
 11
292.6596835206898
 21
254.1857631175602
 31
0.0
  0
LINE
  5
68
330
36
100
AcDbEntity
  8
1
  6
Continuous
 62
     7
100
AcDbLine
 10
292.6596835206898
 20
276.1857631175603
 30
0.0
 11
298.7218613471808
 21
265.6857631175603
 31
0.0
  0
ARC
  5
69
330
36
100
AcDbEntity
  8
1
  6
Continuous
 62
     7
100
AcDbCircle
 10
288.7314802904141
 20
405.6857631175611
 30
0.0
 40
10.0
100
AcDbArc
 50
-36.86989764584402
 51
36.86989764584402
  0
ARC
  5
6A
330
36
100
AcDbEntity
  8
1
  6
Continuous
 62
     7
100
AcDbCircle
 10
282.7314802904139
 20
405.6857631175611
 30
0.0
 40
9.999999999999863
100
AcDbArc
 50
143.1301023541554
 51
-143.1301023541554
  0
ARC
  5
6B
330
36
100
AcDbEntity
  8
1
  6
Continuous
 62
     7
100
AcDbCircle
 10
163.6098738912947
 20
268.1857631175604
 30
0.0
 40
10.00000000000001
100
AcDbArc
 50
121.7883306170518
 51
126.8698976458431
  0
ARC
  5
6C
330
36
100
AcDbEntity
  8
1
  6
Continuous
 62
     7
100
AcDbCircle
 10
163.6098738912947
 20
268.1857631175604
 30
0.0
 40
10.00000000000012
100
AcDbArc
 50
53.13010235415507
 51
58.21166938294825
  0
ARC
  5
6D
330
36
100
AcDbEntity
  8
1
  6
Continuous
 62
     7
100
AcDbCircle
 10
163.6098738912947
 20
262.1857631175603
 30
0.0
 40
9.999999999999812
100
AcDbArc
 50
-126.8698976458434
 51
-121.788330617052
  0
ARC
  5
6E
330
36
100
AcDbEntity
  8
1
  6
Continuous
 62
     7
100
AcDbCircle
 10
163.6098738912947
 20
262.1857631175603
 30
0.0
 40
9.999999999999943
100
AcDbArc
 50
-58.21166938294798
 51
-53.13010235415478
  0
ARC
  5
6F
330
36
100
AcDbEntity
  8
1
  6
Continuous
 62
     7
100
AcDbCircle
 10
285.7314802904142
 20
265.1857631175603
 30
0.0
 40
13.0
100
AcDbArc
 50
-2.20422750397253
 51
0.0
  0
ARC
  5
70
330
36
100
AcDbEntity
  8
1
  6
Continuous
 62
     7
100
AcDbCircle
 10
285.7314802904142
 20
265.1857631175603
 30
0.0
 40
13.0
100
AcDbArc
 50
177.795772496028
 51
180.0
  0
ARC
  5
71
330
36
100
AcDbEntity
  8
1
  6
Continuous
 62
     7
100
AcDbCircle
 10
285.7314802904142
 20
265.1857631175603
 30
0.0
 40
13.0
100
AcDbArc
 50
0.0
 51
2.20422750397203
  0
ARC
  5
72
330
36
100
AcDbEntity
  8
1
  6
Continuous
 62
     7
100
AcDbCircle
 10
285.7314802904142
 20
265.1857631175603
 30
0.0
 40
13.00000000000007
100
AcDbArc
 50
-62.20422750397256
 51
-57.79577249602795
  0
ARC
  5
73
330
36
100
AcDbEntity
  8
1
  6
Continuous
 62
     7
100
AcDbCircle
 10
285.7314802904142
 20
265.1857631175603
 30
0.0
 40
13.00000000000006
100
AcDbArc
 50
-122.2042275039723
 51
-117.7957724960275
  0
ARC
  5
74
330
36
100
AcDbEntity
  8
1
  6
Continuous
 62
     7
100
AcDbCircle
 10
285.7314802904142
 20
265.1857631175603
 30
0.0
 40
13.00000000000011
100
AcDbArc
 50
180.0
 51
-177.795772496028
  0
ARC
  5
75
330
36
100
AcDbEntity
  8
1
  6
Continuous
 62
     7
100
AcDbCircle
 10
285.7314802904142
 20
265.1857631175603
 30
0.0
 40
12.99999999999996
100
AcDbArc
 50
117.7957724960277
 51
122.2042275039719
  0
ARC
  5
76
330
36
100
AcDbEntity
  8
1
  6
Continuous
 62
     7
100
AcDbCircle
 10
285.7314802904142
 20
265.1857631175603
 30
0.0
 40
13.00000000000004
100
AcDbArc
 50
57.79577249602769
 51
62.20422750397189
  0
CIRCLE
  5
77
330
36
100
AcDbEntity
  8
1
  6
Continuous
 62
     7
100
AcDbCircle
 10
285.7314802904142
 20
265.1857631175603
 30
0.0
 40
11.0
  0
SPLINE
  5
78
330
36
100
AcDbEntity
  8
1
  6
Continuous
 62
     7
100
AcDbSpline
210
0.0
220
0.0
230
1.0
 70
     8
 71
     3
 72
    45
 73
    41
 74
    39
 42
0.0000000001
 43
0.0000000001
 44
0.00000001
 40
0.0
 40
0.0
 40
0.0
 40
0.0
 40
0.2639815460521491
 40
0.5283419841189962
 40
1.054652170762554
 40
1.580985067100601
 40
2.101700160272246
 40
2.622460348438183
 40
3.134495226137369
 40
3.646596368619041
 40
4.147789061289574
 40
4.649065936797057
 40
5.138470095604888
 40
5.627969508813447
 40
6.106046361246191
 40
6.584217829940164
 40
7.052873649570362
 40
7.521607363809245
 40
7.984025556627585
 40
8.446488192992854
 40
8.906737372258787
 40
9.366986551524665
 40
9.829449187890056
 40
10.29186738070851
 40
10.76060109494735
 40
11.2292569145776
 40
11.70742838327145
 40
12.18550523570412
 40
12.67500464891276
 40
13.16440880772059
 40
13.66568568322818
 40
14.16687837589874
 40
14.67897951838046
 40
15.19101439607945
 40
15.71177458424534
 40
16.23248967741702
 40
16.75882257375508
 40
17.28513276039858
 40
17.5494931984635
 40
17.81347474451337
 40
17.81347474451337
 40
17.81347474451337
 40
17.81347474451337
 10
285.7314802904098
 20
410.953589993988
 30
0.0
 10
285.8194800543366
 20
410.9526214826389
 30
0.0
 10
285.9956058880186
 20
410.9506830698388
 30
0.0
 10
286.3466593354754
 20
410.9300477345951
 30
0.0
 10
286.7832860750862
 20
410.8805541066708
 30
0.0
 10
287.2988041089807
 20
410.7813510078639
 30
0.0
 10
287.8034224385158
 20
410.6434708780039
 30
0.0
 10
288.291287565347
 20
410.4682527498358
 30
0.0
 10
288.7611843674471
 20
410.2562536036427
 30
0.0
 10
289.2067474775469
 20
410.0101476349204
 30
0.0
 10
289.6276349606317
 20
409.7302973945513
 30
0.0
 10
290.0174812048293
 20
409.4205756307784
 30
0.0
 10
290.3764659152251
 20
409.0811946996922
 30
0.0
 10
290.6987592781538
 20
408.7170051951616
 30
0.0
 10
290.9847358085636
 20
408.3282810992693
 30
0.0
 10
291.2295401512051
 20
407.9204348498084
 30
0.0
 10
291.4335567112015
 20
407.4941698721664
 30
0.0
 10
291.5931516579634
 20
407.054912337133
 30
0.0
 10
291.7087535245736
 20
406.6042057806321
 30
0.0
 10
291.7779587325495
 20
406.1469281910681
 30
0.0
 10
291.801488978765
 20
405.6857631175611
 30
0.0
 10
291.7779587325495
 20
405.2245980440542
 30
0.0
 10
291.7087535245734
 20
404.7673204544899
 30
0.0
 10
291.5931516579633
 20
404.3166138979891
 30
0.0
 10
291.4335567112015
 20
403.8773563629556
 30
0.0
 10
291.2295401512052
 20
403.4510913853138
 30
0.0
 10
290.9847358085635
 20
403.0432451358529
 30
0.0
 10
290.6987592781538
 20
402.6545210399607
 30
0.0
 10
290.3764659152251
 20
402.29033153543
 30
0.0
 10
290.0174812048293
 20
401.9509506043437
 30
0.0
 10
289.6276349606317
 20
401.6412288405708
 30
0.0
 10
289.2067474775471
 20
401.3613786002016
 30
0.0
 10
288.761184367447
 20
401.1152726314793
 30
0.0
 10
288.291287565347
 20
400.9032734852864
 30
0.0
 10
287.8034224385157
 20
400.7280553571185
 30
0.0
 10
287.2988041089808
 20
400.5901752272584
 30
0.0
 10
286.7832860750862
 20
400.4909721284513
 30
0.0
 10
286.346659335476
 20
400.4414785005273
 30
0.0
 10
285.9956058880207
 20
400.4208431652835
 30
0.0
 10
285.8194800543401
 20
400.4189047524834
 30
0.0
 10
285.7314802904141
 20
400.4179362411343
 30
0.0
 11
285.7314802904098
 21
410.953589993988
 31
0.0
 11
285.9954144367158
 21
410.9485876875356
 31
0.0
 11
286.2593485830218
 21
410.9335807681783
 31
0.0
 11
286.7822586228689
 21
410.8738521921707
 31
0.0
 11
287.2991122892228
 21
410.774410725246
 31
0.0
 11
287.8013715537022
 21
410.6370067969858
 31
0.0
 11
288.2914334418683
 21
410.4608519805723
 31
0.0
 11
288.7580790968622
 21
410.2500877790204
 31
0.0
 11
289.2062544018042
 21
410.0023248355218
 31
0.0
 11
289.6234572540427
 21
409.7245913386756
 31
0.0
 11
290.0158189073206
 21
409.4126124308059
 31
0.0
 11
290.3712259574479
 21
409.076156996345
 31
0.0
 11
290.6954909946493
 21
408.7094665803531
 31
0.0
 11
290.9785024224442
 21
408.3241588999606
 31
0.0
 11
291.2244905983828
 21
407.9141128406315
 31
0.0
 11
291.4264899597179
 21
407.4912245157826
 31
0.0
 11
291.5865426736477
 21
407.0506630290093
 31
0.0
 11
291.7011230473278
 21
406.6026653470771
 31
0.0
 11
291.7704323051529
 21
406.1454258946961
 31
0.0
 11
291.7936581169051
 21
405.6857631175611
 31
0.0
 11
291.7704323051528
 21
405.2261003404262
 31
0.0
 11
291.7011230473277
 21
404.7688608880451
 31
0.0
 11
291.5865426736476
 21
404.3208632061127
 31
0.0
 11
291.4264899597179
 21
403.8803017193395
 31
0.0
 11
291.2244905983828
 21
403.4574133944906
 31
0.0
 11
290.9785024224441
 21
403.0473673351616
 31
0.0
 11
290.6954909946493
 21
402.6620596547691
 31
0.0
 11
290.3712259574478
 21
402.2953692387772
 31
0.0
 11
290.0158189073206
 21
401.9589138043162
 31
0.0
 11
289.6234572540427
 21
401.6469348964464
 31
0.0
 11
289.2062544018042
 21
401.3692013996001
 31
0.0
 11
288.7580790968621
 21
401.1214384561016
 31
0.0
 11
288.2914334418683
 21
400.91067425455
 31
0.0
 11
287.8013715537022
 21
400.7345194381365
 31
0.0
 11
287.2991122892228
 21
400.5971155098763
 31
0.0
 11
286.7822586228689
 21
400.4976740429515
 31
0.0
 11
286.2593485830219
 21
400.4379454669439
 31
0.0
 11
285.9954144367177
 21
400.4229385475867
 31
0.0
 11
285.7314802904141
 21
400.4179362411343
 31
0.0
  0
SPLINE
  5
79
330
36
100
AcDbEntity
  8
1
  6
Continuous
 62
     7
100
AcDbSpline
210
0.0
220
0.0
230
1.0
 70
    11
 71
     3
 72
    79
 73
    75
 74
    73
 42
0.0000000001
 43
0.0000000001
 44
0.00000001
 40
0.0
 40
0.0
 40
0.0
 40
0.0
 40
0.2746255860864884
 40
0.5489296448750289
 40
0.8445351226057409
 40
1.139720930735251
 40
1.464847760107642
 40
1.789634474685826
 40
2.147784125837448
 40
2.505702211207374
 40
2.896040828699668
 40
3.286231079274756
 40
3.704624946715778
 40
4.122927269101283
 40
4.562895988146366
 40
5.002812031778091
 40
5.456315478850145
 40
5.909794870758477
 40
6.367899400179801
 40
6.826003929601125
 40
7.279483321509561
 40
7.73298676858151
 40
8.172902812213255
 40
8.612871531258215
 40
9.031173853643757
 40
9.449567721084746
 40
9.839757971659909
 40
10.23009658915233
 40
10.58801467452221
 40
10.94616432567381
 40
11.27095104025191
 40
11.59607786962431
 40
11.8912636777537
 40
12.18686915548447
 40
12.46117321427296
 40
12.7357988003595
 40
13.00262036940794
 40
13.26944193845626
 40
13.54406752454275
 40
13.81837158333124
 40
14.1139770610619
 40
14.40916286919135
 40
14.73428969856371
 40
15.05907641314185
 40
15.41722606429339
 40
15.77514414966343
 40
16.16548276715593
 40
16.55567301773102
 40
16.97406688517208
 40
17.39236920755755
 40
17.83233792660257
 40
18.27225397023427
 40
18.72575741730616
 40
19.17923680921466
 40
19.63734133863604
 40
20.0954458680573
 40
20.54892525996568
 40
21.00242870703768
 40
21.44234475066944
 40
21.88231346971449
 40
22.30061579210002
 40
22.71900965954101
 40
23.10919991011607
 40
23.4995385276086
 40
23.8574566129784
 40
24.21560626413006
 40
24.54039297870821
 40
24.86551980808064
 40
25.16070561621012
 40
25.45631109394076
 40
25.73061515272919
 40
26.00524073881572
 40
26.27206230786405
 40
26.53888387691233
 40
26.53888387691233
 40
26.53888387691233
 40
26.53888387691233
 10
295.956790745763
 20
410.9329016523052
 30
0.0
 10
296.0467800140236
 20
410.9151586236366
 30
0.0
 10
296.2266531925311
 20
410.879693339557
 30
0.0
 10
296.4890395287731
 20
410.7738169332185
 30
0.0
 10
296.7419894101186
 20
410.6341520615899
 30
0.0
 10
296.9889666549702
 20
410.4533828047782
 30
0.0
 10
297.2216519055392
 20
410.2401446696467
 30
0.0
 10
297.4457671627019
 20
409.9891282084348
 30
0.0
 10
297.6526277027725
 20
409.7100249721851
 30
0.0
 10
297.8476700908152
 20
409.3966045186292
 30
0.0
 10
298.0234173045461
 20
409.0598811401562
 30
0.0
 10
298.1839436841721
 20
408.6935985547085
 30
0.0
 10
298.3236820936684
 20
408.3089588425845
 30
0.0
 10
298.4451502391488
 20
407.9008697623767
 30
0.0
 10
298.5447431139405
 20
407.4795217496654
 30
0.0
 10
298.6237085361535
 20
407.0419243077009
 30
0.0
 10
298.6800754473302
 20
406.596305717953
 30
0.0
 10
298.7143393771688
 20
406.1423771261053
 30
0.0
 10
298.7256414144368
 20
405.6857631175639
 30
0.0
 10
298.7143393771702
 20
405.2291491090059
 30
0.0
 10
298.6800754473247
 20
404.7752205172064
 30
0.0
 10
298.6237085361749
 20
404.3296019272844
 30
0.0
 10
298.5447431138633
 20
403.8920044859504
 30
0.0
 10
298.4451502394308
 20
403.4706564709393
 30
0.0
 10
298.3236820926733
 20
403.0625673989111
 30
0.0
 10
298.1839436877879
 20
402.6779276572607
 30
0.0
 10
298.0234172920567
 20
402.311645174938
 30
0.0
 10
297.8476701359148
 20
401.9749214277097
 30
0.0
 10
297.6526275498791
 20
401.6615022419492
 30
0.0
 10
297.4457677128455
 20
401.3823945039911
 30
0.0
 10
297.2216500629558
 20
401.1313933639682
 30
0.0
 10
296.9889732935198
 20
400.9181009221589
 30
0.0
 10
296.7419671429873
 20
400.7375167551822
 30
0.0
 10
296.4891204906851
 20
400.5971908838494
 30
0.0
 10
296.226374986458
 20
400.4936143141077
 30
0.0
 10
295.9603776989153
 20
400.4325351570909
 30
0.0
 10
295.6907724339351
 20
400.4107419921203
 30
0.0
 10
295.421167168955
 20
400.4325351570911
 30
0.0
 10
295.1551698814123
 20
400.4936143141077
 30
0.0
 10
294.8924243771852
 20
400.5971908838494
 30
0.0
 10
294.6395777248832
 20
400.7375167551824
 30
0.0
 10
294.3925715743506
 20
400.9181009221589
 30
0.0
 10
294.1598948049144
 20
401.1313933639681
 30
0.0
 10
293.9357771550251
 20
401.3823945039911
 30
0.0
 10
293.7289173179912
 20
401.6615022419491
 30
0.0
 10
293.5338747319556
 20
401.9749214277097
 30
0.0
 10
293.3581275758135
 20
402.3116451749381
 30
0.0
 10
293.1976011800824
 20
402.6779276572607
 30
0.0
 10
293.0578627751968
 20
403.0625673989109
 30
0.0
 10
292.9363946284395
 20
403.4706564709395
 30
0.0
 10
292.836801754007
 20
403.8920044859503
 30
0.0
 10
292.7578363316953
 20
404.3296019272846
 30
0.0
 10
292.7014694205456
 20
404.7752205172061
 30
0.0
 10
292.6672054906996
 20
405.2291491090068
 30
0.0
 10
292.655903453434
 20
405.6857631175613
 30
0.0
 10
292.6672054906996
 20
406.1423771261146
 30
0.0
 10
292.7014694205459
 20
406.5963057179186
 30
0.0
 10
292.7578363316936
 20
407.041924307828
 30
0.0
 10
292.8368017540123
 20
407.4795217492066
 30
0.0
 10
292.9363946284193
 20
407.9008697640551
 30
0.0
 10
293.0578627752672
 20
408.3089588366622
 30
0.0
 10
293.1976011798265
 20
408.6935985762234
 30
0.0
 10
293.358127576697
 20
409.0598810658427
 30
0.0
 10
293.5338747287643
 20
409.3966047869793
 30
0.0
 10
293.7289173288094
 20
409.7100240624442
 30
0.0
 10
293.9357771160988
 20
409.9891314818779
 30
0.0
 10
294.1598949352891
 20
410.2401337059725
 30
0.0
 10
294.3925711046309
 20
410.4534223052382
 30
0.0
 10
294.6395793004246
 20
410.6340195685002
 30
0.0
 10
294.892418648614
 20
410.774298669892
 30
0.0
 10
295.1551895662647
 20
410.8780379677273
 30
0.0
 10
295.4210943087065
 20
410.9385245368231
 30
0.0
 10
295.6910358007706
 20
410.9624706424357
 30
0.0
 10
295.868205764099
 20
410.9427579823487
 30
0.0
 10
295.956790745763
 20
410.9329016523051
 30
0.0
 11
295.956790745763
 21
410.9329016523052
 31
0.0
 11
296.2244238905262
 21
410.8713247706243
 31
0.0
 11
296.4800064445668
 21
410.7717241946322
 31
0.0
 11
296.7387478900482
 21
410.6287715351445
 31
0.0
 11
296.977599341846
 21
410.4553222765842
 31
0.0
 11
297.2178517156751
 21
410.2362646310951
 31
0.0
 11
297.4347074196645
 21
409.9944795744564
 31
0.0
 11
297.6486510311192
 21
409.7072526541691
 31
0.0
 11
297.8382037373229
 21
409.4036490846813
 31
0.0
 11
298.019441922745
 21
409.0579368395254
 31
0.0
 11
298.1764025023848
 21
408.7007088897749
 31
0.0
 11
298.319769254712
 21
408.3076447695103
 31
0.0
 11
298.4393318511897
 21
407.9067936519658
 31
0.0
 11
298.5408982410703
 21
407.4787086812126
 31
0.0
 11
298.6191408203921
 21
407.0458065857849
 31
0.0
 11
298.6762784371452
 21
406.5959169668138
 31
0.0
 11
298.7104224140439
 21
406.1437248088465
 31
0.0
 11
298.7218613471806
 21
405.6857631175611
 31
0.0
 11
298.7104224140439
 21
405.2278014262756
 31
0.0
 11
298.6762784371453
 21
404.7756092683082
 31
0.0
 11
298.6191408203922
 21
404.3257196493372
 31
0.0
 11
298.5408982410702
 21
403.8928175539095
 31
0.0
 11
298.4393318511897
 21
403.4647325831564
 31
0.0
 11
298.3197692547121
 21
403.0638814656119
 31
0.0
 11
298.1764025023848
 21
402.6708173453474
 31
0.0
 11
298.0194419227449
 21
402.3135893955968
 31
0.0
 11
297.8382037373228
 21
401.9678771504408
 31
0.0
 11
297.6486510311193
 21
401.6642735809529
 31
0.0
 11
297.4347074196647
 21
401.3770466606655
 31
0.0
 11
297.2178517156753
 21
401.135261604027
 31
0.0
 11
296.9775993418461
 21
400.916203958538
 31
0.0
 11
296.7387478900483
 21
400.7427546999778
 31
0.0
 11
296.4800064445669
 21
400.59980204049
 31
0.0
 11
296.2244238905264
 21
400.5002014644979
 31
0.0
 11
295.9567907457632
 21
400.4386245828169
 31
0.0
 11
295.6907724339351
 21
400.4179362411343
 31
0.0
 11
295.4247541221071
 21
400.4386245828169
 31
0.0
 11
295.1571209773439
 21
400.5002014644979
 31
0.0
 11
294.9015384233034
 21
400.59980204049
 31
0.0
 11
294.6427969778221
 21
400.7427546999778
 31
0.0
 11
294.4039455260242
 21
400.916203958538
 31
0.0
 11
294.1636931521951
 21
401.1352616040269
 31
0.0
 11
293.9468374482057
 21
401.3770466606655
 31
0.0
 11
293.732893836751
 21
401.6642735809528
 31
0.0
 11
293.5433411305474
 21
401.9678771504408
 31
0.0
 11
293.3621029451252
 21
402.3135893955968
 31
0.0
 11
293.2051423654854
 21
402.6708173453474
 31
0.0
 11
293.0617756131581
 21
403.063881465612
 31
0.0
 11
292.9422130166806
 21
403.4647325831564
 31
0.0
 11
292.8406466268
 21
403.8928175539096
 31
0.0
 11
292.762404047478
 21
404.3257196493372
 31
0.0
 11
292.7052664307249
 21
404.7756092683082
 31
0.0
 11
292.6711224538262
 21
405.2278014262756
 31
0.0
 11
292.6596835206896
 21
405.6857631175611
 31
0.0
 11
292.6711224538262
 21
406.1437248088465
 31
0.0
 11
292.7052664307248
 21
406.5959169668138
 31
0.0
 11
292.762404047478
 21
407.0458065857849
 31
0.0
 11
292.8406466267999
 21
407.4787086812126
 31
0.0
 11
292.9422130166805
 21
407.9067936519658
 31
0.0
 11
293.061775613158
 21
408.3076447695103
 31
0.0
 11
293.2051423654852
 21
408.7007088897749
 31
0.0
 11
293.3621029451251
 21
409.0579368395254
 31
0.0
 11
293.5433411305473
 21
409.4036490846814
 31
0.0
 11
293.732893836751
 21
409.7072526541691
 31
0.0
 11
293.9468374482057
 21
409.9944795744565
 31
0.0
 11
294.1636931521951
 21
410.2362646310951
 31
0.0
 11
294.4039455260242
 21
410.4553222765842
 31
0.0
 11
294.6427969778221
 21
410.6287715351444
 31
0.0
 11
294.9015384233034
 21
410.7717241946322
 31
0.0
 11
295.1571209773439
 21
410.8713247706243
 31
0.0
 11
295.4247541221071
 21
410.9329016523051
 31
0.0
 11
295.6907724339351
 21
410.9535899939879
 31
0.0
 11
295.956790745763
 21
410.9329016523051
 31
0.0
  0
SPLINE
  5
7A
330
36
100
AcDbEntity
  8
1
  6
Continuous
 62
     7
100
AcDbSpline
210
0.0
220
0.0
230
1.0
 70
    11
 71
     3
 72
    79
 73
    75
 74
    73
 42
0.0000000001
 43
0.0000000001
 44
0.00000001
 40
0.0
 40
0.0
 40
0.0
 40
0.0
 40
0.2746255860864884
 40
0.5489296448750819
 40
0.8445351226057938
 40
1.139720930735258
 40
1.464847760107649
 40
1.789634474685833
 40
2.147784125837455
 40
2.505702211207351
 40
2.896040828699698
 40
3.286231079274763
 40
3.704624946715804
 40
4.122927269101277
 40
4.562895988146334
 40
5.002812031778079
 40
5.456315478850141
 40
5.909794870758469
 40
6.367899400179793
 40
6.826003929601115
 40
7.279483321509556
 40
7.732986768581505
 40
8.172902812213261
 40
8.61287153125822
 40
9.031173853643731
 40
9.449567721084719
 40
9.839757971659859
 40
10.23009658915231
 40
10.58801467452234
 40
10.94616432567394
 40
11.27095104025197
 40
11.59607786962428
 40
11.89126367775372
 40
12.18686915548449
 40
12.46117321427308
 40
12.73579880035957
 40
13.00262036940789
 40
13.26944193845616
 40
13.54406752454265
 40
13.81837158333119
 40
14.11397706106196
 40
14.40916286919135
 40
14.73428969856371
 40
15.05907641314182
 40
15.41722606429332
 40
15.7751441496634
 40
16.16548276715589
 40
16.55567301773098
 40
16.97406688517203
 40
17.39236920755752
 40
17.83233792660253
 40
18.27225397023423
 40
18.72575741730612
 40
19.17923680921462
 40
19.637341338636
 40
20.09544586805727
 40
20.54892525996565
 40
21.00242870703767
 40
21.4423447506694
 40
21.88231346971445
 40
22.30061579209999
 40
22.71900965954096
 40
23.10919991011602
 40
23.49953852760851
 40
23.85745661297838
 40
24.21560626412994
 40
24.54039297870805
 40
24.86551980808048
 40
25.16070561621
 40
25.45631109394074
 40
25.73061515272928
 40
26.00524073881576
 40
26.27206230786403
 40
26.53888387691237
 40
26.53888387691237
 40
26.53888387691237
 40
26.53888387691237
 10
275.5061698350649
 20
410.9329016523052
 30
0.0
 10
275.4161805668043
 20
410.9151586236366
 30
0.0
 10
275.2363073882968
 20
410.879693339557
 30
0.0
 10
274.9739210520551
 20
410.7738169332185
 30
0.0
 10
274.7209711707091
 20
410.63415206159
 30
0.0
 10
274.4739939258578
 20
410.4533828047779
 30
0.0
 10
274.2413086752888
 20
410.2401446696467
 30
0.0
 10
274.017193418126
 20
409.9891282084348
 30
0.0
 10
273.8103328780555
 20
409.710024972185
 30
0.0
 10
273.6152904900128
 20
409.3966045186292
 30
0.0
 10
273.4395432762818
 20
409.0598811401563
 30
0.0
 10
273.279016896656
 20
408.6935985547083
 30
0.0
 10
273.1392784871593
 20
408.3089588425846
 30
0.0
 10
273.0178103416793
 20
407.9008697623766
 30
0.0
 10
272.9182174668877
 20
407.4795217496655
 30
0.0
 10
272.8392520446745
 20
407.0419243077007
 30
0.0
 10
272.7828851334976
 20
406.596305717953
 30
0.0
 10
272.7486212036591
 20
406.1423771261053
 30
0.0
 10
272.7373191663912
 20
405.6857631175638
 30
0.0
 10
272.7486212036577
 20
405.229149109006
 30
0.0
 10
272.7828851335034
 20
404.7752205172066
 30
0.0
 10
272.8392520446531
 20
404.3296019272843
 30
0.0
 10
272.9182174669647
 20
403.8920044859505
 30
0.0
 10
273.0178103413972
 20
403.4706564709392
 30
0.0
 10
273.1392784881547
 20
403.062567398911
 30
0.0
 10
273.2790168930401
 20
402.6779276572607
 30
0.0
 10
273.4395432887711
 20
402.311645174938
 30
0.0
 10
273.6152904449133
 20
401.9749214277097
 30
0.0
 10
273.8103330309491
 20
401.6615022419492
 30
0.0
 10
274.0171928679828
 20
401.3823945039912
 30
0.0
 10
274.2413105178722
 20
401.1313933639681
 30
0.0
 10
274.4739872873082
 20
400.9181009221589
 30
0.0
 10
274.7209934378408
 20
400.7375167551822
 30
0.0
 10
274.973840090143
 20
400.5971908838493
 30
0.0
 10
275.23658559437
 20
400.4936143141077
 30
0.0
 10
275.5025828819128
 20
400.432535157091
 30
0.0
 10
275.7721881468928
 20
400.4107419921202
 30
0.0
 10
276.041793411873
 20
400.432535157091
 30
0.0
 10
276.3077906994156
 20
400.4936143141077
 30
0.0
 10
276.5705362036428
 20
400.5971908838493
 30
0.0
 10
276.823382855945
 20
400.7375167551823
 30
0.0
 10
277.0703890064774
 20
400.9181009221589
 30
0.0
 10
277.3030657759135
 20
401.1313933639681
 30
0.0
 10
277.527183425803
 20
401.382394503991
 30
0.0
 10
277.7340432628368
 20
401.6615022419491
 30
0.0
 10
277.9290858488724
 20
401.9749214277097
 30
0.0
 10
278.1048330050146
 20
402.311645174938
 30
0.0
 10
278.2653594007456
 20
402.6779276572607
 30
0.0
 10
278.405097805631
 20
403.062567398911
 30
0.0
 10
278.5265659523886
 20
403.4706564709395
 30
0.0
 10
278.626158826821
 20
403.8920044859505
 30
0.0
 10
278.7051242491328
 20
404.3296019272844
 30
0.0
 10
278.7614911602823
 20
404.7752205172061
 30
0.0
 10
278.7957550901282
 20
405.2291491090066
 30
0.0
 10
278.8070571273942
 20
405.6857631175613
 30
0.0
 10
278.7957550901283
 20
406.1423771261148
 30
0.0
 10
278.7614911602821
 20
406.5963057179185
 30
0.0
 10
278.705124249134
 20
407.0419243078279
 30
0.0
 10
278.6261588268156
 20
407.4795217492067
 30
0.0
 10
278.5265659524087
 20
407.900869764055
 30
0.0
 10
278.4050978055607
 20
408.3089588366622
 30
0.0
 10
278.2653594010017
 20
408.6935985762234
 30
0.0
 10
278.104833004131
 20
409.0598810658428
 30
0.0
 10
277.9290858520637
 20
409.3966047869791
 30
0.0
 10
277.7340432520185
 20
409.7100240624442
 30
0.0
 10
277.5271834647293
 20
409.9891314818777
 30
0.0
 10
277.3030656455391
 20
410.2401337059725
 30
0.0
 10
277.0703894761972
 20
410.4534223052382
 30
0.0
 10
276.8233812804036
 20
410.6340195685003
 30
0.0
 10
276.5705419322139
 20
410.7742986698921
 30
0.0
 10
276.3077710145633
 20
410.8780379677271
 30
0.0
 10
276.0418662721214
 20
410.9385245368232
 30
0.0
 10
275.7719247800574
 20
410.9624706424356
 30
0.0
 10
275.5947548167291
 20
410.9427579823486
 30
0.0
 10
275.5061698350649
 20
410.9329016523051
 30
0.0
 11
275.5061698350649
 21
410.9329016523052
 31
0.0
 11
275.2385366903018
 21
410.8713247706243
 31
0.0
 11
274.9829541362611
 21
410.7717241946322
 31
0.0
 11
274.7242126907797
 21
410.6287715351445
 31
0.0
 11
274.4853612389819
 21
410.4553222765842
 31
0.0
 11
274.2451088651528
 21
410.2362646310951
 31
0.0
 11
274.0282531611634
 21
409.9944795744564
 31
0.0
 11
273.8143095497087
 21
409.7072526541691
 31
0.0
 11
273.6247568435051
 21
409.4036490846813
 31
0.0
 11
273.4435186580829
 21
409.0579368395254
 31
0.0
 11
273.2865580784431
 21
408.7007088897749
 31
0.0
 11
273.1431913261159
 21
408.3076447695103
 31
0.0
 11
273.0236287296384
 21
407.9067936519658
 31
0.0
 11
272.9220623397578
 21
407.4787086812126
 31
0.0
 11
272.8438197604359
 21
407.0458065857849
 31
0.0
 11
272.7866821436828
 21
406.5959169668138
 31
0.0
 11
272.7525381667841
 21
406.1437248088465
 31
0.0
 11
272.7410992336474
 21
405.6857631175611
 31
0.0
 11
272.752538166784
 21
405.2278014262756
 31
0.0
 11
272.7866821436827
 21
404.7756092683082
 31
0.0
 11
272.8438197604359
 21
404.3257196493372
 31
0.0
 11
272.9220623397578
 21
403.8928175539095
 31
0.0
 11
273.0236287296384
 21
403.4647325831564
 31
0.0
 11
273.1431913261159
 21
403.0638814656119
 31
0.0
 11
273.2865580784431
 21
402.6708173453474
 31
0.0
 11
273.443518658083
 21
402.3135893955968
 31
0.0
 11
273.6247568435051
 21
401.9678771504408
 31
0.0
 11
273.8143095497089
 21
401.6642735809529
 31
0.0
 11
274.0282531611636
 21
401.3770466606655
 31
0.0
 11
274.2451088651528
 21
401.135261604027
 31
0.0
 11
274.4853612389819
 21
400.916203958538
 31
0.0
 11
274.7242126907797
 21
400.7427546999778
 31
0.0
 11
274.9829541362611
 21
400.59980204049
 31
0.0
 11
275.2385366903018
 21
400.5002014644979
 31
0.0
 11
275.5061698350649
 21
400.4386245828169
 31
0.0
 11
275.7721881468929
 21
400.4179362411343
 31
0.0
 11
276.0382064587209
 21
400.4386245828169
 31
0.0
 11
276.305839603484
 21
400.5002014644979
 31
0.0
 11
276.5614221575246
 21
400.59980204049
 31
0.0
 11
276.820163603006
 21
400.7427546999778
 31
0.0
 11
277.0590150548038
 21
400.916203958538
 31
0.0
 11
277.299267428633
 21
401.1352616040269
 31
0.0
 11
277.5161231326223
 21
401.3770466606655
 31
0.0
 11
277.7300667440769
 21
401.6642735809528
 31
0.0
 11
277.9196194502806
 21
401.9678771504408
 31
0.0
 11
278.1008576357028
 21
402.3135893955968
 31
0.0
 11
278.2578182153426
 21
402.6708173453474
 31
0.0
 11
278.4011849676699
 21
403.063881465612
 31
0.0
 11
278.5207475641474
 21
403.4647325831564
 31
0.0
 11
278.622313954028
 21
403.8928175539096
 31
0.0
 11
278.70055653335
 21
404.3257196493372
 31
0.0
 11
278.7576941501031
 21
404.7756092683082
 31
0.0
 11
278.7918381270018
 21
405.2278014262756
 31
0.0
 11
278.8032770601385
 21
405.6857631175611
 31
0.0
 11
278.7918381270018
 21
406.1437248088465
 31
0.0
 11
278.7576941501031
 21
406.5959169668138
 31
0.0
 11
278.7005565333499
 21
407.0458065857849
 31
0.0
 11
278.622313954028
 21
407.4787086812126
 31
0.0
 11
278.5207475641475
 21
407.9067936519658
 31
0.0
 11
278.40118496767
 21
408.3076447695103
 31
0.0
 11
278.2578182153428
 21
408.7007088897749
 31
0.0
 11
278.1008576357029
 21
409.0579368395254
 31
0.0
 11
277.9196194502807
 21
409.4036490846814
 31
0.0
 11
277.730066744077
 21
409.7072526541691
 31
0.0
 11
277.5161231326224
 21
409.9944795744565
 31
0.0
 11
277.2992674286331
 21
410.2362646310951
 31
0.0
 11
277.0590150548039
 21
410.4553222765842
 31
0.0
 11
276.820163603006
 21
410.6287715351444
 31
0.0
 11
276.5614221575246
 21
410.7717241946322
 31
0.0
 11
276.305839603484
 21
410.8713247706243
 31
0.0
 11
276.0382064587209
 21
410.9329016523051
 31
0.0
 11
275.7721881468929
 21
410.9535899939879
 31
0.0
 11
275.5061698350649
 21
410.9329016523051
 31
0.0
  0
SPLINE
  5
7B
330
36
100
AcDbEntity
  8
1
  6
Continuous
 62
     7
100
AcDbSpline
210
0.0
220
0.0
230
1.0
 70
     8
 71
     3
 72
    45
 73
    41
 74
    39
 42
0.0000000001
 43
0.0000000001
 44
0.00000001
 40
0.0
 40
0.0
 40
0.0
 40
0.0
 40
0.2639815460522628
 40
0.5283419841191099
 40
1.054652170762611
 40
1.58098506710077
 40
2.101700160272524
 40
2.622460348438515
 40
3.134495226137545
 40
3.646596368619218
 40
4.147789061289703
 40
4.649065936797186
 40
5.138470095605017
 40
5.627969508813651
 40
6.106046361246328
 40
6.58421782994033
 40
7.052873649570503
 40
7.521607363809367
 40
7.984025556627721
 40
8.446488192992982
 40
8.906737372258915
 40
9.366986551524791
 40
9.829449187890164
 40
10.29186738070863
 40
10.76060109494747
 40
11.22925691457767
 40
11.70742838327156
 40
12.18550523570419
 40
12.67500464891286
 40
13.16440880772082
 40
13.66568568322836
 40
14.16687837589893
 40
14.67897951838054
 40
15.19101439607948
 40
15.71177458424538
 40
16.23248967741716
 40
16.75882257375533
 40
17.28513276039861
 40
17.54949319846358
 40
17.81347474451363
 40
17.81347474451363
 40
17.81347474451363
 40
17.81347474451363
 10
285.7314802904184
 20
410.953589993988
 30
0.0
 10
285.6434805264915
 20
410.9526214826389
 30
0.0
 10
285.4673546928095
 20
410.9506830698387
 30
0.0
 10
285.1163012453528
 20
410.930047734595
 30
0.0
 10
284.6796745057421
 20
410.880554106671
 30
0.0
 10
284.1641564718473
 20
410.7813510078637
 30
0.0
 10
283.6595381423122
 20
410.6434708780039
 30
0.0
 10
283.1716730154809
 20
410.468252749836
 30
0.0
 10
282.701776213381
 20
410.2562536036428
 30
0.0
 10
282.2562131032811
 20
410.0101476349204
 30
0.0
 10
281.8353256201965
 20
409.7302973945513
 30
0.0
 10
281.4454793759988
 20
409.4205756307785
 30
0.0
 10
281.086494665603
 20
409.0811946996922
 30
0.0
 10
280.7642013026741
 20
408.7170051951616
 30
0.0
 10
280.4782247722646
 20
408.3282810992694
 30
0.0
 10
280.2334204296229
 20
407.9204348498084
 30
0.0
 10
280.0294038696266
 20
407.4941698721663
 30
0.0
 10
279.8698089228648
 20
407.054912337133
 30
0.0
 10
279.7542070562545
 20
406.6042057806322
 30
0.0
 10
279.6850018482788
 20
406.1469281910681
 30
0.0
 10
279.6614716020632
 20
405.6857631175612
 30
0.0
 10
279.6850018482787
 20
405.224598044054
 30
0.0
 10
279.7542070562545
 20
404.7673204544901
 30
0.0
 10
279.8698089228649
 20
404.3166138979892
 30
0.0
 10
280.0294038696266
 20
403.8773563629558
 30
0.0
 10
280.2334204296227
 20
403.4510913853135
 30
0.0
 10
280.4782247722645
 20
403.0432451358531
 30
0.0
 10
280.7642013026741
 20
402.6545210399605
 30
0.0
 10
281.086494665603
 20
402.2903315354301
 30
0.0
 10
281.4454793759988
 20
401.9509506043437
 30
0.0
 10
281.8353256201965
 20
401.6412288405709
 30
0.0
 10
282.2562131032811
 20
401.3613786002013
 30
0.0
 10
282.701776213381
 20
401.1152726314795
 30
0.0
 10
283.1716730154809
 20
400.9032734852863
 30
0.0
 10
283.6595381423122
 20
400.7280553571185
 30
0.0
 10
284.1641564718473
 20
400.5901752272584
 30
0.0
 10
284.6796745057418
 20
400.4909721284514
 30
0.0
 10
285.116301245352
 20
400.4414785005272
 30
0.0
 10
285.4673546928074
 20
400.4208431652836
 30
0.0
 10
285.643480526488
 20
400.4189047524835
 30
0.0
 10
285.7314802904141
 20
400.4179362411343
 30
0.0
 11
285.7314802904184
 21
410.953589993988
 31
0.0
 11
285.4675461441124
 21
410.9485876875356
 31
0.0
 11
285.2036119978063
 21
410.9335807681783
 31
0.0
 11
284.6807019579593
 21
410.8738521921707
 31
0.0
 11
284.1638482916053
 21
410.774410725246
 31
0.0
 11
283.6615890271257
 21
410.6370067969858
 31
0.0
 11
283.1715271389596
 21
410.4608519805723
 31
0.0
 11
282.7048814839659
 21
410.2500877790204
 31
0.0
 11
282.2567061790238
 21
410.0023248355218
 31
0.0
 11
281.8395033267854
 21
409.7245913386756
 31
0.0
 11
281.4471416735075
 21
409.4126124308059
 31
0.0
 11
281.0917346233803
 21
409.076156996345
 31
0.0
 11
280.7674695861787
 21
408.7094665803531
 31
0.0
 11
280.4844581583839
 21
408.3241588999606
 31
0.0
 11
280.2384699824453
 21
407.9141128406315
 31
0.0
 11
280.0364706211102
 21
407.4912245157826
 31
0.0
 11
279.8764179071804
 21
407.0506630290093
 31
0.0
 11
279.7618375335003
 21
406.6026653470771
 31
0.0
 11
279.6925282756753
 21
406.1454258946961
 31
0.0
 11
279.6693024639231
 21
405.6857631175611
 31
0.0
 11
279.6925282756753
 21
405.2261003404262
 31
0.0
 11
279.7618375335003
 21
404.7688608880451
 31
0.0
 11
279.8764179071804
 21
404.3208632061127
 31
0.0
 11
280.0364706211101
 21
403.8803017193395
 31
0.0
 11
280.2384699824452
 21
403.4574133944906
 31
0.0
 11
280.4844581583839
 21
403.0473673351616
 31
0.0
 11
280.7674695861787
 21
402.6620596547691
 31
0.0
 11
281.0917346233802
 21
402.2953692387772
 31
0.0
 11
281.4471416735075
 21
401.9589138043162
 31
0.0
 11
281.8395033267854
 21
401.6469348964464
 31
0.0
 11
282.2567061790239
 21
401.3692013996001
 31
0.0
 11
282.704881483966
 21
401.1214384561016
 31
0.0
 11
283.1715271389596
 21
400.91067425455
 31
0.0
 11
283.6615890271257
 21
400.7345194381365
 31
0.0
 11
284.1638482916053
 21
400.5971155098763
 31
0.0
 11
284.6807019579593
 21
400.4976740429515
 31
0.0
 11
285.2036119978061
 21
400.4379454669439
 31
0.0
 11
285.4675461441103
 21
400.4229385475867
 31
0.0
 11
285.7314802904141
 21
400.4179362411343
 31
0.0
  0
SPLINE
  5
7C
330
36
100
AcDbEntity
  8
1
  6
Continuous
 62
     7
100
AcDbSpline
210
0.0
220
0.0
230
1.0
 70
     8
 71
     3
 72
    41
 73
    37
 74
    35
 42
0.0000000001
 43
0.0000000001
 44
0.00000001
 40
0.0
 40
0.0
 40
0.0
 40
0.0
 40
0.458062907344727
 40
0.9161250954498637
 40
1.374321004625703
 40
1.832515564104298
 40
2.290914921250071
 40
2.749312464134876
 40
3.207961104920745
 40
3.666607688416639
 40
4.125521335344478
 40
4.584432931141866
 40
5.043595344344047
 40
5.502755958881865
 40
5.962120941340532
 40
6.421484591837815
 40
6.880981585492511
 40
7.340477871484227
 40
7.800020458108181
 40
8.259563044732079
 40
8.71905933072382
 40
9.178556324378654
 40
9.637919974876045
 40
10.09728495733482
 40
10.55644557187264
 40
11.01560798507486
 40
11.47451958087215
 40
11.93343322779996
 40
12.39207981129581
 40
12.85072845208158
 40
13.30912599496632
 40
13.76752535211214
 40
14.22571991159094
 40
14.68391582076676
 40
15.01079353335223
 40
15.33715768166968
 40
15.33715768166968
 40
15.33715768166968
 40
15.33715768166968
 10
168.8576148854633
 20
258.978187295821
 30
0.0
 10
168.8404314687566
 20
258.8263702970203
 30
0.0
 10
168.8060646623242
 20
258.5227365377986
 30
0.0
 10
168.7040923641801
 20
258.0752127487381
 30
0.0
 10
168.5664285445116
 20
257.6377571717368
 30
0.0
 10
168.3900477732821
 20
257.2141107219891
 30
0.0
 10
168.1777142715556
 20
256.8072911015743
 30
0.0
 10
167.9303435502954
 20
256.4205690131209
 30
0.0
 10
167.6503187171116
 20
256.0566990747659
 30
0.0
 10
167.3393400682834
 20
255.7186654165598
 30
0.0
 10
167.0001737316302
 20
255.4087938186918
 30
0.0
 10
166.6350314994708
 20
255.1297189762514
 30
0.0
 10
166.2470331500227
 20
254.8832552871263
 30
0.0
 10
165.8388252502652
 20
254.6716148793922
 30
0.0
 10
165.4137826906942
 20
254.4960423181871
 30
0.0
 10
164.9749137137653
 20
254.3582615036715
 30
0.0
 10
164.5257376352358
 20
254.2589108121406
 30
0.0
 10
164.0695409441515
 20
254.1991705632917
 30
0.0
 10
163.6098738912949
 20
254.1790590569646
 30
0.0
 10
163.1502068384372
 20
254.1991705632921
 30
0.0
 10
162.6940101473567
 20
254.2589108121393
 30
0.0
 10
162.2448340688131
 20
254.3582615036768
 30
0.0
 10
161.8059650919363
 20
254.4960423181672
 30
0.0
 10
161.3809225321701
 20
254.6716148794669
 30
0.0
 10
160.9727146331402
 20
254.8832552868478
 30
0.0
 10
160.5847162809768
 20
255.1297189772901
 30
0.0
 10
160.2195740589464
 20
255.4087938148176
 30
0.0
 10
159.8804076845031
 20
255.7186654310155
 30
0.0
 10
159.5694291766325
 20
256.056699020852
 30
0.0
 10
159.2894038175465
 20
256.4205692142903
 30
0.0
 10
159.042035057955
 20
256.8072903512562
 30
0.0
 10
158.8296942370785
 20
257.2141135217503
 30
0.0
 10
158.6533407696667
 20
257.637746728057
 30
0.0
 10
158.5287241012183
 20
258.0334941073256
 30
0.0
 10
158.4423777897203
 20
258.394121872348
 30
0.0
 10
158.408576740568
 20
258.6093042699028
 30
0.0
 10
158.3916895028096
 20
258.7168108828651
 30
0.0
 11
168.8576148854633
 21
258.978187295821
 31
0.0
 11
168.7976625899337
 21
258.5240646809406
 31
0.0
 11
168.6981573462689
 21
258.0769409009256
 31
0.0
 11
168.5599821507499
 21
257.6400758113055
 31
0.0
 11
168.3840893511322
 21
257.2169871948451
 31
0.0
 11
168.1718871787537
 21
256.8106619449903
 31
0.0
 11
167.9249572317075
 21
256.4244574543709
 31
0.0
 11
167.6451778088999
 21
256.0610265114558
 31
0.0
 11
167.3347155473536
 21
255.7234322687501
 31
0.0
 11
166.9958658562078
 21
255.4139445918598
 31
0.0
 11
166.6313019878465
 21
255.1352098817092
 31
0.0
 11
166.243686154337
 21
254.8890715317708
 31
0.0
 11
165.8360914139608
 21
254.6776596173467
 31
0.0
 11
165.4114953844845
 21
254.5023473278111
 31
0.0
 11
164.9732458709009
 21
254.3646798761679
 31
0.0
 11
164.5245770579755
 21
254.2655144412333
 31
0.0
 11
164.0689804550789
 21
254.2057769130849
 31
0.0
 11
163.6098738912947
 21
254.1857631175601
 31
0.0
 11
163.1507673275106
 21
254.2057769130849
 31
0.0
 11
162.695170724614
 21
254.2655144412333
 31
0.0
 11
162.2465019116884
 21
254.3646798761679
 31
0.0
 11
161.8082523981047
 21
254.5023473278111
 31
0.0
 11
161.3836563686283
 21
254.6776596173467
 31
0.0
 11
160.9760616282521
 21
254.8890715317707
 31
0.0
 11
160.5884457947426
 21
255.1352098817091
 31
0.0
 11
160.2238819263814
 21
255.4139445918598
 31
0.0
 11
159.8850322352358
 21
255.7234322687503
 31
0.0
 11
159.5745699736897
 21
256.0610265114561
 31
0.0
 11
159.2947905508822
 21
256.4244574543711
 31
0.0
 11
159.047860603836
 21
256.8106619449904
 31
0.0
 11
158.8356584314572
 21
257.2169871948451
 31
0.0
 11
158.659765631839
 21
257.6400758113056
 31
0.0
 11
158.5215904363201
 21
258.0769409009257
 31
0.0
 11
158.4465816947904
 21
258.3950960952558
 31
0.0
 11
158.3916895028096
 21
258.7168108828651
 31
0.0
  0
SPLINE
  5
7D
330
36
100
AcDbEntity
  8
1
  6
Continuous
 62
     7
100
AcDbSpline
210
0.0
220
0.0
230
1.0
 70
     8
 71
     3
 72
    23
 73
    19
 74
    17
 42
0.0000000001
 43
0.0000000001
 44
0.00000001
 40
0.0
 40
0.0
 40
0.0
 40
0.0
 40
0.2839833451468923
 40
0.5684767537079809
 40
1.027637368245783
 40
1.486799781447981
 40
1.945711377245414
 40
2.404625024173387
 40
2.86327160766945
 40
3.321920248455347
 40
3.780317791340089
 40
4.238717148485702
 40
4.696911707964206
 40
5.15510761714002
 40
5.613169805245138
 40
6.071232712589741
 40
6.52924917005238
 40
6.987265627514963
 40
6.987265627514963
 40
6.987265627514963
 40
6.987265627514963
 10
165.3086167960204
 20
264.4052939398729
 30
0.0
 10
165.3977904039084
 20
264.3734605259079
 30
0.0
 10
165.5762977846929
 20
264.3097365218791
 30
0.0
 10
165.8905139141754
 20
264.1727645945925
 30
0.0
 10
166.2470732655534
 20
263.9883613046495
 30
0.0
 10
166.6350207679818
 20
263.7417830636369
 30
0.0
 10
167.0001765657667
 20
263.4627388940509
 30
0.0
 10
167.3393394614763
 20
263.1528590994258
 30
0.0
 10
167.6503183123974
 20
262.814827563387
 30
0.0
 10
167.9303457754539
 20
262.4509573286558
 30
0.0
 10
168.1777057807927
 20
262.0642343046732
 30
0.0
 10
168.3900795072759
 20
261.6574187215493
 30
0.0
 10
168.5663101565168
 20
261.2337570644008
 30
0.0
 10
168.7045341514398
 20
260.7963582707813
 30
0.0
 10
168.804416421802
 20
260.3486226114782
 30
0.0
 10
168.8637642679861
 20
259.8939778882343
 30
0.0
 10
168.8862061735636
 20
259.4356072540127
 30
0.0
 10
168.8671453148301
 20
259.1306606152182
 30
0.0
 10
168.8576148854633
 20
258.978187295821
 30
0.0
 11
165.3086167960204
 21
264.4052939398729
 31
0.0
 11
165.5749680313197
 21
264.3067872914913
 31
0.0
 11
165.8360914139608
 21
264.193866617774
 31
0.0
 11
166.243686154337
 21
263.9824547033501
 31
0.0
 11
166.6313019878465
 21
263.7363163534117
 31
0.0
 11
166.9958658562078
 21
263.4575816432609
 31
0.0
 11
167.3347155473536
 21
263.1480939663704
 31
0.0
 11
167.6451778088999
 21
262.8104997236645
 31
0.0
 11
167.9249572317075
 21
262.4470687807493
 31
0.0
 11
168.1718871787536
 21
262.0608642901299
 31
0.0
 11
168.3840893511323
 21
261.6545390402755
 31
0.0
 11
168.5599821507502
 21
261.2314504238152
 31
0.0
 11
168.6981573462691
 21
260.7945853341951
 31
0.0
 11
168.7976625899337
 21
260.3474615541801
 31
0.0
 11
168.8576148854633
 21
259.8933389392998
 31
0.0
 11
168.8777007677215
 21
259.4357631175604
 31
0.0
 11
168.8576148854633
 21
258.978187295821
 31
0.0
  0
SPLINE
  5
7E
330
36
100
AcDbEntity
  8
1
  6
Continuous
 62
     7
100
AcDbSpline
210
0.0
220
0.0
230
1.0
 70
     8
 71
     3
 72
    41
 73
    37
 74
    35
 42
0.0000000001
 43
0.0000000001
 44
0.00000001
 40
0.0
 40
0.0
 40
0.0
 40
0.0
 40
0.458062907344727
 40
0.9161250954499191
 40
1.374321004625758
 40
1.832515564104406
 40
2.290914921250028
 40
2.749312464134642
 40
3.207961104920421
 40
3.666607688416461
 40
4.125521335344434
 40
4.584432931141889
 40
5.043595344344086
 40
5.502755958881838
 40
5.962120941340473
 40
6.421484591837746
 40
6.880981585492436
 40
7.34047787148413
 40
7.800020458108074
 40
8.25956304473196
 40
8.719059330723683
 40
9.178556324378512
 40
9.637919974875894
 40
10.09728495733463
 40
10.55644557187241
 40
11.01560798507463
 40
11.474519580872
 40
11.93343322779989
 40
12.39207981129571
 40
12.85072845208157
 40
13.30912599496631
 40
13.76752535211198
 40
14.22571991159056
 40
14.68391582076631
 40
15.00872288493821
 40
15.33301487822726
 40
15.33301487822726
 40
15.33301487822726
 40
15.33301487822726
 10
168.8576148854633
 20
271.3933389392997
 30
0.0
 10
168.8404314687566
 20
271.5451559381004
 30
0.0
 10
168.8060646623242
 20
271.8487896973223
 30
0.0
 10
168.7040923641801
 20
272.2963134863827
 30
0.0
 10
168.5664285445116
 20
272.733769063384
 30
0.0
 10
168.3900477732821
 20
273.1574155131317
 30
0.0
 10
168.1777142715557
 20
273.5642351335463
 30
0.0
 10
167.9303435502954
 20
273.9509572219996
 30
0.0
 10
167.6503187171115
 20
274.3148271603545
 30
0.0
 10
167.3393400682834
 20
274.6528608185608
 30
0.0
 10
167.0001737316303
 20
274.9627324164289
 30
0.0
 10
166.6350314994708
 20
275.2418072588694
 30
0.0
 10
166.2470331500228
 20
275.4882709479946
 30
0.0
 10
165.8388252502652
 20
275.6999113557286
 30
0.0
 10
165.4137826906942
 20
275.8754839169334
 30
0.0
 10
164.9749137137652
 20
276.0132647314492
 30
0.0
 10
164.5257376352357
 20
276.1126154229799
 30
0.0
 10
164.0695409441515
 20
276.1723556718288
 30
0.0
 10
163.609873891295
 20
276.1924671781554
 30
0.0
 10
163.1502068384372
 20
276.1723556718284
 30
0.0
 10
162.6940101473568
 20
276.1126154229814
 30
0.0
 10
162.2448340688128
 20
276.0132647314437
 30
0.0
 10
161.8059650919371
 20
275.8754839169538
 30
0.0
 10
161.3809225321672
 20
275.6999113556529
 30
0.0
 10
160.9727146331512
 20
275.4882709482766
 30
0.0
 10
160.5847162809358
 20
275.2418072578172
 30
0.0
 10
160.2195740590994
 20
274.9627324203538
 30
0.0
 10
159.8804076839321
 20
274.6528608039161
 30
0.0
 10
159.5694291787621
 20
274.3148272149733
 30
0.0
 10
159.2894038096002
 20
273.9509570182009
 30
0.0
 10
159.0420350875934
 20
273.5642358936709
 30
0.0
 10
158.8296941264848
 20
273.1574126767778
 30
0.0
 10
158.6533411822038
 20
272.7337796435617
 30
0.0
 10
158.528930298602
 20
272.3386907936167
 30
0.0
 10
158.4428447815236
 20
271.9794268087222
 30
0.0
 10
158.4091127601275
 20
271.7656328526762
 30
0.0
 10
158.3922601328892
 20
271.6588206991808
 30
0.0
 11
168.8576148854633
 21
271.3933389392997
 31
0.0
 11
168.7976625899337
 21
271.8474615541801
 31
0.0
 11
168.6981573462689
 21
272.2945853341952
 31
0.0
 11
168.5599821507499
 21
272.7314504238153
 31
0.0
 11
168.3840893511322
 21
273.1545390402758
 31
0.0
 11
168.1718871787537
 21
273.5608642901303
 31
0.0
 11
167.9249572317075
 21
273.9470687807495
 31
0.0
 11
167.6451778088999
 21
274.3104997236645
 31
0.0
 11
167.3347155473536
 21
274.6480939663704
 31
0.0
 11
166.9958658562078
 21
274.9575816432609
 31
0.0
 11
166.6313019878465
 21
275.2363163534117
 31
0.0
 11
166.243686154337
 21
275.4824547033501
 31
0.0
 11
165.8360914139608
 21
275.693866617774
 31
0.0
 11
165.4114953844845
 21
275.8691789073095
 31
0.0
 11
164.9732458709009
 21
276.0068463589527
 31
0.0
 11
164.5245770579755
 21
276.1060117938873
 31
0.0
 11
164.0689804550789
 21
276.1657493220355
 31
0.0
 11
163.6098738912947
 21
276.1857631175601
 31
0.0
 11
163.1507673275106
 21
276.1657493220355
 31
0.0
 11
162.695170724614
 21
276.1060117938873
 31
0.0
 11
162.2465019116884
 21
276.0068463589527
 31
0.0
 11
161.8082523981047
 21
275.8691789073095
 31
0.0
 11
161.3836563686283
 21
275.693866617774
 31
0.0
 11
160.9760616282521
 21
275.4824547033501
 31
0.0
 11
160.5884457947426
 21
275.2363163534117
 31
0.0
 11
160.2238819263814
 21
274.9575816432609
 31
0.0
 11
159.8850322352358
 21
274.6480939663703
 31
0.0
 11
159.5745699736897
 21
274.3104997236645
 31
0.0
 11
159.2947905508822
 21
273.9470687807494
 31
0.0
 11
159.047860603836
 21
273.56086429013
 31
0.0
 11
158.8356584314572
 21
273.1545390402756
 31
0.0
 11
158.6597656318391
 21
272.7314504238153
 31
0.0
 11
158.5215904363202
 21
272.2945853341953
 31
0.0
 11
158.446994259457
 21
271.9784602966969
 31
0.0
 11
158.3922601328892
 21
271.6588206991808
 31
0.0
  0
SPLINE
  5
7F
330
36
100
AcDbEntity
  8
1
  6
Continuous
 62
     7
100
AcDbSpline
210
0.0
220
0.0
230
1.0
 70
     8
 71
     3
 72
    23
 73
    19
 74
    17
 42
0.0000000001
 43
0.0000000001
 44
0.00000001
 40
0.0
 40
0.0
 40
0.0
 40
0.0
 40
0.283701106090944
 40
0.5679120819877805
 40
1.027072696525635
 40
1.486235109727748
 40
1.945146705525112
 40
2.404060352453085
 40
2.862706935949065
 40
3.321355576734962
 40
3.779753119619656
 40
4.23815247676542
 40
4.696347036244029
 40
5.154542945419788
 40
5.61260513352485
 40
6.070668040869453
 40
6.528684498332149
 40
6.986700955794731
 40
6.986700955794731
 40
6.986700955794731
 40
6.986700955794731
 10
165.3091516863119
 20
265.9664138946006
 30
0.0
 10
165.3982337012141
 20
265.9982238461429
 30
0.0
 10
165.5765578298995
 20
266.0619009183168
 30
0.0
 10
165.8905976259301
 20
266.1988047341226
 30
0.0
 10
166.2470732693062
 20
266.3831649962785
 30
0.0
 10
166.6350207669769
 20
266.6297431538615
 30
0.0
 10
167.0001765660359
 20
266.9087873457907
 30
0.0
 10
167.3393394614042
 20
267.2186671344307
 30
0.0
 10
167.6503183124169
 20
267.5566986720722
 30
0.0
 10
167.9303457754487
 20
267.9205689063742
 30
0.0
 10
168.1777057807941
 20
268.3072919304715
 30
0.0
 10
168.3900795072755
 20
268.7141075135648
 30
0.0
 10
168.5663101565169
 20
269.1377691707218
 30
0.0
 10
168.7045341514398
 20
269.575167964339
 30
0.0
 10
168.804416421802
 20
270.0229036236427
 30
0.0
 10
168.8637642679861
 20
270.4775483468862
 30
0.0
 10
168.8862061735635
 20
270.9359189811081
 30
0.0
 10
168.86714531483
 20
271.2408656199025
 30
0.0
 10
168.8576148854633
 20
271.3933389392997
 30
0.0
 11
165.3091516863119
 21
265.9664138946006
 31
0.0
 11
165.5752302806413
 21
266.0648440690234
 31
0.0
 11
165.8360914139608
 21
266.1776596173468
 31
0.0
 11
166.243686154337
 21
266.3890715317708
 31
0.0
 11
166.6313019878465
 21
266.6352098817091
 31
0.0
 11
166.9958658562078
 21
266.9139445918597
 31
0.0
 11
167.3347155473536
 21
267.2234322687503
 31
0.0
 11
167.6451778088999
 21
267.5610265114561
 31
0.0
 11
167.9249572317075
 21
267.9244574543712
 31
0.0
 11
168.1718871787536
 21
268.3106619449906
 31
0.0
 11
168.3840893511323
 21
268.7169871948452
 31
0.0
 11
168.5599821507502
 21
269.1400758113056
 31
0.0
 11
168.6981573462691
 21
269.5769409009256
 31
0.0
 11
168.7976625899337
 21
270.0240646809405
 31
0.0
 11
168.8576148854633
 21
270.4781872958208
 31
0.0
 11
168.8777007677215
 21
270.9357631175603
 31
0.0
 11
168.8576148854633
 21
271.3933389392997
 31
0.0
  0
ENDBLK
  5
38
330
36
100
AcDbEntity
  8
0
100
AcDbBlockEnd
  0
BLOCK
  5
3A
330
39
100
AcDbEntity
  8
0
100
AcDbBlockBegin
  2
36-54-M11
 70
     0
 71
     0
 10
1378.9281349164
 20
705.4476910489889
 30
0.0
  3
36-54-M11
  1

  0
LINE
  5
80
330
39
100
AcDbEntity
  8
1
  6
Continuous
 62
     7
100
AcDbLine
 10
246.2302302904139
 20
269.9357631175603
 30
0.0
 11
243.2327302904139
 21
269.9357631175603
 31
0.0
  0
LINE
  5
81
330
39
100
AcDbEntity
  8
1
  6
PHANTOM
 62
     4
100
AcDbLine
 10
268.2788523462511
 20
265.1857631175603
 30
0.0
 11
232.7580545854648
 21
265.1857631175603
 31
0.0
  0
LINE
  5
82
330
39
100
AcDbEntity
  8
1
  6
Continuous
 62
     7
100
AcDbLine
 10
243.2327302904139
 20
260.4357631175603
 30
0.0
 11
246.2302302904139
 21
260.4357631175603
 31
0.0
  0
LINE
  5
83
330
39
100
AcDbEntity
  8
1
  6
Continuous
 62
     7
100
AcDbLine
 10
282.2302302904139
 20
440.6600216289936
 30
0.0
 11
282.2302302904139
 21
429.7115046061271
 31
0.0
  0
LINE
  5
84
330
39
100
AcDbEntity
  8
1
  6
Continuous
 62
     7
100
AcDbLine
 10
243.2327302904139
 20
430.4357631175601
 30
0.0
 11
246.2302302904138
 21
430.4357631175601
 31
0.0
  0
LINE
  5
85
330
39
100
AcDbEntity
  8
1
  6
PHANTOM
 62
     4
100
AcDbLine
 10
268.278852346251
 20
435.1857631175601
 30
0.0
 11
232.7580545854647
 21
435.1857631175601
 31
0.0
  0
LINE
  5
86
330
39
100
AcDbEntity
  8
1
  6
Continuous
 62
     7
100
AcDbLine
 10
246.2302302904138
 20
439.9357631175601
 30
0.0
 11
243.2327302904139
 21
439.9357631175601
 31
0.0
  0
ENDBLK
  5
3B
330
39
100
AcDbEntity
  8
0
100
AcDbBlockEnd
  0
BLOCK
  5
3D
330
3C
100
AcDbEntity
  8
0
100
AcDbBlockBegin
  2
21-1C
 70
     0
 71
     0
 10
974.3210752757352
 20
771.6896903360208
 30
0.0
  3
21-1C
  1

  0
LINE
  5
87
330
3C
100
AcDbEntity
  8
1
  6
Continuous
 62
     7
100
AcDbLine
 10
147.2855436543598
 20
274.6348564101534
 30
0.0
 11
160.9127883507927
 21
270.9834471986828
 31
0.0
  0
LINE
  5
88
330
3C
100
AcDbEntity
  8
1
  6
Continuous
 62
     7
100
AcDbLine
 10
136.078350252259
 20
281.1053325377163
 30
0.0
 11
126.1025147672967
 21
291.0811680226788
 31
0.0
  0
LINE
  5
89
330
3C
100
AcDbEntity
  8
1
  6
Continuous
 62
     7
100
AcDbLine
 10
119.7157283339135
 20
271.6583683685116
 30
0.0
 11
116.0643191224431
 21
285.2856130649444
 31
0.0
  0
LINE
  5
8A
330
3C
100
AcDbEntity
  8
1
  6
Continuous
 62
     7
100
AcDbLine
 10
119.7157283339135
 20
258.7174161133855
 30
0.0
 11
115.8605424479461
 21
244.3296665143322
 31
0.0
  0
LINE
  5
8B
330
3C
100
AcDbEntity
  8
1
  6
Continuous
 62
     7
100
AcDbLine
 10
136.078350252259
 20
249.2704519441807
 30
0.0
 11
126.1025147672967
 21
239.2946164592182
 31
0.0
  0
LINE
  5
8C
330
3C
100
AcDbEntity
  8
1
  6
Continuous
 62
     7
100
AcDbLine
 10
147.2855436543598
 20
255.7409280717436
 30
0.0
 11
160.9127883507927
 21
259.392337283214
 31
0.0
  0
LINE
  5
8D
330
3C
100
AcDbEntity
  8
1
  6
Continuous
 62
     7
100
AcDbLine
 10
243.2328289823342
 20
238.0351280229494
 30
0.0
 11
243.2328289823342
 21
292.3363982121713
 31
0.0
  0
LINE
  5
8E
330
3C
100
AcDbEntity
  8
1
  6
Continuous
 62
     7
100
AcDbLine
 10
242.6632424318542
 20
292.8315322465422
 30
0.0
 11
239.4477492269834
 21
292.3796241475496
 31
0.0
  0
LINE
  5
8F
330
3C
100
AcDbEntity
  8
1
  6
Continuous
 62
     7
100
AcDbLine
 10
239.4477492269834
 20
237.9919020875709
 30
0.0
 11
242.6632424318542
 21
237.5399939885787
 31
0.0
  0
LINE
  5
90
330
3C
100
AcDbEntity
  8
1
  6
Continuous
 62
     7
100
AcDbLine
 10
243.2327302904141
 20
440.9357631175599
 30
0.0
 11
243.2327302904141
 21
462.2612140085601
 31
0.0
  0
LINE
  5
91
330
3C
100
AcDbEntity
  8
1
  6
Continuous
 62
     7
100
AcDbLine
 10
243.2327302904141
 20
409.1201397990782
 30
0.0
 11
243.2327302904141
 21
440.9357631175599
 31
0.0
  0
LINE
  5
92
330
3C
100
AcDbEntity
  8
1
  6
Continuous
 62
     7
100
AcDbLine
 10
243.2327302904141
 20
408.1103122265595
 30
0.0
 11
243.2327302904141
 21
409.1201397990782
 31
0.0
  0
LINE
  5
93
330
3C
100
AcDbEntity
  8
0
  6
Continuous
 62
     7
100
AcDbLine
 10
238.9530675672769
 20
462.2349308408163
 30
0.0
 11
242.6631437399341
 21
462.7563480429308
 31
0.0
  0
LINE
  5
94
330
3C
100
AcDbEntity
  8
0
  6
Continuous
 62
     7
100
AcDbLine
 10
238.9530675672769
 20
462.2349308408163
 30
0.0
 11
242.6631437399341
 21
462.7563480429308
 31
0.0
  0
LINE
  5
95
330
3C
100
AcDbEntity
  8
0
  6
Continuous
 62
     7
100
AcDbLine
 10
242.6631437399341
 20
407.6151781921888
 30
0.0
 11
238.9530675672769
 21
408.1365953943036
 31
0.0
  0
ARC
  5
96
330
3C
100
AcDbEntity
  8
1
  6
Continuous
 62
     7
100
AcDbCircle
 10
159.3598740801775
 20
265.1878922409485
 30
0.0
 40
6.000000000000121
100
AcDbArc
 50
-74.99999999999938
 51
74.99999999999896
  0
ARC
  5
97
330
3C
100
AcDbEntity
  8
1
  6
Continuous
 62
     7
100
AcDbCircle
 10
121.8598740801775
 20
286.8385273355594
 30
0.0
 40
6.000000000000038
100
AcDbArc
 50
45.00000000000163
 51
-165.0000000000015
  0
ARC
  5
98
330
3C
100
AcDbEntity
  8
1
  6
Continuous
 62
     7
100
AcDbCircle
 10
121.8598740801775
 20
243.5372571463376
 30
0.0
 40
6.000000000000153
100
AcDbArc
 50
172.4757589210599
 51
-45.00000000000144
  0
ARC
  5
99
330
3C
100
AcDbEntity
  8
1
  6
Continuous
 62
     7
100
AcDbCircle
 10
359.6029815226586
 20
263.5486727666711
 30
0.0
 40
127.4948334081409
100
AcDbArc
 50
169.1905067536477
 51
177.4658831052026
  0
ARC
  5
9A
330
3C
100
AcDbEntity
  8
1
  6
Continuous
 62
     7
100
AcDbCircle
 10
359.6029815226586
 20
266.8228534684496
 30
0.0
 40
127.4948334081409
100
AcDbArc
 50
-177.4658831052026
 51
-169.1905067536478
  0
ARC
  5
9B
330
3C
100
AcDbEntity
  8
0
  6
Continuous
 62
     7
100
AcDbCircle
 10
382.2327302904072
 20
435.1857631175591
 30
0.0
 40
149.9999999999931
100
AcDbArc
 50
-178.4719314053895
 51
-171.571199977175
  0
ARC
  5
9C
330
3C
100
AcDbEntity
  8
0
  6
Continuous
 62
     7
100
AcDbCircle
 10
239.7881061730373
 20
414.0782038067529
 30
0.0
 40
6.000000000000072
100
AcDbArc
 50
-171.5711999771737
 51
-98.00000000000034
  0
ARC
  5
9D
330
3C
100
AcDbEntity
  8
0
  6
Continuous
 62
     7
100
AcDbCircle
 10
239.7881061730373
 20
456.2933224283668
 30
0.0
 40
6.000000000000036
100
AcDbArc
 50
98.00000000000019
 51
171.5711999771769
  0
ARC
  5
9E
330
3C
100
AcDbEntity
  8
0
  6
Continuous
 62
     7
100
AcDbCircle
 10
382.2327302904072
 20
435.1857631175606
 30
0.0
 40
149.999999999993
100
AcDbArc
 50
171.5711999771751
 51
178.4719314053895
  0
ARC
  5
9F
330
3C
100
AcDbEntity
  8
1
  6
Continuous
 62
     7
100
AcDbCircle
 10
153.7560197819228
 20
298.7830020673801
 30
0.0
 40
25.00000000000012
100
AcDbArc
 50
-135.0
 51
-105.0
  0
ARC
  5
A0
330
3C
100
AcDbEntity
  8
1
  6
Continuous
 62
     7
100
AcDbCircle
 10
95.56758267668693
 20
265.1878922409485
 30
0.0
 40
24.99999999999986
100
AcDbArc
 50
-14.99999999999995
 51
15.00000000000033
  0
ARC
  5
A1
330
3C
100
AcDbEntity
  8
1
  6
Continuous
 62
     7
100
AcDbCircle
 10
153.7560197819228
 20
231.5927824145169
 30
0.0
 40
24.99999999999999
100
AcDbArc
 50
104.9999999999999
 51
134.9999999999999
  0
ARC
  5
A2
330
3C
100
AcDbEntity
  8
1
  6
Continuous
 62
     7
100
AcDbCircle
 10
242.7328289823342
 20
292.3363982121713
 30
0.0
 40
0.5
100
AcDbArc
 50
0.0
 51
97.99999999999494
  0
ARC
  5
A3
330
3C
100
AcDbEntity
  8
1
  6
Continuous
 62
     7
100
AcDbCircle
 10
240.2827878327438
 20
286.4380157351002
 30
0.0
 40
5.999999999999976
100
AcDbArc
 50
98.0
 51
170.1970982062295
  0
ARC
  5
A4
330
3C
100
AcDbEntity
  8
1
  6
Continuous
 62
     7
100
AcDbCircle
 10
240.2827878327438
 20
243.9335105000205
 30
0.0
 40
5.999999999999856
100
AcDbArc
 50
-170.19709820623
 51
-97.99999999999973
  0
ARC
  5
A5
330
3C
100
AcDbEntity
  8
1
  6
Continuous
 62
     7
100
AcDbCircle
 10
242.7328289823342
 20
238.0351280229494
 30
0.0
 40
0.499999999999934
100
AcDbArc
 50
-97.99999999999857
 51
0.0
  0
ARC
  5
A6
330
3C
100
AcDbEntity
  8
0
  6
Continuous
 62
     7
100
AcDbCircle
 10
242.7327302904141
 20
408.1103122265595
 30
0.0
 40
0.4999999999998777
100
AcDbArc
 50
-97.99999999999946
 51
0.0
  0
ARC
  5
A7
330
3C
100
AcDbEntity
  8
0
  6
Continuous
 62
     7
100
AcDbCircle
 10
242.7327302904141
 20
462.2612140085601
 30
0.0
 40
0.5
100
AcDbArc
 50
0.0
 51
97.99999999999857
  0
ENDBLK
  5
3E
330
3C
100
AcDbEntity
  8
0
100
AcDbBlockEnd
  0
BLOCK
  5
40
330
3F
100
AcDbEntity
  8
0
100
AcDbBlockBegin
  2
42-15
 70
     0
 71
     0
 10
1073.675241735376
 20
746.0231571141251
 30
0.0
  3
42-15
  1

  0
LINE
  5
A8
330
3F
100
AcDbEntity
  8
1
  6
Continuous
 62
     7
100
AcDbLine
 10
229.4303289823343
 20
272.1857631175604
 30
0.0
 11
229.1005632621307
 21
270.9357631175604
 31
0.0
  0
LINE
  5
A9
330
3F
100
AcDbEntity
  8
1
  6
Continuous
 62
     7
100
AcDbLine
 10
229.4303289823343
 20
272.1857631175604
 30
0.0
 11
232.2303289823344
 21
272.1857631175604
 31
0.0
  0
LINE
  5
AA
330
3F
100
AcDbEntity
  8
1
  6
Continuous
 62
     2
100
AcDbLine
 10
230.1440088241127
 20
263.6857631175604
 30
0.0
 11
231.2927351539652
 21
263.6857631175604
 31
0.0
  0
LINE
  5
AB
330
3F
100
AcDbEntity
  8
1
  6
Continuous
 62
     2
100
AcDbLine
 10
229.8987858550485
 20
262.6857631175604
 30
0.0
 11
231.6167797916571
 21
262.6857631175604
 31
0.0
  0
LINE
  5
AC
330
3F
100
AcDbEntity
  8
1
  6
Continuous
 62
     2
100
AcDbLine
 10
229.7061106650696
 20
261.6857631175604
 30
0.0
 11
231.9758562820723
 21
261.6857631175604
 31
0.0
  0
LINE
  5
AD
330
3F
100
AcDbEntity
  8
1
  6
Continuous
 62
     2
100
AcDbLine
 10
229.5747412173566
 20
260.6857631175604
 30
0.0
 11
232.124741656147
 21
260.6857631175604
 31
0.0
  0
LINE
  5
AE
330
3F
100
AcDbEntity
  8
1
  6
Continuous
 62
     7
100
AcDbLine
 10
232.2303289823344
 20
258.1857631175604
 30
0.0
 11
232.2303289823344
 21
272.1857631175604
 31
0.0
  0
LINE
  5
AF
330
3F
100
AcDbEntity
  8
1
  6
Continuous
 62
     2
100
AcDbLine
 10
229.4303289823345
 20
259.6857631175604
 30
0.0
 11
232.2303289823344
 21
259.6857631175604
 31
0.0
  0
LINE
  5
B0
330
3F
100
AcDbEntity
  8
1
  6
Continuous
 62
     2
100
AcDbLine
 10
229.4303289823345
 20
258.6857631175604
 30
0.0
 11
232.2303289823344
 21
258.6857631175604
 31
0.0
  0
LINE
  5
B1
330
3F
100
AcDbEntity
  8
1
  6
Continuous
 62
     7
100
AcDbLine
 10
232.2303289823344
 20
258.1857631175604
 30
0.0
 11
229.4303289823345
 21
258.1857631175604
 31
0.0
  0
LINE
  5
B2
330
3F
100
AcDbEntity
  8
1
  6
Continuous
 62
     7
100
AcDbLine
 10
229.4303289823345
 20
258.1857631175604
 30
0.0
 11
229.1610067833112
 21
259.1857631175604
 31
0.0
  0
LINE
  5
B3
330
3F
100
AcDbEntity
  8
1
  6
Continuous
 62
     2
100
AcDbLine
 10
229.4303289823345
 20
259.1857631175604
 30
0.0
 11
232.2303289823344
 21
259.1857631175604
 31
0.0
  0
LINE
  5
B4
330
3F
100
AcDbEntity
  8
1
  6
Continuous
 62
     2
100
AcDbLine
 10
229.4303289823345
 20
260.1857631175604
 30
0.0
 11
232.2303289823344
 21
260.1857631175604
 31
0.0
  0
LINE
  5
B5
330
3F
100
AcDbEntity
  8
1
  6
Continuous
 62
     2
100
AcDbLine
 10
229.6202553907867
 20
261.1857631175604
 30
0.0
 11
232.0642806698829
 21
261.1857631175604
 31
0.0
  0
LINE
  5
B6
330
3F
100
AcDbEntity
  8
1
  6
Continuous
 62
     2
100
AcDbLine
 10
229.733802488662
 20
262.1857631175604
 30
0.0
 11
231.8696285020967
 21
262.1857631175604
 31
0.0
  0
LINE
  5
B7
330
3F
100
AcDbEntity
  8
1
  6
Continuous
 62
     2
100
AcDbLine
 10
229.9446756704305
 20
263.1857631175604
 30
0.0
 11
231.5127661944886
 21
263.1857631175604
 31
0.0
  0
LINE
  5
B8
330
3F
100
AcDbEntity
  8
1
  6
Continuous
 62
     2
100
AcDbLine
 10
230.1879908801632
 20
264.1857631175604
 30
0.0
 11
231.2532299707737
 21
264.1857631175604
 31
0.0
  0
LINE
  5
B9
330
3F
100
AcDbEntity
  8
1
  6
Continuous
 62
     7
100
AcDbLine
 10
229.4303289823343
 20
272.1857631175604
 30
0.0
 11
229.4303289823345
 21
258.1857631175604
 31
0.0
  0
LINE
  5
BA
330
3F
100
AcDbEntity
  8
1
  6
Continuous
 62
     7
100
AcDbLine
 10
229.4302302904144
 20
442.1857631175602
 30
0.0
 11
229.4302302904146
 21
428.1857631175602
 31
0.0
  0
LINE
  5
BB
330
3F
100
AcDbEntity
  8
1
  6
Continuous
 62
     2
100
AcDbLine
 10
230.1878921882433
 20
434.1857631175602
 30
0.0
 11
231.2531312788537
 21
434.1857631175602
 31
0.0
  0
LINE
  5
BC
330
3F
100
AcDbEntity
  8
1
  6
Continuous
 62
     2
100
AcDbLine
 10
229.9445769785106
 20
433.1857631175602
 30
0.0
 11
231.5126675025687
 21
433.1857631175602
 31
0.0
  0
LINE
  5
BD
330
3F
100
AcDbEntity
  8
1
  6
Continuous
 62
     2
100
AcDbLine
 10
229.7337037967421
 20
432.1857631175602
 30
0.0
 11
231.8695298101768
 21
432.1857631175602
 31
0.0
  0
LINE
  5
BE
330
3F
100
AcDbEntity
  8
1
  6
Continuous
 62
     2
100
AcDbLine
 10
229.6201566988668
 20
431.1857631175602
 30
0.0
 11
232.064181977963
 21
431.1857631175602
 31
0.0
  0
LINE
  5
BF
330
3F
100
AcDbEntity
  8
1
  6
Continuous
 62
     2
100
AcDbLine
 10
229.4302302904146
 20
430.1857631175602
 30
0.0
 11
232.2302302904145
 21
430.1857631175602
 31
0.0
  0
LINE
  5
C0
330
3F
100
AcDbEntity
  8
1
  6
Continuous
 62
     2
100
AcDbLine
 10
229.4302302904146
 20
429.1857631175602
 30
0.0
 11
232.2302302904145
 21
429.1857631175602
 31
0.0
  0
LINE
  5
C1
330
3F
100
AcDbEntity
  8
1
  6
Continuous
 62
     7
100
AcDbLine
 10
229.4302302904146
 20
428.1857631175602
 30
0.0
 11
229.1609080913913
 21
429.1857631175599
 31
0.0
  0
LINE
  5
C2
330
3F
100
AcDbEntity
  8
1
  6
Continuous
 62
     7
100
AcDbLine
 10
232.2302302904145
 20
428.1857631175602
 30
0.0
 11
229.4302302904146
 21
428.1857631175602
 31
0.0
  0
LINE
  5
C3
330
3F
100
AcDbEntity
  8
1
  6
Continuous
 62
     2
100
AcDbLine
 10
229.4302302904146
 20
428.6857631175602
 30
0.0
 11
232.2302302904145
 21
428.6857631175602
 31
0.0
  0
LINE
  5
C4
330
3F
100
AcDbEntity
  8
1
  6
Continuous
 62
     2
100
AcDbLine
 10
229.4302302904146
 20
429.6857631175602
 30
0.0
 11
232.2302302904145
 21
429.6857631175602
 31
0.0
  0
LINE
  5
C5
330
3F
100
AcDbEntity
  8
1
  6
Continuous
 62
     7
100
AcDbLine
 10
232.2302302904145
 20
428.1857631175602
 30
0.0
 11
232.2302302904145
 21
442.1857631175602
 31
0.0
  0
LINE
  5
C6
330
3F
100
AcDbEntity
  8
1
  6
Continuous
 62
     2
100
AcDbLine
 10
229.5746425254367
 20
430.6857631175602
 30
0.0
 11
232.1246429642271
 21
430.6857631175602
 31
0.0
  0
LINE
  5
C7
330
3F
100
AcDbEntity
  8
1
  6
Continuous
 62
     2
100
AcDbLine
 10
229.7060119731497
 20
431.6857631175602
 30
0.0
 11
231.9757575901524
 21
431.6857631175602
 31
0.0
  0
LINE
  5
C8
330
3F
100
AcDbEntity
  8
1
  6
Continuous
 62
     2
100
AcDbLine
 10
229.8986871631286
 20
432.6857631175602
 30
0.0
 11
231.6166810997372
 21
432.6857631175602
 31
0.0
  0
LINE
  5
C9
330
3F
100
AcDbEntity
  8
1
  6
Continuous
 62
     2
100
AcDbLine
 10
230.1439101321928
 20
433.6857631175602
 30
0.0
 11
231.2926364620453
 21
433.6857631175602
 31
0.0
  0
LINE
  5
CA
330
3F
100
AcDbEntity
  8
1
  6
Continuous
 62
     7
100
AcDbLine
 10
229.4302302904144
 20
442.1857631175602
 30
0.0
 11
232.2302302904145
 21
442.1857631175602
 31
0.0
  0
LINE
  5
CB
330
3F
100
AcDbEntity
  8
1
  6
Continuous
 62
     7
100
AcDbLine
 10
229.4302302904144
 20
442.1857631175602
 30
0.0
 11
229.1004645702108
 21
440.9357631175602
 31
0.0
  0
ARC
  5
CC
330
3F
100
AcDbEntity
  8
1
  6
Continuous
 62
     7
100
AcDbCircle
 10
253.4303289823343
 20
265.1857631175604
 30
0.0
 40
24.99999999999988
100
AcDbArc
 50
-166.7029282527909
 51
-166.113459637371
  0
ARC
  5
CD
330
3F
100
AcDbEntity
  8
1
  6
Continuous
 62
     7
100
AcDbCircle
 10
253.4303289823343
 20
265.1857631175604
 30
0.0
 40
24.99999999999988
100
AcDbArc
 50
166.7029282527909
 51
-166.7029282527909
  0
ARC
  5
CE
330
3F
100
AcDbEntity
  8
1
  6
Continuous
 62
     7
100
AcDbCircle
 10
253.4302302904144
 20
435.1857631175602
 30
0.0
 40
25.0
100
AcDbArc
 50
180.0
 51
-166.7029282527909
  0
ARC
  5
CF
330
3F
100
AcDbEntity
  8
1
  6
Continuous
 62
     7
100
AcDbCircle
 10
253.4302302904144
 20
435.1857631175602
 30
0.0
 40
24.99999999999991
100
AcDbArc
 50
-166.7029282527909
 51
-166.1134596373702
  0
ARC
  5
D0
330
3F
100
AcDbEntity
  8
1
  6
Continuous
 62
     7
100
AcDbCircle
 10
253.4302302904144
 20
435.1857631175602
 30
0.0
 40
24.99999999999991
100
AcDbArc
 50
166.7029282527909
 51
180.0
  0
CIRCLE
  5
D1
330
3F
100
AcDbEntity
  8
1
  6
Continuous
 62
     7
100
AcDbCircle
 10
134.1098738912956
 20
265.1857631175605
 30
0.0
 40
7.0
  0
ENDBLK
  5
41
330
3F
100
AcDbEntity
  8
0
100
AcDbBlockEnd
  0
BLOCK
  5
43
330
42
100
AcDbEntity
  8
0
100
AcDbBlockBegin
  2
37-1-13
 70
     0
 71
     0
 10
404.8536138051611
 20
153.3845329007891
 30
0.0
  3
37-1-13
  1

  0
LINE
  5
D2
330
42
100
AcDbEntity
  8
1
  6
Continuous
 62
     7
100
AcDbLine
 10
139.5872602157497
 20
278.1857631175602
 30
0.0
 11
140.532490180628
 21
278.1857631175602
 31
0.0
  0
LINE
  5
D3
330
42
100
AcDbEntity
  8
1
  6
Continuous
 62
     7
100
AcDbLine
 10
142.6603298450326
 20
253.9955872573128
 30
0.0
 11
142.156895995827
 21
253.1236142522388
 31
0.0
  0
LINE
  5
D4
330
42
100
AcDbEntity
  8
1
  6
Continuous
 62
     7
100
AcDbLine
 10
120.4565251745582
 20
262.8340567884048
 30
0.0
 11
119.6402354974316
 21
264.2479119828821
 31
0.0
  0
LINE
  5
D5
330
42
100
AcDbEntity
  8
1
  6
PHANTOM
 62
     4
100
AcDbLine
 10
260.230131614327
 20
435.1857631175603
 30
0.0
 11
262.6561348788451
 21
435.1857631175603
 31
0.0
  0
LINE
  5
D6
330
42
100
AcDbEntity
  8
1
  6
PHANTOM
 62
     4
100
AcDbLine
 10
260.230131614327
 20
435.1857631175603
 30
0.0
 11
244.189499726328
 21
435.1857631175603
 31
0.0
  0
LINE
  5
D7
330
42
100
AcDbEntity
  8
1
  6
Continuous
 62
     7
100
AcDbLine
 10
246.230230290414
 20
429.1857631175602
 30
0.0
 11
246.230230290414
 21
441.1857631175603
 31
0.0
  0
LINE
  5
D8
330
42
100
AcDbEntity
  8
1
  6
Continuous
 62
     7
100
AcDbLine
 10
260.230230290414
 20
422.1857631175604
 30
0.0
 11
260.230230290414
 21
448.1857631175602
 31
0.0
  0
LINE
  5
D9
330
42
100
AcDbEntity
  8
1
  6
Continuous
 62
     7
100
AcDbLine
 10
260.230230290414
 20
448.1857631175602
 30
0.0
 11
253.057989031938
 21
448.1857631175602
 31
0.0
  0
LINE
  5
DA
330
42
100
AcDbEntity
  8
1
  6
Continuous
 62
     7
100
AcDbLine
 10
253.057989031938
 20
422.1857631175604
 30
0.0
 11
260.230230290414
 21
422.1857631175604
 31
0.0
  0
LINE
  5
DB
330
42
100
AcDbEntity
  8
1
  6
Continuous
 62
     7
100
AcDbLine
 10
253.057989031938
 20
425.1857631175604
 30
0.0
 11
253.057989031938
 21
445.1857631175604
 31
0.0
  0
LINE
  5
DC
330
42
100
AcDbEntity
  8
1
  6
Continuous
 62
     7
100
AcDbLine
 10
142.156895995827
 20
277.2479119828821
 30
0.0
 11
142.6568865387027
 21
276.3819029593175
 31
0.0
  0
LINE
  5
DD
330
42
100
AcDbEntity
  8
1
  6
Continuous
 62
     7
100
AcDbLine
 10
140.532490180628
 20
252.1857631175604
 30
0.0
 11
139.5810719596526
 21
252.1857631175604
 31
0.0
  0
LINE
  5
DE
330
42
100
AcDbEntity
  8
1
  6
Continuous
 62
     7
100
AcDbLine
 10
119.6402354974316
 20
266.1236142522388
 30
0.0
 11
120.4568709761882
 21
267.5380683927086
 31
0.0
  0
LINE
  5
DF
330
42
100
AcDbEntity
  8
1
  6
Continuous
 62
     7
100
AcDbLine
 10
246.2303289665005
 20
265.1857631175604
 30
0.0
 11
246.2303289665005
 21
259.1857631175604
 31
0.0
  0
LINE
  5
E0
330
42
100
AcDbEntity
  8
1
  6
Continuous
 62
     7
100
AcDbLine
 10
246.2303289665005
 20
271.1857631175604
 30
0.0
 11
246.2303289665005
 21
265.1857631175604
 31
0.0
  0
LINE
  5
E1
330
42
100
AcDbEntity
  8
1
  6
Continuous
 62
     7
100
AcDbLine
 10
252.7303289665005
 20
265.1857631175604
 30
0.0
 11
252.7303289665005
 21
277.6857631175602
 31
0.0
  0
LINE
  5
E2
330
42
100
AcDbEntity
  8
1
  6
Continuous
 62
     7
100
AcDbLine
 10
252.7303289665005
 20
252.6857631175607
 30
0.0
 11
252.7303289665005
 21
265.1857631175604
 31
0.0
  0
LINE
  5
E3
330
42
100
AcDbEntity
  8
1
  6
Continuous
 62
     7
100
AcDbLine
 10
260.2303289665005
 20
278.2564773318319
 30
0.0
 11
260.2303289665005
 21
264.5636373872291
 31
0.0
  0
LINE
  5
E4
330
42
100
AcDbEntity
  8
1
  6
Continuous
 62
     7
100
AcDbLine
 10
260.2303289665005
 20
265.8078888478914
 30
0.0
 11
260.2303289665005
 21
252.115048903289
 31
0.0
  0
ARC
  5
E5
330
42
100
AcDbEntity
  8
1
  6
Continuous
 62
     7
100
AcDbCircle
 10
232.823775085299
 20
461.0922183226752
 30
0.0
 40
24.00000000000003
100
AcDbArc
 50
-33.95919250009762
 51
-32.53189151774828
  0
ARC
  5
E6
330
42
100
AcDbEntity
  8
1
  6
Continuous
 62
     7
100
AcDbCircle
 10
232.823775085299
 20
409.2793079124455
 30
0.0
 40
24.0000000000001
100
AcDbArc
 50
33.95919250009784
 51
56.04080749990203
  0
ARC
  5
E7
330
42
100
AcDbEntity
  8
1
  6
Continuous
 62
     7
100
AcDbCircle
 10
232.823775085299
 20
461.0922183226752
 30
0.0
 40
24.0
100
AcDbArc
 50
-56.04080749990227
 51
-33.95919250009762
  0
ARC
  5
E8
330
42
100
AcDbEntity
  8
1
  6
Continuous
 62
     7
100
AcDbCircle
 10
232.823775085299
 20
409.2793079124455
 30
0.0
 40
23.99999999999995
100
AcDbArc
 50
32.53189151774804
 51
33.95919250009784
  0
ARC
  5
E9
330
42
100
AcDbEntity
  8
1
  6
Continuous
 62
     7
100
AcDbCircle
 10
134.1098738912956
 20
265.1857631175604
 30
0.0
 40
14.49999999999991
100
AcDbArc
 50
-63.70844472527113
 51
-56.29155527472903
  0
ARC
  5
EA
330
42
100
AcDbEntity
  8
1
  6
Continuous
 62
     7
100
AcDbCircle
 10
134.1098738912956
 20
265.1857631175604
 30
0.0
 40
14.49999999999999
100
AcDbArc
 50
180.0
 51
-176.2915552747293
  0
ARC
  5
EB
330
42
100
AcDbEntity
  8
1
  6
Continuous
 62
     7
100
AcDbCircle
 10
134.1098738912956
 20
265.1857631175604
 30
0.0
 40
14.50000000000001
100
AcDbArc
 50
176.2915552747288
 51
180.0
  0
ARC
  5
EC
330
42
100
AcDbEntity
  8
1
  6
Continuous
 62
     7
100
AcDbCircle
 10
134.1098738912956
 20
265.1857631175604
 30
0.0
 40
14.49999999999997
100
AcDbArc
 50
56.29155527472934
 51
63.70844472527089
  0
ARC
  5
ED
330
42
100
AcDbEntity
  8
1
  6
Continuous
 62
     7
100
AcDbCircle
 10
232.823873761386
 20
239.2793079124457
 30
0.0
 40
23.99999999999969
100
AcDbArc
 50
33.95919250009823
 51
56.04080749990305
  0
ARC
  5
EE
330
42
100
AcDbEntity
  8
1
  6
Continuous
 62
     7
100
AcDbCircle
 10
232.823873761386
 20
291.0922183226754
 30
0.0
 40
23.99999999999986
100
AcDbArc
 50
-56.0408074999035
 51
-33.95919250009863
  0
ARC
  5
EF
330
42
100
AcDbEntity
  8
1
  6
Continuous
 62
     7
100
AcDbCircle
 10
256.7303289665005
 20
274.6857631175604
 30
0.0
 40
5.000000000000057
100
AcDbArc
 50
45.57299599919494
 51
143.1301023541575
  0
ARC
  5
F0
330
42
100
AcDbEntity
  8
1
  6
Continuous
 62
     7
100
AcDbCircle
 10
256.7303289665005
 20
255.6857631175604
 30
0.0
 40
4.99999999999983
100
AcDbArc
 50
-143.1301023541586
 51
-45.57299599919425
  0
SPLINE
  5
F1
330
42
100
AcDbEntity
  8
1
  6
Continuous
 62
     7
100
AcDbSpline
210
0.0
220
0.0
230
1.0
 70
     8
 71
     3
 72
    29
 73
    25
 74
    23
 42
0.0000000001
 43
0.0000000001
 44
0.00000001
 40
0.0
 40
0.0
 40
0.0
 40
0.0
 40
0.606907713175939
 40
1.212222625822696
 40
1.842666707826856
 40
2.474631900595644
 40
3.102420172365373
 40
3.729333891456146
 40
4.271042939833007
 40
4.812985328221034
 40
5.340107980728485
 40
5.866248927280507
 40
6.263874837343538
 40
6.661485236222537
 40
7.280966497569144
 40
7.902596738528358
 40
8.549168915178939
 40
9.195896772489228
 40
9.722415974179331
 40
10.24911841725738
 40
11.07897537274041
 40
11.9073220784666
 40
12.67331709995058
 40
13.4419127118585
 40
13.4419127118585
 40
13.4419127118585
 40
13.4419127118585
 10
253.2303289665005
 20
265.1857631175604
 30
0.0
 10
253.2402043399628
 20
265.3878229471179
 30
0.0
 10
253.2599291694378
 20
265.7914123097866
 30
0.0
 10
253.3237195234912
 20
266.4031178601253
 30
0.0
 10
253.4579028208084
 20
267.0125349220152
 30
0.0
 10
253.658358441493
 20
267.6109410975206
 30
0.0
 10
253.9169195583112
 20
268.185503629416
 30
0.0
 10
254.2258489480823
 20
268.7004014270874
 30
0.0
 10
254.579665872657
 20
269.1494203010858
 30
0.0
 10
254.9676905408198
 20
269.5233619035772
 30
0.0
 10
255.4046209445828
 20
269.8303278050373
 30
0.0
 10
255.8448349116831
 20
270.0376364625711
 30
0.0
 10
256.2715440323678
 20
270.1535390508417
 30
0.0
 10
256.7424594748699
 20
270.2042422557364
 30
0.0
 10
257.2914340679139
 20
270.1437859324582
 30
0.0
 10
257.8891801341339
 20
269.9308387007115
 30
0.0
 10
258.4307823801323
 20
269.5836017633652
 30
0.0
 10
258.87139034827
 20
269.1622440375329
 30
0.0
 10
259.221264271907
 20
268.7148305472758
 30
0.0
 10
259.5501746548961
 20
268.1789941613531
 30
0.0
 10
259.8539132765233
 20
267.5141031114396
 30
0.0
 10
260.0786831418664
 20
266.7344420499658
 30
0.0
 10
260.1830699472758
 20
265.9520364316562
 30
0.0
 10
260.2144924260246
 20
265.4414759622937
 30
0.0
 10
260.230230290414
 20
265.1857631175604
 30
0.0
 11
253.2303289665005
 21
265.1857631175604
 31
0.0
 11
253.2655298322629
 21
265.7916491393186
 31
0.0
 11
253.3338868243472
 21
266.3930919588
 31
0.0
 11
253.4685633101717
 21
267.0089831705412
 31
0.0
 11
253.6686282021169
 21
267.60844463209
 31
0.0
 11
253.9280094403673
 21
268.1801434054098
 31
0.0
 11
254.2522293951451
 21
268.7167086224227
 31
0.0
 11
254.588838535126
 21
269.141141161202
 31
0.0
 11
254.9803289665005
 21
269.5158901364827
 31
0.0
 11
255.4126741277193
 21
269.8174460224428
 31
0.0
 11
255.8896765133358
 21
270.0394663362766
 31
0.0
 11
256.2735255434654
 21
270.1432270534195
 31
0.0
 11
256.6689370892795
 21
270.1849851512403
 31
0.0
 11
257.2850415434894
 21
270.1203915396189
 31
0.0
 11
257.8709757137662
 21
269.9127733694674
 31
0.0
 11
258.4175773476802
 21
269.5674007686125
 31
0.0
 11
258.8875533277605
 21
269.1231266420097
 31
0.0
 11
259.2130279753317
 21
268.709256223235
 31
0.0
 11
259.4899334735114
 21
268.2612173760105
 31
0.0
 11
259.8348955616889
 21
267.5064566693731
 31
0.0
 11
260.0635730514354
 21
266.7103003589851
 31
0.0
 11
260.1738931804501
 21
265.9522912283854
 31
0.0
 11
260.230230290414
 21
265.1857631175604
 31
0.0
  0
SPLINE
  5
F2
330
42
100
AcDbEntity
  8
1
  6
Continuous
 62
     7
100
AcDbSpline
210
0.0
220
0.0
230
1.0
 70
     8
 71
     3
 72
    29
 73
    25
 74
    23
 42
0.0000000001
 43
0.0000000001
 44
0.00000001
 40
0.0
 40
0.0
 40
0.0
 40
0.0
 40
0.6069077131758254
 40
1.212222625822526
 40
1.842666707826748
 40
2.474631900595472
 40
3.102420172365333
 40
3.729333891456282
 40
4.271042939833089
 40
4.812985328220957
 40
5.340107980728408
 40
5.866248927280429
 40
6.263874837343445
 40
6.661485236222443
 40
7.28096649756905
 40
7.902596738528188
 40
8.5491689151788
 40
9.195896772489167
 40
9.722415974179137
 40
10.24911841725699
 40
11.07897537274028
 40
11.9073220784666
 40
12.67331709995051
 40
13.44191271185838
 40
13.44191271185838
 40
13.44191271185838
 40
13.44191271185838
 10
253.2303289665005
 20
265.1857631175604
 30
0.0
 10
253.2402043399628
 20
264.9837032880029
 30
0.0
 10
253.259929169438
 20
264.5801139253342
 30
0.0
 10
253.3237195234911
 20
263.9684083749958
 30
0.0
 10
253.4579028208085
 20
263.3589913131057
 30
0.0
 10
253.6583584414931
 20
262.7605851376003
 30
0.0
 10
253.916919558311
 20
262.1860226057047
 30
0.0
 10
254.2258489480823
 20
261.6711248080333
 30
0.0
 10
254.5796658726569
 20
261.222105934035
 30
0.0
 10
254.9676905408199
 20
260.8481643315438
 30
0.0
 10
255.4046209445828
 20
260.5411984300836
 30
0.0
 10
255.8448349116831
 20
260.3338897725498
 30
0.0
 10
256.2715440323679
 20
260.2179871842793
 30
0.0
 10
256.7424594748699
 20
260.1672839793845
 30
0.0
 10
257.2914340679139
 20
260.2277403026627
 30
0.0
 10
257.8891801341339
 20
260.4406875344092
 30
0.0
 10
258.4307823801324
 20
260.7879244717554
 30
0.0
 10
258.87139034827
 20
261.209282197588
 30
0.0
 10
259.2212642719069
 20
261.6566956878449
 30
0.0
 10
259.5501746548962
 20
262.1925320737676
 30
0.0
 10
259.8539132765233
 20
262.8574231236809
 30
0.0
 10
260.0786831418664
 20
263.6370841851551
 30
0.0
 10
260.1830699472756
 20
264.4194898034646
 30
0.0
 10
260.2144924260246
 20
264.9300502728272
 30
0.0
 10
260.230230290414
 20
265.1857631175604
 30
0.0
 11
253.2303289665005
 21
265.1857631175604
 31
0.0
 11
253.2655298322629
 21
264.5798770958023
 31
0.0
 11
253.3338868243472
 21
263.9784342763209
 31
0.0
 11
253.4685633101717
 21
263.3625430645797
 31
0.0
 11
253.6686282021169
 21
262.7630816030309
 31
0.0
 11
253.9280094403672
 21
262.191382829711
 31
0.0
 11
254.2522293951451
 21
261.6548176126979
 31
0.0
 11
254.5888385351261
 21
261.2303850739187
 31
0.0
 11
254.9803289665005
 21
260.8556360986382
 31
0.0
 11
255.4126741277193
 21
260.5540802126781
 31
0.0
 11
255.8896765133358
 21
260.3320598988443
 31
0.0
 11
256.2735255434654
 21
260.2282991817014
 31
0.0
 11
256.6689370892795
 21
260.1865410838806
 31
0.0
 11
257.2850415434894
 21
260.2511346955021
 31
0.0
 11
257.8709757137662
 21
260.4587528656533
 31
0.0
 11
258.4175773476802
 21
260.8041254665083
 31
0.0
 11
258.8875533277605
 21
261.2483995931112
 31
0.0
 11
259.2130279753317
 21
261.6622700118858
 31
0.0
 11
259.4899334735114
 21
262.11030885911
 31
0.0
 11
259.8348955616891
 21
262.8650695657476
 31
0.0
 11
260.0635730514354
 21
263.6612258761358
 31
0.0
 11
260.17389318045
 21
264.4192350067354
 31
0.0
 11
260.230230290414
 21
265.1857631175604
 31
0.0
  0
SPLINE
  5
F3
330
42
100
AcDbEntity
  8
1
  6
Continuous
 62
     7
100
AcDbSpline
210
0.0
220
0.0
230
1.0
 70
    11
 71
     3
 72
    79
 73
    75
 74
    73
 42
0.0000000001
 43
0.0000000001
 44
0.00000001
 40
0.0
 40
0.0
 40
0.0
 40
0.0
 40
0.2803981145479042
 40
0.5607977859032262
 40
0.842745484146683
 40
1.124697473048357
 40
1.409536451637887
 40
1.694381500885674
 40
1.983071310124999
 40
2.271767843422692
 40
2.564776142200757
 40
2.85779085454642
 40
3.155055698552597
 40
3.452325978930452
 40
3.753284827389335
 40
4.054247742882438
 40
4.357919806975402
 40
4.661594368328611
 40
4.966700748943084
 40
5.271807969838973
 40
5.576915190735088
 40
5.882021571349786
 40
6.185696132703057
 40
6.489368196796012
 40
6.79033111228887
 40
7.091289960747522
 40
7.388560241125706
 40
7.685825085132132
 40
7.978839797477726
 40
8.271848096255711
 40
8.560544629553517
 40
8.849234438792964
 40
9.134079488040758
 40
9.418918466630293
 40
9.700870455531938
 40
9.98281815377532
 40
10.26321782513057
 40
10.54361593967849
 40
10.82401405422642
 40
11.10441372558178
 40
11.38636142382535
 40
11.66831341272711
 40
11.95315239131669
 40
12.23799744056444
 40
12.52668724980387
 40
12.8153837831017
 40
13.10839208187958
 40
13.40140679422508
 40
13.69867163823151
 40
13.99594191860969
 40
14.29690076706844
 40
14.59786368256133
 40
14.9015357466543
 40
15.20521030800748
 40
15.5103166886222
 40
15.81542390951832
 40
16.12053113041421
 40
16.4256375110287
 40
16.72931207238188
 40
17.0329841364748
 40
17.33394705196793
 40
17.63490590042691
 40
17.9321761808048
 40
18.22944102481094
 40
18.5224557371565
 40
18.81546403593447
 40
19.10416056923214
 40
19.39285037847148
 40
19.67769542771921
 40
19.96253440630881
 40
20.24448639521065
 40
20.52643409345424
 40
20.80683376480965
 40
21.08723187935758
 40
21.08723187935758
 40
21.08723187935758
 40
21.08723187935758
 10
253.2303289665005
 20
253.9274328683626
 30
0.0
 10
253.2329103523898
 20
253.8339323253091
 30
0.0
 10
253.2380731385004
 20
253.6469307200746
 30
0.0
 10
253.2795454885494
 20
253.3684463068346
 30
0.0
 10
253.3454456489422
 20
253.0945041104324
 30
0.0
 10
253.4376777581764
 20
252.8265759450971
 30
0.0
 10
253.5547599475354
 20
252.5675301575369
 30
0.0
 10
253.6962362291145
 20
252.318370863384
 30
0.0
 10
253.8605185751075
 20
252.0820608432061
 30
0.0
 10
254.046978723324
 20
251.859285849288
 30
0.0
 10
254.2534031982612
 20
251.6528298169899
 30
0.0
 10
254.4791208926978
 20
251.4632170733496
 30
0.0
 10
254.7214116910463
 20
251.2928178974239
 30
0.0
 10
254.9794691838862
 20
251.1421050898159
 30
0.0
 10
255.2502963873682
 20
251.0128819532906
 30
0.0
 10
255.5328132408649
 20
250.9056022801061
 30
0.0
 10
255.824001211458
 20
250.8214477765507
 30
0.0
 10
256.1223799843727
 20
250.7608045027196
 30
0.0
 10
256.425140956253
 20
250.7242707404485
 30
0.0
 10
256.7303289665009
 20
250.7120517097118
 30
0.0
 10
257.0355169767473
 20
250.7242707404485
 30
0.0
 10
257.3382779486323
 20
250.7608045027196
 30
0.0
 10
257.6366567215302
 20
250.8214477765508
 30
0.0
 10
257.9278446921859
 20
250.9056022801061
 30
0.0
 10
258.2103615454507
 20
251.0128819532907
 30
0.0
 10
258.4811887497922
 20
251.1421050898161
 30
0.0
 10
258.7392462394616
 20
251.2928178974238
 30
0.0
 10
258.9815370495572
 20
251.4632170733495
 30
0.0
 10
259.2072547007551
 20
251.6528298169899
 30
0.0
 10
259.4136793357816
 20
251.859285849288
 30
0.0
 10
259.6001388949591
 20
252.0820608432063
 30
0.0
 10
259.76442342267
 20
252.3183708633839
 30
0.0
 10
259.9058916657401
 20
252.5675301575368
 30
0.0
 10
260.0230036693415
 20
252.826575945097
 30
0.0
 10
260.1151255878144
 20
253.0945041104324
 30
0.0
 10
260.1814353533821
 20
253.3684463068347
 30
0.0
 10
260.2213870184776
 20
253.6469307200747
 30
0.0
 10
260.2347999281002
 20
253.9274328683625
 30
0.0
 10
260.2213870184776
 20
254.2079350166505
 30
0.0
 10
260.181435353382
 20
254.4864194298907
 30
0.0
 10
260.1151255878143
 20
254.760361626293
 30
0.0
 10
260.0230036693415
 20
255.0282897916284
 30
0.0
 10
259.9058916657401
 20
255.2873355791889
 30
0.0
 10
259.76442342267
 20
255.5364948733416
 30
0.0
 10
259.600138894959
 20
255.7728048935196
 30
0.0
 10
259.4136793357816
 20
255.9955798874374
 30
0.0
 10
259.207254700755
 20
256.2020359197355
 30
0.0
 10
258.9815370495572
 20
256.3916486633759
 30
0.0
 10
258.7392462394615
 20
256.5620478393014
 30
0.0
 10
258.4811887497922
 20
256.7127606469092
 30
0.0
 10
258.2103615454507
 20
256.8419837834349
 30
0.0
 10
257.927844692186
 20
256.9492634566196
 30
0.0
 10
257.6366567215301
 20
257.0334179601746
 30
0.0
 10
257.3382779486322
 20
257.0940612340057
 30
0.0
 10
257.0355169767473
 20
257.1305949962771
 30
0.0
 10
256.7303289665008
 20
257.1428140270139
 30
0.0
 10
256.425140956253
 20
257.1305949962771
 30
0.0
 10
256.1223799843727
 20
257.0940612340057
 30
0.0
 10
255.824001211458
 20
257.0334179601747
 30
0.0
 10
255.5328132408649
 20
256.9492634566196
 30
0.0
 10
255.2502963873681
 20
256.8419837834349
 30
0.0
 10
254.9794691838862
 20
256.7127606469094
 30
0.0
 10
254.7214116910465
 20
256.5620478393013
 30
0.0
 10
254.4791208926976
 20
256.3916486633757
 30
0.0
 10
254.2534031982613
 20
256.2020359197355
 30
0.0
 10
254.0469787233238
 20
255.9955798874375
 30
0.0
 10
253.8605185751076
 20
255.7728048935196
 30
0.0
 10
253.6962362291146
 20
255.5364948733416
 30
0.0
 10
253.5547599475353
 20
255.2873355791888
 30
0.0
 10
253.4376777581763
 20
255.0282897916284
 30
0.0
 10
253.3454456489423
 20
254.760361626293
 30
0.0
 10
253.2795454885494
 20
254.4864194298907
 30
0.0
 10
253.2380731385005
 20
254.2079350166505
 30
0.0
 10
253.2329103523898
 20
254.0209334114161
 30
0.0
 10
253.2303289665005
 20
253.9274328683626
 30
0.0
 11
253.2303289665005
 21
253.9274328683626
 31
0.0
 11
253.2436817517987
 21
253.647352869493
 31
0.0
 11
253.2835018309579
 21
253.3697950611144
 31
0.0
 11
253.349761413682
 21
253.0957436567356
 31
0.0
 11
253.4414047937502
 21
252.8291007964612
 31
0.0
 11
253.5586527940354
 21
252.5695123719253
 31
0.0
 11
253.6992400532553
 21
252.3217787960297
 31
0.0
 11
253.8639372486073
 21
252.0846783114207
 31
0.0
 11
254.0491734155843
 21
251.8632437820858
 31
0.0
 11
254.2562662924996
 21
251.655960392776
 31
0.0
 11
254.480572332598
 21
251.4674281089984
 31
0.0
 11
254.7236671632986
 21
251.2963395624248
 31
0.0
 11
254.9803289665005
 21
251.1463584357019
 31
0.0
 11
255.2519171864717
 21
251.0166816558276
 31
0.0
 11
255.5332584648608
 21
250.9097903017502
 31
0.0
 11
255.8249759484062
 21
250.8254242404198
 31
0.0
 11
256.1225603446664
 21
250.764911710184
 31
0.0
 11
256.4254660792006
 21
250.7283327616212
 31
0.0
 11
256.7303289665005
 21
250.7161247236965
 31
0.0
 11
257.0351918538007
 21
250.7283327616212
 31
0.0
 11
257.3380975883351
 21
250.764911710184
 31
0.0
 11
257.6356819845953
 21
250.8254242404198
 31
0.0
 11
257.9273994681407
 21
250.9097903017502
 31
0.0
 11
258.2087407465295
 21
251.0166816558276
 31
0.0
 11
258.4803289665005
 21
251.1463584357019
 31
0.0
 11
258.7369907697028
 21
251.2963395624248
 31
0.0
 11
258.9800856004037
 21
251.4674281089984
 31
0.0
 11
259.204391640502
 21
251.655960392776
 31
0.0
 11
259.4114845174172
 21
251.8632437820858
 31
0.0
 11
259.5967206843944
 21
252.0846783114207
 31
0.0
 11
259.7614178797466
 21
252.3217787960297
 31
0.0
 11
259.9020051389666
 21
252.5695123719252
 31
0.0
 11
260.0192531392517
 21
252.8291007964612
 31
0.0
 11
260.1108965193197
 21
253.0957436567356
 31
0.0
 11
260.1771561020436
 21
253.3697950611144
 31
0.0
 11
260.2169761812025
 21
253.647352869493
 31
0.0
 11
260.2303289665005
 21
253.9274328683626
 31
0.0
 11
260.2169761812025
 21
254.2075128672322
 31
0.0
 11
260.1771561020436
 21
254.4850706756109
 31
0.0
 11
260.1108965193197
 21
254.7591220799899
 31
0.0
 11
260.0192531392517
 21
255.0257649402644
 31
0.0
 11
259.9020051389666
 21
255.2853533648004
 31
0.0
 11
259.7614178797466
 21
255.5330869406959
 31
0.0
 11
259.5967206843944
 21
255.7701874253049
 31
0.0
 11
259.4114845174172
 21
255.9916219546398
 31
0.0
 11
259.204391640502
 21
256.1989053439494
 31
0.0
 11
258.9800856004037
 21
256.3874376277269
 31
0.0
 11
258.7369907697027
 21
256.5585261743004
 31
0.0
 11
258.4803289665005
 21
256.7085073010234
 31
0.0
 11
258.2087407465295
 21
256.8381840808979
 31
0.0
 11
257.9273994681407
 21
256.9450754349754
 31
0.0
 11
257.6356819845952
 21
257.0294414963057
 31
0.0
 11
257.3380975883351
 21
257.0899540265413
 31
0.0
 11
257.0351918538007
 21
257.1265329751043
 31
0.0
 11
256.7303289665005
 21
257.1387410130291
 31
0.0
 11
256.4254660792006
 21
257.1265329751043
 31
0.0
 11
256.1225603446664
 21
257.0899540265413
 31
0.0
 11
255.8249759484062
 21
257.0294414963057
 31
0.0
 11
255.5332584648608
 21
256.9450754349754
 31
0.0
 11
255.2519171864717
 21
256.838184080898
 31
0.0
 11
254.9803289665005
 21
256.7085073010234
 31
0.0
 11
254.7236671632986
 21
256.5585261743004
 31
0.0
 11
254.480572332598
 21
256.3874376277269
 31
0.0
 11
254.2562662924997
 21
256.1989053439494
 31
0.0
 11
254.0491734155843
 21
255.9916219546398
 31
0.0
 11
253.8639372486073
 21
255.770187425305
 31
0.0
 11
253.6992400532553
 21
255.5330869406959
 31
0.0
 11
253.5586527940354
 21
255.2853533648004
 31
0.0
 11
253.4414047937502
 21
255.0257649402644
 31
0.0
 11
253.349761413682
 21
254.7591220799899
 31
0.0
 11
253.2835018309579
 21
254.4850706756109
 31
0.0
 11
253.2436817517987
 21
254.2075128672322
 31
0.0
 11
253.2303289665005
 21
253.9274328683626
 31
0.0
  0
SPLINE
  5
F4
330
42
100
AcDbEntity
  8
1
  6
Continuous
 62
     7
100
AcDbSpline
210
0.0
220
0.0
230
1.0
 70
    11
 71
     3
 72
    79
 73
    75
 74
    73
 42
0.0000000001
 43
0.0000000001
 44
0.00000001
 40
0.0
 40
0.0
 40
0.0
 40
0.0
 40
0.280398114547961
 40
0.5607977859033673
 40
0.8427454841468309
 40
1.124697473048469
 40
1.409536451638103
 40
1.694381500885816
 40
1.98307131012514
 40
2.271767843422833
 40
2.564776142200898
 40
2.857790854546561
 40
3.155055698552738
 40
3.452325978930594
 40
3.753284827389476
 40
4.054247742882569
 40
4.357919806975501
 40
4.661594368328715
 40
4.966700748943201
 40
5.271807969839088
 40
5.576915190735202
 40
5.882021571349914
 40
6.185696132703162
 40
6.489368196796126
 40
6.790331112288953
 40
7.091289960747631
 40
7.38856024112583
 40
7.685825085132239
 40
7.978839797477779
 40
8.271848096255823
 40
8.560544629553608
 40
8.849234438793078
 40
9.134079488040847
 40
9.418918466630434
 40
9.700870455532025
 40
9.982818153775435
 40
10.26321782513074
 40
10.54361593967875
 40
10.82401405422665
 40
11.10441372558189
 40
11.38636142382547
 40
11.66831341272722
 40
11.95315239131678
 40
12.23799744056457
 40
12.526687249804
 40
12.81538378310178
 40
13.10839208187966
 40
13.40140679422516
 40
13.69867163823165
 40
13.99594191860989
 40
14.29690076706861
 40
14.59786368256144
 40
14.90153574665443
 40
15.20521030800761
 40
15.51031668862232
 40
15.81542390951844
 40
16.12053113041434
 40
16.42563751102882
 40
16.72931207238203
 40
17.03298413647493
 40
17.33394705196798
 40
17.63490590042696
 40
17.9321761808049
 40
18.22944102481111
 40
18.52245573715669
 40
18.81546403593464
 40
19.10416056923229
 40
19.39285037847161
 40
19.67769542771937
 40
19.96253440630895
 40
20.24448639521077
 40
20.52643409345439
 40
20.80683376480968
 40
21.08723187935759
 40
21.08723187935759
 40
21.08723187935759
 40
21.08723187935759
 10
253.2303289665005
 20
276.4440933667582
 30
0.0
 10
253.2329103523897
 20
276.5375939098117
 30
0.0
 10
253.2380731385005
 20
276.7245955150462
 30
0.0
 10
253.2795454885493
 20
277.0030799282862
 30
0.0
 10
253.3454456489423
 20
277.2770221246885
 30
0.0
 10
253.4376777581764
 20
277.5449502900239
 30
0.0
 10
253.5547599475353
 20
277.8039960775841
 30
0.0
 10
253.6962362291145
 20
278.0531553717369
 30
0.0
 10
253.8605185751076
 20
278.2894653919149
 30
0.0
 10
254.0469787233239
 20
278.5122403858329
 30
0.0
 10
254.2534031982612
 20
278.718696418131
 30
0.0
 10
254.4791208926977
 20
278.9083091617714
 30
0.0
 10
254.7214116910463
 20
279.078708337697
 30
0.0
 10
254.9794691838862
 20
279.2294211453049
 30
0.0
 10
255.2502963873682
 20
279.3586442818304
 30
0.0
 10
255.5328132408648
 20
279.4659239550147
 30
0.0
 10
255.8240012114581
 20
279.5500784585701
 30
0.0
 10
256.1223799843728
 20
279.6107217324012
 30
0.0
 10
256.425140956253
 20
279.6472554946725
 30
0.0
 10
256.7303289665009
 20
279.659474525409
 30
0.0
 10
257.0355169767473
 20
279.6472554946724
 30
0.0
 10
257.3382779486323
 20
279.6107217324013
 30
0.0
 10
257.6366567215302
 20
279.5500784585701
 30
0.0
 10
257.9278446921859
 20
279.4659239550148
 30
0.0
 10
258.2103615454507
 20
279.3586442818303
 30
0.0
 10
258.4811887497924
 20
279.2294211453049
 30
0.0
 10
258.7392462394615
 20
279.078708337697
 30
0.0
 10
258.9815370495572
 20
278.9083091617716
 30
0.0
 10
259.2072547007551
 20
278.7186964181311
 30
0.0
 10
259.4136793357816
 20
278.5122403858329
 30
0.0
 10
259.6001388949588
 20
278.2894653919148
 30
0.0
 10
259.7644234226702
 20
278.0531553717372
 30
0.0
 10
259.90589166574
 20
277.8039960775841
 30
0.0
 10
260.0230036693415
 20
277.5449502900238
 30
0.0
 10
260.1151255878144
 20
277.2770221246884
 30
0.0
 10
260.1814353533821
 20
277.0030799282862
 30
0.0
 10
260.2213870184776
 20
276.7245955150461
 30
0.0
 10
260.2347999281002
 20
276.4440933667582
 30
0.0
 10
260.2213870184776
 20
276.1635912184703
 30
0.0
 10
260.181435353382
 20
275.8851068052302
 30
0.0
 10
260.1151255878144
 20
275.6111646088278
 30
0.0
 10
260.0230036693416
 20
275.3432364434925
 30
0.0
 10
259.9058916657399
 20
275.0841906559321
 30
0.0
 10
259.7644234226702
 20
274.8350313617792
 30
0.0
 10
259.6001388949588
 20
274.5987213416014
 30
0.0
 10
259.4136793357817
 20
274.3759463476834
 30
0.0
 10
259.207254700755
 20
274.1694903153856
 30
0.0
 10
258.9815370495572
 20
273.979877571745
 30
0.0
 10
258.7392462394614
 20
273.8094783958195
 30
0.0
 10
258.4811887497922
 20
273.6587655882115
 30
0.0
 10
258.2103615454508
 20
273.5295424516859
 30
0.0
 10
257.927844692186
 20
273.4222627785015
 30
0.0
 10
257.6366567215301
 20
273.3381082749461
 30
0.0
 10
257.3382779486323
 20
273.2774650011152
 30
0.0
 10
257.0355169767473
 20
273.2409312388439
 30
0.0
 10
256.7303289665008
 20
273.2287122081071
 30
0.0
 10
256.425140956253
 20
273.2409312388439
 30
0.0
 10
256.1223799843727
 20
273.2774650011151
 30
0.0
 10
255.824001211458
 20
273.3381082749463
 30
0.0
 10
255.532813240865
 20
273.4222627785016
 30
0.0
 10
255.2502963873681
 20
273.5295424516857
 30
0.0
 10
254.9794691838862
 20
273.6587655882114
 30
0.0
 10
254.7214116910465
 20
273.8094783958195
 30
0.0
 10
254.4791208926977
 20
273.9798775717451
 30
0.0
 10
254.2534031982613
 20
274.1694903153856
 30
0.0
 10
254.0469787233238
 20
274.3759463476833
 30
0.0
 10
253.8605185751076
 20
274.5987213416015
 30
0.0
 10
253.6962362291145
 20
274.8350313617792
 30
0.0
 10
253.5547599475354
 20
275.0841906559321
 30
0.0
 10
253.4376777581763
 20
275.3432364434925
 30
0.0
 10
253.3454456489422
 20
275.6111646088279
 30
0.0
 10
253.2795454885495
 20
275.8851068052303
 30
0.0
 10
253.2380731385004
 20
276.1635912184703
 30
0.0
 10
253.2329103523898
 20
276.3505928237047
 30
0.0
 10
253.2303289665005
 20
276.4440933667582
 30
0.0
 11
253.2303289665005
 21
276.4440933667582
 31
0.0
 11
253.2436817517987
 21
276.7241733656279
 31
0.0
 11
253.2835018309579
 21
277.0017311740065
 31
0.0
 11
253.349761413682
 21
277.2757825783854
 31
0.0
 11
253.4414047937502
 21
277.5424254386597
 31
0.0
 11
253.5586527940354
 21
277.8020138631957
 31
0.0
 11
253.6992400532553
 21
278.0497474390912
 31
0.0
 11
253.8639372486073
 21
278.2868479237002
 31
0.0
 11
254.0491734155843
 21
278.5082824530351
 31
0.0
 11
254.2562662924996
 21
278.7155658423449
 31
0.0
 11
254.480572332598
 21
278.9040981261225
 31
0.0
 11
254.7236671632986
 21
279.0751866726961
 31
0.0
 11
254.9803289665005
 21
279.225167799419
 31
0.0
 11
255.2519171864717
 21
279.3548445792933
 31
0.0
 11
255.5332584648608
 21
279.4617359333707
 31
0.0
 11
255.8249759484062
 21
279.546101994701
 31
0.0
 11
256.1225603446664
 21
279.6066145249368
 31
0.0
 11
256.4254660792006
 21
279.6431934734998
 31
0.0
 11
256.7303289665005
 21
279.6554015114244
 31
0.0
 11
257.0351918538007
 21
279.6431934734998
 31
0.0
 11
257.3380975883351
 21
279.6066145249368
 31
0.0
 11
257.6356819845953
 21
279.5461019947011
 31
0.0
 11
257.9273994681407
 21
279.4617359333707
 31
0.0
 11
258.2087407465295
 21
279.3548445792933
 31
0.0
 11
258.4803289665005
 21
279.225167799419
 31
0.0
 11
258.7369907697028
 21
279.0751866726961
 31
0.0
 11
258.9800856004037
 21
278.9040981261225
 31
0.0
 11
259.204391640502
 21
278.715565842345
 31
0.0
 11
259.4114845174172
 21
278.5082824530351
 31
0.0
 11
259.5967206843944
 21
278.2868479237002
 31
0.0
 11
259.7614178797466
 21
278.0497474390912
 31
0.0
 11
259.9020051389666
 21
277.8020138631957
 31
0.0
 11
260.0192531392517
 21
277.5424254386597
 31
0.0
 11
260.1108965193197
 21
277.2757825783854
 31
0.0
 11
260.1771561020436
 21
277.0017311740065
 31
0.0
 11
260.2169761812025
 21
276.7241733656279
 31
0.0
 11
260.2303289665005
 21
276.4440933667582
 31
0.0
 11
260.2169761812025
 21
276.1640133678886
 31
0.0
 11
260.1771561020436
 21
275.88645555951
 31
0.0
 11
260.1108965193197
 21
275.612404155131
 31
0.0
 11
260.0192531392517
 21
275.3457612948565
 31
0.0
 11
259.9020051389666
 21
275.0861728703205
 31
0.0
 11
259.7614178797466
 21
274.838439294425
 31
0.0
 11
259.5967206843944
 21
274.601338809816
 31
0.0
 11
259.4114845174172
 21
274.3799042804811
 31
0.0
 11
259.2043916405019
 21
274.1726208911716
 31
0.0
 11
258.9800856004037
 21
273.984088607394
 31
0.0
 11
258.7369907697027
 21
273.8130000608204
 31
0.0
 11
258.4803289665005
 21
273.6630189340973
 31
0.0
 11
258.2087407465295
 21
273.5333421542229
 31
0.0
 11
257.9273994681407
 21
273.4264508001455
 31
0.0
 11
257.6356819845952
 21
273.3420847388152
 31
0.0
 11
257.3380975883351
 21
273.2815722085796
 31
0.0
 11
257.0351918538007
 21
273.2449932600166
 31
0.0
 11
256.7303289665005
 21
273.2327852220918
 31
0.0
 11
256.4254660792006
 21
273.2449932600166
 31
0.0
 11
256.1225603446664
 21
273.2815722085796
 31
0.0
 11
255.8249759484062
 21
273.3420847388153
 31
0.0
 11
255.5332584648608
 21
273.4264508001455
 31
0.0
 11
255.2519171864717
 21
273.5333421542227
 31
0.0
 11
254.9803289665005
 21
273.6630189340973
 31
0.0
 11
254.7236671632986
 21
273.8130000608204
 31
0.0
 11
254.480572332598
 21
273.984088607394
 31
0.0
 11
254.2562662924997
 21
274.1726208911716
 31
0.0
 11
254.0491734155843
 21
274.3799042804811
 31
0.0
 11
253.8639372486073
 21
274.601338809816
 31
0.0
 11
253.6992400532553
 21
274.838439294425
 31
0.0
 11
253.5586527940354
 21
275.0861728703205
 31
0.0
 11
253.4414047937502
 21
275.3457612948565
 31
0.0
 11
253.349761413682
 21
275.612404155131
 31
0.0
 11
253.2835018309579
 21
275.88645555951
 31
0.0
 11
253.2436817517987
 21
276.1640133678886
 31
0.0
 11
253.2303289665005
 21
276.4440933667582
 31
0.0
  0
SPLINE
  5
F5
330
42
100
AcDbEntity
  8
1
  6
Continuous
 62
     7
100
AcDbSpline
210
0.0
220
0.0
230
1.0
 70
    11
 71
     3
 72
    79
 73
    75
 74
    73
 42
0.0000000001
 43
0.0000000001
 44
0.00000001
 40
0.0
 40
0.0
 40
0.0
 40
0.0
 40
0.3142773867008075
 40
0.6283112411574552
 40
0.9612293766542399
 40
1.293805038039626
 40
1.653399990663202
 40
2.012687710360702
 40
2.402596358667251
 40
2.792277135713552
 40
3.212125602383362
 40
3.63181888911323
 40
4.078023830870386
 40
4.52412891624624
 40
4.990742665932658
 40
5.457297388873133
 40
5.936768753151381
 40
6.416212753073446
 40
6.900062536488155
 40
7.383912319902806
 40
7.863356319824763
 40
8.342827684103007
 40
8.809382407043604
 40
9.275996156730008
 40
9.722101242105978
 40
10.16830618386313
 40
10.58799947059283
 40
11.00784793726275
 40
11.39752871430921
 40
11.78743736261558
 40
12.14672508231304
 40
12.5063200349366
 40
12.83889569632202
 40
13.17181383181883
 40
13.48584768627542
 40
13.80012507297635
 40
14.10756996787615
 40
14.41501486277595
 40
14.72929224947688
 40
15.04332610393341
 40
15.37624423943027
 40
15.70881990081552
 40
16.06841485343915
 40
16.42770257313659
 40
16.81761122144309
 40
17.20729199848955
 40
17.62714046515945
 40
18.04683375188922
 40
18.49303869364627
 40
18.93914377902224
 40
19.40575752870872
 40
19.87231225164919
 40
20.3517836159275
 40
20.83122761584945
 40
21.31507739926422
 40
21.79892718267887
 40
22.27837118260083
 40
22.75784254687904
 40
23.22439726981949
 40
23.69101101950595
 40
24.1371161048819
 40
24.58332104663907
 40
25.00301433336895
 40
25.42286280003868
 40
25.81254357708504
 40
26.2024522253915
 40
26.56173994508902
 40
26.92133489771266
 40
27.253910559098
 40
27.58682869459479
 40
27.90086254905131
 40
28.21513993575224
 40
28.52258483065204
 40
28.83002972555182
 40
28.83002972555182
 40
28.83002972555182
 40
28.83002972555182
 10
256.4235515304138
 20
434.2262209348506
 30
0.0
 10
256.3202799757136
 20
434.2076284622521
 30
0.0
 10
256.1138168910127
 20
434.1704579242845
 30
0.0
 10
255.8117320585211
 20
434.0595116610719
 30
0.0
 10
255.5195371654755
 20
433.9124468182888
 30
0.0
 10
255.2346827994773
 20
433.7222922660384
 30
0.0
 10
254.9652418767223
 20
433.4971575375145
 30
0.0
 10
254.7064445199646
 20
433.2325214674037
 30
0.0
 10
254.4667668556391
 20
432.9374612417232
 30
0.0
 10
254.2414286139558
 20
432.6066951941619
 30
0.0
 10
254.037865093025
 20
432.2506278721975
 30
0.0
 10
253.8523728253111
 20
431.8638948000142
 30
0.0
 10
253.6906027125914
 20
431.4572213423443
 30
0.0
 10
253.5502351519242
 20
431.0262451465856
 30
0.0
 10
253.4349920935388
 20
430.5808714622359
 30
0.0
 10
253.3437387553208
 20
430.1186585123464
 30
0.0
 10
253.2785312135893
 20
429.6477399196478
 30
0.0
 10
253.238940746158
 20
429.168208355364
 30
0.0
 10
253.2258551431871
 20
428.6857631175628
 30
0.0
 10
253.2389407461567
 20
428.2033178797465
 30
0.0
 10
253.2785312135943
 20
427.7237863155076
 30
0.0
 10
253.3437387553026
 20
427.2528677226459
 30
0.0
 10
253.4349920936048
 20
426.7906547733498
 30
0.0
 10
253.5502351516824
 20
426.3452810868291
 30
0.0
 10
253.6906027134497
 20
425.9143048988316
 30
0.0
 10
253.8523728221827
 20
425.5076314130351
 30
0.0
 10
254.0378651039335
 20
425.1208984398834
 30
0.0
 10
254.2414285743836
 20
424.7648307617717
 30
0.0
 10
254.4667669916128
 20
424.4340659527109
 30
0.0
 10
254.7064440277927
 20
424.1390012953733
 30
0.0
 10
254.9652435545656
 20
423.8743805350266
 30
0.0
 10
255.2346767140083
 20
423.6491910352437
 30
0.0
 10
255.5195579979728
 20
423.4592263930222
 30
0.0
 10
255.8116558874302
 20
423.3114771763214
 30
0.0
 10
256.1140834014934
 20
423.2029485796475
 30
0.0
 10
256.4203180934371
 20
423.1387370522738
 30
0.0
 10
256.730230290414
 20
423.1161359491358
 30
0.0
 10
257.0401424873908
 20
423.1387370522737
 30
0.0
 10
257.3463771793346
 20
423.2029485796475
 30
0.0
 10
257.6488046933978
 20
423.3114771763213
 30
0.0
 10
257.940902582855
 20
423.4592263930222
 30
0.0
 10
258.2257838668198
 20
423.6491910352434
 30
0.0
 10
258.4952170262623
 20
423.8743805350265
 30
0.0
 10
258.7540165530354
 20
424.1390012953732
 30
0.0
 10
258.9936935892153
 20
424.4340659527108
 30
0.0
 10
259.2190320064443
 20
424.7648307617718
 30
0.0
 10
259.4225954768946
 20
425.1208984398833
 30
0.0
 10
259.6080877586451
 20
425.5076314130354
 30
0.0
 10
259.7698578673782
 20
425.9143048988317
 30
0.0
 10
259.9102254291454
 20
426.3452810868294
 30
0.0
 10
260.0254684872232
 20
426.7906547733497
 30
0.0
 10
260.1167218255254
 20
427.252867722646
 30
0.0
 10
260.1819293672336
 20
427.7237863155075
 30
0.0
 10
260.2215198346714
 20
428.2033178797471
 30
0.0
 10
260.2346054376405
 20
428.6857631175606
 30
0.0
 10
260.2215198346713
 20
429.1682083553727
 30
0.0
 10
260.1819293672332
 20
429.6477399196155
 30
0.0
 10
260.1167218255265
 20
430.1186585124655
 30
0.0
 10
260.0254684872185
 20
430.5808714618037
 30
0.0
 10
259.9102254291626
 20
431.0262451481701
 30
0.0
 10
259.7698578673175
 20
431.4572213367187
 30
0.0
 10
259.6080877588671
 20
431.8638948205182
 30
0.0
 10
259.4225954761203
 20
432.2506278007016
 30
0.0
 10
259.2190320092541
 20
432.6066954535257
 30
0.0
 10
258.9936935795607
 20
432.9374603505237
 30
0.0
 10
258.754016587981
 20
433.2325246932006
 30
0.0
 10
258.4952169071305
 20
433.4971465405857
 30
0.0
 10
258.2257842989061
 20
433.7223321514478
 30
0.0
 10
257.9409011036862
 20
433.9123102778417
 30
0.0
 10
257.64881010177
 20
434.0600109019733
 30
0.0
 10
257.3463582563035
 20
434.1687111601108
 30
0.0
 10
257.0402126581928
 20
434.2322941179986
 30
0.0
 10
256.7299747105511
 20
434.257193437755
 30
0.0
 10
256.5256925904596
 20
434.2365451024855
 30
0.0
 10
256.4235515304138
 20
434.2262209348506
 30
0.0
 11
256.4235515304138
 21
434.2262209348506
 31
0.0
 11
256.115989657653
 21
434.161599187618
 31
0.0
 11
255.8201007788568
 21
434.0563992201768
 31
0.0
 11
255.5228357139891
 21
433.9065060377039
 31
0.0
 11
255.245647097244
 21
433.7227316072386
 31
0.0
 11
254.969273197163
 21
433.492675098297
 31
0.0
 11
254.7175466174431
 21
433.236313255216
 31
0.0
 11
254.4711224464514
 21
432.934147932958
 31
0.0
 11
254.2512729340032
 21
432.6124068882097
 31
0.0
 11
254.0423190287999
 21
432.2482489547999
 31
0.0
 11
253.860462967218
 21
431.8700019088206
 31
0.0
 11
253.6950544880924
 21
431.4555880033084
 31
0.0
 11
253.5566576206696
 21
431.0314936101767
 31
0.0
 11
253.4394099383005
 21
430.579850640149
 31
0.0
 11
253.3489111056476
 21
430.122157215697
 31
0.0
 11
253.2829181851138
 21
429.6472490944754
 31
0.0
 11
253.2434519540251
 21
429.1694322198624
 31
0.0
 11
253.230230290414
 21
428.6857631175602
 31
0.0
 11
253.243451954025
 21
428.2020940152581
 31
0.0
 11
253.2829181851138
 21
427.7242771406452
 31
0.0
 11
253.3489111056476
 21
427.2493690194236
 31
0.0
 11
253.4394099383006
 21
426.7916755949715
 31
0.0
 11
253.5566576206696
 21
426.3400326249438
 31
0.0
 11
253.6950544880924
 21
425.9159382318119
 31
0.0
 11
253.860462967218
 21
425.5015243262998
 31
0.0
 11
254.0423190287999
 21
425.1232772803207
 31
0.0
 11
254.2512729340032
 21
424.7591193469108
 31
0.0
 11
254.4711224464514
 21
424.4373783021623
 31
0.0
 11
254.7175466174431
 21
424.1352129799045
 31
0.0
 11
254.9692731971631
 21
423.8788511368235
 31
0.0
 11
255.245647097244
 21
423.6487946278819
 31
0.0
 11
255.5228357139891
 21
423.4650201974166
 31
0.0
 11
255.8201007788568
 21
423.3151270149436
 31
0.0
 11
256.115989657653
 21
423.2099270475024
 31
0.0
 11
256.4235515304138
 21
423.1453053002697
 31
0.0
 11
256.730230290414
 21
423.1236142522384
 31
0.0
 11
257.0369090504142
 21
423.1453053002698
 31
0.0
 11
257.344470923175
 21
423.2099270475025
 31
0.0
 11
257.6403598019711
 21
423.3151270149436
 31
0.0
 11
257.9376248668389
 21
423.4650201974166
 31
0.0
 11
258.214813483584
 21
423.6487946278817
 31
0.0
 11
258.4911873836649
 21
423.8788511368234
 31
0.0
 11
258.7429139633849
 21
424.1352129799043
 31
0.0
 11
258.9893381343766
 21
424.4373783021623
 31
0.0
 11
259.2091876468248
 21
424.7591193469108
 31
0.0
 11
259.418141552028
 21
425.1232772803207
 31
0.0
 11
259.5999976136098
 21
425.5015243262999
 31
0.0
 11
259.7654060927355
 21
425.9159382318119
 31
0.0
 11
259.9038029601583
 21
426.3400326249438
 31
0.0
 11
260.0210506425274
 21
426.7916755949716
 31
0.0
 11
260.1115494751803
 21
427.2493690194235
 31
0.0
 11
260.1775423957141
 21
427.7242771406452
 31
0.0
 11
260.2170086268029
 21
428.2020940152581
 31
0.0
 11
260.2302302904139
 21
428.6857631175603
 31
0.0
 11
260.2170086268029
 21
429.1694322198625
 31
0.0
 11
260.1775423957141
 21
429.6472490944753
 31
0.0
 11
260.1115494751801
 21
430.1221572156969
 31
0.0
 11
260.0210506425273
 21
430.5798506401488
 31
0.0
 11
259.9038029601583
 21
431.0314936101767
 31
0.0
 11
259.7654060927356
 21
431.4555880033085
 31
0.0
 11
259.5999976136099
 21
431.8700019088207
 31
0.0
 11
259.4181415520281
 21
432.2482489548
 31
0.0
 11
259.2091876468248
 21
432.6124068882097
 31
0.0
 11
258.9893381343766
 21
432.934147932958
 31
0.0
 11
258.7429139633849
 21
433.2363132552159
 31
0.0
 11
258.4911873836649
 21
433.492675098297
 31
0.0
 11
258.214813483584
 21
433.7227316072386
 31
0.0
 11
257.9376248668388
 21
433.9065060377038
 31
0.0
 11
257.640359801971
 21
434.0563992201767
 31
0.0
 11
257.344470923175
 21
434.1615991876179
 31
0.0
 11
257.0369090504141
 21
434.2262209348505
 31
0.0
 11
256.7302302904139
 21
434.2479119828818
 31
0.0
 11
256.4235515304138
 21
434.2262209348506
 31
0.0
  0
SPLINE
  5
F6
330
42
100
AcDbEntity
  8
1
  6
Continuous
 62
     7
100
AcDbSpline
210
0.0
220
0.0
230
1.0
 70
    11
 71
     3
 72
    79
 73
    75
 74
    73
 42
0.0000000001
 43
0.0000000001
 44
0.00000001
 40
0.0
 40
0.0
 40
0.0
 40
0.0
 40
0.3142773867008191
 40
0.6283112411574858
 40
0.9612293766542962
 40
1.29380503803965
 40
1.653399990663227
 40
2.012687710360686
 40
2.402596358667191
 40
2.792277135713586
 40
3.212125602383396
 40
3.63181888911311
 40
4.078023830870214
 40
4.524128916246121
 40
4.990742665932539
 40
5.457297388873126
 40
5.93676875315143
 40
6.416212753073495
 40
6.900062536488203
 40
7.383912319902798
 40
7.863356319824812
 40
8.342827684103055
 40
8.809382407043652
 40
9.275996156730056
 40
9.722101242106026
 40
10.16830618386307
 40
10.58799947059282
 40
11.00784793726269
 40
11.3975287143091
 40
11.78743736261561
 40
12.14672508231299
 40
12.50632003493661
 40
12.83889569632201
 40
13.17181383181879
 40
13.4858476862754
 40
13.80012507297633
 40
14.10756996787613
 40
14.41501486277592
 40
14.72929224947685
 40
15.04332610393337
 40
15.37624423943023
 40
15.70881990081552
 40
16.06841485343919
 40
16.42770257313667
 40
16.81761122144317
 40
17.20729199848958
 40
17.62714046515938
 40
18.04683375188916
 40
18.4930386936462
 40
18.93914377902217
 40
19.4057575287086
 40
19.87231225164918
 40
20.35178361592743
 40
20.8312276158495
 40
21.31507739926415
 40
21.7989271826788
 40
22.27837118260088
 40
22.75784254687908
 40
23.22439726981954
 40
23.69101101950594
 40
24.13711610488184
 40
24.58332104663911
 40
25.00301433336884
 40
25.42286280003866
 40
25.81254357708503
 40
26.20245222539153
 40
26.56173994508897
 40
26.92133489771264
 40
27.25391055909808
 40
27.58682869459481
 40
27.90086254905135
 40
28.2151399357523
 40
28.5225848306521
 40
28.8300297255519
 40
28.8300297255519
 40
28.8300297255519
 40
28.8300297255519
 10
256.4235515304138
 20
436.14530530027
 30
0.0
 10
256.3202799757136
 20
436.1638977728688
 30
0.0
 10
256.1138168910128
 20
436.2010683108363
 30
0.0
 10
255.811732058521
 20
436.3120145740486
 30
0.0
 10
255.5195371654755
 20
436.4590794168323
 30
0.0
 10
255.2346827994774
 20
436.6492339690821
 30
0.0
 10
254.9652418767223
 20
436.8743686976067
 30
0.0
 10
254.7064445199648
 20
437.1390047677169
 30
0.0
 10
254.466766855639
 20
437.4340649933976
 30
0.0
 10
254.2414286139557
 20
437.7648310409588
 30
0.0
 10
254.037865093025
 20
438.1208983629235
 30
0.0
 10
253.8523728253111
 20
438.5076314351061
 30
0.0
 10
253.6906027125913
 20
438.9143048927763
 30
0.0
 10
253.5502351519243
 20
439.345281088535
 30
0.0
 10
253.4349920935388
 20
439.7906547728848
 30
0.0
 10
253.3437387553207
 20
440.2528677227743
 30
0.0
 10
253.2785312135894
 20
440.7237863154731
 30
0.0
 10
253.238940746158
 20
441.2033178797567
 30
0.0
 10
253.2258551431872
 20
441.6857631175581
 30
0.0
 10
253.2389407461567
 20
442.1682083553743
 30
0.0
 10
253.2785312135944
 20
442.647739919613
 30
0.0
 10
253.3437387553026
 20
443.118658512475
 30
0.0
 10
253.4349920936048
 20
443.5808714617709
 30
0.0
 10
253.5502351516824
 20
444.0262451482914
 30
0.0
 10
253.6906027134497
 20
444.457221336289
 30
0.0
 10
253.8523728221829
 20
444.8638948220855
 30
0.0
 10
254.0378651039333
 20
445.2506277952374
 30
0.0
 10
254.2414285743837
 20
445.6066954733487
 30
0.0
 10
254.4667669916128
 20
445.9374602824101
 30
0.0
 10
254.7064440277926
 20
446.2325249397474
 30
0.0
 10
254.9652435545656
 20
446.4971457000939
 30
0.0
 10
255.2346767140083
 20
446.7223351998774
 30
0.0
 10
255.5195579979728
 20
446.9122998420986
 30
0.0
 10
255.8116558874302
 20
447.0600490587991
 30
0.0
 10
256.1140834014934
 20
447.1685776554732
 30
0.0
 10
256.4203180934372
 20
447.2327891828472
 30
0.0
 10
256.730230290414
 20
447.2553902859847
 30
0.0
 10
257.0401424873908
 20
447.2327891828471
 30
0.0
 10
257.3463771793346
 20
447.1685776554733
 30
0.0
 10
257.6488046933977
 20
447.0600490587994
 30
0.0
 10
257.9409025828552
 20
446.9122998420986
 30
0.0
 10
258.2257838668197
 20
446.7223351998774
 30
0.0
 10
258.4952170262624
 20
446.4971457000942
 30
0.0
 10
258.7540165530354
 20
446.2325249397475
 30
0.0
 10
258.9936935892152
 20
445.9374602824099
 30
0.0
 10
259.2190320064444
 20
445.6066954733489
 30
0.0
 10
259.4225954768947
 20
445.2506277952375
 30
0.0
 10
259.608087758645
 20
444.8638948220853
 30
0.0
 10
259.7698578673783
 20
444.4572213362891
 30
0.0
 10
259.9102254291453
 20
444.0262451482915
 30
0.0
 10
260.0254684872232
 20
443.580871461771
 30
0.0
 10
260.1167218255254
 20
443.1186585124749
 30
0.0
 10
260.1819293672337
 20
442.6477399196133
 30
0.0
 10
260.2215198346713
 20
442.1682083553736
 30
0.0
 10
260.2346054376405
 20
441.6857631175603
 30
0.0
 10
260.2215198346713
 20
441.2033178797478
 30
0.0
 10
260.1819293672332
 20
440.7237863155054
 30
0.0
 10
260.1167218255265
 20
440.2528677226552
 30
0.0
 10
260.0254684872184
 20
439.790654773317
 30
0.0
 10
259.9102254291627
 20
439.3452810869508
 30
0.0
 10
259.7698578673173
 20
438.9143048984019
 30
0.0
 10
259.6080877588673
 20
438.5076314146026
 30
0.0
 10
259.4225954761202
 20
438.1208984344191
 30
0.0
 10
259.2190320092541
 20
437.7648307815952
 30
0.0
 10
258.9936935795607
 20
437.4340658845971
 30
0.0
 10
258.754016587981
 20
437.1390015419202
 30
0.0
 10
258.4952169071305
 20
436.8743796945352
 30
0.0
 10
258.225784298906
 20
436.649194083673
 30
0.0
 10
257.9409011036863
 20
436.4592159572789
 30
0.0
 10
257.64881010177
 20
436.3115153331473
 30
0.0
 10
257.3463582563034
 20
436.2028150750098
 30
0.0
 10
257.0402126581929
 20
436.1392321171221
 30
0.0
 10
256.7299747105511
 20
436.1143327973654
 30
0.0
 10
256.5256925904595
 20
436.1349811326351
 30
0.0
 10
256.4235515304138
 20
436.14530530027
 30
0.0
 11
256.4235515304138
 21
436.14530530027
 31
0.0
 11
256.115989657653
 21
436.2099270475027
 31
0.0
 11
255.8201007788568
 21
436.315127014944
 31
0.0
 11
255.5228357139891
 21
436.465020197417
 31
0.0
 11
255.245647097244
 21
436.6487946278821
 31
0.0
 11
254.969273197163
 21
436.8788511368238
 31
0.0
 11
254.7175466174431
 21
437.1352129799047
 31
0.0
 11
254.4711224464514
 21
437.4373783021627
 31
0.0
 11
254.2512729340032
 21
437.7591193469111
 31
0.0
 11
254.0423190287999
 21
438.1232772803209
 31
0.0
 11
253.860462967218
 21
438.5015243263
 31
0.0
 11
253.6950544880924
 21
438.9159382318121
 31
0.0
 11
253.5566576206696
 21
439.3400326249439
 31
0.0
 11
253.4394099383005
 21
439.7916755949717
 31
0.0
 11
253.3489111056476
 21
440.2493690194237
 31
0.0
 11
253.2829181851138
 21
440.7242771406454
 31
0.0
 11
253.2434519540251
 21
441.2020940152584
 31
0.0
 11
253.230230290414
 21
441.6857631175606
 31
0.0
 11
253.243451954025
 21
442.1694322198626
 31
0.0
 11
253.2829181851138
 21
442.6472490944756
 31
0.0
 11
253.3489111056476
 21
443.1221572156972
 31
0.0
 11
253.4394099383006
 21
443.5798506401492
 31
0.0
 11
253.5566576206696
 21
444.031493610177
 31
0.0
 11
253.6950544880924
 21
444.4555880033088
 31
0.0
 11
253.860462967218
 21
444.8700019088209
 31
0.0
 11
254.0423190287999
 21
445.2482489548
 31
0.0
 11
254.2512729340032
 21
445.6124068882099
 31
0.0
 11
254.4711224464514
 21
445.9341479329583
 31
0.0
 11
254.7175466174431
 21
446.2363132552163
 31
0.0
 11
254.9692731971631
 21
446.4926750982971
 31
0.0
 11
255.245647097244
 21
446.7227316072389
 31
0.0
 11
255.5228357139891
 21
446.9065060377042
 31
0.0
 11
255.8201007788568
 21
447.056399220177
 31
0.0
 11
256.115989657653
 21
447.1615991876183
 31
0.0
 11
256.4235515304138
 21
447.226220934851
 31
0.0
 11
256.730230290414
 21
447.2479119828823
 31
0.0
 11
257.0369090504142
 21
447.226220934851
 31
0.0
 11
257.344470923175
 21
447.1615991876183
 31
0.0
 11
257.6403598019711
 21
447.0563992201771
 31
0.0
 11
257.9376248668389
 21
446.9065060377042
 31
0.0
 11
258.214813483584
 21
446.722731607239
 31
0.0
 11
258.4911873836649
 21
446.4926750982972
 31
0.0
 11
258.7429139633849
 21
446.2363132552163
 31
0.0
 11
258.9893381343766
 21
445.9341479329583
 31
0.0
 11
259.2091876468248
 21
445.6124068882099
 31
0.0
 11
259.418141552028
 21
445.2482489548001
 31
0.0
 11
259.5999976136098
 21
444.8700019088209
 31
0.0
 11
259.7654060927355
 21
444.4555880033088
 31
0.0
 11
259.9038029601583
 21
444.031493610177
 31
0.0
 11
260.0210506425274
 21
443.5798506401492
 31
0.0
 11
260.1115494751803
 21
443.1221572156972
 31
0.0
 11
260.1775423957141
 21
442.6472490944756
 31
0.0
 11
260.2170086268029
 21
442.1694322198626
 31
0.0
 11
260.2302302904139
 21
441.6857631175604
 31
0.0
 11
260.2170086268029
 21
441.2020940152583
 31
0.0
 11
260.1775423957141
 21
440.7242771406453
 31
0.0
 11
260.1115494751801
 21
440.2493690194237
 31
0.0
 11
260.0210506425273
 21
439.7916755949718
 31
0.0
 11
259.9038029601583
 21
439.3400326249441
 31
0.0
 11
259.7654060927356
 21
438.9159382318123
 31
0.0
 11
259.5999976136099
 21
438.5015243263
 31
0.0
 11
259.4181415520281
 21
438.1232772803209
 31
0.0
 11
259.2091876468248
 21
437.7591193469111
 31
0.0
 11
258.9893381343766
 21
437.4373783021627
 31
0.0
 11
258.7429139633849
 21
437.1352129799047
 31
0.0
 11
258.4911873836649
 21
436.8788511368238
 31
0.0
 11
258.214813483584
 21
436.6487946278821
 31
0.0
 11
257.9376248668388
 21
436.4650201974168
 31
0.0
 11
257.640359801971
 21
436.315127014944
 31
0.0
 11
257.344470923175
 21
436.2099270475027
 31
0.0
 11
257.0369090504141
 21
436.14530530027
 31
0.0
 11
256.7302302904139
 21
436.1236142522386
 31
0.0
 11
256.4235515304138
 21
436.14530530027
 31
0.0
  0
ENDBLK
  5
44
330
42
100
AcDbEntity
  8
0
100
AcDbBlockEnd
  0
BLOCK
  5
46
330
45
100
AcDbEntity
  8
0
100
AcDbBlockBegin
  2
_J__A4
 70
     0
 71
     0
 10
0.0
 20
0.0
 30
0.0
  3
_J__A4
  1

  0
POINT
  5
F7
330
45
100
AcDbEntity
  8
1
 62
     4
100
AcDbPoint
 10
93.75
 20
17.0
 30
0.0
  0
POINT
  5
F8
330
45
100
AcDbEntity
  8
1
 62
     4
100
AcDbPoint
 10
85.25
 20
17.0
 30
0.0
  0
POINT
  5
F9
330
45
100
AcDbEntity
  8
1
 62
     4
100
AcDbPoint
 10
106.5
 20
19.00000000000001
 30
0.0
  0
POINT
  5
FA
330
45
100
AcDbEntity
  8
1
 62
     4
100
AcDbPoint
 10
106.5
 20
12.5
 30
0.0
  0
POINT
  5
FB
330
45
100
AcDbEntity
  8
1
 62
     4
100
AcDbPoint
 10
112.25
 20
12.5
 30
0.0
  0
POINT
  5
FC
330
45
100
AcDbEntity
  8
1
 62
     4
100
AcDbPoint
 10
100.75
 20
12.5
 30
0.0
  0
POINT
  5
FD
330
45
100
AcDbEntity
  8
1
 62
     4
100
AcDbPoint
 10
123.5
 20
19.00000000000001
 30
0.0
  0
POINT
  5
FE
330
45
100
AcDbEntity
  8
1
 62
     4
100
AcDbPoint
 10
123.5
 20
12.5
 30
0.0
  0
POINT
  5
FF
330
45
100
AcDbEntity
  8
1
 62
     4
100
AcDbPoint
 10
129.25
 20
12.5
 30
0.0
  0
POINT
  5
100
330
45
100
AcDbEntity
  8
1
 62
     4
100
AcDbPoint
 10
117.75
 20
12.5
 30
0.0
  0
POINT
  5
101
330
45
100
AcDbEntity
  8
1
 62
     4
100
AcDbPoint
 10
140.5
 20
19.00000000000001
 30
0.0
  0
POINT
  5
102
330
45
100
AcDbEntity
  8
1
 62
     4
100
AcDbPoint
 10
140.5
 20
12.5
 30
0.0
  0
POINT
  5
103
330
45
100
AcDbEntity
  8
1
 62
     4
100
AcDbPoint
 10
146.25
 20
12.5
 30
0.0
  0
POINT
  5
104
330
45
100
AcDbEntity
  8
1
 62
     4
100
AcDbPoint
 10
134.75
 20
12.5
 30
0.0
  0
POINT
  5
105
330
45
100
AcDbEntity
  8
1
 62
     4
100
AcDbPoint
 10
151.75
 20
12.5
 30
0.0
  0
POINT
  5
106
330
45
100
AcDbEntity
  8
1
 62
     4
100
AcDbPoint
 10
163.25
 20
12.5
 30
0.0
  0
POINT
  5
107
330
45
100
AcDbEntity
  8
1
 62
     4
100
AcDbPoint
 10
157.5
 20
12.5
 30
0.0
  0
POINT
  5
108
330
45
100
AcDbEntity
  8
1
 62
     4
100
AcDbPoint
 10
57.0
 20
14.25
 30
0.0
  0
POINT
  5
109
330
45
100
AcDbEntity
  8
1
 62
     4
100
AcDbPoint
 10
57.0
 20
22.75000000000001
 30
0.0
  0
POINT
  5
10A
330
45
100
AcDbEntity
  8
1
 62
     4
100
AcDbPoint
 10
47.5
 20
282.0000000000003
 30
0.0
  0
POINT
  5
10B
330
45
100
AcDbEntity
  8
1
 62
     4
100
AcDbPoint
 10
157.5
 20
19.00000000000001
 30
0.0
  0
POINT
  5
10C
330
45
100
AcDbEntity
  8
1
 62
     4
100
AcDbPoint
 10
57.0
 20
16.25
 30
0.0
  0
POINT
  5
10D
330
45
100
AcDbEntity
  8
1
 62
     4
100
AcDbPoint
 10
57.0
 20
24.75000000000001
 30
0.0
  0
POINT
  5
10E
330
45
100
AcDbEntity
  8
1
 62
     4
100
AcDbPoint
 10
57.0
 20
20.75000000000001
 30
0.0
  0
POINT
  5
10F
330
45
100
AcDbEntity
  8
1
 62
     4
100
AcDbPoint
 10
57.0
 20
12.25
 30
0.0
  0
POINT
  5
110
330
45
100
AcDbEntity
  8
1
 62
     4
100
AcDbPoint
 10
34.0
 20
34.00000000000001
 30
0.0
  0
LINE
  5
111
330
45
100
AcDbEntity
  8
1
  6
Continuous
 62
     7
100
AcDbLine
 10
105.0
 20
10.0
 30
0.0
 11
200.0
 21
10.0
 31
0.0
  0
LINE
  5
112
330
45
100
AcDbEntity
  8
1
  6
Continuous
 62
     2
100
AcDbLine
 10
105.0
 20
10.0
 30
0.0
 11
105.0
 21
5.0
 31
0.0
  0
LINE
  5
113
330
45
100
AcDbEntity
  8
1
  6
Continuous
 62
     7
100
AcDbLine
 10
200.0
 20
148.5
 30
0.0
 11
200.0
 21
287.0000000000003
 31
0.0
  0
LINE
  5
114
330
45
100
AcDbEntity
  8
1
  6
Continuous
 62
     2
100
AcDbLine
 10
200.0
 20
148.5
 30
0.0
 11
205.0
 21
148.5
 31
0.0
  0
LINE
  5
115
330
45
100
AcDbEntity
  8
1
  6
Continuous
 62
     7
100
AcDbLine
 10
25.0
 20
148.5
 30
0.0
 11
25.0
 21
287.0000000000003
 31
0.0
  0
LINE
  5
116
330
45
100
AcDbEntity
  8
1
  6
Continuous
 62
     2
100
AcDbLine
 10
25.0
 20
148.5
 30
0.0
 11
20.0
 21
148.5
 31
0.0
  0
LINE
  5
117
330
45
100
AcDbEntity
  8
1
  6
Continuous
 62
     7
100
AcDbLine
 10
105.0
 20
287.0000000000003
 30
0.0
 11
25.0
 21
287.0000000000003
 31
0.0
  0
LINE
  5
118
330
45
100
AcDbEntity
  8
1
  6
Continuous
 62
     2
100
AcDbLine
 10
105.0
 20
287.0000000000003
 30
0.0
 11
105.0
 21
292.0000000000003
 31
0.0
  0
LINE
  5
119
330
45
100
AcDbEntity
  8
1
  6
Continuous
 62
     2
100
AcDbLine
 10
166.0
 20
20.00000000000001
 30
0.0
 11
200.0
 21
20.00000000000001
 31
0.0
  0
LINE
  5
11A
330
45
100
AcDbEntity
  8
1
  6
Continuous
 62
     2
100
AcDbLine
 10
98.0
 20
27.00000000000001
 30
0.0
 11
98.0
 21
9.99999999999999
 31
0.0
  0
LINE
  5
11B
330
45
100
AcDbEntity
  8
1
  6
Continuous
 62
     2
100
AcDbLine
 10
115.0
 20
27.00000000000001
 30
0.0
 11
115.0
 21
9.99999999999999
 31
0.0
  0
LINE
  5
11C
330
45
100
AcDbEntity
  8
1
  6
Continuous
 62
     2
100
AcDbLine
 10
149.0
 20
27.00000000000001
 30
0.0
 11
149.0
 21
10.0
 31
0.0
  0
LINE
  5
11D
330
45
100
AcDbEntity
  8
1
  6
Continuous
 62
     2
100
AcDbLine
 10
132.0
 20
27.00000000000001
 30
0.0
 11
132.0
 21
9.99999999999999
 31
0.0
  0
LINE
  5
11E
330
45
100
AcDbEntity
  8
1
  6
Continuous
 62
     2
100
AcDbLine
 10
166.0
 20
27.00000000000001
 30
0.0
 11
166.0
 21
10.0
 31
0.0
  0
LINE
  5
11F
330
45
100
AcDbEntity
  8
1
  6
Continuous
 62
     2
100
AcDbLine
 10
55.0
 20
277.0000000000003
 30
0.0
 11
25.0
 21
277.0000000000003
 31
0.0
  0
LINE
  5
120
330
45
100
AcDbEntity
  8
1
  6
Continuous
 62
     7
100
AcDbLine
 10
25.0
 20
10.0
 30
0.0
 11
25.0
 21
148.5
 31
0.0
  0
LINE
  5
121
330
45
100
AcDbEntity
  8
1
  6
Continuous
 62
     2
100
AcDbLine
 10
40.0
 20
287.0000000000003
 30
0.0
 11
40.0
 21
277.0000000000003
 31
0.0
  0
LINE
  5
122
330
45
100
AcDbEntity
  8
1
  6
Continuous
 62
     2
100
AcDbLine
 10
55.0
 20
287.0000000000003
 30
0.0
 11
55.0
 21
277.0000000000003
 31
0.0
  0
LINE
  5
123
330
45
100
AcDbEntity
  8
1
  6
Continuous
 62
     2
100
AcDbLine
 10
33.0
 20
41.00000000000001
 30
0.0
 11
33.0
 21
27.0
 31
0.0
  0
LINE
  5
124
330
45
100
AcDbEntity
  8
1
  6
Continuous
 62
     7
100
AcDbLine
 10
200.0
 20
27.00000000000001
 30
0.0
 11
25.0
 21
27.00000000000001
 31
0.0
  0
LINE
  5
125
330
45
100
AcDbEntity
  8
1
  6
Continuous
 62
     7
100
AcDbLine
 10
25.0
 20
41.0
 30
0.0
 11
200.0
 21
41.0
 31
0.0
  0
LINE
  5
126
330
45
100
AcDbEntity
  8
1
  6
PHANTOM
 62
     4
100
AcDbLine
 10
0.0
 20
0.0
 30
0.0
 11
210.0
 21
0.0
 31
0.0
  0
LINE
  5
127
330
45
100
AcDbEntity
  8
1
  6
PHANTOM
 62
     4
100
AcDbLine
 10
210.0
 20
0.0
 30
0.0
 11
210.0
 21
297.0
 31
0.0
  0
LINE
  5
128
330
45
100
AcDbEntity
  8
1
  6
PHANTOM
 62
     4
100
AcDbLine
 10
210.0
 20
297.0
 30
0.0
 11
0.0
 21
297.0
 31
0.0
  0
LINE
  5
129
330
45
100
AcDbEntity
  8
1
  6
PHANTOM
 62
     4
100
AcDbLine
 10
0.0
 20
297.0
 30
0.0
 11
0.0
 21
0.0
 31
0.0
  0
LINE
  5
12A
330
45
100
AcDbEntity
  8
1
  6
Continuous
 62
     7
100
AcDbLine
 10
25.0
 20
10.0
 30
0.0
 11
105.0
 21
10.0
 31
0.0
  0
LINE
  5
12B
330
45
100
AcDbEntity
  8
1
  6
Continuous
 62
     7
100
AcDbLine
 10
200.0
 20
10.0
 30
0.0
 11
200.0
 21
148.5
 31
0.0
  0
LINE
  5
12C
330
45
100
AcDbEntity
  8
1
  6
Continuous
 62
     7
100
AcDbLine
 10
200.0
 20
287.0000000000003
 30
0.0
 11
105.0
 21
287.0000000000003
 31
0.0
  0
LINE
  5
12D
330
45
100
AcDbEntity
  8
1
  6
Continuous
 62
     2
100
AcDbLine
 10
25.0
 20
18.50000000000001
 30
0.0
 11
81.0
 21
18.50000000000001
 31
0.0
  0
LINE
  5
12E
330
45
100
AcDbEntity
  8
1
  6
Continuous
 62
     2
100
AcDbLine
 10
33.0
 20
27.0
 30
0.0
 11
33.0
 21
10.0
 31
0.0
  0
LINE
  5
12F
330
45
100
AcDbEntity
  8
1
  6
Continuous
 62
     7
100
AcDbLine
 10
191.0
 20
24.70000000000001
 30
0.0
 11
191.0
 21
22.30000000000001
 31
0.0
  0
LINE
  5
130
330
45
100
AcDbEntity
  8
1
  6
Continuous
 62
     7
100
AcDbLine
 10
191.0
 20
24.70000000000001
 30
0.0
 11
196.0
 21
25.50000000000001
 31
0.0
  0
LINE
  5
131
330
45
100
AcDbEntity
  8
1
  6
Continuous
 62
     7
100
AcDbLine
 10
196.0
 20
25.50000000000001
 30
0.0
 11
196.0
 21
21.50000000000001
 31
0.0
  0
LINE
  5
132
330
45
100
AcDbEntity
  8
1
  6
Continuous
 62
     7
100
AcDbLine
 10
196.0
 20
21.50000000000001
 30
0.0
 11
191.0
 21
22.30000000000001
 31
0.0
  0
LINE
  5
133
330
45
100
AcDbEntity
  8
1
  6
DOT_CENTER
 62
     2
100
AcDbLine
 10
184.0
 20
23.50000000000001
 30
0.0
 11
197.0
 21
23.50000000000001
 31
0.0
  0
LINE
  5
134
330
45
100
AcDbEntity
  8
1
  6
DOT_CENTER
 62
     2
100
AcDbLine
 10
187.0
 20
26.50000000000001
 30
0.0
 11
187.0
 21
20.50000000000001
 31
0.0
  0
LINE
  5
135
330
45
100
AcDbEntity
  8
1
  6
Continuous
 62
     2
100
AcDbLine
 10
81.0
 20
27.00000000000001
 30
0.0
 11
81.0
 21
10.0
 31
0.0
  0
CIRCLE
  5
136
330
45
100
AcDbEntity
  8
1
  6
Continuous
 62
     7
100
AcDbCircle
 10
103.5
 20
12.5
 30
0.0
 40
0.2999999999999972
  0
CIRCLE
  5
137
330
45
100
AcDbEntity
  8
1
  6
Continuous
 62
     7
100
AcDbCircle
 10
109.5
 20
12.5
 30
0.0
 40
0.2999999999999972
  0
CIRCLE
  5
138
330
45
100
AcDbEntity
  8
1
  6
Continuous
 62
     7
100
AcDbCircle
 10
120.5
 20
12.5
 30
0.0
 40
0.2999999999999972
  0
CIRCLE
  5
139
330
45
100
AcDbEntity
  8
1
  6
Continuous
 62
     7
100
AcDbCircle
 10
126.5
 20
12.5
 30
0.0
 40
0.2999999999999972
  0
CIRCLE
  5
13A
330
45
100
AcDbEntity
  8
1
  6
Continuous
 62
     7
100
AcDbCircle
 10
137.5
 20
12.5
 30
0.0
 40
0.3000000000000114
  0
CIRCLE
  5
13B
330
45
100
AcDbEntity
  8
1
  6
Continuous
 62
     7
100
AcDbCircle
 10
143.5
 20
12.5
 30
0.0
 40
0.3000000000000114
  0
CIRCLE
  5
13C
330
45
100
AcDbEntity
  8
1
  6
Continuous
 62
     7
100
AcDbCircle
 10
160.5
 20
12.5
 30
0.0
 40
0.3000000000000114
  0
CIRCLE
  5
13D
330
45
100
AcDbEntity
  8
1
  6
Continuous
 62
     7
100
AcDbCircle
 10
154.5
 20
12.5
 30
0.0
 40
0.3000000000000114
  0
CIRCLE
  5
13E
330
45
100
AcDbEntity
  8
1
  6
Continuous
 62
     7
100
AcDbCircle
 10
187.0
 20
23.50000000000001
 30
0.0
 40
1.200000000000102
  0
CIRCLE
  5
13F
330
45
100
AcDbEntity
  8
1
  6
Continuous
 62
     7
100
AcDbCircle
 10
187.0
 20
23.50000000000001
 30
0.0
 40
2.0
  0
CIRCLE
  5
140
330
45
100
AcDbEntity
  8
1
  6
DOT_CENTER
 62
     7
100
AcDbCircle
 10
89.5
 20
16.0
 30
0.0
 40
0.1000000000000227
  0
CIRCLE
  5
141
330
45
100
AcDbEntity
  8
1
  6
DOT_CENTER
 62
     7
100
AcDbCircle
 10
89.5
 20
18.0
 30
0.0
 40
0.1000000000000227
  0
MTEXT
  5
143
330
45
100
AcDbEntity
  8
1
 62
     7
100
AcDbMText
 10
188.5
 20
15.0
 30
0.0
 40
3.0
 41
0.0
 71
     5
 72
     1
  1
三栄水栓製作所
  7
CONVERTER_1
 73
     1
 44
1.32052821128451
  0
MTEXT
  5
144
330
45
100
AcDbEntity
  8
1
 62
     7
100
AcDbMText
 10
171.5
 20
15.0
 30
0.0
 40
2.5
 41
0.0
 71
     5
 72
     1
  1
株式会社
  7
CONVERTER_1
 73
     1
 44
1.32052821128451
  0
MTEXT
  5
145
330
45
100
AcDbEntity
  8
1
 62
     2
100
AcDbMText
 10
32.5
 20
282.0000000000003
 30
0.0
 40
5.0
 41
0.0
 71
     5
 72
     1
  1
図番
  7
CONVERTER_1
 73
     1
 44
0.60024009603842
  0
MTEXT
  5
146
330
45
100
AcDbEntity
  8
1
 62
     2
100
AcDbMText
 10
29.0
 20
34.00000000000001
 30
0.0
 40
3.5
 41
0.0
 71
     5
 72
     1
  1
備考
  7
CONVERTER_1
 73
     1
 44
0.60024009603842
  0
MTEXT
  5
147
330
45
100
AcDbEntity
  8
1
 62
     2
100
AcDbMText
 10
29.0
 20
22.75
 30
0.0
 40
3.5
 41
0.0
 71
     5
 72
     1
  1
品名
  7
CONVERTER_1
 73
     1
 44
0.96038415366146
  0
MTEXT
  5
148
330
45
100
AcDbEntity
  8
1
 62
     2
100
AcDbMText
 10
29.0
 20
14.25
 30
0.0
 40
3.5
 41
0.0
 71
     5
 72
     1
  1
品番
  7
CONVERTER_1
 73
     1
 44
0.96038415366146
  0
MTEXT
  5
149
330
45
100
AcDbEntity
  8
1
 62
     2
100
AcDbMText
 10
101.5
 20
25.00000000000001
 30
0.0
 40
3.0
 41
0.0
 71
     5
 72
     1
  1
承認
  7
CONVERTER_1
 73
     1
 44
0.78031212484994
  0
MTEXT
  5
14A
330
45
100
AcDbEntity
  8
1
 62
     2
100
AcDbMText
 10
175.0
 20
23.50000000000001
 30
0.0
 40
3.5
 41
0.0
 71
     5
 72
     1
  1
第三角法
  7
CONVERTER_1
 73
     1
 44
0.7202881152461
  0
MTEXT
  5
14B
330
45
100
AcDbEntity
  8
1
 62
     2
100
AcDbMText
 10
118.5
 20
25.00000000000001
 30
0.0
 40
3.0
 41
0.0
 71
     5
 72
     1
  1
検図
  7
CONVERTER_1
 73
     1
 44
0.78031212484994
  0
MTEXT
  5
14C
330
45
100
AcDbEntity
  8
1
 62
     2
100
AcDbMText
 10
152.5
 20
25.00000000000001
 30
0.0
 40
3.0
 41
0.0
 71
     5
 72
     1
  1
設計
  7
CONVERTER_1
 73
     1
 44
0.78031212484994
  0
MTEXT
  5
14D
330
45
100
AcDbEntity
  8
1
 62
     2
100
AcDbMText
 10
135.5
 20
25.00000000000001
 30
0.0
 40
3.0
 41
0.0
 71
     5
 72
     1
  1
製図
  7
CONVERTER_1
 73
     1
 44
0.78031212484994
  0
MTEXT
  5
14E
330
45
100
AcDbEntity
  8
1
 62
     2
100
AcDbMText
 10
89.5
 20
24.00000000000001
 30
0.0
 40
3.5
 41
0.0
 71
     5
 72
     1
  1
尺度
  7
CONVERTER_1
 73
     1
 44
0.7202881152461
  0
MTEXT
  5
14F
330
45
100
AcDbEntity
  8
1
 62
   250
100
AcDbMText
 10
25.0
 20
5.0
 30
0.0
 40
3.5
 41
0.0
 71
     4
 72
     1
  1
備考欄の文字列 原点位置=4
  7
CONVERTER_1
 73
     1
 44
0.7202881152461
  0
ENDBLK
  5
47
330
45
100
AcDbEntity
  8
0
100
AcDbBlockEnd
  0
BLOCK
  5
49
330
48
100
AcDbEntity
  8
0
100
AcDbBlockBegin
  2
B4112R-0A-13
 70
     0
 71
     0
 10
245.7203732914837
 20
154.1857631175602
 30
0.0
  3
B4112R-0A-13
  1

  0
LINE
  5
150
330
48
100
AcDbEntity
  8
1
  6
PHANTOM
 62
     4
100
AcDbLine
 10
306.8913434576153
 20
265.1857631175604
 30
0.0
 11
314.5691171232126
 21
265.1857631175604
 31
0.0
  0
LINE
  5
151
330
48
100
AcDbEntity
  8
1
  6
PHANTOM
 62
     4
100
AcDbLine
 10
314.5691171232126
 20
265.1857631175604
 30
0.0
 11
318.7302302904141
 21
265.1857631175604
 31
0.0
  0
LINE
  5
152
330
48
100
AcDbEntity
  8
1
  6
Continuous
 62
     7
100
AcDbLine
 10
314.5691171232126
 20
265.1857631175604
 30
0.0
 11
306.8913434576153
 21
265.1857631175604
 31
0.0
  0
LINE
  5
153
330
48
100
AcDbEntity
  8
1
  6
PHANTOM
 62
     4
100
AcDbLine
 10
252.7302302904141
 20
265.1857631175604
 30
0.0
 11
306.8913434576153
 21
265.1857631175604
 31
0.0
  0
LINE
  5
154
330
48
100
AcDbEntity
  8
1
  6
Continuous
 62
     7
100
AcDbLine
 10
271.6085190793167
 20
280.528908868068
 30
0.0
 11
275.252730290414
 21
284.1731200791653
 31
0.0
  0
LINE
  5
155
330
48
100
AcDbEntity
  8
1
  6
Continuous
 62
     7
100
AcDbLine
 10
296.2077302904139
 20
284.1731200791652
 30
0.0
 11
299.851941501511
 21
280.528908868068
 31
0.0
  0
LINE
  5
156
330
48
100
AcDbEntity
  8
1
  6
Continuous
 62
     7
100
AcDbLine
 10
264.029268396091
 20
278.1857631175604
 30
0.0
 11
265.9516648298243
 21
278.1857631175604
 31
0.0
  0
LINE
  5
157
330
48
100
AcDbEntity
  8
1
  6
Continuous
 62
     7
100
AcDbLine
 10
276.4147302904138
 20
295.1857631175604
 30
0.0
 11
295.0457302904139
 21
295.1857631175604
 31
0.0
  0
LINE
  5
158
330
48
100
AcDbEntity
  8
1
  6
Continuous
 62
     7
100
AcDbLine
 10
275.252730290414
 20
284.1731200791653
 30
0.0
 11
275.252730290414
 21
286.1857631175604
 31
0.0
  0
LINE
  5
159
330
48
100
AcDbEntity
  8
1
  6
Continuous
 62
     7
100
AcDbLine
 10
263.029268396091
 20
277.1857631175604
 30
0.0
 11
264.029268396091
 21
278.1857631175604
 31
0.0
  0
LINE
  5
15A
330
48
100
AcDbEntity
  8
1
  6
Continuous
 62
     2
100
AcDbLine
 10
261.7302302904141
 20
276.4357631175604
 30
0.0
 11
263.029268396091
 21
277.1857631175604
 31
0.0
  0
LINE
  5
15B
330
48
100
AcDbEntity
  8
1
  6
Continuous
 62
     7
100
AcDbLine
 10
261.7302302904141
 20
277.1857631175604
 30
0.0
 11
263.029268396091
 21
277.1857631175604
 31
0.0
  0
LINE
  5
15C
330
48
100
AcDbEntity
  8
1
  6
Continuous
 62
     7
100
AcDbLine
 10
261.7302302904141
 20
276.4357631175604
 30
0.0
 11
261.7302302904141
 21
277.1857631175604
 31
0.0
  0
LINE
  5
15D
330
48
100
AcDbEntity
  8
1
  6
Continuous
 62
     7
100
AcDbLine
 10
295.0457302904139
 20
286.1857631175604
 30
0.0
 11
296.2077302904139
 21
286.1857631175604
 31
0.0
  0
LINE
  5
15E
330
48
100
AcDbEntity
  8
1
  6
Continuous
 62
     2
100
AcDbLine
 10
295.0457302904138
 20
294.0237631175604
 30
0.0
 11
295.0457302904139
 21
286.1857631175604
 31
0.0
  0
LINE
  5
15F
330
48
100
AcDbEntity
  8
1
  6
Continuous
 62
     7
100
AcDbLine
 10
275.252730290414
 20
286.1857631175604
 30
0.0
 11
276.4147302904138
 21
286.1857631175604
 31
0.0
  0
LINE
  5
160
330
48
100
AcDbEntity
  8
1
  6
Continuous
 62
     7
100
AcDbLine
 10
296.2077302904139
 20
294.0237631175606
 30
0.0
 11
295.0457302904139
 21
295.1857631175604
 31
0.0
  0
LINE
  5
161
330
48
100
AcDbEntity
  8
1
  6
Continuous
 62
     7
100
AcDbLine
 10
296.2077302904139
 20
286.1857631175604
 30
0.0
 11
296.2077302904139
 21
294.0237631175606
 31
0.0
  0
LINE
  5
162
330
48
100
AcDbEntity
  8
1
  6
Continuous
 62
     7
100
AcDbLine
 10
275.252730290414
 20
294.0237631175606
 30
0.0
 11
276.4147302904138
 21
295.1857631175604
 31
0.0
  0
LINE
  5
163
330
48
100
AcDbEntity
  8
1
  6
Continuous
 62
     7
100
AcDbLine
 10
275.252730290414
 20
286.1857631175604
 30
0.0
 11
275.252730290414
 21
294.0237631175606
 31
0.0
  0
LINE
  5
164
330
48
100
AcDbEntity
  8
1
  6
Continuous
 62
     7
100
AcDbLine
 10
276.4147302904139
 20
294.0237631175605
 30
0.0
 11
275.252730290414
 21
294.0237631175606
 31
0.0
  0
LINE
  5
165
330
48
100
AcDbEntity
  8
1
  6
Continuous
 62
     7
100
AcDbLine
 10
295.0457302904138
 20
294.0237631175604
 30
0.0
 11
296.2077302904139
 21
294.0237631175606
 31
0.0
  0
LINE
  5
166
330
48
100
AcDbEntity
  8
1
  6
Continuous
 62
     2
100
AcDbLine
 10
295.0457302904139
 20
295.1857631175604
 30
0.0
 11
295.0457302904138
 21
294.0237631175604
 31
0.0
  0
LINE
  5
167
330
48
100
AcDbEntity
  8
1
  6
Continuous
 62
     2
100
AcDbLine
 10
276.4147302904138
 20
286.1857631175604
 30
0.0
 11
276.4147302904139
 21
294.0237631175605
 31
0.0
  0
LINE
  5
168
330
48
100
AcDbEntity
  8
1
  6
Continuous
 62
     2
100
AcDbLine
 10
276.4147302904139
 20
294.0237631175605
 30
0.0
 11
276.4147302904138
 21
295.1857631175604
 31
0.0
  0
LINE
  5
169
330
48
100
AcDbEntity
  8
1
  6
Continuous
 62
     2
100
AcDbLine
 10
275.252730290414
 20
284.1731200791653
 30
0.0
 11
276.4147302904138
 21
286.1857631175604
 31
0.0
  0
LINE
  5
16A
330
48
100
AcDbEntity
  8
1
  6
Continuous
 62
     2
100
AcDbLine
 10
295.0457302904139
 20
286.1857631175604
 30
0.0
 11
296.2077302904139
 21
284.1731200791652
 31
0.0
  0
LINE
  5
16B
330
48
100
AcDbEntity
  8
1
  6
Continuous
 62
     7
100
AcDbLine
 10
264.029268396091
 20
252.1857631175604
 30
0.0
 11
263.029268396091
 21
253.1857631175604
 31
0.0
  0
LINE
  5
16C
330
48
100
AcDbEntity
  8
1
  6
Continuous
 62
     7
100
AcDbLine
 10
283.7302302904141
 20
252.1857631175604
 30
0.0
 11
264.029268396091
 21
252.1857631175604
 31
0.0
  0
LINE
  5
16D
330
48
100
AcDbEntity
  8
1
  6
Continuous
 62
     2
100
AcDbLine
 10
263.029268396091
 20
253.1857631175604
 30
0.0
 11
261.7302302904141
 21
253.9357631175604
 31
0.0
  0
LINE
  5
16E
330
48
100
AcDbEntity
  8
1
  6
Continuous
 62
     2
100
AcDbLine
 10
261.7302302904141
 20
253.9357631175604
 30
0.0
 11
260.230230290414
 21
253.9357631175604
 31
0.0
  0
LINE
  5
16F
330
48
100
AcDbEntity
  8
1
  6
Continuous
 62
     7
100
AcDbLine
 10
263.029268396091
 20
253.1857631175604
 30
0.0
 11
261.7302302904141
 21
253.1857631175604
 31
0.0
  0
LINE
  5
170
330
48
100
AcDbEntity
  8
1
  6
Continuous
 62
     7
100
AcDbLine
 10
261.7302302904141
 20
253.1857631175604
 30
0.0
 11
261.7302302904141
 21
253.9357631175604
 31
0.0
  0
LINE
  5
171
330
48
100
AcDbEntity
  8
1
  6
Continuous
 62
     7
100
AcDbLine
 10
261.7302302904141
 20
253.1857631175604
 30
0.0
 11
260.230230290414
 21
253.1857631175604
 31
0.0
  0
LINE
  5
172
330
48
100
AcDbEntity
  8
1
  6
Continuous
 62
     7
100
AcDbLine
 10
283.7302302904141
 20
252.1857631175604
 30
0.0
 11
315.7302302904141
 21
252.1857631175604
 31
0.0
  0
LINE
  5
173
330
48
100
AcDbEntity
  8
1
  6
Continuous
 62
     7
100
AcDbLine
 10
305.5087957510033
 20
278.1857631175604
 30
0.0
 11
315.7302302904141
 21
278.1857631175604
 31
0.0
  0
LINE
  5
174
330
48
100
AcDbEntity
  8
1
  6
Continuous
 62
     7
100
AcDbLine
 10
315.7302302904141
 20
265.1857631175604
 30
0.0
 11
315.7302302904141
 21
254.4532631175606
 31
0.0
  0
LINE
  5
175
330
48
100
AcDbEntity
  8
1
  6
Continuous
 62
     7
100
AcDbLine
 10
315.7302302904141
 20
254.4532631175606
 30
0.0
 11
315.7302302904141
 21
252.1857631175604
 31
0.0
  0
LINE
  5
176
330
48
100
AcDbEntity
  8
1
  6
Continuous
 62
     7
100
AcDbLine
 10
315.7302302904141
 20
265.1857631175604
 30
0.0
 11
315.7302302904141
 21
278.1857631175604
 31
0.0
  0
LINE
  5
177
330
48
100
AcDbEntity
  8
1
  6
Continuous
 62
     7
100
AcDbLine
 10
296.2077302904139
 20
286.1857631175604
 30
0.0
 11
296.2077302904139
 21
284.1731200791652
 31
0.0
  0
LINE
  5
178
330
48
100
AcDbEntity
  8
1
  6
PHANTOM
 62
     4
100
AcDbLine
 10
285.7314802904141
 20
249.1857631175604
 30
0.0
 11
285.7314802904142
 21
298.1857631175604
 31
0.0
  0
LINE
  5
179
330
48
100
AcDbEntity
  8
1
  6
Continuous
 62
     7
100
AcDbLine
 10
260.230230290414
 20
277.1857631175604
 30
0.0
 11
261.7302302904141
 21
277.1857631175604
 31
0.0
  0
LINE
  5
17A
330
48
100
AcDbEntity
  8
1
  6
Continuous
 62
     2
100
AcDbLine
 10
260.230230290414
 20
276.4357631175604
 30
0.0
 11
261.7302302904141
 21
276.4357631175604
 31
0.0
  0
LINE
  5
17B
330
48
100
AcDbEntity
  8
1
  6
Continuous
 62
     7
100
AcDbLine
 10
276.4147302904138
 20
286.1857631175604
 30
0.0
 11
295.0457302904139
 21
286.1857631175604
 31
0.0
  0
LINE
  5
17C
330
48
100
AcDbEntity
  8
1
  6
Continuous
 62
     7
100
AcDbLine
 10
275.252730290414
 20
284.1731200791653
 30
0.0
 11
296.2077302904139
 21
284.1731200791652
 31
0.0
  0
LINE
  5
17D
330
48
100
AcDbEntity
  8
1
  6
Continuous
 62
     7
100
AcDbLine
 10
276.4147302904139
 20
294.0237631175605
 30
0.0
 11
295.0457302904138
 21
294.0237631175604
 31
0.0
  0
LINE
  5
17E
330
48
100
AcDbEntity
  8
1
  6
Continuous
 62
     7
100
AcDbLine
 10
263.029268396091
 20
253.1857631175604
 30
0.0
 11
263.029268396091
 21
277.1857631175604
 31
0.0
  0
LINE
  5
17F
330
48
100
AcDbEntity
  8
1
  6
Continuous
 62
     7
100
AcDbLine
 10
261.7302302904141
 20
253.9357631175604
 30
0.0
 11
261.7302302904141
 21
276.4357631175604
 31
0.0
  0
LINE
  5
180
330
48
100
AcDbEntity
  8
1
  6
PHANTOM
 62
     4
100
AcDbLine
 10
285.731480290414
 20
400.6857631175611
 30
0.0
 11
285.731480290414
 21
451.1857631175595
 31
0.0
  0
LINE
  5
181
330
48
100
AcDbEntity
  8
1
  6
Continuous
 62
     7
100
AcDbLine
 10
275.253980290414
 20
414.6984061559562
 30
0.0
 11
296.2089802904141
 21
414.6984061559562
 31
0.0
  0
LINE
  5
182
330
48
100
AcDbEntity
  8
1
  6
Continuous
 62
     7
100
AcDbLine
 10
263.030518396091
 20
447.1857631175605
 30
0.0
 11
263.030518396091
 21
423.1857631175605
 31
0.0
  0
LINE
  5
183
330
48
100
AcDbEntity
  8
1
  6
Continuous
 62
     7
100
AcDbLine
 10
315.731480290414
 20
435.1857631175604
 30
0.0
 11
315.731480290414
 21
424.4532631175605
 31
0.0
  0
LINE
  5
184
330
48
100
AcDbEntity
  8
1
  6
Continuous
 62
     7
100
AcDbLine
 10
315.731480290414
 20
435.1857631175604
 30
0.0
 11
315.731480290414
 21
445.9182631175602
 31
0.0
  0
LINE
  5
185
330
48
100
AcDbEntity
  8
1
  6
Continuous
 62
     2
100
AcDbLine
 10
296.2089802904141
 20
414.6984061559562
 30
0.0
 11
295.0469802904141
 21
412.6857631175611
 31
0.0
  0
LINE
  5
186
330
48
100
AcDbEntity
  8
1
  6
Continuous
 62
     2
100
AcDbLine
 10
276.4159802904139
 20
412.6857631175611
 30
0.0
 11
275.253980290414
 21
414.6984061559562
 31
0.0
  0
LINE
  5
187
330
48
100
AcDbEntity
  8
1
  6
Continuous
 62
     7
100
AcDbLine
 10
276.4159802904139
 20
412.6857631175611
 30
0.0
 11
275.2539802904139
 21
412.6857631175611
 31
0.0
  0
LINE
  5
188
330
48
100
AcDbEntity
  8
1
  6
Continuous
 62
     2
100
AcDbLine
 10
295.0469802904141
 20
412.6857631175611
 30
0.0
 11
295.0469802904141
 21
411.6857631175611
 31
0.0
  0
LINE
  5
189
330
48
100
AcDbEntity
  8
1
  6
Continuous
 62
     7
100
AcDbLine
 10
296.2089802904141
 20
412.6857631175611
 30
0.0
 11
276.4159802904139
 21
412.6857631175611
 31
0.0
  0
LINE
  5
18A
330
48
100
AcDbEntity
  8
1
  6
Continuous
 62
     7
100
AcDbLine
 10
261.731480290414
 20
423.1857631175605
 30
0.0
 11
260.230230290414
 21
423.1857631175597
 31
0.0
  0
LINE
  5
18B
330
48
100
AcDbEntity
  8
1
  6
Continuous
 62
     7
100
AcDbLine
 10
261.731480290414
 20
423.1857631175605
 30
0.0
 11
261.731480290414
 21
423.9357631175598
 31
0.0
  0
LINE
  5
18C
330
48
100
AcDbEntity
  8
1
  6
Continuous
 62
     7
100
AcDbLine
 10
263.030518396091
 20
423.1857631175605
 30
0.0
 11
261.731480290414
 21
423.1857631175605
 31
0.0
  0
LINE
  5
18D
330
48
100
AcDbEntity
  8
1
  6
Continuous
 62
     2
100
AcDbLine
 10
261.731480290414
 20
423.9357631175598
 30
0.0
 11
260.230230290414
 21
423.9357631175601
 31
0.0
  0
LINE
  5
18E
330
48
100
AcDbEntity
  8
1
  6
Continuous
 62
     2
100
AcDbLine
 10
263.030518396091
 20
423.1857631175605
 30
0.0
 11
261.731480290414
 21
423.9357631175598
 31
0.0
  0
LINE
  5
18F
330
48
100
AcDbEntity
  8
1
  6
Continuous
 62
     7
100
AcDbLine
 10
296.2089802904141
 20
414.6984061559562
 30
0.0
 11
296.2089802904141
 21
412.6857631175611
 31
0.0
  0
LINE
  5
190
330
48
100
AcDbEntity
  8
1
  6
Continuous
 62
     7
100
AcDbLine
 10
275.2539802904139
 20
412.6857631175611
 30
0.0
 11
275.253980290414
 21
414.6984061559562
 31
0.0
  0
LINE
  5
191
330
48
100
AcDbEntity
  8
1
  6
Continuous
 62
     7
100
AcDbLine
 10
261.731480290414
 20
423.1857631175605
 30
0.0
 11
261.731480290414
 21
447.1857631175605
 31
0.0
  0
LINE
  5
192
330
48
100
AcDbEntity
  8
1
  6
Continuous
 62
     7
100
AcDbLine
 10
261.731480290414
 20
447.1857631175605
 30
0.0
 11
263.030518396091
 21
447.1857631175605
 31
0.0
  0
LINE
  5
193
330
48
100
AcDbEntity
  8
1
  6
Continuous
 62
     2
100
AcDbLine
 10
261.731480290414
 20
446.4357631175612
 30
0.0
 11
263.030518396091
 21
447.1857631175605
 31
0.0
  0
LINE
  5
194
330
48
100
AcDbEntity
  8
1
  6
Continuous
 62
     7
100
AcDbLine
 10
306.8925934576153
 20
427.6802096180955
 30
0.0
 11
314.5703671232126
 21
427.6802096180955
 31
0.0
  0
LINE
  5
195
330
48
100
AcDbEntity
  8
1
  6
Continuous
 62
     7
100
AcDbLine
 10
306.8925934576154
 20
442.6913166170252
 30
0.0
 11
314.5703671232126
 21
442.6913166170253
 31
0.0
  0
LINE
  5
196
330
48
100
AcDbEntity
  8
1
  6
Continuous
 62
     7
100
AcDbLine
 10
315.731480290414
 20
423.927432868363
 30
0.0
 11
315.731480290414
 21
446.4440933667574
 31
0.0
  0
LINE
  5
197
330
48
100
AcDbEntity
  8
1
  6
Continuous
 62
     7
100
AcDbLine
 10
306.8925934576153
 20
450.1968701164903
 30
0.0
 11
314.5703671232126
 21
450.1968701164903
 31
0.0
  0
LINE
  5
198
330
48
100
AcDbEntity
  8
1
  6
Continuous
 62
     7
100
AcDbLine
 10
314.5703671232126
 20
420.1746561186301
 30
0.0
 11
314.5703671232149
 21
420.1746561186307
 31
0.0
  0
LINE
  5
199
330
48
100
AcDbEntity
  8
1
  6
Continuous
 62
     7
100
AcDbLine
 10
306.892593457613
 20
420.1746561186307
 30
0.0
 11
306.8925934576153
 21
420.1746561186301
 31
0.0
  0
LINE
  5
19A
330
48
100
AcDbEntity
  8
1
  6
Continuous
 62
     7
100
AcDbLine
 10
306.8925934576153
 20
420.1746561186301
 30
0.0
 11
314.5703671232126
 21
420.1746561186301
 31
0.0
  0
LINE
  5
19B
330
48
100
AcDbEntity
  8
1
  6
Continuous
 62
     7
100
AcDbLine
 10
266.4814802904107
 20
422.1857631175603
 30
0.0
 11
264.030518396091
 21
422.1857631175605
 31
0.0
  0
LINE
  5
19C
330
48
100
AcDbEntity
  8
1
  6
Continuous
 62
     7
100
AcDbLine
 10
267.4767037032709
 20
448.1857631175611
 30
0.0
 11
267.4814802903213
 21
448.1857631175611
 31
0.0
  0
LINE
  5
19D
330
48
100
AcDbEntity
  8
1
  6
PHANTOM
 62
     4
100
AcDbLine
 10
318.7314802904141
 20
435.1857631175601
 30
0.0
 11
252.731480290414
 21
435.1857631175603
 31
0.0
  0
LINE
  5
19E
330
48
100
AcDbEntity
  8
1
  6
Continuous
 62
     7
100
AcDbLine
 10
282.7327302904137
 20
429.4209994623879
 30
0.0
 11
282.7327302904137
 21
440.9505267727328
 31
0.0
  0
LINE
  5
19F
330
48
100
AcDbEntity
  8
1
  6
Continuous
 62
     2
100
AcDbLine
 10
264.030518396091
 20
448.1857631175605
 30
0.0
 11
263.030518396091
 21
447.1857631175605
 31
0.0
  0
LINE
  5
1A0
330
48
100
AcDbEntity
  8
1
  6
Continuous
 62
     7
100
AcDbLine
 10
264.030518396091
 20
448.1857631175605
 30
0.0
 11
303.9774958440511
 21
448.1857631175581
 31
0.0
  0
LINE
  5
1A1
330
48
100
AcDbEntity
  8
1
  6
Continuous
 62
     2
100
AcDbLine
 10
264.030518396091
 20
422.1857631175605
 30
0.0
 11
263.030518396091
 21
423.1857631175605
 31
0.0
  0
LINE
  5
1A2
330
48
100
AcDbEntity
  8
1
  6
Continuous
 62
     7
100
AcDbLine
 10
264.030518396091
 20
422.1857631175605
 30
0.0
 11
264.030518396091
 21
448.1857631175605
 31
0.0
  0
LINE
  5
1A3
330
48
100
AcDbEntity
  8
1
  6
Continuous
 62
     7
100
AcDbLine
 10
274.3561609799723
 20
415.5962254663978
 30
0.0
 11
275.253980290414
 21
414.6984061559562
 31
0.0
  0
LINE
  5
1A4
330
48
100
AcDbEntity
  8
1
  6
Continuous
 62
     7
100
AcDbLine
 10
297.0934663376047
 20
415.5828922031467
 30
0.0
 11
296.2089802904141
 21
414.6984061559562
 31
0.0
  0
LINE
  5
1A5
330
48
100
AcDbEntity
  8
1
  6
Continuous
 62
     7
100
AcDbLine
 10
274.3561609799723
 20
415.5962254663978
 30
0.0
 11
297.0934663376047
 21
415.5962254663978
 31
0.0
  0
LINE
  5
1A6
330
48
100
AcDbEntity
  8
1
  6
Continuous
 62
     7
100
AcDbLine
 10
260.230230290414
 20
447.1857631175607
 30
0.0
 11
261.731480290414
 21
447.1857631175605
 31
0.0
  0
LINE
  5
1A7
330
48
100
AcDbEntity
  8
1
  6
Continuous
 62
     2
100
AcDbLine
 10
260.230230290414
 20
446.4357631175601
 30
0.0
 11
261.731480290414
 21
446.4357631175612
 31
0.0
  0
LINE
  5
1A8
330
48
100
AcDbEntity
  8
1
  6
PHANTOM
 62
     4
100
AcDbLine
 10
116.0987668923649
 20
265.1857631175604
 30
0.0
 11
168.6098738912948
 21
265.1857631175604
 31
0.0
  0
LINE
  5
1A9
330
48
100
AcDbEntity
  8
1
  6
Continuous
 62
     2
100
AcDbLine
 10
154.5972308529001
 20
275.6632631175606
 30
0.0
 11
156.609873891295
 21
274.5012631175604
 31
0.0
  0
LINE
  5
1AA
330
48
100
AcDbEntity
  8
1
  6
Continuous
 62
     7
100
AcDbLine
 10
156.6098738912949
 20
254.7082631175605
 30
0.0
 11
156.6098738912949
 21
258.2393748286914
 31
0.0
  0
LINE
  5
1AB
330
48
100
AcDbEntity
  8
1
  6
Continuous
 62
     7
100
AcDbLine
 10
144.5873738912957
 20
286.1857631175604
 30
0.0
 11
144.5873738912956
 21
284.1731200791653
 31
0.0
  0
LINE
  5
1AC
330
48
100
AcDbEntity
  8
1
  6
Continuous
 62
     2
100
AcDbLine
 10
143.4253738912956
 20
286.1857631175604
 30
0.0
 11
144.5873738912956
 21
284.1731200791653
 31
0.0
  0
LINE
  5
1AD
330
48
100
AcDbEntity
  8
1
  6
Continuous
 62
     2
100
AcDbLine
 10
124.7943738912955
 20
294.0237631175605
 30
0.0
 11
124.7943738912953
 21
295.1857631175604
 31
0.0
  0
LINE
  5
1AE
330
48
100
AcDbEntity
  8
1
  6
Continuous
 62
     2
100
AcDbLine
 10
143.4253738912956
 20
295.1857631175603
 30
0.0
 11
143.4253738912955
 21
294.0237631175606
 31
0.0
  0
LINE
  5
1AF
330
48
100
AcDbEntity
  8
1
  6
Continuous
 62
     7
100
AcDbLine
 10
124.7943738912955
 20
294.0237631175605
 30
0.0
 11
144.5873738912957
 21
294.0237631175606
 31
0.0
  0
LINE
  5
1B0
330
48
100
AcDbEntity
  8
1
  6
Continuous
 62
     7
100
AcDbLine
 10
124.7943738912955
 20
294.0237631175605
 30
0.0
 11
123.6323738912954
 21
294.0237631175606
 31
0.0
  0
LINE
  5
1B1
330
48
100
AcDbEntity
  8
1
  6
Continuous
 62
     7
100
AcDbLine
 10
123.6323738912954
 20
294.0237631175606
 30
0.0
 11
124.7943738912953
 21
295.1857631175604
 31
0.0
  0
LINE
  5
1B2
330
48
100
AcDbEntity
  8
1
  6
Continuous
 62
     7
100
AcDbLine
 10
144.5873738912957
 20
286.1857631175604
 30
0.0
 11
144.5873738912957
 21
294.0237631175606
 31
0.0
  0
LINE
  5
1B3
330
48
100
AcDbEntity
  8
1
  6
Continuous
 62
     7
100
AcDbLine
 10
144.5873738912957
 20
294.0237631175606
 30
0.0
 11
143.4253738912956
 21
295.1857631175603
 31
0.0
  0
LINE
  5
1B4
330
48
100
AcDbEntity
  8
1
  6
Continuous
 62
     2
100
AcDbLine
 10
143.4253738912955
 20
294.0237631175606
 30
0.0
 11
143.4253738912956
 21
286.1857631175604
 31
0.0
  0
LINE
  5
1B5
330
48
100
AcDbEntity
  8
1
  6
Continuous
 62
     7
100
AcDbLine
 10
124.7943738912953
 20
295.1857631175604
 30
0.0
 11
143.4253738912956
 21
295.1857631175603
 31
0.0
  0
LINE
  5
1B6
330
48
100
AcDbEntity
  8
1
  6
Continuous
 62
     2
100
AcDbLine
 10
154.5972308529002
 20
254.7082631175605
 30
0.0
 11
156.609873891295
 21
255.8702631175605
 31
0.0
  0
LINE
  5
1B7
330
48
100
AcDbEntity
  8
1
  6
Continuous
 62
     2
100
AcDbLine
 10
156.609873891295
 20
255.8702631175605
 30
0.0
 11
157.6098738912949
 21
255.8702631175605
 31
0.0
  0
LINE
  5
1B8
330
48
100
AcDbEntity
  8
1
  6
Continuous
 62
     2
100
AcDbLine
 10
156.609873891295
 20
274.5012631175604
 30
0.0
 11
157.6098738912949
 21
274.5012631175604
 31
0.0
  0
LINE
  5
1B9
330
48
100
AcDbEntity
  8
1
  6
PHANTOM
 62
     4
100
AcDbLine
 10
134.1098738912956
 20
246.1857631175606
 30
0.0
 11
134.1098738912956
 21
298.1857631175604
 31
0.0
  0
LINE
  5
1BA
330
48
100
AcDbEntity
  8
1
  6
Continuous
 62
     7
100
AcDbLine
 10
144.5873738912956
 20
284.1731200791653
 30
0.0
 11
146.2473006139406
 21
282.5131933565205
 31
0.0
  0
LINE
  5
1BB
330
48
100
AcDbEntity
  8
1
  6
Continuous
 62
     7
100
AcDbLine
 10
153.8224651820441
 20
276.4380287884162
 30
0.0
 11
154.5972308529001
 21
275.6632631175606
 31
0.0
  0
LINE
  5
1BC
330
48
100
AcDbEntity
  8
1
  6
Continuous
 62
     7
100
AcDbLine
 10
153.8247308529001
 20
253.9357631175604
 30
0.0
 11
154.5972308529002
 21
254.7082631175605
 31
0.0
  0
LINE
  5
1BD
330
48
100
AcDbEntity
  8
1
  6
Continuous
 62
     7
100
AcDbLine
 10
153.8224651820442
 20
253.9357631175604
 30
0.0
 11
153.8247308529001
 21
253.9357631175604
 31
0.0
  0
LINE
  5
1BE
330
48
100
AcDbEntity
  8
1
  6
Continuous
 62
     7
100
AcDbLine
 10
153.8224651820442
 20
253.9357631175604
 30
0.0
 11
153.8224651820442
 21
257.4924909160722
 31
0.0
  0
LINE
  5
1BF
330
48
100
AcDbEntity
  8
1
  6
Continuous
 62
     7
100
AcDbLine
 10
148.5572609896854
 20
253.9357631175604
 30
0.0
 11
153.8224651820442
 21
253.9357631175604
 31
0.0
  0
LINE
  5
1C0
330
48
100
AcDbEntity
  8
1
  6
Continuous
 62
     7
100
AcDbLine
 10
123.6323738912955
 20
292.5707384638751
 30
0.0
 11
123.6323738912954
 21
294.0237631175606
 31
0.0
  0
LINE
  5
1C1
330
48
100
AcDbEntity
  8
1
  6
Continuous
 62
     2
100
AcDbLine
 10
124.7943738912956
 20
292.0719498159777
 30
0.0
 11
124.7943738912955
 21
294.0237631175605
 31
0.0
  0
LINE
  5
1C2
330
48
100
AcDbEntity
  8
1
  6
Continuous
 62
     7
100
AcDbLine
 10
130.9979196724151
 20
286.1857631175604
 30
0.0
 11
144.5873738912957
 21
286.1857631175604
 31
0.0
  0
LINE
  5
1C3
330
48
100
AcDbEntity
  8
1
  6
Continuous
 62
     7
100
AcDbLine
 10
133.01056271081
 20
284.1731200791654
 30
0.0
 11
144.5873738912956
 21
284.1731200791653
 31
0.0
  0
LINE
  5
1C4
330
48
100
AcDbEntity
  8
1
  6
Continuous
 62
     7
100
AcDbLine
 10
134.670489433455
 20
282.5131933565204
 30
0.0
 11
146.2473006139406
 21
282.5131933565205
 31
0.0
  0
LINE
  5
1C5
330
48
100
AcDbEntity
  8
1
  6
Continuous
 62
     7
100
AcDbLine
 10
153.8224651820441
 20
272.8832935658247
 30
0.0
 11
153.8224651820441
 21
276.4380287884162
 31
0.0
  0
LINE
  5
1C6
330
48
100
AcDbEntity
  8
1
  6
Continuous
 62
     7
100
AcDbLine
 10
156.6098738912949
 20
272.1364096532055
 30
0.0
 11
156.6098738912949
 21
275.6632631175606
 31
0.0
  0
LINE
  5
1C7
330
48
100
AcDbEntity
  8
1
  6
Continuous
 62
     7
100
AcDbLine
 10
154.5972308529002
 20
257.7000887519014
 30
0.0
 11
154.5972308529002
 21
254.7082631175605
 31
0.0
  0
LINE
  5
1C8
330
48
100
AcDbEntity
  8
1
  6
Continuous
 62
     7
100
AcDbLine
 10
154.5972308529001
 20
275.6632631175606
 30
0.0
 11
154.5972308529001
 21
272.6756957299955
 31
0.0
  0
LINE
  5
1C9
330
48
100
AcDbEntity
  8
1
  6
Continuous
 62
     7
100
AcDbLine
 10
296.2089802904141
 20
411.6857631175611
 30
0.0
 11
296.2089802904141
 21
412.6857631175611
 31
0.0
  0
LINE
  5
1CA
330
48
100
AcDbEntity
  8
1
  6
Continuous
 62
     2
100
AcDbLine
 10
276.4159802904139
 20
411.6857631175611
 30
0.0
 11
276.4159802904139
 21
412.6857631175611
 31
0.0
  0
LINE
  5
1CB
330
48
100
AcDbEntity
  8
1
  6
Continuous
 62
     7
100
AcDbLine
 10
275.2539802904139
 20
411.6857631175611
 30
0.0
 11
275.2539802904139
 21
412.6857631175611
 31
0.0
  0
LINE
  5
1CC
330
48
100
AcDbEntity
  8
1
  6
Continuous
 62
     7
100
AcDbLine
 10
157.6098738912949
 20
275.6632631175606
 30
0.0
 11
154.5972308529001
 21
275.6632631175606
 31
0.0
  0
LINE
  5
1CD
330
48
100
AcDbEntity
  8
1
  6
Continuous
 62
     7
100
AcDbLine
 10
157.6098738912949
 20
254.7082631175605
 30
0.0
 11
154.5972308529002
 21
254.7082631175605
 31
0.0
  0
ARC
  5
1CE
330
48
100
AcDbEntity
  8
1
  6
Continuous
 62
     7
100
AcDbCircle
 10
265.9516648298243
 20
286.1857631175604
 30
0.0
 40
8.0
100
AcDbArc
 50
-90.0
 51
-45.0
  0
ARC
  5
1CF
330
48
100
AcDbEntity
  8
1
  6
Continuous
 62
     7
100
AcDbCircle
 10
305.5087957510033
 20
286.1857631175604
 30
0.0
 40
7.999999999999903
100
AcDbArc
 50
-134.9999999999994
 51
-90.0
  0
ARC
  5
1D0
330
48
100
AcDbEntity
  8
1
  6
Continuous
 62
     7
100
AcDbCircle
 10
324.0691171232146
 20
271.6857631175604
 30
0.0
 40
18.36643427850266
100
AcDbArc
 50
159.2735604049808
 51
-159.2735604049808
  0
ARC
  5
1D1
330
48
100
AcDbEntity
  8
1
  6
Continuous
 62
     7
100
AcDbCircle
 10
297.391343457615
 20
271.6857631175604
 30
0.0
 40
18.36643427850106
100
AcDbArc
 50
-20.7264395950211
 51
20.7264395950211
  0
ARC
  5
1D2
330
48
100
AcDbEntity
  8
1
  6
Continuous
 62
     7
100
AcDbCircle
 10
324.0691171232146
 20
258.6857631175604
 30
0.0
 40
18.36643427850266
100
AcDbArc
 50
159.2735604049808
 51
-159.2735604049809
  0
ARC
  5
1D3
330
48
100
AcDbEntity
  8
1
  6
Continuous
 62
     7
100
AcDbCircle
 10
297.391343457615
 20
258.6857631175604
 30
0.0
 40
18.36643427850105
100
AcDbArc
 50
-20.72643959502101
 51
20.7264395950211
  0
ARC
  5
1D4
330
48
100
AcDbEntity
  8
1
  6
Continuous
 62
     7
100
AcDbCircle
 10
312.3766194362878
 20
423.9274328683461
 30
0.0
 40
6.645139145869567
100
AcDbArc
 50
-150.5533865786171
 51
-145.6157525319484
  0
ARC
  5
1D5
330
48
100
AcDbEntity
  8
1
  6
Continuous
 62
     7
100
AcDbCircle
 10
303.977495844047
 20
419.185763117553
 30
0.0
 40
3.000000000007105
100
AcDbArc
 50
29.44661342146186
 51
112.9908861769479
  0
ARC
  5
1D6
330
48
100
AcDbEntity
  8
1
  6
Continuous
 62
     7
100
AcDbCircle
 10
266.4814802904103
 20
414.1857631175568
 30
0.0
 40
8.000000000003684
100
AcDbArc
 50
10.15477259717606
 51
89.99999999997313
  0
ARC
  5
1D7
330
48
100
AcDbEntity
  8
1
  6
Continuous
 62
     7
100
AcDbCircle
 10
290.8925934576155
 20
435.1857631175604
 30
0.0
 40
24.83888683279855
100
AcDbArc
 50
-17.58795377399313
 51
17.58795377399313
  0
ARC
  5
1D8
330
48
100
AcDbEntity
  8
1
  6
Continuous
 62
     7
100
AcDbCircle
 10
309.0863411445131
 20
423.927432868363
 30
0.0
 40
6.645139145901068
100
AcDbArc
 50
-34.38424746804029
 51
0.0
  0
ARC
  5
1D9
330
48
100
AcDbEntity
  8
1
  6
Continuous
 62
     7
100
AcDbCircle
 10
309.0863411445122
 20
446.4440933667574
 30
0.0
 40
6.645139145901369
100
AcDbArc
 50
-34.3842474680302
 51
0.0
  0
ARC
  5
1DA
330
48
100
AcDbEntity
  8
1
  6
Continuous
 62
     7
100
AcDbCircle
 10
330.5703671232124
 20
435.1857631175604
 30
0.0
 40
24.83888683279843
100
AcDbArc
 50
162.4120462260069
 51
-162.4120462260069
  0
ARC
  5
1DB
330
48
100
AcDbEntity
  8
1
  6
Continuous
 62
     7
100
AcDbCircle
 10
309.0863411445131
 20
423.927432868363
 30
0.0
 40
6.645139145900942
100
AcDbArc
 50
0.0
 51
34.38424746803746
  0
ARC
  5
1DC
330
48
100
AcDbEntity
  8
1
  6
Continuous
 62
     7
100
AcDbCircle
 10
309.0863411445122
 20
446.4440933667574
 30
0.0
 40
6.645139145901851
100
AcDbArc
 50
0.0
 51
34.38424746803586
  0
ARC
  5
1DD
330
48
100
AcDbEntity
  8
1
  6
Continuous
 62
     7
100
AcDbCircle
 10
312.3766194363157
 20
446.4440933667582
 30
0.0
 40
6.645139145901369
100
AcDbArc
 50
145.6157525319698
 51
-179.9999999999932
  0
ARC
  5
1DE
330
48
100
AcDbEntity
  8
1
  6
Continuous
 62
     7
100
AcDbCircle
 10
312.3766194363146
 20
423.9274328683637
 30
0.0
 40
6.6451391459006
100
AcDbArc
 50
-179.9999999999936
 51
-145.6157525319536
  0
ARC
  5
1DF
330
48
100
AcDbEntity
  8
1
  6
Continuous
 62
     7
100
AcDbCircle
 10
303.9774958440513
 20
451.185763117561
 30
0.0
 40
3.000000000002899
100
AcDbArc
 50
-90.00000000000435
 51
-29.44661342139548
  0
ARC
  5
1E0
330
48
100
AcDbEntity
  8
1
  6
Continuous
 62
     7
100
AcDbCircle
 10
267.4790919968009
 20
453.1881514111768
 30
0.0
 40
5.002388863737937
100
AcDbArc
 50
-90.02735475958227
 51
-89.97264524052713
  0
ARC
  5
1E1
330
48
100
AcDbEntity
  8
1
  6
Continuous
 62
     7
100
AcDbCircle
 10
312.3766194363146
 20
423.9274328683637
 30
0.0
 40
6.645139145900284
100
AcDbArc
 50
145.615752531967
 51
-179.9999999999936
  0
ARC
  5
1E2
330
48
100
AcDbEntity
  8
1
  6
Continuous
 62
     7
100
AcDbCircle
 10
285.7302302904138
 20
435.1857631175604
 30
0.0
 40
6.497499999999847
100
AcDbArc
 50
-117.4730460630326
 51
117.4730460630329
  0
ARC
  5
1E3
330
48
100
AcDbEntity
  8
1
  6
Continuous
 62
     7
100
AcDbCircle
 10
285.7302302904138
 20
435.1857631175604
 30
0.0
 40
6.497499999999796
100
AcDbArc
 50
117.4730460630329
 51
-117.4730460630326
  0
ARC
  5
1E4
330
48
100
AcDbEntity
  8
1
  6
Continuous
 62
     7
100
AcDbCircle
 10
312.3766194363157
 20
446.4440933667582
 30
0.0
 40
6.64513914590168
100
AcDbArc
 50
-179.9999999999932
 51
-145.6157525319632
  0
ARC
  5
1E5
330
48
100
AcDbEntity
  8
1
  6
Continuous
 62
     7
100
AcDbCircle
 10
304.9814802904161
 20
414.2490121934423
 30
0.0
 40
8.000000000002375
100
AcDbArc
 50
105.7813674011384
 51
170.401960930102
  0
ARC
  5
1E6
330
48
100
AcDbEntity
  8
1
  6
Continuous
 62
     7
100
AcDbCircle
 10
134.1098738912957
 20
297.6970471092071
 30
0.0
 40
45.5112839916463
100
AcDbArc
 50
-80.4222438017503
 51
-76.18691378888371
  0
ARC
  5
1E7
330
48
100
AcDbEntity
  8
1
  6
Continuous
 62
     7
100
AcDbCircle
 10
154.0128479554958
 20
284.4357631175607
 30
0.0
 40
8.000000000000071
100
AcDbArc
 50
-166.0945001967425
 51
-91.36364491088331
  0
CIRCLE
  5
1E8
330
48
100
AcDbEntity
  8
1
  6
Continuous
 62
     7
100
AcDbCircle
 10
285.7302302904138
 20
435.1857631175604
 30
0.0
 40
10.50000000000011
  0
CIRCLE
  5
1E9
330
48
100
AcDbEntity
  8
1
  6
Continuous
 62
     2
100
AcDbCircle
 10
285.7302302904138
 20
435.1857631175604
 30
0.0
 40
9.315500000000327
  0
ARC
  5
1EA
330
48
100
AcDbEntity
  8
1
  6
Continuous
 62
     7
100
AcDbCircle
 10
148.5572609896853
 20
238.9357631175604
 30
0.0
 40
15.0
100
AcDbArc
 50
89.99999999999957
 51
103.8130862111172
  0
ENDBLK
  5
4A
330
48
100
AcDbEntity
  8
0
100
AcDbBlockEnd
  0
BLOCK
  5
208
330
1FF
100
AcDbEntity
  8
0
100
AcDbBlockBegin
  2
*D08
 70
     1
 71
     0
 10
0.0
 20
0.0
 30
0.0
  3
*D08
  1

  0
LINE
  5
200
330
1FF
100
AcDbEntity
  8
1
  6
Continuous
 62
     2
100
AcDbLine
 10
311.140112452925
 20
272.1857631175605
 30
0.0
 11
311.140112452925
 21
286.1857631175605
 31
0.0
  0
LINE
  5
201
330
1FF
100
AcDbEntity
  8
1
  6
Continuous
 62
     2
100
AcDbLine
 10
311.140112452925
 20
286.1857631175605
 30
0.0
 11
311.140112452925
 21
295.1857631175605
 31
0.0
  0
LINE
  5
202
330
1FF
100
AcDbEntity
  8
1
  6
Continuous
 62
     2
100
AcDbLine
 10
311.140112452925
 20
295.1857631175605
 30
0.0
 11
311.140112452925
 21
309.1857631175605
 31
0.0
  0
LINE
  5
203
330
1FF
100
AcDbEntity
  8
1
  6
Continuous
 62
     2
100
AcDbLine
 10
295.0457302904138
 20
295.1857631175605
 30
0.0
 11
313.140112452925
 21
295.1857631175605
 31
0.0
  0
LINE
  5
204
330
1FF
100
AcDbEntity
  8
1
  6
Continuous
 62
     2
100
AcDbLine
 10
296.2077302904139
 20
286.1857631175605
 30
0.0
 11
313.140112452925
 21
286.1857631175605
 31
0.0
  0
SOLID
  5
205
330
1FF
100
AcDbEntity
  8
1
 62
     2
100
AcDbTrace
 10
312.0616799360367
 20
279.1857631175605
 30
0.0
 11
310.2185449698133
 21
279.1857631175605
 31
0.0
 12
311.140112452925
 22
286.1857631175605
 32
0.0
 13
311.140112452925
 23
286.1857631175605
 33
0.0
  0
SOLID
  5
206
330
1FF
100
AcDbEntity
  8
1
 62
     2
100
AcDbTrace
 10
310.2185449698133
 20
302.1857631175605
 30
0.0
 11
312.0616799360367
 21
302.1857631175605
 31
0.0
 12
311.140112452925
 22
295.1857631175605
 32
0.0
 13
311.140112452925
 23
295.1857631175605
 33
0.0
  0
MTEXT
  5
207
330
1FF
100
AcDbEntity
  8
1
 62
     7
100
AcDbMText
 10
309.140112452925
 20
304.265685827264
 30
0.0
 40
7.0
 41
0.0
 71
     7
 72
     1
  1
9
  7
CONVERTER_2
 11
0.0
 21
1.0
 31
0.0
 73
     1
 44
0.60024009603842
  0
ENDBLK
  5
209
330
1FF
100
AcDbEntity
  8
0
100
AcDbBlockEnd
  0
BLOCK
  5
213
330
20C
100
AcDbEntity
  8
0
100
AcDbBlockBegin
  2
*D19
 70
     1
 71
     0
 10
0.0
 20
0.0
 30
0.0
  3
*D19
  1

  0
LINE
  5
20D
330
20C
100
AcDbEntity
  8
1
  6
Continuous
 62
     2
100
AcDbLine
 10
228.4303289823345
 20
217.5399939885787
 30
0.0
 11
315.7302302904142
 21
217.5399939885787
 31
0.0
  0
LINE
  5
20E
330
20C
100
AcDbEntity
  8
1
  6
Continuous
 62
     2
100
AcDbLine
 10
315.7302302904142
 20
252.1857631175604
 30
0.0
 11
315.7302302904142
 21
215.5399939885787
 31
0.0
  0
LINE
  5
20F
330
20C
100
AcDbEntity
  8
1
  6
Continuous
 62
     2
100
AcDbLine
 10
228.4303289823345
 20
265.1857631175604
 30
0.0
 11
228.4303289823345
 21
215.5399939885787
 31
0.0
  0
SOLID
  5
210
330
20C
100
AcDbEntity
  8
1
 62
     2
100
AcDbTrace
 10
235.4303289823345
 20
218.4615614716905
 30
0.0
 11
235.4303289823345
 21
216.6184265054669
 31
0.0
 12
228.4303289823345
 22
217.5399939885787
 32
0.0
 13
228.4303289823345
 23
217.5399939885787
 33
0.0
  0
SOLID
  5
211
330
20C
100
AcDbEntity
  8
1
 62
     2
100
AcDbTrace
 10
308.7302302904142
 20
216.6184265054669
 30
0.0
 11
308.7302302904142
 21
218.4615614716905
 31
0.0
 12
315.7302302904142
 22
217.5399939885787
 32
0.0
 13
315.7302302904142
 23
217.5399939885787
 33
0.0
  0
MTEXT
  5
212
330
20C
100
AcDbEntity
  8
1
 62
     7
100
AcDbMText
 10
266.8302796363743
 20
219.5399939885787
 30
0.0
 40
7.0
 41
0.0
 71
     7
 72
     1
  1
88
  7
CONVERTER_2
 11
0.9999999999970621
 21
2.424068405545307E-6
 31
0.0
 73
     1
 44
0.60024009603842
  0
ENDBLK
  5
214
330
20C
100
AcDbEntity
  8
0
100
AcDbBlockEnd
  0
BLOCK
  5
21E
330
217
100
AcDbEntity
  8
0
100
AcDbBlockBegin
  2
*D210
 70
     1
 71
     0
 10
0.0
 20
0.0
 30
0.0
  3
*D210
  1

  0
LINE
  5
218
330
217
100
AcDbEntity
  8
1
  6
Continuous
 62
     2
100
AcDbLine
 10
285.7314802904143
 20
315.1857631175604
 30
0.0
 11
228.4303289823345
 21
315.1857631175604
 31
0.0
  0
LINE
  5
219
330
217
100
AcDbEntity
  8
1
  6
Continuous
 62
     2
100
AcDbLine
 10
285.7314802904143
 20
298.1857631175604
 30
0.0
 11
285.7314802904143
 21
317.1857631175604
 31
0.0
  0
LINE
  5
21A
330
217
100
AcDbEntity
  8
1
  6
Continuous
 62
     2
100
AcDbLine
 10
228.4303289823345
 20
265.1857631175604
 30
0.0
 11
228.4303289823345
 21
317.1857631175604
 31
0.0
  0
SOLID
  5
21B
330
217
100
AcDbEntity
  8
1
 62
     2
100
AcDbTrace
 10
278.7314802904143
 20
314.2641956344486
 30
0.0
 11
278.7314802904143
 21
316.1073306006721
 31
0.0
 12
285.7314802904143
 22
315.1857631175604
 32
0.0
 13
285.7314802904143
 23
315.1857631175604
 33
0.0
  0
SOLID
  5
21C
330
217
100
AcDbEntity
  8
1
 62
     2
100
AcDbTrace
 10
235.4303289823345
 20
316.1073306006721
 30
0.0
 11
235.4303289823345
 21
314.2641956344486
 31
0.0
 12
228.4303289823345
 22
315.1857631175604
 32
0.0
 13
228.4303289823345
 23
315.1857631175604
 33
0.0
  0
MTEXT
  5
21D
330
217
100
AcDbEntity
  8
1
 62
     7
100
AcDbMText
 10
238.1809046363743
 20
317.1857631175604
 30
0.0
 40
7.0
 41
0.0
 71
     7
 72
     1
  1
58リフト5
  7
CONVERTER_1
 11
0.9999999999970621
 21
2.424068405545307E-6
 31
0.0
 73
     1
 44
0.60024009603842
  0
ENDBLK
  5
21F
330
217
100
AcDbEntity
  8
0
100
AcDbBlockEnd
  0
BLOCK
  5
229
330
222
100
AcDbEntity
  8
0
100
AcDbBlockBegin
  2
*D311
 70
     1
 71
     0
 10
0.0
 20
0.0
 30
0.0
  3
*D311
  1

  0
LINE
  5
223
330
222
100
AcDbEntity
  8
1
  6
Continuous
 62
     2
100
AcDbLine
 10
285.7314802904141
 20
383.6857631175611
 30
0.0
 11
315.731480290414
 21
383.6857631175611
 31
0.0
  0
LINE
  5
224
330
222
100
AcDbEntity
  8
1
  6
Continuous
 62
     2
100
AcDbLine
 10
315.731480290414
 20
423.927432868363
 30
0.0
 11
315.731480290414
 21
381.6857631175611
 31
0.0
  0
LINE
  5
225
330
222
100
AcDbEntity
  8
1
  6
Continuous
 62
     2
100
AcDbLine
 10
285.7314802904141
 20
397.6857631175611
 30
0.0
 11
285.7314802904141
 21
381.6857631175611
 31
0.0
  0
SOLID
  5
226
330
222
100
AcDbEntity
  8
1
 62
     2
100
AcDbTrace
 10
292.7314802904141
 20
384.6073306006729
 30
0.0
 11
292.7314802904141
 21
382.7641956344494
 31
0.0
 12
285.7314802904141
 22
383.6857631175611
 32
0.0
 13
285.7314802904141
 23
383.6857631175611
 33
0.0
  0
SOLID
  5
227
330
222
100
AcDbEntity
  8
1
 62
     2
100
AcDbTrace
 10
308.731480290414
 20
382.7641956344494
 30
0.0
 11
308.731480290414
 21
384.6073306006729
 31
0.0
 12
315.731480290414
 22
383.6857631175611
 32
0.0
 13
315.731480290414
 23
383.6857631175611
 33
0.0
  0
MTEXT
  5
228
330
222
100
AcDbEntity
  8
1
 62
     7
100
AcDbMText
 10
295.4814802904141
 20
385.6857631175611
 30
0.0
 40
7.0
 41
0.0
 71
     7
 72
     1
  1
30
  7
CONVERTER_2
 11
0.9999999999970621
 21
2.424068405545307E-6
 31
0.0
 73
     1
 44
0.60024009603842
  0
ENDBLK
  5
22A
330
222
100
AcDbEntity
  8
0
100
AcDbBlockEnd
  0
BLOCK
  5
234
330
22D
100
AcDbEntity
  8
0
100
AcDbBlockBegin
  2
*D412
 70
     1
 71
     0
 10
0.0
 20
0.0
 30
0.0
  3
*D412
  1

  0
LINE
  5
22E
330
22D
100
AcDbEntity
  8
1
  6
Continuous
 62
     2
100
AcDbLine
 10
134.1098738912956
 20
227.5372571463376
 30
0.0
 11
169.6098738912948
 21
227.5372571463376
 31
0.0
  0
LINE
  5
22F
330
22D
100
AcDbEntity
  8
1
  6
Continuous
 62
     2
100
AcDbLine
 10
169.6098738912948
 20
254.1857631175604
 30
0.0
 11
169.6098738912948
 21
225.5372571463376
 31
0.0
  0
LINE
  5
230
330
22D
100
AcDbEntity
  8
1
  6
Continuous
 62
     2
100
AcDbLine
 10
134.1098738912956
 20
241.3019755832173
 30
0.0
 11
134.1098738912956
 21
225.5372571463376
 31
0.0
  0
SOLID
  5
231
330
22D
100
AcDbEntity
  8
1
 62
     2
100
AcDbTrace
 10
141.1098738912956
 20
228.4588246294494
 30
0.0
 11
141.1098738912956
 21
226.6156896632258
 31
0.0
 12
134.1098738912956
 22
227.5372571463376
 32
0.0
 13
134.1098738912956
 23
227.5372571463376
 33
0.0
  0
SOLID
  5
232
330
22D
100
AcDbEntity
  8
1
 62
     2
100
AcDbTrace
 10
162.6098738912948
 20
226.6156896632258
 30
0.0
 11
162.6098738912948
 21
228.4588246294494
 31
0.0
 12
169.6098738912948
 22
227.5372571463376
 32
0.0
 13
169.6098738912948
 23
227.5372571463376
 33
0.0
  0
MTEXT
  5
233
330
22D
100
AcDbEntity
  8
1
 62
     7
100
AcDbMText
 10
146.6098738912952
 20
229.5372571463376
 30
0.0
 40
7.0
 41
0.0
 71
     7
 72
     1
  1
36
  7
CONVERTER_2
 11
0.9999999999970621
 21
2.424068405545307E-6
 31
0.0
 73
     1
 44
0.60024009603842
  0
ENDBLK
  5
235
330
22D
100
AcDbEntity
  8
0
100
AcDbBlockEnd
  0
ENDSEC
  0
SECTION
  2
ENTITIES
  0
INSERT
  5
4B
330
1F
100
AcDbEntity
  8
1
100
AcDbBlockReference
  2
32-213
 10
1099.152100264574
 20
1510.551094578063
 30
0.0
  0
INSERT
  5
4C
330
1F
100
AcDbEntity
  8
1
100
AcDbBlockReference
  2
36-54-M11
 10
1378.9281349164
 20
705.4476910489889
 30
0.0
  0
INSERT
  5
4D
330
1F
100
AcDbEntity
  8
0
100
AcDbBlockReference
  2
21-1C
 10
974.3210752757352
 20
771.6896903360208
 30
0.0
  0
INSERT
  5
4E
330
1F
100
AcDbEntity
  8
0
100
AcDbBlockReference
  2
42-15
 10
1073.675241735376
 20
746.0231571141251
 30
0.0
  0
INSERT
  5
4F
330
1F
100
AcDbEntity
  8
0
100
AcDbBlockReference
  2
37-1-13
 10
404.8536138051611
 20
153.3845329007891
 30
0.0
  0
INSERT
  5
50
330
1F
100
AcDbEntity
  8
1
100
AcDbBlockReference
  2
_J__A4
 10
0.0
 20
0.0
 30
0.0
 41
2.0
 42
2.0
 43
2.0
  0
INSERT
  5
51
330
1F
100
AcDbEntity
  8
1
100
AcDbBlockReference
  2
B4112R-0A-13
 10
245.7203732914837
 20
154.1857631175602
 30
0.0
  0
LINE
  5
1EB
330
1F
100
AcDbEntity
  8
1
  6
DASH_CENTER
 62
     2
100
AcDbLine
 10
285.7314802904142
 20
298.1857631175604
 30
0.0
 11
285.7314802904142
 21
249.1857631175604
 31
0.0
  0
LINE
  5
1EC
330
1F
100
AcDbEntity
  8
1
  6
DASH_CENTER
 62
     2
100
AcDbLine
 10
321.7302302904141
 20
265.1857631175604
 30
0.0
 11
228.4303289823344
 21
265.1857631175604
 31
0.0
  0
LINE
  5
1ED
330
1F
100
AcDbEntity
  8
1
  6
DASH_CENTER
 62
     2
100
AcDbLine
 10
228.4303289823344
 20
265.1857631175604
 30
0.0
 11
222.4303289823344
 21
265.1857631175604
 31
0.0
  0
LINE
  5
1EE
330
1F
100
AcDbEntity
  8
1
  6
DASH_CENTER
 62
     2
100
AcDbLine
 10
321.7314802904141
 20
435.1857631175601
 30
0.0
 11
222.4302302904145
 21
435.1857631175602
 31
0.0
  0
LINE
  5
1EF
330
1F
100
AcDbEntity
  8
1
  6
DASH_CENTER
 62
     2
100
AcDbLine
 10
285.7314802904141
 20
397.6857631175611
 30
0.0
 11
285.731480290414
 21
454.1857631175592
 31
0.0
  0
LINE
  5
1F0
330
1F
100
AcDbEntity
  8
1
  6
DASH_CENTER
 62
     2
100
AcDbLine
 10
134.1098738912956
 20
241.3019755832173
 30
0.0
 11
134.1098738912956
 21
301.1857631175603
 31
0.0
  0
LINE
  5
1F1
330
1F
100
AcDbEntity
  8
1
  6
DASH_CENTER
 62
     2
100
AcDbLine
 10
113.6098738912956
 20
265.1857631175604
 30
0.0
 11
175.6098738912949
 21
265.1857631175604
 31
0.0
  0
SOLID
  5
1F2
330
1F
100
AcDbEntity
  8
0
 62
     2
100
AcDbTrace
 10
320.0283311420906
 20
248.8518690326254
 30
0.0
 11
318.4321294387376
 21
247.9303015495136
 31
0.0
 12
315.7302302904141
 22
254.4532631175606
 32
0.0
 13
315.7302302904141
 23
254.4532631175606
 33
0.0
  0
LEADER
  5
1F3
330
1F
100
AcDbEntity
  8
0
  6
Continuous
 62
     2
100
AcDbLeader
  3
Standard
 71
     0
 76
     3
 10
315.7302302904141
 20
254.4532631175606
 30
0.0
 10
328.5863774095942
 20
232.1857631175604
 30
0.0
 10
360.2815736512812
 20
232.1857631175604
 30
0.0
  0
SOLID
  5
1F4
330
1F
100
AcDbEntity
  8
1
 62
     2
100
AcDbTrace
 10
147.2892730396194
 20
296.6277246856076
 30
0.0
 11
148.8854747429724
 21
295.7061572024958
 31
0.0
 12
144.5873738912958
 22
290.1047631175607
 32
0.0
 13
144.5873738912958
 23
290.1047631175607
 33
0.0
  0
LEADER
  5
1F5
330
1F
100
AcDbEntity
  8
1
  6
Continuous
 62
     2
100
AcDbLeader
  3
Standard
 71
     0
 76
     3
 10
144.5873738912958
 20
290.1047631175607
 30
0.0
 10
153.2943933009445
 20
305.1857631175606
 30
0.0
 10
175.9098497291493
 20
305.1857631175606
 30
0.0
  0
MTEXT
  5
1F7
330
1F
100
AcDbEntity
  8
1
 62
     7
100
AcDbMText
 10
114.0
 20
28.5
 30
0.0
 40
7.0
 41
0.0
 71
     5
 72
     1
  1
B4112-X3-R-13
  7
CONVERTER_2
 73
     1
 44
0.7202881152461
  0
MTEXT
  5
1F8
330
1F
100
AcDbEntity
  8
1
 62
     7
100
AcDbMText
 10
344.8648527445261
 20
238.1857631175604
 30
0.0
 40
7.0
 41
0.0
 71
     5
 72
     1
  1
Rc1/2
  7
CONVERTER_2
 73
     1
 44
0.7202881152461
  0
MTEXT
  5
1F9
330
1F
100
AcDbEntity
  8
1
 62
     7
100
AcDbMText
 10
165.3592488912958
 20
311.1857631175606
 30
0.0
 40
7.0
 41
0.0
 71
     5
 72
     1
  1
G1/2
  7
CONVERTER_2
 73
     1
 44
0.7202881152461
  0
MTEXT
  5
1FA
330
1F
100
AcDbEntity
  8
1
 62
     7
100
AcDbMText
 10
114.0
 20
45.50000000000003
 30
0.0
 40
7.0
 41
0.0
 71
     5
 72
     1
  1
アングル分岐バルブ
  7
CONVERTER_1
 73
     1
 44
0.7202881152461
  0
MTEXT
  5
1FB
330
1F
100
AcDbEntity
  8
1
 62
     7
100
AcDbMText
 10
170.5
 20
34.0
 30
0.0
 40
7.0
 41
0.0
 71
     5
 72
     1
  1
1
  7
CONVERTER_2
 73
     1
 44
0.7202881152461
  0
MTEXT
  5
1FC
330
1F
100
AcDbEntity
  8
1
 62
     7
100
AcDbMText
 10
187.5
 20
34.0
 30
0.0
 40
7.0
 41
0.0
 71
     5
 72
     1
  1
2
  7
CONVERTER_2
 73
     1
 44
0.7202881152461
  0
MTEXT
  5
1FD
330
1F
100
AcDbEntity
  8
1
 62
     7
100
AcDbMText
 10
68.0
 20
75.0
 30
0.0
 40
7.0
 41
0.0
 71
     4
 72
     1
  1
JIS
  7
CONVERTER_2
 73
     1
 44
0.7202881152461
  0
MTEXT
  5
1FE
330
1F
100
AcDbEntity
  8
1
 62
     7
100
AcDbMText
 10
68.0
 20
61.00000000000001
 30
0.0
 40
7.0
 41
0.0
 71
     4
 72
     1
  1
共用形
  7
CONVERTER_1
 73
     1
 44
0.7202881152461
  0
DIMENSION
  5
20B
330
1F
100
AcDbEntity
  8
1
100
AcDbDimension
  2
*D08
 10
311.140112452925
 20
286.1857631175605
 30
0.0
 11
305.640112452925
 21
306.365685827264
 31
0.0
  1
<>
 71
     5
 42
0.0
 53
90.0
  3
ME10_DIM_0
100
AcDbAlignedDimension
 13
295.0457302904139
 23
295.1857631175604
 33
0.0
 14
296.2077302904139
 24
286.1857631175604
 34
0.0
 50
90.0
100
AcDbRotatedDimension
  0
DIMENSION
  5
216
330
1F
100
AcDbEntity
  8
1
100
AcDbDimension
  2
*D19
 10
228.4303289823345
 20
217.5399939885787
 30
0.0
 11
272.0802796363743
 21
223.0399939885787
 31
0.0
  1
88
 71
     5
 42
0.0
 53
0.00013888888889
  3
ME10_DIM_1
100
AcDbAlignedDimension
 13
315.7302302904141
 23
252.1857631175604
 33
0.0
 14
228.4303289823344
 24
265.1857631175604
 34
0.0
100
AcDbRotatedDimension
  0
DIMENSION
  5
221
330
1F
100
AcDbEntity
  8
1
100
AcDbDimension
  2
*D210
 10
285.7314802904143
 20
315.1857631175604
 30
0.0
 11
257.0809046363743
 21
320.6857631175604
 31
0.0
  1
58リフト5
 71
     5
 42
0.0
 53
0.00013888888889
  3
ME10_DIM_2
100
AcDbAlignedDimension
 13
228.4303289823344
 23
265.1857631175604
 33
0.0
 14
285.7314802904142
 24
298.1857631175604
 34
0.0
100
AcDbRotatedDimension
  0
DIMENSION
  5
22C
330
1F
100
AcDbEntity
  8
1
100
AcDbDimension
  2
*D311
 10
285.7314802904141
 20
383.6857631175611
 30
0.0
 11
300.7314802904141
 21
389.1857631175611
 31
0.0
  1
<>
 71
     5
 42
0.0
 53
0.00013888888889
  3
ME10_DIM_3
100
AcDbAlignedDimension
 13
315.731480290414
 23
423.927432868363
 33
0.0
 14
285.7314802904141
 24
397.6857631175611
 34
0.0
100
AcDbRotatedDimension
  0
DIMENSION
  5
237
330
1F
100
AcDbEntity
  8
1
100
AcDbDimension
  2
*D412
 10
134.1098738912956
 20
227.5372571463376
 30
0.0
 11
151.8598738912952
 21
233.0372571463376
 31
0.0
  1
36
 71
     5
 42
0.0
 53
0.00013888888889
  3
ME10_DIM_4
100
AcDbAlignedDimension
 13
169.6098738912949
 23
254.1857631175604
 33
0.0
 14
134.1098738912956
 24
241.3019755832173
 34
0.0
100
AcDbRotatedDimension
  0
ENDSEC
  0
SECTION
  2
OBJECTS
  0
DICTIONARY
  5
C
330
0
100
AcDbDictionary
281
     1
  3
ACAD_GROUP
350
D
  3
ACAD_LAYOUT
350
1A
  3
ACAD_MLINESTYLE
350
17
  3
ACAD_PLOTSETTINGS
350
19
  3
ACAD_PLOTSTYLENAME
350
E
  3
ACAD_TABLESTYLE
350
2A
  3
AcDbVariableDictionary
350
2C
  0
DICTIONARY
  5
D
102
{ACAD_REACTORS
330
C
102
}
330
C
100
AcDbDictionary
281
     1
  0
DICTIONARY
  5
1A
102
{ACAD_REACTORS
330
C
102
}
330
C
100
AcDbDictionary
281
     1
  3
Layout1
350
1E
  3
Layout2
350
26
  3
Model
350
22
  0
DICTIONARY
  5
17
102
{ACAD_REACTORS
330
C
102
}
330
C
100
AcDbDictionary
281
     1
  3
Standard
350
18
  0
DICTIONARY
  5
19
102
{ACAD_REACTORS
330
C
102
}
330
C
100
AcDbDictionary
281
     1
  0
ACDBDICTIONARYWDFLT
  5
E
102
{ACAD_REACTORS
330
C
102
}
330
C
100
AcDbDictionary
281
     1
  3
Normal
350
F
100
AcDbDictionaryWithDefault
340
F
  0
DICTIONARY
  5
2A
102
{ACAD_REACTORS
330
C
102
}
330
C
100
AcDbDictionary
281
     1
  3
Standard
350
2B
  0
DICTIONARY
  5
2C
102
{ACAD_REACTORS
330
C
102
}
330
C
100
AcDbDictionary
281
     1
  3
CTABLESTYLE
350
2D
  0
LAYOUT
  5
1E
102
{ACAD_REACTORS
330
1A
102
}
330
1A
100
AcDbPlotSettings
  1

  2

  4

  6

 40
0.0
 41
0.0
 42
0.0
 43
0.0
 44
0.0
 45
0.0
 46
0.0
 47
0.0
 48
0.0
 49
0.0
140
0.0
141
0.0
142
1.0
143
1.0
 70
   688
 72
     0
 73
     0
 74
     5
  7

 75
    16
147
1.0
148
0.0
149
0.0
100
AcDbLayout
  1
Layout1
 70
     1
 71
     1
 10
0.0
 20
0.0
 11
12.0
 21
9.0
 12
0.0
 22
0.0
 32
0.0
 14
1.00000000000000E+20
 24
1.00000000000000E+20
 34
1.00000000000000E+20
 15
-1.00000000000000E+20
 25
-1.00000000000000E+20
 35
-1.00000000000000E+20
146
0.0
 13
0.0
 23
0.0
 33
0.0
 16
1.0
 26
0.0
 36
0.0
 17
0.0
 27
1.0
 37
0.0
 76
     0
330
1B
  0
LAYOUT
  5
26
102
{ACAD_REACTORS
330
1A
102
}
330
1A
100
AcDbPlotSettings
  1

  2

  4

  6

 40
0.0
 41
0.0
 42
0.0
 43
0.0
 44
0.0
 45
0.0
 46
0.0
 47
0.0
 48
0.0
 49
0.0
140
0.0
141
0.0
142
1.0
143
1.0
 70
   688
 72
     0
 73
     0
 74
     5
  7

 75
    16
147
1.0
148
0.0
149
0.0
100
AcDbLayout
  1
Layout2
 70
     1
 71
     2
 10
0.0
 20
0.0
 11
0.0
 21
0.0
 12
0.0
 22
0.0
 32
0.0
 14
0.0
 24
0.0
 34
0.0
 15
0.0
 25
0.0
 35
0.0
146
0.0
 13
0.0
 23
0.0
 33
0.0
 16
1.0
 26
0.0
 36
0.0
 17
0.0
 27
1.0
 37
0.0
 76
     0
330
23
  0
LAYOUT
  5
22
102
{ACAD_REACTORS
330
1A
102
}
330
1A
100
AcDbPlotSettings
  1

  2

  4

  6

 40
0.0
 41
0.0
 42
0.0
 43
0.0
 44
0.0
 45
0.0
 46
0.0
 47
0.0
 48
0.0
 49
0.0
140
0.0
141
0.0
142
1.0
143
1.0
 70
  1712
 72
     0
 73
     0
 74
     0
  7

 75
     0
147
1.0
148
0.0
149
0.0
100
AcDbLayout
  1
Model
 70
     1
 71
     0
 10
0.0
 20
0.0
 11
0.0
 21
0.0
 12
0.0
 22
0.0
 32
0.0
 14
0.0
 24
0.0
 34
0.0
 15
420.0
 25
594.0
 35
0.0
146
0.0
 13
0.0
 23
0.0
 33
0.0
 16
1.0
 26
0.0
 36
0.0
 17
0.0
 27
1.0
 37
0.0
 76
     0
330
1F
  0
MLINESTYLE
  5
18
102
{ACAD_REACTORS
330
17
102
}
330
17
100
AcDbMlineStyle
  2
Standard
 70
     0
  3

 62
   256
 51
90.0
 52
90.0
 71
     2
 49
0.5
 62
   256
  6
BYLAYER
 49
-0.5
 62
   256
  6
BYLAYER
  0
ACDBPLACEHOLDER
  5
F
102
{ACAD_REACTORS
330
E
102
}
330
E
  0
TABLESTYLE
  5
2B
102
{ACAD_REACTORS
330
2A
102
}
330
2A
100
AcDbTableStyle
  3
Standard
 70
     0
 71
     0
 40
0.06
 41
0.06
280
     0
281
     0
  7
Standard
140
0.18
170
     2
 62
     0
 63
     7
283
     0
274
    -2
284
     1
 64
     0
275
    -2
285
     1
 65
     0
276
    -2
286
     1
 66
     0
277
    -2
287
     1
 67
     0
278
    -2
288
     1
 68
     0
279
    -2
289
     1
 69
     0
  7
Standard
140
0.25
170
     5
 62
     0
 63
     7
283
     0
274
    -2
284
     1
 64
     0
275
    -2
285
     1
 65
     0
276
    -2
286
     1
 66
     0
277
    -2
287
     1
 67
     0
278
    -2
288
     1
 68
     0
279
    -2
289
     1
 69
     0
  7
Standard
140
0.18
170
     5
 62
     0
 63
     7
283
     0
274
    -2
284
     1
 64
     0
275
    -2
285
     1
 65
     0
276
    -2
286
     1
 66
     0
277
    -2
287
     1
 67
     0
278
    -2
288
     1
 68
     0
279
    -2
289
     1
 69
     0
  0
DICTIONARYVAR
  5
2D
102
{ACAD_REACTORS
330
2C
102
}
330
2C
100
DictionaryVariables
280
     0
  1
Standard
  0
ENDSEC
  0
EOF
