  0
SECTION
  2
HEADER
  9
$ACADVER
  1
AC1015
  9
$ACADMAINTVER
 70
     6
  9
$DWGCODEPAGE
  3
DOS932
  9
$INSBASE
 10
0.0
 20
0.0
 30
0.0
  9
$EXTMIN
 10
0.0
 20
0.0
 30
0.0
  9
$EXTMAX
 10
420.0
 20
594.0
 30
0.0
  9
$LIMMIN
 10
0.0
 20
0.0
  9
$LIMMAX
 10
12.0
 20
9.0
  9
$ORTHOMODE
 70
     0
  9
$REGENMODE
 70
     1
  9
$FILLMODE
 70
     1
  9
$QTEXTMODE
 70
     0
  9
$MIRRTEXT
 70
     1
  9
$LTSCALE
 40
1.0
  9
$ATTMODE
 70
     1
  9
$TEXTSIZE
 40
0.2
  9
$TRACEWID
 40
0.05
  9
$TEXTSTYLE
  7
Standard
  9
$CLAYER
  8
0
  9
$CELTYPE
  6
ByLayer
  9
$CECOLOR
 62
   256
  9
$CELTSCALE
 40
1.0
  9
$DISPSILH
 70
     0
  9
$DIMSCALE
 40
1.0
  9
$DIMASZ
 40
0.18
  9
$DIMEXO
 40
0.0625
  9
$DIMDLI
 40
0.38
  9
$DIMRND
 40
0.0
  9
$DIMDLE
 40
0.0
  9
$DIMEXE
 40
0.18
  9
$DIMTP
 40
0.0
  9
$DIMTM
 40
0.0
  9
$DIMTXT
 40
0.18
  9
$DIMCEN
 40
0.09
  9
$DIMTSZ
 40
0.0
  9
$DIMTOL
 70
     0
  9
$DIMLIM
 70
     0
  9
$DIMTIH
 70
     1
  9
$DIMTOH
 70
     1
  9
$DIMSE1
 70
     0
  9
$DIMSE2
 70
     0
  9
$DIMTAD
 70
     0
  9
$DIMZIN
 70
     0
  9
$DIMBLK
  1

  9
$DIMASO
 70
     1
  9
$DIMSHO
 70
     1
  9
$DIMPOST
  1

  9
$DIMAPOST
  1

  9
$DIMALT
 70
     0
  9
$DIMALTD
 70
     2
  9
$DIMALTF
 40
25.4
  9
$DIMLFAC
 40
1.0
  9
$DIMTOFL
 70
     0
  9
$DIMTVP
 40
0.0
  9
$DIMTIX
 70
     0
  9
$DIMSOXD
 70
     0
  9
$DIMSAH
 70
     0
  9
$DIMBLK1
  1

  9
$DIMBLK2
  1

  9
$DIMSTYLE
  2
Standard
  9
$DIMCLRD
 70
     0
  9
$DIMCLRE
 70
     0
  9
$DIMCLRT
 70
     0
  9
$DIMTFAC
 40
1.0
  9
$DIMGAP
 40
0.09
  9
$DIMJUST
 70
     0
  9
$DIMSD1
 70
     0
  9
$DIMSD2
 70
     0
  9
$DIMTOLJ
 70
     1
  9
$DIMTZIN
 70
     0
  9
$DIMALTZ
 70
     0
  9
$DIMALTTZ
 70
     0
  9
$DIMUPT
 70
     0
  9
$DIMDEC
 70
     4
  9
$DIMTDEC
 70
     4
  9
$DIMALTU
 70
     2
  9
$DIMALTTD
 70
     2
  9
$DIMTXSTY
  7
Standard
  9
$DIMAUNIT
 70
     0
  9
$DIMADEC
 70
     0
  9
$DIMALTRND
 40
0.0
  9
$DIMAZIN
 70
     0
  9
$DIMDSEP
 70
    46
  9
$DIMATFIT
 70
     3
  9
$DIMFRAC
 70
     0
  9
$DIMLDRBLK
  1

  9
$DIMLUNIT
 70
     2
  9
$DIMLWD
 70
    -2
  9
$DIMLWE
 70
    -2
  9
$DIMTMOVE
 70
     0
  9
$LUNITS
 70
     2
  9
$LUPREC
 70
     4
  9
$SKETCHINC
 40
0.1
  9
$FILLETRAD
 40
0.5
  9
$AUNITS
 70
     0
  9
$AUPREC
 70
     0
  9
$MENU
  1
.
  9
$ELEVATION
 40
0.0
  9
$PELEVATION
 40
0.0
  9
$THICKNESS
 40
0.0
  9
$LIMCHECK
 70
     0
  9
$CHAMFERA
 40
0.5
  9
$CHAMFERB
 40
0.5
  9
$CHAMFERC
 40
1.0
  9
$CHAMFERD
 40
0.0
  9
$SKPOLY
 70
     0
  9
$TDCREATE
 40
2456141.636650023
  9
$TDUCREATE
 40
2456141.261650023
  9
$TDUPDATE
 40
2456141.636650035
  9
$TDUUPDATE
 40
2456141.261650035
  9
$TDINDWG
 40
0.0000000116
  9
$TDUSRTIMER
 40
0.0000000116
  9
$USRTIMER
 70
     1
  9
$ANGBASE
 50
0.0
  9
$ANGDIR
 70
     0
  9
$PDMODE
 70
     0
  9
$PDSIZE
 40
0.0
  9
$PLINEWID
 40
0.0
  9
$SPLFRAME
 70
     0
  9
$SPLINETYPE
 70
     6
  9
$SPLINESEGS
 70
     8
  9
$HANDSEED
  5
239
  9
$SURFTAB1
 70
     6
  9
$SURFTAB2
 70
     6
  9
$SURFTYPE
 70
     6
  9
$SURFU
 70
     6
  9
$SURFV
 70
     6
  9
$UCSBASE
  2

  9
$UCSNAME
  2

  9
$UCSORG
 10
0.0
 20
0.0
 30
0.0
  9
$UCSXDIR
 10
1.0
 20
0.0
 30
0.0
  9
$UCSYDIR
 10
0.0
 20
1.0
 30
0.0
  9
$UCSORTHOREF
  2

  9
$UCSORTHOVIEW
 70
     0
  9
$UCSORGTOP
 10
0.0
 20
0.0
 30
0.0
  9
$UCSORGBOTTOM
 10
0.0
 20
0.0
 30
0.0
  9
$UCSORGLEFT
 10
0.0
 20
0.0
 30
0.0
  9
$UCSORGRIGHT
 10
0.0
 20
0.0
 30
0.0
  9
$UCSORGFRONT
 10
0.0
 20
0.0
 30
0.0
  9
$UCSORGBACK
 10
0.0
 20
0.0
 30
0.0
  9
$PUCSBASE
  2

  9
$PUCSNAME
  2

  9
$PUCSORG
 10
0.0
 20
0.0
 30
0.0
  9
$PUCSXDIR
 10
1.0
 20
0.0
 30
0.0
  9
$PUCSYDIR
 10
0.0
 20
1.0
 30
0.0
  9
$PUCSORTHOREF
  2

  9
$PUCSORTHOVIEW
 70
     0
  9
$PUCSORGTOP
 10
0.0
 20
0.0
 30
0.0
  9
$PUCSORGBOTTOM
 10
0.0
 20
0.0
 30
0.0
  9
$PUCSORGLEFT
 10
0.0
 20
0.0
 30
0.0
  9
$PUCSORGRIGHT
 10
0.0
 20
0.0
 30
0.0
  9
$PUCSORGFRONT
 10
0.0
 20
0.0
 30
0.0
  9
$PUCSORGBACK
 10
0.0
 20
0.0
 30
0.0
  9
$USERI1
 70
     0
  9
$USERI2
 70
     0
  9
$USERI3
 70
     0
  9
$USERI4
 70
     0
  9
$USERI5
 70
     0
  9
$USERR1
 40
13.2
  9
$USERR2
 40
0.0
  9
$USERR3
 40
0.0
  9
$USERR4
 40
0.0
  9
$USERR5
 40
0.0
  9
$WORLDVIEW
 70
     1
  9
$SHADEDGE
 70
     3
  9
$SHADEDIF
 70
    70
  9
$TILEMODE
 70
     1
  9
$MAXACTVP
 70
    64
  9
$PINSBASE
 10
0.0
 20
0.0
 30
0.0
  9
$PLIMCHECK
 70
     0
  9
$PEXTMIN
 10
1.00000000000000E+20
 20
1.00000000000000E+20
 30
1.00000000000000E+20
  9
$PEXTMAX
 10
-1.00000000000000E+20
 20
-1.00000000000000E+20
 30
-1.00000000000000E+20
  9
$PLIMMIN
 10
0.0
 20
0.0
  9
$PLIMMAX
 10
12.0
 20
9.0
  9
$UNITMODE
 70
     0
  9
$VISRETAIN
 70
     1
  9
$PLINEGEN
 70
     0
  9
$PSLTSCALE
 70
     1
  9
$TREEDEPTH
 70
  3020
  9
$CMLSTYLE
  2
Standard
  9
$CMLJUST
 70
     0
  9
$CMLSCALE
 40
1.0
  9
$PROXYGRAPHICS
 70
     1
  9
$MEASUREMENT
 70
     1
  9
$CELWEIGHT
370
    -1
  9
$ENDCAPS
280
     0
  9
$JOINSTYLE
280
     0
  9
$LWDISPLAY
290
     0
  9
$INSUNITS
 70
     1
  9
$HYPERLINKBASE
  1

  9
$STYLESHEET
  1

  9
$XEDIT
290
     1
  9
$CEPSNTYPE
380
     0
  9
$PSTYLEMODE
290
     0
  9
$FINGERPRINTGUID
  2
{FAEB1C30-E019-11D5-929B-00C0DF256EC4}
  9
$VERSIONGUID
  2
{FAEB1C32-E019-11D5-929B-00C0DF256EC4}
  9
$EXTNAMES
290
     1
  9
$PSVPSCALE
 40
0.0
  9
$OLESTARTUP
290
     0
  0
ENDSEC
  0
SECTION
  2
CLASSES
  0
CLASS
  1
ACDBDICTIONARYWDFLT
  2
AcDbDictionaryWithDefault
  3
ObjectDBX Classes
 90
        0
280
     0
281
     0
  0
CLASS
  1
TABLESTYLE
  2
AcDbTableStyle
  3
ObjectDBX Classes
 90
     2047
280
     0
281
     0
  0
CLASS
  1
DICTIONARYVAR
  2
AcDbDictionaryVar
  3
ObjectDBX Classes
 90
        0
280
     0
281
     0
  0
CLASS
  1

  2
exOdDbCircle
  3

 90
        0
280
     0
281
     1
  0
CLASS
  1

  2
exOdDbSpline
  3

 90
        0
280
     0
281
     1
  0
CLASS
  1
ACDBPLACEHOLDER
  2
AcDbPlaceHolder
  3
ObjectDBX Classes
 90
        0
280
     0
281
     0
  0
CLASS
  1
LAYOUT
  2
AcDbLayout
  3
ObjectDBX Classes
 90
        0
280
     0
281
     0
  0
ENDSEC
  0
SECTION
  2
TABLES
  0
TABLE
  2
VPORT
  5
8
330
0
100
AcDbSymbolTable
 70
     2
  0
VPORT
  5
29
330
8
100
AcDbSymbolTableRecord
100
AcDbViewportTableRecord
  2
*Active
 70
     0
 10
0.0
 20
0.0
 11
1.0
 21
1.0
 12
210.0
 22
297.0
 13
0.0
 23
0.0
 14
0.5
 24
0.5
 15
0.5
 25
0.5
 16
0.0
 26
0.0
 36
1.0
 17
0.0
 27
0.0
 37
0.0
 40
653.4000000000001
 41
1.60267857142857
 42
50.0
 43
0.0
 44
0.0
 50
0.0
 51
0.0
 71
     0
 72
   100
 73
     1
 74
     3
 75
     0
 76
     0
 77
     0
 78
     0
281
     0
 65
     1
110
0.0
120
0.0
130
0.0
111
1.0
121
0.0
131
0.0
112
0.0
122
1.0
132
0.0
 79
     0
146
0.0
  0
ENDTAB
  0
TABLE
  2
LTYPE
  5
5
330
0
100
AcDbSymbolTable
 70
     8
  0
LTYPE
  5
14
330
5
100
AcDbSymbolTableRecord
100
AcDbLinetypeTableRecord
  2
ByBlock
 70
     0
  3

 72
    65
 73
     0
 40
0.0
  0
LTYPE
  5
15
330
5
100
AcDbSymbolTableRecord
100
AcDbLinetypeTableRecord
  2
ByLayer
 70
     0
  3

 72
    65
 73
     0
 40
0.0
  0
LTYPE
  5
16
330
5
100
AcDbSymbolTableRecord
100
AcDbLinetypeTableRecord
  2
Continuous
 70
     0
  3
Solid line
 72
    65
 73
     0
 40
0.0
  0
LTYPE
  5
2E
330
5
100
AcDbSymbolTableRecord
100
AcDbLinetypeTableRecord
  2
DASHED
 70
     0
  3
Dashed
 72
    65
 73
     2
 40
15.0
 49
7.0
 74
     0
 49
-8.0
 74
     0
  0
LTYPE
  5
2F
330
5
100
AcDbSymbolTableRecord
100
AcDbLinetypeTableRecord
  2
DOTTED
 70
     0
  3
Dotted
 72
    65
 73
     2
 40
1.0
 49
0.0
 74
     0
 49
-1.0
 74
     0
  0
LTYPE
  5
30
330
5
100
AcDbSymbolTableRecord
100
AcDbLinetypeTableRecord
  2
DOT_CENTER
 70
     0
  3
Dot_Center
 72
    65
 73
     4
 40
14.0
 49
12.0
 74
     0
 49
-1.0
 74
     0
 49
0.0
 74
     0
 49
-1.0
 74
     0
  0
LTYPE
  5
31
330
5
100
AcDbSymbolTableRecord
100
AcDbLinetypeTableRecord
  2
LONG_DASHED
 70
     0
  3
Long_Dashed
 72
    65
 73
     2
 40
15.0
 49
10.0
 74
     0
 49
-5.0
 74
     0
  0
LTYPE
  5
32
330
5
100
AcDbSymbolTableRecord
100
AcDbLinetypeTableRecord
  2
DASH_CENTER
 70
     0
  3
Dash_Center
 72
    65
 73
     4
 40
14.0
 49
11.0
 74
     0
 49
-1.0
 74
     0
 49
1.0
 74
     0
 49
-1.0
 74
     0
  0
LTYPE
  5
33
330
5
100
AcDbSymbolTableRecord
100
AcDbLinetypeTableRecord
  2
PHANTOM
 70
     0
  3
Phantom
 72
    65
 73
     6
 40
13.0
 49
10.0
 74
     0
 49
-1.0
 74
     0
 49
0.0
 74
     0
 49
-1.0
 74
     0
 49
0.0
 74
     0
 49
-1.0
 74
     0
  0
LTYPE
  5
34
330
5
100
AcDbSymbolTableRecord
100
AcDbLinetypeTableRecord
  2
CENTER_DASH_DASH
 70
     0
  3
Center_Dash_Dash
 72
    65
 73
     6
 40
14.0
 49
9.0
 74
     0
 49
-1.0
 74
     0
 49
1.0
 74
     0
 49
-1.0
 74
     0
 49
1.0
 74
     0
 49
-1.0
 74
     0
  0
ENDTAB
  0
TABLE
  2
LAYER
  5
2
330
0
100
AcDbSymbolTable
 70
     2
  0
LAYER
  5
10
330
2
100
AcDbSymbolTableRecord
100
AcDbLayerTableRecord
  2
0
 70
     0
 62
     7
  6
Continuous
370
    -3
390
F
  0
LAYER
  5
35
330
2
100
AcDbSymbolTableRecord
100
AcDbLayerTableRecord
  2
1
 70
     0
 62
     7
  6
Continuous
370
    -3
390
F
  0
ENDTAB
  0
TABLE
  2
STYLE
  5
3
330
0
100
AcDbSymbolTable
 70
     3
  0
STYLE
  5
11
330
3
100
AcDbSymbolTableRecord
100
AcDbTextStyleTableRecord
  2
Standard
 70
     0
 40
0.0
 41
1.0
 50
0.0
 71
     0
 42
0.2
  3
txt
  4

  0
STYLE
  5
99
330
3
100
AcDbSymbolTableRecord
100
AcDbTextStyleTableRecord
  2
CONVERTER_1
 70
     0
 40
0.0
 41
0.89
 50
0.0
 71
     0
 42
0.2
  3
msmincho.ttc
  4

1001
ACAD
1000
MS Mincho
1071
    32785
  0
STYLE
  5
1EA
330
3
100
AcDbSymbolTableRecord
100
AcDbTextStyleTableRecord
  2
CONVERTER_2
 70
     0
 40
0.0
 41
0.9
 50
0.0
 71
     0
 42
0.2
  3
txt.shx
  4

  0
ENDTAB
  0
TABLE
  2
VIEW
  5
6
330
0
100
AcDbSymbolTable
 70
     0
  0
ENDTAB
  0
TABLE
  2
UCS
  5
7
330
0
100
AcDbSymbolTable
 70
     0
  0
ENDTAB
  0
TABLE
  2
APPID
  5
9
330
0
100
AcDbSymbolTable
 70
     1
  0
APPID
  5
12
330
9
100
AcDbSymbolTableRecord
100
AcDbRegAppTableRecord
  2
ACAD
 70
     0
  0
ENDTAB
  0
TABLE
  2
DIMSTYLE
  5
A
330
0
100
AcDbSymbolTable
 70
     7
100
AcDbDimStyleTable
  0
DIMSTYLE
105
27
330
A
100
AcDbSymbolTableRecord
100
AcDbDimStyleTableRecord
  2
Standard
 70
     0
340
11
  0
DIMSTYLE
105
1FE
102
{ACAD_REACTORS
330
1FF
102
}
330
A
100
AcDbSymbolTableRecord
100
AcDbDimStyleTableRecord
  2
ME10_DIM_0
 70
     0
 41
7.0
 42
0.0
 44
2.0
 73
     0
 74
     0
 77
     1
 78
     8
140
7.0
147
0.625
172
     1
173
     1
176
     2
177
     2
178
     7
271
     2
340
1EA
  0
DIMSTYLE
105
209
102
{ACAD_REACTORS
330
20A
102
}
330
A
100
AcDbSymbolTableRecord
100
AcDbDimStyleTableRecord
  2
ME10_DIM_1
 70
     0
 41
7.0
 42
0.0
 44
2.0
 73
     0
 74
     0
 77
     1
 78
     8
140
7.0
147
0.625
172
     1
173
     1
176
     2
177
     2
178
     7
271
     2
340
1EA
  0
DIMSTYLE
105
214
102
{ACAD_REACTORS
330
215
102
}
330
A
100
AcDbSymbolTableRecord
100
AcDbDimStyleTableRecord
  2
ME10_DIM_2
 70
     0
 41
7.0
 42
0.0
 44
2.0
 73
     0
 74
     0
 77
     1
 78
     8
140
7.0
147
0.625
172
     1
173
     1
176
     2
177
     2
178
     7
271
     2
340
99
  0
DIMSTYLE
105
21F
102
{ACAD_REACTORS
330
220
102
}
330
A
100
AcDbSymbolTableRecord
100
AcDbDimStyleTableRecord
  2
ME10_DIM_3
 70
     0
 41
7.0
 42
0.0
 44
2.0
 73
     0
 74
     0
 77
     1
 78
     8
140
7.0
147
0.625
172
     1
173
     1
176
     2
177
     2
178
     7
271
     2
340
1EA
  0
DIMSTYLE
105
22C
102
{ACAD_REACTORS
330
22D
102
}
330
A
100
AcDbSymbolTableRecord
100
AcDbDimStyleTableRecord
  2
ME10_DIM_4
 70
     0
 41
7.0
 42
0.0
 44
2.0
 73
     0
 74
     0
 77
     1
 78
     8
140
7.0
147
0.625
172
     1
173
     1
176
     2
177
     2
178
     7
271
     2
340
1EA
  0
DIMSTYLE
105
237
102
{ACAD_REACTORS
330
238
102
}
330
A
100
AcDbSymbolTableRecord
100
AcDbDimStyleTableRecord
  2
ME10_DIM_5
 70
     0
 41
7.0
 42
0.0
 44
2.0
 73
     0
 74
     0
 77
     1
 78
     8
140
7.0
147
0.625
172
     1
173
     1
176
     2
177
     2
178
     7
271
     2
340
1EA
  0
ENDTAB
  0
TABLE
  2
BLOCK_RECORD
  5
1
330
0
100
AcDbSymbolTable
 70
    13
  0
BLOCK_RECORD
  5
1F
330
1
100
AcDbSymbolTableRecord
100
AcDbBlockTableRecord
  2
*Model_Space
340
22
  0
BLOCK_RECORD
  5
1B
330
1
100
AcDbSymbolTableRecord
100
AcDbBlockTableRecord
  2
*Paper_Space
340
1E
  0
BLOCK_RECORD
  5
23
330
1
100
AcDbSymbolTableRecord
100
AcDbBlockTableRecord
  2
*Paper_Space0
340
26
  0
BLOCK_RECORD
  5
36
330
1
100
AcDbSymbolTableRecord
100
AcDbBlockTableRecord
  2
_J__A4
340
0
102
{BLKREFS
331
48
102
}
  0
BLOCK_RECORD
  5
39
330
1
100
AcDbSymbolTableRecord
100
AcDbBlockTableRecord
  2
32-213-M2__1
340
0
102
{BLKREFS
331
49
102
}
  0
BLOCK_RECORD
  5
3C
330
1
100
AcDbSymbolTableRecord
100
AcDbBlockTableRecord
  2
B411-0A-13-M11
340
0
102
{BLKREFS
331
4A
102
}
  0
BLOCK_RECORD
  5
3F
330
1
100
AcDbSymbolTableRecord
100
AcDbBlockTableRecord
  2
32-213-M2__2
340
0
102
{BLKREFS
331
4B
102
}
  0
BLOCK_RECORD
  5
42
330
1
100
AcDbSymbolTableRecord
100
AcDbBlockTableRecord
  2
36-45-M11
340
0
102
{BLKREFS
331
4C
102
}
  0
BLOCK_RECORD
  5
45
330
1
100
AcDbSymbolTableRecord
100
AcDbBlockTableRecord
  2
37-1-13
340
0
102
{BLKREFS
331
4D
102
}
  0
BLOCK_RECORD
  5
1F5
330
1
100
AcDbSymbolTableRecord
100
AcDbBlockTableRecord
  2
*D07
340
0
  0
BLOCK_RECORD
  5
200
330
1
100
AcDbSymbolTableRecord
100
AcDbBlockTableRecord
  2
*D18
340
0
  0
BLOCK_RECORD
  5
20B
330
1
100
AcDbSymbolTableRecord
100
AcDbBlockTableRecord
  2
*D29
340
0
  0
BLOCK_RECORD
  5
216
330
1
100
AcDbSymbolTableRecord
100
AcDbBlockTableRecord
  2
*D310
340
0
  0
BLOCK_RECORD
  5
221
330
1
100
AcDbSymbolTableRecord
100
AcDbBlockTableRecord
  2
*D411
340
0
  0
BLOCK_RECORD
  5
22E
330
1
100
AcDbSymbolTableRecord
100
AcDbBlockTableRecord
  2
*D512
340
0
  0
ENDTAB
  0
ENDSEC
  0
SECTION
  2
BLOCKS
  0
BLOCK
  5
20
330
1F
100
AcDbEntity
  8
0
100
AcDbBlockBegin
  2
*Model_Space
 70
     0
 71
     0
 10
0.0
 20
0.0
 30
0.0
  3
*Model_Space
  1

  0
ENDBLK
  5
21
330
1F
100
AcDbEntity
  8
0
100
AcDbBlockEnd
  0
BLOCK
  5
1C
330
1B
100
AcDbEntity
 67
     1
  8
0
100
AcDbBlockBegin
  2
*Paper_Space
 70
     0
 71
     0
 10
0.0
 20
0.0
 30
0.0
  3
*Paper_Space
  1

  0
ENDBLK
  5
1D
330
1B
100
AcDbEntity
 67
     1
  8
0
100
AcDbBlockEnd
  0
BLOCK
  5
24
330
23
100
AcDbEntity
  8
0
100
AcDbBlockBegin
  2
*Paper_Space0
 70
     0
 71
     0
 10
0.0
 20
0.0
 30
0.0
  3
*Paper_Space0
  1

  0
ENDBLK
  5
25
330
23
100
AcDbEntity
  8
0
100
AcDbBlockEnd
  0
BLOCK
  5
37
330
36
100
AcDbEntity
  8
0
100
AcDbBlockBegin
  2
_J__A4
 70
     0
 71
     0
 10
0.0
 20
0.0
 30
0.0
  3
_J__A4
  1

  0
POINT
  5
4E
330
36
100
AcDbEntity
  8
1
 62
     4
100
AcDbPoint
 10
34.0
 20
34.00000000000001
 30
0.0
  0
POINT
  5
4F
330
36
100
AcDbEntity
  8
1
 62
     4
100
AcDbPoint
 10
57.0
 20
12.25
 30
0.0
  0
POINT
  5
50
330
36
100
AcDbEntity
  8
1
 62
     4
100
AcDbPoint
 10
57.0
 20
20.75000000000001
 30
0.0
  0
POINT
  5
51
330
36
100
AcDbEntity
  8
1
 62
     4
100
AcDbPoint
 10
57.0
 20
24.75000000000001
 30
0.0
  0
POINT
  5
52
330
36
100
AcDbEntity
  8
1
 62
     4
100
AcDbPoint
 10
57.0
 20
16.25
 30
0.0
  0
POINT
  5
53
330
36
100
AcDbEntity
  8
1
 62
     4
100
AcDbPoint
 10
157.5
 20
19.00000000000001
 30
0.0
  0
POINT
  5
54
330
36
100
AcDbEntity
  8
1
 62
     4
100
AcDbPoint
 10
47.5
 20
282.0000000000003
 30
0.0
  0
POINT
  5
55
330
36
100
AcDbEntity
  8
1
 62
     4
100
AcDbPoint
 10
57.0
 20
22.75000000000001
 30
0.0
  0
POINT
  5
56
330
36
100
AcDbEntity
  8
1
 62
     4
100
AcDbPoint
 10
57.0
 20
14.25
 30
0.0
  0
POINT
  5
57
330
36
100
AcDbEntity
  8
1
 62
     4
100
AcDbPoint
 10
157.5
 20
12.5
 30
0.0
  0
POINT
  5
58
330
36
100
AcDbEntity
  8
1
 62
     4
100
AcDbPoint
 10
163.25
 20
12.5
 30
0.0
  0
POINT
  5
59
330
36
100
AcDbEntity
  8
1
 62
     4
100
AcDbPoint
 10
151.75
 20
12.5
 30
0.0
  0
POINT
  5
5A
330
36
100
AcDbEntity
  8
1
 62
     4
100
AcDbPoint
 10
134.75
 20
12.5
 30
0.0
  0
POINT
  5
5B
330
36
100
AcDbEntity
  8
1
 62
     4
100
AcDbPoint
 10
146.25
 20
12.5
 30
0.0
  0
POINT
  5
5C
330
36
100
AcDbEntity
  8
1
 62
     4
100
AcDbPoint
 10
140.5
 20
12.5
 30
0.0
  0
POINT
  5
5D
330
36
100
AcDbEntity
  8
1
 62
     4
100
AcDbPoint
 10
140.5
 20
19.00000000000001
 30
0.0
  0
POINT
  5
5E
330
36
100
AcDbEntity
  8
1
 62
     4
100
AcDbPoint
 10
117.75
 20
12.5
 30
0.0
  0
POINT
  5
5F
330
36
100
AcDbEntity
  8
1
 62
     4
100
AcDbPoint
 10
129.25
 20
12.5
 30
0.0
  0
POINT
  5
60
330
36
100
AcDbEntity
  8
1
 62
     4
100
AcDbPoint
 10
123.5
 20
12.5
 30
0.0
  0
POINT
  5
61
330
36
100
AcDbEntity
  8
1
 62
     4
100
AcDbPoint
 10
123.5
 20
19.00000000000001
 30
0.0
  0
POINT
  5
62
330
36
100
AcDbEntity
  8
1
 62
     4
100
AcDbPoint
 10
100.75
 20
12.5
 30
0.0
  0
POINT
  5
63
330
36
100
AcDbEntity
  8
1
 62
     4
100
AcDbPoint
 10
112.25
 20
12.5
 30
0.0
  0
POINT
  5
64
330
36
100
AcDbEntity
  8
1
 62
     4
100
AcDbPoint
 10
106.5
 20
12.5
 30
0.0
  0
POINT
  5
65
330
36
100
AcDbEntity
  8
1
 62
     4
100
AcDbPoint
 10
106.5
 20
19.00000000000001
 30
0.0
  0
POINT
  5
66
330
36
100
AcDbEntity
  8
1
 62
     4
100
AcDbPoint
 10
85.25
 20
17.0
 30
0.0
  0
POINT
  5
67
330
36
100
AcDbEntity
  8
1
 62
     4
100
AcDbPoint
 10
93.75
 20
17.0
 30
0.0
  0
LINE
  5
68
330
36
100
AcDbEntity
  8
1
  6
Continuous
 62
     2
100
AcDbLine
 10
81.0
 20
27.00000000000001
 30
0.0
 11
81.0
 21
10.0
 31
0.0
  0
LINE
  5
69
330
36
100
AcDbEntity
  8
1
  6
DOT_CENTER
 62
     2
100
AcDbLine
 10
187.0
 20
26.50000000000001
 30
0.0
 11
187.0
 21
20.50000000000001
 31
0.0
  0
LINE
  5
6A
330
36
100
AcDbEntity
  8
1
  6
DOT_CENTER
 62
     2
100
AcDbLine
 10
184.0
 20
23.50000000000001
 30
0.0
 11
197.0
 21
23.50000000000001
 31
0.0
  0
LINE
  5
6B
330
36
100
AcDbEntity
  8
1
  6
Continuous
 62
     7
100
AcDbLine
 10
196.0
 20
21.50000000000001
 30
0.0
 11
191.0
 21
22.30000000000001
 31
0.0
  0
LINE
  5
6C
330
36
100
AcDbEntity
  8
1
  6
Continuous
 62
     7
100
AcDbLine
 10
196.0
 20
25.50000000000001
 30
0.0
 11
196.0
 21
21.50000000000001
 31
0.0
  0
LINE
  5
6D
330
36
100
AcDbEntity
  8
1
  6
Continuous
 62
     7
100
AcDbLine
 10
191.0
 20
24.70000000000001
 30
0.0
 11
196.0
 21
25.50000000000001
 31
0.0
  0
LINE
  5
6E
330
36
100
AcDbEntity
  8
1
  6
Continuous
 62
     7
100
AcDbLine
 10
191.0
 20
24.70000000000001
 30
0.0
 11
191.0
 21
22.30000000000001
 31
0.0
  0
LINE
  5
6F
330
36
100
AcDbEntity
  8
1
  6
Continuous
 62
     2
100
AcDbLine
 10
33.0
 20
27.0
 30
0.0
 11
33.0
 21
10.0
 31
0.0
  0
LINE
  5
70
330
36
100
AcDbEntity
  8
1
  6
Continuous
 62
     2
100
AcDbLine
 10
25.0
 20
18.50000000000001
 30
0.0
 11
81.0
 21
18.50000000000001
 31
0.0
  0
LINE
  5
71
330
36
100
AcDbEntity
  8
1
  6
Continuous
 62
     7
100
AcDbLine
 10
200.0
 20
287.0000000000003
 30
0.0
 11
105.0
 21
287.0000000000003
 31
0.0
  0
LINE
  5
72
330
36
100
AcDbEntity
  8
1
  6
Continuous
 62
     7
100
AcDbLine
 10
200.0
 20
10.0
 30
0.0
 11
200.0
 21
148.5
 31
0.0
  0
LINE
  5
73
330
36
100
AcDbEntity
  8
1
  6
Continuous
 62
     7
100
AcDbLine
 10
25.0
 20
10.0
 30
0.0
 11
105.0
 21
10.0
 31
0.0
  0
LINE
  5
74
330
36
100
AcDbEntity
  8
1
  6
PHANTOM
 62
     4
100
AcDbLine
 10
0.0
 20
297.0
 30
0.0
 11
0.0
 21
0.0
 31
0.0
  0
LINE
  5
75
330
36
100
AcDbEntity
  8
1
  6
PHANTOM
 62
     4
100
AcDbLine
 10
210.0
 20
297.0
 30
0.0
 11
0.0
 21
297.0
 31
0.0
  0
LINE
  5
76
330
36
100
AcDbEntity
  8
1
  6
PHANTOM
 62
     4
100
AcDbLine
 10
210.0
 20
0.0
 30
0.0
 11
210.0
 21
297.0
 31
0.0
  0
LINE
  5
77
330
36
100
AcDbEntity
  8
1
  6
PHANTOM
 62
     4
100
AcDbLine
 10
0.0
 20
0.0
 30
0.0
 11
210.0
 21
0.0
 31
0.0
  0
LINE
  5
78
330
36
100
AcDbEntity
  8
1
  6
Continuous
 62
     7
100
AcDbLine
 10
25.0
 20
41.0
 30
0.0
 11
200.0
 21
41.0
 31
0.0
  0
LINE
  5
79
330
36
100
AcDbEntity
  8
1
  6
Continuous
 62
     7
100
AcDbLine
 10
200.0
 20
27.00000000000001
 30
0.0
 11
25.0
 21
27.00000000000001
 31
0.0
  0
LINE
  5
7A
330
36
100
AcDbEntity
  8
1
  6
Continuous
 62
     2
100
AcDbLine
 10
33.0
 20
41.00000000000001
 30
0.0
 11
33.0
 21
27.0
 31
0.0
  0
LINE
  5
7B
330
36
100
AcDbEntity
  8
1
  6
Continuous
 62
     2
100
AcDbLine
 10
55.0
 20
287.0000000000003
 30
0.0
 11
55.0
 21
277.0000000000003
 31
0.0
  0
LINE
  5
7C
330
36
100
AcDbEntity
  8
1
  6
Continuous
 62
     2
100
AcDbLine
 10
40.0
 20
287.0000000000003
 30
0.0
 11
40.0
 21
277.0000000000003
 31
0.0
  0
LINE
  5
7D
330
36
100
AcDbEntity
  8
1
  6
Continuous
 62
     7
100
AcDbLine
 10
25.0
 20
10.0
 30
0.0
 11
25.0
 21
148.5
 31
0.0
  0
LINE
  5
7E
330
36
100
AcDbEntity
  8
1
  6
Continuous
 62
     2
100
AcDbLine
 10
55.0
 20
277.0000000000003
 30
0.0
 11
25.0
 21
277.0000000000003
 31
0.0
  0
LINE
  5
7F
330
36
100
AcDbEntity
  8
1
  6
Continuous
 62
     2
100
AcDbLine
 10
166.0
 20
27.00000000000001
 30
0.0
 11
166.0
 21
10.0
 31
0.0
  0
LINE
  5
80
330
36
100
AcDbEntity
  8
1
  6
Continuous
 62
     2
100
AcDbLine
 10
132.0
 20
27.00000000000001
 30
0.0
 11
132.0
 21
9.99999999999999
 31
0.0
  0
LINE
  5
81
330
36
100
AcDbEntity
  8
1
  6
Continuous
 62
     2
100
AcDbLine
 10
149.0
 20
27.00000000000001
 30
0.0
 11
149.0
 21
10.0
 31
0.0
  0
LINE
  5
82
330
36
100
AcDbEntity
  8
1
  6
Continuous
 62
     2
100
AcDbLine
 10
115.0
 20
27.00000000000001
 30
0.0
 11
115.0
 21
9.99999999999999
 31
0.0
  0
LINE
  5
83
330
36
100
AcDbEntity
  8
1
  6
Continuous
 62
     2
100
AcDbLine
 10
98.0
 20
27.00000000000001
 30
0.0
 11
98.0
 21
9.99999999999999
 31
0.0
  0
LINE
  5
84
330
36
100
AcDbEntity
  8
1
  6
Continuous
 62
     2
100
AcDbLine
 10
166.0
 20
20.00000000000001
 30
0.0
 11
200.0
 21
20.00000000000001
 31
0.0
  0
LINE
  5
85
330
36
100
AcDbEntity
  8
1
  6
Continuous
 62
     2
100
AcDbLine
 10
105.0
 20
287.0000000000003
 30
0.0
 11
105.0
 21
292.0000000000003
 31
0.0
  0
LINE
  5
86
330
36
100
AcDbEntity
  8
1
  6
Continuous
 62
     7
100
AcDbLine
 10
105.0
 20
287.0000000000003
 30
0.0
 11
25.0
 21
287.0000000000003
 31
0.0
  0
LINE
  5
87
330
36
100
AcDbEntity
  8
1
  6
Continuous
 62
     2
100
AcDbLine
 10
25.0
 20
148.5
 30
0.0
 11
20.0
 21
148.5
 31
0.0
  0
LINE
  5
88
330
36
100
AcDbEntity
  8
1
  6
Continuous
 62
     7
100
AcDbLine
 10
25.0
 20
148.5
 30
0.0
 11
25.0
 21
287.0000000000003
 31
0.0
  0
LINE
  5
89
330
36
100
AcDbEntity
  8
1
  6
Continuous
 62
     2
100
AcDbLine
 10
200.0
 20
148.5
 30
0.0
 11
205.0
 21
148.5
 31
0.0
  0
LINE
  5
8A
330
36
100
AcDbEntity
  8
1
  6
Continuous
 62
     7
100
AcDbLine
 10
200.0
 20
148.5
 30
0.0
 11
200.0
 21
287.0000000000003
 31
0.0
  0
LINE
  5
8B
330
36
100
AcDbEntity
  8
1
  6
Continuous
 62
     2
100
AcDbLine
 10
105.0
 20
10.0
 30
0.0
 11
105.0
 21
5.0
 31
0.0
  0
LINE
  5
8C
330
36
100
AcDbEntity
  8
1
  6
Continuous
 62
     7
100
AcDbLine
 10
105.0
 20
10.0
 30
0.0
 11
200.0
 21
10.0
 31
0.0
  0
CIRCLE
  5
8D
330
36
100
AcDbEntity
  8
1
  6
DOT_CENTER
 62
     7
100
AcDbCircle
 10
89.5
 20
18.0
 30
0.0
 40
0.1000000000000227
  0
CIRCLE
  5
8E
330
36
100
AcDbEntity
  8
1
  6
DOT_CENTER
 62
     7
100
AcDbCircle
 10
89.5
 20
16.0
 30
0.0
 40
0.1000000000000227
  0
CIRCLE
  5
8F
330
36
100
AcDbEntity
  8
1
  6
Continuous
 62
     7
100
AcDbCircle
 10
187.0
 20
23.50000000000001
 30
0.0
 40
2.0
  0
CIRCLE
  5
90
330
36
100
AcDbEntity
  8
1
  6
Continuous
 62
     7
100
AcDbCircle
 10
187.0
 20
23.50000000000001
 30
0.0
 40
1.200000000000102
  0
CIRCLE
  5
91
330
36
100
AcDbEntity
  8
1
  6
Continuous
 62
     7
100
AcDbCircle
 10
154.5
 20
12.5
 30
0.0
 40
0.3000000000000114
  0
CIRCLE
  5
92
330
36
100
AcDbEntity
  8
1
  6
Continuous
 62
     7
100
AcDbCircle
 10
160.5
 20
12.5
 30
0.0
 40
0.3000000000000114
  0
CIRCLE
  5
93
330
36
100
AcDbEntity
  8
1
  6
Continuous
 62
     7
100
AcDbCircle
 10
143.5
 20
12.5
 30
0.0
 40
0.3000000000000114
  0
CIRCLE
  5
94
330
36
100
AcDbEntity
  8
1
  6
Continuous
 62
     7
100
AcDbCircle
 10
137.5
 20
12.5
 30
0.0
 40
0.3000000000000114
  0
CIRCLE
  5
95
330
36
100
AcDbEntity
  8
1
  6
Continuous
 62
     7
100
AcDbCircle
 10
126.5
 20
12.5
 30
0.0
 40
0.2999999999999972
  0
CIRCLE
  5
96
330
36
100
AcDbEntity
  8
1
  6
Continuous
 62
     7
100
AcDbCircle
 10
120.5
 20
12.5
 30
0.0
 40
0.2999999999999972
  0
CIRCLE
  5
97
330
36
100
AcDbEntity
  8
1
  6
Continuous
 62
     7
100
AcDbCircle
 10
109.5
 20
12.5
 30
0.0
 40
0.2999999999999972
  0
CIRCLE
  5
98
330
36
100
AcDbEntity
  8
1
  6
Continuous
 62
     7
100
AcDbCircle
 10
103.5
 20
12.5
 30
0.0
 40
0.2999999999999972
  0
MTEXT
  5
9A
330
36
100
AcDbEntity
  8
1
 62
   250
100
AcDbMText
 10
25.0
 20
5.0
 30
0.0
 40
3.5
 41
0.0
 71
     4
 72
     1
  1
備考欄の文字列 原点位置=4
  7
CONVERTER_1
 73
     1
 44
0.7202881152461
  0
MTEXT
  5
9B
330
36
100
AcDbEntity
  8
1
 62
     2
100
AcDbMText
 10
89.5
 20
24.00000000000001
 30
0.0
 40
3.5
 41
0.0
 71
     5
 72
     1
  1
尺度
  7
CONVERTER_1
 73
     1
 44
0.7202881152461
  0
MTEXT
  5
9C
330
36
100
AcDbEntity
  8
1
 62
     2
100
AcDbMText
 10
135.5
 20
25.00000000000001
 30
0.0
 40
3.0
 41
0.0
 71
     5
 72
     1
  1
製図
  7
CONVERTER_1
 73
     1
 44
0.78031212484994
  0
MTEXT
  5
9D
330
36
100
AcDbEntity
  8
1
 62
     2
100
AcDbMText
 10
152.5
 20
25.00000000000001
 30
0.0
 40
3.0
 41
0.0
 71
     5
 72
     1
  1
設計
  7
CONVERTER_1
 73
     1
 44
0.78031212484994
  0
MTEXT
  5
9E
330
36
100
AcDbEntity
  8
1
 62
     2
100
AcDbMText
 10
118.5
 20
25.00000000000001
 30
0.0
 40
3.0
 41
0.0
 71
     5
 72
     1
  1
検図
  7
CONVERTER_1
 73
     1
 44
0.78031212484994
  0
MTEXT
  5
9F
330
36
100
AcDbEntity
  8
1
 62
     2
100
AcDbMText
 10
175.0
 20
23.50000000000001
 30
0.0
 40
3.5
 41
0.0
 71
     5
 72
     1
  1
第三角法
  7
CONVERTER_1
 73
     1
 44
0.7202881152461
  0
MTEXT
  5
A0
330
36
100
AcDbEntity
  8
1
 62
     2
100
AcDbMText
 10
101.5
 20
25.00000000000001
 30
0.0
 40
3.0
 41
0.0
 71
     5
 72
     1
  1
承認
  7
CONVERTER_1
 73
     1
 44
0.78031212484994
  0
MTEXT
  5
A1
330
36
100
AcDbEntity
  8
1
 62
     2
100
AcDbMText
 10
29.0
 20
14.25
 30
0.0
 40
3.5
 41
0.0
 71
     5
 72
     1
  1
品番
  7
CONVERTER_1
 73
     1
 44
0.96038415366146
  0
MTEXT
  5
A2
330
36
100
AcDbEntity
  8
1
 62
     2
100
AcDbMText
 10
29.0
 20
22.75
 30
0.0
 40
3.5
 41
0.0
 71
     5
 72
     1
  1
品名
  7
CONVERTER_1
 73
     1
 44
0.96038415366146
  0
MTEXT
  5
A3
330
36
100
AcDbEntity
  8
1
 62
     2
100
AcDbMText
 10
29.0
 20
34.00000000000001
 30
0.0
 40
3.5
 41
0.0
 71
     5
 72
     1
  1
備考
  7
CONVERTER_1
 73
     1
 44
0.60024009603842
  0
MTEXT
  5
A4
330
36
100
AcDbEntity
  8
1
 62
     2
100
AcDbMText
 10
32.5
 20
282.0000000000003
 30
0.0
 40
5.0
 41
0.0
 71
     5
 72
     1
  1
図番
  7
CONVERTER_1
 73
     1
 44
0.60024009603842
  0
MTEXT
  5
A5
330
36
100
AcDbEntity
  8
1
 62
     7
100
AcDbMText
 10
171.5
 20
15.0
 30
0.0
 40
2.5
 41
0.0
 71
     5
 72
     1
  1
株式会社
  7
CONVERTER_1
 73
     1
 44
1.32052821128451
  0
MTEXT
  5
A6
330
36
100
AcDbEntity
  8
1
 62
     7
100
AcDbMText
 10
188.5
 20
15.0
 30
0.0
 40
3.0
 41
0.0
 71
     5
 72
     1
  1
三栄水栓製作所
  7
CONVERTER_1
 73
     1
 44
1.32052821128451
  0
ENDBLK
  5
38
330
36
100
AcDbEntity
  8
0
100
AcDbBlockEnd
  0
BLOCK
  5
3A
330
39
100
AcDbEntity
  8
0
100
AcDbBlockBegin
  2
32-213-M2__1
 70
     0
 71
     0
 10
450.8526093743659
 20
217.9038074808955
 30
0.0
  3
32-213-M2__1
  1

  0
LINE
  5
A7
330
39
100
AcDbEntity
  8
0
  6
Continuous
 62
     7
100
AcDbLine
 10
176.7455685750901
 20
270.6075500689565
 30
0.0
 11
176.7455685750902
 21
247.6075500689564
 31
0.0
  0
LINE
  5
A8
330
39
100
AcDbEntity
  8
1
  6
Continuous
 62
     7
100
AcDbLine
 10
176.7455685750902
 20
247.6075500689564
 30
0.0
 11
188.7455685750899
 21
247.6075500689564
 31
0.0
  0
LINE
  5
A9
330
39
100
AcDbEntity
  8
1
  6
Continuous
 62
     7
100
AcDbLine
 10
188.7455685750899
 20
270.6075500689565
 30
0.0
 11
176.7455685750901
 21
270.6075500689565
 31
0.0
  0
LINE
  5
AA
330
39
100
AcDbEntity
  8
0
  6
Continuous
 62
     7
100
AcDbLine
 10
188.7455685750899
 20
270.6075500689565
 30
0.0
 11
188.7455685750899
 21
247.6075500689564
 31
0.0
  0
LINE
  5
AB
330
39
100
AcDbEntity
  8
1
  6
Continuous
 62
     7
100
AcDbLine
 10
282.9577001618041
 20
258.1256078496467
 30
0.0
 11
277.4520212754178
 21
248.5894922882663
 31
0.0
  0
LINE
  5
AC
330
39
100
AcDbEntity
  8
1
  6
Continuous
 62
     7
100
AcDbLine
 10
257.5334369883757
 20
258.1256078496467
 30
0.0
 11
263.0391158747621
 21
248.5894922882663
 31
0.0
  0
LINE
  5
AD
330
39
100
AcDbEntity
  8
1
  6
Continuous
 62
     7
100
AcDbLine
 10
264.7398896887036
 20
247.6075500689565
 30
0.0
 11
275.7512474614762
 21
247.6075500689565
 31
0.0
  0
LINE
  5
AE
330
39
100
AcDbEntity
  8
1
  6
Continuous
 62
     7
100
AcDbLine
 10
263.0391158747621
 20
269.6256078496467
 30
0.0
 11
257.5334369883757
 21
260.0894922882663
 31
0.0
  0
LINE
  5
AF
330
39
100
AcDbEntity
  8
1
  6
Continuous
 62
     7
100
AcDbLine
 10
264.7398896887036
 20
270.6075500689565
 30
0.0
 11
275.7512474614762
 21
270.6075500689565
 31
0.0
  0
LINE
  5
B0
330
39
100
AcDbEntity
  8
1
  6
Continuous
 62
     7
100
AcDbLine
 10
282.9577001618041
 20
260.0894922882663
 30
0.0
 11
277.4520212754178
 21
269.6256078496467
 31
0.0
  0
LINE
  5
B1
330
39
100
AcDbEntity
  8
1
  6
Continuous
 62
     7
100
AcDbLine
 10
176.7472204992154
 20
446.1077924902935
 30
0.0
 11
176.7472204992154
 21
424.1075354088278
 31
0.0
  0
LINE
  5
B2
330
39
100
AcDbEntity
  8
1
  6
Continuous
 62
     7
100
AcDbLine
 10
188.7472204992154
 20
446.1077924902935
 30
0.0
 11
188.7472204992153
 21
424.1077924902935
 31
0.0
  0
ARC
  5
B3
330
39
100
AcDbEntity
  8
1
  6
Continuous
 62
     7
100
AcDbCircle
 10
270.2455685750899
 20
259.1075500689565
 30
0.0
 40
12.75000000000003
100
AcDbArc
 50
175.5829873704842
 51
180.0
  0
ARC
  5
B4
330
39
100
AcDbEntity
  8
1
  6
Continuous
 62
     7
100
AcDbCircle
 10
270.2455685750899
 20
259.1075500689565
 30
0.0
 40
12.75
100
AcDbArc
 50
180.0
 51
-175.5829873704839
  0
ARC
  5
B5
330
39
100
AcDbEntity
  8
1
  6
Continuous
 62
     7
100
AcDbCircle
 10
270.2455685750899
 20
259.1075500689565
 30
0.0
 40
12.75000000000003
100
AcDbArc
 50
-64.41701262951628
 51
-55.58298737048398
  0
ARC
  5
B6
330
39
100
AcDbEntity
  8
1
  6
Continuous
 62
     7
100
AcDbCircle
 10
270.2455685750899
 20
259.1075500689565
 30
0.0
 40
12.75
100
AcDbArc
 50
-124.4170126295158
 51
-115.5829873704837
  0
ARC
  5
B7
330
39
100
AcDbEntity
  8
1
  6
Continuous
 62
     7
100
AcDbCircle
 10
270.2455685750899
 20
259.1075500689565
 30
0.0
 40
12.75
100
AcDbArc
 50
115.5829873704838
 51
124.4170126295159
  0
ARC
  5
B8
330
39
100
AcDbEntity
  8
1
  6
Continuous
 62
     7
100
AcDbCircle
 10
270.2455685750899
 20
259.1075500689565
 30
0.0
 40
12.75000000000001
100
AcDbArc
 50
55.58298737048392
 51
64.41701262951622
  0
ARC
  5
B9
330
39
100
AcDbEntity
  8
1
  6
Continuous
 62
     7
100
AcDbCircle
 10
270.2455685750899
 20
259.1075500689565
 30
0.0
 40
12.74999999999998
100
AcDbArc
 50
-4.41701262951611
 51
0.0
  0
ARC
  5
BA
330
39
100
AcDbEntity
  8
1
  6
Continuous
 62
     7
100
AcDbCircle
 10
270.2455685750899
 20
259.1075500689565
 30
0.0
 40
12.75
100
AcDbArc
 50
0.0
 51
4.41701262951586
  0
ARC
  5
BB
330
39
100
AcDbEntity
  8
1
  6
Continuous
 62
     7
100
AcDbCircle
 10
182.7472204992154
 20
438.1077924902936
 30
0.0
 40
9.999999999999909
100
AcDbArc
 50
53.13010235415559
 51
126.8698976458444
  0
ARC
  5
BC
330
39
100
AcDbEntity
  8
1
  6
Continuous
 62
     7
100
AcDbCircle
 10
182.7472204992154
 20
432.1075354088277
 30
0.0
 40
9.999999999999909
100
AcDbArc
 50
-126.8698976458444
 51
-53.13010235415559
  0
CIRCLE
  5
BD
330
39
100
AcDbEntity
  8
1
  6
Continuous
 62
     7
100
AcDbCircle
 10
270.2455685750899
 20
259.1075500689565
 30
0.0
 40
11.04398391922535
  0
CIRCLE
  5
BE
330
39
100
AcDbEntity
  8
1
  6
Continuous
 62
     7
100
AcDbCircle
 10
270.2455685750899
 20
259.1075500689565
 30
0.0
 40
9.315499999999986
  0
CIRCLE
  5
BF
330
39
100
AcDbEntity
  8
1
  6
Continuous
 62
     2
100
AcDbCircle
 10
270.2455685750899
 20
259.1075500689565
 30
0.0
 40
10.47749999999991
  0
SPLINE
  5
C0
330
39
100
AcDbEntity
  8
1
  6
Continuous
 62
     7
100
AcDbSpline
210
0.0
220
0.0
230
1.0
 70
    11
 71
     3
 72
    79
 73
    75
 74
    73
 42
0.0000000001
 43
0.0000000001
 44
0.00000001
 40
0.0
 40
0.0
 40
0.0
 40
0.0
 40
0.417749483723076
 40
0.8354735898769183
 40
1.25710224274869
 40
1.678685433286999
 40
2.106182227952944
 40
2.533622015228165
 40
2.96820710847543
 40
3.402732685954852
 40
3.844736565188369
 40
4.286685938415115
 40
4.7355502325451
 40
5.18437027657888
 40
5.638750348182483
 40
6.093099590943496
 40
6.551041840695119
 40
7.008968337267181
 40
7.468136160089549
 40
7.927303982911859
 40
8.385230479483921
 40
8.843172729235505
 40
9.297521971996506
 40
9.751902043600103
 40
10.20072208763383
 40
10.64958638176385
 40
11.09153575499059
 40
11.53353963422413
 40
11.96806521170355
 40
12.40265030495088
 40
12.83009009222618
 40
13.25758688689206
 40
13.67917007743033
 40
14.1007987303021
 40
14.51852283645591
 40
14.93627232017898
 40
15.35265728301948
 40
15.76904224586004
 40
16.18679172958315
 40
16.60451583573695
 40
17.02614448860872
 40
17.44772767914698
 40
17.87522447381287
 40
18.30266426108814
 40
18.73724935433538
 40
19.17177493181481
 40
19.61377881104832
 40
20.05572818427505
 40
20.50459247840507
 40
20.95341252243884
 40
21.40779259404247
 40
21.86214183680343
 40
22.32008408655507
 40
22.7780105831271
 40
23.23717840594941
 40
23.69634622877178
 40
24.15427272534384
 40
24.61221497509545
 40
25.06656421785641
 40
25.5209442894601
 40
25.96976433349392
 40
26.41862862762391
 40
26.86057800085058
 40
27.30258188008404
 40
27.73710745756346
 40
28.17169255081076
 40
28.599132338086
 40
29.02662913275196
 40
29.44821232329027
 40
29.86984097616192
 40
30.28756508231573
 40
30.70531456603881
 40
31.12169952887937
 40
31.5380844917199
 40
31.5380844917199
 40
31.5380844917199
 40
31.5380844917199
 10
187.9948964440791
 20
253.773447144249
 30
0.0
 10
187.9776521299265
 20
253.9117357236027
 30
0.0
 10
187.9431645491841
 20
254.1883044815145
 30
0.0
 10
187.8406862377481
 20
254.5956134198217
 30
0.0
 10
187.7027451178124
 20
254.9931608787744
 30
0.0
 10
187.5256222086223
 20
255.3786535438846
 30
0.0
 10
187.3130412253177
 20
255.7479321830096
 30
0.0
 10
187.0648562521038
 20
256.0996066037783
 30
0.0
 10
186.78479140833
 20
256.4295227922519
 30
0.0
 10
186.4731073084946
 20
256.7366708727691
 30
0.0
 10
186.1342050168828
 20
257.0173507929169
 30
0.0
 10
185.7686160835708
 20
257.270707530352
 30
0.0
 10
185.3811845285191
 20
257.4937867403796
 30
0.0
 10
184.9728773138293
 20
257.6857702209162
 30
0.0
 10
184.5486197160883
 20
257.8446051727335
 30
0.0
 10
184.1100166547316
 20
257.969514778393
 30
0.0
 10
183.6617072756866
 20
258.059358408502
 30
0.0
 10
183.2060927859875
 20
258.1135214215158
 30
0.0
 10
182.7472204992168
 20
258.1316592434597
 30
0.0
 10
182.2883482124374
 20
258.1135214215163
 30
0.0
 10
181.8327337227643
 20
258.0593584085002
 30
0.0
 10
181.3844243436244
 20
257.9695147784003
 30
0.0
 10
180.9458212826184
 20
257.8446051727068
 30
0.0
 10
180.5215636835763
 20
257.6857702210156
 30
0.0
 10
180.1132564736859
 20
257.4937867400141
 30
0.0
 10
179.7258249008589
 20
257.2707075317085
 30
0.0
 10
179.3602360329093
 20
257.0173507879409
 30
0.0
 10
179.0213334994987
 20
256.736670891219
 30
0.0
 10
178.7096502875129
 20
256.4295227246857
 30
0.0
 10
178.4295821597632
 20
256.0996068543676
 30
0.0
 10
178.1814092506578
 20
255.7479312648139
 30
0.0
 10
177.9687836011509
 20
255.3786569530031
 30
0.0
 10
177.7918251961719
 20
254.9931483505309
 30
0.0
 10
177.6532737550321
 20
254.5956600202167
 30
0.0
 10
177.5530531884933
 20
254.1881323489197
 30
0.0
 10
177.4929766371556
 20
253.7745406092716
 30
0.0
 10
177.4726132255088
 20
253.3575500689566
 30
0.0
 10
177.4929766371555
 20
252.9405595286413
 30
0.0
 10
177.5530531884933
 20
252.5269677889934
 30
0.0
 10
177.6532737550321
 20
252.1194401176963
 30
0.0
 10
177.7918251961717
 20
251.721951787382
 30
0.0
 10
177.968783601151
 20
251.3364431849099
 30
0.0
 10
178.1814092506579
 20
250.9671688730992
 30
0.0
 10
178.4295821597633
 20
250.6154932835456
 30
0.0
 10
178.7096502875129
 20
250.2855774132274
 30
0.0
 10
179.0213334994987
 20
249.9784292466942
 30
0.0
 10
179.3602360329093
 20
249.6977493499722
 30
0.0
 10
179.7258249008589
 20
249.4443926062047
 30
0.0
 10
180.1132564736858
 20
249.2213133978991
 30
0.0
 10
180.5215636835763
 20
249.0293299168975
 30
0.0
 10
180.9458212826185
 20
248.8704949652062
 30
0.0
 10
181.3844243436244
 20
248.7455853595128
 30
0.0
 10
181.8327337227642
 20
248.6557417294129
 30
0.0
 10
182.2883482124378
 20
248.6015787163967
 30
0.0
 10
182.7472204992154
 20
248.5834408944535
 30
0.0
 10
183.2060927859924
 20
248.6015787163968
 30
0.0
 10
183.6617072756679
 20
248.655741729413
 30
0.0
 10
184.1100166548009
 20
248.7455853595124
 30
0.0
 10
184.5486197158321
 20
248.8704949652081
 30
0.0
 10
184.9728773147809
 20
249.0293299168905
 30
0.0
 10
185.3811845250155
 20
249.2213133979255
 30
0.0
 10
185.7686160965683
 20
249.4443926061075
 30
0.0
 10
186.1342049692029
 20
249.6977493503289
 30
0.0
 10
186.4731074852818
 20
249.9784292453717
 30
0.0
 10
186.7847907609072
 20
250.2855774180704
 30
0.0
 10
187.0648586532668
 20
250.6154932655837
 30
0.0
 10
187.3130324271077
 20
250.967168938914
 30
0.0
 10
187.5256548750147
 20
251.3364429405499
 30
0.0
 10
187.7026250713853
 20
251.721952685386
 30
0.0
 10
187.8411327657042
 20
252.1194367774566
 30
0.0
 10
187.9415151636863
 20
252.5269801271749
 30
0.0
 10
188.0009895463988
 20
252.9405135280158
 30
0.0
 10
188.02359339972
 20
253.3577211249642
 30
0.0
 10
188.0044620959594
 20
253.6348718044874
 30
0.0
 10
187.9948964440791
 20
253.773447144249
 30
0.0
 11
187.9948964440791
 21
253.773447144249
 31
0.0
 11
187.9347580446591
 21
254.1868452623701
 31
0.0
 11
187.8352093080315
 21
254.5925341553631
 31
0.0
 11
187.69641679404
 21
254.9906639821563
 31
0.0
 11
187.5207649167068
 21
255.3739116886515
 31
0.0
 11
187.307488623551
 21
255.7444069412896
 31
0.0
 11
187.0612411642956
 21
256.0937877658294
 31
0.0
 11
186.7800593159557
 21
256.4251500621712
 31
0.0
 11
186.4707242760917
 21
256.7303128229992
 31
0.0
 11
186.130376844786
 21
257.01232533205
 31
0.0
 11
185.7672438336742
 21
257.264225440697
 31
0.0
 11
185.3783031425905
 21
257.4882885866271
 31
0.0
 11
184.972208048861
 21
257.6794068923316
 31
0.0
 11
184.5466991973952
 21
257.8387915427682
 31
0.0
 11
184.1097547900606
 21
257.963342011641
 31
0.0
 11
183.6607481847612
 21
258.0533651892405
 31
0.0
 11
183.2060303109859
 21
258.1074792496315
 31
0.0
 11
182.7472204992153
 21
258.1256078496466
 31
0.0
 11
182.2884106874448
 21
258.1074792496316
 31
0.0
 11
181.8336928136695
 21
258.0533651892406
 31
0.0
 11
181.3846862083701
 21
257.9633420116411
 31
0.0
 11
180.9477418010355
 21
257.8387915427682
 31
0.0
 11
180.5222329495697
 21
257.6794068923316
 31
0.0
 11
180.1161378558403
 21
257.4882885866272
 31
0.0
 11
179.7271971647566
 21
257.264225440697
 31
0.0
 11
179.3640641536448
 21
257.01232533205
 31
0.0
 11
179.023716722339
 21
256.7303128229992
 31
0.0
 11
178.7143816824751
 21
256.4251500621712
 31
0.0
 11
178.4331998341352
 21
256.0937877658294
 31
0.0
 11
178.1869523748797
 21
255.7444069412895
 31
0.0
 11
177.9736760817239
 21
255.3739116886514
 31
0.0
 11
177.7980242043908
 21
254.9906639821563
 31
0.0
 11
177.6592316903992
 21
254.5925341553631
 31
0.0
 11
177.5596829537717
 21
254.1868452623701
 31
0.0
 11
177.4995445543517
 21
253.773447144249
 31
0.0
 11
177.4793936227886
 21
253.3575500689565
 31
0.0
 11
177.4995445543517
 21
252.941652993664
 31
0.0
 11
177.5596829537717
 21
252.5282548755428
 31
0.0
 11
177.6592316903992
 21
252.1225659825499
 31
0.0
 11
177.7980242043907
 21
251.7244361557567
 31
0.0
 11
177.9736760817239
 21
251.3411884492616
 31
0.0
 11
178.1869523748798
 21
250.9706931966236
 31
0.0
 11
178.4331998341352
 21
250.6213123720837
 31
0.0
 11
178.7143816824751
 21
250.2899500757419
 31
0.0
 11
179.023716722339
 21
249.9847873149139
 31
0.0
 11
179.3640641536447
 21
249.7027748058632
 31
0.0
 11
179.7271971647566
 21
249.4508746972162
 31
0.0
 11
180.1161378558403
 21
249.226811551286
 31
0.0
 11
180.5222329495697
 21
249.0356932455815
 31
0.0
 11
180.9477418010355
 21
248.8763085951448
 31
0.0
 11
181.3846862083701
 21
248.751758126272
 31
0.0
 11
181.8336928136695
 21
248.6617349486725
 31
0.0
 11
182.2884106874448
 21
248.6076208882815
 31
0.0
 11
182.7472204992153
 21
248.5894922882665
 31
0.0
 11
183.2060303109859
 21
248.6076208882815
 31
0.0
 11
183.6607481847612
 21
248.6617349486725
 31
0.0
 11
184.1097547900606
 21
248.751758126272
 31
0.0
 11
184.5466991973952
 21
248.8763085951448
 31
0.0
 11
184.972208048861
 21
249.0356932455816
 31
0.0
 11
185.3783031425905
 21
249.2268115512861
 31
0.0
 11
185.7672438336742
 21
249.4508746972162
 31
0.0
 11
186.130376844786
 21
249.7027748058632
 31
0.0
 11
186.4707242760916
 21
249.9847873149139
 31
0.0
 11
186.7800593159556
 21
250.2899500757419
 31
0.0
 11
187.0612411642955
 21
250.6213123720837
 31
0.0
 11
187.307488623551
 21
250.9706931966235
 31
0.0
 11
187.5207649167068
 21
251.3411884492617
 31
0.0
 11
187.69641679404
 21
251.7244361557568
 31
0.0
 11
187.8352093080314
 21
252.1225659825499
 31
0.0
 11
187.934758044659
 21
252.5282548755428
 31
0.0
 11
187.994896444079
 21
252.941652993664
 31
0.0
 11
188.0150473756421
 21
253.3575500689565
 31
0.0
 11
187.9948964440791
 21
253.773447144249
 31
0.0
  0
SPLINE
  5
C1
330
39
100
AcDbEntity
  8
1
  6
Continuous
 62
     7
100
AcDbSpline
210
0.0
220
0.0
230
1.0
 70
    11
 71
     3
 72
    79
 73
    75
 74
    73
 42
0.0000000001
 43
0.0000000001
 44
0.00000001
 40
0.0
 40
0.0
 40
0.0
 40
0.0
 40
0.4177494837230479
 40
0.8354735898768902
 40
1.257102242748662
 40
1.678685433286971
 40
2.106182227952818
 40
2.533622015228039
 40
2.968207108475303
 40
3.402732685954725
 40
3.844736565188243
 40
4.286685938414988
 40
4.735550232545001
 40
5.184370276578734
 40
5.638750348182357
 40
6.093099590943401
 40
6.551041840695035
 40
7.008968337267097
 40
7.468136160089464
 40
7.927303982911774
 40
8.385230479483836
 40
8.84317272923542
 40
9.297521971996421
 40
9.751902043600037
 40
10.20072208763379
 40
10.64958638176381
 40
11.09153575499055
 40
11.53353963422409
 40
11.96806521170351
 40
12.4026503049508
 40
12.83009009222605
 40
13.25758688689193
 40
13.67917007743015
 40
14.10079873030194
 40
14.51852283645579
 40
14.93627232017883
 40
15.35265728301936
 40
15.76904224585989
 40
16.18679172958294
 40
16.60451583573683
 40
17.02614448860848
 40
17.44772767914679
 40
17.87522447381276
 40
18.30266426108805
 40
18.73724935433534
 40
19.17177493181476
 40
19.61377881104824
 40
20.05572818427492
 40
20.50459247840485
 40
20.95341252243866
 40
21.40779259404231
 40
21.86214183680327
 40
22.32008408655491
 40
22.77801058312695
 40
23.23717840594926
 40
23.69634622877162
 40
24.15427272534369
 40
24.6122149750953
 40
25.06656421785626
 40
25.52094428945997
 40
25.96976433349377
 40
26.41862862762373
 40
26.86057800085039
 40
27.3025818800839
 40
27.7371074575634
 40
28.17169255081064
 40
28.59913233808588
 40
29.02662913275179
 40
29.4482123232901
 40
29.8698409761618
 40
30.28756508231558
 40
30.70531456603868
 40
31.12169952887922
 40
31.53808449171974
 40
31.53808449171974
 40
31.53808449171974
 40
31.53808449171974
 10
187.9948964440791
 20
264.4416529936632
 30
0.0
 10
187.9776521299265
 20
264.3033644143096
 30
0.0
 10
187.9431645491841
 20
264.0267956563977
 30
0.0
 10
187.8406862377481
 20
263.6194867180905
 30
0.0
 10
187.7027451178124
 20
263.2219392591378
 30
0.0
 10
187.5256222086223
 20
262.8364465940277
 30
0.0
 10
187.3130412253177
 20
262.4671679549026
 30
0.0
 10
187.0648562521038
 20
262.1154935341341
 30
0.0
 10
186.78479140833
 20
261.7855773456604
 30
0.0
 10
186.4731073084947
 20
261.4784292651432
 30
0.0
 10
186.1342050168827
 20
261.1977493449955
 30
0.0
 10
185.7686160835708
 20
260.9443926075604
 30
0.0
 10
185.3811845285192
 20
260.7213133975326
 30
0.0
 10
184.9728773138292
 20
260.5293299169962
 30
0.0
 10
184.5486197160883
 20
260.3704949651788
 30
0.0
 10
184.1100166547317
 20
260.2455853595193
 30
0.0
 10
183.6617072756866
 20
260.1557417294101
 30
0.0
 10
183.2060927859874
 20
260.1015787163963
 30
0.0
 10
182.7472204992168
 20
260.0834408944525
 30
0.0
 10
182.2883482124374
 20
260.1015787163959
 30
0.0
 10
181.8327337227643
 20
260.1557417294121
 30
0.0
 10
181.3844243436244
 20
260.2455853595119
 30
0.0
 10
180.9458212826184
 20
260.3704949652054
 30
0.0
 10
180.5215636835764
 20
260.5293299168968
 30
0.0
 10
180.1132564736859
 20
260.7213133978983
 30
0.0
 10
179.7258249008588
 20
260.9443926062039
 30
0.0
 10
179.3602360329093
 20
261.1977493499715
 30
0.0
 10
179.0213334994987
 20
261.4784292466935
 30
0.0
 10
178.7096502875129
 20
261.7855774132266
 30
0.0
 10
178.4295821597632
 20
262.1154932835447
 30
0.0
 10
178.1814092506578
 20
262.4671688730983
 30
0.0
 10
177.968783601151
 20
262.8364431849091
 30
0.0
 10
177.7918251961718
 20
263.2219517873812
 30
0.0
 10
177.6532737550321
 20
263.6194401176955
 30
0.0
 10
177.5530531884933
 20
264.0269677889926
 30
0.0
 10
177.4929766371556
 20
264.4405595286406
 30
0.0
 10
177.4726132255088
 20
264.8575500689557
 30
0.0
 10
177.4929766371555
 20
265.2745406092708
 30
0.0
 10
177.5530531884933
 20
265.6881323489187
 30
0.0
 10
177.6532737550321
 20
266.0956600202159
 30
0.0
 10
177.7918251961717
 20
266.4931483505302
 30
0.0
 10
177.9687836011509
 20
266.8786569530023
 30
0.0
 10
178.1814092506579
 20
267.2479312648131
 30
0.0
 10
178.4295821597632
 20
267.5996068543667
 30
0.0
 10
178.7096502875129
 20
267.929522724685
 30
0.0
 10
179.0213334994986
 20
268.2366708912181
 30
0.0
 10
179.3602360329093
 20
268.5173507879401
 30
0.0
 10
179.7258249008588
 20
268.7707075317073
 30
0.0
 10
180.1132564736859
 20
268.9937867400129
 30
0.0
 10
180.5215636835764
 20
269.1857702210145
 30
0.0
 10
180.9458212826183
 20
269.3446051727059
 30
0.0
 10
181.3844243436245
 20
269.4695147783995
 30
0.0
 10
181.8327337227642
 20
269.5593584084992
 30
0.0
 10
182.2883482124378
 20
269.6135214215155
 30
0.0
 10
182.7472204992154
 20
269.6316592434587
 30
0.0
 10
183.2060927859925
 20
269.6135214215155
 30
0.0
 10
183.6617072756679
 20
269.559358408499
 30
0.0
 10
184.1100166548009
 20
269.4695147783999
 30
0.0
 10
184.5486197158321
 20
269.3446051727041
 30
0.0
 10
184.9728773147809
 20
269.1857702210216
 30
0.0
 10
185.3811845250154
 20
268.9937867399867
 30
0.0
 10
185.7686160965683
 20
268.7707075318047
 30
0.0
 10
186.134204969203
 20
268.5173507875834
 30
0.0
 10
186.4731074852818
 20
268.2366708925405
 30
0.0
 10
186.7847907609071
 20
267.9295227198417
 30
0.0
 10
187.0648586532669
 20
267.5996068723285
 30
0.0
 10
187.3130324271077
 20
267.2479311989982
 30
0.0
 10
187.5256548750147
 20
266.8786571973623
 30
0.0
 10
187.7026250713853
 20
266.4931474525263
 30
0.0
 10
187.8411327657042
 20
266.0956633604556
 30
0.0
 10
187.9415151636863
 20
265.6881200107374
 30
0.0
 10
188.0009895463988
 20
265.2745866098964
 30
0.0
 10
188.0235933997199
 20
264.8573790129479
 30
0.0
 10
188.0044620959594
 20
264.5802283334248
 30
0.0
 10
187.9948964440791
 20
264.4416529936632
 30
0.0
 11
187.9948964440791
 21
264.4416529936632
 31
0.0
 11
187.9347580446591
 21
264.0282548755421
 31
0.0
 11
187.8352093080315
 21
263.6225659825491
 31
0.0
 11
187.69641679404
 21
263.2244361557559
 31
0.0
 11
187.5207649167068
 21
262.8411884492608
 31
0.0
 11
187.307488623551
 21
262.4706931966227
 31
0.0
 11
187.0612411642956
 21
262.1213123720829
 31
0.0
 11
186.7800593159557
 21
261.7899500757411
 31
0.0
 11
186.4707242760917
 21
261.4847873149131
 31
0.0
 11
186.130376844786
 21
261.2027748058624
 31
0.0
 11
185.7672438336742
 21
260.9508746972153
 31
0.0
 11
185.3783031425905
 21
260.7268115512852
 31
0.0
 11
184.972208048861
 21
260.5356932455808
 31
0.0
 11
184.5466991973952
 21
260.3763085951442
 31
0.0
 11
184.1097547900606
 21
260.2517581262712
 31
0.0
 11
183.6607481847612
 21
260.1617349486716
 31
0.0
 11
183.2060303109859
 21
260.1076208882806
 31
0.0
 11
182.7472204992153
 21
260.0894922882656
 31
0.0
 11
182.2884106874448
 21
260.1076208882806
 31
0.0
 11
181.8336928136695
 21
260.1617349486716
 31
0.0
 11
181.3846862083701
 21
260.2517581262711
 31
0.0
 11
180.9477418010355
 21
260.376308595144
 31
0.0
 11
180.5222329495697
 21
260.5356932455807
 31
0.0
 11
180.1161378558403
 21
260.7268115512852
 31
0.0
 11
179.7271971647566
 21
260.9508746972153
 31
0.0
 11
179.3640641536448
 21
261.2027748058624
 31
0.0
 11
179.023716722339
 21
261.4847873149131
 31
0.0
 11
178.7143816824751
 21
261.7899500757411
 31
0.0
 11
178.4331998341352
 21
262.1213123720829
 31
0.0
 11
178.1869523748797
 21
262.4706931966227
 31
0.0
 11
177.9736760817239
 21
262.8411884492608
 31
0.0
 11
177.7980242043908
 21
263.2244361557559
 31
0.0
 11
177.6592316903992
 21
263.6225659825491
 31
0.0
 11
177.5596829537717
 21
264.0282548755421
 31
0.0
 11
177.4995445543517
 21
264.4416529936632
 31
0.0
 11
177.4793936227886
 21
264.8575500689557
 31
0.0
 11
177.4995445543517
 21
265.2734471442482
 31
0.0
 11
177.5596829537717
 21
265.6868452623693
 31
0.0
 11
177.6592316903992
 21
266.0925341553623
 31
0.0
 11
177.7980242043907
 21
266.4906639821554
 31
0.0
 11
177.9736760817239
 21
266.8739116886505
 31
0.0
 11
178.1869523748798
 21
267.2444069412887
 31
0.0
 11
178.4331998341352
 21
267.5937877658286
 31
0.0
 11
178.7143816824751
 21
267.9251500621704
 31
0.0
 11
179.023716722339
 21
268.2303128229984
 31
0.0
 11
179.3640641536447
 21
268.5123253320491
 31
0.0
 11
179.7271971647566
 21
268.764225440696
 31
0.0
 11
180.1161378558403
 21
268.988288586626
 31
0.0
 11
180.5222329495697
 21
269.1794068923306
 31
0.0
 11
180.9477418010355
 21
269.3387915427674
 31
0.0
 11
181.3846862083701
 21
269.4633420116402
 31
0.0
 11
181.8336928136695
 21
269.5533651892397
 31
0.0
 11
182.2884106874448
 21
269.6074792496307
 31
0.0
 11
182.7472204992153
 21
269.6256078496458
 31
0.0
 11
183.2060303109859
 21
269.6074792496307
 31
0.0
 11
183.6607481847612
 21
269.5533651892397
 31
0.0
 11
184.1097547900606
 21
269.4633420116402
 31
0.0
 11
184.5466991973952
 21
269.3387915427674
 31
0.0
 11
184.972208048861
 21
269.1794068923306
 31
0.0
 11
185.3783031425905
 21
268.9882885866261
 31
0.0
 11
185.7672438336742
 21
268.764225440696
 31
0.0
 11
186.130376844786
 21
268.5123253320491
 31
0.0
 11
186.4707242760916
 21
268.2303128229983
 31
0.0
 11
186.7800593159556
 21
267.9251500621702
 31
0.0
 11
187.0612411642955
 21
267.5937877658284
 31
0.0
 11
187.307488623551
 21
267.2444069412886
 31
0.0
 11
187.5207649167068
 21
266.8739116886505
 31
0.0
 11
187.69641679404
 21
266.4906639821554
 31
0.0
 11
187.8352093080314
 21
266.0925341553623
 31
0.0
 11
187.934758044659
 21
265.6868452623693
 31
0.0
 11
187.994896444079
 21
265.2734471442482
 31
0.0
 11
188.0150473756421
 21
264.8575500689557
 31
0.0
 11
187.9948964440791
 21
264.4416529936632
 31
0.0
  0
SPLINE
  5
C2
330
39
100
AcDbEntity
  8
1
  6
Continuous
 62
     7
100
AcDbSpline
210
0.0
220
0.0
230
1.0
 70
    11
 71
     3
 72
    79
 73
    75
 74
    73
 42
0.0000000001
 43
0.0000000001
 44
0.00000001
 40
0.0
 40
0.0
 40
0.0
 40
0.0
 40
0.2746255860864884
 40
0.5489296448750083
 40
0.8445351226056979
 40
1.139720930735175
 40
1.464847760107508
 40
1.78963447468565
 40
2.147784125837295
 40
2.505702211207239
 40
2.896040828699712
 40
3.286231079274721
 40
3.704624946715763
 40
4.122927269101279
 40
4.562895988146225
 40
5.002812031777943
 40
5.456315478849933
 40
5.90979487075835
 40
6.367899400179731
 40
6.826003929601083
 40
7.279483321509495
 40
7.732986768581465
 40
8.172902812213154
 40
8.612871531258113
 40
9.031173853643679
 40
9.44956772108476
 40
9.839757971659799
 40
10.23009658915235
 40
10.58801467452224
 40
10.94616432567382
 40
11.270951040252
 40
11.59607786962444
 40
11.89126367775385
 40
12.18686915548458
 40
12.46117321427304
 40
12.73579880035956
 40
13.00262036940783
 40
13.26944193845622
 40
13.54406752454268
 40
13.8183715833312
 40
14.11397706106182
 40
14.40916286919129
 40
14.73428969856366
 40
15.05907641314186
 40
15.41722606429345
 40
15.77514414966339
 40
16.16548276715589
 40
16.55567301773095
 40
16.97406688517202
 40
17.39236920755758
 40
17.8323379266026
 40
18.27225397023425
 40
18.72575741730619
 40
19.17923680921463
 40
19.63734133863598
 40
20.09544586805736
 40
20.5489252599658
 40
21.00242870703777
 40
21.44234475066945
 40
21.88231346971447
 40
22.30061579209997
 40
22.71900965954099
 40
23.10919991011598
 40
23.49953852760848
 40
23.85745661297844
 40
24.21560626413005
 40
24.54039297870816
 40
24.86551980808051
 40
25.16070561620997
 40
25.45631109394066
 40
25.73061515272925
 40
26.00524073881568
 40
26.27206230786407
 40
26.53888387691234
 40
26.53888387691234
 40
26.53888387691234
 40
26.53888387691234
 10
187.9943590339594
 20
445.3331029456426
 30
0.0
 10
187.9766160052908
 20
445.4230922139032
 30
0.0
 10
187.9411507212112
 20
445.6029653924106
 30
0.0
 10
187.8352743148728
 20
445.8653517286527
 30
0.0
 10
187.6956094432442
 20
446.1183016099981
 30
0.0
 10
187.5148401864325
 20
446.3652788548498
 30
0.0
 10
187.301602051301
 20
446.5979641054187
 30
0.0
 10
187.0505855900892
 20
446.8220793625815
 30
0.0
 10
186.7714823538395
 20
447.028939902652
 30
0.0
 10
186.4580619002835
 20
447.2239822906947
 30
0.0
 10
186.1213385218105
 20
447.3997295044257
 30
0.0
 10
185.7550559363627
 20
447.5602558840516
 30
0.0
 10
185.3704162242389
 20
447.6999942935481
 30
0.0
 10
184.962327144031
 20
447.8214624390284
 30
0.0
 10
184.5409791313198
 20
447.9210553138198
 30
0.0
 10
184.1033816893552
 20
448.000020736033
 30
0.0
 10
183.6577630996074
 20
448.0563876472098
 30
0.0
 10
183.2038345077598
 20
448.0906515770485
 30
0.0
 10
182.7472204992181
 20
448.1019536143162
 30
0.0
 10
182.2906064906602
 20
448.0906515770498
 30
0.0
 10
181.8366778988607
 20
448.0563876472041
 30
0.0
 10
181.3910593089387
 20
448.0000207360544
 30
0.0
 10
180.9534618676046
 20
447.9210553137428
 30
0.0
 10
180.5321138525938
 20
447.8214624393105
 30
0.0
 10
180.1240247805652
 20
447.6999942925528
 30
0.0
 10
179.739385038915
 20
447.5602558876673
 30
0.0
 10
179.3731025565922
 20
447.3997294919362
 30
0.0
 10
179.036378809364
 20
447.2239823357943
 30
0.0
 10
178.7229596236034
 20
447.0289397497585
 30
0.0
 10
178.4438518856453
 20
446.8220799127249
 30
0.0
 10
178.1928507456224
 20
446.5979622628353
 30
0.0
 10
177.9795583038132
 20
446.3652854933993
 30
0.0
 10
177.7989741368363
 20
446.1182793428666
 30
0.0
 10
177.6586482655038
 20
445.8654326905646
 30
0.0
 10
177.5550716957619
 20
445.6026871863375
 30
0.0
 10
177.4939925387454
 20
445.3366898987947
 30
0.0
 10
177.4721993737745
 20
445.0670846338147
 30
0.0
 10
177.4939925387455
 20
444.7974793688345
 30
0.0
 10
177.555071695762
 20
444.5314820812918
 30
0.0
 10
177.6586482655037
 20
444.2687365770647
 30
0.0
 10
177.7989741368364
 20
444.0158899247625
 30
0.0
 10
177.9795583038131
 20
443.7688837742301
 30
0.0
 10
178.1928507456225
 20
443.5362070047941
 30
0.0
 10
178.4438518856452
 20
443.3120893549043
 30
0.0
 10
178.7229596236034
 20
443.1052295178707
 30
0.0
 10
179.0363788093639
 20
442.9101869318349
 30
0.0
 10
179.3731025565923
 20
442.734439775693
 30
0.0
 10
179.739385038915
 20
442.5739133799617
 30
0.0
 10
180.1240247805654
 20
442.4341749750768
 30
0.0
 10
180.5321138525937
 20
442.3127068283187
 30
0.0
 10
180.9534618676047
 20
442.2131139538865
 30
0.0
 10
181.3910593089388
 20
442.1341485315747
 30
0.0
 10
181.8366778988604
 20
442.0777816204252
 30
0.0
 10
182.290606490661
 20
442.0435176905793
 30
0.0
 10
182.7472204992156
 20
442.0322156533135
 30
0.0
 10
183.2038345077691
 20
442.0435176905792
 30
0.0
 10
183.657763099573
 20
442.0777816204258
 30
0.0
 10
184.1033816894824
 20
442.1341485315733
 30
0.0
 10
184.5409791308611
 20
442.2131139538918
 30
0.0
 10
184.9623271457093
 20
442.3127068282988
 30
0.0
 10
185.3704162183165
 20
442.434174975147
 30
0.0
 10
185.7550559578775
 20
442.573913379706
 30
0.0
 10
186.121338447497
 20
442.7344397765764
 30
0.0
 10
186.4580621686336
 20
442.9101869286441
 30
0.0
 10
186.7714814440986
 20
443.1052295286888
 30
0.0
 10
187.0505888635323
 20
443.3120893159783
 30
0.0
 10
187.3015910876268
 20
443.5362071351684
 30
0.0
 10
187.5148796868926
 20
443.7688833045104
 30
0.0
 10
187.6954769501544
 20
444.015891500304
 30
0.0
 10
187.8357560515465
 20
444.2687308484938
 30
0.0
 10
187.9394953493813
 20
444.5315017661441
 30
0.0
 10
187.9999819184776
 20
444.7974065085862
 30
0.0
 10
188.0239280240899
 20
445.0673480006503
 30
0.0
 10
188.0042153640029
 20
445.2445179639785
 30
0.0
 10
187.9943590339594
 20
445.3331029456426
 30
0.0
 11
187.9943590339594
 21
445.3331029456426
 31
0.0
 11
187.9327821522785
 21
445.6007360904058
 31
0.0
 11
187.8331815762865
 21
445.8563186444463
 31
0.0
 11
187.6902289167987
 21
446.1150600899277
 31
0.0
 11
187.5167796582385
 21
446.3539115417256
 31
0.0
 11
187.2977220127495
 21
446.5941639155547
 31
0.0
 11
187.0559369561109
 21
446.811019619544
 31
0.0
 11
186.7687100358235
 21
447.0249632309988
 31
0.0
 11
186.4651064663357
 21
447.2145159372024
 31
0.0
 11
186.1193942211797
 21
447.3957541226246
 31
0.0
 11
185.7621662714292
 21
447.5527147022644
 31
0.0
 11
185.3691021511646
 21
447.6960814545917
 31
0.0
 11
184.9682510336201
 21
447.8156440510692
 31
0.0
 11
184.540166062867
 21
447.9172104409498
 31
0.0
 11
184.1072639674393
 21
447.9954530202717
 31
0.0
 11
183.6573743484682
 21
448.0525906370247
 31
0.0
 11
183.2051821905009
 21
448.0867346139235
 31
0.0
 11
182.7472204992154
 21
448.0981735470601
 31
0.0
 11
182.2892588079299
 21
448.0867346139235
 31
0.0
 11
181.8370666499626
 21
448.0525906370248
 31
0.0
 11
181.3871770309915
 21
447.9954530202717
 31
0.0
 11
180.9542749355639
 21
447.9172104409498
 31
0.0
 11
180.5261899648108
 21
447.8156440510692
 31
0.0
 11
180.1253388472662
 21
447.6960814545917
 31
0.0
 11
179.7322747270016
 21
447.5527147022643
 31
0.0
 11
179.3750467772511
 21
447.3957541226246
 31
0.0
 11
179.029334532095
 21
447.2145159372024
 31
0.0
 11
178.7257309626072
 21
447.0249632309988
 31
0.0
 11
178.4385040423198
 21
446.8110196195441
 31
0.0
 11
178.1967189856812
 21
446.5941639155548
 31
0.0
 11
177.9776613401921
 21
446.3539115417256
 31
0.0
 11
177.8042120816319
 21
446.1150600899277
 31
0.0
 11
177.6612594221442
 21
445.8563186444463
 31
0.0
 11
177.5616588461522
 21
445.6007360904058
 31
0.0
 11
177.5000819644714
 21
445.3331029456426
 31
0.0
 11
177.4793936227886
 21
445.0670846338147
 31
0.0
 11
177.5000819644714
 21
444.8010663219866
 31
0.0
 11
177.5616588461522
 21
444.5334331772235
 31
0.0
 11
177.6612594221442
 21
444.2778506231829
 31
0.0
 11
177.8042120816319
 21
444.0191091777016
 31
0.0
 11
177.9776613401921
 21
443.7802577259037
 31
0.0
 11
178.1967189856812
 21
443.5400053520746
 31
0.0
 11
178.4385040423198
 21
443.3231496480852
 31
0.0
 11
178.7257309626071
 21
443.1092060366305
 31
0.0
 11
179.029334532095
 21
442.9196533304269
 31
0.0
 11
179.375046777251
 21
442.7384151450047
 31
0.0
 11
179.7322747270016
 21
442.5814545653649
 31
0.0
 11
180.1253388472663
 21
442.4380878130377
 31
0.0
 11
180.5261899648108
 21
442.31852521656
 31
0.0
 11
180.9542749355639
 21
442.2169588266794
 31
0.0
 11
181.3871770309915
 21
442.1387162473576
 31
0.0
 11
181.8370666499625
 21
442.0815786306045
 31
0.0
 11
182.2892588079299
 21
442.0474346537058
 31
0.0
 11
182.7472204992154
 21
442.0359957205692
 31
0.0
 11
183.2051821905009
 21
442.0474346537059
 31
0.0
 11
183.6573743484683
 21
442.0815786306045
 31
0.0
 11
184.1072639674393
 21
442.1387162473576
 31
0.0
 11
184.5401660628669
 21
442.2169588266794
 31
0.0
 11
184.9682510336201
 21
442.31852521656
 31
0.0
 11
185.3691021511646
 21
442.4380878130377
 31
0.0
 11
185.7621662714292
 21
442.5814545653649
 31
0.0
 11
186.1193942211797
 21
442.7384151450046
 31
0.0
 11
186.4651064663357
 21
442.9196533304269
 31
0.0
 11
186.7687100358236
 21
443.1092060366305
 31
0.0
 11
187.0559369561109
 21
443.3231496480852
 31
0.0
 11
187.2977220127495
 21
443.5400053520745
 31
0.0
 11
187.5167796582385
 21
443.7802577259037
 31
0.0
 11
187.6902289167987
 21
444.0191091777015
 31
0.0
 11
187.8331815762864
 21
444.2778506231829
 31
0.0
 11
187.9327821522785
 21
444.5334331772235
 31
0.0
 11
187.9943590339594
 21
444.8010663219866
 31
0.0
 11
188.0150473756422
 21
445.0670846338147
 31
0.0
 11
187.9943590339594
 21
445.3331029456426
 31
0.0
  0
SPLINE
  5
C3
330
39
100
AcDbEntity
  8
1
  6
Continuous
 62
     7
100
AcDbSpline
210
0.0
220
0.0
230
1.0
 70
     8
 71
     3
 72
    45
 73
    41
 74
    39
 42
0.0000000001
 43
0.0000000001
 44
0.00000001
 40
0.0
 40
0.0
 40
0.0
 40
0.0
 40
0.2639815460522021
 40
0.528341984119046
 40
1.054652170762616
 40
1.580985067100725
 40
2.101700160272479
 40
2.622460348438451
 40
3.134495226137538
 40
3.64659636861907
 40
4.147789061289586
 40
4.649065936797105
 40
5.138470095605076
 40
5.62796950881365
 40
6.106046361246326
 40
6.584217829940178
 40
7.052873649570402
 40
7.521607363809266
 40
7.98402555662773
 40
8.446488192992991
 40
8.906737372258926
 40
9.36698655152486
 40
9.829449187890223
 40
10.29186738070863
 40
10.76060109494748
 40
11.22925691457767
 40
11.70742838327158
 40
12.1855052357042
 40
12.67500464891282
 40
13.16440880772074
 40
13.66568568322828
 40
14.16687837589884
 40
14.67897951838045
 40
15.19101439607947
 40
15.71177458424536
 40
16.23248967741703
 40
16.75882257375519
 40
17.28513276039871
 40
17.54949319846368
 40
17.81347474451356
 40
17.81347474451356
 40
17.81347474451356
 40
17.81347474451356
 10
188.0150473756421
 20
435.1077924902892
 30
0.0
 10
188.0140788642931
 20
435.1957922542161
 30
0.0
 10
188.0121404514931
 20
435.3719180878981
 30
0.0
 10
187.9915051162494
 20
435.7229715353547
 30
0.0
 10
187.9420114883251
 20
436.1595982749655
 30
0.0
 10
187.8428083895181
 20
436.6751163088603
 30
0.0
 10
187.7049282596582
 20
437.1797346383955
 30
0.0
 10
187.5297101314903
 20
437.6675997652268
 30
0.0
 10
187.3177109852971
 20
438.1374965673267
 30
0.0
 10
187.071605016575
 20
438.5830596774264
 30
0.0
 10
186.7917547762056
 20
439.003947160511
 30
0.0
 10
186.4820330124327
 20
439.3937934047088
 30
0.0
 10
186.1426520813463
 20
439.7527781151046
 30
0.0
 10
185.7784625768158
 20
440.0750714780331
 30
0.0
 10
185.3897384809236
 20
440.3610480084432
 30
0.0
 10
184.9818922314628
 20
440.6058523510846
 30
0.0
 10
184.5556272538207
 20
440.8098689110809
 30
0.0
 10
184.1163697187873
 20
440.9694638578427
 30
0.0
 10
183.6656631622864
 20
441.085065724453
 30
0.0
 10
183.2083855727224
 20
441.1542709324289
 30
0.0
 10
182.7472204992153
 20
441.1778011786444
 30
0.0
 10
182.2860554257084
 20
441.1542709324289
 30
0.0
 10
181.8287778361442
 20
441.0850657244529
 30
0.0
 10
181.3780712796434
 20
440.9694638578428
 30
0.0
 10
180.9388137446099
 20
440.809868911081
 30
0.0
 10
180.5125487669679
 20
440.6058523510847
 30
0.0
 10
180.1047025175071
 20
440.361048008443
 30
0.0
 10
179.7159784216149
 20
440.0750714780333
 30
0.0
 10
179.3517889170844
 20
439.7527781151045
 30
0.0
 10
179.012407985998
 20
439.3937934047087
 30
0.0
 10
178.7026862222252
 20
439.0039471605111
 30
0.0
 10
178.4228359818558
 20
438.5830596774266
 30
0.0
 10
178.1767300131338
 20
438.1374965673265
 30
0.0
 10
177.9647308669406
 20
437.6675997652267
 30
0.0
 10
177.7895127387728
 20
437.1797346383953
 30
0.0
 10
177.6516326089127
 20
436.6751163088604
 30
0.0
 10
177.5524295101057
 20
436.1595982749655
 30
0.0
 10
177.5029358821815
 20
435.7229715353555
 30
0.0
 10
177.4823005469378
 20
435.3719180879002
 30
0.0
 10
177.4803621341377
 20
435.1957922542195
 30
0.0
 10
177.4793936227885
 20
435.1077924902935
 30
0.0
 11
188.0150473756421
 21
435.1077924902892
 31
0.0
 11
188.0100450691899
 21
435.3717266365952
 31
0.0
 11
187.9950381498327
 21
435.6356607829013
 31
0.0
 11
187.935309573825
 21
436.1585708227484
 31
0.0
 11
187.8358681069002
 21
436.6754244891023
 31
0.0
 11
187.6984641786401
 21
437.1776837535819
 31
0.0
 11
187.5223093622266
 21
437.667745641748
 31
0.0
 11
187.3115451606748
 21
438.1343912967418
 31
0.0
 11
187.0637822171763
 21
438.5825666016838
 31
0.0
 11
186.7860487203299
 21
438.9997694539221
 31
0.0
 11
186.4740698124602
 21
439.3921311072
 31
0.0
 11
186.1376143779991
 21
439.7475381573273
 31
0.0
 11
185.7709239620073
 21
440.0718031945288
 31
0.0
 11
185.3856162816149
 21
440.3548146223237
 31
0.0
 11
184.9755702222859
 21
440.6008027982623
 31
0.0
 11
184.552681897437
 21
440.8028021595974
 31
0.0
 11
184.1121204106637
 21
440.9628548735271
 31
0.0
 11
183.6641227287313
 21
441.0774352472073
 31
0.0
 11
183.2068832763503
 21
441.1467445050323
 31
0.0
 11
182.7472204992154
 21
441.1699703167845
 31
0.0
 11
182.2875577220804
 21
441.1467445050323
 31
0.0
 11
181.8303182696994
 21
441.0774352472072
 31
0.0
 11
181.382320587767
 21
440.9628548735271
 31
0.0
 11
180.9417591009937
 21
440.8028021595974
 31
0.0
 11
180.5188707761448
 21
440.6008027982624
 31
0.0
 11
180.1088247168158
 21
440.3548146223237
 31
0.0
 11
179.7235170364234
 21
440.0718031945288
 31
0.0
 11
179.3568266204316
 21
439.7475381573273
 31
0.0
 11
179.0203711859705
 21
439.3921311072
 31
0.0
 11
178.7083922781008
 21
438.9997694539221
 31
0.0
 11
178.4306587812544
 21
438.5825666016837
 31
0.0
 11
178.1828958377559
 21
438.1343912967416
 31
0.0
 11
177.9721316362042
 21
437.6677456417479
 31
0.0
 11
177.7959768197908
 21
437.1776837535818
 31
0.0
 11
177.6585728915306
 21
436.6754244891023
 31
0.0
 11
177.5591314246058
 21
436.1585708227484
 31
0.0
 11
177.4994028485981
 21
435.6356607829013
 31
0.0
 11
177.4843959292409
 21
435.3717266365972
 31
0.0
 11
177.4793936227885
 21
435.1077924902935
 31
0.0
  0
SPLINE
  5
C4
330
39
100
AcDbEntity
  8
1
  6
Continuous
 62
     7
100
AcDbSpline
210
0.0
220
0.0
230
1.0
 70
     8
 71
     3
 72
    45
 73
    41
 74
    39
 42
0.0000000001
 43
0.0000000001
 44
0.00000001
 40
0.0
 40
0.0
 40
0.0
 40
0.0
 40
0.263981546052259
 40
0.5283419841191597
 40
1.054652170762617
 40
1.580985067100837
 40
2.101700160272537
 40
2.622460348438455
 40
3.134495226137439
 40
3.64659636861912
 40
4.147789061289684
 40
4.649065936797203
 40
5.138470095605132
 40
5.627969508813706
 40
6.106046361246315
 40
6.584217829940225
 40
7.052873649570424
 40
7.521607363809308
 40
7.984025556627757
 40
8.446488192993026
 40
8.906737372258959
 40
9.366986551524894
 40
9.829449187890239
 40
10.29186738070868
 40
10.76060109494752
 40
11.22925691457769
 40
11.7074283832716
 40
12.18550523570419
 40
12.6750046489128
 40
13.16440880772073
 40
13.66568568322827
 40
14.16687837589888
 40
14.67897951838053
 40
15.1910143960795
 40
15.71177458424539
 40
16.23248967741706
 40
16.75882257375523
 40
17.28513276039874
 40
17.54949319846365
 40
17.81347474451359
 40
17.81347474451359
 40
17.81347474451359
 40
17.81347474451359
 10
188.0150473756421
 20
435.1075354088321
 30
0.0
 10
188.0140788642931
 20
435.0195356449053
 30
0.0
 10
188.0121404514932
 20
434.8434098112233
 30
0.0
 10
187.9915051162494
 20
434.4923563637664
 30
0.0
 10
187.9420114883251
 20
434.0557296241558
 30
0.0
 10
187.8428083895181
 20
433.5402115902611
 30
0.0
 10
187.7049282596581
 20
433.0355932607258
 30
0.0
 10
187.5297101314903
 20
432.5477281338947
 30
0.0
 10
187.3177109852969
 20
432.0778313317945
 30
0.0
 10
187.0716050165751
 20
431.6322682216949
 30
0.0
 10
186.7917547762055
 20
431.2113807386102
 30
0.0
 10
186.4820330124328
 20
430.8215344944125
 30
0.0
 10
186.1426520813463
 20
430.4625497840168
 30
0.0
 10
185.7784625768159
 20
430.140256421088
 30
0.0
 10
185.3897384809235
 20
429.8542798906782
 30
0.0
 10
184.9818922314628
 20
429.6094755480366
 30
0.0
 10
184.5556272538206
 20
429.4054589880403
 30
0.0
 10
184.1163697187873
 20
429.2458640412785
 30
0.0
 10
183.6656631622864
 20
429.1302621746683
 30
0.0
 10
183.2083855727224
 20
429.0610569666926
 30
0.0
 10
182.7472204992154
 20
429.0375267204769
 30
0.0
 10
182.2860554257084
 20
429.0610569666927
 30
0.0
 10
181.8287778361442
 20
429.1302621746681
 30
0.0
 10
181.3780712796434
 20
429.2458640412788
 30
0.0
 10
180.9388137446099
 20
429.4054589880403
 30
0.0
 10
180.5125487669679
 20
429.6094755480365
 30
0.0
 10
180.1047025175072
 20
429.8542798906782
 30
0.0
 10
179.7159784216149
 20
430.1402564210879
 30
0.0
 10
179.3517889170844
 20
430.4625497840167
 30
0.0
 10
179.0124079859979
 20
430.8215344944123
 30
0.0
 10
178.7026862222252
 20
431.2113807386103
 30
0.0
 10
178.4228359818556
 20
431.6322682216947
 30
0.0
 10
178.1767300131338
 20
432.0778313317948
 30
0.0
 10
177.9647308669405
 20
432.5477281338947
 30
0.0
 10
177.7895127387728
 20
433.0355932607259
 30
0.0
 10
177.6516326089127
 20
433.5402115902611
 30
0.0
 10
177.5524295101056
 20
434.0557296241556
 30
0.0
 10
177.5029358821815
 20
434.4923563637659
 30
0.0
 10
177.4823005469377
 20
434.8434098112211
 30
0.0
 10
177.4803621341377
 20
435.0195356449017
 30
0.0
 10
177.4793936227885
 20
435.1075354088278
 30
0.0
 11
188.0150473756421
 21
435.1075354088321
 31
0.0
 11
188.0100450691899
 21
434.8436012625261
 31
0.0
 11
187.9950381498327
 21
434.57966711622
 31
0.0
 11
187.935309573825
 21
434.056757076373
 31
0.0
 11
187.8358681069002
 21
433.539903410019
 31
0.0
 11
187.6984641786401
 21
433.0376441455395
 31
0.0
 11
187.5223093622266
 21
432.5475822573733
 31
0.0
 11
187.3115451606748
 21
432.0809366023797
 31
0.0
 11
187.0637822171763
 21
431.6327612974375
 31
0.0
 11
186.7860487203299
 21
431.2155584451991
 31
0.0
 11
186.4740698124602
 21
430.8231967919212
 31
0.0
 11
186.1376143779991
 21
430.467789741794
 31
0.0
 11
185.7709239620073
 21
430.1435247045925
 31
0.0
 11
185.3856162816149
 21
429.8605132767977
 31
0.0
 11
184.9755702222859
 21
429.614525100859
 31
0.0
 11
184.552681897437
 21
429.412525739524
 31
0.0
 11
184.1121204106637
 21
429.2524730255942
 31
0.0
 11
183.6641227287313
 21
429.1378926519141
 31
0.0
 11
183.2068832763503
 21
429.068583394089
 31
0.0
 11
182.7472204992154
 21
429.0453575823368
 31
0.0
 11
182.2875577220804
 21
429.0685833940891
 31
0.0
 11
181.8303182696994
 21
429.1378926519141
 31
0.0
 11
181.382320587767
 21
429.2524730255942
 31
0.0
 11
180.9417591009937
 21
429.4125257395239
 31
0.0
 11
180.5188707761448
 21
429.6145251008589
 31
0.0
 11
180.1088247168158
 21
429.8605132767976
 31
0.0
 11
179.7235170364234
 21
430.1435247045924
 31
0.0
 11
179.3568266204316
 21
430.467789741794
 31
0.0
 11
179.0203711859705
 21
430.8231967919212
 31
0.0
 11
178.7083922781008
 21
431.2155584451991
 31
0.0
 11
178.4306587812544
 21
431.6327612974376
 31
0.0
 11
178.1828958377559
 21
432.0809366023797
 31
0.0
 11
177.9721316362042
 21
432.5475822573734
 31
0.0
 11
177.7959768197908
 21
433.0376441455395
 31
0.0
 11
177.6585728915306
 21
433.539903410019
 31
0.0
 11
177.5591314246058
 21
434.056757076373
 31
0.0
 11
177.4994028485981
 21
434.57966711622
 31
0.0
 11
177.4843959292409
 21
434.8436012625241
 31
0.0
 11
177.4793936227885
 21
435.1075354088278
 31
0.0
  0
SPLINE
  5
C5
330
39
100
AcDbEntity
  8
1
  6
Continuous
 62
     7
100
AcDbSpline
210
0.0
220
0.0
230
1.0
 70
    11
 71
     3
 72
    79
 73
    75
 74
    73
 42
0.0000000001
 43
0.0000000001
 44
0.00000001
 40
0.0
 40
0.0
 40
0.0
 40
0.0
 40
0.2746255860864884
 40
0.5489296448750612
 40
0.8445351226057509
 40
1.139720930735228
 40
1.464847760107561
 40
1.789634474685703
 40
2.14778412583728
 40
2.505702211207224
 40
2.89604082869967
 40
3.286231079274725
 40
3.704624946715767
 40
4.122927269101283
 40
4.562895988146229
 40
5.002812031777946
 40
5.456315478849965
 40
5.909794870758369
 40
6.36789940017975
 40
6.826003929601105
 40
7.279483321509517
 40
7.732986768581486
 40
8.172902812213165
 40
8.612871531258111
 40
9.031173853643725
 40
9.449567721084787
 40
9.839757971659848
 40
10.23009658915237
 40
10.58801467452232
 40
10.94616432567386
 40
11.27095104025201
 40
11.59607786962437
 40
11.89126367775387
 40
12.1868691554845
 40
12.46117321427302
 40
12.73579880035948
 40
13.00262036940792
 40
13.26944193845619
 40
13.54406752454266
 40
13.81837158333112
 40
14.11397706106185
 40
14.40916286919126
 40
14.73428969856368
 40
15.0590764131418
 40
15.41722606429342
 40
15.77514414966337
 40
16.16548276715587
 40
16.55567301773095
 40
16.974066885172
 40
17.39236920755756
 40
17.83233792660258
 40
18.27225397023424
 40
18.72575741730618
 40
19.17923680921463
 40
19.63734133863598
 40
20.09544586805736
 40
20.54892525996581
 40
21.00242870703778
 40
21.44234475066946
 40
21.88231346971446
 40
22.30061579209995
 40
22.71900965954099
 40
23.109199910116
 40
23.49953852760847
 40
23.85745661297847
 40
24.21560626413005
 40
24.54039297870815
 40
24.86551980808055
 40
25.16070561621001
 40
25.45631109394075
 40
25.73061515272918
 40
26.00524073881572
 40
26.27206230786405
 40
26.53888387691238
 40
26.53888387691238
 40
26.53888387691238
 40
26.53888387691238
 10
187.9943590339594
 20
424.8822249534787
 30
0.0
 10
187.9766160052908
 20
424.7922356852181
 30
0.0
 10
187.9411507212112
 20
424.6123625067107
 30
0.0
 10
187.8352743148727
 20
424.3499761704687
 30
0.0
 10
187.6956094432442
 20
424.0970262891233
 30
0.0
 10
187.5148401864324
 20
423.8500490442717
 30
0.0
 10
187.301602051301
 20
423.6173637937027
 30
0.0
 10
187.0505855900892
 20
423.3932485365397
 30
0.0
 10
186.7714823538394
 20
423.1863879964694
 30
0.0
 10
186.4580619002836
 20
422.9913456084267
 30
0.0
 10
186.1213385218105
 20
422.8155983946959
 30
0.0
 10
185.7550559363627
 20
422.6550720150698
 30
0.0
 10
185.3704162242389
 20
422.5153336055732
 30
0.0
 10
184.9623271440309
 20
422.3938654600929
 30
0.0
 10
184.5409791313199
 20
422.2942725853015
 30
0.0
 10
184.1033816893552
 20
422.2153071630883
 30
0.0
 10
183.6577630996075
 20
422.1589402519114
 30
0.0
 10
183.2038345077597
 20
422.1246763220728
 30
0.0
 10
182.7472204992181
 20
422.1133742848051
 30
0.0
 10
182.2906064906603
 20
422.1246763220715
 30
0.0
 10
181.8366778988607
 20
422.1589402519174
 30
0.0
 10
181.3910593089387
 20
422.2153071630668
 30
0.0
 10
180.9534618676047
 20
422.2942725853785
 30
0.0
 10
180.5321138525937
 20
422.3938654598108
 30
0.0
 10
180.1240247805653
 20
422.5153336065686
 30
0.0
 10
179.739385038915
 20
422.6550720114539
 30
0.0
 10
179.3731025565923
 20
422.815598407185
 30
0.0
 10
179.0363788093638
 20
422.9913455633272
 30
0.0
 10
178.7229596236035
 20
423.186388149363
 30
0.0
 10
178.4438518856452
 20
423.3932479863964
 30
0.0
 10
178.1928507456225
 20
423.6173656362861
 30
0.0
 10
177.979558303813
 20
423.8500424057219
 30
0.0
 10
177.7989741368364
 20
424.0970485562548
 30
0.0
 10
177.6586482655036
 20
424.3498952085566
 30
0.0
 10
177.555071695762
 20
424.6126407127838
 30
0.0
 10
177.4939925387454
 20
424.8786380003265
 30
0.0
 10
177.4721993737746
 20
425.1482432653066
 30
0.0
 10
177.4939925387455
 20
425.4178485302869
 30
0.0
 10
177.5550716957619
 20
425.6838458178294
 30
0.0
 10
177.6586482655038
 20
425.9465913220567
 30
0.0
 10
177.7989741368363
 20
426.1994379743588
 30
0.0
 10
177.9795583038131
 20
426.4464441248911
 30
0.0
 10
178.1928507456224
 20
426.6791208943272
 30
0.0
 10
178.4438518856453
 20
426.9032385442167
 30
0.0
 10
178.7229596236035
 20
427.1100983812507
 30
0.0
 10
179.0363788093638
 20
427.3051409672862
 30
0.0
 10
179.3731025565923
 20
427.4808881234285
 30
0.0
 10
179.7393850389149
 20
427.6414145191594
 30
0.0
 10
180.1240247805654
 20
427.7811529240449
 30
0.0
 10
180.5321138525937
 20
427.9026210708025
 30
0.0
 10
180.9534618676047
 20
428.0022139452349
 30
0.0
 10
181.3910593089388
 20
428.0811793675466
 30
0.0
 10
181.8366778988605
 20
428.1375462786961
 30
0.0
 10
182.290606490661
 20
428.1718102085422
 30
0.0
 10
182.7472204992156
 20
428.1831122458079
 30
0.0
 10
183.2038345077691
 20
428.1718102085422
 30
0.0
 10
183.657763099573
 20
428.1375462786957
 30
0.0
 10
184.1033816894824
 20
428.0811793675481
 30
0.0
 10
184.5409791308611
 20
428.0022139452294
 30
0.0
 10
184.9623271457094
 20
427.9026210708225
 30
0.0
 10
185.3704162183165
 20
427.7811529239745
 30
0.0
 10
185.7550559578775
 20
427.6414145194153
 30
0.0
 10
186.121338447497
 20
427.4808881225447
 30
0.0
 10
186.4580621686335
 20
427.3051409704773
 30
0.0
 10
186.7714814440986
 20
427.1100983704325
 30
0.0
 10
187.0505888635323
 20
426.903238583143
 30
0.0
 10
187.3015910876268
 20
426.6791207639529
 30
0.0
 10
187.5148796868925
 20
426.4464445946109
 30
0.0
 10
187.6954769501544
 20
426.1994363988172
 30
0.0
 10
187.8357560515464
 20
425.9465970506277
 30
0.0
 10
187.9394953493814
 20
425.6838261329772
 30
0.0
 10
187.9999819184776
 20
425.4179213905351
 30
0.0
 10
188.0239280240899
 20
425.1479798984711
 30
0.0
 10
188.0042153640029
 20
424.9708099351429
 30
0.0
 10
187.9943590339594
 20
424.8822249534787
 30
0.0
 11
187.9943590339594
 21
424.8822249534787
 31
0.0
 11
187.9327821522785
 21
424.6145918087156
 31
0.0
 11
187.8331815762865
 21
424.359009254675
 31
0.0
 11
187.6902289167987
 21
424.1002678091936
 31
0.0
 11
187.5167796582385
 21
423.8614163573957
 31
0.0
 11
187.2977220127495
 21
423.6211639835667
 31
0.0
 11
187.0559369561109
 21
423.4043082795773
 31
0.0
 11
186.7687100358235
 21
423.1903646681226
 31
0.0
 11
186.4651064663357
 21
423.000811961919
 31
0.0
 11
186.1193942211797
 21
422.8195737764969
 31
0.0
 11
185.7621662714292
 21
422.662613196857
 31
0.0
 11
185.3691021511646
 21
422.5192464445297
 31
0.0
 11
184.9682510336201
 21
422.3996838480521
 31
0.0
 11
184.540166062867
 21
422.2981174581716
 31
0.0
 11
184.1072639674393
 21
422.2198748788497
 31
0.0
 11
183.6573743484682
 21
422.1627372620964
 31
0.0
 11
183.2051821905009
 21
422.1285932851978
 31
0.0
 11
182.7472204992154
 21
422.1171543520612
 31
0.0
 11
182.2892588079299
 21
422.1285932851979
 31
0.0
 11
181.8370666499626
 21
422.1627372620966
 31
0.0
 11
181.3871770309915
 21
422.2198748788497
 31
0.0
 11
180.9542749355639
 21
422.2981174581715
 31
0.0
 11
180.5261899648108
 21
422.3996838480521
 31
0.0
 11
180.1253388472662
 21
422.5192464445297
 31
0.0
 11
179.7322747270016
 21
422.662613196857
 31
0.0
 11
179.3750467772511
 21
422.8195737764968
 31
0.0
 11
179.029334532095
 21
423.000811961919
 31
0.0
 11
178.7257309626072
 21
423.1903646681227
 31
0.0
 11
178.4385040423198
 21
423.4043082795773
 31
0.0
 11
178.1967189856812
 21
423.6211639835666
 31
0.0
 11
177.9776613401921
 21
423.8614163573957
 31
0.0
 11
177.8042120816319
 21
424.1002678091936
 31
0.0
 11
177.6612594221442
 21
424.3590092546749
 31
0.0
 11
177.5616588461522
 21
424.6145918087155
 31
0.0
 11
177.5000819644714
 21
424.8822249534786
 31
0.0
 11
177.4793936227886
 21
425.1482432653068
 31
0.0
 11
177.5000819644714
 21
425.4142615771347
 31
0.0
 11
177.5616588461522
 21
425.6818947218978
 31
0.0
 11
177.6612594221442
 21
425.9374772759384
 31
0.0
 11
177.8042120816319
 21
426.1962187214198
 31
0.0
 11
177.9776613401921
 21
426.4350701732176
 31
0.0
 11
178.1967189856812
 21
426.6753225470467
 31
0.0
 11
178.4385040423198
 21
426.8921782510361
 31
0.0
 11
178.7257309626071
 21
427.1061218624908
 31
0.0
 11
179.029334532095
 21
427.2956745686944
 31
0.0
 11
179.375046777251
 21
427.4769127541166
 31
0.0
 11
179.7322747270016
 21
427.6338733337564
 31
0.0
 11
180.1253388472663
 21
427.7772400860836
 31
0.0
 11
180.5261899648108
 21
427.8968026825613
 31
0.0
 11
180.9542749355639
 21
427.9983690724419
 31
0.0
 11
181.3871770309915
 21
428.0766116517638
 31
0.0
 11
181.8370666499625
 21
428.1337492685169
 31
0.0
 11
182.2892588079299
 21
428.1678932454155
 31
0.0
 11
182.7472204992154
 21
428.1793321785522
 31
0.0
 11
183.2051821905009
 21
428.1678932454156
 31
0.0
 11
183.6573743484683
 21
428.1337492685168
 31
0.0
 11
184.1072639674393
 21
428.0766116517637
 31
0.0
 11
184.5401660628669
 21
427.9983690724419
 31
0.0
 11
184.9682510336201
 21
427.8968026825613
 31
0.0
 11
185.3691021511646
 21
427.7772400860837
 31
0.0
 11
185.7621662714292
 21
427.6338733337565
 31
0.0
 11
186.1193942211797
 21
427.4769127541167
 31
0.0
 11
186.4651064663357
 21
427.2956745686945
 31
0.0
 11
186.7687100358236
 21
427.1061218624908
 31
0.0
 11
187.0559369561109
 21
426.8921782510362
 31
0.0
 11
187.2977220127495
 21
426.6753225470469
 31
0.0
 11
187.5167796582385
 21
426.4350701732176
 31
0.0
 11
187.6902289167987
 21
426.1962187214198
 31
0.0
 11
187.8331815762864
 21
425.9374772759384
 31
0.0
 11
187.9327821522785
 21
425.6818947218979
 31
0.0
 11
187.9943590339594
 21
425.4142615771347
 31
0.0
 11
188.0150473756422
 21
425.1482432653067
 31
0.0
 11
187.9943590339594
 21
424.8822249534787
 31
0.0
  0
ENDBLK
  5
3B
330
39
100
AcDbEntity
  8
0
100
AcDbBlockEnd
  0
BLOCK
  5
3D
330
3C
100
AcDbEntity
  8
0
100
AcDbBlockBegin
  2
B411-0A-13-M11
 70
     0
 71
     0
 10
1635.24556857509
 20
457.607550068956
 30
0.0
  3
B411-0A-13-M11
  1

  0
LINE
  5
C6
330
3C
100
AcDbEntity
  8
1
  6
Continuous
 62
     2
100
AcDbLine
 10
129.7455685750906
 20
444.4236944144185
 30
0.0
 11
130.7455685750905
 21
444.4236944144185
 31
0.0
  0
LINE
  5
C7
330
3C
100
AcDbEntity
  8
1
  6
Continuous
 62
     7
100
AcDbLine
 10
130.7455685750905
 20
425.7926944144183
 30
0.0
 11
130.7455685750905
 21
444.4236944144185
 31
0.0
  0
LINE
  5
C8
330
3C
100
AcDbEntity
  8
1
  6
Continuous
 62
     7
100
AcDbLine
 10
291.4054317422913
 20
259.1075500689561
 30
0.0
 11
299.0832054078886
 21
259.1075500689561
 31
0.0
  0
LINE
  5
C9
330
3C
100
AcDbEntity
  8
1
  6
Continuous
 62
     2
100
AcDbLine
 10
244.7443067474546
 20
270.3575500689561
 30
0.0
 11
246.2443185750901
 21
270.3575500689561
 31
0.0
  0
LINE
  5
CA
330
3C
100
AcDbEntity
  8
1
  6
Continuous
 62
     7
100
AcDbLine
 10
244.7443185750901
 20
271.1075500689561
 30
0.0
 11
246.2443185750901
 21
271.1075500689561
 31
0.0
  0
LINE
  5
CB
330
3C
100
AcDbEntity
  8
1
  6
Continuous
 62
     7
100
AcDbLine
 10
258.2534567322557
 20
276.5815451877267
 30
0.0
 11
282.2379770649442
 21
276.5815451877267
 31
0.0
  0
LINE
  5
CC
330
3C
100
AcDbEntity
  8
1
  6
Continuous
 62
     7
100
AcDbLine
 10
259.76681857509
 20
278.0949070305611
 30
0.0
 11
280.7218185750898
 21
278.0949070305608
 31
0.0
  0
LINE
  5
CD
330
3C
100
AcDbEntity
  8
1
  6
Continuous
 62
     7
100
AcDbLine
 10
260.9288185750899
 20
280.1075500689562
 30
0.0
 11
279.55981857509
 21
280.1075500689562
 31
0.0
  0
LINE
  5
CE
330
3C
100
AcDbEntity
  8
1
  6
Continuous
 62
     7
100
AcDbLine
 10
248.543356680767
 20
272.1075500689561
 30
0.0
 11
248.543356680767
 21
246.1075500689561
 31
0.0
  0
LINE
  5
CF
330
3C
100
AcDbEntity
  8
1
  6
Continuous
 62
     7
100
AcDbLine
 10
247.543356680767
 20
271.1075500689561
 30
0.0
 11
247.543356680767
 21
247.1075500689562
 31
0.0
  0
LINE
  5
D0
330
3C
100
AcDbEntity
  8
1
  6
Continuous
 62
     7
100
AcDbLine
 10
246.2443185750901
 20
270.3575500689561
 30
0.0
 11
246.2443185750901
 21
247.8575500689561
 31
0.0
  0
LINE
  5
D1
330
3C
100
AcDbEntity
  8
1
  6
Continuous
 62
     7
100
AcDbLine
 10
135.2455685750903
 20
423.8581944144184
 30
0.0
 11
133.5307116134855
 21
423.8581944144184
 31
0.0
  0
LINE
  5
D2
330
3C
100
AcDbEntity
  8
1
  6
Continuous
 62
     7
100
AcDbLine
 10
140.2455685750903
 20
416.8534178272754
 30
0.0
 11
140.2455685750903
 21
416.8581944143258
 31
0.0
  0
LINE
  5
D3
330
3C
100
AcDbEntity
  8
1
  6
Continuous
 62
     7
100
AcDbLine
 10
132.7582116134856
 20
424.6306944144185
 30
0.0
 11
133.5307116134855
 21
423.8581944144184
 31
0.0
  0
LINE
  5
D4
330
3C
100
AcDbEntity
  8
1
  6
Continuous
 62
     7
100
AcDbLine
 10
135.245568580492
 20
423.8581944144184
 30
0.0
 11
135.2407919824578
 21
423.8581944144184
 31
0.0
  0
LINE
  5
D5
330
3C
100
AcDbEntity
  8
1
  6
Continuous
 62
     7
100
AcDbLine
 10
172.960425536695
 20
423.8581944144184
 30
0.0
 11
171.2455685750902
 21
423.8581944144184
 31
0.0
  0
LINE
  5
D6
330
3C
100
AcDbEntity
  8
1
  6
Continuous
 62
     7
100
AcDbLine
 10
172.960425536695
 20
423.8581944144184
 30
0.0
 11
173.7329255366951
 21
424.6306944144185
 31
0.0
  0
LINE
  5
D7
330
3C
100
AcDbEntity
  8
1
  6
Continuous
 62
     7
100
AcDbLine
 10
166.2455685750912
 20
418.8581944144195
 30
0.0
 11
166.2455685750902
 21
413.4072325200955
 31
0.0
  0
LINE
  5
D8
330
3C
100
AcDbEntity
  8
1
  6
Continuous
 62
     7
100
AcDbLine
 10
140.2455685750902
 20
451.4699908253651
 30
0.0
 11
140.24556857509
 21
453.3542099680557
 31
0.0
  0
LINE
  5
D9
330
3C
100
AcDbEntity
  8
1
  6
Continuous
 62
     7
100
AcDbLine
 10
135.2468185750903
 20
446.3581944144184
 30
0.0
 11
133.5307116134853
 21
446.3581944144184
 31
0.0
  0
LINE
  5
DA
330
3C
100
AcDbEntity
  8
1
  6
Continuous
 62
     7
100
AcDbLine
 10
166.2455685750904
 20
451.4699908253659
 30
0.0
 11
166.2455685750904
 21
451.2463980034718
 31
0.0
  0
LINE
  5
DB
330
3C
100
AcDbEntity
  8
1
  6
Continuous
 62
     7
100
AcDbLine
 10
172.9604255366954
 20
446.3581944144184
 30
0.0
 11
171.2443185750903
 21
446.3581944144184
 31
0.0
  0
LINE
  5
DC
330
3C
100
AcDbEntity
  8
1
  6
Continuous
 62
     7
100
AcDbLine
 10
140.2455685750902
 20
451.2463980034727
 30
0.0
 11
140.2455685750902
 21
451.4699908253651
 31
0.0
  0
LINE
  5
DD
330
3C
100
AcDbEntity
  8
1
  6
Continuous
 62
     7
100
AcDbLine
 10
166.2455685750905
 20
453.3542099680557
 30
0.0
 11
166.2455685750904
 21
451.4699908253659
 31
0.0
  0
LINE
  5
DE
330
3C
100
AcDbEntity
  8
1
  6
Continuous
 62
     7
100
AcDbLine
 10
173.7329255366951
 20
445.5856944144185
 30
0.0
 11
172.9604255366954
 21
446.3581944144184
 31
0.0
  0
LINE
  5
DF
330
3C
100
AcDbEntity
  8
1
  6
Continuous
 62
     7
100
AcDbLine
 10
168.2566755740206
 20
456.2693075816197
 30
0.0
 11
168.2566755740206
 21
463.947081247217
 31
0.0
  0
LINE
  5
E0
330
3C
100
AcDbEntity
  8
1
  6
Continuous
 62
     7
100
AcDbLine
 10
168.2566755740206
 20
456.2693075816174
 30
0.0
 11
168.2566755740206
 21
456.2693075816197
 31
0.0
  0
LINE
  5
E1
330
3C
100
AcDbEntity
  8
1
  6
Continuous
 62
     7
100
AcDbLine
 10
168.2566755740206
 20
463.947081247217
 30
0.0
 11
168.2566755740206
 21
463.9470812472193
 31
0.0
  0
LINE
  5
E2
330
3C
100
AcDbEntity
  8
1
  6
Continuous
 62
     7
100
AcDbLine
 10
138.2344615761604
 20
456.2693075816197
 30
0.0
 11
138.2344615761604
 21
463.947081247217
 31
0.0
  0
LINE
  5
E3
330
3C
100
AcDbEntity
  8
1
  6
Continuous
 62
     7
100
AcDbLine
 10
145.7400150756254
 20
456.2693075816197
 30
0.0
 11
145.7400150756254
 21
463.947081247217
 31
0.0
  0
LINE
  5
E4
330
3C
100
AcDbEntity
  8
1
  6
Continuous
 62
     7
100
AcDbLine
 10
160.7511220745552
 20
456.2693075816197
 30
0.0
 11
160.7511220745552
 21
463.947081247217
 31
0.0
  0
LINE
  5
E5
330
3C
100
AcDbEntity
  8
1
  6
Continuous
 62
     7
100
AcDbLine
 10
132.7582116134856
 20
424.6306944144185
 30
0.0
 11
130.7455685750905
 21
424.6306944144185
 31
0.0
  0
LINE
  5
E6
330
3C
100
AcDbEntity
  8
1
  6
Continuous
 62
     7
100
AcDbLine
 10
141.2455685750902
 20
412.4072325200955
 30
0.0
 11
140.2455685750902
 21
413.4072325200955
 31
0.0
  0
LINE
  5
E7
330
3C
100
AcDbEntity
  8
1
  6
Continuous
 62
     7
100
AcDbLine
 10
130.7455685750905
 20
445.5856944144185
 30
0.0
 11
132.7582116134857
 21
445.5856944144186
 31
0.0
  0
LINE
  5
E8
330
3C
100
AcDbEntity
  8
1
  6
Continuous
 62
     2
100
AcDbLine
 10
141.9955685750902
 20
411.1081944144184
 30
0.0
 11
141.2455685750902
 21
412.4072325200955
 31
0.0
  0
LINE
  5
E9
330
3C
100
AcDbEntity
  8
1
  6
Continuous
 62
     7
100
AcDbLine
 10
141.2455685750902
 20
411.1081944144184
 30
0.0
 11
141.2455685750902
 21
412.4072325200955
 31
0.0
  0
LINE
  5
EA
330
3C
100
AcDbEntity
  8
1
  6
Continuous
 62
     7
100
AcDbLine
 10
165.2455685750902
 20
411.1081944144184
 30
0.0
 11
141.2455685750902
 21
411.1081944144184
 31
0.0
  0
LINE
  5
EB
330
3C
100
AcDbEntity
  8
1
  6
Continuous
 62
     7
100
AcDbLine
 10
130.7455685750905
 20
424.6306944144185
 30
0.0
 11
130.7455685750905
 21
425.7926944144183
 31
0.0
  0
LINE
  5
EC
330
3C
100
AcDbEntity
  8
1
  6
Continuous
 62
     7
100
AcDbLine
 10
130.7455685750905
 20
445.5856944144185
 30
0.0
 11
129.7455685750906
 21
445.5856944144185
 31
0.0
  0
LINE
  5
ED
330
3C
100
AcDbEntity
  8
1
  6
Continuous
 62
     7
100
AcDbLine
 10
130.7455685750905
 20
424.6306944144185
 30
0.0
 11
129.7455685750903
 21
424.6306944144185
 31
0.0
  0
LINE
  5
EE
330
3C
100
AcDbEntity
  8
1
  6
Continuous
 62
     2
100
AcDbLine
 10
130.7455685750905
 20
425.7926944144183
 30
0.0
 11
129.7455685750903
 21
425.7926944144183
 31
0.0
  0
LINE
  5
EF
330
3C
100
AcDbEntity
  8
1
  6
Continuous
 62
     2
100
AcDbLine
 10
132.7582116134856
 20
424.6306944144185
 30
0.0
 11
130.7455685750905
 21
425.7926944144183
 31
0.0
  0
LINE
  5
F0
330
3C
100
AcDbEntity
  8
1
  6
Continuous
 62
     2
100
AcDbLine
 10
130.7455685750905
 20
444.4236944144185
 30
0.0
 11
132.7582116134857
 21
445.5856944144186
 31
0.0
  0
LINE
  5
F1
330
3C
100
AcDbEntity
  8
1
  6
Continuous
 62
     7
100
AcDbLine
 10
175.7455685750903
 20
424.6306944144184
 30
0.0
 11
173.7329255366951
 21
424.6306944144185
 31
0.0
  0
LINE
  5
F2
330
3C
100
AcDbEntity
  8
1
  6
Continuous
 62
     7
100
AcDbLine
 10
166.2455685750902
 20
413.4072325200955
 30
0.0
 11
165.2455685750902
 21
412.4072325200955
 31
0.0
  0
LINE
  5
F3
330
3C
100
AcDbEntity
  8
1
  6
Continuous
 62
     7
100
AcDbLine
 10
173.7329255366951
 20
445.5856944144185
 30
0.0
 11
175.7455685750903
 21
445.5856944144184
 31
0.0
  0
LINE
  5
F4
330
3C
100
AcDbEntity
  8
1
  6
Continuous
 62
     2
100
AcDbLine
 10
165.2455685750902
 20
412.4072325200955
 30
0.0
 11
164.4955685750902
 21
411.1081944144184
 31
0.0
  0
LINE
  5
F5
330
3C
100
AcDbEntity
  8
1
  6
Continuous
 62
     2
100
AcDbLine
 10
164.4955685750902
 20
411.1081944144184
 30
0.0
 11
164.4955685750902
 21
409.6069444144185
 31
0.0
  0
LINE
  5
F6
330
3C
100
AcDbEntity
  8
1
  6
Continuous
 62
     7
100
AcDbLine
 10
165.2455685750902
 20
412.4072325200955
 30
0.0
 11
165.2455685750902
 21
411.1081944144184
 31
0.0
  0
LINE
  5
F7
330
3C
100
AcDbEntity
  8
1
  6
Continuous
 62
     7
100
AcDbLine
 10
165.2455685750902
 20
411.1081944144184
 30
0.0
 11
164.4955685750902
 21
411.1081944144184
 31
0.0
  0
LINE
  5
F8
330
3C
100
AcDbEntity
  8
1
  6
Continuous
 62
     7
100
AcDbLine
 10
165.2455685750902
 20
411.1081944144184
 30
0.0
 11
165.2455685750902
 21
409.6069444144185
 31
0.0
  0
LINE
  5
F9
330
3C
100
AcDbEntity
  8
1
  6
Continuous
 62
     7
100
AcDbLine
 10
175.7455685750903
 20
445.5856944144184
 30
0.0
 11
175.7455685750903
 21
444.4236944144185
 31
0.0
  0
LINE
  5
FA
330
3C
100
AcDbEntity
  8
1
  6
Continuous
 62
     2
100
AcDbLine
 10
175.7455685750903
 20
444.4236944144185
 30
0.0
 11
176.74556857509
 21
444.4236944144185
 31
0.0
  0
LINE
  5
FB
330
3C
100
AcDbEntity
  8
1
  6
Continuous
 62
     7
100
AcDbLine
 10
175.7455685750903
 20
425.7926944144183
 30
0.0
 11
175.7455685750903
 21
424.6306944144184
 31
0.0
  0
LINE
  5
FC
330
3C
100
AcDbEntity
  8
1
  6
Continuous
 62
     7
100
AcDbLine
 10
176.74556857509
 20
445.5856944144184
 30
0.0
 11
175.7455685750903
 21
445.5856944144184
 31
0.0
  0
LINE
  5
FD
330
3C
100
AcDbEntity
  8
1
  6
Continuous
 62
     2
100
AcDbLine
 10
175.7455685750903
 20
425.7926944144183
 30
0.0
 11
173.7329255366951
 21
424.6306944144185
 31
0.0
  0
LINE
  5
FE
330
3C
100
AcDbEntity
  8
1
  6
Continuous
 62
     2
100
AcDbLine
 10
173.7329255366951
 20
445.5856944144185
 30
0.0
 11
175.7455685750903
 21
444.4236944144185
 31
0.0
  0
LINE
  5
FF
330
3C
100
AcDbEntity
  8
1
  6
Continuous
 62
     7
100
AcDbLine
 10
166.2455685750902
 20
413.4072325200955
 30
0.0
 11
140.2455685750902
 21
413.4072325200955
 31
0.0
  0
LINE
  5
100
330
3C
100
AcDbEntity
  8
1
  6
Continuous
 62
     7
100
AcDbLine
 10
141.2455685750902
 20
412.4072325200955
 30
0.0
 11
165.2455685750902
 21
412.4072325200955
 31
0.0
  0
LINE
  5
101
330
3C
100
AcDbEntity
  8
1
  6
Continuous
 62
     7
100
AcDbLine
 10
132.7582116134856
 20
424.6306944144185
 30
0.0
 11
132.7582116134857
 21
445.5856944144186
 31
0.0
  0
LINE
  5
102
330
3C
100
AcDbEntity
  8
1
  6
Continuous
 62
     7
100
AcDbLine
 10
140.2455685750902
 20
413.4072325200955
 30
0.0
 11
140.2455685750907
 21
418.8581944144184
 31
0.0
  0
LINE
  5
103
330
3C
100
AcDbEntity
  8
1
  6
Continuous
 62
     7
100
AcDbLine
 10
133.5307116134853
 20
446.3581944144184
 30
0.0
 11
132.7582116134857
 21
445.5856944144186
 31
0.0
  0
LINE
  5
104
330
3C
100
AcDbEntity
  8
1
  6
Continuous
 62
     7
100
AcDbLine
 10
166.2455685750909
 20
416.9699908253185
 30
0.0
 11
166.2455685750908
 21
416.7463980035137
 31
0.0
  0
LINE
  5
105
330
3C
100
AcDbEntity
  8
1
  6
Continuous
 62
     7
100
AcDbLine
 10
260.9288185750899
 20
289.1075500689562
 30
0.0
 11
276.7443185750899
 21
289.1075500689561
 31
0.0
  0
LINE
  5
106
330
3C
100
AcDbEntity
  8
1
  6
Continuous
 62
     7
100
AcDbLine
 10
248.543356680767
 20
272.1075500689561
 30
0.0
 11
253.2812018247794
 21
272.1075500689561
 31
0.0
  0
LINE
  5
107
330
3C
100
AcDbEntity
  8
1
  6
Continuous
 62
     7
100
AcDbLine
 10
258.2534567322557
 20
276.5815451877267
 30
0.0
 11
259.76681857509
 21
278.0949070305611
 31
0.0
  0
LINE
  5
108
330
3C
100
AcDbEntity
  8
1
  6
Continuous
 62
     7
100
AcDbLine
 10
282.2379770649442
 20
276.5787485407068
 30
0.0
 11
280.7218185750898
 21
278.0949070305608
 31
0.0
  0
LINE
  5
109
330
3C
100
AcDbEntity
  8
1
  6
Continuous
 62
     7
100
AcDbLine
 10
276.7443185750899
 20
289.1075500689561
 30
0.0
 11
279.55981857509
 21
289.1075500689562
 31
0.0
  0
LINE
  5
10A
330
3C
100
AcDbEntity
  8
1
  6
Continuous
 62
     7
100
AcDbLine
 10
259.76681857509
 20
278.0949070305611
 30
0.0
 11
259.76681857509
 21
280.1075500689562
 31
0.0
  0
LINE
  5
10B
330
3C
100
AcDbEntity
  8
1
  6
Continuous
 62
     7
100
AcDbLine
 10
247.543356680767
 20
271.1075500689561
 30
0.0
 11
248.543356680767
 21
272.1075500689561
 31
0.0
  0
LINE
  5
10C
330
3C
100
AcDbEntity
  8
1
  6
Continuous
 62
     2
100
AcDbLine
 10
246.2443185750901
 20
270.3575500689561
 30
0.0
 11
247.543356680767
 21
271.1075500689561
 31
0.0
  0
LINE
  5
10D
330
3C
100
AcDbEntity
  8
1
  6
Continuous
 62
     7
100
AcDbLine
 10
246.2443185750901
 20
271.1075500689561
 30
0.0
 11
247.543356680767
 21
271.1075500689561
 31
0.0
  0
LINE
  5
10E
330
3C
100
AcDbEntity
  8
1
  6
Continuous
 62
     7
100
AcDbLine
 10
246.2443185750901
 20
270.3575500689561
 30
0.0
 11
246.2443185750901
 21
271.1075500689561
 31
0.0
  0
LINE
  5
10F
330
3C
100
AcDbEntity
  8
1
  6
Continuous
 62
     7
100
AcDbLine
 10
279.55981857509
 20
280.1075500689562
 30
0.0
 11
280.72181857509
 21
280.1075500689562
 31
0.0
  0
LINE
  5
110
330
3C
100
AcDbEntity
  8
1
  6
Continuous
 62
     7
100
AcDbLine
 10
259.76681857509
 20
280.1075500689562
 30
0.0
 11
260.9288185750899
 21
280.1075500689562
 31
0.0
  0
LINE
  5
111
330
3C
100
AcDbEntity
  8
1
  6
Continuous
 62
     7
100
AcDbLine
 10
280.72181857509
 20
287.9455500689563
 30
0.0
 11
279.55981857509
 21
289.1075500689562
 31
0.0
  0
LINE
  5
112
330
3C
100
AcDbEntity
  8
1
  6
Continuous
 62
     7
100
AcDbLine
 10
280.72181857509
 20
280.1075500689562
 30
0.0
 11
280.72181857509
 21
287.9455500689563
 31
0.0
  0
LINE
  5
113
330
3C
100
AcDbEntity
  8
1
  6
Continuous
 62
     7
100
AcDbLine
 10
259.7668185750902
 20
287.9455500689563
 30
0.0
 11
260.9288185750899
 21
289.1075500689562
 31
0.0
  0
LINE
  5
114
330
3C
100
AcDbEntity
  8
1
  6
Continuous
 62
     7
100
AcDbLine
 10
259.76681857509
 20
280.1075500689562
 30
0.0
 11
259.7668185750902
 21
287.9455500689563
 31
0.0
  0
LINE
  5
115
330
3C
100
AcDbEntity
  8
1
  6
Continuous
 62
     2
100
AcDbLine
 10
279.55981857509
 20
289.1075500689562
 30
0.0
 11
279.55981857509
 21
280.1075500689562
 31
0.0
  0
LINE
  5
116
330
3C
100
AcDbEntity
  8
1
  6
Continuous
 62
     2
100
AcDbLine
 10
259.76681857509
 20
278.0949070305611
 30
0.0
 11
260.9288185750899
 21
280.1075500689562
 31
0.0
  0
LINE
  5
117
330
3C
100
AcDbEntity
  8
1
  6
Continuous
 62
     2
100
AcDbLine
 10
279.55981857509
 20
280.1075500689562
 30
0.0
 11
280.7218185750898
 21
278.0949070305608
 31
0.0
  0
LINE
  5
118
330
3C
100
AcDbEntity
  8
1
  6
Continuous
 62
     7
100
AcDbLine
 10
248.543356680767
 20
246.1075500689561
 30
0.0
 11
247.543356680767
 21
247.1075500689562
 31
0.0
  0
LINE
  5
119
330
3C
100
AcDbEntity
  8
1
  6
Continuous
 62
     7
100
AcDbLine
 10
268.2443185750901
 20
246.1075500689562
 30
0.0
 11
248.543356680767
 21
246.1075500689561
 31
0.0
  0
LINE
  5
11A
330
3C
100
AcDbEntity
  8
1
  6
Continuous
 62
     2
100
AcDbLine
 10
247.543356680767
 20
247.1075500689562
 30
0.0
 11
246.2443185750901
 21
247.8575500689561
 31
0.0
  0
LINE
  5
11B
330
3C
100
AcDbEntity
  8
1
  6
Continuous
 62
     2
100
AcDbLine
 10
246.2443185750901
 20
247.8575500689561
 30
0.0
 11
244.7443185750901
 21
247.8575500689561
 31
0.0
  0
LINE
  5
11C
330
3C
100
AcDbEntity
  8
1
  6
Continuous
 62
     7
100
AcDbLine
 10
247.543356680767
 20
247.1075500689562
 30
0.0
 11
246.2443185750901
 21
247.1075500689561
 31
0.0
  0
LINE
  5
11D
330
3C
100
AcDbEntity
  8
1
  6
Continuous
 62
     7
100
AcDbLine
 10
246.2443185750901
 20
247.1075500689561
 30
0.0
 11
246.2443185750901
 21
247.8575500689561
 31
0.0
  0
LINE
  5
11E
330
3C
100
AcDbEntity
  8
1
  6
Continuous
 62
     7
100
AcDbLine
 10
246.2443185750901
 20
247.1075500689561
 30
0.0
 11
244.7443185750901
 21
247.1075500689561
 31
0.0
  0
LINE
  5
11F
330
3C
100
AcDbEntity
  8
1
  6
Continuous
 62
     7
100
AcDbLine
 10
268.2443185750901
 20
246.1075500689562
 30
0.0
 11
300.2443185750901
 21
246.1075500689561
 31
0.0
  0
LINE
  5
120
330
3C
100
AcDbEntity
  8
1
  6
Continuous
 62
     7
100
AcDbLine
 10
287.2099353254007
 20
272.1075500689561
 30
0.0
 11
300.2443185750901
 21
272.1075500689561
 31
0.0
  0
LINE
  5
121
330
3C
100
AcDbEntity
  8
1
  6
Continuous
 62
     7
100
AcDbLine
 10
300.2443185750901
 20
269.8400500689562
 30
0.0
 11
300.2443185750901
 21
246.1075500689561
 31
0.0
  0
LINE
  5
122
330
3C
100
AcDbEntity
  8
1
  6
Continuous
 62
     7
100
AcDbLine
 10
300.2443185750901
 20
269.8400500689562
 30
0.0
 11
300.2443185750901
 21
272.1075500689561
 31
0.0
  0
LINE
  5
123
330
3C
100
AcDbEntity
  8
1
  6
Continuous
 62
     7
100
AcDbLine
 10
280.72181857509
 20
280.1075500689562
 30
0.0
 11
280.7218185750898
 21
278.0949070305608
 31
0.0
  0
LINE
  5
124
330
3C
100
AcDbEntity
  8
1
  6
Continuous
 62
     2
100
AcDbLine
 10
141.9955685750902
 20
409.6069444144185
 30
0.0
 11
141.9955685750902
 21
411.1081944144184
 31
0.0
  0
LINE
  5
125
330
3C
100
AcDbEntity
  8
1
  6
Continuous
 62
     7
100
AcDbLine
 10
141.2455685750902
 20
409.6069444144185
 30
0.0
 11
141.2455685750902
 21
411.1081944144184
 31
0.0
  0
LINE
  5
126
330
3C
100
AcDbEntity
  8
1
  6
Continuous
 62
     7
100
AcDbLine
 10
175.7455685750903
 20
444.4236944144185
 30
0.0
 11
175.7455685750903
 21
425.7926944144183
 31
0.0
  0
LINE
  5
127
330
3C
100
AcDbEntity
  8
1
  6
Continuous
 62
     7
100
AcDbLine
 10
130.7455685750905
 20
444.4236944144185
 30
0.0
 11
130.7455685750905
 21
445.5856944144185
 31
0.0
  0
LINE
  5
128
330
3C
100
AcDbEntity
  8
1
  6
Continuous
 62
     7
100
AcDbLine
 10
176.7455685750904
 20
424.6306944144184
 30
0.0
 11
175.7455685750903
 21
424.6306944144184
 31
0.0
  0
LINE
  5
129
330
3C
100
AcDbEntity
  8
1
  6
Continuous
 62
     2
100
AcDbLine
 10
176.7455685750904
 20
425.7926944144183
 30
0.0
 11
175.7455685750903
 21
425.7926944144183
 31
0.0
  0
LINE
  5
12A
330
3C
100
AcDbEntity
  8
1
  6
Continuous
 62
     7
100
AcDbLine
 10
147.4821055319191
 20
432.1069444144186
 30
0.0
 11
159.0090316182615
 21
432.1069444144186
 31
0.0
  0
LINE
  5
12B
330
3C
100
AcDbEntity
  8
1
  6
Continuous
 62
     2
100
AcDbLine
 10
260.9288185750899
 20
280.1075500689562
 30
0.0
 11
260.9288185750899
 21
289.1075500689562
 31
0.0
  0
LINE
  5
12C
330
3C
100
AcDbEntity
  8
1
  6
Continuous
 62
     7
100
AcDbLine
 10
259.7668185750902
 20
287.9455500689563
 30
0.0
 11
280.72181857509
 21
287.9455500689563
 31
0.0
  0
LINE
  5
12D
330
3C
100
AcDbEntity
  8
1
  6
Continuous
 62
     7
100
AcDbLine
 10
153.2455685750903
 20
465.1081944144184
 30
0.0
 11
163.9780685750902
 21
465.1081944144184
 31
0.0
  0
LINE
  5
12E
330
3C
100
AcDbEntity
  8
1
  6
Continuous
 62
     7
100
AcDbLine
 10
153.2455685750903
 20
465.1081944144184
 30
0.0
 11
142.5130685750904
 21
465.1081944144184
 31
0.0
  0
LINE
  5
12F
330
3C
100
AcDbEntity
  8
1
  6
Continuous
 62
     7
100
AcDbLine
 10
163.7230685750906
 20
278.0949070305608
 30
0.0
 11
165.2303201157617
 21
276.5876554898898
 31
0.0
  0
LINE
  5
130
330
3C
100
AcDbEntity
  8
1
  6
Continuous
 62
     7
100
AcDbLine
 10
142.7680685750904
 20
278.0949070305608
 30
0.0
 11
141.2608170344192
 21
276.5876554898898
 31
0.0
  0
LINE
  5
131
330
3C
100
AcDbEntity
  8
1
  6
Continuous
 62
     7
100
AcDbLine
 10
142.7680685750904
 20
278.0949070305608
 30
0.0
 11
163.7230685750906
 21
278.0949070305608
 31
0.0
  0
LINE
  5
132
330
3C
100
AcDbEntity
  8
1
  6
Continuous
 62
     7
100
AcDbLine
 10
142.7680685750904
 20
278.0949070305608
 30
0.0
 11
142.7680685750904
 21
280.107550068956
 31
0.0
  0
LINE
  5
133
330
3C
100
AcDbEntity
  8
1
  6
Continuous
 62
     2
100
AcDbLine
 10
142.7680685750904
 20
278.0949070305608
 30
0.0
 11
143.9300685750904
 21
280.107550068956
 31
0.0
  0
LINE
  5
134
330
3C
100
AcDbEntity
  8
1
  6
Continuous
 62
     2
100
AcDbLine
 10
162.5610685750905
 20
280.107550068956
 30
0.0
 11
163.7230685750906
 21
278.0949070305608
 31
0.0
  0
LINE
  5
135
330
3C
100
AcDbEntity
  8
1
  6
Continuous
 62
     2
100
AcDbLine
 10
162.5610685750905
 20
289.107550068956
 30
0.0
 11
162.5610685750905
 21
287.9455500689562
 31
0.0
  0
LINE
  5
136
330
3C
100
AcDbEntity
  8
1
  6
Continuous
 62
     2
100
AcDbLine
 10
162.5610685750905
 20
287.9455500689562
 30
0.0
 11
162.5610685750905
 21
280.107550068956
 31
0.0
  0
LINE
  5
137
330
3C
100
AcDbEntity
  8
1
  6
Continuous
 62
     2
100
AcDbLine
 10
143.9300685750904
 20
287.9455500689562
 30
0.0
 11
143.9300685750904
 21
289.107550068956
 31
0.0
  0
LINE
  5
138
330
3C
100
AcDbEntity
  8
1
  6
Continuous
 62
     7
100
AcDbLine
 10
142.7680685750904
 20
287.9455500689562
 30
0.0
 11
162.5610685750905
 21
287.9455500689562
 31
0.0
  0
LINE
  5
139
330
3C
100
AcDbEntity
  8
1
  6
Continuous
 62
     7
100
AcDbLine
 10
163.7230685750906
 20
287.9455500689562
 30
0.0
 11
162.5610685750905
 21
287.9455500689562
 31
0.0
  0
LINE
  5
13A
330
3C
100
AcDbEntity
  8
1
  6
Continuous
 62
     7
100
AcDbLine
 10
163.7230685750906
 20
287.9455500689562
 30
0.0
 11
163.7230685750906
 21
280.107550068956
 31
0.0
  0
LINE
  5
13B
330
3C
100
AcDbEntity
  8
1
  6
Continuous
 62
     7
100
AcDbLine
 10
162.5610685750905
 20
289.107550068956
 30
0.0
 11
163.7230685750906
 21
287.9455500689562
 31
0.0
  0
LINE
  5
13C
330
3C
100
AcDbEntity
  8
1
  6
Continuous
 62
     7
100
AcDbLine
 10
142.7680685750904
 20
287.9455500689562
 30
0.0
 11
142.7680685750904
 21
280.107550068956
 31
0.0
  0
LINE
  5
13D
330
3C
100
AcDbEntity
  8
1
  6
Continuous
 62
     7
100
AcDbLine
 10
143.9300685750904
 20
289.107550068956
 30
0.0
 11
142.7680685750904
 21
287.9455500689562
 31
0.0
  0
LINE
  5
13E
330
3C
100
AcDbEntity
  8
1
  6
Continuous
 62
     7
100
AcDbLine
 10
162.5610685750905
 20
280.107550068956
 30
0.0
 11
163.7230685750906
 21
280.107550068956
 31
0.0
  0
LINE
  5
13F
330
3C
100
AcDbEntity
  8
1
  6
Continuous
 62
     2
100
AcDbLine
 10
143.9300685750904
 20
280.107550068956
 30
0.0
 11
143.9300685750904
 21
287.9455500689562
 31
0.0
  0
LINE
  5
140
330
3C
100
AcDbEntity
  8
1
  6
Continuous
 62
     7
100
AcDbLine
 10
142.7680685750904
 20
280.107550068956
 30
0.0
 11
162.5610685750905
 21
280.107550068956
 31
0.0
  0
LINE
  5
141
330
3C
100
AcDbEntity
  8
1
  6
Continuous
 62
     7
100
AcDbLine
 10
163.7230685750906
 20
280.107550068956
 30
0.0
 11
163.7230685750906
 21
278.0949070305608
 31
0.0
  0
LINE
  5
142
330
3C
100
AcDbEntity
  8
1
  6
Continuous
 62
     7
100
AcDbLine
 10
143.9300685750904
 20
289.107550068956
 30
0.0
 11
162.5610685750905
 21
289.107550068956
 31
0.0
  0
LINE
  5
143
330
3C
100
AcDbEntity
  8
1
  6
Continuous
 62
     7
100
AcDbLine
 10
165.2303201157617
 20
276.5876554898898
 30
0.0
 11
165.3085012653736
 21
275.0958702877413
 31
0.0
  0
LINE
  5
144
330
3C
100
AcDbEntity
  8
1
  6
Continuous
 62
     7
100
AcDbLine
 10
141.1826358848073
 20
275.0958702877413
 30
0.0
 11
141.2608170344192
 21
276.5876554898898
 31
0.0
  0
LINE
  5
145
330
3C
100
AcDbEntity
  8
1
  6
Continuous
 62
     7
100
AcDbLine
 10
132.7582116134854
 20
248.6300500689559
 30
0.0
 11
132.7582116134854
 21
269.585050068956
 31
0.0
  0
LINE
  5
146
330
3C
100
AcDbEntity
  8
1
  6
Continuous
 62
     7
100
AcDbLine
 10
132.7582116134854
 20
269.585050068956
 30
0.0
 11
133.5307116134859
 21
270.357550068956
 31
0.0
  0
LINE
  5
147
330
3C
100
AcDbEntity
  8
1
  6
Continuous
 62
     7
100
AcDbLine
 10
132.7582116134854
 20
269.585050068956
 30
0.0
 11
129.745568575091
 21
269.585050068956
 31
0.0
  0
LINE
  5
148
330
3C
100
AcDbEntity
  8
1
  6
Continuous
 62
     2
100
AcDbLine
 10
130.7455685750905
 20
268.4230500689558
 30
0.0
 11
132.7582116134854
 21
269.585050068956
 31
0.0
  0
LINE
  5
149
330
3C
100
AcDbEntity
  8
1
  6
Continuous
 62
     2
100
AcDbLine
 10
129.7455685750911
 20
268.4230500689558
 30
0.0
 11
130.7455685750905
 21
268.4230500689558
 31
0.0
  0
LINE
  5
14A
330
3C
100
AcDbEntity
  8
1
  6
Continuous
 62
     7
100
AcDbLine
 10
133.5307116134859
 20
270.357550068956
 30
0.0
 11
136.1894882110345
 21
270.357550068956
 31
0.0
  0
LINE
  5
14B
330
3C
100
AcDbEntity
  8
1
  6
Continuous
 62
     7
100
AcDbLine
 10
130.7455685750905
 20
269.585050068956
 30
0.0
 11
130.7455685750905
 21
248.6300500689559
 31
0.0
  0
LINE
  5
14C
330
3C
100
AcDbEntity
  8
1
  6
Continuous
 62
     7
100
AcDbLine
 10
133.5307116134854
 20
247.857550068956
 30
0.0
 11
132.7582116134854
 21
248.6300500689559
 31
0.0
  0
LINE
  5
14D
330
3C
100
AcDbEntity
  8
1
  6
Continuous
 62
     7
100
AcDbLine
 10
132.7582116134854
 20
248.6300500689559
 30
0.0
 11
129.745568575091
 21
248.6300500689559
 31
0.0
  0
LINE
  5
14E
330
3C
100
AcDbEntity
  8
1
  6
Continuous
 62
     2
100
AcDbLine
 10
130.7455685750905
 20
249.792050068956
 30
0.0
 11
132.7582116134854
 21
248.6300500689559
 31
0.0
  0
LINE
  5
14F
330
3C
100
AcDbEntity
  8
1
  6
Continuous
 62
     2
100
AcDbLine
 10
129.7455685750911
 20
249.792050068956
 30
0.0
 11
130.7455685750905
 21
249.792050068956
 31
0.0
  0
LINE
  5
150
330
3C
100
AcDbEntity
  8
1
  6
Continuous
 62
     7
100
AcDbLine
 10
133.5307116134854
 20
247.857550068956
 30
0.0
 11
146.7311614646931
 21
247.857550068956
 31
0.0
  0
LINE
  5
151
330
3C
100
AcDbEntity
  8
1
  6
Continuous
 62
     7
100
AcDbLine
 10
172.9604255366958
 20
247.857550068956
 30
0.0
 11
159.7599969899406
 21
247.857550068956
 31
0.0
  0
LINE
  5
152
330
3C
100
AcDbEntity
  8
1
  6
Continuous
 62
     7
100
AcDbLine
 10
173.7329255366956
 20
248.6300500689559
 30
0.0
 11
172.9604255366958
 21
247.857550068956
 31
0.0
  0
LINE
  5
153
330
3C
100
AcDbEntity
  8
1
  6
Continuous
 62
     2
100
AcDbLine
 10
173.7329255366956
 20
248.6300500689559
 30
0.0
 11
175.7455685750905
 21
249.792050068956
 31
0.0
  0
LINE
  5
154
330
3C
100
AcDbEntity
  8
1
  6
Continuous
 62
     2
100
AcDbLine
 10
173.7329255366956
 20
269.585050068956
 30
0.0
 11
175.7455685750905
 21
268.4230500689558
 31
0.0
  0
LINE
  5
155
330
3C
100
AcDbEntity
  8
1
  6
Continuous
 62
     7
100
AcDbLine
 10
172.9604255366955
 20
270.357550068956
 30
0.0
 11
170.3016489391465
 21
270.357550068956
 31
0.0
  0
LINE
  5
156
330
3C
100
AcDbEntity
  8
1
  6
Continuous
 62
     7
100
AcDbLine
 10
172.9604255366955
 20
270.357550068956
 30
0.0
 11
173.7329255366956
 21
269.585050068956
 31
0.0
  0
LINE
  5
157
330
3C
100
AcDbEntity
  8
1
  6
Continuous
 62
     7
100
AcDbLine
 10
173.7329255366956
 20
269.585050068956
 30
0.0
 11
173.7329255366956
 21
248.6300500689559
 31
0.0
  0
LINE
  5
158
330
3C
100
AcDbEntity
  8
1
  6
Continuous
 62
     7
100
AcDbLine
 10
175.7455685750905
 20
248.6300500689559
 30
0.0
 11
175.7455685750905
 21
269.585050068956
 31
0.0
  0
LINE
  5
159
330
3C
100
AcDbEntity
  8
1
  6
Continuous
 62
     7
100
AcDbLine
 10
173.7329255366956
 20
248.6300500689559
 30
0.0
 11
176.7455685750902
 21
248.6300500689559
 31
0.0
  0
LINE
  5
15A
330
3C
100
AcDbEntity
  8
1
  6
Continuous
 62
     2
100
AcDbLine
 10
175.7455685750905
 20
268.4230500689558
 30
0.0
 11
176.7455685750901
 21
268.4230500689558
 31
0.0
  0
LINE
  5
15B
330
3C
100
AcDbEntity
  8
1
  6
Continuous
 62
     2
100
AcDbLine
 10
175.7455685750905
 20
249.792050068956
 30
0.0
 11
176.7455685750901
 21
249.792050068956
 31
0.0
  0
LINE
  5
15C
330
3C
100
AcDbEntity
  8
1
  6
Continuous
 62
     7
100
AcDbLine
 10
176.7455685750902
 20
269.585050068956
 30
0.0
 11
173.7329255366956
 21
269.585050068956
 31
0.0
  0
ARC
  5
15D
330
3C
100
AcDbEntity
  8
1
  6
Continuous
 62
     7
100
AcDbCircle
 10
281.9054317422911
 20
265.6075500689561
 30
0.0
 40
18.36643427850096
100
AcDbArc
 50
-20.72643959502122
 51
20.72643959502122
  0
ARC
  5
15E
330
3C
100
AcDbEntity
  8
1
  6
Continuous
 62
     7
100
AcDbCircle
 10
281.9054317422911
 20
252.6075500689561
 30
0.0
 40
18.36643427850096
100
AcDbArc
 50
-20.72643959502122
 51
20.72643959502114
  0
ARC
  5
15F
330
3C
100
AcDbEntity
  8
1
  6
Continuous
 62
     7
100
AcDbCircle
 10
308.5832054078907
 20
252.6075500689561
 30
0.0
 40
18.36643427850276
100
AcDbArc
 50
159.273560404981
 51
-159.2735604049812
  0
ARC
  5
160
330
3C
100
AcDbEntity
  8
1
  6
Continuous
 62
     7
100
AcDbCircle
 10
308.5832054078907
 20
265.6075500689561
 30
0.0
 40
18.36643427850276
100
AcDbArc
 50
159.2735604049809
 51
-159.2735604049809
  0
ARC
  5
161
330
3C
100
AcDbEntity
  8
1
  6
Continuous
 62
     7
100
AcDbCircle
 10
164.5038988242877
 20
461.753333560319
 30
0.0
 40
6.64513914590064
100
AcDbArc
 50
-124.3842474680384
 51
-90.0
  0
ARC
  5
162
330
3C
100
AcDbEntity
  8
1
  6
Continuous
 62
     7
100
AcDbCircle
 10
135.2455685750907
 20
418.8581944144184
 30
0.0
 40
5.0
100
AcDbArc
 50
0.0
 51
90.00000000000456
  0
ARC
  5
163
330
3C
100
AcDbEntity
  8
1
  6
Continuous
 62
     7
100
AcDbCircle
 10
171.2455685750902
 20
418.8581944144184
 30
0.0
 40
5.0
100
AcDbArc
 50
90.0
 51
180.0
  0
ARC
  5
164
330
3C
100
AcDbEntity
  8
1
  6
Continuous
 62
     7
100
AcDbCircle
 10
135.2431802814746
 20
416.8558061208054
 30
0.0
 40
5.002388863737937
100
AcDbArc
 50
-0.02735475958291
 51
0.02735475947223
  0
ARC
  5
165
330
3C
100
AcDbEntity
  8
1
  6
Continuous
 62
     7
100
AcDbCircle
 10
135.2431802814746
 20
418.8558061208054
 30
0.0
 40
5.002388863737829
100
AcDbArc
 50
89.97264517756638
 51
90.02735482242646
  0
LINE
  5
166
330
3C
100
AcDbEntity
  8
1
  6
Continuous
 62
     7
100
AcDbLine
 10
135.245568580492
 20
423.8581944144184
 30
0.0
 11
135.2455685750903
 21
423.8581944144184
 31
0.0
  0
ARC
  5
167
330
3C
100
AcDbEntity
  8
1
  6
Continuous
 62
     7
100
AcDbCircle
 10
171.2443185750932
 20
416.8581944144155
 30
0.0
 40
5.000000000001355
100
AcDbArc
 50
178.7188007297243
 51
-178.7188007297386
  0
ARC
  5
168
330
3C
100
AcDbEntity
  8
1
  6
Continuous
 62
     7
100
AcDbCircle
 10
135.2468185750903
 20
451.3581944144184
 30
0.0
 40
5.0
100
AcDbArc
 50
-90.0
 51
-1.28119927076539
  0
ARC
  5
169
330
3C
100
AcDbEntity
  8
1
  6
Continuous
 62
     7
100
AcDbCircle
 10
135.2468185750903
 20
451.3581944144184
 30
0.0
 40
4.99999999999995
100
AcDbArc
 50
-1.28119927076539
 51
1.28119927077646
  0
ARC
  5
16A
330
3C
100
AcDbEntity
  8
1
  6
Continuous
 62
     7
100
AcDbCircle
 10
171.2443185750903
 20
451.3581944144184
 30
0.0
 40
4.999999999999963
100
AcDbArc
 50
178.7188007292138
 51
-178.7188007292249
  0
ARC
  5
16B
330
3C
100
AcDbEntity
  8
1
  6
Continuous
 62
     7
100
AcDbCircle
 10
171.2443185750903
 20
451.3581944144184
 30
0.0
 40
4.999999999999941
100
AcDbArc
 50
-178.7188007292249
 51
-90.0
  0
ARC
  5
16C
330
3C
100
AcDbEntity
  8
1
  6
Continuous
 62
     7
100
AcDbCircle
 10
137.24556857509
 20
453.3542099680557
 30
0.0
 40
3.0
100
AcDbArc
 50
0.0
 51
60.55338657860689
  0
ARC
  5
16D
330
3C
100
AcDbEntity
  8
1
  6
Continuous
 62
     7
100
AcDbCircle
 10
169.2455685750905
 20
453.3542099680557
 30
0.0
 40
3.000000000000186
100
AcDbArc
 50
119.4466134213912
 51
180.0
  0
ARC
  5
16E
330
3C
100
AcDbEntity
  8
1
  6
Continuous
 62
     7
100
AcDbCircle
 10
164.5038988242877
 20
461.753333560319
 30
0.0
 40
6.6451391459006
100
AcDbArc
 50
-90.0
 51
-55.61575253195861
  0
ARC
  5
16F
330
3C
100
AcDbEntity
  8
1
  6
Continuous
 62
     7
100
AcDbCircle
 10
141.9872383258933
 20
461.7533335603201
 30
0.0
 40
6.645139145901755
100
AcDbArc
 50
-124.384247468036
 51
-55.61575253196953
  0
ARC
  5
170
330
3C
100
AcDbEntity
  8
1
  6
Continuous
 62
     7
100
AcDbCircle
 10
141.9872383258933
 20
458.4630552685166
 30
0.0
 40
6.645139145901794
100
AcDbArc
 50
90.0
 51
124.3842474680357
  0
ARC
  5
171
330
3C
100
AcDbEntity
  8
1
  6
Continuous
 62
     7
100
AcDbCircle
 10
153.2455685750903
 20
479.9470812472168
 30
0.0
 40
24.8388868327985
100
AcDbArc
 50
-107.5879537739932
 51
-72.41204622600677
  0
ARC
  5
172
330
3C
100
AcDbEntity
  8
1
  6
Continuous
 62
     7
100
AcDbCircle
 10
141.9872383258933
 20
458.4630552685166
 30
0.0
 40
6.645139145901369
100
AcDbArc
 50
55.61575253196981
 51
90.0
  0
ARC
  5
173
330
3C
100
AcDbEntity
  8
1
  6
Continuous
 62
     7
100
AcDbCircle
 10
164.5038988242877
 20
458.4630552685176
 30
0.0
 40
6.645139145900973
100
AcDbArc
 50
55.61575253195916
 51
124.3842474680378
  0
ARC
  5
174
330
3C
100
AcDbEntity
  8
1
  6
Continuous
 62
     7
100
AcDbCircle
 10
153.2455685750903
 20
440.2693075816199
 30
0.0
 40
24.83888683279856
100
AcDbArc
 50
72.41204622600681
 51
107.5879537739931
  0
ARC
  5
175
330
3C
100
AcDbEntity
  8
1
  6
Continuous
 62
     7
100
AcDbCircle
 10
253.2812018247794
 20
277.1075500689561
 30
0.0
 40
5.0
100
AcDbArc
 50
-90.0
 51
-6.03874578110109
  0
ARC
  5
176
330
3C
100
AcDbEntity
  8
1
  6
Continuous
 62
     7
100
AcDbCircle
 10
287.2099353254006
 20
277.1075500689561
 30
0.0
 40
4.999999999999945
100
AcDbArc
 50
-173.9290272213278
 51
-89.99999999999871
  0
ARC
  5
177
330
3C
100
AcDbEntity
  8
1
  6
Continuous
 62
     7
100
AcDbCircle
 10
170.3016489391494
 20
275.3575500689591
 30
0.0
 40
5.000000000003094
100
AcDbArc
 50
-176.9999999999669
 51
-90.00000000003321
  0
ARC
  5
178
330
3C
100
AcDbEntity
  8
1
  6
Continuous
 62
     7
100
AcDbCircle
 10
136.1894882110315
 20
275.3575500689591
 30
0.0
 40
5.00000000000307
100
AcDbArc
 50
-89.99999999996548
 51
-3.00000000003309
  0
CIRCLE
  5
179
330
3C
100
AcDbEntity
  8
1
  6
Continuous
 62
     7
100
AcDbCircle
 10
153.2455685750903
 20
435.1069444144183
 30
0.0
 40
6.497499999999889
  0
CIRCLE
  5
17A
330
3C
100
AcDbEntity
  8
1
  6
Continuous
 62
     2
100
AcDbCircle
 10
153.2455685750903
 20
435.1069444144183
 30
0.0
 40
9.315500000000213
  0
CIRCLE
  5
17B
330
3C
100
AcDbEntity
  8
1
  6
Continuous
 62
     7
100
AcDbCircle
 10
153.2455685750903
 20
435.1069444144183
 30
0.0
 40
10.5
  0
ENDBLK
  5
3E
330
3C
100
AcDbEntity
  8
0
100
AcDbBlockEnd
  0
BLOCK
  5
40
330
3F
100
AcDbEntity
  8
0
100
AcDbBlockBegin
  2
32-213-M2__2
 70
     0
 71
     0
 10
-125.6046426015091
 20
500.828490091859
 30
0.0
  3
32-213-M2__2
  1

  0
LINE
  5
17C
330
3F
100
AcDbEntity
  8
1
  6
Continuous
 62
     7
100
AcDbLine
 10
117.7439166509656
 20
424.1077924902935
 30
0.0
 11
117.7439166509656
 21
446.1077924902935
 31
0.0
  0
LINE
  5
17D
330
3F
100
AcDbEntity
  8
1
  6
Continuous
 62
     7
100
AcDbLine
 10
129.7439166509655
 20
424.1075354088278
 30
0.0
 11
129.7439166509655
 21
446.1077924902935
 31
0.0
  0
LINE
  5
17E
330
3F
100
AcDbEntity
  8
0
  6
Continuous
 62
     7
100
AcDbLine
 10
117.7455685750913
 20
247.6075500689564
 30
0.0
 11
117.7455685750913
 21
270.6075500689565
 31
0.0
  0
LINE
  5
17F
330
3F
100
AcDbEntity
  8
1
  6
Continuous
 62
     7
100
AcDbLine
 10
129.7455685750912
 20
270.6075500689565
 30
0.0
 11
117.7455685750913
 21
270.6075500689565
 31
0.0
  0
LINE
  5
180
330
3F
100
AcDbEntity
  8
1
  6
Continuous
 62
     7
100
AcDbLine
 10
117.7455685750913
 20
247.6075500689564
 30
0.0
 11
129.745568575091
 21
247.6075500689564
 31
0.0
  0
LINE
  5
181
330
3F
100
AcDbEntity
  8
0
  6
Continuous
 62
     7
100
AcDbLine
 10
129.745568575091
 20
247.6075500689564
 30
0.0
 11
129.7455685750912
 21
270.6075500689565
 31
0.0
  0
ARC
  5
182
330
3F
100
AcDbEntity
  8
1
  6
Continuous
 62
     7
100
AcDbCircle
 10
123.7439166509655
 20
432.1075354088277
 30
0.0
 40
9.999999999999849
100
AcDbArc
 50
-126.869897645844
 51
-53.13010235415559
  0
ARC
  5
183
330
3F
100
AcDbEntity
  8
1
  6
Continuous
 62
     7
100
AcDbCircle
 10
123.7439166509655
 20
438.1077924902936
 30
0.0
 40
9.999999999999909
100
AcDbArc
 50
53.13010235415559
 51
126.869897645844
  0
SPLINE
  5
184
330
3F
100
AcDbEntity
  8
1
  6
Continuous
 62
     7
100
AcDbSpline
210
0.0
220
0.0
230
1.0
 70
    11
 71
     3
 72
    79
 73
    75
 74
    73
 42
0.0000000001
 43
0.0000000001
 44
0.00000001
 40
0.0
 40
0.0
 40
0.0
 40
0.0
 40
0.2746255860864884
 40
0.5489296448750612
 40
0.8445351226057234
 40
1.1397209307352
 40
1.464847760107562
 40
1.789634474685715
 40
2.14778412583728
 40
2.505702211207213
 40
2.896040828699634
 40
3.286231079274728
 40
3.704624946715783
 40
4.122927269101299
 40
4.562895988146273
 40
5.002812031777962
 40
5.456315478849954
 40
5.909794870758358
 40
6.367899400179696
 40
6.826003929601065
 40
7.279483321509491
 40
7.732986768581474
 40
8.172902812213154
 40
8.61287153125817
 40
9.031173853643743
 40
9.449567721084831
 40
9.839757971659893
 40
10.23009658915233
 40
10.58801467452232
 40
10.94616432567383
 40
11.27095104025196
 40
11.59607786962429
 40
11.89126367775383
 40
12.18686915548446
 40
12.46117321427297
 40
12.73579880035945
 40
13.00262036940789
 40
13.26944193845617
 40
13.54406752454264
 40
13.81837158333111
 40
14.11397706106182
 40
14.40916286919125
 40
14.73428969856364
 40
15.05907641314177
 40
15.41722606429341
 40
15.77514414966334
 40
16.16548276715578
 40
16.55567301773084
 40
16.9740668851719
 40
17.39236920755745
 40
17.83233792660249
 40
18.27225397023418
 40
18.72575741730617
 40
19.17923680921462
 40
19.63734133863595
 40
20.09544586805728
 40
20.54892525996572
 40
21.00242870703769
 40
21.44234475066937
 40
21.88231346971433
 40
22.30061579209986
 40
22.71900965954091
 40
23.10919991011596
 40
23.4995385276084
 40
23.85745661297835
 40
24.21560626412992
 40
24.54039297870804
 40
24.86551980808048
 40
25.16070561620996
 40
25.45631109394067
 40
25.73061515272909
 40
26.00524073881563
 40
26.27206230786396
 40
26.53888387691229
 40
26.53888387691229
 40
26.53888387691229
 40
26.53888387691229
 10
118.4967781162216
 20
424.8822249534787
 30
0.0
 10
118.5145211448902
 20
424.7922356852181
 30
0.0
 10
118.5499864289697
 20
424.6123625067106
 30
0.0
 10
118.6558628353084
 20
424.3499761704688
 30
0.0
 10
118.7955277069367
 20
424.0970262891231
 30
0.0
 10
118.9762969637485
 20
423.8500490442717
 30
0.0
 10
119.18953509888
 20
423.6173637937026
 30
0.0
 10
119.4405515600917
 20
423.3932485365398
 30
0.0
 10
119.7196547963415
 20
423.1863879964694
 30
0.0
 10
120.0330752498974
 20
422.9913456084267
 30
0.0
 10
120.3697986283704
 20
422.8155983946957
 30
0.0
 10
120.7360812138183
 20
422.6550720150698
 30
0.0
 10
121.120720925942
 20
422.5153336055733
 30
0.0
 10
121.5288100061501
 20
422.393865460093
 30
0.0
 10
121.9501580188612
 20
422.2942725853015
 30
0.0
 10
122.3877554608258
 20
422.2153071630883
 30
0.0
 10
122.8333740505735
 20
422.1589402519113
 30
0.0
 10
123.2873026424212
 20
422.124676322073
 30
0.0
 10
123.7439166509628
 20
422.1133742848051
 30
0.0
 10
124.2005306595207
 20
422.1246763220715
 30
0.0
 10
124.6544592513202
 20
422.1589402519172
 30
0.0
 10
125.1000778412422
 20
422.2153071630669
 30
0.0
 10
125.5376752825762
 20
422.2942725853783
 30
0.0
 10
125.9590232975873
 20
422.3938654598109
 30
0.0
 10
126.3671123696157
 20
422.5153336065685
 30
0.0
 10
126.751752111266
 20
422.655072011454
 30
0.0
 10
127.1180345935888
 20
422.8155984071851
 30
0.0
 10
127.4547583408171
 20
422.9913455633271
 30
0.0
 10
127.7681775265774
 20
423.1863881493629
 30
0.0
 10
128.0472852645357
 20
423.3932479863966
 30
0.0
 10
128.2982864045584
 20
423.617365636286
 30
0.0
 10
128.5115788463679
 20
423.8500424057223
 30
0.0
 10
128.6921630133445
 20
424.0970485562545
 30
0.0
 10
128.8324888846773
 20
424.3498952085569
 30
0.0
 10
128.9360654544189
 20
424.6126407127837
 30
0.0
 10
128.9971446114355
 20
424.8786380003266
 30
0.0
 10
129.0189377764065
 20
425.1482432653066
 30
0.0
 10
128.9971446114355
 20
425.4178485302868
 30
0.0
 10
128.9360654544189
 20
425.6838458178295
 30
0.0
 10
128.8324888846772
 20
425.9465913220567
 30
0.0
 10
128.6921630133446
 20
426.1994379743586
 30
0.0
 10
128.5115788463677
 20
426.4464441248914
 30
0.0
 10
128.2982864045585
 20
426.6791208943271
 30
0.0
 10
128.0472852645356
 20
426.9032385442168
 30
0.0
 10
127.7681775265775
 20
427.1100983812506
 30
0.0
 10
127.454758340817
 20
427.3051409672863
 30
0.0
 10
127.1180345935887
 20
427.4808881234283
 30
0.0
 10
126.751752111266
 20
427.6414145191596
 30
0.0
 10
126.3671123696157
 20
427.7811529240447
 30
0.0
 10
125.9590232975874
 20
427.9026210708026
 30
0.0
 10
125.5376752825762
 20
428.0022139452348
 30
0.0
 10
125.1000778412422
 20
428.0811793675466
 30
0.0
 10
124.6544592513204
 20
428.1375462786961
 30
0.0
 10
124.20053065952
 20
428.171810208542
 30
0.0
 10
123.7439166509654
 20
428.1831122458079
 30
0.0
 10
123.2873026424119
 20
428.1718102085422
 30
0.0
 10
122.833374050608
 20
428.1375462786957
 30
0.0
 10
122.3877554606986
 20
428.081179367548
 30
0.0
 10
121.9501580193199
 20
428.0022139452294
 30
0.0
 10
121.5288100044717
 20
427.9026210708225
 30
0.0
 10
121.1207209318645
 20
427.7811529239744
 30
0.0
 10
120.7360811923034
 20
427.6414145194154
 30
0.0
 10
120.3697987026839
 20
427.4808881225447
 30
0.0
 10
120.0330749815474
 20
427.3051409704774
 30
0.0
 10
119.7196557060824
 20
427.1100983704324
 30
0.0
 10
119.4405482866488
 20
426.903238583143
 30
0.0
 10
119.1895460625542
 20
426.6791207639529
 30
0.0
 10
118.9762574632884
 20
426.446444594611
 30
0.0
 10
118.7956602000264
 20
426.1994363988174
 30
0.0
 10
118.6553810986346
 20
425.9465970506277
 30
0.0
 10
118.5516418007995
 20
425.683826132977
 30
0.0
 10
118.4911552317034
 20
425.4179213905354
 30
0.0
 10
118.4672091260911
 20
425.147979898471
 30
0.0
 10
118.4869217861781
 20
424.9708099351428
 30
0.0
 10
118.4967781162216
 20
424.8822249534787
 30
0.0
 11
118.4967781162216
 21
424.8822249534787
 31
0.0
 11
118.5583549979025
 21
424.6145918087156
 31
0.0
 11
118.6579555738945
 21
424.359009254675
 31
0.0
 11
118.8009082333822
 21
424.1002678091936
 31
0.0
 11
118.9743574919424
 21
423.8614163573957
 31
0.0
 11
119.1934151374315
 21
423.6211639835667
 31
0.0
 11
119.4352001940701
 21
423.4043082795773
 31
0.0
 11
119.7224271143574
 21
423.1903646681226
 31
0.0
 11
120.0260306838453
 21
423.000811961919
 31
0.0
 11
120.3717429290013
 21
422.8195737764969
 31
0.0
 11
120.7289708787518
 21
422.662613196857
 31
0.0
 11
121.1220349990164
 21
422.5192464445297
 31
0.0
 11
121.5228861165609
 21
422.3996838480521
 31
0.0
 11
121.950971087314
 21
422.2981174581716
 31
0.0
 11
122.3838731827416
 21
422.2198748788497
 31
0.0
 11
122.8337628017127
 21
422.1627372620964
 31
0.0
 11
123.2859549596801
 21
422.1285932851978
 31
0.0
 11
123.7439166509655
 21
422.1171543520612
 31
0.0
 11
124.201878342251
 21
422.1285932851979
 31
0.0
 11
124.6540705002184
 21
422.1627372620966
 31
0.0
 11
125.1039601191895
 21
422.2198748788497
 31
0.0
 11
125.5368622146171
 21
422.2981174581715
 31
0.0
 11
125.9649471853702
 21
422.3996838480521
 31
0.0
 11
126.3657983029148
 21
422.5192464445297
 31
0.0
 11
126.7588624231794
 21
422.662613196857
 31
0.0
 11
127.1160903729299
 21
422.8195737764968
 31
0.0
 11
127.4618026180859
 21
423.000811961919
 31
0.0
 11
127.7654061875738
 21
423.1903646681227
 31
0.0
 11
128.0526331078611
 21
423.4043082795773
 31
0.0
 11
128.2944181644997
 21
423.6211639835666
 31
0.0
 11
128.5134758099887
 21
423.8614163573957
 31
0.0
 11
128.686925068549
 21
424.1002678091936
 31
0.0
 11
128.8298777280367
 21
424.3590092546749
 31
0.0
 11
128.9294783040287
 21
424.6145918087155
 31
0.0
 11
128.9910551857096
 21
424.8822249534786
 31
0.0
 11
129.0117435273924
 21
425.1482432653068
 31
0.0
 11
128.9910551857096
 21
425.4142615771347
 31
0.0
 11
128.9294783040287
 21
425.6818947218978
 31
0.0
 11
128.8298777280367
 21
425.9374772759384
 31
0.0
 11
128.686925068549
 21
426.1962187214198
 31
0.0
 11
128.5134758099888
 21
426.4350701732176
 31
0.0
 11
128.2944181644997
 21
426.6753225470467
 31
0.0
 11
128.0526331078611
 21
426.8921782510361
 31
0.0
 11
127.7654061875738
 21
427.1061218624908
 31
0.0
 11
127.4618026180859
 21
427.2956745686944
 31
0.0
 11
127.1160903729299
 21
427.4769127541166
 31
0.0
 11
126.7588624231794
 21
427.6338733337564
 31
0.0
 11
126.3657983029147
 21
427.7772400860836
 31
0.0
 11
125.9649471853703
 21
427.8968026825613
 31
0.0
 11
125.5368622146171
 21
427.9983690724419
 31
0.0
 11
125.1039601191895
 21
428.0766116517638
 31
0.0
 11
124.6540705002184
 21
428.1337492685169
 31
0.0
 11
124.201878342251
 21
428.1678932454155
 31
0.0
 11
123.7439166509655
 21
428.1793321785522
 31
0.0
 11
123.2859549596801
 21
428.1678932454156
 31
0.0
 11
122.8337628017127
 21
428.1337492685168
 31
0.0
 11
122.3838731827416
 21
428.0766116517637
 31
0.0
 11
121.950971087314
 21
427.9983690724419
 31
0.0
 11
121.5228861165609
 21
427.8968026825613
 31
0.0
 11
121.1220349990164
 21
427.7772400860837
 31
0.0
 11
120.7289708787518
 21
427.6338733337565
 31
0.0
 11
120.3717429290013
 21
427.4769127541167
 31
0.0
 11
120.0260306838453
 21
427.2956745686945
 31
0.0
 11
119.7224271143575
 21
427.1061218624908
 31
0.0
 11
119.4352001940701
 21
426.8921782510362
 31
0.0
 11
119.1934151374315
 21
426.6753225470469
 31
0.0
 11
118.9743574919425
 21
426.4350701732176
 31
0.0
 11
118.8009082333822
 21
426.1962187214198
 31
0.0
 11
118.6579555738945
 21
425.9374772759384
 31
0.0
 11
118.5583549979025
 21
425.6818947218979
 31
0.0
 11
118.4967781162216
 21
425.4142615771347
 31
0.0
 11
118.4760897745388
 21
425.1482432653067
 31
0.0
 11
118.4967781162216
 21
424.8822249534787
 31
0.0
  0
SPLINE
  5
185
330
3F
100
AcDbEntity
  8
1
  6
Continuous
 62
     7
100
AcDbSpline
210
0.0
220
0.0
230
1.0
 70
     8
 71
     3
 72
    45
 73
    41
 74
    39
 42
0.0000000001
 43
0.0000000001
 44
0.00000001
 40
0.0
 40
0.0
 40
0.0
 40
0.0
 40
0.2639815460522604
 40
0.5283419841191626
 40
1.05465217076262
 40
1.580985067100835
 40
2.101700160272542
 40
2.622460348438455
 40
3.134495226137451
 40
3.646596368619097
 40
4.147789061289645
 40
4.649065936797164
 40
5.138470095605102
 40
5.627969508813655
 40
6.106046361246287
 40
6.584217829940172
 40
7.052873649570359
 40
7.521607363809256
 40
7.984025556627691
 40
8.446488192992989
 40
8.906737372258894
 40
9.366986551524843
 40
9.829449187890202
 40
10.29186738070866
 40
10.76060109494754
 40
11.22925691457772
 40
11.70742838327162
 40
12.18550523570425
 40
12.67500464891283
 40
13.16440880772077
 40
13.66568568322829
 40
14.16687837589888
 40
14.67897951838054
 40
15.19101439607951
 40
15.71177458424542
 40
16.23248967741707
 40
16.75882257375523
 40
17.28513276039875
 40
17.54949319846366
 40
17.81347474451359
 40
17.81347474451359
 40
17.81347474451359
 40
17.81347474451359
 10
118.4760897745388
 20
435.1075354088321
 30
0.0
 10
118.4770582858879
 20
435.0195356449053
 30
0.0
 10
118.4789966986879
 20
434.8434098112232
 30
0.0
 10
118.4996320339317
 20
434.4923563637665
 30
0.0
 10
118.549125661856
 20
434.0557296241557
 30
0.0
 10
118.6483287606629
 20
433.540211590261
 30
0.0
 10
118.7862088905229
 20
433.035593260726
 30
0.0
 10
118.9614270186907
 20
432.5477281338947
 30
0.0
 10
119.1734261648841
 20
432.0778313317948
 30
0.0
 10
119.4195321336059
 20
431.6322682216947
 30
0.0
 10
119.6993823739754
 20
431.2113807386103
 30
0.0
 10
120.0091041377482
 20
430.8215344944125
 30
0.0
 10
120.3484850688346
 20
430.4625497840167
 30
0.0
 10
120.7126745733651
 20
430.1402564210879
 30
0.0
 10
121.1013986692574
 20
429.8542798906784
 30
0.0
 10
121.5092449187181
 20
429.6094755480366
 30
0.0
 10
121.9355098963602
 20
429.4054589880406
 30
0.0
 10
122.3747674313936
 20
429.2458640412785
 30
0.0
 10
122.8254739878945
 20
429.1302621746684
 30
0.0
 10
123.2827515774585
 20
429.0610569666924
 30
0.0
 10
123.7439166509656
 20
429.0375267204769
 30
0.0
 10
124.2050817244725
 20
429.0610569666926
 30
0.0
 10
124.6623593140367
 20
429.1302621746683
 30
0.0
 10
125.1130658705376
 20
429.2458640412785
 30
0.0
 10
125.552323405571
 20
429.4054589880404
 30
0.0
 10
125.9785883832131
 20
429.6094755480365
 30
0.0
 10
126.3864346326738
 20
429.8542798906784
 30
0.0
 10
126.7751587285661
 20
430.1402564210878
 30
0.0
 10
127.1393482330966
 20
430.4625497840167
 30
0.0
 10
127.478729164183
 20
430.8215344944124
 30
0.0
 10
127.7884509279558
 20
431.2113807386102
 30
0.0
 10
128.0683011683253
 20
431.6322682216947
 30
0.0
 10
128.3144071370473
 20
432.0778313317949
 30
0.0
 10
128.5264062832404
 20
432.5477281338946
 30
0.0
 10
128.7016244114082
 20
433.0355932607259
 30
0.0
 10
128.8395045412682
 20
433.540211590261
 30
0.0
 10
128.9387076400753
 20
434.0557296241557
 30
0.0
 10
128.9882012679995
 20
434.4923563637659
 30
0.0
 10
129.0088366032432
 20
434.843409811221
 30
0.0
 10
129.0107750160433
 20
435.0195356449017
 30
0.0
 10
129.0117435273924
 20
435.1075354088278
 30
0.0
 11
118.4760897745388
 21
435.1075354088321
 31
0.0
 11
118.4810920809911
 21
434.8436012625261
 31
0.0
 11
118.4960990003484
 21
434.57966711622
 31
0.0
 11
118.555827576356
 21
434.056757076373
 31
0.0
 11
118.6552690432808
 21
433.539903410019
 31
0.0
 11
118.792672971541
 21
433.0376441455395
 31
0.0
 11
118.9688277879544
 21
432.5475822573733
 31
0.0
 11
119.1795919895062
 21
432.0809366023797
 31
0.0
 11
119.4273549330047
 21
431.6327612974375
 31
0.0
 11
119.705088429851
 21
431.2155584451991
 31
0.0
 11
120.0170673377207
 21
430.8231967919212
 31
0.0
 11
120.3535227721818
 21
430.467789741794
 31
0.0
 11
120.7202131881736
 21
430.1435247045925
 31
0.0
 11
121.1055208685661
 21
429.8605132767977
 31
0.0
 11
121.5155669278951
 21
429.614525100859
 31
0.0
 11
121.9384552527439
 21
429.412525739524
 31
0.0
 11
122.3790167395172
 21
429.2524730255942
 31
0.0
 11
122.8270144214496
 21
429.1378926519141
 31
0.0
 11
123.2842538738306
 21
429.068583394089
 31
0.0
 11
123.7439166509655
 21
429.0453575823368
 31
0.0
 11
124.2035794281005
 21
429.0685833940891
 31
0.0
 11
124.6608188804816
 21
429.1378926519141
 31
0.0
 11
125.108816562414
 21
429.2524730255942
 31
0.0
 11
125.5493780491873
 21
429.4125257395239
 31
0.0
 11
125.9722663740362
 21
429.6145251008589
 31
0.0
 11
126.3823124333651
 21
429.8605132767976
 31
0.0
 11
126.7676201137576
 21
430.1435247045924
 31
0.0
 11
127.1343105297494
 21
430.467789741794
 31
0.0
 11
127.4707659642105
 21
430.8231967919212
 31
0.0
 11
127.7827448720802
 21
431.2155584451991
 31
0.0
 11
128.0604783689265
 21
431.6327612974376
 31
0.0
 11
128.308241312425
 21
432.0809366023797
 31
0.0
 11
128.5190055139767
 21
432.5475822573734
 31
0.0
 11
128.6951603303902
 21
433.0376441455395
 31
0.0
 11
128.8325642586504
 21
433.539903410019
 31
0.0
 11
128.9320057255752
 21
434.056757076373
 31
0.0
 11
128.9917343015828
 21
434.57966711622
 31
0.0
 11
129.00674122094
 21
434.8436012625241
 31
0.0
 11
129.0117435273924
 21
435.1075354088278
 31
0.0
  0
SPLINE
  5
186
330
3F
100
AcDbEntity
  8
1
  6
Continuous
 62
     7
100
AcDbSpline
210
0.0
220
0.0
230
1.0
 70
     8
 71
     3
 72
    45
 73
    41
 74
    39
 42
0.0000000001
 43
0.0000000001
 44
0.00000001
 40
0.0
 40
0.0
 40
0.0
 40
0.0
 40
0.2639815460522035
 40
0.5283419841190491
 40
1.05465217076262
 40
1.580985067100722
 40
2.101700160272484
 40
2.622460348438451
 40
3.13449522613755
 40
3.646596368619047
 40
4.147789061289547
 40
4.649065936797066
 40
5.138470095605046
 40
5.627969508813599
 40
6.106046361246298
 40
6.584217829940124
 40
7.052873649570335
 40
7.521607363809213
 40
7.984025556627662
 40
8.446488192992952
 40
8.906737372258858
 40
9.366986551524807
 40
9.829449187890184
 40
10.29186738070862
 40
10.76060109494749
 40
11.2292569145777
 40
11.7074283832716
 40
12.18550523570426
 40
12.67500464891284
 40
13.16440880772078
 40
13.6656856832283
 40
14.16687837589885
 40
14.67897951838045
 40
15.19101439607948
 40
15.71177458424539
 40
16.23248967741704
 40
16.7588225737552
 40
17.28513276039871
 40
17.54949319846368
 40
17.81347474451356
 40
17.81347474451356
 40
17.81347474451356
 40
17.81347474451356
 10
118.4760897745388
 20
435.1077924902892
 30
0.0
 10
118.4770582858879
 20
435.195792254216
 30
0.0
 10
118.4789966986879
 20
435.371918087898
 30
0.0
 10
118.4996320339317
 20
435.7229715353549
 30
0.0
 10
118.5491256618559
 20
436.1595982749656
 30
0.0
 10
118.6483287606629
 20
436.6751163088602
 30
0.0
 10
118.7862088905229
 20
437.1797346383954
 30
0.0
 10
118.9614270186908
 20
437.6675997652267
 30
0.0
 10
119.173426164884
 20
438.1374965673268
 30
0.0
 10
119.4195321336059
 20
438.5830596774265
 30
0.0
 10
119.6993823739754
 20
439.003947160511
 30
0.0
 10
120.0091041377482
 20
439.3937934047089
 30
0.0
 10
120.3484850688346
 20
439.7527781151046
 30
0.0
 10
120.7126745733651
 20
440.0750714780332
 30
0.0
 10
121.1013986692574
 20
440.3610480084431
 30
0.0
 10
121.5092449187181
 20
440.6058523510847
 30
0.0
 10
121.9355098963602
 20
440.809868911081
 30
0.0
 10
122.3747674313936
 20
440.9694638578427
 30
0.0
 10
122.8254739878945
 20
441.0850657244531
 30
0.0
 10
123.2827515774586
 20
441.154270932429
 30
0.0
 10
123.7439166509655
 20
441.1778011786442
 30
0.0
 10
124.2050817244726
 20
441.154270932429
 30
0.0
 10
124.6623593140367
 20
441.0850657244528
 30
0.0
 10
125.1130658705376
 20
440.9694638578429
 30
0.0
 10
125.552323405571
 20
440.8098689110809
 30
0.0
 10
125.9785883832131
 20
440.6058523510848
 30
0.0
 10
126.3864346326738
 20
440.3610480084429
 30
0.0
 10
126.7751587285661
 20
440.0750714780334
 30
0.0
 10
127.1393482330966
 20
439.7527781151045
 30
0.0
 10
127.478729164183
 20
439.3937934047087
 30
0.0
 10
127.7884509279559
 20
439.0039471605111
 30
0.0
 10
128.0683011683252
 20
438.5830596774263
 30
0.0
 10
128.3144071370473
 20
438.1374965673267
 30
0.0
 10
128.5264062832404
 20
437.6675997652264
 30
0.0
 10
128.7016244114082
 20
437.1797346383955
 30
0.0
 10
128.8395045412683
 20
436.6751163088603
 30
0.0
 10
128.9387076400752
 20
436.1595982749656
 30
0.0
 10
128.9882012679996
 20
435.7229715353558
 30
0.0
 10
129.0088366032432
 20
435.3719180879
 30
0.0
 10
129.0107750160432
 20
435.1957922542195
 30
0.0
 10
129.0117435273924
 20
435.1077924902935
 30
0.0
 11
118.4760897745388
 21
435.1077924902892
 31
0.0
 11
118.4810920809911
 21
435.3717266365952
 31
0.0
 11
118.4960990003484
 21
435.6356607829013
 31
0.0
 11
118.555827576356
 21
436.1585708227484
 31
0.0
 11
118.6552690432808
 21
436.6754244891023
 31
0.0
 11
118.792672971541
 21
437.1776837535819
 31
0.0
 11
118.9688277879544
 21
437.667745641748
 31
0.0
 11
119.1795919895062
 21
438.1343912967418
 31
0.0
 11
119.4273549330047
 21
438.5825666016838
 31
0.0
 11
119.705088429851
 21
438.9997694539221
 31
0.0
 11
120.0170673377207
 21
439.3921311072
 31
0.0
 11
120.3535227721818
 21
439.7475381573273
 31
0.0
 11
120.7202131881736
 21
440.0718031945288
 31
0.0
 11
121.1055208685661
 21
440.3548146223237
 31
0.0
 11
121.5155669278951
 21
440.6008027982623
 31
0.0
 11
121.9384552527439
 21
440.8028021595974
 31
0.0
 11
122.3790167395172
 21
440.9628548735271
 31
0.0
 11
122.8270144214496
 21
441.0774352472073
 31
0.0
 11
123.2842538738306
 21
441.1467445050323
 31
0.0
 11
123.7439166509655
 21
441.1699703167845
 31
0.0
 11
124.2035794281005
 21
441.1467445050323
 31
0.0
 11
124.6608188804816
 21
441.0774352472072
 31
0.0
 11
125.108816562414
 21
440.9628548735271
 31
0.0
 11
125.5493780491873
 21
440.8028021595974
 31
0.0
 11
125.9722663740362
 21
440.6008027982624
 31
0.0
 11
126.3823124333651
 21
440.3548146223237
 31
0.0
 11
126.7676201137576
 21
440.0718031945288
 31
0.0
 11
127.1343105297494
 21
439.7475381573273
 31
0.0
 11
127.4707659642105
 21
439.3921311072
 31
0.0
 11
127.7827448720802
 21
438.9997694539221
 31
0.0
 11
128.0604783689265
 21
438.5825666016837
 31
0.0
 11
128.308241312425
 21
438.1343912967416
 31
0.0
 11
128.5190055139767
 21
437.6677456417479
 31
0.0
 11
128.6951603303902
 21
437.1776837535818
 31
0.0
 11
128.8325642586504
 21
436.6754244891023
 31
0.0
 11
128.9320057255752
 21
436.1585708227484
 31
0.0
 11
128.9917343015828
 21
435.6356607829013
 31
0.0
 11
129.00674122094
 21
435.3717266365972
 31
0.0
 11
129.0117435273924
 21
435.1077924902935
 31
0.0
  0
SPLINE
  5
187
330
3F
100
AcDbEntity
  8
1
  6
Continuous
 62
     7
100
AcDbSpline
210
0.0
220
0.0
230
1.0
 70
    11
 71
     3
 72
    79
 73
    75
 74
    73
 42
0.0000000001
 43
0.0000000001
 44
0.00000001
 40
0.0
 40
0.0
 40
0.0
 40
0.0
 40
0.2746255860864884
 40
0.5489296448750083
 40
0.8445351226056704
 40
1.139720930735147
 40
1.464847760107509
 40
1.789634474685662
 40
2.147784125837295
 40
2.505702211207228
 40
2.896040828699675
 40
3.286231079274724
 40
3.704624946715779
 40
4.122927269101295
 40
4.562895988146268
 40
5.002812031777958
 40
5.45631547884992
 40
5.909794870758336
 40
6.367899400179675
 40
6.826003929601042
 40
7.279483321509468
 40
7.732986768581451
 40
8.172902812213142
 40
8.61287153125817
 40
9.031173853643695
 40
9.449567721084803
 40
9.839757971659841
 40
10.2300965891523
 40
10.58801467452223
 40
10.94616432567378
 40
11.27095104025195
 40
11.59607786962436
 40
11.89126367775381
 40
12.18686915548454
 40
12.46117321427299
 40
12.73579880035952
 40
13.0026203694078
 40
13.26944193845619
 40
13.54406752454266
 40
13.81837158333118
 40
14.11397706106179
 40
14.40916286919127
 40
14.73428969856362
 40
15.05907641314182
 40
15.41722606429343
 40
15.77514414966336
 40
16.1654827671558
 40
16.55567301773084
 40
16.97406688517192
 40
17.39236920755747
 40
17.83233792660251
 40
18.27225397023419
 40
18.72575741730617
 40
19.17923680921463
 40
19.63734133863595
 40
20.09544586805729
 40
20.54892525996571
 40
21.00242870703768
 40
21.44234475066936
 40
21.88231346971434
 40
22.30061579209988
 40
22.71900965954092
 40
23.10919991011594
 40
23.49953852760842
 40
23.85745661297834
 40
24.21560626412994
 40
24.54039297870806
 40
24.86551980808046
 40
25.16070561620994
 40
25.4563110939406
 40
25.73061515272918
 40
26.00524073881561
 40
26.27206230786399
 40
26.53888387691227
 40
26.53888387691227
 40
26.53888387691227
 40
26.53888387691227
 10
118.4967781162216
 20
445.3331029456426
 30
0.0
 10
118.5145211448902
 20
445.4230922139032
 30
0.0
 10
118.5499864289698
 20
445.6029653924106
 30
0.0
 10
118.6558628353083
 20
445.8653517286525
 30
0.0
 10
118.7955277069367
 20
446.1183016099983
 30
0.0
 10
118.9762969637485
 20
446.3652788548497
 30
0.0
 10
119.18953509888
 20
446.5979641054186
 30
0.0
 10
119.4405515600918
 20
446.8220793625816
 30
0.0
 10
119.7196547963415
 20
447.0289399026519
 30
0.0
 10
120.0330752498974
 20
447.2239822906947
 30
0.0
 10
120.3697986283704
 20
447.3997295044257
 30
0.0
 10
120.7360812138183
 20
447.5602558840516
 30
0.0
 10
121.120720925942
 20
447.699994293548
 30
0.0
 10
121.52881000615
 20
447.8214624390284
 30
0.0
 10
121.9501580188612
 20
447.9210553138199
 30
0.0
 10
122.3877554608257
 20
448.000020736033
 30
0.0
 10
122.8333740505736
 20
448.05638764721
 30
0.0
 10
123.2873026424211
 20
448.0906515770482
 30
0.0
 10
123.7439166509628
 20
448.1019536143164
 30
0.0
 10
124.2005306595207
 20
448.0906515770498
 30
0.0
 10
124.6544592513202
 20
448.0563876472041
 30
0.0
 10
125.1000778412422
 20
448.0000207360545
 30
0.0
 10
125.5376752825762
 20
447.9210553137427
 30
0.0
 10
125.9590232975873
 20
447.8214624393104
 30
0.0
 10
126.3671123696158
 20
447.6999942925529
 30
0.0
 10
126.751752111266
 20
447.5602558876673
 30
0.0
 10
127.1180345935888
 20
447.3997294919364
 30
0.0
 10
127.454758340817
 20
447.2239823357942
 30
0.0
 10
127.7681775265775
 20
447.0289397497587
 30
0.0
 10
128.0472852645357
 20
446.8220799127248
 30
0.0
 10
128.2982864045585
 20
446.5979622628353
 30
0.0
 10
128.5115788463677
 20
446.3652854933991
 30
0.0
 10
128.6921630133446
 20
446.1182793428668
 30
0.0
 10
128.8324888846773
 20
445.8654326905646
 30
0.0
 10
128.9360654544189
 20
445.6026871863373
 30
0.0
 10
128.9971446114355
 20
445.3366898987947
 30
0.0
 10
129.0189377764065
 20
445.0670846338147
 30
0.0
 10
128.9971446114355
 20
444.7974793688345
 30
0.0
 10
128.936065454419
 20
444.5314820812919
 30
0.0
 10
128.8324888846772
 20
444.2687365770647
 30
0.0
 10
128.6921630133446
 20
444.0158899247626
 30
0.0
 10
128.5115788463678
 20
443.7688837742301
 30
0.0
 10
128.2982864045585
 20
443.5362070047942
 30
0.0
 10
128.0472852645356
 20
443.3120893549043
 30
0.0
 10
127.7681775265775
 20
443.1052295178708
 30
0.0
 10
127.454758340817
 20
442.910186931835
 30
0.0
 10
127.1180345935887
 20
442.7344397756928
 30
0.0
 10
126.751752111266
 20
442.5739133799621
 30
0.0
 10
126.3671123696157
 20
442.4341749750765
 30
0.0
 10
125.9590232975873
 20
442.3127068283189
 30
0.0
 10
125.5376752825763
 20
442.2131139538864
 30
0.0
 10
125.1000778412422
 20
442.1341485315748
 30
0.0
 10
124.6544592513204
 20
442.0777816204252
 30
0.0
 10
124.20053065952
 20
442.0435176905792
 30
0.0
 10
123.7439166509654
 20
442.0322156533136
 30
0.0
 10
123.2873026424118
 20
442.0435176905793
 30
0.0
 10
122.833374050608
 20
442.0777816204256
 30
0.0
 10
122.3877554606986
 20
442.1341485315734
 30
0.0
 10
121.9501580193199
 20
442.2131139538919
 30
0.0
 10
121.5288100044717
 20
442.3127068282988
 30
0.0
 10
121.1207209318645
 20
442.4341749751471
 30
0.0
 10
120.7360811923034
 20
442.5739133797059
 30
0.0
 10
120.369798702684
 20
442.7344397765767
 30
0.0
 10
120.0330749815474
 20
442.9101869286438
 30
0.0
 10
119.7196557060824
 20
443.105229528689
 30
0.0
 10
119.4405482866488
 20
443.3120893159784
 30
0.0
 10
119.1895460625542
 20
443.5362071351684
 30
0.0
 10
118.9762574632884
 20
443.7688833045104
 30
0.0
 10
118.7956602000265
 20
444.015891500304
 30
0.0
 10
118.6553810986346
 20
444.2687308484935
 30
0.0
 10
118.5516418007996
 20
444.5315017661441
 30
0.0
 10
118.4911552317034
 20
444.7974065085863
 30
0.0
 10
118.4672091260911
 20
445.0673480006501
 30
0.0
 10
118.4869217861781
 20
445.2445179639785
 30
0.0
 10
118.4967781162216
 20
445.3331029456426
 30
0.0
 11
118.4967781162216
 21
445.3331029456426
 31
0.0
 11
118.5583549979025
 21
445.6007360904058
 31
0.0
 11
118.6579555738945
 21
445.8563186444463
 31
0.0
 11
118.8009082333822
 21
446.1150600899277
 31
0.0
 11
118.9743574919424
 21
446.3539115417256
 31
0.0
 11
119.1934151374315
 21
446.5941639155547
 31
0.0
 11
119.4352001940701
 21
446.811019619544
 31
0.0
 11
119.7224271143574
 21
447.0249632309988
 31
0.0
 11
120.0260306838453
 21
447.2145159372024
 31
0.0
 11
120.3717429290013
 21
447.3957541226246
 31
0.0
 11
120.7289708787518
 21
447.5527147022644
 31
0.0
 11
121.1220349990164
 21
447.6960814545917
 31
0.0
 11
121.5228861165609
 21
447.8156440510692
 31
0.0
 11
121.950971087314
 21
447.9172104409498
 31
0.0
 11
122.3838731827416
 21
447.9954530202717
 31
0.0
 11
122.8337628017127
 21
448.0525906370247
 31
0.0
 11
123.2859549596801
 21
448.0867346139235
 31
0.0
 11
123.7439166509655
 21
448.0981735470601
 31
0.0
 11
124.201878342251
 21
448.0867346139235
 31
0.0
 11
124.6540705002184
 21
448.0525906370248
 31
0.0
 11
125.1039601191895
 21
447.9954530202717
 31
0.0
 11
125.5368622146171
 21
447.9172104409498
 31
0.0
 11
125.9649471853702
 21
447.8156440510692
 31
0.0
 11
126.3657983029148
 21
447.6960814545917
 31
0.0
 11
126.7588624231794
 21
447.5527147022643
 31
0.0
 11
127.1160903729299
 21
447.3957541226246
 31
0.0
 11
127.4618026180859
 21
447.2145159372024
 31
0.0
 11
127.7654061875738
 21
447.0249632309988
 31
0.0
 11
128.0526331078611
 21
446.8110196195441
 31
0.0
 11
128.2944181644997
 21
446.5941639155548
 31
0.0
 11
128.5134758099887
 21
446.3539115417256
 31
0.0
 11
128.686925068549
 21
446.1150600899277
 31
0.0
 11
128.8298777280367
 21
445.8563186444463
 31
0.0
 11
128.9294783040287
 21
445.6007360904058
 31
0.0
 11
128.9910551857096
 21
445.3331029456426
 31
0.0
 11
129.0117435273924
 21
445.0670846338147
 31
0.0
 11
128.9910551857096
 21
444.8010663219866
 31
0.0
 11
128.9294783040287
 21
444.5334331772235
 31
0.0
 11
128.8298777280367
 21
444.2778506231829
 31
0.0
 11
128.686925068549
 21
444.0191091777016
 31
0.0
 11
128.5134758099888
 21
443.7802577259037
 31
0.0
 11
128.2944181644997
 21
443.5400053520746
 31
0.0
 11
128.0526331078611
 21
443.3231496480852
 31
0.0
 11
127.7654061875738
 21
443.1092060366305
 31
0.0
 11
127.4618026180859
 21
442.9196533304269
 31
0.0
 11
127.1160903729299
 21
442.7384151450047
 31
0.0
 11
126.7588624231794
 21
442.5814545653649
 31
0.0
 11
126.3657983029147
 21
442.4380878130377
 31
0.0
 11
125.9649471853703
 21
442.31852521656
 31
0.0
 11
125.5368622146171
 21
442.2169588266794
 31
0.0
 11
125.1039601191895
 21
442.1387162473576
 31
0.0
 11
124.6540705002184
 21
442.0815786306045
 31
0.0
 11
124.201878342251
 21
442.0474346537058
 31
0.0
 11
123.7439166509655
 21
442.0359957205692
 31
0.0
 11
123.2859549596801
 21
442.0474346537059
 31
0.0
 11
122.8337628017127
 21
442.0815786306045
 31
0.0
 11
122.3838731827416
 21
442.1387162473576
 31
0.0
 11
121.950971087314
 21
442.2169588266794
 31
0.0
 11
121.5228861165609
 21
442.31852521656
 31
0.0
 11
121.1220349990164
 21
442.4380878130377
 31
0.0
 11
120.7289708787518
 21
442.5814545653649
 31
0.0
 11
120.3717429290013
 21
442.7384151450046
 31
0.0
 11
120.0260306838453
 21
442.9196533304269
 31
0.0
 11
119.7224271143575
 21
443.1092060366305
 31
0.0
 11
119.4352001940701
 21
443.3231496480852
 31
0.0
 11
119.1934151374315
 21
443.5400053520745
 31
0.0
 11
118.9743574919425
 21
443.7802577259037
 31
0.0
 11
118.8009082333822
 21
444.0191091777015
 31
0.0
 11
118.6579555738945
 21
444.2778506231829
 31
0.0
 11
118.5583549979025
 21
444.5334331772235
 31
0.0
 11
118.4967781162216
 21
444.8010663219866
 31
0.0
 11
118.4760897745388
 21
445.0670846338147
 31
0.0
 11
118.4967781162216
 21
445.3331029456426
 31
0.0
  0
SPLINE
  5
188
330
3F
100
AcDbEntity
  8
1
  6
Continuous
 62
     7
100
AcDbSpline
210
0.0
220
0.0
230
1.0
 70
    11
 71
     3
 72
    79
 73
    75
 74
    73
 42
0.0000000001
 43
0.0000000001
 44
0.00000001
 40
0.0
 40
0.0
 40
0.0
 40
0.0
 40
0.417749483723052
 40
0.8354735898768841
 40
1.257102242748661
 40
1.678685433286958
 40
2.10618222795284
 40
2.533622015228069
 40
2.968207108475316
 40
3.402732685954758
 40
3.844736565188287
 40
4.286685938414974
 40
4.73555023254495
 40
5.184370276578695
 40
5.638750348182358
 40
6.093099590943403
 40
6.551041840695023
 40
7.008968337267085
 40
7.46813616008938
 40
7.927303982911704
 40
8.385230479483752
 40
8.843172729235405
 40
9.297521971996435
 40
9.751902043600024
 40
10.20072208763374
 40
10.64958638176377
 40
11.09153575499049
 40
11.53353963422401
 40
11.96806521170345
 40
12.40265030495073
 40
12.83009009222599
 40
13.25758688689188
 40
13.67917007743013
 40
14.10079873030191
 40
14.51852283645576
 40
14.93627232017881
 40
15.35265728301934
 40
15.76904224585987
 40
16.18679172958291
 40
16.60451583573681
 40
17.02614448860851
 40
17.4477276791468
 40
17.87522447381278
 40
18.30266426108803
 40
18.73724935433532
 40
19.17177493181476
 40
19.61377881104826
 40
20.05572818427492
 40
20.50459247840483
 40
20.95341252243858
 40
21.40779259404223
 40
21.86214183680322
 40
22.32008408655483
 40
22.77801058312694
 40
23.2371784059493
 40
23.69634622877164
 40
24.15427272534373
 40
24.6122149750953
 40
25.06656421785626
 40
25.52094428945994
 40
25.9697643334937
 40
26.41862862762366
 40
26.86057800085031
 40
27.3025818800839
 40
27.73710745756342
 40
28.17169255081062
 40
28.59913233808584
 40
29.02662913275178
 40
29.44821232329008
 40
29.86984097616178
 40
30.28756508231555
 40
30.70531456603866
 40
31.12169952887919
 40
31.53808449171972
 40
31.53808449171972
 40
31.53808449171972
 40
31.53808449171972
 10
118.4962407061022
 20
264.4416529936632
 30
0.0
 10
118.5134850202548
 20
264.3033644143096
 30
0.0
 10
118.5479726009972
 20
264.0267956563978
 30
0.0
 10
118.6504509124331
 20
263.6194867180905
 30
0.0
 10
118.7883920323689
 20
263.2219392591379
 30
0.0
 10
118.965514941559
 20
262.8364465940276
 30
0.0
 10
119.1780959248636
 20
262.4671679549027
 30
0.0
 10
119.4262808980775
 20
262.1154935341339
 30
0.0
 10
119.7063457418513
 20
261.7855773456606
 30
0.0
 10
120.0180298416867
 20
261.4784292651432
 30
0.0
 10
120.3569321332985
 20
261.1977493449954
 30
0.0
 10
120.7225210666105
 20
260.9443926075604
 30
0.0
 10
121.1099526216621
 20
260.7213133975326
 30
0.0
 10
121.5182598363521
 20
260.5293299169962
 30
0.0
 10
121.942517434093
 20
260.3704949651788
 30
0.0
 10
122.3811204954496
 20
260.2455853595192
 30
0.0
 10
122.8294298744947
 20
260.1557417294102
 30
0.0
 10
123.2850443641938
 20
260.1015787163964
 30
0.0
 10
123.7439166509645
 20
260.0834408944526
 30
0.0
 10
124.2027889377438
 20
260.1015787163959
 30
0.0
 10
124.6584034274169
 20
260.1557417294121
 30
0.0
 10
125.1067128065568
 20
260.2455853595119
 30
0.0
 10
125.5453158675628
 20
260.3704949652052
 30
0.0
 10
125.9695734666049
 20
260.5293299168967
 30
0.0
 10
126.3778806764954
 20
260.7213133978984
 30
0.0
 10
126.7653122493223
 20
260.9443926062039
 30
0.0
 10
127.1309011172719
 20
261.1977493499715
 30
0.0
 10
127.4698036506825
 20
261.4784292466933
 30
0.0
 10
127.7814868626683
 20
261.7855774132266
 30
0.0
 10
128.061554990418
 20
262.1154932835447
 30
0.0
 10
128.3097278995234
 20
262.4671688730984
 30
0.0
 10
128.5223535490303
 20
262.8364431849089
 30
0.0
 10
128.6993119540095
 20
263.2219517873813
 30
0.0
 10
128.8378633951492
 20
263.6194401176955
 30
0.0
 10
128.9380839616881
 20
264.0269677889926
 30
0.0
 10
128.9981605130258
 20
264.4405595286406
 30
0.0
 10
129.0185239246725
 20
264.8575500689556
 30
0.0
 10
128.9981605130258
 20
265.2745406092708
 30
0.0
 10
128.938083961688
 20
265.6881323489188
 30
0.0
 10
128.8378633951493
 20
266.0956600202158
 30
0.0
 10
128.6993119540094
 20
266.4931483505301
 30
0.0
 10
128.5223535490303
 20
266.8786569530023
 30
0.0
 10
128.3097278995234
 20
267.2479312648131
 30
0.0
 10
128.061554990418
 20
267.5996068543667
 30
0.0
 10
127.7814868626684
 20
267.9295227246851
 30
0.0
 10
127.4698036506825
 20
268.2366708912181
 30
0.0
 10
127.130901117272
 20
268.5173507879401
 30
0.0
 10
126.7653122493224
 20
268.7707075317074
 30
0.0
 10
126.3778806764954
 20
268.9937867400129
 30
0.0
 10
125.9695734666049
 20
269.1857702210145
 30
0.0
 10
125.5453158675629
 20
269.344605172706
 30
0.0
 10
125.1067128065569
 20
269.4695147783994
 30
0.0
 10
124.6584034274171
 20
269.5593584084991
 30
0.0
 10
124.2027889377435
 20
269.6135214215155
 30
0.0
 10
123.7439166509658
 20
269.6316592434587
 30
0.0
 10
123.2850443641887
 20
269.6135214215155
 30
0.0
 10
122.8294298745133
 20
269.559358408499
 30
0.0
 10
122.3811204953803
 20
269.4695147783999
 30
0.0
 10
121.9425174343492
 20
269.3446051727041
 30
0.0
 10
121.5182598354004
 20
269.1857702210215
 30
0.0
 10
121.1099526251659
 20
268.9937867399868
 30
0.0
 10
120.7225210536131
 20
268.7707075318047
 30
0.0
 10
120.3569321809783
 20
268.5173507875833
 30
0.0
 10
120.0180296648994
 20
268.2366708925405
 30
0.0
 10
119.7063463892741
 20
267.9295227198418
 30
0.0
 10
119.4262784969144
 20
267.5996068723284
 30
0.0
 10
119.1781047230737
 20
267.2479311989982
 30
0.0
 10
118.9654822751666
 20
266.8786571973624
 30
0.0
 10
118.788512078796
 20
266.4931474525262
 30
0.0
 10
118.650004384477
 20
266.0956633604556
 30
0.0
 10
118.5496219864951
 20
265.6881200107374
 30
0.0
 10
118.4901476037824
 20
265.2745866098963
 30
0.0
 10
118.4675437504613
 20
264.857379012948
 30
0.0
 10
118.4866750542219
 20
264.5802283334247
 30
0.0
 10
118.4962407061022
 20
264.4416529936632
 30
0.0
 11
118.4962407061022
 21
264.4416529936632
 31
0.0
 11
118.5563791055222
 21
264.0282548755421
 31
0.0
 11
118.6559278421498
 21
263.6225659825491
 31
0.0
 11
118.7947203561413
 21
263.2244361557559
 31
0.0
 11
118.9703722334745
 21
262.8411884492608
 31
0.0
 11
119.1836485266303
 21
262.4706931966227
 31
0.0
 11
119.4298959858858
 21
262.1213123720829
 31
0.0
 11
119.7110778342256
 21
261.7899500757411
 31
0.0
 11
120.0204128740896
 21
261.4847873149131
 31
0.0
 11
120.3607603053953
 21
261.2027748058624
 31
0.0
 11
120.7238933165071
 21
260.9508746972153
 31
0.0
 11
121.1128340075908
 21
260.7268115512852
 31
0.0
 11
121.5189291013202
 21
260.5356932455808
 31
0.0
 11
121.944437952786
 21
260.3763085951442
 31
0.0
 11
122.3813823601207
 21
260.2517581262712
 31
0.0
 11
122.8303889654201
 21
260.1617349486716
 31
0.0
 11
123.2851068391954
 21
260.1076208882806
 31
0.0
 11
123.7439166509659
 21
260.0894922882656
 31
0.0
 11
124.2027264627364
 21
260.1076208882806
 31
0.0
 11
124.6574443365117
 21
260.1617349486716
 31
0.0
 11
125.1064509418111
 21
260.2517581262711
 31
0.0
 11
125.5433953491458
 21
260.376308595144
 31
0.0
 11
125.9689042006115
 21
260.5356932455807
 31
0.0
 11
126.3749992943409
 21
260.7268115512852
 31
0.0
 11
126.7639399854247
 21
260.9508746972153
 31
0.0
 11
127.1270729965364
 21
261.2027748058624
 31
0.0
 11
127.4674204278421
 21
261.4847873149131
 31
0.0
 11
127.7767554677062
 21
261.7899500757411
 31
0.0
 11
128.057937316046
 21
262.1213123720829
 31
0.0
 11
128.3041847753015
 21
262.4706931966227
 31
0.0
 11
128.5174610684573
 21
262.8411884492608
 31
0.0
 11
128.6931129457905
 21
263.2244361557559
 31
0.0
 11
128.831905459782
 21
263.6225659825491
 31
0.0
 11
128.9314541964096
 21
264.0282548755421
 31
0.0
 11
128.9915925958296
 21
264.4416529936632
 31
0.0
 11
129.0117435273927
 21
264.8575500689557
 31
0.0
 11
128.9915925958296
 21
265.2734471442482
 31
0.0
 11
128.9314541964096
 21
265.6868452623693
 31
0.0
 11
128.8319054597821
 21
266.0925341553623
 31
0.0
 11
128.6931129457905
 21
266.4906639821554
 31
0.0
 11
128.5174610684573
 21
266.8739116886505
 31
0.0
 11
128.3041847753015
 21
267.2444069412887
 31
0.0
 11
128.057937316046
 21
267.5937877658286
 31
0.0
 11
127.7767554677062
 21
267.9251500621704
 31
0.0
 11
127.4674204278422
 21
268.2303128229984
 31
0.0
 11
127.1270729965365
 21
268.5123253320491
 31
0.0
 11
126.7639399854247
 21
268.764225440696
 31
0.0
 11
126.374999294341
 21
268.988288586626
 31
0.0
 11
125.9689042006116
 21
269.1794068923306
 31
0.0
 11
125.5433953491458
 21
269.3387915427674
 31
0.0
 11
125.1064509418112
 21
269.4633420116402
 31
0.0
 11
124.6574443365118
 21
269.5533651892397
 31
0.0
 11
124.2027264627364
 21
269.6074792496307
 31
0.0
 11
123.7439166509659
 21
269.6256078496458
 31
0.0
 11
123.2851068391954
 21
269.6074792496307
 31
0.0
 11
122.83038896542
 21
269.5533651892397
 31
0.0
 11
122.3813823601207
 21
269.4633420116402
 31
0.0
 11
121.9444379527861
 21
269.3387915427674
 31
0.0
 11
121.5189291013203
 21
269.1794068923306
 31
0.0
 11
121.1128340075909
 21
268.9882885866261
 31
0.0
 11
120.7238933165071
 21
268.764225440696
 31
0.0
 11
120.3607603053953
 21
268.5123253320491
 31
0.0
 11
120.0204128740896
 21
268.2303128229983
 31
0.0
 11
119.7110778342256
 21
267.9251500621702
 31
0.0
 11
119.4298959858858
 21
267.5937877658284
 31
0.0
 11
119.1836485266303
 21
267.2444069412886
 31
0.0
 11
118.9703722334745
 21
266.8739116886505
 31
0.0
 11
118.7947203561413
 21
266.4906639821554
 31
0.0
 11
118.6559278421498
 21
266.0925341553623
 31
0.0
 11
118.5563791055223
 21
265.6868452623693
 31
0.0
 11
118.4962407061023
 21
265.2734471442482
 31
0.0
 11
118.4760897745391
 21
264.8575500689557
 31
0.0
 11
118.4962407061022
 21
264.4416529936632
 31
0.0
  0
SPLINE
  5
189
330
3F
100
AcDbEntity
  8
1
  6
Continuous
 62
     7
100
AcDbSpline
210
0.0
220
0.0
230
1.0
 70
    11
 71
     3
 72
    79
 73
    75
 74
    73
 42
0.0000000001
 43
0.0000000001
 44
0.00000001
 40
0.0
 40
0.0
 40
0.0
 40
0.0
 40
0.4177494837230801
 40
0.8354735898769122
 40
1.257102242748689
 40
1.678685433286986
 40
2.106182227952966
 40
2.533622015228196
 40
2.968207108475442
 40
3.402732685954884
 40
3.844736565188413
 40
4.2866859384151
 40
4.735550232545048
 40
5.184370276578841
 40
5.638750348182484
 40
6.093099590943497
 40
6.551041840695106
 40
7.008968337267168
 40
7.468136160089466
 40
7.92730398291179
 40
8.385230479483838
 40
8.843172729235491
 40
9.29752197199652
 40
9.75190204360009
 40
10.20072208763378
 40
10.64958638176381
 40
11.09153575499053
 40
11.53353963422405
 40
11.96806521170349
 40
12.40265030495082
 40
12.83009009222612
 40
13.25758688689201
 40
13.67917007743031
 40
14.10079873030207
 40
14.51852283645589
 40
14.93627232017896
 40
15.35265728301947
 40
15.76904224586002
 40
16.18679172958313
 40
16.60451583573694
 40
17.02614448860874
 40
17.44772767914699
 40
17.87522447381289
 40
18.30266426108812
 40
18.73724935433537
 40
19.17177493181481
 40
19.61377881104835
 40
20.05572818427505
 40
20.50459247840505
 40
20.95341252243877
 40
21.40779259404238
 40
21.86214183680337
 40
22.32008408655499
 40
22.77801058312709
 40
23.23717840594945
 40
23.6963462287718
 40
24.15427272534388
 40
24.61221497509545
 40
25.06656421785641
 40
25.52094428946008
 40
25.96976433349385
 40
26.41862862762383
 40
26.86057800085051
 40
27.30258188008404
 40
27.73710745756348
 40
28.17169255081074
 40
28.59913233808596
 40
29.02662913275195
 40
29.44821232329025
 40
29.8698409761619
 40
30.28756508231569
 40
30.70531456603878
 40
31.12169952887934
 40
31.53808449171987
 40
31.53808449171987
 40
31.53808449171987
 40
31.53808449171987
 10
118.4962407061022
 20
253.773447144249
 30
0.0
 10
118.5134850202548
 20
253.9117357236027
 30
0.0
 10
118.5479726009972
 20
254.1883044815145
 30
0.0
 10
118.6504509124331
 20
254.5956134198216
 30
0.0
 10
118.7883920323689
 20
254.9931608787744
 30
0.0
 10
118.965514941559
 20
255.3786535438846
 30
0.0
 10
119.1780959248636
 20
255.7479321830097
 30
0.0
 10
119.4262808980775
 20
256.0996066037783
 30
0.0
 10
119.7063457418513
 20
256.4295227922519
 30
0.0
 10
120.0180298416867
 20
256.7366708727691
 30
0.0
 10
120.3569321332985
 20
257.0173507929167
 30
0.0
 10
120.7225210666104
 20
257.2707075303521
 30
0.0
 10
121.1099526216621
 20
257.4937867403796
 30
0.0
 10
121.518259836352
 20
257.6857702209163
 30
0.0
 10
121.942517434093
 20
257.8446051727335
 30
0.0
 10
122.3811204954496
 20
257.9695147783929
 30
0.0
 10
122.8294298744947
 20
258.059358408502
 30
0.0
 10
123.2850443641938
 20
258.1135214215157
 30
0.0
 10
123.7439166509645
 20
258.1316592434597
 30
0.0
 10
124.2027889377438
 20
258.1135214215163
 30
0.0
 10
124.6584034274169
 20
258.0593584085001
 30
0.0
 10
125.1067128065569
 20
257.9695147784003
 30
0.0
 10
125.5453158675629
 20
257.8446051727069
 30
0.0
 10
125.9695734666049
 20
257.6857702210155
 30
0.0
 10
126.3778806764954
 20
257.4937867400141
 30
0.0
 10
126.7653122493223
 20
257.2707075317084
 30
0.0
 10
127.1309011172719
 20
257.0173507879409
 30
0.0
 10
127.4698036506825
 20
256.736670891219
 30
0.0
 10
127.7814868626683
 20
256.4295227246858
 30
0.0
 10
128.061554990418
 20
256.0996068543676
 30
0.0
 10
128.3097278995234
 20
255.7479312648138
 30
0.0
 10
128.5223535490303
 20
255.3786569530032
 30
0.0
 10
128.6993119540095
 20
254.9931483505309
 30
0.0
 10
128.8378633951492
 20
254.5956600202167
 30
0.0
 10
128.9380839616881
 20
254.1881323489196
 30
0.0
 10
128.9981605130258
 20
253.7745406092716
 30
0.0
 10
129.0185239246725
 20
253.3575500689566
 30
0.0
 10
128.9981605130258
 20
252.9405595286413
 30
0.0
 10
128.938083961688
 20
252.5269677889934
 30
0.0
 10
128.8378633951492
 20
252.1194401176962
 30
0.0
 10
128.6993119540094
 20
251.721951787382
 30
0.0
 10
128.5223535490303
 20
251.3364431849098
 30
0.0
 10
128.3097278995233
 20
250.9671688730992
 30
0.0
 10
128.061554990418
 20
250.6154932835455
 30
0.0
 10
127.7814868626684
 20
250.2855774132274
 30
0.0
 10
127.4698036506826
 20
249.9784292466942
 30
0.0
 10
127.1309011172719
 20
249.6977493499721
 30
0.0
 10
126.7653122493224
 20
249.4443926062048
 30
0.0
 10
126.3778806764955
 20
249.2213133978991
 30
0.0
 10
125.9695734666049
 20
249.0293299168976
 30
0.0
 10
125.5453158675629
 20
248.8704949652062
 30
0.0
 10
125.1067128065569
 20
248.7455853595128
 30
0.0
 10
124.6584034274171
 20
248.6557417294129
 30
0.0
 10
124.2027889377435
 20
248.6015787163968
 30
0.0
 10
123.7439166509658
 20
248.5834408944534
 30
0.0
 10
123.2850443641888
 20
248.6015787163968
 30
0.0
 10
122.8294298745133
 20
248.6557417294131
 30
0.0
 10
122.3811204953803
 20
248.7455853595123
 30
0.0
 10
121.9425174343492
 20
248.8704949652081
 30
0.0
 10
121.5182598354004
 20
249.0293299168906
 30
0.0
 10
121.1099526251659
 20
249.2213133979254
 30
0.0
 10
120.7225210536131
 20
249.4443926061076
 30
0.0
 10
120.3569321809783
 20
249.6977493503289
 30
0.0
 10
120.0180296648995
 20
249.9784292453717
 30
0.0
 10
119.706346389274
 20
250.2855774180703
 30
0.0
 10
119.4262784969144
 20
250.6154932655837
 30
0.0
 10
119.1781047230736
 20
250.967168938914
 30
0.0
 10
118.9654822751666
 20
251.3364429405498
 30
0.0
 10
118.788512078796
 20
251.721952685386
 30
0.0
 10
118.650004384477
 20
252.1194367774566
 30
0.0
 10
118.5496219864951
 20
252.5269801271749
 30
0.0
 10
118.4901476037824
 20
252.9405135280158
 30
0.0
 10
118.4675437504613
 20
253.3577211249642
 30
0.0
 10
118.4866750542219
 20
253.6348718044874
 30
0.0
 10
118.4962407061022
 20
253.773447144249
 30
0.0
 11
118.4962407061022
 21
253.773447144249
 31
0.0
 11
118.5563791055222
 21
254.1868452623701
 31
0.0
 11
118.6559278421498
 21
254.5925341553631
 31
0.0
 11
118.7947203561413
 21
254.9906639821563
 31
0.0
 11
118.9703722334745
 21
255.3739116886515
 31
0.0
 11
119.1836485266303
 21
255.7444069412896
 31
0.0
 11
119.4298959858858
 21
256.0937877658294
 31
0.0
 11
119.7110778342256
 21
256.4251500621712
 31
0.0
 11
120.0204128740896
 21
256.7303128229992
 31
0.0
 11
120.3607603053953
 21
257.01232533205
 31
0.0
 11
120.7238933165071
 21
257.264225440697
 31
0.0
 11
121.1128340075908
 21
257.4882885866271
 31
0.0
 11
121.5189291013202
 21
257.6794068923316
 31
0.0
 11
121.944437952786
 21
257.8387915427682
 31
0.0
 11
122.3813823601207
 21
257.963342011641
 31
0.0
 11
122.8303889654201
 21
258.0533651892405
 31
0.0
 11
123.2851068391954
 21
258.1074792496315
 31
0.0
 11
123.7439166509659
 21
258.1256078496466
 31
0.0
 11
124.2027264627364
 21
258.1074792496316
 31
0.0
 11
124.6574443365117
 21
258.0533651892406
 31
0.0
 11
125.1064509418111
 21
257.9633420116411
 31
0.0
 11
125.5433953491458
 21
257.8387915427682
 31
0.0
 11
125.9689042006115
 21
257.6794068923316
 31
0.0
 11
126.3749992943409
 21
257.4882885866272
 31
0.0
 11
126.7639399854247
 21
257.264225440697
 31
0.0
 11
127.1270729965364
 21
257.01232533205
 31
0.0
 11
127.4674204278421
 21
256.7303128229992
 31
0.0
 11
127.7767554677062
 21
256.4251500621712
 31
0.0
 11
128.057937316046
 21
256.0937877658294
 31
0.0
 11
128.3041847753015
 21
255.7444069412895
 31
0.0
 11
128.5174610684573
 21
255.3739116886514
 31
0.0
 11
128.6931129457905
 21
254.9906639821563
 31
0.0
 11
128.831905459782
 21
254.5925341553631
 31
0.0
 11
128.9314541964096
 21
254.1868452623701
 31
0.0
 11
128.9915925958296
 21
253.773447144249
 31
0.0
 11
129.0117435273927
 21
253.3575500689565
 31
0.0
 11
128.9915925958296
 21
252.941652993664
 31
0.0
 11
128.9314541964096
 21
252.5282548755428
 31
0.0
 11
128.8319054597821
 21
252.1225659825499
 31
0.0
 11
128.6931129457905
 21
251.7244361557567
 31
0.0
 11
128.5174610684573
 21
251.3411884492616
 31
0.0
 11
128.3041847753015
 21
250.9706931966236
 31
0.0
 11
128.057937316046
 21
250.6213123720837
 31
0.0
 11
127.7767554677062
 21
250.2899500757419
 31
0.0
 11
127.4674204278422
 21
249.9847873149139
 31
0.0
 11
127.1270729965365
 21
249.7027748058632
 31
0.0
 11
126.7639399854247
 21
249.4508746972162
 31
0.0
 11
126.374999294341
 21
249.226811551286
 31
0.0
 11
125.9689042006116
 21
249.0356932455815
 31
0.0
 11
125.5433953491458
 21
248.8763085951448
 31
0.0
 11
125.1064509418112
 21
248.751758126272
 31
0.0
 11
124.6574443365118
 21
248.6617349486725
 31
0.0
 11
124.2027264627364
 21
248.6076208882815
 31
0.0
 11
123.7439166509659
 21
248.5894922882665
 31
0.0
 11
123.2851068391954
 21
248.6076208882815
 31
0.0
 11
122.83038896542
 21
248.6617349486725
 31
0.0
 11
122.3813823601207
 21
248.751758126272
 31
0.0
 11
121.9444379527861
 21
248.8763085951448
 31
0.0
 11
121.5189291013203
 21
249.0356932455816
 31
0.0
 11
121.1128340075909
 21
249.2268115512861
 31
0.0
 11
120.7238933165071
 21
249.4508746972162
 31
0.0
 11
120.3607603053953
 21
249.7027748058632
 31
0.0
 11
120.0204128740896
 21
249.9847873149139
 31
0.0
 11
119.7110778342256
 21
250.2899500757419
 31
0.0
 11
119.4298959858858
 21
250.6213123720837
 31
0.0
 11
119.1836485266303
 21
250.9706931966235
 31
0.0
 11
118.9703722334745
 21
251.3411884492617
 31
0.0
 11
118.7947203561413
 21
251.7244361557568
 31
0.0
 11
118.6559278421498
 21
252.1225659825499
 31
0.0
 11
118.5563791055223
 21
252.5282548755428
 31
0.0
 11
118.4962407061023
 21
252.941652993664
 31
0.0
 11
118.4760897745391
 21
253.3575500689565
 31
0.0
 11
118.4962407061022
 21
253.773447144249
 31
0.0
  0
ENDBLK
  5
41
330
3F
100
AcDbEntity
  8
0
100
AcDbBlockEnd
  0
BLOCK
  5
43
330
42
100
AcDbEntity
  8
0
100
AcDbBlockBegin
  2
36-45-M11
 70
     0
 71
     0
 10
611.27489921846
 20
562.510124155368
 30
0.0
  3
36-45-M11
  1

  0
LINE
  5
18A
330
42
100
AcDbEntity
  8
1
  6
Continuous
 62
     7
100
AcDbLine
 10
147.7718209101466
 20
431.6093507955562
 30
0.0
 11
158.7219359193568
 21
431.6095380770627
 31
0.0
  0
LINE
  5
18B
330
42
100
AcDbEntity
  8
1
  6
Continuous
 62
     7
100
AcDbLine
 10
157.9975198037215
 20
394.108275681777
 30
0.0
 11
157.9974941489901
 21
395.6082756815577
 31
0.0
  0
LINE
  5
18C
330
42
100
AcDbEntity
  8
1
  6
Continuous
 62
     7
100
AcDbLine
 10
156.9975369070221
 20
393.108258578769
 30
0.0
 11
157.9975198037215
 21
394.108275681777
 31
0.0
  0
LINE
  5
18D
330
42
100
AcDbEntity
  8
1
  6
Continuous
 62
     7
100
AcDbLine
 10
154.1475369074389
 20
393.1082098347793
 30
0.0
 11
154.1474941495533
 21
395.6082098344137
 31
0.0
  0
LINE
  5
18E
330
42
100
AcDbEntity
  8
1
  6
Continuous
 62
     7
100
AcDbLine
 10
156.9975369070221
 20
393.108258578769
 30
0.0
 11
154.1475369074389
 21
393.1082098347793
 31
0.0
  0
LINE
  5
18F
330
42
100
AcDbEntity
  8
1
  6
Continuous
 62
     7
100
AcDbLine
 10
152.3475369077022
 20
393.1081790491016
 30
0.0
 11
149.497536908119
 21
393.1081303051119
 31
0.0
  0
LINE
  5
190
330
42
100
AcDbEntity
  8
1
  6
Continuous
 62
     7
100
AcDbLine
 10
148.497519805111
 20
394.1081132018114
 30
0.0
 11
149.497536908119
 21
393.1081303051119
 31
0.0
  0
LINE
  5
191
330
42
100
AcDbEntity
  8
1
  6
Continuous
 62
     7
100
AcDbLine
 10
148.4974941503796
 20
395.6081132015921
 30
0.0
 11
148.497519805111
 21
394.1081132018114
 31
0.0
  0
LINE
  5
192
330
42
100
AcDbEntity
  8
1
  6
Continuous
 62
     7
100
AcDbLine
 10
152.3474941498165
 20
395.6081790487361
 30
0.0
 11
152.3475198056741
 21
394.1081132018114
 31
0.0
  0
LINE
  5
193
330
42
100
AcDbEntity
  8
1
  6
Continuous
 62
     7
100
AcDbLine
 10
228.2468827394406
 20
255.3555817370248
 30
0.0
 11
229.2468998424487
 21
254.3555988403253
 31
0.0
  0
LINE
  5
194
330
42
100
AcDbEntity
  8
1
  6
Continuous
 62
     7
100
AcDbLine
 10
229.2468998424487
 20
254.3555988403253
 30
0.0
 11
230.7468998422294
 21
254.3556244950567
 31
0.0
  0
LINE
  5
195
330
42
100
AcDbEntity
  8
1
  6
Continuous
 62
     7
100
AcDbLine
 10
148.497519805111
 20
394.1081132018114
 30
0.0
 11
152.3475198056741
 21
394.1081132018114
 31
0.0
  0
LINE
  5
196
330
42
100
AcDbEntity
  8
1
  6
Continuous
 62
     7
100
AcDbLine
 10
152.3475198056741
 20
394.1081132018114
 30
0.0
 11
152.3475369077022
 21
393.1081790491016
 31
0.0
  0
LINE
  5
197
330
42
100
AcDbEntity
  8
1
  6
Continuous
 62
     7
100
AcDbLine
 10
157.9975198037215
 20
394.108275681777
 30
0.0
 11
154.1475155284961
 21
394.108275681777
 31
0.0
  0
LINE
  5
198
330
42
100
AcDbEntity
  8
1
  6
Continuous
 62
     7
100
AcDbLine
 10
229.246737362483
 20
263.8555988389358
 30
0.0
 11
229.246737362483
 21
254.3555988403253
 31
0.0
  0
LINE
  5
199
330
42
100
AcDbEntity
  8
1
  6
Continuous
 62
     7
100
AcDbLine
 10
152.3455685750906
 20
263.7715076159327
 30
0.0
 11
152.3455685750906
 21
263.2908502016265
 31
0.0
  0
LINE
  5
19A
330
42
100
AcDbEntity
  8
1
  6
Continuous
 62
     7
100
AcDbLine
 10
154.1455685750906
 20
263.7715076159327
 30
0.0
 11
154.1455685750906
 21
263.2908502016265
 31
0.0
  0
LINE
  5
19B
330
42
100
AcDbEntity
  8
1
  6
Continuous
 62
     7
100
AcDbLine
 10
152.3455685750906
 20
263.2908502016265
 30
0.0
 11
152.3455685750906
 21
254.9242499362857
 31
0.0
  0
LINE
  5
19C
330
42
100
AcDbEntity
  8
1
  6
Continuous
 62
     7
100
AcDbLine
 10
152.3455685750906
 20
254.9242499362857
 30
0.0
 11
152.3455685750906
 21
254.4435925219795
 31
0.0
  0
LINE
  5
19D
330
42
100
AcDbEntity
  8
1
  6
Continuous
 62
     7
100
AcDbLine
 10
154.1455685750906
 20
263.2908502016265
 30
0.0
 11
154.1455685750906
 21
254.9242499362857
 31
0.0
  0
LINE
  5
19E
330
42
100
AcDbEntity
  8
1
  6
Continuous
 62
     7
100
AcDbLine
 10
154.1455685750906
 20
254.9242499362857
 30
0.0
 11
154.1455685750906
 21
254.4435925219795
 31
0.0
  0
LINE
  5
19F
330
42
100
AcDbEntity
  8
1
  6
Continuous
 62
     7
100
AcDbLine
 10
229.2436172917067
 20
263.8555987855729
 30
0.0
 11
228.2468339744344
 21
262.8588154683004
 31
0.0
  0
LINE
  5
1A0
330
42
100
AcDbEntity
  8
1
  6
Continuous
 62
     7
100
AcDbLine
 10
230.7467373622637
 20
263.8556244936672
 30
0.0
 11
229.246737362483
 21
263.8555988389358
 31
0.0
  0
LINE
  5
1A1
330
42
100
AcDbEntity
  8
1
  6
Continuous
 62
     7
100
AcDbLine
 10
228.2468827394406
 20
255.3555817370248
 30
0.0
 11
228.2468339744344
 21
262.8588154683004
 31
0.0
  0
ARC
  5
1A2
330
42
100
AcDbEntity
  8
1
  6
Continuous
 62
     7
100
AcDbCircle
 10
153.2455685750906
 20
259.1075500689561
 30
0.0
 40
4.249999999999958
100
AcDbArc
 50
-77.77421140684233
 51
77.7742114068424
  0
ARC
  5
1A3
330
42
100
AcDbEntity
  8
1
  6
Continuous
 62
     7
100
AcDbCircle
 10
153.2455685750906
 20
259.1075500689561
 30
0.0
 40
4.249999999999986
100
AcDbArc
 50
102.2257885931576
 51
-102.2257885931577
  0
ARC
  5
1A4
330
42
100
AcDbEntity
  8
1
  6
Continuous
 62
     7
100
AcDbCircle
 10
153.2455685750906
 20
259.1075500689561
 30
0.0
 40
4.750000000000022
100
AcDbArc
 50
99.08472028739104
 51
-99.08472028739121
  0
ARC
  5
1A5
330
42
100
AcDbEntity
  8
1
  6
Continuous
 62
     7
100
AcDbCircle
 10
153.2455685750906
 20
259.1075500689561
 30
0.0
 40
4.750000000000022
100
AcDbArc
 50
80.91527971260896
 51
99.08472028739104
  0
ARC
  5
1A6
330
42
100
AcDbEntity
  8
1
  6
Continuous
 62
     7
100
AcDbCircle
 10
153.2455685750906
 20
259.1075500689561
 30
0.0
 40
4.749999999999938
100
AcDbArc
 50
-80.91527971260879
 51
80.91527971260896
  0
ARC
  5
1A7
330
42
100
AcDbEntity
  8
1
  6
Continuous
 62
     7
100
AcDbCircle
 10
153.2455685750906
 20
259.1075500689561
 30
0.0
 40
4.749999999999938
100
AcDbArc
 50
-99.08472028739121
 51
-80.91527971260879
  0
ENDBLK
  5
44
330
42
100
AcDbEntity
  8
0
100
AcDbBlockEnd
  0
BLOCK
  5
46
330
45
100
AcDbEntity
  8
0
100
AcDbBlockBegin
  2
37-1-13
 70
     0
 71
     0
 10
391.7400244652347
 20
167.3063198521851
 30
0.0
  3
37-1-13
  1

  0
LINE
  5
1A8
330
45
100
AcDbEntity
  8
1
  6
Continuous
 62
     7
100
AcDbLine
 10
230.7443185750901
 20
259.1075500689561
 30
0.0
 11
230.7443185750901
 21
253.1075500689561
 31
0.0
  0
LINE
  5
1A9
330
45
100
AcDbEntity
  8
1
  6
Continuous
 62
     7
100
AcDbLine
 10
230.7443185750901
 20
265.1075500689561
 30
0.0
 11
230.7443185750901
 21
259.1075500689561
 31
0.0
  0
LINE
  5
1AA
330
45
100
AcDbEntity
  8
1
  6
Continuous
 62
     7
100
AcDbLine
 10
237.2443185750901
 20
259.1075500689561
 30
0.0
 11
237.24431857509
 21
271.607550068956
 31
0.0
  0
LINE
  5
1AB
330
45
100
AcDbEntity
  8
1
  6
Continuous
 62
     7
100
AcDbLine
 10
237.2443185750901
 20
246.6075500689563
 30
0.0
 11
237.2443185750901
 21
259.1075500689561
 31
0.0
  0
LINE
  5
1AC
330
45
100
AcDbEntity
  8
1
  6
Continuous
 62
     7
100
AcDbLine
 10
244.7443185750901
 20
272.1782642832278
 30
0.0
 11
244.7443185750901
 21
258.4854243386249
 31
0.0
  0
LINE
  5
1AD
330
45
100
AcDbEntity
  8
1
  6
Continuous
 62
     7
100
AcDbLine
 10
244.7443185750901
 20
259.729675799287
 30
0.0
 11
244.7443185750901
 21
246.0368358546847
 31
0.0
  0
LINE
  5
1AE
330
45
100
AcDbEntity
  8
1
  6
Continuous
 62
     7
100
AcDbLine
 10
163.2455685846757
 20
402.4347031559425
 30
0.0
 11
143.2455685846755
 21
402.4347031559425
 31
0.0
  0
LINE
  5
1AF
330
45
100
AcDbEntity
  8
1
  6
Continuous
 62
     7
100
AcDbLine
 10
166.2455685846755
 20
402.4347031559425
 30
0.0
 11
166.2455685846755
 21
409.6069444144185
 31
0.0
  0
LINE
  5
1B0
330
45
100
AcDbEntity
  8
1
  6
Continuous
 62
     7
100
AcDbLine
 10
140.2455685846757
 20
409.6069444144185
 30
0.0
 11
140.2455685846757
 21
402.4347031559425
 31
0.0
  0
LINE
  5
1B1
330
45
100
AcDbEntity
  8
1
  6
Continuous
 62
     7
100
AcDbLine
 10
166.2455685846755
 20
409.6069444144185
 30
0.0
 11
140.2455685846757
 21
409.6069444144185
 31
0.0
  0
LINE
  5
1B2
330
45
100
AcDbEntity
  8
1
  6
Continuous
 62
     7
100
AcDbLine
 10
159.2455685846758
 20
395.6069444144185
 30
0.0
 11
147.2455685846756
 21
395.6069444144185
 31
0.0
  0
LINE
  5
1B3
330
45
100
AcDbEntity
  8
1
  6
Continuous
 62
     7
100
AcDbLine
 10
152.3077174404124
 20
244.6379116750921
 30
0.0
 11
146.7455685750906
 21
247.8492198197584
 31
0.0
  0
LINE
  5
1B4
330
45
100
AcDbEntity
  8
1
  6
Continuous
 62
     7
100
AcDbLine
 10
140.2455685750906
 20
252.6849337796235
 30
0.0
 11
140.2455685750906
 21
259.1075500689561
 31
0.0
  0
LINE
  5
1B5
330
45
100
AcDbEntity
  8
1
  6
Continuous
 62
     7
100
AcDbLine
 10
141.1834197097689
 20
267.1545721734875
 30
0.0
 11
146.7455685750906
 21
270.3658803181538
 31
0.0
  0
LINE
  5
1B6
330
45
100
AcDbEntity
  8
1
  6
Continuous
 62
     7
100
AcDbLine
 10
154.1834197097689
 20
273.5771884628201
 30
0.0
 11
159.7455685750906
 21
270.3658803181538
 31
0.0
  0
LINE
  5
1B7
330
45
100
AcDbEntity
  8
1
  6
Continuous
 62
     7
100
AcDbLine
 10
166.2455685750906
 20
265.5301663582887
 30
0.0
 11
166.2455685750906
 21
259.1075500689561
 31
0.0
  0
LINE
  5
1B8
330
45
100
AcDbEntity
  8
1
  6
Continuous
 62
     7
100
AcDbLine
 10
165.3077174404124
 20
251.0605279644247
 30
0.0
 11
159.7455685750906
 21
247.8492198197584
 31
0.0
  0
LINE
  5
1B9
330
45
100
AcDbEntity
  8
1
  6
Continuous
 62
     7
100
AcDbLine
 10
146.7455685750906
 20
247.8492198197584
 30
0.0
 11
141.1834197097689
 21
251.0605279644247
 31
0.0
  0
LINE
  5
1BA
330
45
100
AcDbEntity
  8
1
  6
Continuous
 62
     7
100
AcDbLine
 10
140.2455685750906
 20
259.1075500689561
 30
0.0
 11
140.2455685750906
 21
265.5301663582887
 31
0.0
  0
LINE
  5
1BB
330
45
100
AcDbEntity
  8
1
  6
Continuous
 62
     7
100
AcDbLine
 10
146.7455685750906
 20
270.3658803181538
 30
0.0
 11
152.3077174404124
 21
273.5771884628201
 31
0.0
  0
LINE
  5
1BC
330
45
100
AcDbEntity
  8
1
  6
Continuous
 62
     7
100
AcDbLine
 10
159.7455685750906
 20
270.3658803181538
 30
0.0
 11
165.3077174404124
 21
267.1545721734875
 31
0.0
  0
LINE
  5
1BD
330
45
100
AcDbEntity
  8
1
  6
Continuous
 62
     7
100
AcDbLine
 10
166.2455685750906
 20
259.1075500689561
 30
0.0
 11
166.2455685750906
 21
252.6849337796235
 31
0.0
  0
LINE
  5
1BE
330
45
100
AcDbEntity
  8
1
  6
Continuous
 62
     7
100
AcDbLine
 10
159.7455685750906
 20
247.8492198197584
 30
0.0
 11
154.1834197097689
 21
244.6379116750921
 31
0.0
  0
ARC
  5
1BF
330
45
100
AcDbEntity
  8
1
  6
Continuous
 62
     7
100
AcDbCircle
 10
217.3378633699752
 20
233.2010948638413
 30
0.0
 40
24.00000000000003
100
AcDbArc
 50
33.95919250009771
 51
56.04080749990241
  0
ARC
  5
1C0
330
45
100
AcDbEntity
  8
1
  6
Continuous
 62
     7
100
AcDbCircle
 10
217.3378633699752
 20
285.0140052740711
 30
0.0
 40
24.00000000000008
100
AcDbArc
 50
-56.04080749990271
 51
-33.95919250009798
  0
ARC
  5
1C1
330
45
100
AcDbEntity
  8
1
  6
Continuous
 62
     7
100
AcDbCircle
 10
241.2443185750901
 20
268.6075500689561
 30
0.0
 40
5.000000000000219
100
AcDbArc
 50
45.57299599919676
 51
143.1301023541571
  0
ARC
  5
1C2
330
45
100
AcDbEntity
  8
1
  6
Continuous
 62
     7
100
AcDbCircle
 10
241.2443185750901
 20
249.6075500689561
 30
0.0
 40
4.999999999999881
100
AcDbArc
 50
-143.1301023541578
 51
-45.57299599919402
  0
ARC
  5
1C3
330
45
100
AcDbEntity
  8
1
  6
Continuous
 62
     7
100
AcDbCircle
 10
179.1520237897905
 20
382.2004892093035
 30
0.0
 40
23.99999999999999
100
AcDbArc
 50
122.5318915177483
 51
123.9591925000978
  0
ARC
  5
1C4
330
45
100
AcDbEntity
  8
1
  6
Continuous
 62
     7
100
AcDbCircle
 10
127.3391133795607
 20
382.2004892093035
 30
0.0
 40
24.00000000000001
100
AcDbArc
 50
33.95919250009765
 51
56.04080749990234
  0
ARC
  5
1C5
330
45
100
AcDbEntity
  8
1
  6
Continuous
 62
     7
100
AcDbCircle
 10
179.1520237897905
 20
382.2004892093035
 30
0.0
 40
24.0000000000001
100
AcDbArc
 50
123.9591925000978
 51
146.0408074999021
  0
ARC
  5
1C6
330
45
100
AcDbEntity
  8
1
  6
Continuous
 62
     7
100
AcDbCircle
 10
127.3391133795607
 20
382.2004892093035
 30
0.0
 40
24.00000000000005
100
AcDbArc
 50
56.04080749990234
 51
57.46810848225163
  0
ARC
  5
1C7
330
45
100
AcDbEntity
  8
1
  6
Continuous
 62
     7
100
AcDbCircle
 10
153.2455685750906
 20
259.1075500689561
 30
0.0
 40
14.50000000000001
100
AcDbArc
 50
-153.7084447252706
 51
-146.2915552747294
  0
ARC
  5
1C8
330
45
100
AcDbEntity
  8
1
  6
Continuous
 62
     7
100
AcDbCircle
 10
153.2455685750906
 20
259.1075500689561
 30
0.0
 40
13.00000000000003
100
AcDbArc
 50
119.9999999999999
 51
180.0
  0
ARC
  5
1C9
330
45
100
AcDbEntity
  8
1
  6
Continuous
 62
     7
100
AcDbCircle
 10
153.2455685750906
 20
259.1075500689561
 30
0.0
 40
13.0
100
AcDbArc
 50
180.0
 51
-120.0
  0
ARC
  5
1CA
330
45
100
AcDbEntity
  8
1
  6
Continuous
 62
     7
100
AcDbCircle
 10
153.2455685750906
 20
259.1075500689561
 30
0.0
 40
14.49999999999996
100
AcDbArc
 50
146.2915552747292
 51
153.7084447252705
  0
ARC
  5
1CB
330
45
100
AcDbEntity
  8
1
  6
Continuous
 62
     7
100
AcDbCircle
 10
153.2455685750906
 20
259.1075500689561
 30
0.0
 40
13.00000000000003
100
AcDbArc
 50
60.00000000000009
 51
119.9999999999999
  0
ARC
  5
1CC
330
45
100
AcDbEntity
  8
1
  6
Continuous
 62
     7
100
AcDbCircle
 10
153.2455685750906
 20
259.1075500689561
 30
0.0
 40
14.5
100
AcDbArc
 50
90.0
 51
93.7084447252704
  0
ARC
  5
1CD
330
45
100
AcDbEntity
  8
1
  6
Continuous
 62
     7
100
AcDbCircle
 10
153.2455685750906
 20
259.1075500689561
 30
0.0
 40
13.0
100
AcDbArc
 50
0.0
 51
60.00000000000009
  0
ARC
  5
1CE
330
45
100
AcDbEntity
  8
1
  6
Continuous
 62
     7
100
AcDbCircle
 10
153.2455685750906
 20
259.1075500689561
 30
0.0
 40
14.50000000000002
100
AcDbArc
 50
26.29155527472953
 51
33.70844472527057
  0
ARC
  5
1CF
330
45
100
AcDbEntity
  8
1
  6
Continuous
 62
     7
100
AcDbCircle
 10
153.2455685750906
 20
259.1075500689561
 30
0.0
 40
12.99999999999998
100
AcDbArc
 50
-59.99999999999996
 51
0.0
  0
ARC
  5
1D0
330
45
100
AcDbEntity
  8
1
  6
Continuous
 62
     7
100
AcDbCircle
 10
153.2455685750906
 20
259.1075500689561
 30
0.0
 40
14.50000000000002
100
AcDbArc
 50
-33.70844472527038
 51
-26.29155527472943
  0
ARC
  5
1D1
330
45
100
AcDbEntity
  8
1
  6
Continuous
 62
     7
100
AcDbCircle
 10
153.2455685750906
 20
259.1075500689561
 30
0.0
 40
12.99999999999998
100
AcDbArc
 50
-120.0
 51
-59.99999999999996
  0
ARC
  5
1D2
330
45
100
AcDbEntity
  8
1
  6
Continuous
 62
     7
100
AcDbCircle
 10
153.2455685750906
 20
259.1075500689561
 30
0.0
 40
14.49999999999997
100
AcDbArc
 50
-90.0
 51
-86.29155527472913
  0
ARC
  5
1D3
330
45
100
AcDbEntity
  8
1
  6
Continuous
 62
     7
100
AcDbCircle
 10
153.2455685750906
 20
259.1075500689561
 30
0.0
 40
14.49999999999997
100
AcDbArc
 50
-93.70844472527043
 51
-90.0
  0
ARC
  5
1D4
330
45
100
AcDbEntity
  8
1
  6
Continuous
 62
     7
100
AcDbCircle
 10
153.2455685750906
 20
259.1075500689561
 30
0.0
 40
14.50000000000006
100
AcDbArc
 50
86.29155527472916
 51
90.0
  0
CIRCLE
  5
1D5
330
45
100
AcDbEntity
  8
1
  6
Continuous
 62
     7
100
AcDbCircle
 10
153.2455685750906
 20
259.1075500689561
 30
0.0
 40
6.0
  0
CIRCLE
  5
1D6
330
45
100
AcDbEntity
  8
1
  6
Continuous
 62
     7
100
AcDbCircle
 10
153.2455685750906
 20
259.1075500689561
 30
0.0
 40
5.0
  0
SPLINE
  5
1D7
330
45
100
AcDbEntity
  8
1
  6
Continuous
 62
     7
100
AcDbSpline
210
0.0
220
0.0
230
1.0
 70
    11
 71
     3
 72
    79
 73
    75
 74
    73
 42
0.0000000001
 43
0.0000000001
 44
0.00000001
 40
0.0
 40
0.0
 40
0.0
 40
0.0
 40
0.3142773867009421
 40
0.6283112411575458
 40
0.9612293766543179
 40
1.293805038039775
 40
1.653399990663311
 40
2.01268771036075
 40
2.402596358667242
 40
2.792277135713615
 40
3.212125602383414
 40
3.631818889113193
 40
4.07802383087034
 40
4.524128916246229
 40
4.990742665932668
 40
5.457297388873177
 40
5.936768753151428
 40
6.416212753073499
 40
6.900062536488206
 40
7.383912319902857
 40
7.863356319824823
 40
8.342827684103058
 40
8.809382407043605
 40
9.275996156730031
 40
9.722101242105948
 40
10.16830618386303
 40
10.58799947059285
 40
11.00784793726273
 40
11.39752871430917
 40
11.78743736261563
 40
12.14672508231301
 40
12.50632003493654
 40
12.83889569632195
 40
13.17181383181873
 40
13.4858476862754
 40
13.80012507297634
 40
14.10756996787614
 40
14.41501486277605
 40
14.72929224947699
 40
15.04332610393353
 40
15.3762442394303
 40
15.70881990081566
 40
16.06841485343928
 40
16.42770257313668
 40
16.81761122144313
 40
17.20729199848956
 40
17.62714046515951
 40
18.04683375188931
 40
18.49303869364639
 40
18.93914377902231
 40
19.40575752870873
 40
19.87231225164925
 40
20.35178361592746
 40
20.83122761584954
 40
21.31507739926419
 40
21.79892718267885
 40
22.27837118260086
 40
22.75784254687913
 40
23.22439726981966
 40
23.69101101950608
 40
24.13711610488196
 40
24.58332104663915
 40
25.00301433336898
 40
25.42286280003876
 40
25.81254357708507
 40
26.20245222539156
 40
26.56173994508904
 40
26.9213348977127
 40
27.25391055909811
 40
27.58682869459485
 40
27.90086254905134
 40
28.21513993575234
 40
28.52258483065214
 40
28.83002972555193
 40
28.83002972555193
 40
28.83002972555193
 40
28.83002972555193
 10
152.2860264019659
 20
405.8002656544182
 30
0.0
 10
152.2674339293672
 20
405.696994099718
 30
0.0
 10
152.2302633913998
 20
405.4905310150172
 30
0.0
 10
152.1193171281871
 20
405.1884461825256
 30
0.0
 10
151.9722522854039
 20
404.8962512894798
 30
0.0
 10
151.7820977331538
 20
404.6113969234818
 30
0.0
 10
151.5569630046296
 20
404.3419560007266
 30
0.0
 10
151.292326934519
 20
404.0831586439692
 30
0.0
 10
150.9972667088383
 20
403.8434809796436
 30
0.0
 10
150.6665006612771
 20
403.6181427379601
 30
0.0
 10
150.3104333393127
 20
403.4145792170294
 30
0.0
 10
149.9237002671296
 20
403.2290869493156
 30
0.0
 10
149.5170268094595
 20
403.0673168365958
 30
0.0
 10
149.0860506137009
 20
402.9269492759288
 30
0.0
 10
148.640676929351
 20
402.8117062175433
 30
0.0
 10
148.1784639794615
 20
402.7204528793252
 30
0.0
 10
147.707545386763
 20
402.6552453375938
 30
0.0
 10
147.2280138224792
 20
402.6156548701624
 30
0.0
 10
146.745568584678
 20
402.6025692671916
 30
0.0
 10
146.2631233468616
 20
402.6156548701611
 30
0.0
 10
145.783591782623
 20
402.6552453375989
 30
0.0
 10
145.312673189761
 20
402.720452879307
 30
0.0
 10
144.8504602404651
 20
402.8117062176093
 30
0.0
 10
144.4050865539445
 20
402.926949275687
 30
0.0
 10
143.974110365947
 20
403.0673168374543
 30
0.0
 10
143.5674368801504
 20
403.2290869461871
 30
0.0
 10
143.1807039069986
 20
403.4145792279379
 30
0.0
 10
142.8246362288871
 20
403.6181426983878
 30
0.0
 10
142.4938714198261
 20
403.8434811156174
 30
0.0
 10
142.1988067624885
 20
404.083158151797
 30
0.0
 10
141.9341860021418
 20
404.34195767857
 30
0.0
 10
141.7089965023586
 20
404.6113908380127
 30
0.0
 10
141.5190318601376
 20
404.8962721219772
 30
0.0
 10
141.3712826434367
 20
405.1883700114346
 30
0.0
 10
141.2627540467628
 20
405.4907975254979
 30
0.0
 10
141.1985425193889
 20
405.7970322174415
 30
0.0
 10
141.1759414162511
 20
406.1069444144186
 30
0.0
 10
141.1985425193889
 20
406.4168566113953
 30
0.0
 10
141.2627540467627
 20
406.7230913033392
 30
0.0
 10
141.3712826434367
 20
407.0255188174024
 30
0.0
 10
141.5190318601375
 20
407.3176167068596
 30
0.0
 10
141.7089965023586
 20
407.6024979908243
 30
0.0
 10
141.9341860021417
 20
407.8719311502669
 30
0.0
 10
142.1988067624884
 20
408.1307306770399
 30
0.0
 10
142.493871419826
 20
408.3704077132196
 30
0.0
 10
142.8246362288871
 20
408.5957461304488
 30
0.0
 10
143.1807039069985
 20
408.7993096008991
 30
0.0
 10
143.5674368801505
 20
408.9848018826497
 30
0.0
 10
143.974110365947
 20
409.1465719913826
 30
0.0
 10
144.4050865539445
 20
409.2869395531499
 30
0.0
 10
144.8504602404651
 20
409.4021826112275
 30
0.0
 10
145.3126731897609
 20
409.4934359495298
 30
0.0
 10
145.7835917826229
 20
409.5586434912381
 30
0.0
 10
146.2631233468623
 20
409.5982339586758
 30
0.0
 10
146.7455685846756
 20
409.6113195616449
 30
0.0
 10
147.228013822488
 20
409.598233958676
 30
0.0
 10
147.7075453867307
 20
409.5586434912378
 30
0.0
 10
148.1784639795808
 20
409.4934359495311
 30
0.0
 10
148.6406769289189
 20
409.4021826112229
 30
0.0
 10
149.0860506152854
 20
409.2869395531671
 30
0.0
 10
149.517026803834
 20
409.1465719913218
 30
0.0
 10
149.9237002876334
 20
408.9848018828716
 30
0.0
 10
150.3104332678169
 20
408.7993096001247
 30
0.0
 10
150.6665009206407
 20
408.5957461332584
 30
0.0
 10
150.9972658176389
 20
408.3704077035649
 30
0.0
 10
151.2923301603158
 20
408.1307307119856
 30
0.0
 10
151.556952007701
 20
407.8719310311352
 30
0.0
 10
151.782137618563
 20
407.6024984229104
 30
0.0
 10
151.972115744957
 20
407.3176152276908
 30
0.0
 10
152.1198163690887
 20
407.0255242257744
 30
0.0
 10
152.2285166272261
 20
406.723072380308
 30
0.0
 10
152.2920995851139
 20
406.4169267821973
 30
0.0
 10
152.3169989048704
 20
406.1066888345555
 30
0.0
 10
152.2963505696007
 20
405.902406714464
 30
0.0
 10
152.2860264019659
 20
405.8002656544182
 30
0.0
 11
152.2860264019659
 21
405.8002656544182
 31
0.0
 11
152.2214046547332
 21
405.4927037816574
 31
0.0
 11
152.1162046872919
 21
405.1968149028613
 31
0.0
 11
151.9663115048191
 21
404.8995498379936
 31
0.0
 11
151.7825370743538
 21
404.6223612212483
 31
0.0
 11
151.5524805654122
 21
404.3459873211674
 31
0.0
 11
151.2961187223312
 21
404.0942607414475
 31
0.0
 11
150.9939534000732
 21
403.8478365704559
 31
0.0
 11
150.6722123553249
 21
403.6279870580077
 31
0.0
 11
150.3080544219151
 21
403.4190331528043
 31
0.0
 11
149.9298073759359
 21
403.2371770912225
 31
0.0
 11
149.5153934704237
 21
403.0717686120969
 31
0.0
 11
149.091299077292
 21
402.9333717446741
 31
0.0
 11
148.6396561072642
 21
402.8161240623051
 31
0.0
 11
148.1819626828122
 21
402.7256252296521
 31
0.0
 11
147.7070545615906
 21
402.6596323091183
 31
0.0
 11
147.2292376869776
 21
402.6201660780295
 31
0.0
 11
146.7455685846754
 21
402.6069444144185
 31
0.0
 11
146.2618994823733
 21
402.6201660780295
 31
0.0
 11
145.7840826077604
 21
402.6596323091184
 31
0.0
 11
145.3091744865388
 21
402.7256252296521
 31
0.0
 11
144.8514810620868
 21
402.8161240623051
 31
0.0
 11
144.399838092059
 21
402.9333717446741
 31
0.0
 11
143.9757436989272
 21
403.0717686120969
 31
0.0
 11
143.5613297934151
 21
403.2371770912224
 31
0.0
 11
143.1830827474359
 21
403.4190331528043
 31
0.0
 11
142.8189248140261
 21
403.6279870580077
 31
0.0
 11
142.4971837692776
 21
403.8478365704559
 31
0.0
 11
142.1950184470197
 21
404.0942607414476
 31
0.0
 11
141.9386566039388
 21
404.3459873211675
 31
0.0
 11
141.7086000949971
 21
404.6223612212483
 31
0.0
 11
141.5248256645319
 21
404.8995498379935
 31
0.0
 11
141.374932482059
 21
405.1968149028612
 31
0.0
 11
141.2697325146177
 21
405.4927037816574
 31
0.0
 11
141.205110767385
 21
405.8002656544182
 31
0.0
 11
141.1834197193536
 21
406.1069444144184
 31
0.0
 11
141.205110767385
 21
406.4136231744187
 31
0.0
 11
141.2697325146177
 21
406.7211850471796
 31
0.0
 11
141.3749324820589
 21
407.0170739259756
 31
0.0
 11
141.5248256645318
 21
407.3143389908433
 31
0.0
 11
141.708600094997
 21
407.5915276075885
 31
0.0
 11
141.9386566039387
 21
407.8679015076694
 31
0.0
 11
142.1950184470196
 21
408.1196280873894
 31
0.0
 11
142.4971837692775
 21
408.3660522583811
 31
0.0
 11
142.818924814026
 21
408.5859017708292
 31
0.0
 11
143.1830827474359
 21
408.7948556760326
 31
0.0
 11
143.5613297934151
 21
408.9767117376144
 31
0.0
 11
143.9757436989272
 21
409.14212021674
 31
0.0
 11
144.399838092059
 21
409.2805170841627
 31
0.0
 11
144.8514810620868
 21
409.3977647665317
 31
0.0
 11
145.3091744865388
 21
409.4882635991847
 31
0.0
 11
145.7840826077604
 21
409.5542565197185
 31
0.0
 11
146.2618994823733
 21
409.5937227508074
 31
0.0
 11
146.7455685846755
 21
409.6069444144185
 31
0.0
 11
147.2292376869776
 21
409.5937227508074
 31
0.0
 11
147.7070545615906
 21
409.5542565197186
 31
0.0
 11
148.1819626828122
 21
409.4882635991846
 31
0.0
 11
148.6396561072642
 21
409.3977647665317
 31
0.0
 11
149.091299077292
 21
409.2805170841627
 31
0.0
 11
149.5153934704237
 21
409.1421202167401
 31
0.0
 11
149.9298073759359
 21
408.9767117376143
 31
0.0
 11
150.3080544219152
 21
408.7948556760325
 31
0.0
 11
150.6722123553249
 21
408.5859017708291
 31
0.0
 11
150.9939534000732
 21
408.3660522583811
 31
0.0
 11
151.2961187223312
 21
408.1196280873894
 31
0.0
 11
151.5524805654122
 21
407.8679015076694
 31
0.0
 11
151.7825370743539
 21
407.5915276075884
 31
0.0
 11
151.9663115048191
 21
407.3143389908432
 31
0.0
 11
152.1162046872919
 21
407.0170739259755
 31
0.0
 11
152.2214046547332
 21
406.7211850471795
 31
0.0
 11
152.2860264019659
 21
406.4136231744186
 31
0.0
 11
152.3077174499973
 21
406.1069444144184
 31
0.0
 11
152.2860264019659
 21
405.8002656544182
 31
0.0
  0
SPLINE
  5
1D8
330
45
100
AcDbEntity
  8
1
  6
Continuous
 62
     7
100
AcDbSpline
210
0.0
220
0.0
230
1.0
 70
    11
 71
     3
 72
    79
 73
    75
 74
    73
 42
0.0000000001
 43
0.0000000001
 44
0.00000001
 40
0.0
 40
0.0
 40
0.0
 40
0.0
 40
0.3142773867009421
 40
0.6283112411575267
 40
0.9612293766543114
 40
1.293805038039752
 40
1.653399990663325
 40
2.012687710360724
 40
2.402596358667172
 40
2.792277135713638
 40
3.212125602383462
 40
3.631818889113215
 40
4.078023830870309
 40
4.524128916246252
 40
4.990742665932664
 40
5.4572973888732
 40
5.936768753151451
 40
6.416212753073522
 40
6.900062536488229
 40
7.383912319902823
 40
7.863356319824818
 40
8.342827684103025
 40
8.809382407043572
 40
9.275996156730024
 40
9.722101242105941
 40
10.16830618386305
 40
10.5879994705929
 40
11.00784793726275
 40
11.39752871430919
 40
11.78743736261568
 40
12.14672508231305
 40
12.50632003493656
 40
12.83889569632197
 40
13.17181383181875
 40
13.48584768627539
 40
13.80012507297633
 40
14.10756996787612
 40
14.41501486277604
 40
14.72929224947698
 40
15.04332610393351
 40
15.37624423943027
 40
15.70881990081561
 40
16.06841485343919
 40
16.42770257313665
 40
16.81761122144312
 40
17.20729199848953
 40
17.62714046515941
 40
18.04683375188924
 40
18.49303869364632
 40
18.93914377902226
 40
19.40575752870871
 40
19.8723122516492
 40
20.35178361592739
 40
20.83122761584941
 40
21.31507739926412
 40
21.79892718267883
 40
22.27837118260085
 40
22.75784254687906
 40
23.22439726981956
 40
23.69101101950598
 40
24.13711610488192
 40
24.58332104663916
 40
25.00301433336894
 40
25.42286280003876
 40
25.81254357708507
 40
26.20245222539158
 40
26.56173994508902
 40
26.92133489771266
 40
27.25391055909806
 40
27.5868286945948
 40
27.90086254905126
 40
28.21513993575227
 40
28.52258483065207
 40
28.83002972555187
 40
28.83002972555187
 40
28.83002972555187
 40
28.83002972555187
 10
154.2051107673853
 20
405.8002656544182
 30
0.0
 10
154.223703239984
 20
405.6969940997179
 30
0.0
 10
154.2608737779514
 20
405.490531015017
 30
0.0
 10
154.3718200411641
 20
405.1884461825257
 30
0.0
 10
154.5188848839473
 20
404.8962512894798
 30
0.0
 10
154.7090394361974
 20
404.6113969234817
 30
0.0
 10
154.9341741647216
 20
404.3419560007266
 30
0.0
 10
155.1988102348321
 20
404.0831586439691
 30
0.0
 10
155.4938704605128
 20
403.8434809796437
 30
0.0
 10
155.8246365080741
 20
403.6181427379601
 30
0.0
 10
156.1807038300385
 20
403.4145792170293
 30
0.0
 10
156.5674369022216
 20
403.2290869493157
 30
0.0
 10
156.9741103598916
 20
403.0673168365958
 30
0.0
 10
157.4050865556503
 20
402.9269492759287
 30
0.0
 10
157.8504602400001
 20
402.8117062175434
 30
0.0
 10
158.3126731898897
 20
402.7204528793252
 30
0.0
 10
158.7835917825882
 20
402.6552453375938
 30
0.0
 10
159.263123346872
 20
402.6156548701623
 30
0.0
 10
159.7455685846732
 20
402.6025692671918
 30
0.0
 10
160.2280138224895
 20
402.615654870161
 30
0.0
 10
160.7075453867281
 20
402.655245337599
 30
0.0
 10
161.1784639795902
 20
402.7204528793068
 30
0.0
 10
161.640676928886
 20
402.8117062176094
 30
0.0
 10
162.0860506154066
 20
402.9269492756869
 30
0.0
 10
162.5170268034042
 20
403.0673168374542
 30
0.0
 10
162.9237002892008
 20
403.2290869461872
 30
0.0
 10
163.3104332623527
 20
403.4145792279379
 30
0.0
 10
163.6665009404641
 20
403.618142698388
 30
0.0
 10
163.9972657495252
 20
403.8434811156174
 30
0.0
 10
164.2923304068627
 20
404.083158151797
 30
0.0
 10
164.5569511672094
 20
404.3419576785701
 30
0.0
 10
164.7821406669926
 20
404.6113908380126
 30
0.0
 10
164.9721053092137
 20
404.8962721219772
 30
0.0
 10
165.1198545259144
 20
405.1883700114345
 30
0.0
 10
165.2283831225884
 20
405.4907975254978
 30
0.0
 10
165.2925946499622
 20
405.7970322174416
 30
0.0
 10
165.3151957531001
 20
406.1069444144184
 30
0.0
 10
165.2925946499622
 20
406.4168566113954
 30
0.0
 10
165.2283831225884
 20
406.7230913033391
 30
0.0
 10
165.1198545259145
 20
407.0255188174023
 30
0.0
 10
164.9721053092136
 20
407.3176167068596
 30
0.0
 10
164.7821406669926
 20
407.6024979908242
 30
0.0
 10
164.5569511672094
 20
407.8719311502668
 30
0.0
 10
164.2923304068628
 20
408.1307306770399
 30
0.0
 10
163.9972657495252
 20
408.3704077132196
 30
0.0
 10
163.6665009404641
 20
408.5957461304488
 30
0.0
 10
163.3104332623527
 20
408.7993096008992
 30
0.0
 10
162.9237002892007
 20
408.9848018826496
 30
0.0
 10
162.5170268034042
 20
409.1465719913828
 30
0.0
 10
162.0860506154066
 20
409.28693955315
 30
0.0
 10
161.6406769288861
 20
409.4021826112275
 30
0.0
 10
161.1784639795902
 20
409.49343594953
 30
0.0
 10
160.7075453867284
 20
409.5586434912379
 30
0.0
 10
160.2280138224889
 20
409.5982339586759
 30
0.0
 10
159.7455685846755
 20
409.611319561645
 30
0.0
 10
159.2631233468632
 20
409.598233958676
 30
0.0
 10
158.7835917826206
 20
409.5586434912379
 30
0.0
 10
158.3126731897703
 20
409.4934359495308
 30
0.0
 10
157.8504602404323
 20
409.402182611223
 30
0.0
 10
157.4050865540659
 20
409.286939553167
 30
0.0
 10
156.9741103655171
 20
409.1465719913218
 30
0.0
 10
156.5674368817178
 20
408.9848018828716
 30
0.0
 10
156.1807039015342
 20
408.7993096001246
 30
0.0
 10
155.8246362487105
 20
408.5957461332585
 30
0.0
 10
155.4938713517122
 20
408.370407703565
 30
0.0
 10
155.1988070090353
 20
408.1307307119855
 30
0.0
 10
154.9341851616502
 20
407.8719310311351
 30
0.0
 10
154.7089995507881
 20
407.6024984229105
 30
0.0
 10
154.5190214243943
 20
407.3176152276908
 30
0.0
 10
154.3713208002625
 20
407.0255242257745
 30
0.0
 10
154.2626205421252
 20
406.7230723803079
 30
0.0
 10
154.1990375842372
 20
406.4169267821973
 30
0.0
 10
154.1741382644808
 20
406.1066888345556
 30
0.0
 10
154.1947865997505
 20
405.9024067144641
 30
0.0
 10
154.2051107673853
 20
405.8002656544182
 30
0.0
 11
154.2051107673853
 21
405.8002656544182
 31
0.0
 11
154.269732514618
 21
405.4927037816574
 31
0.0
 11
154.3749324820592
 21
405.1968149028613
 31
0.0
 11
154.5248256645321
 21
404.8995498379936
 31
0.0
 11
154.7086000949973
 21
404.6223612212483
 31
0.0
 11
154.938656603939
 21
404.3459873211674
 31
0.0
 11
155.19501844702
 21
404.0942607414475
 31
0.0
 11
155.4971837692779
 21
403.8478365704559
 31
0.0
 11
155.8189248140263
 21
403.6279870580077
 31
0.0
 11
156.1830827474361
 21
403.4190331528043
 31
0.0
 11
156.5613297934153
 21
403.2371770912225
 31
0.0
 11
156.9757436989274
 21
403.0717686120969
 31
0.0
 11
157.3998380920592
 21
402.9333717446741
 31
0.0
 11
157.851481062087
 21
402.8161240623051
 31
0.0
 11
158.309174486539
 21
402.7256252296521
 31
0.0
 11
158.7840826077606
 21
402.6596323091183
 31
0.0
 11
159.2618994823736
 21
402.6201660780295
 31
0.0
 11
159.7455685846758
 21
402.6069444144185
 31
0.0
 11
160.2292376869779
 21
402.6201660780295
 31
0.0
 11
160.7070545615908
 21
402.6596323091184
 31
0.0
 11
161.1819626828124
 21
402.7256252296521
 31
0.0
 11
161.6396561072643
 21
402.8161240623051
 31
0.0
 11
162.0912990772922
 21
402.9333717446741
 31
0.0
 11
162.5153934704239
 21
403.0717686120969
 31
0.0
 11
162.9298073759361
 21
403.2371770912224
 31
0.0
 11
163.3080544219153
 21
403.4190331528043
 31
0.0
 11
163.6722123553251
 21
403.6279870580077
 31
0.0
 11
163.9939534000736
 21
403.8478365704559
 31
0.0
 11
164.2961187223315
 21
404.0942607414476
 31
0.0
 11
164.5524805654125
 21
404.3459873211675
 31
0.0
 11
164.7825370743541
 21
404.6223612212483
 31
0.0
 11
164.9663115048193
 21
404.8995498379935
 31
0.0
 11
165.1162046872922
 21
405.1968149028612
 31
0.0
 11
165.2214046547334
 21
405.4927037816574
 31
0.0
 11
165.2860264019661
 21
405.8002656544182
 31
0.0
 11
165.3077174499975
 21
406.1069444144184
 31
0.0
 11
165.2860264019661
 21
406.4136231744187
 31
0.0
 11
165.2214046547334
 21
406.7211850471796
 31
0.0
 11
165.1162046872922
 21
407.0170739259756
 31
0.0
 11
164.9663115048193
 21
407.3143389908433
 31
0.0
 11
164.7825370743541
 21
407.5915276075885
 31
0.0
 11
164.5524805654125
 21
407.8679015076694
 31
0.0
 11
164.2961187223315
 21
408.1196280873894
 31
0.0
 11
163.9939534000736
 21
408.3660522583811
 31
0.0
 11
163.6722123553251
 21
408.5859017708292
 31
0.0
 11
163.3080544219153
 21
408.7948556760326
 31
0.0
 11
162.9298073759361
 21
408.9767117376144
 31
0.0
 11
162.515393470424
 21
409.14212021674
 31
0.0
 11
162.0912990772922
 21
409.2805170841627
 31
0.0
 11
161.6396561072643
 21
409.3977647665317
 31
0.0
 11
161.1819626828124
 21
409.4882635991847
 31
0.0
 11
160.7070545615908
 21
409.5542565197185
 31
0.0
 11
160.2292376869779
 21
409.5937227508074
 31
0.0
 11
159.7455685846757
 21
409.6069444144185
 31
0.0
 11
159.2618994823735
 21
409.5937227508074
 31
0.0
 11
158.7840826077606
 21
409.5542565197186
 31
0.0
 11
158.309174486539
 21
409.4882635991846
 31
0.0
 11
157.8514810620871
 21
409.3977647665317
 31
0.0
 11
157.3998380920593
 21
409.2805170841627
 31
0.0
 11
156.9757436989274
 21
409.1421202167401
 31
0.0
 11
156.5613297934152
 21
408.9767117376143
 31
0.0
 11
156.183082747436
 21
408.7948556760325
 31
0.0
 11
155.8189248140263
 21
408.5859017708291
 31
0.0
 11
155.4971837692779
 21
408.3660522583811
 31
0.0
 11
155.1950184470199
 21
408.1196280873894
 31
0.0
 11
154.9386566039389
 21
407.8679015076694
 31
0.0
 11
154.7086000949973
 21
407.5915276075884
 31
0.0
 11
154.5248256645321
 21
407.3143389908432
 31
0.0
 11
154.3749324820593
 21
407.0170739259755
 31
0.0
 11
154.2697325146181
 21
406.7211850471795
 31
0.0
 11
154.2051107673853
 21
406.4136231744186
 31
0.0
 11
154.1834197193539
 21
406.1069444144184
 31
0.0
 11
154.2051107673853
 21
405.8002656544182
 31
0.0
  0
SPLINE
  5
1D9
330
45
100
AcDbEntity
  8
1
  6
Continuous
 62
     7
100
AcDbSpline
210
0.0
220
0.0
230
1.0
 70
    11
 71
     3
 72
    79
 73
    75
 74
    73
 42
0.0000000001
 43
0.0000000001
 44
0.00000001
 40
0.0
 40
0.0
 40
0.0
 40
0.0
 40
0.3114713439937293
 40
0.6228035292720997
 40
0.9472403639566425
 40
1.271464858047269
 40
1.614803252702465
 40
1.957928915795206
 40
2.323150649727965
 40
2.688197477608267
 40
3.075390759589141
 40
3.462454984680353
 40
3.869243829729376
 40
4.27594468850293
 40
4.698050018430208
 40
5.120101305011798
 40
5.551913313128503
 40
5.98369971491714
 40
6.418825159685444
 40
6.853950604453917
 40
7.285737006242593
 40
7.717549014359363
 40
8.139600300940943
 40
8.561705630868168
 40
8.968406489641781
 40
9.375195334690751
 40
9.762259559782029
 40
10.14945284176292
 40
10.51449966964325
 40
10.87972140357605
 40
11.22284706666875
 40
11.56618546132393
 40
11.89040995541453
 40
12.21484679009913
 40
12.52617897537745
 40
12.83765031937121
 40
13.14443943075547
 40
13.45122854213964
 40
13.76269988613335
 40
14.07403207141165
 40
14.39846890609625
 40
14.72269340018685
 40
15.06603179484205
 40
15.40915745793485
 40
15.77437919186765
 40
16.13942601974789
 40
16.52661930172876
 40
16.91368352682004
 40
17.32047237186909
 40
17.72717323064268
 40
18.14927856056994
 40
18.5713298471515
 40
19.00314185526833
 40
19.43492825705691
 40
19.87005370182538
 40
20.30517914659374
 40
20.73696554838231
 40
21.16877755649912
 40
21.59082884308075
 40
22.01293417300799
 40
22.41963503178155
 40
22.82642387683054
 40
23.21348810192173
 40
23.60068138390264
 40
23.96572821178293
 40
24.33094994571574
 40
24.6740756088085
 40
25.01741400346368
 40
25.34163849755427
 40
25.66607533223886
 40
25.97740751751717
 40
26.28887886151091
 40
26.59566797289522
 40
26.90245708427945
 40
26.90245708427945
 40
26.90245708427945
 40
26.90245708427945
 10
241.5504961636793
 20
254.1271235059183
 30
0.0
 10
241.6531267050402
 20
254.14370921942
 30
0.0
 10
241.8583419346376
 20
254.1768732362824
 30
0.0
 10
242.1594150901603
 20
254.2757713970502
 30
0.0
 10
242.4516000371186
 20
254.4075536280073
 30
0.0
 10
242.7359687080073
 20
254.5776670712414
 30
0.0
 10
243.0061095106958
 20
254.77993577066
 30
0.0
 10
243.264830957993
 20
255.0172649599258
 30
0.0
 10
243.505391852801
 20
255.2827921539715
 30
0.0
 10
243.7308395192449
 20
255.5798374173459
 30
0.0
 10
243.935159998998
 20
255.9004479101397
 30
0.0
 10
244.120811008465
 20
256.2480093145168
 30
0.0
 10
244.2831200243219
 20
256.6141849351509
 30
0.0
 10
244.4236328460782
 20
257.0016691747039
 30
0.0
 10
244.5392097944288
 20
257.4026035138782
 30
0.0
 10
244.6305650473246
 20
257.8182882815142
 30
0.0
 10
244.6959441835407
 20
258.2421066431615
 30
0.0
 10
244.7355721410081
 20
258.673467330123
 30
0.0
 10
244.7487086362587
 20
259.1075500690744
 30
0.0
 10
244.7355721409792
 20
259.5416328080365
 30
0.0
 10
244.6959441834779
 20
259.9729934949604
 30
0.0
 10
244.6305650472486
 20
260.3968118567307
 30
0.0
 10
244.5392097942654
 20
260.8124966238956
 30
0.0
 10
244.4236328461031
 20
261.2134309647676
 30
0.0
 10
244.2831200235431
 20
261.6009151981674
 30
0.0
 10
244.1208110104934
 20
261.9670908411754
 30
0.0
 10
243.9351599909195
 20
262.3146521658566
 30
0.0
 10
243.7308395476791
 20
262.6352629473594
 30
0.0
 10
243.5053917522766
 20
262.932307191757
 30
0.0
 10
243.2648313232442
 20
263.1978380668191
 30
0.0
 10
243.0061082372758
 20
263.4351543062522
 30
0.0
 10
242.7359733602239
 20
263.6374698343519
 30
0.0
 10
242.4515837393248
 20
263.8074177157932
 30
0.0
 10
242.1594750334186
 20
263.9398024577606
 30
0.0
 10
241.8581281927813
 20
264.0365377643454
 30
0.0
 10
241.5528330896162
 20
264.094003002492
 30
0.0
 10
241.2443185749181
 20
264.1139542562933
 30
0.0
 10
240.9358040602217
 20
264.0940030024707
 30
0.0
 10
240.6305089570604
 20
264.0365377643033
 30
0.0
 10
240.32916211643
 20
263.9398024576976
 30
0.0
 10
240.0370534105327
 20
263.8074177157105
 30
0.0
 10
239.7526637896453
 20
263.6374698342495
 30
0.0
 10
239.4825289126074
 20
263.4351543061313
 30
0.0
 10
239.2238058266551
 20
263.1978380666804
 30
0.0
 10
238.9832453976408
 20
262.9323071916016
 30
0.0
 10
238.7577976022588
 20
262.6352629471887
 30
0.0
 10
238.5534771590405
 20
262.3146521656719
 30
0.0
 10
238.3678261394903
 20
261.9670908409779
 30
0.0
 10
238.205517126466
 20
261.6009151979588
 30
0.0
 10
238.0650043039322
 20
261.2134309645493
 30
0.0
 10
237.9494273557976
 20
260.8124966236693
 30
0.0
 10
237.8580721028427
 20
260.3968118564982
 30
0.0
 10
237.7926929666429
 20
259.9729934947235
 30
0.0
 10
237.7530650091709
 20
259.5416328077964
 30
0.0
 10
237.7399285139217
 20
259.1075500688356
 30
0.0
 10
237.7530650092006
 20
258.6734673298765
 30
0.0
 10
237.7926929667027
 20
258.2421066429497
 30
0.0
 10
237.8580721029305
 20
257.8182882811885
 30
0.0
 10
237.949427355918
 20
257.4026035139905
 30
0.0
 10
238.0650043040648
 20
257.00166917324
 30
0.0
 10
238.2055171266804
 20
256.6141849394025
 30
0.0
 10
238.3678261395281
 20
256.2480092979895
 30
0.0
 10
238.5534771598207
 20
255.900447967631
 30
0.0
 10
238.7577976004578
 20
255.5798372066995
 30
0.0
 10
238.9832454050472
 20
255.2827928897016
 30
0.0
 10
239.2238058008919
 20
255.0172622769105
 30
0.0
 10
239.4825290036137
 20
254.779945114812
 30
0.0
 10
239.7526634584668
 20
254.5776329232255
 30
0.0
 10
240.0370545720393
 20
254.407673245619
 30
0.0
 10
240.3291578458211
 20
254.2753314321579
 30
0.0
 10
240.6305241863383
 20
254.178442023667
 30
0.0
 10
240.9357474800756
 20
254.1215442746381
 30
0.0
 10
241.2445262231886
 20
254.0995049001783
 30
0.0
 10
241.4485061835158
 20
254.117917304005
 30
0.0
 10
241.5504961636793
 20
254.1271235059184
 30
0.0
 11
241.5504961636793
 21
254.1271235059183
 31
0.0
 11
241.8565715118981
 21
254.1848494042831
 31
0.0
 11
242.1531945934325
 21
254.2794140757585
 31
0.0
 11
242.4487925682905
 21
254.4131342947231
 31
0.0
 11
242.7274379938415
 21
254.5788999407052
 31
0.0
 11
243.0025125448211
 21
254.7843634280887
 31
0.0
 11
243.2557561451274
 21
255.0158864281917
 31
0.0
 11
243.501346423898
 21
255.2862053692784
 31
0.0
 11
243.7224012246284
 21
255.5767117575378
 31
0.0
 11
243.9308950470094
 21
255.902976931346
 31
0.0
 11
244.1135591307065
 21
256.2442283736471
 31
0.0
 11
244.2787636875349
 21
256.6159602916464
 31
0.0
 11
244.4176256680314
 21
256.9982205941887
 31
0.0
 11
244.5348243182695
 21
257.4037293930271
 31
0.0
 11
244.6255387788719
 21
257.8159164563161
 31
0.0
 11
244.6915538280908
 21
258.2426524679561
 31
0.0
 11
244.7310778779408
 21
258.672626125583
 31
0.0
 11
244.7443185750961
 21
259.1075500690761
 31
0.0
 11
244.7310778779109
 21
259.5424740125686
 31
0.0
 11
244.6915538280314
 21
259.9724476701928
 31
0.0
 11
244.6255387787832
 21
260.3991836818283
 31
0.0
 11
244.5348243181524
 21
260.811370745111
 31
0.0
 11
244.4176256678865
 21
261.2168795439413
 31
0.0
 11
244.2787636873638
 21
261.5991398464742
 31
0.0
 11
244.1135591305099
 21
261.9708717644621
 31
0.0
 11
243.9308950467893
 21
262.3121232067507
 31
0.0
 11
243.722401224386
 21
262.6383883805446
 31
0.0
 11
243.5013464236356
 21
262.9288947687888
 31
0.0
 11
243.2557561448464
 21
263.1992137098587
 31
0.0
 11
243.0025125445242
 21
263.4307367099443
 31
0.0
 11
242.7274379935305
 21
263.6362001973089
 31
0.0
 11
242.4487925679681
 21
263.8019658432717
 31
0.0
 11
242.1531945931009
 21
263.9356860622162
 31
0.0
 11
241.8565715115601
 21
264.0302507336712
 31
0.0
 11
241.5504961633373
 21
264.0879766320149
 31
0.0
 11
241.2443185749184
 21
264.1073375001238
 31
0.0
 11
240.9381409865009
 21
264.0879766319939
 31
0.0
 11
240.6320656382822
 21
264.0302507336291
 31
0.0
 11
240.3354425567478
 21
263.9356860621538
 31
0.0
 11
240.0398445818898
 21
263.8019658431891
 31
0.0
 11
239.7611991563388
 21
263.6362001972071
 31
0.0
 11
239.4861246053592
 21
263.4307367098236
 31
0.0
 11
239.2328810050528
 21
263.1992137097205
 31
0.0
 11
238.9872907262821
 21
262.9288947686338
 31
0.0
 11
238.7662359255518
 21
262.6383883803745
 31
0.0
 11
238.5577421031709
 21
262.3121232065662
 31
0.0
 11
238.3750780194737
 21
261.9708717642652
 31
0.0
 11
238.2098734626453
 21
261.5991398462658
 31
0.0
 11
238.0710114821488
 21
261.2168795437235
 31
0.0
 11
237.9538128319107
 21
260.811370744885
 31
0.0
 11
237.8630983713082
 21
260.3991836815961
 31
0.0
 11
237.7970833220893
 21
259.972447669956
 31
0.0
 11
237.7575592722393
 21
259.5424740123292
 31
0.0
 11
237.744318575084
 21
259.1075500688359
 31
0.0
 11
237.7575592722692
 21
258.6726261253435
 31
0.0
 11
237.7970833221488
 21
258.2426524677194
 31
0.0
 11
237.863098371397
 21
257.8159164560839
 31
0.0
 11
237.9538128320278
 21
257.4037293928011
 31
0.0
 11
238.0710114822937
 21
256.9982205939708
 31
0.0
 11
238.2098734628163
 21
256.6159602914379
 31
0.0
 11
238.3750780196703
 21
256.24422837345
 31
0.0
 11
238.557742103391
 21
255.9029769311616
 31
0.0
 11
238.7662359257942
 21
255.5767117573676
 31
0.0
 11
238.9872907265446
 21
255.2862053691234
 31
0.0
 11
239.2328810053337
 21
255.0158864280535
 31
0.0
 11
239.486124605656
 21
254.7843634279679
 31
0.0
 11
239.7611991566497
 21
254.5788999406033
 31
0.0
 11
240.0398445822121
 21
254.4131342946405
 31
0.0
 11
240.3354425570793
 21
254.279414075696
 31
0.0
 11
240.6320656386201
 21
254.1848494042409
 31
0.0
 11
240.9381409868428
 21
254.1271235058972
 31
0.0
 11
241.2443185752618
 21
254.1077626377884
 31
0.0
 11
241.5504961636793
 21
254.1271235059184
 31
0.0
  0
SPLINE
  5
1DA
330
45
100
AcDbEntity
  8
1
  6
Continuous
 62
     7
100
AcDbSpline
210
0.0
220
0.0
230
1.0
 70
    11
 71
     3
 72
    79
 73
    75
 74
    73
 42
0.0000000001
 43
0.0000000001
 44
0.00000001
 40
0.0
 40
0.0
 40
0.0
 40
0.0
 40
0.2811775426109289
 40
0.5623408931993056
 40
0.8457466631368571
 40
1.129126830422968
 40
1.415908903032455
 40
1.702658539054684
 40
1.993527432940274
 40
2.284362055943383
 40
2.579517800564418
 40
2.874641782101918
 40
3.173769982296744
 40
3.472872122788127
 40
3.775199692337441
 40
4.077508957859743
 40
4.381905225139439
 40
4.68629209140542
 40
4.99140045951907
 40
5.296508827632692
 40
5.600895693898705
 40
5.905291961178452
 40
6.207601226700734
 40
6.509928796249915
 40
6.809030936741323
 40
7.108159136936242
 40
7.403283118473753
 40
7.698438863094753
 40
7.989273486097862
 40
8.280142379983463
 40
8.566892016005655
 40
8.853674088615204
 40
9.137054255901303
 40
9.420460025838798
 40
9.701623376427168
 40
9.982800919038077
 40
10.26319552186827
 40
10.5435901246985
 40
10.82476766730941
 40
11.1059310178978
 40
11.38933678783535
 40
11.67271695512148
 40
11.95949902773101
 40
12.24624866375324
 40
12.53711755763888
 40
12.82795218064199
 40
13.12310792526299
 40
13.41823190680051
 40
13.71736010699542
 40
14.0164622474868
 40
14.31878981703601
 40
14.62109908255826
 40
14.92549534983808
 40
15.22988221610404
 40
15.53499058421764
 40
15.84009895233127
 40
16.14448581859721
 40
16.44888208587697
 40
16.7511913513993
 40
17.05351892094858
 40
17.35262106143992
 40
17.65174926163485
 40
17.9468732431723
 40
18.24202898779324
 40
18.53286361079633
 40
18.82373250468196
 40
19.11048214070429
 40
19.39726421331384
 40
19.68064438059995
 40
19.96405015053749
 40
20.24521350112588
 40
20.52639104373675
 40
20.80678564656694
 40
21.0871802493972
 40
21.0871802493972
 40
21.0871802493972
 40
21.0871802493972
 10
237.7577004539715
 20
247.5691447251606
 30
0.0
 10
237.7691515760614
 20
247.4760486500701
 30
0.0
 10
237.7920532422625
 20
247.2898611987764
 30
0.0
 10
237.8600905333115
 20
247.0156237454704
 30
0.0
 10
237.9517126622852
 20
246.7478970781635
 30
0.0
 10
238.06932365007
 20
246.4883365899952
 30
0.0
 10
238.210541973289
 20
246.2396022976281
 30
0.0
 10
238.3753639440338
 20
246.0027881928376
 30
0.0
 10
238.5614412411985
 20
245.7805298287707
 30
0.0
 10
238.7684660908098
 20
245.5736744416356
 30
0.0
 10
238.9936648885241
 20
245.3845606381225
 30
0.0
 10
239.2365297940533
 20
245.2139122539714
 30
0.0
 10
239.4939984250635
 20
245.0635949367216
 30
0.0
 10
239.7652763223349
 20
244.9342716013609
 30
0.0
 10
240.0472294762424
 20
244.8272386739226
 30
0.0
 10
240.338666629612
 20
244.7430915362606
 30
0.0
 10
240.6366045730696
 20
244.6825470275526
 30
0.0
 10
240.93937023787
 20
244.6460598308136
 30
0.0
 10
241.2443185750893
 20
244.6338327744627
 30
0.0
 10
241.5492669123141
 20
244.6460598308132
 30
0.0
 10
241.8520325770977
 20
244.6825470275539
 30
0.0
 10
242.1499705206171
 20
244.743091536256
 30
0.0
 10
242.4414076737577
 20
244.8272386739399
 30
0.0
 10
242.7233608285152
 20
244.934271601297
 30
0.0
 10
242.9946387226464
 20
245.0635949369576
 30
0.0
 10
243.2521073652986
 20
245.2139122530952
 30
0.0
 10
243.4949722279354
 20
245.3845606413439
 30
0.0
 10
243.7201711845124
 20
245.5736744296797
 30
0.0
 10
243.9271954495158
 20
245.7805298726678
 30
0.0
 10
244.1132749116999
 20
246.0027880298903
 30
0.0
 10
244.2780889114537
 20
246.2396028962232
 30
0.0
 10
244.4193367798676
 20
246.4883343658652
 30
0.0
 10
244.5368387473216
 20
246.7479052697515
 30
0.0
 10
244.6288656946915
 20
247.0155932610219
 30
0.0
 10
244.6954035223115
 20
247.2899739719049
 30
0.0
 10
244.735306305924
 20
247.5684649833684
 30
0.0
 10
244.7488184272533
 20
247.8492198197584
 30
0.0
 10
244.7353063059241
 20
248.1299746561483
 30
0.0
 10
244.6954035223115
 20
248.4084656676117
 30
0.0
 10
244.6288656946916
 20
248.6828463784949
 30
0.0
 10
244.5368387473217
 20
248.9505343697653
 30
0.0
 10
244.4193367798678
 20
249.2101052736517
 30
0.0
 10
244.2780889114538
 20
249.4588367432936
 30
0.0
 10
244.1132749116999
 20
249.6956516096265
 30
0.0
 10
243.9271954495158
 20
249.917909766849
 30
0.0
 10
243.7201711845123
 20
250.1247652098371
 30
0.0
 10
243.4949722279354
 20
250.3138789981729
 30
0.0
 10
243.2521073652985
 20
250.4845273864216
 30
0.0
 10
242.9946387226465
 20
250.6348447025591
 30
0.0
 10
242.7233608285152
 20
250.7641680382199
 30
0.0
 10
242.4414076737577
 20
250.871200965577
 30
0.0
 10
242.1499705206171
 20
250.9553481032608
 30
0.0
 10
241.8520325770977
 20
251.0158926119628
 30
0.0
 10
241.5492669123139
 20
251.0523798087035
 30
0.0
 10
241.2443185750902
 20
251.0646068650543
 30
0.0
 10
240.9393702378667
 20
251.0523798087035
 30
0.0
 10
240.6366045730818
 20
251.0158926119626
 30
0.0
 10
240.3386666295668
 20
250.955348103261
 30
0.0
 10
240.0472294764097
 20
250.8712009655758
 30
0.0
 10
239.7652763217132
 20
250.7641680382243
 30
0.0
 10
239.4939984273567
 20
250.6348447025421
 30
0.0
 10
239.2365297855394
 20
250.4845273864843
 30
0.0
 10
238.9936649198274
 20
250.3138789979419
 30
0.0
 10
238.7684659746402
 20
250.1247652106943
 30
0.0
 10
238.5614416677229
 20
249.917909763702
 30
0.0
 10
238.3753623607616
 20
249.6956516213092
 30
0.0
 10
238.2105477895209
 20
249.4588367003768
 30
0.0
 10
238.0693020393746
 20
249.2101054331124
 30
0.0
 10
237.9517922556161
 20
248.9505337824623
 30
0.0
 10
237.8597943320424
 20
248.6828485641031
 30
0.0
 10
237.7931489991272
 20
248.4084575822471
 30
0.0
 10
237.7536464131806
 20
248.1300048053594
 30
0.0
 10
237.7386446333632
 20
247.849107648149
 30
0.0
 10
237.7513485137688
 20
247.6624656994901
 30
0.0
 10
237.7577004539715
 20
247.5691447251606
 30
0.0
 11
237.7577004539715
 21
247.5691447251606
 31
0.0
 11
237.7976382634354
 21
247.2908179714269
 31
0.0
 11
237.8637754825745
 21
247.017543936878
 31
0.0
 11
237.9559293042404
 21
246.7495392660489
 31
0.0
 11
238.0726593555152
 21
246.4913176280313
 31
0.0
 11
238.2142582936772
 21
246.2419309846808
 31
0.0
 11
238.3779358942012
 21
246.0064846068247
 31
0.0
 11
238.5646243677778
 21
245.7834327580005
 31
0.0
 11
238.7702585780486
 21
245.5777647014053
 31
0.0
 11
238.9962527321752
 21
245.3879132966609
 31
0.0
 11
239.2376555412973
 21
245.2181403652893
 31
0.0
 11
239.4959546565206
 21
245.0672786828559
 31
0.0
 11
239.7659040679387
 21
244.9384788159245
 31
0.0
 11
240.0485376669332
 21
244.8311465839109
 31
0.0
 11
240.3389631809936
 21
244.7472185623484
 31
0.0
 11
240.6372592196344
 21
244.6865839116526
 31
0.0
 11
240.9394547738766
 21
244.6501255607366
 31
0.0
 11
241.2443185750902
 21
244.6379116750922
 31
0.0
 11
241.5491823763038
 21
244.6501255607366
 31
0.0
 11
241.851377930546
 21
244.6865839116527
 31
0.0
 11
242.1496739691869
 21
244.7472185623484
 31
0.0
 11
242.4400994832473
 21
244.8311465839109
 31
0.0
 11
242.7227330822416
 21
244.9384788159245
 31
0.0
 11
242.9926824936597
 21
245.067278682856
 31
0.0
 11
243.2509816088831
 21
245.2181403652894
 31
0.0
 11
243.4923844180054
 21
245.3879132966608
 31
0.0
 11
243.7183785721318
 21
245.5777647014053
 31
0.0
 11
243.9240127824026
 21
245.7834327580006
 31
0.0
 11
244.1107012559792
 21
246.0064846068247
 31
0.0
 11
244.2743788565033
 21
246.2419309846808
 31
0.0
 11
244.4159777946653
 21
246.4913176280313
 31
0.0
 11
244.53270784594
 21
246.7495392660489
 31
0.0
 11
244.6248616676058
 21
247.017543936878
 31
0.0
 11
244.6909988867448
 21
247.290817971427
 31
0.0
 11
244.7309366962087
 21
247.5691447251606
 31
0.0
 11
244.7443185750902
 21
247.8492198197583
 31
0.0
 11
244.7309366962087
 21
248.1292949143561
 31
0.0
 11
244.6909988867448
 21
248.4076216680898
 31
0.0
 11
244.6248616676058
 21
248.6808957026387
 31
0.0
 11
244.5327078459401
 21
248.9489003734679
 31
0.0
 11
244.4159777946654
 21
249.2071220114856
 31
0.0
 11
244.2743788565034
 21
249.456508654836
 31
0.0
 11
244.1107012559792
 21
249.6919550326921
 31
0.0
 11
243.9240127824026
 21
249.9150068815163
 31
0.0
 11
243.7183785721318
 21
250.1206749381115
 31
0.0
 11
243.4923844180054
 21
250.310526342856
 31
0.0
 11
243.2509816088831
 21
250.4802992742274
 31
0.0
 11
242.9926824936596
 21
250.6311609566607
 31
0.0
 11
242.7227330822416
 21
250.7599608235923
 31
0.0
 11
242.4400994832473
 21
250.867293055606
 31
0.0
 11
242.1496739691869
 21
250.9512210771684
 31
0.0
 11
241.8513779305459
 21
251.0118557278641
 31
0.0
 11
241.5491823763038
 21
251.0483140787802
 31
0.0
 11
241.2443185750902
 21
251.0605279644247
 31
0.0
 11
240.9394547738766
 21
251.0483140787801
 31
0.0
 11
240.6372592196345
 21
251.011855727864
 31
0.0
 11
240.3389631809936
 21
250.9512210771684
 31
0.0
 11
240.0485376669331
 21
250.867293055606
 31
0.0
 11
239.7659040679387
 21
250.7599608235923
 31
0.0
 11
239.4959546565207
 21
250.6311609566607
 31
0.0
 11
239.2376555412973
 21
250.4802992742273
 31
0.0
 11
238.9962527321751
 21
250.3105263428559
 31
0.0
 11
238.7702585780487
 21
250.1206749381115
 31
0.0
 11
238.5646243677778
 21
249.9150068815164
 31
0.0
 11
238.3779358942012
 21
249.6919550326921
 31
0.0
 11
238.2142582936771
 21
249.4565086548359
 31
0.0
 11
238.0726593555151
 21
249.2071220114855
 31
0.0
 11
237.9559293042404
 21
248.9489003734678
 31
0.0
 11
237.8637754825745
 21
248.6808957026387
 31
0.0
 11
237.7976382634354
 21
248.4076216680898
 31
0.0
 11
237.7577004539716
 21
248.1292949143561
 31
0.0
 11
237.7443185750901
 21
247.8492198197584
 31
0.0
 11
237.7577004539715
 21
247.5691447251606
 31
0.0
  0
SPLINE
  5
1DB
330
45
100
AcDbEntity
  8
1
  6
Continuous
 62
     7
100
AcDbSpline
210
0.0
220
0.0
230
1.0
 70
    11
 71
     3
 72
    79
 73
    75
 74
    73
 42
0.0000000001
 43
0.0000000001
 44
0.00000001
 40
0.0
 40
0.0
 40
0.0
 40
0.0
 40
0.2811775426108726
 40
0.5623408931991941
 40
0.8457466631367188
 40
1.129126830422856
 40
1.415908903032342
 40
1.702658539054525
 40
1.993527432940093
 40
2.284362055943222
 40
2.579517800564313
 40
2.874641782101763
 40
3.173769982296617
 40
3.472872122787976
 40
3.775199692337301
 40
4.077508957859618
 40
4.381905225139309
 40
4.68629209140529
 40
4.99140045951894
 40
5.296508827632565
 40
5.600895693898574
 40
5.90529196117832
 40
6.207601226700611
 40
6.509928796249782
 40
6.809030936741165
 40
7.108159136936113
 40
7.403283118473624
 40
7.698438863094642
 40
7.989273486097711
 40
8.280142379983246
 40
8.566892016005507
 40
8.853674088615056
 40
9.137054255901182
 40
9.420460025838651
 40
9.701623376426994
 40
9.982800919037931
 40
10.26319552186813
 40
10.54359012469833
 40
10.82476766730926
 40
11.10593101789771
 40
11.38933678783523
 40
11.67271695512133
 40
11.95949902773085
 40
12.24624866375303
 40
12.53711755763869
 40
12.8279521806418
 40
13.12310792526278
 40
13.41823190680031
 40
13.71736010699526
 40
14.01646224748664
 40
14.31878981703585
 40
14.62109908255809
 40
14.92549534983791
 40
15.22988221610387
 40
15.53499058421747
 40
15.8400989523311
 40
16.14448581859704
 40
16.4488820858768
 40
16.75119135139913
 40
17.0535189209484
 40
17.35262106143977
 40
17.65174926163467
 40
17.94687324317213
 40
18.2420289877931
 40
18.53286361079621
 40
18.82373250468181
 40
19.11048214070409
 40
19.39726421331364
 40
19.68064438059981
 40
19.96405015053731
 40
20.24521350112573
 40
20.52639104373666
 40
20.80678564656686
 40
21.08718024939711
 40
21.08718024939711
 40
21.08718024939711
 40
21.08718024939711
 10
237.7577004539715
 20
270.6459554127516
 30
0.0
 10
237.7691515760614
 20
270.7390514878421
 30
0.0
 10
237.7920532422626
 20
270.9252389391357
 30
0.0
 10
237.8600905333114
 20
271.1994763924417
 30
0.0
 10
237.9517126622853
 20
271.4672030597487
 30
0.0
 10
238.0693236500699
 20
271.726763547917
 30
0.0
 10
238.210541973289
 20
271.9754978402839
 30
0.0
 10
238.3753639440338
 20
272.2123119450746
 30
0.0
 10
238.5614412411985
 20
272.4345703091415
 30
0.0
 10
238.7684660908099
 20
272.6414256962765
 30
0.0
 10
238.993664888524
 20
272.8305394997898
 30
0.0
 10
239.2365297940533
 20
273.0011878839407
 30
0.0
 10
239.4939984250635
 20
273.1515052011907
 30
0.0
 10
239.765276322335
 20
273.2808285365511
 30
0.0
 10
240.0472294762424
 20
273.3878614639895
 30
0.0
 10
240.338666629612
 20
273.4720086016515
 30
0.0
 10
240.6366045730696
 20
273.5325531103596
 30
0.0
 10
240.93937023787
 20
273.5690403070986
 30
0.0
 10
241.2443185750893
 20
273.5812673634496
 30
0.0
 10
241.5492669123141
 20
273.5690403070988
 30
0.0
 10
241.8520325770977
 20
273.5325531103583
 30
0.0
 10
242.1499705206171
 20
273.4720086016562
 30
0.0
 10
242.4414076737577
 20
273.3878614639722
 30
0.0
 10
242.7233608285152
 20
273.2808285366151
 30
0.0
 10
242.9946387226465
 20
273.1515052009545
 30
0.0
 10
243.2521073652985
 20
273.0011878848169
 30
0.0
 10
243.4949722279355
 20
272.8305394965682
 30
0.0
 10
243.7201711845123
 20
272.6414257082324
 30
0.0
 10
243.9271954495158
 20
272.4345702652444
 30
0.0
 10
244.1132749117
 20
272.212312108022
 30
0.0
 10
244.2780889114537
 20
271.975497241689
 30
0.0
 10
244.4193367798675
 20
271.7267657720469
 30
0.0
 10
244.5368387473217
 20
271.4671948681606
 30
0.0
 10
244.6288656946915
 20
271.1995068768903
 30
0.0
 10
244.6954035223115
 20
270.9251261660072
 30
0.0
 10
244.7353063059241
 20
270.6466351545437
 30
0.0
 10
244.7488184272532
 20
270.3658803181538
 30
0.0
 10
244.7353063059241
 20
270.0851254817639
 30
0.0
 10
244.6954035223115
 20
269.8066344703004
 30
0.0
 10
244.6288656946916
 20
269.5322537594174
 30
0.0
 10
244.5368387473217
 20
269.264565768147
 30
0.0
 10
244.4193367798677
 20
269.0049948642604
 30
0.0
 10
244.2780889114539
 20
268.7562633946187
 30
0.0
 10
244.1132749116998
 20
268.5194485282857
 30
0.0
 10
243.9271954495157
 20
268.2971903710632
 30
0.0
 10
243.7201711845124
 20
268.0903349280751
 30
0.0
 10
243.4949722279354
 20
267.9012211397393
 30
0.0
 10
243.2521073652986
 20
267.7305727514906
 30
0.0
 10
242.9946387226464
 20
267.580255435353
 30
0.0
 10
242.7233608285152
 20
267.4509320996924
 30
0.0
 10
242.4414076737578
 20
267.3438991723351
 30
0.0
 10
242.149970520617
 20
267.2597520346513
 30
0.0
 10
241.8520325770977
 20
267.1992075259494
 30
0.0
 10
241.5492669123139
 20
267.1627203292086
 30
0.0
 10
241.2443185750901
 20
267.1504932728579
 30
0.0
 10
240.9393702378668
 20
267.1627203292086
 30
0.0
 10
240.6366045730818
 20
267.1992075259494
 30
0.0
 10
240.3386666295669
 20
267.2597520346511
 30
0.0
 10
240.0472294764097
 20
267.3438991723364
 30
0.0
 10
239.7652763217131
 20
267.4509320996876
 30
0.0
 10
239.4939984273568
 20
267.5802554353702
 30
0.0
 10
239.2365297855394
 20
267.7305727514276
 30
0.0
 10
238.9936649198274
 20
267.9012211399704
 30
0.0
 10
238.7684659746403
 20
268.0903349272177
 30
0.0
 10
238.5614416677228
 20
268.2971903742103
 30
0.0
 10
238.3753623607616
 20
268.519448516603
 30
0.0
 10
238.2105477895208
 20
268.7562634375353
 30
0.0
 10
238.0693020393746
 20
269.0049947047996
 30
0.0
 10
237.9517922556161
 20
269.2645663554499
 30
0.0
 10
237.8597943320423
 20
269.5322515738091
 30
0.0
 10
237.7931489991273
 20
269.8066425556651
 30
0.0
 10
237.7536464131807
 20
270.0850953325527
 30
0.0
 10
237.7386446333632
 20
270.3659924897633
 30
0.0
 10
237.7513485137688
 20
270.5526344384222
 30
0.0
 10
237.7577004539715
 20
270.6459554127516
 30
0.0
 11
237.7577004539715
 21
270.6459554127516
 31
0.0
 11
237.7976382634354
 21
270.9242821664853
 31
0.0
 11
237.8637754825745
 21
271.1975562010341
 31
0.0
 11
237.9559293042404
 21
271.4655608718633
 31
0.0
 11
238.0726593555152
 21
271.7237825098809
 31
0.0
 11
238.2142582936772
 21
271.9731691532313
 31
0.0
 11
238.3779358942012
 21
272.2086155310874
 31
0.0
 11
238.5646243677778
 21
272.4316673799116
 31
0.0
 11
238.7702585780486
 21
272.6373354365068
 31
0.0
 11
238.9962527321752
 21
272.8271868412513
 31
0.0
 11
239.2376555412973
 21
272.9969597726227
 31
0.0
 11
239.4959546565206
 21
273.1478214550562
 31
0.0
 11
239.7659040679387
 21
273.2766213219876
 31
0.0
 11
240.0485376669332
 21
273.3839535540013
 31
0.0
 11
240.3389631809936
 21
273.4678815755638
 31
0.0
 11
240.6372592196344
 21
273.5285162262595
 31
0.0
 11
240.9394547738766
 21
273.5649745771755
 31
0.0
 11
241.2443185750902
 21
273.57718846282
 31
0.0
 11
241.5491823763038
 21
273.5649745771755
 31
0.0
 11
241.851377930546
 21
273.5285162262595
 31
0.0
 11
242.1496739691869
 21
273.4678815755638
 31
0.0
 11
242.4400994832473
 21
273.3839535540012
 31
0.0
 11
242.7227330822416
 21
273.2766213219876
 31
0.0
 11
242.9926824936597
 21
273.1478214550562
 31
0.0
 11
243.2509816088831
 21
272.9969597726227
 31
0.0
 11
243.4923844180054
 21
272.8271868412513
 31
0.0
 11
243.7183785721318
 21
272.6373354365068
 31
0.0
 11
243.9240127824026
 21
272.4316673799116
 31
0.0
 11
244.1107012559792
 21
272.2086155310875
 31
0.0
 11
244.2743788565033
 21
271.9731691532314
 31
0.0
 11
244.4159777946653
 21
271.7237825098809
 31
0.0
 11
244.53270784594
 21
271.4655608718633
 31
0.0
 11
244.6248616676058
 21
271.1975562010341
 31
0.0
 11
244.6909988867448
 21
270.9242821664852
 31
0.0
 11
244.7309366962087
 21
270.6459554127515
 31
0.0
 11
244.7443185750902
 21
270.3658803181538
 31
0.0
 11
244.7309366962087
 21
270.0858052235561
 31
0.0
 11
244.6909988867448
 21
269.8074784698224
 31
0.0
 11
244.6248616676058
 21
269.5342044352734
 31
0.0
 11
244.5327078459401
 21
269.2661997644442
 31
0.0
 11
244.4159777946654
 21
269.0079781264266
 31
0.0
 11
244.2743788565034
 21
268.7585914830762
 31
0.0
 11
244.1107012559792
 21
268.5231451052201
 31
0.0
 11
243.9240127824026
 21
268.3000932563959
 31
0.0
 11
243.7183785721318
 21
268.0944251998007
 31
0.0
 11
243.4923844180054
 21
267.9045737950562
 31
0.0
 11
243.2509816088831
 21
267.7348008636848
 31
0.0
 11
242.9926824936596
 21
267.5839391812514
 31
0.0
 11
242.7227330822416
 21
267.4551393143199
 31
0.0
 11
242.4400994832473
 21
267.3478070823061
 31
0.0
 11
242.1496739691869
 21
267.2638790607438
 31
0.0
 11
241.8513779305459
 21
267.2032444100481
 31
0.0
 11
241.5491823763038
 21
267.1667860591321
 31
0.0
 11
241.2443185750902
 21
267.1545721734875
 31
0.0
 11
240.9394547738766
 21
267.166786059132
 31
0.0
 11
240.6372592196345
 21
267.2032444100481
 31
0.0
 11
240.3389631809936
 21
267.2638790607438
 31
0.0
 11
240.0485376669331
 21
267.3478070823061
 31
0.0
 11
239.7659040679387
 21
267.4551393143198
 31
0.0
 11
239.4959546565207
 21
267.5839391812514
 31
0.0
 11
239.2376555412973
 21
267.7348008636848
 31
0.0
 11
238.9962527321751
 21
267.9045737950562
 31
0.0
 11
238.7702585780487
 21
268.0944251998006
 31
0.0
 11
238.5646243677778
 21
268.3000932563958
 31
0.0
 11
238.3779358942012
 21
268.52314510522
 31
0.0
 11
238.2142582936771
 21
268.7585914830762
 31
0.0
 11
238.0726593555151
 21
269.0079781264266
 31
0.0
 11
237.9559293042404
 21
269.2661997644443
 31
0.0
 11
237.8637754825745
 21
269.5342044352735
 31
0.0
 11
237.7976382634354
 21
269.8074784698224
 31
0.0
 11
237.7577004539716
 21
270.0858052235561
 31
0.0
 11
237.7443185750901
 21
270.3658803181538
 31
0.0
 11
237.7577004539715
 21
270.6459554127516
 31
0.0
  0
ENDBLK
  5
47
330
45
100
AcDbEntity
  8
0
100
AcDbBlockEnd
  0
BLOCK
  5
1FC
330
1F5
100
AcDbEntity
  8
0
100
AcDbBlockBegin
  2
*D07
 70
     1
 71
     0
 10
0.0
 20
0.0
 30
0.0
  3
*D07
  1

  0
LINE
  5
1F6
330
1F5
100
AcDbEntity
  8
1
  6
Continuous
 62
     2
100
AcDbLine
 10
117.7439166509655
 20
483.178643844626
 30
0.0
 11
188.7472204992154
 21
483.178643844626
 31
0.0
  0
LINE
  5
1F7
330
1F5
100
AcDbEntity
  8
1
  6
Continuous
 62
     2
100
AcDbLine
 10
117.7439166509655
 20
446.1077924902934
 30
0.0
 11
117.7439166509655
 21
485.178643844626
 31
0.0
  0
LINE
  5
1F8
330
1F5
100
AcDbEntity
  8
1
  6
Continuous
 62
     2
100
AcDbLine
 10
188.7472204992154
 20
446.1077924902934
 30
0.0
 11
188.7472204992154
 21
485.178643844626
 31
0.0
  0
SOLID
  5
1F9
330
1F5
100
AcDbEntity
  8
1
 62
     2
100
AcDbTrace
 10
124.7439166509655
 20
484.1002113277377
 30
0.0
 11
124.7439166509655
 21
482.2570763615142
 31
0.0
 12
117.7439166509655
 22
483.178643844626
 32
0.0
 13
117.7439166509655
 23
483.178643844626
 33
0.0
  0
SOLID
  5
1FA
330
1F5
100
AcDbEntity
  8
1
 62
     2
100
AcDbTrace
 10
181.7472204992154
 20
482.2570763615142
 30
0.0
 11
181.7472204992154
 21
484.1002113277377
 31
0.0
 12
188.7472204992154
 22
483.178643844626
 32
0.0
 13
188.7472204992154
 23
483.178643844626
 33
0.0
  0
MTEXT
  5
1FB
330
1F5
100
AcDbEntity
  8
1
 62
     7
100
AcDbMText
 10
149.4214865235649
 20
485.178643844626
 30
0.0
 40
7.0
 41
0.0
 71
     7
 72
     1
  1
71
  7
CONVERTER_2
 11
0.9999999999970621
 21
2.424068405545307E-6
 31
0.0
 73
     1
 44
0.60024009603842
  0
ENDBLK
  5
1FD
330
1F5
100
AcDbEntity
  8
0
100
AcDbBlockEnd
  0
BLOCK
  5
207
330
200
100
AcDbEntity
  8
0
100
AcDbBlockBegin
  2
*D18
 70
     1
 71
     0
 10
0.0
 20
0.0
 30
0.0
  3
*D18
  1

  0
LINE
  5
201
330
200
100
AcDbEntity
  8
1
  6
Continuous
 62
     2
100
AcDbLine
 10
228.2468827394406
 20
226.1075500689562
 30
0.0
 11
300.2443185750901
 21
226.1075500689562
 31
0.0
  0
LINE
  5
202
330
200
100
AcDbEntity
  8
1
  6
Continuous
 62
     2
100
AcDbLine
 10
228.2468827394406
 20
255.3555817370248
 30
0.0
 11
228.2468827394406
 21
224.1075500689562
 31
0.0
  0
LINE
  5
203
330
200
100
AcDbEntity
  8
1
  6
Continuous
 62
     2
100
AcDbLine
 10
300.2443185750901
 20
246.1075500689561
 30
0.0
 11
300.2443185750901
 21
224.1075500689562
 31
0.0
  0
SOLID
  5
204
330
200
100
AcDbEntity
  8
1
 62
     2
100
AcDbTrace
 10
235.2468827394406
 20
227.029117552068
 30
0.0
 11
235.2468827394406
 21
225.1859825858444
 31
0.0
 12
228.2468827394406
 22
226.1075500689562
 32
0.0
 13
228.2468827394406
 23
226.1075500689562
 33
0.0
  0
SOLID
  5
205
330
200
100
AcDbEntity
  8
1
 62
     2
100
AcDbTrace
 10
293.2443185750901
 20
225.1859825858444
 30
0.0
 11
293.2443185750901
 21
227.029117552068
 31
0.0
 12
300.2443185750901
 22
226.1075500689562
 32
0.0
 13
300.2443185750901
 23
226.1075500689562
 33
0.0
  0
MTEXT
  5
206
330
200
100
AcDbEntity
  8
1
 62
     7
100
AcDbMText
 10
258.9955884648717
 20
228.1075500689562
 30
0.0
 40
7.0
 41
0.0
 71
     7
 72
     1
  1
72
  7
CONVERTER_2
 11
0.9999999999970621
 21
2.424068405545307E-6
 31
0.0
 73
     1
 44
0.60024009603842
  0
ENDBLK
  5
208
330
200
100
AcDbEntity
  8
0
100
AcDbBlockEnd
  0
BLOCK
  5
212
330
20B
100
AcDbEntity
  8
0
100
AcDbBlockBegin
  2
*D29
 70
     1
 71
     0
 10
0.0
 20
0.0
 30
0.0
  3
*D29
  1

  0
LINE
  5
20C
330
20B
100
AcDbEntity
  8
1
  6
Continuous
 62
     2
100
AcDbLine
 10
228.2468339744345
 20
309.1075500689563
 30
0.0
 11
270.24556857509
 21
309.1075500689563
 31
0.0
  0
LINE
  5
20D
330
20B
100
AcDbEntity
  8
1
  6
Continuous
 62
     2
100
AcDbLine
 10
228.2468339744345
 20
262.8588154683004
 30
0.0
 11
228.2468339744345
 21
311.1075500689563
 31
0.0
  0
LINE
  5
20E
330
20B
100
AcDbEntity
  8
1
  6
Continuous
 62
     2
100
AcDbLine
 10
270.24556857509
 20
292.1075500689562
 30
0.0
 11
270.24556857509
 21
311.1075500689563
 31
0.0
  0
SOLID
  5
20F
330
20B
100
AcDbEntity
  8
1
 62
     2
100
AcDbTrace
 10
235.2468339744345
 20
310.029117552068
 30
0.0
 11
235.2468339744345
 21
308.1859825858446
 31
0.0
 12
228.2468339744345
 22
309.1075500689563
 32
0.0
 13
228.2468339744345
 23
309.1075500689563
 33
0.0
  0
SOLID
  5
210
330
20B
100
AcDbEntity
  8
1
 62
     2
100
AcDbTrace
 10
263.24556857509
 20
308.1859825858446
 30
0.0
 11
263.24556857509
 21
310.029117552068
 31
0.0
 12
270.24556857509
 22
309.1075500689563
 32
0.0
 13
270.24556857509
 23
309.1075500689563
 33
0.0
  0
MTEXT
  5
211
330
20B
100
AcDbEntity
  8
1
 62
     7
100
AcDbMText
 10
230.3462134648717
 20
311.1075500689563
 30
0.0
 40
7.0
 41
0.0
 71
     7
 72
     1
  1
42リフト5
  7
CONVERTER_1
 11
0.9999999999970621
 21
2.424068405545307E-6
 31
0.0
 73
     1
 44
0.60024009603842
  0
ENDBLK
  5
213
330
20B
100
AcDbEntity
  8
0
100
AcDbBlockEnd
  0
BLOCK
  5
21D
330
216
100
AcDbEntity
  8
0
100
AcDbBlockBegin
  2
*D310
 70
     1
 71
     0
 10
0.0
 20
0.0
 30
0.0
  3
*D310
  1

  0
LINE
  5
217
330
216
100
AcDbEntity
  8
1
  6
Continuous
 62
     2
100
AcDbLine
 10
95.74556857509097
 20
435.1089042235736
 30
0.0
 11
95.74556857509097
 21
465.1081944144184
 31
0.0
  0
LINE
  5
218
330
216
100
AcDbEntity
  8
1
  6
Continuous
 62
     2
100
AcDbLine
 10
111.7439166509656
 20
435.1089042235736
 30
0.0
 11
93.74556857509097
 21
435.1089042235736
 31
0.0
  0
LINE
  5
219
330
216
100
AcDbEntity
  8
1
  6
Continuous
 62
     2
100
AcDbLine
 10
141.9872383258933
 20
465.1081944144184
 30
0.0
 11
93.74556857509097
 21
465.1081944144184
 31
0.0
  0
SOLID
  5
21A
330
216
100
AcDbEntity
  8
1
 62
     2
100
AcDbTrace
 10
94.8240010919792
 20
442.1089042235736
 30
0.0
 11
96.66713605820274
 21
442.1089042235736
 31
0.0
 12
95.74556857509097
 22
435.1089042235736
 32
0.0
 13
95.74556857509097
 23
435.1089042235736
 33
0.0
  0
SOLID
  5
21B
330
216
100
AcDbEntity
  8
1
 62
     2
100
AcDbTrace
 10
96.66713605820274
 20
458.1081944144184
 30
0.0
 11
94.8240010919792
 21
458.1081944144184
 31
0.0
 12
95.74556857509097
 22
465.1081944144184
 32
0.0
 13
95.74556857509097
 23
465.1081944144184
 33
0.0
  0
MTEXT
  5
21C
330
216
100
AcDbEntity
  8
1
 62
     7
100
AcDbMText
 10
93.74556857509097
 20
444.7009613844758
 30
0.0
 40
7.0
 41
0.0
 71
     7
 72
     1
  1
30
  7
CONVERTER_2
 11
0.0
 21
1.0
 31
0.0
 73
     1
 44
0.60024009603842
  0
ENDBLK
  5
21E
330
216
100
AcDbEntity
  8
0
100
AcDbBlockEnd
  0
BLOCK
  5
22A
330
221
100
AcDbEntity
  8
0
100
AcDbBlockBegin
  2
*D411
 70
     1
 71
     0
 10
0.0
 20
0.0
 30
0.0
  3
*D411
  1

  0
LINE
  5
222
330
221
100
AcDbEntity
  8
1
  6
Continuous
 62
     2
100
AcDbLine
 10
336.2443185750901
 20
280.1075500689562
 30
0.0
 11
336.2443185750901
 21
266.1075500689562
 31
0.0
  0
LINE
  5
223
330
221
100
AcDbEntity
  8
1
  6
Continuous
 62
     2
100
AcDbLine
 10
336.2443185750901
 20
289.1075500689562
 30
0.0
 11
336.2443185750901
 21
280.1075500689562
 31
0.0
  0
LINE
  5
224
330
221
100
AcDbEntity
  8
1
  6
Continuous
 62
     2
100
AcDbLine
 10
336.2443185750901
 20
303.1075500689562
 30
0.0
 11
336.2443185750901
 21
289.1075500689562
 31
0.0
  0
LINE
  5
225
330
221
100
AcDbEntity
  8
1
  6
Continuous
 62
     2
100
AcDbLine
 10
279.55981857509
 20
289.1075500689562
 30
0.0
 11
338.2443185750901
 21
289.1075500689562
 31
0.0
  0
LINE
  5
226
330
221
100
AcDbEntity
  8
1
  6
Continuous
 62
     2
100
AcDbLine
 10
280.72181857509
 20
280.1075500689562
 30
0.0
 11
338.2443185750901
 21
280.1075500689562
 31
0.0
  0
SOLID
  5
227
330
221
100
AcDbEntity
  8
1
 62
     2
100
AcDbTrace
 10
335.3227510919784
 20
296.1075500689562
 30
0.0
 11
337.1658860582019
 21
296.1075500689562
 31
0.0
 12
336.2443185750901
 22
289.1075500689562
 32
0.0
 13
336.2443185750901
 23
289.1075500689562
 33
0.0
  0
SOLID
  5
228
330
221
100
AcDbEntity
  8
1
 62
     2
100
AcDbTrace
 10
337.1658860582019
 20
273.1075500689562
 30
0.0
 11
335.3227510919784
 21
273.1075500689562
 31
0.0
 12
336.2443185750901
 22
280.1075500689562
 32
0.0
 13
336.2443185750901
 23
280.1075500689562
 33
0.0
  0
MTEXT
  5
229
330
221
100
AcDbEntity
  8
1
 62
     7
100
AcDbMText
 10
334.2443185750901
 20
282.5075500689562
 30
0.0
 40
7.0
 41
0.0
 71
     7
 72
     1
  1
9
  7
CONVERTER_2
 11
0.0
 21
1.0
 31
0.0
 73
     1
 44
0.60024009603842
  0
ENDBLK
  5
22B
330
221
100
AcDbEntity
  8
0
100
AcDbBlockEnd
  0
BLOCK
  5
235
330
22E
100
AcDbEntity
  8
0
100
AcDbBlockBegin
  2
*D512
 70
     1
 71
     0
 10
0.0
 20
0.0
 30
0.0
  3
*D512
  1

  0
LINE
  5
22F
330
22E
100
AcDbEntity
  8
1
  6
Continuous
 62
     2
100
AcDbLine
 10
320.2455685750899
 20
272.1075500689561
 30
0.0
 11
320.2455685750899
 21
246.1075500689561
 31
0.0
  0
LINE
  5
230
330
22E
100
AcDbEntity
  8
1
  6
Continuous
 62
     2
100
AcDbLine
 10
300.2443185750901
 20
272.1075500689561
 30
0.0
 11
322.2455685750899
 21
272.1075500689561
 31
0.0
  0
LINE
  5
231
330
22E
100
AcDbEntity
  8
1
  6
Continuous
 62
     2
100
AcDbLine
 10
300.2443185750901
 20
246.1075500689561
 30
0.0
 11
322.2455685750899
 21
246.1075500689561
 31
0.0
  0
SOLID
  5
232
330
22E
100
AcDbEntity
  8
1
 62
     2
100
AcDbTrace
 10
321.1671360582017
 20
265.1075500689561
 30
0.0
 11
319.3240010919782
 21
265.1075500689561
 31
0.0
 12
320.2455685750899
 22
272.1075500689561
 32
0.0
 13
320.2455685750899
 23
272.1075500689561
 33
0.0
  0
SOLID
  5
233
330
22E
100
AcDbEntity
  8
1
 62
     2
100
AcDbTrace
 10
319.3240010919782
 20
253.1075500689561
 30
0.0
 11
321.1671360582017
 21
253.1075500689561
 31
0.0
 12
320.2455685750899
 22
246.1075500689561
 32
0.0
 13
320.2455685750899
 23
246.1075500689561
 33
0.0
  0
MTEXT
  5
234
330
22E
100
AcDbEntity
  8
1
 62
     7
100
AcDbMText
 10
318.2455685750899
 20
253.8901642023412
 30
0.0
 40
7.0
 41
0.0
 71
     7
 72
     1
  1
26
  7
CONVERTER_2
 11
0.0
 21
1.0
 31
0.0
 73
     1
 44
0.60024009603842
  0
ENDBLK
  5
236
330
22E
100
AcDbEntity
  8
0
100
AcDbBlockEnd
  0
ENDSEC
  0
SECTION
  2
ENTITIES
  0
INSERT
  5
48
330
1F
100
AcDbEntity
  8
1
100
AcDbBlockReference
  2
_J__A4
 10
0.0
 20
0.0
 30
0.0
 41
2.0
 42
2.0
 43
2.0
  0
INSERT
  5
49
330
1F
100
AcDbEntity
  8
0
100
AcDbBlockReference
  2
32-213-M2__1
 10
450.8526093743659
 20
217.9038074808955
 30
0.0
  0
INSERT
  5
4A
330
1F
100
AcDbEntity
  8
1
100
AcDbBlockReference
  2
B411-0A-13-M11
 10
1635.24556857509
 20
457.607550068956
 30
0.0
  0
INSERT
  5
4B
330
1F
100
AcDbEntity
  8
1
100
AcDbBlockReference
  2
32-213-M2__2
 10
-125.6046426015091
 20
500.828490091859
 30
0.0
  0
INSERT
  5
4C
330
1F
100
AcDbEntity
  8
1
100
AcDbBlockReference
  2
36-45-M11
 10
611.27489921846
 20
562.510124155368
 30
0.0
  0
INSERT
  5
4D
330
1F
100
AcDbEntity
  8
0
100
AcDbBlockReference
  2
37-1-13
 10
391.7400244652347
 20
167.3063198521851
 30
0.0
  0
LINE
  5
1DC
330
1F
100
AcDbEntity
  8
1
  6
DASH_CENTER
 62
     2
100
AcDbLine
 10
153.2455685750906
 20
389.6069444144185
 30
0.0
 11
153.2455685750906
 21
471.1081944144184
 31
0.0
  0
LINE
  5
1DD
330
1F
100
AcDbEntity
  8
1
  6
DASH_CENTER
 62
     2
100
AcDbLine
 10
111.7455685750913
 20
259.1075500689561
 30
0.0
 11
194.7455685750899
 21
259.1075500689561
 31
0.0
  0
LINE
  5
1DE
330
1F
100
AcDbEntity
  8
1
  6
DASH_CENTER
 62
     2
100
AcDbLine
 10
153.2455685750906
 20
238.6075500689561
 30
0.0
 11
153.2455685750906
 21
295.107550068956
 31
0.0
  0
LINE
  5
1DF
330
1F
100
AcDbEntity
  8
1
  6
DASH_CENTER
 62
     2
100
AcDbLine
 10
270.24556857509
 20
292.1075500689562
 30
0.0
 11
270.2455685750899
 21
243.1075500689562
 31
0.0
  0
LINE
  5
1E0
330
1F
100
AcDbEntity
  8
1
  6
DASH_CENTER
 62
     2
100
AcDbLine
 10
111.7439166509656
 20
435.1089042235736
 30
0.0
 11
194.7472204992154
 21
435.1074846052636
 31
0.0
  0
LINE
  5
1E1
330
1F
100
AcDbEntity
  8
1
  6
DASH_CENTER
 62
     2
100
AcDbLine
 10
222.2468339744344
 20
259.1075500689561
 30
0.0
 11
306.2443185750901
 21
259.1075500689561
 31
0.0
  0
SOLID
  5
1E2
330
1F
100
AcDbEntity
  8
1
 62
     2
100
AcDbTrace
 10
128.0436694267671
 20
418.1077328463715
 30
0.0
 11
126.4474677234142
 21
419.0293003294833
 31
0.0
 12
130.7455685750907
 22
424.6306944144184
 32
0.0
 13
130.7455685750907
 23
424.6306944144184
 33
0.0
  0
LEADER
  5
1E3
330
1F
100
AcDbEntity
  8
1
  6
Continuous
 62
     2
100
AcDbLeader
  3
Standard
 71
     0
 76
     3
 10
130.7455685750907
 20
424.6306944144184
 30
0.0
 10
115.7000756808046
 20
398.5711362965984
 30
0.0
 10
87.62733749543412
 20
398.5711362965984
 30
0.0
  0
SOLID
  5
1E4
330
1F
100
AcDbEntity
  8
1
 62
     2
100
AcDbTrace
 10
180.0436694267668
 20
419.0293003294833
 30
0.0
 11
178.4474677234139
 21
418.1077328463715
 31
0.0
 12
175.7455685750903
 22
424.6306944144184
 32
0.0
 13
175.7455685750903
 23
424.6306944144184
 33
0.0
  0
LEADER
  5
1E5
330
1F
100
AcDbEntity
  8
1
  6
Continuous
 62
     2
100
AcDbLeader
  3
Standard
 71
     0
 76
     3
 10
175.7455685750903
 20
424.6306944144184
 30
0.0
 10
190.7910614693764
 20
398.5711362965984
 30
0.0
 10
218.8637996547469
 20
398.5711362965984
 30
0.0
  0
SOLID
  5
1E6
330
1F
100
AcDbEntity
  8
1
 62
     2
100
AcDbTrace
 10
304.5424194267666
 20
242.7761559840209
 30
0.0
 11
302.9462177234136
 21
241.8545885009091
 31
0.0
 12
300.2443185750901
 22
248.3775500689561
 32
0.0
 13
300.2443185750901
 23
248.3775500689561
 33
0.0
  0
LEADER
  5
1E7
330
1F
100
AcDbEntity
  8
1
  6
Continuous
 62
     2
100
AcDbLeader
  3
Standard
 71
     0
 76
     3
 10
300.2443185750901
 20
248.3775500689561
 30
0.0
 10
318.8119698784841
 20
216.2174346342552
 30
0.0
 10
348.8345185234969
 20
216.2174346342552
 30
0.0
  0
SOLID
  5
1E8
330
1F
100
AcDbEntity
  8
1
 62
     2
100
AcDbTrace
 10
283.4237177234136
 20
291.1169384263589
 30
0.0
 11
285.0199194267665
 21
290.1953709432471
 31
0.0
 12
280.72181857509
 22
284.593976858312
 32
0.0
 13
280.72181857509
 23
284.593976858312
 33
0.0
  0
LEADER
  5
1E9
330
1F
100
AcDbEntity
  8
1
  6
Continuous
 62
     2
100
AcDbLeader
  3
Standard
 71
     0
 76
     3
 10
280.72181857509
 20
284.593976858312
 30
0.0
 10
297.787435216743
 20
314.1524919441479
 30
0.0
 10
325.0609737427049
 20
314.1524919441479
 30
0.0
  0
MTEXT
  5
1EB
330
1F
100
AcDbEntity
  8
1
 62
     7
100
AcDbMText
 10
68.0
 20
75.0
 30
0.0
 40
7.0
 41
0.0
 71
     4
 72
     1
  1
JIS
  7
CONVERTER_2
 73
     1
 44
0.7202881152461
  0
MTEXT
  5
1EC
330
1F
100
AcDbEntity
  8
1
 62
     7
100
AcDbMText
 10
114.0
 20
28.5
 30
0.0
 40
7.0
 41
0.0
 71
     5
 72
     1
  1
B411D-X3-13
  7
CONVERTER_2
 73
     1
 44
0.7202881152461
  0
MTEXT
  5
1ED
330
1F
100
AcDbEntity
  8
1
 62
     7
100
AcDbMText
 10
187.5
 20
34.0
 30
0.0
 40
7.0
 41
0.0
 71
     5
 72
     1
  1
2
  7
CONVERTER_2
 73
     1
 44
0.7202881152461
  0
MTEXT
  5
1EE
330
1F
100
AcDbEntity
  8
1
 62
     7
100
AcDbMText
 10
170.5
 20
34.0
 30
0.0
 40
7.0
 41
0.0
 71
     5
 72
     1
  1
1
  7
CONVERTER_2
 73
     1
 44
0.7202881152461
  0
MTEXT
  5
1EF
330
1F
100
AcDbEntity
  8
1
 62
     7
100
AcDbMText
 10
98.64771222324862
 20
404.7368052307643
 30
0.0
 40
7.0
 41
0.0
 71
     5
 72
     1
  1
G1/2
  7
CONVERTER_2
 73
     1
 44
0.7202881152461
  0
MTEXT
  5
1F0
330
1F
100
AcDbEntity
  8
1
 62
     7
100
AcDbMText
 10
206.2811648323134
 20
404.7368052307643
 30
0.0
 40
7.0
 41
0.0
 71
     5
 72
     1
  1
G1/2
  7
CONVERTER_2
 73
     1
 44
0.7202881152461
  0
MTEXT
  5
1F1
330
1F
100
AcDbEntity
  8
1
 62
     7
100
AcDbMText
 10
114.0
 20
45.50000000000002
 30
0.0
 40
7.0
 41
0.0
 71
     5
 72
     1
  1
D式分岐止水栓本体
  7
CONVERTER_1
 73
     1
 44
0.7202881152461
  0
MTEXT
  5
1F2
330
1F
100
AcDbEntity
  8
1
 62
     7
100
AcDbMText
 10
335.3700062813479
 20
222.3831035684211
 30
0.0
 40
7.0
 41
0.0
 71
     5
 72
     1
  1
Rc1/2
  7
CONVERTER_2
 73
     1
 44
0.7202881152461
  0
MTEXT
  5
1F3
330
1F
100
AcDbEntity
  8
1
 62
     7
100
AcDbMText
 10
311.5077115228929
 20
320.1524919441479
 30
0.0
 40
7.0
 41
0.0
 71
     5
 72
     1
  1
G1/2
  7
CONVERTER_2
 73
     1
 44
0.7202881152461
  0
MTEXT
  5
1F4
330
1F
100
AcDbEntity
  8
1
 62
     7
100
AcDbMText
 10
68.0
 20
61.00000000000001
 30
0.0
 40
7.0
 41
0.0
 71
     4
 72
     1
  1
共用形
  7
CONVERTER_1
 73
     1
 44
0.7202881152461
  0
DIMENSION
  5
1FF
330
1F
100
AcDbEntity
  8
1
100
AcDbDimension
  2
*D07
 10
117.7439166509655
 20
483.178643844626
 30
0.0
 11
153.6214865235649
 21
488.678643844626
 31
0.0
 70
     1
  1
<>
 71
     5
 42
0.0
 53
0.00013888888889
  3
ME10_DIM_0
100
AcDbAlignedDimension
 13
188.7472204992154
 23
446.1077924902935
 33
0.0
 14
117.7439166509656
 24
446.1077924902935
 34
0.0
  0
DIMENSION
  5
20A
330
1F
100
AcDbEntity
  8
1
100
AcDbDimension
  2
*D18
 10
228.2468827394406
 20
226.1075500689562
 30
0.0
 11
264.2455884648717
 21
231.6075500689562
 31
0.0
  1
<>
 71
     5
 42
0.0
 53
0.00013888888889
  3
ME10_DIM_1
100
AcDbAlignedDimension
 13
300.2443185750901
 23
246.1075500689561
 33
0.0
 14
228.2468827394406
 24
255.3555817370248
 34
0.0
100
AcDbRotatedDimension
  0
DIMENSION
  5
215
330
1F
100
AcDbEntity
  8
1
100
AcDbDimension
  2
*D29
 10
228.2468339744345
 20
309.1075500689563
 30
0.0
 11
249.2462134648717
 21
314.6075500689563
 31
0.0
  1
42リフト5
 71
     5
 42
0.0
 53
0.00013888888889
  3
ME10_DIM_2
100
AcDbAlignedDimension
 13
270.24556857509
 23
292.1075500689562
 33
0.0
 14
228.2468339744344
 24
262.8588154683004
 34
0.0
100
AcDbRotatedDimension
  0
DIMENSION
  5
220
330
1F
100
AcDbEntity
  8
1
100
AcDbDimension
  2
*D310
 10
95.74556857509097
 20
435.1089042235736
 30
0.0
 11
90.24556857509097
 21
449.9509613844758
 31
0.0
  1
<>
 71
     5
 42
0.0
 53
90.0
  3
ME10_DIM_3
100
AcDbAlignedDimension
 13
141.9872383258933
 23
465.1081944144184
 33
0.0
 14
111.7439166509656
 24
435.1089042235736
 34
0.0
 50
90.0
100
AcDbRotatedDimension
  0
DIMENSION
  5
22D
330
1F
100
AcDbEntity
  8
1
100
AcDbDimension
  2
*D411
 10
336.2443185750901
 20
289.1075500689562
 30
0.0
 11
330.7443185750901
 21
284.6075500689562
 31
0.0
  1
<>
 71
     5
 42
0.0
 53
90.0
  3
ME10_DIM_4
100
AcDbAlignedDimension
 13
280.72181857509
 23
280.1075500689562
 33
0.0
 14
279.55981857509
 24
289.1075500689562
 34
0.0
 50
90.0
100
AcDbRotatedDimension
  0
DIMENSION
  5
238
330
1F
100
AcDbEntity
  8
1
100
AcDbDimension
  2
*D512
 10
320.2455685750899
 20
272.1075500689561
 30
0.0
 11
314.7455685750899
 21
259.1401642023412
 31
0.0
  1
<>
 71
     5
 42
0.0
 53
90.0
  3
ME10_DIM_5
100
AcDbAlignedDimension
 13
300.2443185750901
 23
246.1075500689561
 33
0.0
 14
300.2443185750901
 24
272.1075500689561
 34
0.0
 50
90.0
100
AcDbRotatedDimension
  0
ENDSEC
  0
SECTION
  2
OBJECTS
  0
DICTIONARY
  5
C
330
0
100
AcDbDictionary
281
     1
  3
ACAD_GROUP
350
D
  3
ACAD_LAYOUT
350
1A
  3
ACAD_MLINESTYLE
350
17
  3
ACAD_PLOTSETTINGS
350
19
  3
ACAD_PLOTSTYLENAME
350
E
  3
ACAD_TABLESTYLE
350
2A
  3
AcDbVariableDictionary
350
2C
  0
DICTIONARY
  5
D
102
{ACAD_REACTORS
330
C
102
}
330
C
100
AcDbDictionary
281
     1
  0
DICTIONARY
  5
1A
102
{ACAD_REACTORS
330
C
102
}
330
C
100
AcDbDictionary
281
     1
  3
Layout1
350
1E
  3
Layout2
350
26
  3
Model
350
22
  0
DICTIONARY
  5
17
102
{ACAD_REACTORS
330
C
102
}
330
C
100
AcDbDictionary
281
     1
  3
Standard
350
18
  0
DICTIONARY
  5
19
102
{ACAD_REACTORS
330
C
102
}
330
C
100
AcDbDictionary
281
     1
  0
ACDBDICTIONARYWDFLT
  5
E
102
{ACAD_REACTORS
330
C
102
}
330
C
100
AcDbDictionary
281
     1
  3
Normal
350
F
100
AcDbDictionaryWithDefault
340
F
  0
DICTIONARY
  5
2A
102
{ACAD_REACTORS
330
C
102
}
330
C
100
AcDbDictionary
281
     1
  3
Standard
350
2B
  0
DICTIONARY
  5
2C
102
{ACAD_REACTORS
330
C
102
}
330
C
100
AcDbDictionary
281
     1
  3
CTABLESTYLE
350
2D
  0
LAYOUT
  5
1E
102
{ACAD_REACTORS
330
1A
102
}
330
1A
100
AcDbPlotSettings
  1

  2

  4

  6

 40
0.0
 41
0.0
 42
0.0
 43
0.0
 44
0.0
 45
0.0
 46
0.0
 47
0.0
 48
0.0
 49
0.0
140
0.0
141
0.0
142
1.0
143
1.0
 70
   688
 72
     0
 73
     0
 74
     5
  7

 75
    16
147
1.0
148
0.0
149
0.0
100
AcDbLayout
  1
Layout1
 70
     1
 71
     1
 10
0.0
 20
0.0
 11
12.0
 21
9.0
 12
0.0
 22
0.0
 32
0.0
 14
1.00000000000000E+20
 24
1.00000000000000E+20
 34
1.00000000000000E+20
 15
-1.00000000000000E+20
 25
-1.00000000000000E+20
 35
-1.00000000000000E+20
146
0.0
 13
0.0
 23
0.0
 33
0.0
 16
1.0
 26
0.0
 36
0.0
 17
0.0
 27
1.0
 37
0.0
 76
     0
330
1B
  0
LAYOUT
  5
26
102
{ACAD_REACTORS
330
1A
102
}
330
1A
100
AcDbPlotSettings
  1

  2

  4

  6

 40
0.0
 41
0.0
 42
0.0
 43
0.0
 44
0.0
 45
0.0
 46
0.0
 47
0.0
 48
0.0
 49
0.0
140
0.0
141
0.0
142
1.0
143
1.0
 70
   688
 72
     0
 73
     0
 74
     5
  7

 75
    16
147
1.0
148
0.0
149
0.0
100
AcDbLayout
  1
Layout2
 70
     1
 71
     2
 10
0.0
 20
0.0
 11
0.0
 21
0.0
 12
0.0
 22
0.0
 32
0.0
 14
0.0
 24
0.0
 34
0.0
 15
0.0
 25
0.0
 35
0.0
146
0.0
 13
0.0
 23
0.0
 33
0.0
 16
1.0
 26
0.0
 36
0.0
 17
0.0
 27
1.0
 37
0.0
 76
     0
330
23
  0
LAYOUT
  5
22
102
{ACAD_REACTORS
330
1A
102
}
330
1A
100
AcDbPlotSettings
  1

  2

  4

  6

 40
0.0
 41
0.0
 42
0.0
 43
0.0
 44
0.0
 45
0.0
 46
0.0
 47
0.0
 48
0.0
 49
0.0
140
0.0
141
0.0
142
1.0
143
1.0
 70
  1712
 72
     0
 73
     0
 74
     0
  7

 75
     0
147
1.0
148
0.0
149
0.0
100
AcDbLayout
  1
Model
 70
     1
 71
     0
 10
0.0
 20
0.0
 11
0.0
 21
0.0
 12
0.0
 22
0.0
 32
0.0
 14
0.0
 24
0.0
 34
0.0
 15
420.0
 25
594.0
 35
0.0
146
0.0
 13
0.0
 23
0.0
 33
0.0
 16
1.0
 26
0.0
 36
0.0
 17
0.0
 27
1.0
 37
0.0
 76
     0
330
1F
  0
MLINESTYLE
  5
18
102
{ACAD_REACTORS
330
17
102
}
330
17
100
AcDbMlineStyle
  2
Standard
 70
     0
  3

 62
   256
 51
90.0
 52
90.0
 71
     2
 49
0.5
 62
   256
  6
BYLAYER
 49
-0.5
 62
   256
  6
BYLAYER
  0
ACDBPLACEHOLDER
  5
F
102
{ACAD_REACTORS
330
E
102
}
330
E
  0
TABLESTYLE
  5
2B
102
{ACAD_REACTORS
330
2A
102
}
330
2A
100
AcDbTableStyle
  3
Standard
 70
     0
 71
     0
 40
0.06
 41
0.06
280
     0
281
     0
  7
Standard
140
0.18
170
     2
 62
     0
 63
     7
283
     0
274
    -2
284
     1
 64
     0
275
    -2
285
     1
 65
     0
276
    -2
286
     1
 66
     0
277
    -2
287
     1
 67
     0
278
    -2
288
     1
 68
     0
279
    -2
289
     1
 69
     0
  7
Standard
140
0.25
170
     5
 62
     0
 63
     7
283
     0
274
    -2
284
     1
 64
     0
275
    -2
285
     1
 65
     0
276
    -2
286
     1
 66
     0
277
    -2
287
     1
 67
     0
278
    -2
288
     1
 68
     0
279
    -2
289
     1
 69
     0
  7
Standard
140
0.18
170
     5
 62
     0
 63
     7
283
     0
274
    -2
284
     1
 64
     0
275
    -2
285
     1
 65
     0
276
    -2
286
     1
 66
     0
277
    -2
287
     1
 67
     0
278
    -2
288
     1
 68
     0
279
    -2
289
     1
 69
     0
  0
DICTIONARYVAR
  5
2D
102
{ACAD_REACTORS
330
2C
102
}
330
2C
100
DictionaryVariables
280
     0
  1
Standard
  0
ENDSEC
  0
EOF
