  0
SECTION
  2
HEADER
  9
$ACADVER
  1
AC1015
  9
$ACADMAINTVER
 70
     6
  9
$DWGCODEPAGE
  3
DOS932
  9
$INSBASE
 10
0.0
 20
0.0
 30
0.0
  9
$EXTMIN
 10
0.0
 20
0.0
 30
0.0
  9
$EXTMAX
 10
420.0
 20
594.0
 30
0.0
  9
$LIMMIN
 10
0.0
 20
0.0
  9
$LIMMAX
 10
12.0
 20
9.0
  9
$ORTHOMODE
 70
     0
  9
$REGENMODE
 70
     1
  9
$FILLMODE
 70
     1
  9
$QTEXTMODE
 70
     0
  9
$MIRRTEXT
 70
     1
  9
$LTSCALE
 40
1.0
  9
$ATTMODE
 70
     1
  9
$TEXTSIZE
 40
0.2
  9
$TRACEWID
 40
0.05
  9
$TEXTSTYLE
  7
Standard
  9
$CLAYER
  8
0
  9
$CELTYPE
  6
ByLayer
  9
$CECOLOR
 62
   256
  9
$CELTSCALE
 40
1.0
  9
$DISPSILH
 70
     0
  9
$DIMSCALE
 40
1.0
  9
$DIMASZ
 40
0.18
  9
$DIMEXO
 40
0.0625
  9
$DIMDLI
 40
0.38
  9
$DIMRND
 40
0.0
  9
$DIMDLE
 40
0.0
  9
$DIMEXE
 40
0.18
  9
$DIMTP
 40
0.0
  9
$DIMTM
 40
0.0
  9
$DIMTXT
 40
0.18
  9
$DIMCEN
 40
0.09
  9
$DIMTSZ
 40
0.0
  9
$DIMTOL
 70
     0
  9
$DIMLIM
 70
     0
  9
$DIMTIH
 70
     1
  9
$DIMTOH
 70
     1
  9
$DIMSE1
 70
     0
  9
$DIMSE2
 70
     0
  9
$DIMTAD
 70
     0
  9
$DIMZIN
 70
     0
  9
$DIMBLK
  1

  9
$DIMASO
 70
     1
  9
$DIMSHO
 70
     1
  9
$DIMPOST
  1

  9
$DIMAPOST
  1

  9
$DIMALT
 70
     0
  9
$DIMALTD
 70
     2
  9
$DIMALTF
 40
25.4
  9
$DIMLFAC
 40
1.0
  9
$DIMTOFL
 70
     0
  9
$DIMTVP
 40
0.0
  9
$DIMTIX
 70
     0
  9
$DIMSOXD
 70
     0
  9
$DIMSAH
 70
     0
  9
$DIMBLK1
  1

  9
$DIMBLK2
  1

  9
$DIMSTYLE
  2
Standard
  9
$DIMCLRD
 70
     0
  9
$DIMCLRE
 70
     0
  9
$DIMCLRT
 70
     0
  9
$DIMTFAC
 40
1.0
  9
$DIMGAP
 40
0.09
  9
$DIMJUST
 70
     0
  9
$DIMSD1
 70
     0
  9
$DIMSD2
 70
     0
  9
$DIMTOLJ
 70
     1
  9
$DIMTZIN
 70
     0
  9
$DIMALTZ
 70
     0
  9
$DIMALTTZ
 70
     0
  9
$DIMUPT
 70
     0
  9
$DIMDEC
 70
     4
  9
$DIMTDEC
 70
     4
  9
$DIMALTU
 70
     2
  9
$DIMALTTD
 70
     2
  9
$DIMTXSTY
  7
Standard
  9
$DIMAUNIT
 70
     0
  9
$DIMADEC
 70
     0
  9
$DIMALTRND
 40
0.0
  9
$DIMAZIN
 70
     0
  9
$DIMDSEP
 70
    46
  9
$DIMATFIT
 70
     3
  9
$DIMFRAC
 70
     0
  9
$DIMLDRBLK
  1

  9
$DIMLUNIT
 70
     2
  9
$DIMLWD
 70
    -2
  9
$DIMLWE
 70
    -2
  9
$DIMTMOVE
 70
     0
  9
$LUNITS
 70
     2
  9
$LUPREC
 70
     4
  9
$SKETCHINC
 40
0.1
  9
$FILLETRAD
 40
0.5
  9
$AUNITS
 70
     0
  9
$AUPREC
 70
     0
  9
$MENU
  1
.
  9
$ELEVATION
 40
0.0
  9
$PELEVATION
 40
0.0
  9
$THICKNESS
 40
0.0
  9
$LIMCHECK
 70
     0
  9
$CHAMFERA
 40
0.5
  9
$CHAMFERB
 40
0.5
  9
$CHAMFERC
 40
1.0
  9
$CHAMFERD
 40
0.0
  9
$SKPOLY
 70
     0
  9
$TDCREATE
 40
2456141.637179896
  9
$TDUCREATE
 40
2456141.262179896
  9
$TDUPDATE
 40
2456141.637179907
  9
$TDUUPDATE
 40
2456141.262179907
  9
$TDINDWG
 40
0.0000000116
  9
$TDUSRTIMER
 40
0.0000000116
  9
$USRTIMER
 70
     1
  9
$ANGBASE
 50
0.0
  9
$ANGDIR
 70
     0
  9
$PDMODE
 70
     0
  9
$PDSIZE
 40
0.0
  9
$PLINEWID
 40
0.0
  9
$SPLFRAME
 70
     0
  9
$SPLINETYPE
 70
     6
  9
$SPLINESEGS
 70
     8
  9
$HANDSEED
  5
291
  9
$SURFTAB1
 70
     6
  9
$SURFTAB2
 70
     6
  9
$SURFTYPE
 70
     6
  9
$SURFU
 70
     6
  9
$SURFV
 70
     6
  9
$UCSBASE
  2

  9
$UCSNAME
  2

  9
$UCSORG
 10
0.0
 20
0.0
 30
0.0
  9
$UCSXDIR
 10
1.0
 20
0.0
 30
0.0
  9
$UCSYDIR
 10
0.0
 20
1.0
 30
0.0
  9
$UCSORTHOREF
  2

  9
$UCSORTHOVIEW
 70
     0
  9
$UCSORGTOP
 10
0.0
 20
0.0
 30
0.0
  9
$UCSORGBOTTOM
 10
0.0
 20
0.0
 30
0.0
  9
$UCSORGLEFT
 10
0.0
 20
0.0
 30
0.0
  9
$UCSORGRIGHT
 10
0.0
 20
0.0
 30
0.0
  9
$UCSORGFRONT
 10
0.0
 20
0.0
 30
0.0
  9
$UCSORGBACK
 10
0.0
 20
0.0
 30
0.0
  9
$PUCSBASE
  2

  9
$PUCSNAME
  2

  9
$PUCSORG
 10
0.0
 20
0.0
 30
0.0
  9
$PUCSXDIR
 10
1.0
 20
0.0
 30
0.0
  9
$PUCSYDIR
 10
0.0
 20
1.0
 30
0.0
  9
$PUCSORTHOREF
  2

  9
$PUCSORTHOVIEW
 70
     0
  9
$PUCSORGTOP
 10
0.0
 20
0.0
 30
0.0
  9
$PUCSORGBOTTOM
 10
0.0
 20
0.0
 30
0.0
  9
$PUCSORGLEFT
 10
0.0
 20
0.0
 30
0.0
  9
$PUCSORGRIGHT
 10
0.0
 20
0.0
 30
0.0
  9
$PUCSORGFRONT
 10
0.0
 20
0.0
 30
0.0
  9
$PUCSORGBACK
 10
0.0
 20
0.0
 30
0.0
  9
$USERI1
 70
     0
  9
$USERI2
 70
     0
  9
$USERI3
 70
     0
  9
$USERI4
 70
     0
  9
$USERI5
 70
     0
  9
$USERR1
 40
13.2
  9
$USERR2
 40
0.0
  9
$USERR3
 40
0.0
  9
$USERR4
 40
0.0
  9
$USERR5
 40
0.0
  9
$WORLDVIEW
 70
     1
  9
$SHADEDGE
 70
     3
  9
$SHADEDIF
 70
    70
  9
$TILEMODE
 70
     1
  9
$MAXACTVP
 70
    64
  9
$PINSBASE
 10
0.0
 20
0.0
 30
0.0
  9
$PLIMCHECK
 70
     0
  9
$PEXTMIN
 10
1.00000000000000E+20
 20
1.00000000000000E+20
 30
1.00000000000000E+20
  9
$PEXTMAX
 10
-1.00000000000000E+20
 20
-1.00000000000000E+20
 30
-1.00000000000000E+20
  9
$PLIMMIN
 10
0.0
 20
0.0
  9
$PLIMMAX
 10
12.0
 20
9.0
  9
$UNITMODE
 70
     0
  9
$VISRETAIN
 70
     1
  9
$PLINEGEN
 70
     0
  9
$PSLTSCALE
 70
     1
  9
$TREEDEPTH
 70
  3020
  9
$CMLSTYLE
  2
Standard
  9
$CMLJUST
 70
     0
  9
$CMLSCALE
 40
1.0
  9
$PROXYGRAPHICS
 70
     1
  9
$MEASUREMENT
 70
     1
  9
$CELWEIGHT
370
    -1
  9
$ENDCAPS
280
     0
  9
$JOINSTYLE
280
     0
  9
$LWDISPLAY
290
     0
  9
$INSUNITS
 70
     1
  9
$HYPERLINKBASE
  1

  9
$STYLESHEET
  1

  9
$XEDIT
290
     1
  9
$CEPSNTYPE
380
     0
  9
$PSTYLEMODE
290
     0
  9
$FINGERPRINTGUID
  2
{FAEB1C30-E019-11D5-929B-00C0DF256EC4}
  9
$VERSIONGUID
  2
{FAEB1C32-E019-11D5-929B-00C0DF256EC4}
  9
$EXTNAMES
290
     1
  9
$PSVPSCALE
 40
0.0
  9
$OLESTARTUP
290
     0
  0
ENDSEC
  0
SECTION
  2
CLASSES
  0
CLASS
  1
ACDBDICTIONARYWDFLT
  2
AcDbDictionaryWithDefault
  3
ObjectDBX Classes
 90
        0
280
     0
281
     0
  0
CLASS
  1
TABLESTYLE
  2
AcDbTableStyle
  3
ObjectDBX Classes
 90
     2047
280
     0
281
     0
  0
CLASS
  1
DICTIONARYVAR
  2
AcDbDictionaryVar
  3
ObjectDBX Classes
 90
        0
280
     0
281
     0
  0
CLASS
  1

  2
exOdDbCircle
  3

 90
        0
280
     0
281
     1
  0
CLASS
  1

  2
exOdDbSpline
  3

 90
        0
280
     0
281
     1
  0
CLASS
  1
ACDBPLACEHOLDER
  2
AcDbPlaceHolder
  3
ObjectDBX Classes
 90
        0
280
     0
281
     0
  0
CLASS
  1
LAYOUT
  2
AcDbLayout
  3
ObjectDBX Classes
 90
        0
280
     0
281
     0
  0
ENDSEC
  0
SECTION
  2
TABLES
  0
TABLE
  2
VPORT
  5
8
330
0
100
AcDbSymbolTable
 70
     2
  0
VPORT
  5
29
330
8
100
AcDbSymbolTableRecord
100
AcDbViewportTableRecord
  2
*Active
 70
     0
 10
0.0
 20
0.0
 11
1.0
 21
1.0
 12
210.0
 22
297.0
 13
0.0
 23
0.0
 14
0.5
 24
0.5
 15
0.5
 25
0.5
 16
0.0
 26
0.0
 36
1.0
 17
0.0
 27
0.0
 37
0.0
 40
653.4000000000001
 41
1.60267857142857
 42
50.0
 43
0.0
 44
0.0
 50
0.0
 51
0.0
 71
     0
 72
   100
 73
     1
 74
     3
 75
     0
 76
     0
 77
     0
 78
     0
281
     0
 65
     1
110
0.0
120
0.0
130
0.0
111
1.0
121
0.0
131
0.0
112
0.0
122
1.0
132
0.0
 79
     0
146
0.0
  0
ENDTAB
  0
TABLE
  2
LTYPE
  5
5
330
0
100
AcDbSymbolTable
 70
     8
  0
LTYPE
  5
14
330
5
100
AcDbSymbolTableRecord
100
AcDbLinetypeTableRecord
  2
ByBlock
 70
     0
  3

 72
    65
 73
     0
 40
0.0
  0
LTYPE
  5
15
330
5
100
AcDbSymbolTableRecord
100
AcDbLinetypeTableRecord
  2
ByLayer
 70
     0
  3

 72
    65
 73
     0
 40
0.0
  0
LTYPE
  5
16
330
5
100
AcDbSymbolTableRecord
100
AcDbLinetypeTableRecord
  2
Continuous
 70
     0
  3
Solid line
 72
    65
 73
     0
 40
0.0
  0
LTYPE
  5
2E
330
5
100
AcDbSymbolTableRecord
100
AcDbLinetypeTableRecord
  2
DASHED
 70
     0
  3
Dashed
 72
    65
 73
     2
 40
15.0
 49
7.0
 74
     0
 49
-8.0
 74
     0
  0
LTYPE
  5
2F
330
5
100
AcDbSymbolTableRecord
100
AcDbLinetypeTableRecord
  2
DOTTED
 70
     0
  3
Dotted
 72
    65
 73
     2
 40
1.0
 49
0.0
 74
     0
 49
-1.0
 74
     0
  0
LTYPE
  5
30
330
5
100
AcDbSymbolTableRecord
100
AcDbLinetypeTableRecord
  2
DOT_CENTER
 70
     0
  3
Dot_Center
 72
    65
 73
     4
 40
14.0
 49
12.0
 74
     0
 49
-1.0
 74
     0
 49
0.0
 74
     0
 49
-1.0
 74
     0
  0
LTYPE
  5
31
330
5
100
AcDbSymbolTableRecord
100
AcDbLinetypeTableRecord
  2
LONG_DASHED
 70
     0
  3
Long_Dashed
 72
    65
 73
     2
 40
15.0
 49
10.0
 74
     0
 49
-5.0
 74
     0
  0
LTYPE
  5
32
330
5
100
AcDbSymbolTableRecord
100
AcDbLinetypeTableRecord
  2
DASH_CENTER
 70
     0
  3
Dash_Center
 72
    65
 73
     4
 40
14.0
 49
11.0
 74
     0
 49
-1.0
 74
     0
 49
1.0
 74
     0
 49
-1.0
 74
     0
  0
LTYPE
  5
33
330
5
100
AcDbSymbolTableRecord
100
AcDbLinetypeTableRecord
  2
PHANTOM
 70
     0
  3
Phantom
 72
    65
 73
     6
 40
13.0
 49
10.0
 74
     0
 49
-1.0
 74
     0
 49
0.0
 74
     0
 49
-1.0
 74
     0
 49
0.0
 74
     0
 49
-1.0
 74
     0
  0
LTYPE
  5
34
330
5
100
AcDbSymbolTableRecord
100
AcDbLinetypeTableRecord
  2
CENTER_DASH_DASH
 70
     0
  3
Center_Dash_Dash
 72
    65
 73
     6
 40
14.0
 49
9.0
 74
     0
 49
-1.0
 74
     0
 49
1.0
 74
     0
 49
-1.0
 74
     0
 49
1.0
 74
     0
 49
-1.0
 74
     0
  0
ENDTAB
  0
TABLE
  2
LAYER
  5
2
330
0
100
AcDbSymbolTable
 70
     2
  0
LAYER
  5
10
330
2
100
AcDbSymbolTableRecord
100
AcDbLayerTableRecord
  2
0
 70
     0
 62
     7
  6
Continuous
370
    -3
390
F
  0
LAYER
  5
35
330
2
100
AcDbSymbolTableRecord
100
AcDbLayerTableRecord
  2
1
 70
     0
 62
     7
  6
Continuous
370
    -3
390
F
  0
ENDTAB
  0
TABLE
  2
STYLE
  5
3
330
0
100
AcDbSymbolTable
 70
     3
  0
STYLE
  5
11
330
3
100
AcDbSymbolTableRecord
100
AcDbTextStyleTableRecord
  2
Standard
 70
     0
 40
0.0
 41
1.0
 50
0.0
 71
     0
 42
0.2
  3
txt
  4

  0
STYLE
  5
20F
330
3
100
AcDbSymbolTableRecord
100
AcDbTextStyleTableRecord
  2
CONVERTER_1
 70
     0
 40
0.0
 41
0.89
 50
0.0
 71
     0
 42
0.2
  3
msmincho.ttc
  4

1001
ACAD
1000
MS Mincho
1071
    32785
  0
STYLE
  5
22B
330
3
100
AcDbSymbolTableRecord
100
AcDbTextStyleTableRecord
  2
CONVERTER_2
 70
     0
 40
0.0
 41
0.9
 50
0.0
 71
     0
 42
0.2
  3
txt.shx
  4

  0
ENDTAB
  0
TABLE
  2
VIEW
  5
6
330
0
100
AcDbSymbolTable
 70
     0
  0
ENDTAB
  0
TABLE
  2
UCS
  5
7
330
0
100
AcDbSymbolTable
 70
     0
  0
ENDTAB
  0
TABLE
  2
APPID
  5
9
330
0
100
AcDbSymbolTable
 70
     1
  0
APPID
  5
12
330
9
100
AcDbSymbolTableRecord
100
AcDbRegAppTableRecord
  2
ACAD
 70
     0
  0
ENDTAB
  0
TABLE
  2
DIMSTYLE
  5
A
330
0
100
AcDbSymbolTable
 70
     9
100
AcDbDimStyleTable
  0
DIMSTYLE
105
27
330
A
100
AcDbSymbolTableRecord
100
AcDbDimStyleTableRecord
  2
Standard
 70
     0
340
11
  0
DIMSTYLE
105
240
102
{ACAD_REACTORS
330
241
102
}
330
A
100
AcDbSymbolTableRecord
100
AcDbDimStyleTableRecord
  2
ME10_DIM_0
 70
     0
 41
7.0
 42
0.0
 44
2.0
 73
     0
 74
     0
 77
     1
 78
     8
140
7.0
147
0.625
172
     1
173
     1
176
     2
177
     2
178
     7
271
     2
340
22B
  0
DIMSTYLE
105
24D
102
{ACAD_REACTORS
330
24E
102
}
330
A
100
AcDbSymbolTableRecord
100
AcDbDimStyleTableRecord
  2
ME10_DIM_1
 70
     0
 41
7.0
 42
0.0
 44
2.0
 73
     0
 74
     0
 77
     1
 78
     8
140
7.0
147
0.625
172
     1
173
     1
176
     2
177
     2
178
     7
271
     2
340
22B
  0
DIMSTYLE
105
258
102
{ACAD_REACTORS
330
259
102
}
330
A
100
AcDbSymbolTableRecord
100
AcDbDimStyleTableRecord
  2
ME10_DIM_2
 70
     0
 41
7.0
 42
0.0
 44
2.0
 73
     0
 74
     0
 77
     1
 78
     8
140
7.0
147
0.625
172
     1
173
     1
176
     2
177
     2
178
     7
271
     2
340
22B
  0
DIMSTYLE
105
263
102
{ACAD_REACTORS
330
264
102
}
330
A
100
AcDbSymbolTableRecord
100
AcDbDimStyleTableRecord
  2
ME10_DIM_3
 70
     0
 41
7.0
 42
0.0
 44
2.0
 73
     0
 74
     0
 77
     1
 78
     8
140
7.0
147
0.625
172
     1
173
     1
176
     2
177
     2
178
     7
271
     2
340
22B
  0
DIMSTYLE
105
26E
102
{ACAD_REACTORS
330
26F
102
}
330
A
100
AcDbSymbolTableRecord
100
AcDbDimStyleTableRecord
  2
ME10_DIM_4
 70
     0
 41
7.0
 42
0.0
 44
2.0
 73
     0
 74
     0
 77
     1
 78
     8
140
7.0
147
0.625
172
     1
173
     1
176
     2
177
     2
178
     7
271
     2
340
22B
  0
DIMSTYLE
105
279
102
{ACAD_REACTORS
330
27A
102
}
330
A
100
AcDbSymbolTableRecord
100
AcDbDimStyleTableRecord
  2
ME10_DIM_5
 70
     0
 41
7.0
 42
0.0
 44
2.0
 73
     0
 74
     0
 77
     1
 78
     8
140
7.0
147
0.625
172
     1
173
     1
176
     2
177
     2
178
     7
271
     2
340
22B
  0
DIMSTYLE
105
284
102
{ACAD_REACTORS
330
285
102
}
330
A
100
AcDbSymbolTableRecord
100
AcDbDimStyleTableRecord
  2
ME10_DIM_6
 70
     0
 41
7.0
 42
0.0
 44
2.0
 73
     0
 74
     0
 77
     1
 78
     8
140
7.0
147
0.625
172
     1
173
     1
176
     2
177
     2
178
     7
271
     2
340
20F
  0
DIMSTYLE
105
28F
102
{ACAD_REACTORS
330
290
102
}
330
A
100
AcDbSymbolTableRecord
100
AcDbDimStyleTableRecord
  2
ME10_DIM_7
 70
     0
 41
7.0
 42
0.0
 44
2.0
 73
     0
 74
     0
 77
     1
 78
     8
140
7.0
147
0.625
172
     1
173
     1
176
     2
177
     2
178
     7
271
     2
340
22B
  0
ENDTAB
  0
TABLE
  2
BLOCK_RECORD
  5
1
330
0
100
AcDbSymbolTable
 70
    18
  0
BLOCK_RECORD
  5
1F
330
1
100
AcDbSymbolTableRecord
100
AcDbBlockTableRecord
  2
*Model_Space
340
22
  0
BLOCK_RECORD
  5
1B
330
1
100
AcDbSymbolTableRecord
100
AcDbBlockTableRecord
  2
*Paper_Space
340
1E
  0
BLOCK_RECORD
  5
23
330
1
100
AcDbSymbolTableRecord
100
AcDbBlockTableRecord
  2
*Paper_Space0
340
26
  0
BLOCK_RECORD
  5
36
330
1
100
AcDbSymbolTableRecord
100
AcDbBlockTableRecord
  2
34-188-M2K
340
0
102
{BLKREFS
331
3A
102
}
  0
BLOCK_RECORD
  5
39
330
1
100
AcDbSymbolTableRecord
100
AcDbBlockTableRecord
  2
B41A-240-13
340
0
102
{BLKREFS
331
56
102
}
  0
BLOCK_RECORD
  5
3D
330
1
100
AcDbSymbolTableRecord
100
AcDbBlockTableRecord
  2
37-1-13K
340
0
102
{BLKREFS
331
4A
102
}
  0
BLOCK_RECORD
  5
40
330
1
100
AcDbSymbolTableRecord
100
AcDbBlockTableRecord
  2
36-54K
340
0
102
{BLKREFS
331
4B
102
}
  0
BLOCK_RECORD
  5
43
330
1
100
AcDbSymbolTableRecord
100
AcDbBlockTableRecord
  2
42-15K
340
0
102
{BLKREFS
331
4C
102
}
  0
BLOCK_RECORD
  5
46
330
1
100
AcDbSymbolTableRecord
100
AcDbBlockTableRecord
  2
21-1C-M1K
340
0
102
{BLKREFS
331
4D
102
}
  0
BLOCK_RECORD
  5
49
330
1
100
AcDbSymbolTableRecord
100
AcDbBlockTableRecord
  2
R10AK-13Z
340
0
102
{BLKREFS
331
57
102
}
  0
BLOCK_RECORD
  5
50
330
1
100
AcDbSymbolTableRecord
100
AcDbBlockTableRecord
  2
B4121L-0B-13-M11
340
0
102
{BLKREFS
331
58
102
}
  0
BLOCK_RECORD
  5
53
330
1
100
AcDbSymbolTableRecord
100
AcDbBlockTableRecord
  2
_J__A4
340
0
102
{BLKREFS
331
59
102
}
  0
BLOCK_RECORD
  5
236
330
1
100
AcDbSymbolTableRecord
100
AcDbBlockTableRecord
  2
*D010
340
0
  0
BLOCK_RECORD
  5
242
330
1
100
AcDbSymbolTableRecord
100
AcDbBlockTableRecord
  2
*D111
340
0
  0
BLOCK_RECORD
  5
24F
330
1
100
AcDbSymbolTableRecord
100
AcDbBlockTableRecord
  2
*D212
340
0
  0
BLOCK_RECORD
  5
25A
330
1
100
AcDbSymbolTableRecord
100
AcDbBlockTableRecord
  2
*D313
340
0
  0
BLOCK_RECORD
  5
265
330
1
100
AcDbSymbolTableRecord
100
AcDbBlockTableRecord
  2
*D414
340
0
  0
BLOCK_RECORD
  5
270
330
1
100
AcDbSymbolTableRecord
100
AcDbBlockTableRecord
  2
*D515
340
0
  0
BLOCK_RECORD
  5
27B
330
1
100
AcDbSymbolTableRecord
100
AcDbBlockTableRecord
  2
*D616
340
0
  0
BLOCK_RECORD
  5
286
330
1
100
AcDbSymbolTableRecord
100
AcDbBlockTableRecord
  2
*D717
340
0
  0
ENDTAB
  0
ENDSEC
  0
SECTION
  2
BLOCKS
  0
BLOCK
  5
20
330
1F
100
AcDbEntity
  8
0
100
AcDbBlockBegin
  2
*Model_Space
 70
     0
 71
     0
 10
0.0
 20
0.0
 30
0.0
  3
*Model_Space
  1

  0
ENDBLK
  5
21
330
1F
100
AcDbEntity
  8
0
100
AcDbBlockEnd
  0
BLOCK
  5
1C
330
1B
100
AcDbEntity
 67
     1
  8
0
100
AcDbBlockBegin
  2
*Paper_Space
 70
     0
 71
     0
 10
0.0
 20
0.0
 30
0.0
  3
*Paper_Space
  1

  0
ENDBLK
  5
1D
330
1B
100
AcDbEntity
 67
     1
  8
0
100
AcDbBlockEnd
  0
BLOCK
  5
24
330
23
100
AcDbEntity
  8
0
100
AcDbBlockBegin
  2
*Paper_Space0
 70
     0
 71
     0
 10
0.0
 20
0.0
 30
0.0
  3
*Paper_Space0
  1

  0
ENDBLK
  5
25
330
23
100
AcDbEntity
  8
0
100
AcDbBlockEnd
  0
BLOCK
  5
37
330
36
100
AcDbEntity
  8
0
100
AcDbBlockBegin
  2
34-188-M2K
 70
     0
 71
     0
 10
1322.121361746919
 20
-318.8816946935094
 30
0.0
  3
34-188-M2K
  1

  0
LINE
  5
5A
330
36
100
AcDbEntity
  8
1
  6
Continuous
 62
     7
100
AcDbLine
 10
276.3430973375034
 20
248.7901823463718
 30
0.0
 11
276.3430973375035
 21
259.7901823463718
 31
0.0
  0
LINE
  5
5B
330
36
100
AcDbEntity
  8
1
  6
Continuous
 62
     7
100
AcDbLine
 10
288.3430973375035
 20
248.7901823463718
 30
0.0
 11
288.3430973375035
 21
259.7901823463718
 31
0.0
  0
LINE
  5
5C
330
36
100
AcDbEntity
  8
1
  6
Continuous
 62
     7
100
AcDbLine
 10
288.3430973375035
 20
237.7901823463718
 30
0.0
 11
288.3430973375035
 21
248.7901823463718
 31
0.0
  0
LINE
  5
5D
330
36
100
AcDbEntity
  8
1
  6
Continuous
 62
     7
100
AcDbLine
 10
276.3430973375035
 20
237.7901823463718
 30
0.0
 11
276.3430973375034
 21
248.7901823463718
 31
0.0
  0
LINE
  5
5E
330
36
100
AcDbEntity
  8
1
  6
Continuous
 62
     7
100
AcDbLine
 10
170.8430973374915
 20
365.2901823463838
 30
0.0
 11
148.8430973374916
 21
365.2901823463838
 31
0.0
  0
LINE
  5
5F
330
36
100
AcDbEntity
  8
1
  6
Continuous
 62
     7
100
AcDbLine
 10
165.7071808684925
 20
377.2901823463838
 30
0.0
 11
148.8430973374913
 21
377.2901823463838
 31
0.0
  0
LINE
  5
60
330
36
100
AcDbEntity
  8
1
  6
Continuous
 62
     7
100
AcDbLine
 10
148.3430973374913
 20
376.5580092226735
 30
0.0
 11
148.3430973374913
 21
366.0223554699577
 31
0.0
  0
LINE
  5
61
330
36
100
AcDbEntity
  8
1
  6
Continuous
 62
     7
100
AcDbLine
 10
171.3430973374916
 20
366.0223554699576
 30
0.0
 11
171.3430973374915
 21
373.2234674685238
 31
0.0
  0
LINE
  5
62
330
36
100
AcDbEntity
  8
1
  6
Continuous
 62
     7
100
AcDbLine
 10
148.8430973374914
 20
255.7183855766477
 30
0.0
 11
159.3430973374914
 21
261.7805634031388
 31
0.0
  0
LINE
  5
63
330
36
100
AcDbEntity
  8
1
  6
Continuous
 62
     7
100
AcDbLine
 10
160.3430973374915
 20
261.7805634031388
 30
0.0
 11
170.8430973374915
 21
255.7183855766477
 31
0.0
  0
LINE
  5
64
330
36
100
AcDbEntity
  8
1
  6
Continuous
 62
     7
100
AcDbLine
 10
171.3430973374915
 20
254.8523601728631
 30
0.0
 11
171.3430973374915
 21
242.7280045198811
 31
0.0
  0
LINE
  5
65
330
36
100
AcDbEntity
  8
1
  6
Continuous
 62
     7
100
AcDbLine
 10
170.8430973374914
 20
241.8619791160965
 30
0.0
 11
160.3430973374914
 21
235.7998012896056
 31
0.0
  0
LINE
  5
66
330
36
100
AcDbEntity
  8
1
  6
Continuous
 62
     7
100
AcDbLine
 10
159.3430973374914
 20
235.7998012896056
 30
0.0
 11
148.8430973374914
 21
241.8619791160967
 31
0.0
  0
LINE
  5
67
330
36
100
AcDbEntity
  8
1
  6
Continuous
 62
     7
100
AcDbLine
 10
148.3430973374914
 20
242.7280045198811
 30
0.0
 11
148.3430973374914
 21
254.8523601728632
 31
0.0
  0
LINE
  5
68
330
36
100
AcDbEntity
  8
1
  6
PHANTOM
 62
     4
100
AcDbLine
 10
175.8430973374914
 20
248.7901823463721
 30
0.0
 11
143.8430973374914
 21
248.7901823463721
 31
0.0
  0
LINE
  5
69
330
36
100
AcDbEntity
  8
1
  6
PHANTOM
 62
     4
100
AcDbLine
 10
159.8430973374914
 20
232.7901823463721
 30
0.0
 11
159.8430973374914
 21
264.7901823463722
 31
0.0
  0
ARC
  5
6A
330
36
100
AcDbEntity
  8
1
  6
Continuous
 62
     7
100
AcDbCircle
 10
282.3430973375035
 20
251.7901823463719
 30
0.0
 40
9.999999999999933
100
AcDbArc
 50
53.13010235415569
 51
126.8698976458443
  0
ARC
  5
6B
330
36
100
AcDbEntity
  8
1
  6
Continuous
 62
     7
100
AcDbCircle
 10
282.3430973375035
 20
245.7901823463716
 30
0.0
 40
9.99999999999984
100
AcDbArc
 50
-126.8698976458447
 51
-53.1301023541553
  0
ARC
  5
6C
330
36
100
AcDbEntity
  8
1
  6
Continuous
 62
     7
100
AcDbCircle
 10
156.8430973374913
 20
371.2901823463838
 30
0.0
 40
9.999999999999865
100
AcDbArc
 50
-148.2116693829496
 51
-143.1301023541549
  0
ARC
  5
6D
330
36
100
AcDbEntity
  8
1
  6
Continuous
 62
     7
100
AcDbCircle
 10
156.8430973374913
 20
371.2901823463838
 30
0.0
 40
10.0
100
AcDbArc
 50
143.130102354156
 51
148.211669383614
  0
ARC
  5
6E
330
36
100
AcDbEntity
  8
1
  6
Continuous
 62
     7
100
AcDbCircle
 10
162.8430973374916
 20
371.2901823463838
 30
0.0
 40
9.999999999999933
100
AcDbArc
 50
-36.86989764584431
 51
-31.78833061705093
  0
ARC
  5
6F
330
36
100
AcDbEntity
  8
1
  6
Continuous
 62
     7
100
AcDbCircle
 10
159.8430973374914
 20
248.7901823463721
 30
0.0
 40
13.00000000000006
100
AcDbArc
 50
147.7957724960276
 51
152.2042275039719
  0
ARC
  5
70
330
36
100
AcDbEntity
  8
1
  6
Continuous
 62
     7
100
AcDbCircle
 10
159.8430973374914
 20
248.7901823463721
 30
0.0
 40
12.99999999999996
100
AcDbArc
 50
-152.2042275039723
 51
-147.7957724960284
  0
ARC
  5
71
330
36
100
AcDbEntity
  8
1
  6
Continuous
 62
     7
100
AcDbCircle
 10
159.8430973374914
 20
248.7901823463721
 30
0.0
 40
13.00000000000009
100
AcDbArc
 50
-90.0
 51
-87.79577249602795
  0
ARC
  5
72
330
36
100
AcDbEntity
  8
1
  6
Continuous
 62
     7
100
AcDbCircle
 10
159.8430973374914
 20
248.7901823463721
 30
0.0
 40
13.00000000000004
100
AcDbArc
 50
-32.20422750397231
 51
-27.79577249602744
  0
ARC
  5
73
330
36
100
AcDbEntity
  8
1
  6
Continuous
 62
     7
100
AcDbCircle
 10
159.8430973374914
 20
248.7901823463721
 30
0.0
 40
13.00000000000007
100
AcDbArc
 50
27.79577249602744
 51
32.20422750397216
  0
ARC
  5
74
330
36
100
AcDbEntity
  8
1
  6
Continuous
 62
     7
100
AcDbCircle
 10
159.8430973374914
 20
248.7901823463721
 30
0.0
 40
13.00000000000011
100
AcDbArc
 50
90.0
 51
92.20422750397202
  0
ARC
  5
75
330
36
100
AcDbEntity
  8
1
  6
Continuous
 62
     7
100
AcDbCircle
 10
159.8430973374914
 20
248.7901823463721
 30
0.0
 40
12.99999999999992
100
AcDbArc
 50
-92.20422750397205
 51
-90.0
  0
ARC
  5
76
330
36
100
AcDbEntity
  8
1
  6
Continuous
 62
     7
100
AcDbCircle
 10
159.8430973374914
 20
248.7901823463721
 30
0.0
 40
13.00000000000012
100
AcDbArc
 50
87.79577249602748
 51
90.0
  0
CIRCLE
  5
77
330
36
100
AcDbEntity
  8
1
  6
Continuous
 62
     7
100
AcDbCircle
 10
159.8430973374914
 20
248.7901823463721
 30
0.0
 40
11.00000000000011
  0
SPLINE
  5
78
330
36
100
AcDbEntity
  8
1
  6
Continuous
 62
     7
100
AcDbSpline
210
0.0
220
0.0
230
1.0
 70
     8
 71
     3
 72
    45
 73
    41
 74
    39
 42
0.0000000001
 43
0.0000000001
 44
0.00000001
 40
0.0
 40
0.0
 40
0.0
 40
0.0
 40
0.2639815460523207
 40
0.528341984119193
 40
1.054652170762679
 40
1.580985067100844
 40
2.101700160272571
 40
2.622460348438508
 40
3.134495226137616
 40
3.646596368619052
 40
4.147789061289568
 40
4.649065936797201
 40
5.13847009560523
 40
5.627969508813826
 40
6.106046361246412
 40
6.584217829940171
 40
7.052873649570318
 40
7.521607363809192
 40
7.984025556627718
 40
8.446488192993035
 40
8.90673737225891
 40
9.366986551524899
 40
9.829449187890155
 40
10.29186738070865
 40
10.76060109494755
 40
11.2292569145778
 40
11.70742838327167
 40
12.18550523570432
 40
12.67500464891285
 40
13.16440880772088
 40
13.66568568322846
 40
14.16687837589909
 40
14.67897951838068
 40
15.19101439607961
 40
15.71177458424541
 40
16.23248967741709
 40
16.75882257375525
 40
17.28513276039877
 40
17.54949319846371
 40
17.81347474451356
 40
17.81347474451356
 40
17.81347474451356
 40
17.81347474451356
 10
277.0752704610766
 20
248.7901823463674
 30
0.0
 10
277.0762389724258
 20
248.8781821102942
 30
0.0
 10
277.078177385226
 20
249.0543079439763
 30
0.0
 10
277.0988127204695
 20
249.4053613914331
 30
0.0
 10
277.1483063483939
 20
249.8419881310439
 30
0.0
 10
277.2475094472007
 20
250.3575061649385
 30
0.0
 10
277.3853895770607
 20
250.8621244944737
 30
0.0
 10
277.5606077052287
 20
251.3499896213049
 30
0.0
 10
277.7726068514219
 20
251.8198864234049
 30
0.0
 10
278.0187128201439
 20
252.2654495335048
 30
0.0
 10
278.2985630605132
 20
252.6863370165893
 30
0.0
 10
278.6082848242861
 20
253.0761832607871
 30
0.0
 10
278.9476657553726
 20
253.4351679711828
 30
0.0
 10
279.3118552599032
 20
253.7574613341117
 30
0.0
 10
279.7005793557954
 20
254.0434378645212
 30
0.0
 10
280.108425605256
 20
254.2882422071629
 30
0.0
 10
280.5346905828981
 20
254.4922587671591
 30
0.0
 10
280.9739481179314
 20
254.651853713921
 30
0.0
 10
281.4246546744324
 20
254.7674555805314
 30
0.0
 10
281.8819322639965
 20
254.8366607885071
 30
0.0
 10
282.3430973375034
 20
254.8601910347226
 30
0.0
 10
282.8042624110105
 20
254.836660788507
 30
0.0
 10
283.2615400005745
 20
254.7674555805313
 30
0.0
 10
283.7122465570755
 20
254.6518537139211
 30
0.0
 10
284.151504092109
 20
254.4922587671593
 30
0.0
 10
284.577769069751
 20
254.288242207163
 30
0.0
 10
284.9856153192117
 20
254.0434378645212
 30
0.0
 10
285.374339415104
 20
253.7574613341117
 30
0.0
 10
285.7385289196345
 20
253.4351679711827
 30
0.0
 10
286.0779098507209
 20
253.0761832607871
 30
0.0
 10
286.3876316144939
 20
252.6863370165893
 30
0.0
 10
286.6674818548632
 20
252.2654495335045
 30
0.0
 10
286.9135878235852
 20
251.8198864234048
 30
0.0
 10
287.1255869697783
 20
251.3499896213048
 30
0.0
 10
287.300805097946
 20
250.8621244944735
 30
0.0
 10
287.4386852278061
 20
250.3575061649386
 30
0.0
 10
287.537888326613
 20
249.8419881310439
 30
0.0
 10
287.5873819545373
 20
249.4053613914337
 30
0.0
 10
287.6080172897811
 20
249.0543079439784
 30
0.0
 10
287.6099557025811
 20
248.8781821102978
 30
0.0
 10
287.6109242139303
 20
248.7901823463718
 30
0.0
 11
277.0752704610766
 21
248.7901823463674
 31
0.0
 11
277.0802727675291
 21
249.0541164926735
 31
0.0
 11
277.0952796868863
 21
249.3180506389796
 31
0.0
 11
277.155008262894
 21
249.8409606788266
 31
0.0
 11
277.2544497298187
 21
250.3578143451806
 31
0.0
 11
277.3918536580788
 21
250.8600736096601
 31
0.0
 11
277.5680084744923
 21
251.3501354978262
 31
0.0
 11
277.7787726760442
 21
251.81678115282
 31
0.0
 11
278.0265356195425
 21
252.264956457762
 31
0.0
 11
278.3042691163888
 21
252.6821593100004
 31
0.0
 11
278.6162480242587
 21
253.0745209632784
 31
0.0
 11
278.9527034587198
 21
253.4299280134056
 31
0.0
 11
279.3193938747116
 21
253.7541930506071
 31
0.0
 11
279.7047015551041
 21
254.0372044784019
 31
0.0
 11
280.1147476144329
 21
254.2831926543406
 31
0.0
 11
280.5376359392818
 21
254.4851920156756
 31
0.0
 11
280.978197426055
 21
254.6452447296054
 31
0.0
 11
281.4261951079875
 21
254.7598251032856
 31
0.0
 11
281.8834345603685
 21
254.8291343611106
 31
0.0
 11
282.3430973375034
 21
254.8523601728627
 31
0.0
 11
282.8027601146384
 21
254.8291343611105
 31
0.0
 11
283.2599995670194
 21
254.7598251032855
 31
0.0
 11
283.7079972489519
 21
254.6452447296055
 31
0.0
 11
284.1485587357252
 21
254.4851920156758
 31
0.0
 11
284.5714470605741
 21
254.2831926543406
 31
0.0
 11
284.9814931199031
 21
254.037204478402
 31
0.0
 11
285.3668008002956
 21
253.7541930506071
 31
0.0
 11
285.7334912162873
 21
253.4299280134056
 31
0.0
 11
286.0699466507484
 21
253.0745209632783
 31
0.0
 11
286.3819255586182
 21
252.6821593100003
 31
0.0
 11
286.6596590554645
 21
252.2649564577619
 31
0.0
 11
286.907421998963
 21
251.8167811528198
 31
0.0
 11
287.1181862005146
 21
251.3501354978261
 31
0.0
 11
287.294341016928
 21
250.8600736096601
 31
0.0
 11
287.4317449451881
 21
250.3578143451806
 31
0.0
 11
287.531186412113
 21
249.8409606788266
 31
0.0
 11
287.5909149881206
 21
249.3180506389796
 31
0.0
 11
287.6059219074779
 21
249.0541164926754
 31
0.0
 11
287.6109242139303
 21
248.7901823463718
 31
0.0
  0
SPLINE
  5
79
330
36
100
AcDbEntity
  8
1
  6
Continuous
 62
     7
100
AcDbSpline
210
0.0
220
0.0
230
1.0
 70
    11
 71
     3
 72
    79
 73
    75
 74
    73
 42
0.0000000001
 43
0.0000000001
 44
0.00000001
 40
0.0
 40
0.0
 40
0.0
 40
0.0
 40
0.2746255860864457
 40
0.5489296448748919
 40
0.8445351226056314
 40
1.139720930735062
 40
1.464847760107495
 40
1.789634474685641
 40
2.147784125837196
 40
2.505702211207121
 40
2.896040828699492
 40
3.28623107927458
 40
3.704624946715602
 40
4.122927269101162
 40
4.562895988146176
 40
5.002812031777789
 40
5.456315478849738
 40
5.909794870758244
 40
6.367899400179628
 40
6.826003929601007
 40
7.279483321509443
 40
7.732986768581406
 40
8.172902812213003
 40
8.612871531258017
 40
9.031173853643615
 40
9.449567721084657
 40
9.839757971659692
 40
10.23009658915219
 40
10.5880146745222
 40
10.94616432567376
 40
11.27095104025182
 40
11.59607786962414
 40
11.89126367775361
 40
12.1868691554843
 40
12.46117321427278
 40
12.73579880035926
 40
13.00262036940759
 40
13.26944193845598
 40
13.54406752454251
 40
13.81837158333105
 40
14.11397706106163
 40
14.40916286919102
 40
14.7342896985633
 40
15.05907641314143
 40
15.41722606429315
 40
15.77514414966309
 40
16.16548276715556
 40
16.55567301773062
 40
16.97406688517165
 40
17.39236920755724
 40
17.83233792660226
 40
18.27225397023383
 40
18.72575741730578
 40
19.17923680921422
 40
19.63734133863565
 40
20.09544586805698
 40
20.54892525996547
 40
21.00242870703747
 40
21.44234475066909
 40
21.88231346971407
 40
22.30061579209956
 40
22.71900965954063
 40
23.10919991011572
 40
23.49953852760812
 40
23.85745661297801
 40
24.21560626412956
 40
24.54039297870774
 40
24.86551980808017
 40
25.16070561620964
 40
25.45631109394033
 40
25.73061515272877
 40
26.00524073881533
 40
26.27206230786377
 40
26.53888387691211
 40
26.53888387691211
 40
26.53888387691211
 40
26.53888387691211
 10
277.0959588027594
 20
259.0154928017209
 30
0.0
 10
277.1137018314281
 20
259.1054820699815
 30
0.0
 10
277.1491671155076
 20
259.2853552484888
 30
0.0
 10
277.2550435218462
 20
259.5477415847309
 30
0.0
 10
277.3947083934746
 20
259.8006914660764
 30
0.0
 10
277.5754776502865
 20
260.0476687109278
 30
0.0
 10
277.7887157854179
 20
260.2803539614969
 30
0.0
 10
278.0397322466297
 20
260.5044692186597
 30
0.0
 10
278.3188354828795
 20
260.71132975873
 30
0.0
 10
278.6322559364353
 20
260.9063721467729
 30
0.0
 10
278.9689793149084
 20
261.0821193605039
 30
0.0
 10
279.3352619003562
 20
261.2426457401297
 30
0.0
 10
279.7199016124799
 20
261.3823841496262
 30
0.0
 10
280.1279906926881
 20
261.5038522951065
 30
0.0
 10
280.5493387053991
 20
261.603445169898
 30
0.0
 10
280.9869361473637
 20
261.6824105921111
 30
0.0
 10
281.4325547371115
 20
261.738777503288
 30
0.0
 10
281.8864833289591
 20
261.7730414331265
 30
0.0
 10
282.3430973375008
 20
261.7843434703947
 30
0.0
 10
282.7997113460586
 20
261.7730414331281
 30
0.0
 10
283.2536399378583
 20
261.7387775032827
 30
0.0
 10
283.6992585277802
 20
261.6824105921327
 30
0.0
 10
284.1368559691142
 20
261.6034451698209
 30
0.0
 10
284.5582039841251
 20
261.5038522953884
 30
0.0
 10
284.9662930561536
 20
261.3823841486309
 30
0.0
 10
285.3509327978039
 20
261.2426457437455
 30
0.0
 10
285.7172152801266
 20
261.0821193480144
 30
0.0
 10
286.0539390273549
 20
260.9063721918723
 30
0.0
 10
286.3673582131155
 20
260.7113296058368
 30
0.0
 10
286.6464659510737
 20
260.504469768803
 30
0.0
 10
286.8974670910964
 20
260.2803521189135
 30
0.0
 10
287.1107595329057
 20
260.0476753494774
 30
0.0
 10
287.2913436998824
 20
259.800669198945
 30
0.0
 10
287.431669571215
 20
259.5478225466428
 30
0.0
 10
287.5352461409568
 20
259.2850770424157
 30
0.0
 10
287.5963252979733
 20
259.019079754873
 30
0.0
 10
287.6181184629443
 20
258.7494744898928
 30
0.0
 10
287.5963252979735
 20
258.4798692249128
 30
0.0
 10
287.5352461409568
 20
258.21387193737
 30
0.0
 10
287.431669571215
 20
257.9511264331429
 30
0.0
 10
287.2913436998824
 20
257.6982797808406
 30
0.0
 10
287.1107595329057
 20
257.4512736303085
 30
0.0
 10
286.8974670910964
 20
257.2185968608723
 30
0.0
 10
286.6464659510737
 20
256.9944792109827
 30
0.0
 10
286.3673582131154
 20
256.7876193739489
 30
0.0
 10
286.0539390273551
 20
256.5925767879132
 30
0.0
 10
285.7172152801265
 20
256.4168296317712
 30
0.0
 10
285.350932797804
 20
256.2563032360401
 30
0.0
 10
284.9662930561536
 20
256.1165648311548
 30
0.0
 10
284.5582039841251
 20
255.995096684397
 30
0.0
 10
284.1368559691143
 20
255.8955038099647
 30
0.0
 10
283.6992585277801
 20
255.816538387653
 30
0.0
 10
283.2536399378584
 20
255.7601714765034
 30
0.0
 10
282.7997113460581
 20
255.7259075466575
 30
0.0
 10
282.3430973375033
 20
255.7146055093918
 30
0.0
 10
281.8864833289498
 20
255.7259075466575
 30
0.0
 10
281.4325547371459
 20
255.7601714765038
 30
0.0
 10
280.9869361472365
 20
255.8165383876515
 30
0.0
 10
280.5493387058578
 20
255.89550380997
 30
0.0
 10
280.1279906910096
 20
255.9950966843772
 30
0.0
 10
279.7199016184025
 20
256.1165648312252
 30
0.0
 10
279.3352618788414
 20
256.2563032357842
 30
0.0
 10
278.9689793892219
 20
256.4168296326548
 30
0.0
 10
278.6322556680854
 20
256.5925767847221
 30
0.0
 10
278.3188363926204
 20
256.7876193847671
 30
0.0
 10
278.0397289731868
 20
256.9944791720566
 30
0.0
 10
277.7887267490922
 20
257.2185969912467
 30
0.0
 10
277.5754381498264
 20
257.4512731605887
 30
0.0
 10
277.3948408865643
 20
257.698281356382
 30
0.0
 10
277.2545617851724
 20
257.9511207045717
 30
0.0
 10
277.1508224873376
 20
258.2138916222224
 30
0.0
 10
277.0903359182412
 20
258.4797963646644
 30
0.0
 10
277.066389812629
 20
258.7497378567284
 30
0.0
 10
277.0861024727159
 20
258.9269078200567
 30
0.0
 10
277.0959588027594
 20
259.0154928017209
 30
0.0
 11
277.0959588027594
 21
259.0154928017209
 31
0.0
 11
277.1575356844404
 21
259.283125946484
 31
0.0
 11
277.2571362604324
 21
259.5387085005245
 31
0.0
 11
277.4000889199201
 21
259.7974499460059
 31
0.0
 11
277.5735381784804
 21
260.0363013978038
 31
0.0
 11
277.7925958239695
 21
260.2765537716329
 31
0.0
 11
278.0343808806081
 21
260.4934094756222
 31
0.0
 11
278.3216078008954
 21
260.7073530870769
 31
0.0
 11
278.6252113703832
 21
260.8969057932806
 31
0.0
 11
278.9709236155392
 21
261.0781439787027
 31
0.0
 11
279.3281515652897
 21
261.2351045583425
 31
0.0
 11
279.7212156855543
 21
261.3784713106697
 31
0.0
 11
280.1220668030989
 21
261.4980339071473
 31
0.0
 11
280.550151773852
 21
261.5996002970279
 31
0.0
 11
280.9830538692796
 21
261.6778428763497
 31
0.0
 11
281.4329434882506
 21
261.7349804931029
 31
0.0
 11
281.885135646218
 21
261.7691244700017
 31
0.0
 11
282.3430973375035
 21
261.7805634031384
 31
0.0
 11
282.801059028789
 21
261.7691244700018
 31
0.0
 11
283.2532511867564
 21
261.7349804931032
 31
0.0
 11
283.7031408057275
 21
261.6778428763499
 31
0.0
 11
284.136042901155
 21
261.5996002970279
 31
0.0
 11
284.5641278719081
 21
261.4980339071473
 31
0.0
 11
284.9649789894527
 21
261.3784713106697
 31
0.0
 11
285.3580431097173
 21
261.2351045583425
 31
0.0
 11
285.7152710594678
 21
261.0781439787027
 31
0.0
 11
286.0609833046239
 21
260.8969057932805
 31
0.0
 11
286.3645868741118
 21
260.7073530870769
 31
0.0
 11
286.6518137943991
 21
260.4934094756223
 31
0.0
 11
286.8935988510377
 21
260.276553771633
 31
0.0
 11
287.1126564965266
 21
260.0363013978038
 31
0.0
 11
287.2861057550869
 21
259.7974499460059
 31
0.0
 11
287.4290584145745
 21
259.5387085005245
 31
0.0
 11
287.5286589905666
 21
259.283125946484
 31
0.0
 11
287.5902358722474
 21
259.0154928017209
 31
0.0
 11
287.6109242139302
 21
258.7494744898929
 31
0.0
 11
287.5902358722474
 21
258.4834561780648
 31
0.0
 11
287.5286589905666
 21
258.2158230333016
 31
0.0
 11
287.4290584145745
 21
257.960240479261
 31
0.0
 11
287.2861057550869
 21
257.7014990337797
 31
0.0
 11
287.1126564965266
 21
257.462647581982
 31
0.0
 11
286.8935988510377
 21
257.2223952081529
 31
0.0
 11
286.6518137943991
 21
257.0055395041634
 31
0.0
 11
286.3645868741117
 21
256.7915958927087
 31
0.0
 11
286.0609833046239
 21
256.6020431865051
 31
0.0
 11
285.7152710594678
 21
256.420805001083
 31
0.0
 11
285.3580431097173
 21
256.2638444214431
 31
0.0
 11
284.9649789894527
 21
256.1204776691159
 31
0.0
 11
284.5641278719081
 21
256.0009150726383
 31
0.0
 11
284.136042901155
 21
255.8993486827577
 31
0.0
 11
283.7031408057275
 21
255.8211061034358
 31
0.0
 11
283.2532511867564
 21
255.7639684866827
 31
0.0
 11
282.801059028789
 21
255.729824509784
 31
0.0
 11
282.3430973375035
 21
255.7183855766474
 31
0.0
 11
281.885135646218
 21
255.729824509784
 31
0.0
 11
281.4329434882506
 21
255.7639684866827
 31
0.0
 11
280.9830538692795
 21
255.8211061034358
 31
0.0
 11
280.550151773852
 21
255.8993486827577
 31
0.0
 11
280.1220668030989
 21
256.0009150726383
 31
0.0
 11
279.7212156855544
 21
256.1204776691159
 31
0.0
 11
279.3281515652897
 21
256.2638444214431
 31
0.0
 11
278.9709236155392
 21
256.4208050010829
 31
0.0
 11
278.6252113703832
 21
256.6020431865051
 31
0.0
 11
278.3216078008954
 21
256.7915958927087
 31
0.0
 11
278.0343808806082
 21
257.0055395041634
 31
0.0
 11
277.7925958239695
 21
257.2223952081528
 31
0.0
 11
277.5735381784804
 21
257.4626475819819
 31
0.0
 11
277.4000889199201
 21
257.7014990337797
 31
0.0
 11
277.2571362604324
 21
257.9602404792611
 31
0.0
 11
277.1575356844404
 21
258.2158230333016
 31
0.0
 11
277.0959588027594
 21
258.4834561780648
 31
0.0
 11
277.0752704610766
 21
258.7494744898929
 31
0.0
 11
277.0959588027594
 21
259.0154928017209
 31
0.0
  0
SPLINE
  5
7A
330
36
100
AcDbEntity
  8
1
  6
Continuous
 62
     7
100
AcDbSpline
210
0.0
220
0.0
230
1.0
 70
    11
 71
     3
 72
    79
 73
    75
 74
    73
 42
0.0000000001
 43
0.0000000001
 44
0.00000001
 40
0.0
 40
0.0
 40
0.0
 40
0.0
 40
0.2746255860865288
 40
0.5489296448750016
 40
0.8445351226057162
 40
1.13972093073517
 40
1.464847760107581
 40
1.789634474685728
 40
2.147784125837282
 40
2.505702211207178
 40
2.896040828699549
 40
3.286231079274637
 40
3.704624946715669
 40
4.122927269101228
 40
4.562895988146242
 40
5.002812031777866
 40
5.456315478849811
 40
5.909794870758311
 40
6.367899400179696
 40
6.826003929601076
 40
7.279483321509517
 40
7.732986768581466
 40
8.172902812213058
 40
8.61287153125808
 40
9.031173853643693
 40
9.449567721084726
 40
9.839757971659751
 40
10.23009658915222
 40
10.58801467452228
 40
10.94616432567382
 40
11.27095104025188
 40
11.59607786962415
 40
11.89126367775367
 40
12.18686915548431
 40
12.46117321427285
 40
12.7357988003593
 40
13.00262036940766
 40
13.26944193845604
 40
13.54406752454257
 40
13.81837158333106
 40
14.1139770610617
 40
14.40916286919108
 40
14.7342896985634
 40
15.0590764131415
 40
15.41722606429318
 40
15.77514414966314
 40
16.16548276715562
 40
16.55567301773067
 40
16.97406688517171
 40
17.39236920755732
 40
17.83233792660233
 40
18.2722539702339
 40
18.72575741730584
 40
19.17923680921428
 40
19.63734133863571
 40
20.09544586805704
 40
20.54892525996554
 40
21.00242870703754
 40
21.44234475066916
 40
21.88231346971411
 40
22.3006157920996
 40
22.71900965954069
 40
23.10919991011579
 40
23.49953852760816
 40
23.85745661297809
 40
24.21560626412961
 40
24.54039297870776
 40
24.86551980808021
 40
25.16070561620975
 40
25.45631109394041
 40
25.73061515272888
 40
26.00524073881541
 40
26.27206230786377
 40
26.53888387691213
 40
26.53888387691213
 40
26.53888387691213
 40
26.53888387691213
 10
277.0959588027594
 20
238.5648718910226
 30
0.0
 10
277.1137018314282
 20
238.4748826227621
 30
0.0
 10
277.1491671155078
 20
238.2950094442547
 30
0.0
 10
277.2550435218461
 20
238.0326231080126
 30
0.0
 10
277.3947083934746
 20
237.7796732266671
 30
0.0
 10
277.5754776502865
 20
237.5326959818157
 30
0.0
 10
277.7887157854179
 20
237.3000107312465
 30
0.0
 10
278.0397322466296
 20
237.0758954740837
 30
0.0
 10
278.3188354828797
 20
236.8690349340135
 30
0.0
 10
278.6322559364353
 20
236.6739925459707
 30
0.0
 10
278.9689793149083
 20
236.4982453322397
 30
0.0
 10
279.3352619003563
 20
236.3377189526139
 30
0.0
 10
279.7199016124799
 20
236.1979805431174
 30
0.0
 10
280.1279906926881
 20
236.0765123976371
 30
0.0
 10
280.5493387053991
 20
235.9769195228454
 30
0.0
 10
280.9869361473637
 20
235.8979541006324
 30
0.0
 10
281.4325547371114
 20
235.8415871894554
 30
0.0
 10
281.8864833289592
 20
235.8073232596171
 30
0.0
 10
282.3430973375009
 20
235.7960212223489
 30
0.0
 10
282.7997113460587
 20
235.8073232596154
 30
0.0
 10
283.2536399378583
 20
235.8415871894611
 30
0.0
 10
283.6992585277801
 20
235.8979541006108
 30
0.0
 10
284.1368559691142
 20
235.9769195229225
 30
0.0
 10
284.5582039841252
 20
236.076512397355
 30
0.0
 10
284.9662930561536
 20
236.1979805441127
 30
0.0
 10
285.3509327978039
 20
236.337718948998
 30
0.0
 10
285.7172152801265
 20
236.4982453447291
 30
0.0
 10
286.0539390273551
 20
236.6739925008711
 30
0.0
 10
286.3673582131155
 20
236.8690350869068
 30
0.0
 10
286.6464659510737
 20
237.0758949239404
 30
0.0
 10
286.8974670910964
 20
237.30001257383
 30
0.0
 10
287.1107595329056
 20
237.5326893432661
 30
0.0
 10
287.2913436998824
 20
237.7796954937985
 30
0.0
 10
287.431669571215
 20
238.0325421461008
 30
0.0
 10
287.5352461409567
 20
238.2952876503278
 30
0.0
 10
287.5963252979733
 20
238.5612849378705
 30
0.0
 10
287.6181184629444
 20
238.8308902028506
 30
0.0
 10
287.5963252979732
 20
239.1004954678309
 30
0.0
 10
287.5352461409568
 20
239.3664927553735
 30
0.0
 10
287.4316695712149
 20
239.6292382596006
 30
0.0
 10
287.2913436998825
 20
239.8820849119029
 30
0.0
 10
287.1107595329055
 20
240.129091062435
 30
0.0
 10
286.8974670910965
 20
240.3617678318714
 30
0.0
 10
286.6464659510736
 20
240.5858854817608
 30
0.0
 10
286.3673582131154
 20
240.7927453187945
 30
0.0
 10
286.053939027355
 20
240.9877879048304
 30
0.0
 10
285.7172152801266
 20
241.1635350609723
 30
0.0
 10
285.3509327978039
 20
241.3240614567035
 30
0.0
 10
284.9662930561536
 20
241.4637998615887
 30
0.0
 10
284.5582039841252
 20
241.5852680083465
 30
0.0
 10
284.1368559691143
 20
241.6848608827789
 30
0.0
 10
283.6992585277801
 20
241.7638263050905
 30
0.0
 10
283.2536399378583
 20
241.82019321624
 30
0.0
 10
282.7997113460581
 20
241.8544571460859
 30
0.0
 10
282.3430973375034
 20
241.8657591833519
 30
0.0
 10
281.8864833289498
 20
241.8544571460861
 30
0.0
 10
281.4325547371459
 20
241.8201932162397
 30
0.0
 10
280.9869361472365
 20
241.7638263050919
 30
0.0
 10
280.5493387058579
 20
241.6848608827735
 30
0.0
 10
280.1279906910096
 20
241.5852680083664
 30
0.0
 10
279.7199016184025
 20
241.4637998615184
 30
0.0
 10
279.3352618788414
 20
241.3240614569593
 30
0.0
 10
278.9689793892219
 20
241.1635350600888
 30
0.0
 10
278.6322556680853
 20
240.9877879080214
 30
0.0
 10
278.3188363926204
 20
240.7927453079765
 30
0.0
 10
278.0397289731869
 20
240.585885520687
 30
0.0
 10
277.7887267490921
 20
240.3617677014968
 30
0.0
 10
277.5754381498264
 20
240.1290915321549
 30
0.0
 10
277.3948408865644
 20
239.8820833363614
 30
0.0
 10
277.2545617851724
 20
239.6292439881718
 30
0.0
 10
277.1508224873376
 20
239.3664730705212
 30
0.0
 10
277.0903359182412
 20
239.1005683280791
 30
0.0
 10
277.066389812629
 20
238.8306268360152
 30
0.0
 10
277.0861024727159
 20
238.6534568726868
 30
0.0
 10
277.0959588027594
 20
238.5648718910226
 30
0.0
 11
277.0959588027594
 21
238.5648718910226
 31
0.0
 11
277.1575356844404
 21
238.2972387462595
 31
0.0
 11
277.2571362604324
 21
238.0416561922189
 31
0.0
 11
277.4000889199201
 21
237.7829147467375
 31
0.0
 11
277.5735381784804
 21
237.5440632949397
 31
0.0
 11
277.7925958239695
 21
237.3038109211106
 31
0.0
 11
278.0343808806081
 21
237.0869552171212
 31
0.0
 11
278.3216078008954
 21
236.8730116056666
 31
0.0
 11
278.6252113703832
 21
236.683458899463
 31
0.0
 11
278.9709236155392
 21
236.5022207140409
 31
0.0
 11
279.3281515652897
 21
236.3452601344011
 31
0.0
 11
279.7212156855543
 21
236.2018933820738
 31
0.0
 11
280.1220668030989
 21
236.0823307855962
 31
0.0
 11
280.550151773852
 21
235.9807643957156
 31
0.0
 11
280.9830538692796
 21
235.9025218163937
 31
0.0
 11
281.4329434882506
 21
235.8453841996406
 31
0.0
 11
281.885135646218
 21
235.8112402227419
 31
0.0
 11
282.3430973375035
 21
235.7998012896051
 31
0.0
 11
282.801059028789
 21
235.8112402227417
 31
0.0
 11
283.2532511867564
 21
235.8453841996404
 31
0.0
 11
283.7031408057275
 21
235.9025218163936
 31
0.0
 11
284.136042901155
 21
235.9807643957156
 31
0.0
 11
284.5641278719081
 21
236.0823307855962
 31
0.0
 11
284.9649789894527
 21
236.2018933820738
 31
0.0
 11
285.3580431097173
 21
236.3452601344011
 31
0.0
 11
285.7152710594678
 21
236.5022207140409
 31
0.0
 11
286.0609833046239
 21
236.683458899463
 31
0.0
 11
286.3645868741118
 21
236.8730116056666
 31
0.0
 11
286.6518137943991
 21
237.0869552171212
 31
0.0
 11
286.8935988510377
 21
237.3038109211105
 31
0.0
 11
287.1126564965266
 21
237.5440632949396
 31
0.0
 11
287.2861057550869
 21
237.7829147467376
 31
0.0
 11
287.4290584145745
 21
238.0416561922189
 31
0.0
 11
287.5286589905666
 21
238.2972387462595
 31
0.0
 11
287.5902358722474
 21
238.5648718910226
 31
0.0
 11
287.6109242139302
 21
238.8308902028506
 31
0.0
 11
287.5902358722474
 21
239.0969085146787
 31
0.0
 11
287.5286589905666
 21
239.3645416594419
 31
0.0
 11
287.4290584145745
 21
239.6201242134824
 31
0.0
 11
287.2861057550869
 21
239.8788656589638
 31
0.0
 11
287.1126564965266
 21
240.1177171107615
 31
0.0
 11
286.8935988510377
 21
240.3579694845907
 31
0.0
 11
286.6518137943991
 21
240.5748251885801
 31
0.0
 11
286.3645868741117
 21
240.7887688000348
 31
0.0
 11
286.0609833046239
 21
240.9783215062384
 31
0.0
 11
285.7152710594678
 21
241.1595596916606
 31
0.0
 11
285.3580431097173
 21
241.3165202713004
 31
0.0
 11
284.9649789894527
 21
241.4598870236277
 31
0.0
 11
284.5641278719081
 21
241.5794496201053
 31
0.0
 11
284.136042901155
 21
241.6810160099859
 31
0.0
 11
283.7031408057275
 21
241.7592585893077
 31
0.0
 11
283.2532511867564
 21
241.8163962060608
 31
0.0
 11
282.801059028789
 21
241.8505401829595
 31
0.0
 11
282.3430973375035
 21
241.8619791160962
 31
0.0
 11
281.885135646218
 21
241.8505401829595
 31
0.0
 11
281.4329434882506
 21
241.8163962060608
 31
0.0
 11
280.9830538692795
 21
241.7592585893077
 31
0.0
 11
280.550151773852
 21
241.6810160099858
 31
0.0
 11
280.1220668030989
 21
241.5794496201053
 31
0.0
 11
279.7212156855544
 21
241.4598870236277
 31
0.0
 11
279.3281515652897
 21
241.3165202713005
 31
0.0
 11
278.9709236155392
 21
241.1595596916606
 31
0.0
 11
278.6252113703832
 21
240.9783215062385
 31
0.0
 11
278.3216078008954
 21
240.7887688000348
 31
0.0
 11
278.0343808806082
 21
240.5748251885802
 31
0.0
 11
277.7925958239695
 21
240.3579694845908
 31
0.0
 11
277.5735381784804
 21
240.1177171107617
 31
0.0
 11
277.4000889199201
 21
239.8788656589638
 31
0.0
 11
277.2571362604324
 21
239.6201242134824
 31
0.0
 11
277.1575356844404
 21
239.3645416594419
 31
0.0
 11
277.0959588027594
 21
239.0969085146787
 31
0.0
 11
277.0752704610766
 21
238.8308902028507
 31
0.0
 11
277.0959588027594
 21
238.5648718910226
 31
0.0
  0
SPLINE
  5
7B
330
36
100
AcDbEntity
  8
1
  6
Continuous
 62
     7
100
AcDbSpline
210
0.0
220
0.0
230
1.0
 70
     8
 71
     3
 72
    45
 73
    41
 74
    39
 42
0.0000000001
 43
0.0000000001
 44
0.00000001
 40
0.0
 40
0.0
 40
0.0
 40
0.0
 40
0.2639815460522923
 40
0.528341984119193
 40
1.054652170762679
 40
1.580985067100844
 40
2.101700160272571
 40
2.622460348438508
 40
3.134495226137539
 40
3.646596368619098
 40
4.147789061289591
 40
4.64906593679718
 40
5.138470095605209
 40
5.627969508813805
 40
6.10604636124639
 40
6.584217829940164
 40
7.052873649570311
 40
7.521607363809195
 40
7.984025556627707
 40
8.446488192993028
 40
8.906737372258901
 40
9.366986551524892
 40
9.829449187890162
 40
10.29186738070865
 40
10.76060109494755
 40
11.22925691457777
 40
11.70742838327164
 40
12.18550523570426
 40
12.67500464891277
 40
13.16440880772084
 40
13.66568568322838
 40
14.16687837589903
 40
14.67897951838065
 40
15.19101439607956
 40
15.71177458424533
 40
16.23248967741703
 40
16.75882257375525
 40
17.28513276039874
 40
17.54949319846368
 40
17.81347474451362
 40
17.81347474451362
 40
17.81347474451362
 40
17.81347474451362
 10
277.0752704610766
 20
248.7901823463761
 30
0.0
 10
277.0762389724258
 20
248.7021825824493
 30
0.0
 10
277.078177385226
 20
248.5260567487672
 30
0.0
 10
277.0988127204695
 20
248.1750033013104
 30
0.0
 10
277.1483063483939
 20
247.7383765616997
 30
0.0
 10
277.2475094472007
 20
247.2228585278049
 30
0.0
 10
277.3853895770608
 20
246.7182401982698
 30
0.0
 10
277.5606077052286
 20
246.2303750714386
 30
0.0
 10
277.772606851422
 20
245.7604782693387
 30
0.0
 10
278.0187128201439
 20
245.3149151592388
 30
0.0
 10
278.2985630605131
 20
244.8940276761541
 30
0.0
 10
278.6082848242862
 20
244.5041814319565
 30
0.0
 10
278.9476657553726
 20
244.1451967215607
 30
0.0
 10
279.3118552599033
 20
243.8229033586319
 30
0.0
 10
279.7005793557953
 20
243.5369268282222
 30
0.0
 10
280.108425605256
 20
243.2921224855805
 30
0.0
 10
280.5346905828982
 20
243.0881059255845
 30
0.0
 10
280.9739481179313
 20
242.9285109788223
 30
0.0
 10
281.4246546744325
 20
242.8129091122123
 30
0.0
 10
281.8819322639964
 20
242.7437039042363
 30
0.0
 10
282.3430973375035
 20
242.720173658021
 30
0.0
 10
282.8042624110105
 20
242.7437039042365
 30
0.0
 10
283.2615400005745
 20
242.8129091122124
 30
0.0
 10
283.7122465570755
 20
242.9285109788225
 30
0.0
 10
284.1515040921089
 20
243.0881059255843
 30
0.0
 10
284.577769069751
 20
243.2921224855805
 30
0.0
 10
284.9856153192117
 20
243.5369268282223
 30
0.0
 10
285.374339415104
 20
243.8229033586318
 30
0.0
 10
285.7385289196345
 20
244.1451967215607
 30
0.0
 10
286.077909850721
 20
244.5041814319564
 30
0.0
 10
286.3876316144938
 20
244.8940276761543
 30
0.0
 10
286.6674818548633
 20
245.3149151592389
 30
0.0
 10
286.9135878235851
 20
245.7604782693387
 30
0.0
 10
287.1255869697785
 20
246.2303750714389
 30
0.0
 10
287.300805097946
 20
246.7182401982698
 30
0.0
 10
287.438685227806
 20
247.2228585278049
 30
0.0
 10
287.5378883266131
 20
247.7383765616996
 30
0.0
 10
287.5873819545371
 20
248.1750033013097
 30
0.0
 10
287.6080172897811
 20
248.5260567487652
 30
0.0
 10
287.6099557025812
 20
248.7021825824458
 30
0.0
 10
287.6109242139303
 20
248.7901823463718
 30
0.0
 11
277.0752704610766
 21
248.7901823463761
 31
0.0
 11
277.0802727675291
 21
248.52624820007
 31
0.0
 11
277.0952796868863
 21
248.2623140537639
 31
0.0
 11
277.155008262894
 21
247.7394040139169
 31
0.0
 11
277.2544497298187
 21
247.2225503475629
 31
0.0
 11
277.3918536580788
 21
246.7202910830834
 31
0.0
 11
277.5680084744923
 21
246.2302291949173
 31
0.0
 11
277.7787726760442
 21
245.7635835399236
 31
0.0
 11
278.0265356195425
 21
245.3154082349815
 31
0.0
 11
278.3042691163888
 21
244.8982053827431
 31
0.0
 11
278.6162480242587
 21
244.5058437294652
 31
0.0
 11
278.9527034587198
 21
244.1504366793379
 31
0.0
 11
279.3193938747116
 21
243.8261716421364
 31
0.0
 11
279.7047015551041
 21
243.5431602143416
 31
0.0
 11
280.1147476144329
 21
243.297172038403
 31
0.0
 11
280.5376359392818
 21
243.0951726770679
 31
0.0
 11
280.978197426055
 21
242.9351199631381
 31
0.0
 11
281.4261951079875
 21
242.820539589458
 31
0.0
 11
281.8834345603685
 21
242.7512303316329
 31
0.0
 11
282.3430973375034
 21
242.7280045198808
 31
0.0
 11
282.8027601146384
 21
242.7512303316331
 31
0.0
 11
283.2599995670194
 21
242.8205395894581
 31
0.0
 11
283.7079972489519
 21
242.9351199631382
 31
0.0
 11
284.1485587357252
 21
243.0951726770679
 31
0.0
 11
284.5714470605741
 21
243.297172038403
 31
0.0
 11
284.9814931199031
 21
243.5431602143416
 31
0.0
 11
285.3668008002956
 21
243.8261716421364
 31
0.0
 11
285.7334912162873
 21
244.1504366793379
 31
0.0
 11
286.0699466507484
 21
244.5058437294652
 31
0.0
 11
286.3819255586182
 21
244.8982053827432
 31
0.0
 11
286.6596590554645
 21
245.3154082349817
 31
0.0
 11
286.907421998963
 21
245.7635835399238
 31
0.0
 11
287.1181862005146
 21
246.2302291949174
 31
0.0
 11
287.294341016928
 21
246.7202910830834
 31
0.0
 11
287.4317449451881
 21
247.2225503475629
 31
0.0
 11
287.531186412113
 21
247.739404013917
 31
0.0
 11
287.5909149881206
 21
248.262314053764
 31
0.0
 11
287.6059219074779
 21
248.5262482000681
 31
0.0
 11
287.6109242139303
 21
248.7901823463718
 31
0.0
  0
SPLINE
  5
7C
330
36
100
AcDbEntity
  8
1
  6
Continuous
 62
     7
100
AcDbSpline
210
0.0
220
0.0
230
1.0
 70
    11
 71
     3
 72
    79
 73
    75
 74
    73
 42
0.0000000001
 43
0.0000000001
 44
0.00000001
 40
0.0
 40
0.0
 40
0.0
 40
0.0
 40
0.45806290734471
 40
0.9161250954498157
 40
1.374321004625629
 40
1.832515564104238
 40
2.290914921250015
 40
2.749312464134794
 40
3.207961104920696
 40
3.666607688416544
 40
4.125521335344373
 40
4.584432931141715
 40
5.043595344343875
 40
5.502755958881665
 40
5.962120941340464
 40
6.421484591837756
 40
6.880981585492572
 40
7.340477871484366
 40
7.800020458108202
 40
8.259563044732039
 40
8.719059330723718
 40
9.178556324378393
 40
9.63791997487581
 40
10.09728495733455
 40
10.55644557187232
 40
11.01560798507452
 40
11.47451958087197
 40
11.93343322779978
 40
12.39207981129576
 40
12.85072845208161
 40
13.30912599496638
 40
13.76752535211206
 40
14.22571991159074
 40
14.68391582076655
 40
15.14197800887175
 40
15.60004091621634
 40
16.05805737367901
 40
16.51607383114159
 40
16.97413673848615
 40
17.43219892659131
 40
17.89039483576716
 40
18.34858939524574
 40
18.80698875239149
 40
19.26538629527613
 40
19.72403493606199
 40
20.18268151955791
 40
20.64159516648583
 40
21.1005067622833
 40
21.55966917548557
 40
22.01882979002334
 40
22.478194772482
 40
22.93755842297944
 40
23.39705541663422
 40
23.85655170262583
 40
24.31609428924967
 40
24.77563687587356
 40
25.2351331618653
 40
25.69463015552012
 40
26.15399380601747
 40
26.61335878847614
 40
27.07251940301392
 40
27.53168181621619
 40
27.99059341201356
 40
28.44950705894135
 40
28.90815364243718
 40
29.36680228322309
 40
29.82519982610786
 40
30.28359918325361
 40
30.74179374273229
 40
31.19998965190807
 40
31.65805184001319
 40
32.11611474735778
 40
32.57413120482039
 40
33.03214766228309
 40
33.03214766228309
 40
33.03214766228309
 40
33.03214766228309
 10
153.635521515752
 20
376.5379233404153
 30
0.0
 10
153.4837045169513
 20
376.5207399237086
 30
0.0
 10
153.1800707577294
 20
376.4863731172761
 30
0.0
 10
152.732546968669
 20
376.3844008191322
 30
0.0
 10
152.2950913916678
 20
376.2467369994638
 30
0.0
 10
151.87144494192
 20
376.070356228234
 30
0.0
 10
151.4646253215055
 20
375.8580227265074
 30
0.0
 10
151.0779032330522
 20
375.610652005247
 30
0.0
 10
150.7140332946971
 20
375.3306271720634
 30
0.0
 10
150.3759996364908
 20
375.0196485232354
 30
0.0
 10
150.0661280386226
 20
374.6804821865824
 30
0.0
 10
149.7870531961821
 20
374.315339954423
 30
0.0
 10
149.5405895070572
 20
373.927341604975
 30
0.0
 10
149.3289490993232
 20
373.5191337052173
 30
0.0
 10
149.1533765381181
 20
373.0940911456463
 30
0.0
 10
149.0155957236025
 20
372.6552221687172
 30
0.0
 10
148.9162450320718
 20
372.2060460901876
 30
0.0
 10
148.8565047832228
 20
371.7498493991031
 30
0.0
 10
148.8363932768961
 20
371.2901823462478
 30
0.0
 10
148.8565047832225
 20
370.8305152933854
 30
0.0
 10
148.9162450320733
 20
370.3743186023232
 30
0.0
 10
149.015595723597
 20
369.9251425237109
 30
0.0
 10
149.1533765381397
 20
369.4862735470914
 30
0.0
 10
149.3289490992434
 20
369.0612309863649
 30
0.0
 10
149.5405895073557
 20
368.6530230909183
 30
0.0
 10
149.7870531950686
 20
368.2650247253848
 30
0.0
 10
150.0661280427767
 20
367.899882553226
 30
0.0
 10
150.375999620992
 20
367.5607159927153
 30
0.0
 10
150.7140333525028
 20
367.2497381788712
 30
0.0
 10
151.0779030173631
 20
366.9697102304181
 30
0.0
 10
151.4646261259799
 20
366.7223511294313
 30
0.0
 10
151.8714419400801
 20
366.5099742714947
 30
0.0
 10
152.295102589143
 20
366.3337552390081
 30
0.0
 10
152.7325051835151
 20
366.1954879153142
 30
0.0
 10
153.1802266516388
 20
366.0957673006453
 30
0.0
 10
153.6349243349745
 20
366.0358162045726
 30
0.0
 10
154.0930973374915
 20
366.0156254437073
 30
0.0
 10
154.5512703400084
 20
366.0358162045727
 30
0.0
 10
155.0059680233441
 20
366.0957673006451
 30
0.0
 10
155.4536894914678
 20
366.1954879153143
 30
0.0
 10
155.8910920858399
 20
366.3337552390083
 30
0.0
 10
156.3147527349028
 20
366.5099742714945
 30
0.0
 10
156.7215685490028
 20
366.7223511294316
 30
0.0
 10
157.1082916576197
 20
366.9697102304182
 30
0.0
 10
157.4721613224799
 20
367.2497381788712
 30
0.0
 10
157.8101950539908
 20
367.5607159927153
 30
0.0
 10
158.1200666322061
 20
367.8998825532259
 30
0.0
 10
158.3991414799143
 20
368.2650247253848
 30
0.0
 10
158.6456051676272
 20
368.6530230909183
 30
0.0
 10
158.8572455757397
 20
369.0612309863648
 30
0.0
 10
159.0328181368431
 20
369.4862735470914
 30
0.0
 10
159.1705989513861
 20
369.9251425237109
 30
0.0
 10
159.2699496429097
 20
370.3743186023232
 30
0.0
 10
159.3296898917605
 20
370.8305152933856
 30
0.0
 10
159.3498013980865
 20
371.2901823462468
 30
0.0
 10
159.3296898917604
 20
371.7498493991074
 30
0.0
 10
159.2699496429093
 20
372.2060460901715
 30
0.0
 10
159.1705989513864
 20
372.655222168778
 30
0.0
 10
159.0328181368417
 20
373.0940911454196
 30
0.0
 10
158.8572455757453
 20
373.5191337060633
 30
0.0
 10
158.6456051676058
 20
373.9273416018193
 30
0.0
 10
158.3991414799942
 20
374.3153399661979
 30
0.0
 10
158.120066631908
 20
374.6804821426644
 30
0.0
 10
157.8101950551037
 20
375.0196486871035
 30
0.0
 10
157.4721613183299
 20
375.3306265608935
 30
0.0
 10
157.1082916731047
 20
375.6106542856917
 30
0.0
 10
156.7215684912473
 20
375.8580142209339
 30
0.0
 10
156.3147529504142
 20
376.0703879661942
 30
0.0
 10
155.8910912819385
 20
376.2466186104062
 30
0.0
 10
155.4536924913534
 20
376.3848426066763
 30
0.0
 10
155.0059568312375
 20
376.4847248766776
 30
0.0
 10
154.5513121082112
 20
376.5440727229584
 30
0.0
 10
154.0929414739322
 20
376.5665146285107
 30
0.0
 10
153.7879948351454
 20
376.5474537697804
 30
0.0
 10
153.635521515752
 20
376.5379233404153
 30
0.0
 11
153.635521515752
 21
376.5379233404153
 31
0.0
 11
153.1813989008716
 21
376.4779710448856
 31
0.0
 11
152.7342751208566
 21
376.378465801221
 31
0.0
 11
152.2974100312365
 21
376.2402906057021
 31
0.0
 11
151.8743214147761
 21
376.0643978060842
 31
0.0
 11
151.4679961649215
 21
375.8521956337054
 31
0.0
 11
151.0817916743021
 21
375.6052656866592
 31
0.0
 11
150.718360731387
 21
375.3254862638516
 31
0.0
 11
150.3807664886811
 21
375.0150240023056
 31
0.0
 11
150.0712788117906
 21
374.67617431116
 31
0.0
 11
149.79254410164
 21
374.3116104427987
 31
0.0
 11
149.5464057517017
 21
373.9239946092892
 31
0.0
 11
149.3349938372777
 21
373.516399868913
 31
0.0
 11
149.1596815477421
 21
373.0918038394366
 31
0.0
 11
149.022014096099
 21
372.653554325853
 31
0.0
 11
148.9228486611644
 21
372.2048855129274
 31
0.0
 11
148.8631111330161
 21
371.7492889100307
 31
0.0
 11
148.8430973374913
 21
371.2901823462466
 31
0.0
 11
148.8631111330161
 21
370.8310757824626
 31
0.0
 11
148.9228486611644
 21
370.375479179566
 31
0.0
 11
149.0220140960991
 21
369.9268103666406
 31
0.0
 11
149.1596815477423
 21
369.4885608530569
 31
0.0
 11
149.3349938372778
 21
369.0639648235805
 31
0.0
 11
149.5464057517018
 21
368.6563700832043
 31
0.0
 11
149.7925441016401
 21
368.2687542496948
 31
0.0
 11
150.0712788117908
 21
367.9041903813334
 31
0.0
 11
150.3807664886813
 21
367.5653406901878
 31
0.0
 11
150.7183607313871
 21
367.2548784286415
 31
0.0
 11
151.0817916743022
 21
366.975099005834
 31
0.0
 11
151.4679961649216
 21
366.7281690587878
 31
0.0
 11
151.8743214147762
 21
366.5159668864092
 31
0.0
 11
152.2974100312366
 21
366.3400740867912
 31
0.0
 11
152.7342751208567
 21
366.2018988912723
 31
0.0
 11
153.1813989008718
 21
366.1023936476076
 31
0.0
 11
153.635521515752
 21
366.042441352078
 31
0.0
 11
154.0930973374915
 21
366.0223554698198
 31
0.0
 11
154.5506731592309
 21
366.042441352078
 31
0.0
 11
155.0047957741112
 21
366.1023936476076
 31
0.0
 11
155.4519195541262
 21
366.2018988912723
 31
0.0
 11
155.8887846437463
 21
366.3400740867913
 31
0.0
 11
156.3118732602067
 21
366.5159668864092
 31
0.0
 11
156.7181985100612
 21
366.7281690587879
 31
0.0
 11
157.1044030006805
 21
366.975099005834
 31
0.0
 11
157.4678339435957
 21
367.2548784286415
 31
0.0
 11
157.8054281863015
 21
367.5653406901877
 31
0.0
 11
158.114915863192
 21
367.9041903813334
 31
0.0
 11
158.3936505733428
 21
368.2687542496947
 31
0.0
 11
158.6397889232812
 21
368.6563700832043
 31
0.0
 11
158.8512008377051
 21
369.0639648235805
 31
0.0
 11
159.0265131272406
 21
369.4885608530568
 31
0.0
 11
159.1641805788839
 21
369.9268103666406
 31
0.0
 11
159.2633460138186
 21
370.3754791795661
 31
0.0
 11
159.3230835419668
 21
370.8310757824626
 31
0.0
 11
159.3430973374915
 21
371.2901823462466
 31
0.0
 11
159.3230835419668
 21
371.7492889100308
 31
0.0
 11
159.2633460138184
 21
372.2048855129274
 31
0.0
 11
159.1641805788838
 21
372.653554325853
 31
0.0
 11
159.0265131272406
 21
373.0918038394366
 31
0.0
 11
158.8512008377051
 21
373.516399868913
 31
0.0
 11
158.6397889232812
 21
373.9239946092891
 31
0.0
 11
158.3936505733428
 21
374.3116104427987
 31
0.0
 11
158.1149158631921
 21
374.67617431116
 31
0.0
 11
157.8054281863016
 21
375.0150240023056
 31
0.0
 11
157.4678339435958
 21
375.3254862638516
 31
0.0
 11
157.1044030006806
 21
375.6052656866593
 31
0.0
 11
156.7181985100613
 21
375.8521956337054
 31
0.0
 11
156.3118732602067
 21
376.0643978060842
 31
0.0
 11
155.8887846437463
 21
376.2402906057022
 31
0.0
 11
155.4519195541262
 21
376.378465801221
 31
0.0
 11
155.0047957741112
 21
376.4779710448856
 31
0.0
 11
154.5506731592309
 21
376.5379233404153
 31
0.0
 11
154.0930973374915
 21
376.5580092226736
 31
0.0
 11
153.635521515752
 21
376.5379233404153
 31
0.0
  0
SPLINE
  5
7D
330
36
100
AcDbEntity
  8
1
  6
Continuous
 62
     7
100
AcDbSpline
210
0.0
220
0.0
230
1.0
 70
     8
 71
     3
 72
    65
 73
    61
 74
    59
 42
0.0000000001
 43
0.0000000001
 44
0.00000001
 40
0.0
 40
0.0
 40
0.0
 40
0.0
 40
0.4580629073445691
 40
0.9161250954496316
 40
1.374321004625391
 40
1.832515564104026
 40
2.290914921249778
 40
2.749312464134581
 40
3.207961104920461
 40
3.666607688416267
 40
4.125521335344096
 40
4.584432931141472
 40
5.043595344343663
 40
5.502755958881427
 40
5.962120941340215
 40
6.421484591837516
 40
6.880981585492357
 40
7.340477871484151
 40
7.800020458107988
 40
8.25956304473182
 40
8.719059330723496
 40
9.178556324378176
 40
9.63791997487562
 40
10.09728495733435
 40
10.55644557187214
 40
11.01560798507433
 40
11.47451958087178
 40
11.9334332277996
 40
12.39207981129557
 40
12.85072845208142
 40
13.30912599496615
 40
13.76752535211185
 40
14.22571991159052
 40
14.68391582076631
 40
15.14197800887143
 40
15.60004091621596
 40
16.05805737367863
 40
16.5160738311413
 40
16.97413673848588
 40
17.43219892659106
 40
17.89039483576689
 40
18.34858939524553
 40
18.80698875239126
 40
19.26538629527592
 40
19.7240349360618
 40
20.18268151955772
 40
20.64159516648565
 40
21.10050676228308
 40
21.55966917548533
 40
22.01882979002311
 40
22.47819477248176
 40
22.93755842297918
 40
23.39705541663397
 40
23.85655170262558
 40
24.31609428924942
 40
24.77563687587331
 40
25.23513316186505
 40
25.69463015551988
 40
26.13012632708862
 40
26.56546039687664
 40
26.56546039687664
 40
26.56546039687664
 40
26.56546039687664
 10
165.1355215157518
 20
376.5379233404154
 30
0.0
 10
164.9837045169512
 20
376.5207399237086
 30
0.0
 10
164.6800707577294
 20
376.4863731172761
 30
0.0
 10
164.2325469686691
 20
376.3844008191323
 30
0.0
 10
163.7950913916679
 20
376.2467369994638
 30
0.0
 10
163.3714449419201
 20
376.070356228234
 30
0.0
 10
162.9646253215057
 20
375.8580227265074
 30
0.0
 10
162.5779032330522
 20
375.610652005247
 30
0.0
 10
162.2140332946972
 20
375.3306271720633
 30
0.0
 10
161.8759996364909
 20
375.0196485232355
 30
0.0
 10
161.5661280386227
 20
374.6804821865824
 30
0.0
 10
161.2870531961823
 20
374.3153399544231
 30
0.0
 10
161.0405895070572
 20
373.927341604975
 30
0.0
 10
160.8289490993233
 20
373.5191337052173
 30
0.0
 10
160.6533765381183
 20
373.0940911456463
 30
0.0
 10
160.5155957236026
 20
372.6552221687172
 30
0.0
 10
160.4162450320718
 20
372.2060460901878
 30
0.0
 10
160.3565047832228
 20
371.749849399103
 30
0.0
 10
160.3363932768961
 20
371.2901823462479
 30
0.0
 10
160.3565047832223
 20
370.8305152933853
 30
0.0
 10
160.4162450320732
 20
370.3743186023233
 30
0.0
 10
160.5155957235968
 20
369.9251425237108
 30
0.0
 10
160.6533765381398
 20
369.4862735470916
 30
0.0
 10
160.8289490992432
 20
369.0612309863646
 30
0.0
 10
161.0405895073557
 20
368.6530230909183
 30
0.0
 10
161.2870531950686
 20
368.2650247253848
 30
0.0
 10
161.5661280427766
 20
367.8998825532259
 30
0.0
 10
161.875999620992
 20
367.5607159927154
 30
0.0
 10
162.2140333525028
 20
367.2497381788712
 30
0.0
 10
162.5779030173632
 20
366.9697102304182
 30
0.0
 10
162.9646261259798
 20
366.7223511294314
 30
0.0
 10
163.3714419400801
 20
366.5099742714947
 30
0.0
 10
163.7951025891429
 20
366.3337552390082
 30
0.0
 10
164.232505183515
 20
366.1954879153144
 30
0.0
 10
164.6802266516386
 20
366.0957673006452
 30
0.0
 10
165.1349243349743
 20
366.0358162045727
 30
0.0
 10
165.5930973374913
 20
366.0156254437072
 30
0.0
 10
166.0512703400082
 20
366.0358162045727
 30
0.0
 10
166.5059680233441
 20
366.0957673006452
 30
0.0
 10
166.9536894914676
 20
366.1954879153142
 30
0.0
 10
167.3910920858399
 20
366.3337552390082
 30
0.0
 10
167.8147527349024
 20
366.5099742714943
 30
0.0
 10
168.2215685490039
 20
366.7223511294321
 30
0.0
 10
168.6082916576154
 20
366.9697102304162
 30
0.0
 10
168.9721613224955
 20
367.2497381788782
 30
0.0
 10
169.3101950539326
 20
367.5607159926896
 30
0.0
 10
169.6200666324233
 20
367.8998825533219
 30
0.0
 10
169.8991414791036
 20
368.2650247250267
 30
0.0
 10
170.1456051706542
 20
368.6530230922552
 30
0.0
 10
170.3572455644404
 20
369.0612309813742
 30
0.0
 10
170.532818179033
 20
369.4862735657254
 30
0.0
 10
170.6705987939146
 20
369.925142454161
 30
0.0
 10
170.7699502307895
 20
370.3743188619703
 30
0.0
 10
170.8296876976938
 20
370.8305143243389
 30
0.0
 10
170.8498095873676
 20
371.2901859631818
 30
0.0
 10
170.8296593303529
 20
371.7498359011424
 30
0.0
 10
170.7700636868884
 20
372.206096459633
 30
0.0
 10
170.6719030731597
 20
372.6472604521673
 30
0.0
 10
170.5417537400101
 20
373.0719645085516
 30
0.0
 10
170.4280493479273
 20
373.3392266948739
 30
0.0
 10
170.3712077347088
 20
373.4728329131086
 30
0.0
 11
165.1355215157518
 21
376.5379233404154
 31
0.0
 11
164.6813989008716
 21
376.4779710448856
 31
0.0
 11
164.2342751208566
 21
376.378465801221
 31
0.0
 11
163.7974100312366
 21
376.2402906057021
 31
0.0
 11
163.3743214147762
 21
376.0643978060842
 31
0.0
 11
162.9679961649216
 21
375.8521956337054
 31
0.0
 11
162.5817916743022
 21
375.6052656866592
 31
0.0
 11
162.2183607313871
 21
375.3254862638516
 31
0.0
 11
161.8807664886813
 21
375.0150240023056
 31
0.0
 11
161.5712788117907
 21
374.67617431116
 31
0.0
 11
161.2925441016401
 21
374.3116104427987
 31
0.0
 11
161.0464057517017
 21
373.9239946092892
 31
0.0
 11
160.8349938372778
 21
373.516399868913
 31
0.0
 11
160.6596815477423
 21
373.0918038394366
 31
0.0
 11
160.5220140960991
 21
372.653554325853
 31
0.0
 11
160.4228486611644
 21
372.2048855129274
 31
0.0
 11
160.3631111330161
 21
371.7492889100307
 31
0.0
 11
160.3430973374913
 21
371.2901823462466
 31
0.0
 11
160.3631111330159
 21
370.8310757824626
 31
0.0
 11
160.4228486611642
 21
370.375479179566
 31
0.0
 11
160.522014096099
 21
369.9268103666406
 31
0.0
 11
160.6596815477423
 21
369.4885608530569
 31
0.0
 11
160.8349938372778
 21
369.0639648235805
 31
0.0
 11
161.0464057517017
 21
368.6563700832043
 31
0.0
 11
161.2925441016401
 21
368.2687542496948
 31
0.0
 11
161.5712788117907
 21
367.9041903813334
 31
0.0
 11
161.8807664886813
 21
367.5653406901878
 31
0.0
 11
162.2183607313871
 21
367.2548784286415
 31
0.0
 11
162.5817916743022
 21
366.975099005834
 31
0.0
 11
162.9679961649215
 21
366.7281690587878
 31
0.0
 11
163.3743214147761
 21
366.5159668864092
 31
0.0
 11
163.7974100312366
 21
366.3400740867912
 31
0.0
 11
164.2342751208566
 21
366.2018988912723
 31
0.0
 11
164.6813989008716
 21
366.1023936476076
 31
0.0
 11
165.1355215157518
 21
366.042441352078
 31
0.0
 11
165.5930973374913
 21
366.0223554698198
 31
0.0
 11
166.0506731592308
 21
366.042441352078
 31
0.0
 11
166.5047957741111
 21
366.1023936476076
 31
0.0
 11
166.9519195541261
 21
366.2018988912723
 31
0.0
 11
167.3887846437462
 21
366.3400740867913
 31
0.0
 11
167.8118732602066
 21
366.5159668864092
 31
0.0
 11
168.2181985100611
 21
366.7281690587879
 31
0.0
 11
168.6044030006805
 21
366.975099005834
 31
0.0
 11
168.9678339435956
 21
367.2548784286415
 31
0.0
 11
169.3054281863015
 21
367.5653406901877
 31
0.0
 11
169.614915863192
 21
367.9041903813334
 31
0.0
 11
169.8936505733427
 21
368.2687542496947
 31
0.0
 11
170.1397889232811
 21
368.6563700832043
 31
0.0
 11
170.351200837705
 21
369.0639648235805
 31
0.0
 11
170.5265131272405
 21
369.4885608530568
 31
0.0
 11
170.6641805788837
 21
369.9268103666406
 31
0.0
 11
170.7633460138184
 21
370.3754791795661
 31
0.0
 11
170.8230835419667
 21
370.8310757824626
 31
0.0
 11
170.8430973374914
 21
371.2901823462466
 31
0.0
 11
170.8230835419667
 21
371.7492889100308
 31
0.0
 11
170.7633460138184
 21
372.2048855129274
 31
0.0
 11
170.6641805788837
 21
372.653554325853
 31
0.0
 11
170.5346080197711
 21
373.0693281434221
 31
0.0
 11
170.3712077347088
 21
373.4728329131086
 31
0.0
  0
SPLINE
  5
7E
330
36
100
AcDbEntity
  8
1
  6
Continuous
 62
     7
100
AcDbSpline
210
0.0
220
0.0
230
1.0
 70
     8
 71
     3
 72
    11
 73
     7
 74
     5
 42
0.0000000001
 43
0.0000000001
 44
0.00000001
 40
0.0
 40
0.0
 40
0.0
 40
0.0
 40
0.2378827264336425
 40
0.4762225037816452
 40
0.9342389612442892
 40
1.392255418706959
 40
1.392255418706959
 40
1.392255418706959
 40
1.392255418706959
 10
166.5225684320532
 20
376.4747947828242
 30
0.0
 10
166.444339935162
 20
376.4878628779167
 30
0.0
 10
166.2877326387216
 20
376.5140241762082
 30
0.0
 10
165.9780136451059
 20
376.5472787484099
 30
0.0
 10
165.5929424929195
 20
376.566634142836
 30
0.0
 10
165.2879951748077
 20
376.5474936078888
 30
0.0
 10
165.1355215157518
 20
376.5379233404154
 30
0.0
 11
166.5225684320532
 21
376.4747947828242
 31
0.0
 11
166.2875660416621
 21
376.5117009888874
 31
0.0
 11
166.0506731592307
 21
376.5379233404153
 31
0.0
 11
165.5930973374913
 21
376.5580092226736
 31
0.0
 11
165.1355215157518
 21
376.5379233404154
 31
0.0
  0
ENDBLK
  5
38
330
36
100
AcDbEntity
  8
0
100
AcDbBlockEnd
  0
BLOCK
  5
3B
330
39
100
AcDbEntity
  8
0
100
AcDbBlockBegin
  2
B41A-240-13
 70
     0
 71
     0
 10
1112.121361746919
 20
-318.8816946935094
 30
0.0
  3
B41A-240-13
  1

  0
INSERT
  5
3A
330
39
100
AcDbEntity
  8
1
100
AcDbBlockReference
  2
34-188-M2K
 10
1322.121361746919
 20
-318.8816946935094
 30
0.0
  0
LINE
  5
7F
330
39
100
AcDbEntity
  8
1
  6
PHANTOM
 62
     4
100
AcDbLine
 10
273.3430973375034
 20
248.790182346372
 30
0.0
 11
291.3430973375034
 21
248.790182346372
 31
0.0
  0
LINE
  5
80
330
39
100
AcDbEntity
  8
1
  6
PHANTOM
 62
     4
100
AcDbLine
 10
159.8430973374884
 20
362.2901823463838
 30
0.0
 11
159.8430973374884
 21
380.2901823463838
 31
0.0
  0
ENDBLK
  5
3C
330
39
100
AcDbEntity
  8
0
100
AcDbBlockEnd
  0
BLOCK
  5
3E
330
3D
100
AcDbEntity
  8
0
100
AcDbBlockBegin
  2
37-1-13K
 70
     0
 71
     0
 10
68.0418671207203
 20
177.2944764562274
 30
0.0
  3
37-1-13K
  1

  0
LINE
  5
81
330
3D
100
AcDbEntity
  8
1
  6
Continuous
 62
     7
100
AcDbLine
 10
324.4230973375036
 20
281.3249196788681
 30
0.0
 11
299.2630973375036
 21
281.3249196788681
 31
0.0
  0
LINE
  5
82
330
3D
100
AcDbEntity
  8
1
  6
Continuous
 62
     7
100
AcDbLine
 10
151.3444604663421
 20
412.0701114904637
 30
0.0
 11
151.7960752329598
 21
412.8523312116939
 31
0.0
  0
LINE
  5
83
330
3D
100
AcDbEntity
  8
1
  6
Continuous
 62
     7
100
AcDbLine
 10
154.323710581395
 20
387.7901823463724
 30
0.0
 11
153.4204810481587
 21
387.7901823463724
 31
0.0
  0
LINE
  5
84
330
3D
100
AcDbEntity
  8
1
  6
Continuous
 62
     7
100
AcDbLine
 10
173.8611209647375
 20
402.510253202281
 30
0.0
 11
174.3127357313553
 21
401.7280334810506
 31
0.0
  0
LINE
  5
85
330
3D
100
AcDbEntity
  8
1
  6
Continuous
 62
     7
100
AcDbLine
 10
153.4204810481587
 20
413.7901823463723
 30
0.0
 11
154.3237105813943
 21
413.7901823463723
 31
0.0
  0
LINE
  5
86
330
3D
100
AcDbEntity
  8
1
  6
Continuous
 62
     7
100
AcDbLine
 10
151.7960752329598
 20
388.7280334810506
 30
0.0
 11
151.3444604663416
 21
389.5102532022817
 31
0.0
  0
LINE
  5
87
330
3D
100
AcDbEntity
  8
1
  6
Continuous
 62
     7
100
AcDbLine
 10
174.3127357313553
 20
399.8523312116942
 30
0.0
 11
173.8611209647375
 21
399.0701114904638
 31
0.0
  0
LINE
  5
88
330
3D
100
AcDbEntity
  8
1
  6
Continuous
 62
     7
100
AcDbLine
 10
298.8430973375036
 20
281.3249196788681
 30
0.0
 11
298.8430973375036
 21
274.2542054645968
 31
0.0
  0
LINE
  5
89
330
3D
100
AcDbEntity
  8
1
  6
Continuous
 62
     7
100
AcDbLine
 10
317.8430973375036
 20
288.2542054645968
 30
0.0
 11
305.8430973375036
 21
288.2542054645968
 31
0.0
  0
LINE
  5
8A
330
3D
100
AcDbEntity
  8
1
  6
Continuous
 62
     7
100
AcDbLine
 10
311.8430973375036
 20
274.2542054645968
 30
0.0
 11
298.8430973375036
 21
274.2542054645968
 31
0.0
  0
LINE
  5
8B
330
3D
100
AcDbEntity
  8
1
  6
Continuous
 62
     7
100
AcDbLine
 10
324.8430973375036
 20
274.2542054645968
 30
0.0
 11
311.8430973375036
 21
274.2542054645968
 31
0.0
  0
LINE
  5
8C
330
3D
100
AcDbEntity
  8
1
  6
Continuous
 62
     7
100
AcDbLine
 10
324.8430973375036
 20
281.3249196788681
 30
0.0
 11
324.8430973375036
 21
274.2542054645968
 31
0.0
  0
LINE
  5
8D
330
3D
100
AcDbEntity
  8
1
  6
Continuous
 62
     7
100
AcDbLine
 10
160.4652230678223
 20
274.290182346372
 30
0.0
 11
146.77238312322
 21
274.290182346372
 31
0.0
  0
LINE
  5
8E
330
3D
100
AcDbEntity
  8
1
  6
Continuous
 62
     7
100
AcDbLine
 10
172.9138115517629
 20
274.290182346372
 30
0.0
 11
159.22097160716
 21
274.290182346372
 31
0.0
  0
LINE
  5
8F
330
3D
100
AcDbEntity
  8
1
  6
Continuous
 62
     7
100
AcDbLine
 10
147.3430973374915
 20
281.790182346372
 30
0.0
 11
159.8430973374913
 21
281.790182346372
 31
0.0
  0
LINE
  5
90
330
3D
100
AcDbEntity
  8
1
  6
Continuous
 62
     7
100
AcDbLine
 10
159.8430973374913
 20
281.790182346372
 30
0.0
 11
172.3430973374912
 21
281.790182346372
 31
0.0
  0
LINE
  5
91
330
3D
100
AcDbEntity
  8
1
  6
Continuous
 62
     7
100
AcDbLine
 10
165.8430973374913
 20
288.290182346372
 30
0.0
 11
159.8430973374913
 21
288.290182346372
 31
0.0
  0
LINE
  5
92
330
3D
100
AcDbEntity
  8
1
  6
Continuous
 62
     7
100
AcDbLine
 10
159.8430973374913
 20
288.290182346372
 30
0.0
 11
153.8430973374913
 21
288.290182346372
 31
0.0
  0
ARC
  5
93
330
3D
100
AcDbEntity
  8
1
  6
Continuous
 62
     7
100
AcDbCircle
 10
159.8430973374913
 20
400.7901823463724
 30
0.0
 40
14.49999999999996
100
AcDbArc
 50
116.2915552747295
 51
123.7084447252713
  0
ARC
  5
94
330
3D
100
AcDbEntity
  8
1
  6
Continuous
 62
     7
100
AcDbCircle
 10
159.8430973374913
 20
400.7901823463724
 30
0.0
 40
14.50000000000006
100
AcDbArc
 50
-123.7084447252708
 51
-116.2915552747294
  0
ARC
  5
95
330
3D
100
AcDbEntity
  8
1
  6
Continuous
 62
     7
100
AcDbCircle
 10
159.8430973374913
 20
400.7901823463724
 30
0.0
 40
14.50000000000003
100
AcDbArc
 50
-3.7084447252703
 51
0.0
  0
ARC
  5
96
330
3D
100
AcDbEntity
  8
1
  6
Continuous
 62
     7
100
AcDbCircle
 10
159.8430973374913
 20
400.7901823463724
 30
0.0
 40
14.5
100
AcDbArc
 50
0.0
 51
3.70844472527052
  0
ARC
  5
97
330
3D
100
AcDbEntity
  8
1
  6
Continuous
 62
     7
100
AcDbCircle
 10
302.3430973375036
 20
277.7542054645968
 30
0.0
 40
4.999999999999863
100
AcDbArc
 50
126.869897645842
 51
134.4270040008064
  0
ARC
  5
98
330
3D
100
AcDbEntity
  8
1
  6
Continuous
 62
     7
100
AcDbCircle
 10
285.9366421323887
 20
301.6606606697118
 30
0.0
 40
24.00000000000015
100
AcDbArc
 50
-56.04080749990224
 51
-33.95919250009769
  0
ARC
  5
99
330
3D
100
AcDbEntity
  8
1
  6
Continuous
 62
     7
100
AcDbCircle
 10
321.3430973375036
 20
277.7542054645968
 30
0.0
 40
4.999999999999934
100
AcDbArc
 50
45.57299599919357
 51
53.13010235415598
  0
ARC
  5
9A
330
3D
100
AcDbEntity
  8
1
  6
Continuous
 62
     7
100
AcDbCircle
 10
337.7495525426186
 20
301.6606606697118
 30
0.0
 40
24.00000000000008
100
AcDbArc
 50
-146.0408074999025
 51
-123.9591925000975
  0
ARC
  5
9B
330
3D
100
AcDbEntity
  8
1
  6
Continuous
 62
     7
100
AcDbCircle
 10
150.3430973374913
 20
277.790182346372
 30
0.0
 40
4.999999999999863
100
AcDbArc
 50
126.869897645842
 51
-135.5729959991931
  0
ARC
  5
9C
330
3D
100
AcDbEntity
  8
1
  6
Continuous
 62
     7
100
AcDbCircle
 10
169.3430973374913
 20
277.790182346372
 30
0.0
 40
5.000000000000138
100
AcDbArc
 50
-44.42700400080416
 51
53.13010235415676
  0
ARC
  5
9D
330
3D
100
AcDbEntity
  8
1
  6
Continuous
 62
     7
100
AcDbCircle
 10
185.7495525426063
 20
301.6966375514866
 30
0.0
 40
23.99999999999992
100
AcDbArc
 50
-146.0408074999032
 51
-123.9591925000982
  0
ARC
  5
9E
330
3D
100
AcDbEntity
  8
1
  6
Continuous
 62
     7
100
AcDbCircle
 10
133.9366421323765
 20
301.6966375514868
 30
0.0
 40
23.99999999999995
100
AcDbArc
 50
-56.04080749990219
 51
-33.95919250009747
  0
SPLINE
  5
9F
330
3D
100
AcDbEntity
  8
1
  6
Continuous
 62
     7
100
AcDbSpline
210
0.0
220
0.0
230
1.0
 70
    11
 71
     3
 72
    79
 73
    75
 74
    73
 42
0.0000000001
 43
0.0000000001
 44
0.00000001
 40
0.0
 40
0.0
 40
0.0
 40
0.0
 40
0.3114713439932432
 40
0.6228035292711053
 40
0.9472403639552584
 40
1.27146485804537
 40
1.614803252700174
 40
1.957928915792588
 40
2.323150649725165
 40
2.688197477605183
 40
3.075390759585864
 40
3.462454984676893
 40
3.869243829725838
 40
4.275944688499306
 40
4.698050018426538
 40
5.12010130500809
 40
5.551913313124874
 40
5.98369971491349
 40
6.418825159681931
 40
6.853950604450374
 40
7.285737006238994
 40
7.717549014355714
 40
8.1396003009372
 40
8.561705630864431
 40
8.9684064896379
 40
9.375195334686818
 40
9.762259559777924
 40
10.14945284175864
 40
10.5144996696387
 40
10.87972140357128
 40
11.2228470666637
 40
11.56618546131848
 40
11.89040995540857
 40
12.21484679009276
 40
12.52617897537057
 40
12.83765031936381
 40
13.1444394307475
 40
13.45122854213124
 40
13.76269988612442
 40
14.07403207140229
 40
14.39846890608644
 40
14.72269340017654
 40
15.06603179483136
 40
15.40915745792376
 40
15.77437919185635
 40
16.13942601973642
 40
16.5266193017171
 40
16.91368352680818
 40
17.32047237185708
 40
17.72717323063056
 40
18.14927856055778
 40
18.57132984713934
 40
19.00314185525609
 40
19.43492825704468
 40
19.8700537018131
 40
20.30517914658154
 40
20.73696554837013
 40
21.16877755648692
 40
21.5908288430685
 40
22.01293417299569
 40
22.41963503176911
 40
22.82642387681798
 40
23.213488101909
 40
23.6006813838898
 40
23.96572821176983
 40
24.33094994570243
 40
24.67407560879481
 40
25.01741400344966
 40
25.34163849753982
 40
25.66607533222392
 40
25.97740751750161
 40
26.28887886149497
 40
26.59566797287865
 40
26.90245708426238
 40
26.90245708426238
 40
26.90245708426238
 40
26.90245708426238
 10
164.8235239005397
 20
278.0963599347896
 30
0.0
 10
164.8069381870415
 20
278.1989904761509
 30
0.0
 10
164.7737741701861
 20
278.4042057057491
 30
0.0
 10
164.6748760094287
 20
278.7052788612749
 30
0.0
 10
164.5430937784815
 20
278.9974638082369
 30
0.0
 10
164.3729803352573
 20
279.281832479131
 30
0.0
 10
164.1707116358478
 20
279.551973281826
 30
0.0
 10
163.9333824465911
 20
279.8106947291309
 30
0.0
 10
163.6678552525535
 20
280.0512556239476
 30
0.0
 10
163.3708099891869
 20
280.2767032904013
 30
0.0
 10
163.0501994964
 20
280.4810237701649
 30
0.0
 10
162.7026380920294
 20
280.6666747796436
 30
0.0
 10
162.3364624714009
 20
280.828983795513
 30
0.0
 10
161.9489782318527
 20
280.9694966172821
 30
0.0
 10
161.5480438926823
 20
281.0850735656463
 30
0.0
 10
161.1323591250494
 20
281.1764288185564
 30
0.0
 10
160.7085407634044
 20
281.2418079547871
 30
0.0
 10
160.2771800764441
 20
281.2814359122692
 30
0.0
 10
159.8430973374933
 20
281.2945724075344
 30
0.0
 10
159.4090145985306
 20
281.28143591227
 30
0.0
 10
158.9776539116054
 20
281.2418079547836
 30
0.0
 10
158.5538355498329
 20
281.1764288185689
 30
0.0
 10
158.1381507826649
 20
281.0850735656004
 30
0.0
 10
157.7372164417888
 20
280.9694966174519
 30
0.0
 10
157.3497322083844
 20
280.8289837949054
 30
0.0
 10
156.9835565653707
 20
280.6666747818686
 30
0.0
 10
156.6359952406832
 20
280.481023762307
 30
0.0
 10
156.3153844591733
 20
280.2767033190779
 30
0.0
 10
156.0183402147681
 20
280.051255523686
 30
0.0
 10
155.7528093396975
 20
279.810695094663
 30
0.0
 10
155.5154931002557
 20
279.5519720087032
 30
0.0
 10
155.3131775721466
 20
279.2818371316588
 30
0.0
 10
155.1432296906954
 20
278.9974475107661
 30
0.0
 10
155.0108449487184
 20
278.7053388048647
 30
0.0
 10
154.9141096421229
 20
278.4039919642314
 30
0.0
 10
154.8566444039662
 20
278.0986968610687
 30
0.0
 10
154.8366931501539
 20
277.790182346372
 30
0.0
 10
154.8566444039662
 20
277.4816678316752
 30
0.0
 10
154.9141096421229
 20
277.1763727285126
 30
0.0
 10
155.0108449487184
 20
276.8750258878793
 30
0.0
 10
155.1432296906955
 20
276.582917181978
 30
0.0
 10
155.3131775721467
 20
276.2985275610852
 30
0.0
 10
155.5154931002558
 20
276.0283926840409
 30
0.0
 10
155.7528093396976
 20
275.7696695980809
 30
0.0
 10
156.018340214768
 20
275.5291091690579
 30
0.0
 10
156.3153844591733
 20
275.303661373666
 30
0.0
 10
156.6359952406832
 20
275.099340930437
 30
0.0
 10
156.9835565653708
 20
274.9136899108754
 30
0.0
 10
157.3497322083843
 20
274.7513808978388
 30
0.0
 10
157.7372164417889
 20
274.6108680752919
 30
0.0
 10
158.1381507826649
 20
274.4952911271437
 30
0.0
 10
158.5538355498329
 20
274.403935874175
 30
0.0
 10
158.9776539116053
 20
274.3385567379604
 30
0.0
 10
159.4090145985311
 20
274.2989287804739
 30
0.0
 10
159.8430973374914
 20
274.2857922852095
 30
0.0
 10
160.2771800764509
 20
274.2989287804738
 30
0.0
 10
160.7085407633792
 20
274.3385567379606
 30
0.0
 10
161.1323591251425
 20
274.403935874174
 30
0.0
 10
161.5480438923437
 20
274.4952911271471
 30
0.0
 10
161.9489782330982
 20
274.61086807528
 30
0.0
 10
162.3364624669405
 20
274.7513808978821
 30
0.0
 10
162.7026381083591
 20
274.9136899107168
 30
0.0
 10
163.050199438724
 20
275.0993409309969
 30
0.0
 10
163.3708101996625
 20
275.3036613716229
 30
0.0
 10
163.6678545166682
 20
275.5291091762016
 30
0.0
 10
163.9333851294675
 20
275.7696695720369
 30
0.0
 10
164.170702291575
 20
276.02839277475
 30
0.0
 10
164.3730144831707
 20
276.2985272295958
 30
0.0
 10
164.542974160787
 20
276.5829183431617
 30
0.0
 10
164.675315974258
 20
276.8750216169387
 30
0.0
 10
164.7722053827592
 20
277.1763879574519
 30
0.0
 10
164.8291031317987
 20
277.4816112511867
 30
0.0
 10
164.8511425062694
 20
277.7903899942985
 30
0.0
 10
164.8327301024496
 20
277.994369954626
 30
0.0
 10
164.8235239005397
 20
278.0963599347896
 30
0.0
 11
164.8235239005397
 21
278.0963599347896
 31
0.0
 11
164.7657980021854
 21
278.4024352830099
 31
0.0
 11
164.6712333307202
 21
278.699058364547
 31
0.0
 11
164.5375131117657
 21
278.9946563394092
 31
0.0
 11
164.3717474657932
 21
279.2733017649653
 31
0.0
 11
164.1662839784191
 21
279.5483763159514
 31
0.0
 11
163.9347609783249
 21
279.8016199162653
 31
0.0
 11
163.6644420372465
 21
280.0472101950448
 31
0.0
 11
163.3739356489948
 21
280.2682649957848
 31
0.0
 11
163.0476704751936
 21
280.4767588181765
 31
0.0
 11
162.7064190328989
 21
280.659422901885
 31
0.0
 11
162.3346871149052
 21
280.8246274587259
 31
0.0
 11
161.9524268123677
 21
280.9634894392352
 31
0.0
 11
161.5469180135333
 21
281.0806880894871
 31
0.0
 11
161.1347309502474
 21
281.1714025501037
 31
0.0
 11
160.7079949386096
 21
281.2374175993372
 31
0.0
 11
160.2780212809841
 21
281.2769416492018
 31
0.0
 11
159.8430973374913
 21
281.2901823463719
 31
0.0
 11
159.4081733939984
 21
281.2769416492017
 31
0.0
 11
158.9781997363729
 21
281.2374175993371
 31
0.0
 11
158.5514637247351
 21
281.1714025501036
 31
0.0
 11
158.1392766614493
 21
281.0806880894872
 31
0.0
 11
157.7337678626149
 21
280.9634894392353
 31
0.0
 11
157.3515075600774
 21
280.824627458726
 31
0.0
 11
156.9797756420837
 21
280.6594229018851
 31
0.0
 11
156.6385241997889
 21
280.4767588181766
 31
0.0
 11
156.3122590259878
 21
280.2682649957848
 31
0.0
 11
156.021752637736
 21
280.0472101950448
 31
0.0
 11
155.7514336966577
 21
279.8016199162653
 31
0.0
 11
155.5199106965634
 21
279.5483763159514
 31
0.0
 11
155.3144472091893
 21
279.2733017649653
 31
0.0
 11
155.1486815632169
 21
278.9946563394092
 31
0.0
 11
155.0149613442624
 21
278.6990583645469
 31
0.0
 11
154.9203966727972
 21
278.4024352830099
 31
0.0
 11
154.862670774443
 21
278.0963599347896
 31
0.0
 11
154.8433099063235
 21
277.790182346372
 31
0.0
 11
154.862670774443
 21
277.4840047579543
 31
0.0
 11
154.9203966727972
 21
277.1779294097341
 31
0.0
 11
155.0149613442624
 21
276.881306328197
 31
0.0
 11
155.148681563217
 21
276.5857083533348
 31
0.0
 11
155.3144472091894
 21
276.3070629277787
 31
0.0
 11
155.5199106965635
 21
276.0319883767926
 31
0.0
 11
155.7514336966577
 21
275.7787447764786
 31
0.0
 11
156.021752637736
 21
275.5331544976991
 31
0.0
 11
156.3122590259878
 21
275.3120996969591
 31
0.0
 11
156.6385241997889
 21
275.1036058745673
 31
0.0
 11
156.9797756420837
 21
274.9209417908588
 31
0.0
 11
157.3515075600774
 21
274.755737234018
 31
0.0
 11
157.7337678626149
 21
274.6168752535086
 31
0.0
 11
158.1392766614493
 21
274.4996766032568
 31
0.0
 11
158.5514637247352
 21
274.4089621426404
 31
0.0
 11
158.978199736373
 21
274.3429470934069
 31
0.0
 11
159.4081733939985
 21
274.3034230435422
 31
0.0
 11
159.8430973374913
 21
274.2901823463719
 31
0.0
 11
160.2780212809842
 21
274.3034230435422
 31
0.0
 11
160.7079949386096
 21
274.3429470934068
 31
0.0
 11
161.1347309502474
 21
274.4089621426404
 31
0.0
 11
161.5469180135333
 21
274.4996766032569
 31
0.0
 11
161.9524268123677
 21
274.6168752535087
 31
0.0
 11
162.3346871149052
 21
274.755737234018
 31
0.0
 11
162.7064190328988
 21
274.9209417908588
 31
0.0
 11
163.0476704751936
 21
275.1036058745673
 31
0.0
 11
163.3739356489947
 21
275.3120996969592
 31
0.0
 11
163.6644420372465
 21
275.5331544976991
 31
0.0
 11
163.9347609783249
 21
275.7787447764786
 31
0.0
 11
164.1662839784191
 21
276.0319883767925
 31
0.0
 11
164.3717474657932
 21
276.3070629277787
 31
0.0
 11
164.5375131117657
 21
276.5857083533348
 31
0.0
 11
164.6712333307202
 21
276.881306328197
 31
0.0
 11
164.7657980021854
 21
277.1779294097339
 31
0.0
 11
164.8235239005397
 21
277.4840047579543
 31
0.0
 11
164.8428847686591
 21
277.7901823463719
 31
0.0
 11
164.8235239005397
 21
278.0963599347896
 31
0.0
  0
SPLINE
  5
A0
330
3D
100
AcDbEntity
  8
1
  6
Continuous
 62
     7
100
AcDbSpline
210
0.0
220
0.0
230
1.0
 70
    11
 71
     3
 72
    79
 73
    75
 74
    73
 42
0.0000000001
 43
0.0000000001
 44
0.00000001
 40
0.0
 40
0.0
 40
0.0
 40
0.0
 40
0.2811775426108888
 40
0.5623408931992588
 40
0.8457466631367465
 40
1.12912683042286
 40
1.415908903032456
 40
1.702658539054781
 40
1.993527432940363
 40
2.284362055943432
 40
2.579517800564366
 40
2.874641782101863
 40
3.173769982296766
 40
3.472872122788121
 40
3.775199692337346
 40
4.077508957859659
 40
4.381905225139455
 40
4.68629209140539
 40
4.991400459518961
 40
5.296508827632646
 40
5.600895693898697
 40
5.905291961178488
 40
6.207601226700684
 40
6.509928796249833
 40
6.809030936741239
 40
7.108159136936163
 40
7.40328311847372
 40
7.698438863094716
 40
7.989273486097765
 40
8.280142379983348
 40
8.566892016005616
 40
8.853674088615236
 40
9.137054255901372
 40
9.420460025838823
 40
9.701623376427166
 40
9.982800919038047
 40
10.2631955218683
 40
10.54359012469856
 40
10.82476766730941
 40
11.10593101789774
 40
11.38933678783519
 40
11.67271695512123
 40
11.95949902773072
 40
12.24624866375299
 40
12.53711755763865
 40
12.82795218064188
 40
13.12310792526287
 40
13.41823190680038
 40
13.7173601069952
 40
14.01646224748658
 40
14.31878981703584
 40
14.62109908255804
 40
14.92549534983782
 40
15.22988221610387
 40
15.53499058421744
 40
15.84009895233112
 40
16.14448581859711
 40
16.44888208587685
 40
16.75119135139917
 40
17.05351892094836
 40
17.35262106143975
 40
17.65174926163462
 40
17.94687324317215
 40
18.24202898779312
 40
18.53286361079627
 40
18.82373250468186
 40
19.11048214070415
 40
19.3972642133137
 40
19.68064438059977
 40
19.96405015053727
 40
20.24521350112559
 40
20.52639104373642
 40
20.80678564656667
 40
21.08718024939693
 40
21.08718024939693
 40
21.08718024939693
 40
21.08718024939693
 10
170.8213524920914
 20
281.2768004674906
 30
0.0
 10
170.7282564170009
 20
281.2653493454006
 30
0.0
 10
170.5420689657072
 20
281.2424476791994
 30
0.0
 10
170.2678315124013
 20
281.1744103881506
 30
0.0
 10
170.0001048450942
 20
281.0827882591769
 30
0.0
 10
169.740544356926
 20
280.9651772713921
 30
0.0
 10
169.4918100645588
 20
280.8239589481732
 30
0.0
 10
169.2549959597681
 20
280.6591369774282
 30
0.0
 10
169.0327375957014
 20
280.4730596802637
 30
0.0
 10
168.8258822085663
 20
280.2660348306522
 30
0.0
 10
168.6367684050532
 20
280.0408360329381
 30
0.0
 10
168.4661200209022
 20
279.7979711274087
 30
0.0
 10
168.3158027036524
 20
279.5405024963986
 30
0.0
 10
168.1864793682917
 20
279.2692245991273
 30
0.0
 10
168.0794464408533
 20
278.9872714452197
 30
0.0
 10
167.9952993031914
 20
278.6958342918501
 30
0.0
 10
167.9347547944834
 20
278.3978963483925
 30
0.0
 10
167.8982675977443
 20
278.0951306835922
 30
0.0
 10
167.8860405413931
 20
277.7901823463729
 30
0.0
 10
167.898267597744
 20
277.4852340091479
 30
0.0
 10
167.9347547944847
 20
277.1824683443645
 30
0.0
 10
167.9952993031868
 20
276.8845304008451
 30
0.0
 10
168.0794464408704
 20
276.5930932477043
 30
0.0
 10
168.1864793682278
 20
276.3111400929469
 30
0.0
 10
168.3158027038884
 20
276.0398621988156
 30
0.0
 10
168.466120020026
 20
275.7823935561636
 30
0.0
 10
168.6367684082747
 20
275.5395286935268
 30
0.0
 10
168.8258821966103
 20
275.3143297369497
 30
0.0
 10
169.0327376395983
 20
275.1073054719462
 30
0.0
 10
169.2549957968209
 20
274.9212260097623
 30
0.0
 10
169.4918106631538
 20
274.7564120100083
 30
0.0
 10
169.740542132796
 20
274.6151641415947
 30
0.0
 10
170.0001130366823
 20
274.4976621741403
 30
0.0
 10
170.2678010279527
 20
274.4056352267707
 30
0.0
 10
170.5421817388357
 20
274.3390973991506
 30
0.0
 10
170.8206727502992
 20
274.2991946155382
 30
0.0
 10
171.1014275866891
 20
274.2856824942087
 30
0.0
 10
171.382182423079
 20
274.2991946155381
 30
0.0
 10
171.6606734345425
 20
274.3390973991506
 30
0.0
 10
171.9350541454255
 20
274.4056352267709
 30
0.0
 10
172.2027421366958
 20
274.4976621741405
 30
0.0
 10
172.4623130405822
 20
274.6151641415946
 30
0.0
 10
172.7110445102242
 20
274.7564120100084
 30
0.0
 10
172.9478593765571
 20
274.9212260097621
 30
0.0
 10
173.1701175337797
 20
275.1073054719464
 30
0.0
 10
173.3769729767678
 20
275.3143297369498
 30
0.0
 10
173.5660867651035
 20
275.5395286935268
 30
0.0
 10
173.7367351533522
 20
275.7823935561635
 30
0.0
 10
173.8870524694897
 20
276.0398621988157
 30
0.0
 10
174.0163758051505
 20
276.3111400929467
 30
0.0
 10
174.1234087325076
 20
276.5930932477044
 30
0.0
 10
174.2075558701914
 20
276.8845304008449
 30
0.0
 10
174.2681003788935
 20
277.1824683443645
 30
0.0
 10
174.3045875756341
 20
277.4852340091481
 30
0.0
 10
174.3168146319848
 20
277.790182346372
 30
0.0
 10
174.3045875756342
 20
278.0951306835954
 30
0.0
 10
174.2681003788934
 20
278.3978963483804
 30
0.0
 10
174.2075558701917
 20
278.6958342918952
 30
0.0
 10
174.1234087325064
 20
278.9872714450525
 30
0.0
 10
174.016375805155
 20
279.269224599749
 30
0.0
 10
173.8870524694729
 20
279.5405024941053
 30
0.0
 10
173.736735153415
 20
279.7979711359227
 30
0.0
 10
173.5660867648724
 20
280.0408360016346
 30
0.0
 10
173.376972977625
 20
280.2660349468219
 30
0.0
 10
173.1701175306325
 20
280.4730592537393
 30
0.0
 10
172.9478593882397
 20
280.6591385607005
 30
0.0
 10
172.7110444673074
 20
280.8239531319412
 30
0.0
 10
172.462313200043
 20
280.9651988820874
 30
0.0
 10
172.2027415493929
 20
281.082708665846
 30
0.0
 10
171.9350563310338
 20
281.1747065894197
 30
0.0
 10
171.6606653491779
 20
281.2413519223347
 30
0.0
 10
171.3822125722901
 20
281.2808545082816
 30
0.0
 10
171.1013154150796
 20
281.2958562880989
 30
0.0
 10
170.9146734664208
 20
281.2831524076934
 30
0.0
 10
170.8213524920914
 20
281.2768004674906
 30
0.0
 11
170.8213524920914
 21
281.2768004674906
 31
0.0
 11
170.5430257383577
 21
281.2368626580266
 31
0.0
 11
170.2697517038088
 21
281.1707254388875
 31
0.0
 11
170.0017470329797
 21
281.0785716172217
 31
0.0
 11
169.743525394962
 21
280.9618415659469
 31
0.0
 11
169.4941387516115
 21
280.820242627785
 31
0.0
 11
169.2586923737553
 21
280.6565650272609
 31
0.0
 11
169.0356405249311
 21
280.4698765536843
 31
0.0
 11
168.829972468336
 21
280.2642423434134
 31
0.0
 11
168.6401210635917
 21
280.038248189287
 31
0.0
 11
168.4703481322202
 21
279.7968453801648
 31
0.0
 11
168.3194864497867
 21
279.5385462649414
 31
0.0
 11
168.1906865828552
 21
279.2685968535234
 31
0.0
 11
168.0833543508416
 21
278.985963254529
 31
0.0
 11
167.9994263292791
 21
278.6955377404686
 31
0.0
 11
167.9387916785834
 21
278.3972417018276
 31
0.0
 11
167.9023333276674
 21
278.0950461475856
 31
0.0
 11
167.8901194420228
 21
277.790182346372
 31
0.0
 11
167.9023333276674
 21
277.4853185451583
 31
0.0
 11
167.9387916785835
 21
277.1831229909161
 31
0.0
 11
167.9994263292791
 21
276.8848269522752
 31
0.0
 11
168.0833543508415
 21
276.5944014382149
 31
0.0
 11
168.1906865828552
 21
276.3117678392206
 31
0.0
 11
168.3194864497868
 21
276.0418184278025
 31
0.0
 11
168.4703481322202
 21
275.7835193125791
 31
0.0
 11
168.6401210635916
 21
275.5421165034568
 31
0.0
 11
168.829972468336
 21
275.3161223493303
 31
0.0
 11
169.0356405249311
 21
275.1104881390594
 31
0.0
 11
169.2586923737553
 21
274.9237996654829
 31
0.0
 11
169.4941387516114
 21
274.7601220649588
 31
0.0
 11
169.743525394962
 21
274.6185231267968
 31
0.0
 11
170.0017470329797
 21
274.5017930755221
 31
0.0
 11
170.2697517038088
 21
274.4096392538564
 31
0.0
 11
170.5430257383577
 21
274.3435020347174
 31
0.0
 11
170.8213524920914
 21
274.3035642252535
 31
0.0
 11
171.1014275866891
 21
274.290182346372
 31
0.0
 11
171.3815026812869
 21
274.3035642252535
 31
0.0
 11
171.6598294350205
 21
274.3435020347174
 31
0.0
 11
171.9331034695694
 21
274.4096392538564
 31
0.0
 11
172.2011081403985
 21
274.5017930755221
 31
0.0
 11
172.4593297784161
 21
274.6185231267968
 31
0.0
 11
172.7087164217665
 21
274.7601220649588
 31
0.0
 11
172.9441627996227
 21
274.9237996654828
 31
0.0
 11
173.1672146484469
 21
275.1104881390594
 31
0.0
 11
173.3728827050422
 21
275.3161223493304
 31
0.0
 11
173.5627341097866
 21
275.5421165034568
 31
0.0
 11
173.732507041158
 21
275.7835193125791
 31
0.0
 11
173.8833687235913
 21
276.0418184278025
 31
0.0
 11
174.012168590523
 21
276.3117678392205
 31
0.0
 11
174.1195008225367
 21
276.5944014382149
 31
0.0
 11
174.2034288440991
 21
276.8848269522752
 31
0.0
 11
174.2640634947947
 21
277.1831229909161
 31
0.0
 11
174.3005218457108
 21
277.4853185451583
 31
0.0
 11
174.3127357313553
 21
277.7901823463719
 31
0.0
 11
174.3005218457108
 21
278.0950461475856
 31
0.0
 11
174.2640634947947
 21
278.3972417018277
 31
0.0
 11
174.203428844099
 21
278.6955377404686
 31
0.0
 11
174.1195008225366
 21
278.985963254529
 31
0.0
 11
174.0121685905229
 21
279.2685968535233
 31
0.0
 11
173.8833687235914
 21
279.5385462649414
 31
0.0
 11
173.732507041158
 21
279.7968453801648
 31
0.0
 11
173.5627341097865
 21
280.038248189287
 31
0.0
 11
173.3728827050421
 21
280.2642423434135
 31
0.0
 11
173.1672146484469
 21
280.4698765536843
 31
0.0
 11
172.9441627996227
 21
280.6565650272609
 31
0.0
 11
172.7087164217665
 21
280.8202426277849
 31
0.0
 11
172.459329778416
 21
280.9618415659469
 31
0.0
 11
172.2011081403985
 21
281.0785716172217
 31
0.0
 11
171.9331034695693
 21
281.1707254388875
 31
0.0
 11
171.6598294350205
 21
281.2368626580267
 31
0.0
 11
171.3815026812869
 21
281.2768004674906
 31
0.0
 11
171.1014275866891
 21
281.290182346372
 31
0.0
 11
170.8213524920914
 21
281.2768004674906
 31
0.0
  0
SPLINE
  5
A1
330
3D
100
AcDbEntity
  8
1
  6
Continuous
 62
     7
100
AcDbSpline
210
0.0
220
0.0
230
1.0
 70
    11
 71
     3
 72
    79
 73
    75
 74
    73
 42
0.0000000001
 43
0.0000000001
 44
0.00000001
 40
0.0
 40
0.0
 40
0.0
 40
0.0
 40
0.281177542610945
 40
0.5623408931992597
 40
0.8457466631367474
 40
1.129126830422913
 40
1.415908903032534
 40
1.702658539054858
 40
1.993527432940419
 40
2.284362055943508
 40
2.579517800564424
 40
2.874641782101889
 40
3.173769982296763
 40
3.472872122788143
 40
3.775199692337397
 40
4.077508957859711
 40
4.381905225139501
 40
4.686292091405436
 40
4.991400459519005
 40
5.29650882763269
 40
5.600895693898741
 40
5.905291961178532
 40
6.207601226700728
 40
6.509928796249866
 40
6.809030936741297
 40
7.108159136936192
 40
7.403283118473733
 40
7.698438863094766
 40
7.989273486097814
 40
8.280142379983376
 40
8.566892016005644
 40
8.85367408861519
 40
9.137054255901353
 40
9.420460025838883
 40
9.701623376427254
 40
9.982800919038134
 40
10.26319552186839
 40
10.54359012469864
 40
10.82476766730949
 40
11.1059310178978
 40
11.38933678783522
 40
11.67271695512126
 40
11.95949902773083
 40
12.24624866375307
 40
12.53711755763876
 40
12.82795218064195
 40
13.12310792526294
 40
13.4182319068004
 40
13.71736010699523
 40
14.0164622474866
 40
14.31878981703586
 40
14.62109908255807
 40
14.92549534983786
 40
15.22988221610391
 40
15.53499058421748
 40
15.84009895233116
 40
16.14448581859714
 40
16.44888208587688
 40
16.7511913513992
 40
17.05351892094841
 40
17.35262106143981
 40
17.65174926163467
 40
17.94687324317217
 40
18.24202898779316
 40
18.53286361079628
 40
18.82373250468188
 40
19.11048214070414
 40
19.39726421331369
 40
19.68064438059978
 40
19.96405015053726
 40
20.24521350112558
 40
20.52639104373646
 40
20.80678564656672
 40
21.087180249397
 40
21.087180249397
 40
21.087180249397
 40
21.087180249397
 10
148.8648421828917
 20
281.2768004674906
 30
0.0
 10
148.9579382579822
 20
281.2653493454006
 30
0.0
 10
149.1441257092758
 20
281.2424476791995
 30
0.0
 10
149.4183631625818
 20
281.1744103881504
 30
0.0
 10
149.6860898298889
 20
281.0827882591769
 30
0.0
 10
149.9456503180571
 20
280.9651772713921
 30
0.0
 10
150.1943846104243
 20
280.8239589481731
 30
0.0
 10
150.431198715215
 20
280.6591369774283
 30
0.0
 10
150.6534570792818
 20
280.4730596802635
 30
0.0
 10
150.8603124664168
 20
280.2660348306523
 30
0.0
 10
151.0494262699299
 20
280.040836032938
 30
0.0
 10
151.2200746540809
 20
279.7979711274087
 30
0.0
 10
151.3703919713306
 20
279.5405024963985
 30
0.0
 10
151.4997153066914
 20
279.2692245991271
 30
0.0
 10
151.6067482341298
 20
278.9872714452197
 30
0.0
 10
151.6908953717917
 20
278.6958342918501
 30
0.0
 10
151.7514398804997
 20
278.3978963483925
 30
0.0
 10
151.7879270772388
 20
278.0951306835922
 30
0.0
 10
151.8001541335899
 20
277.7901823463729
 30
0.0
 10
151.7879270772391
 20
277.4852340091479
 30
0.0
 10
151.7514398804983
 20
277.1824683443645
 30
0.0
 10
151.6908953717963
 20
276.8845304008449
 30
0.0
 10
151.6067482341125
 20
276.5930932477044
 30
0.0
 10
151.4997153067554
 20
276.3111400929469
 30
0.0
 10
151.3703919710946
 20
276.0398621988157
 30
0.0
 10
151.2200746549571
 20
275.7823935561636
 30
0.0
 10
151.0494262667084
 20
275.5395286935268
 30
0.0
 10
150.8603124783727
 20
275.3143297369497
 30
0.0
 10
150.6534570353847
 20
275.1073054719463
 30
0.0
 10
150.4311988781622
 20
274.9212260097621
 30
0.0
 10
150.1943840118293
 20
274.7564120100084
 30
0.0
 10
149.9456525421872
 20
274.6151641415945
 30
0.0
 10
149.6860816383008
 20
274.4976621741404
 30
0.0
 10
149.4183936470304
 20
274.4056352267706
 30
0.0
 10
149.1440129361473
 20
274.3390973991507
 30
0.0
 10
148.8655219246838
 20
274.2991946155381
 30
0.0
 10
148.5847670882939
 20
274.2856824942088
 30
0.0
 10
148.304012251904
 20
274.2991946155381
 30
0.0
 10
148.0255212404405
 20
274.3390973991506
 30
0.0
 10
147.7511405295575
 20
274.4056352267708
 30
0.0
 10
147.4834525382872
 20
274.4976621741405
 30
0.0
 10
147.2238816344009
 20
274.6151641415946
 30
0.0
 10
146.9751501647588
 20
274.7564120100083
 30
0.0
 10
146.7383352984259
 20
274.9212260097622
 30
0.0
 10
146.5160771412033
 20
275.1073054719462
 30
0.0
 10
146.3092216982152
 20
275.3143297369498
 30
0.0
 10
146.1201079098795
 20
275.5395286935268
 30
0.0
 10
145.9494595216309
 20
275.7823935561636
 30
0.0
 10
145.7991422054934
 20
276.0398621988156
 30
0.0
 10
145.6698188698326
 20
276.3111400929469
 30
0.0
 10
145.5627859424754
 20
276.5930932477043
 30
0.0
 10
145.4786388047916
 20
276.8845304008451
 30
0.0
 10
145.4180942960895
 20
277.1824683443642
 30
0.0
 10
145.3816070993489
 20
277.4852340091483
 30
0.0
 10
145.3693800429983
 20
277.7901823463719
 30
0.0
 10
145.3816070993488
 20
278.0951306835954
 30
0.0
 10
145.4180942960896
 20
278.3978963483803
 30
0.0
 10
145.4786388047912
 20
278.6958342918953
 30
0.0
 10
145.5627859424767
 20
278.9872714450524
 30
0.0
 10
145.6698188698281
 20
279.269224599749
 30
0.0
 10
145.7991422055102
 20
279.5405024941053
 30
0.0
 10
145.9494595215681
 20
279.7979711359227
 30
0.0
 10
146.1201079101106
 20
280.0408360016347
 30
0.0
 10
146.3092216973581
 20
280.2660349468218
 30
0.0
 10
146.5160771443505
 20
280.4730592537394
 30
0.0
 10
146.7383352867433
 20
280.6591385607004
 30
0.0
 10
146.9751502076757
 20
280.8239531319412
 30
0.0
 10
147.22388147494
 20
280.9651988820874
 30
0.0
 10
147.4834531255901
 20
281.082708665846
 30
0.0
 10
147.7511383439492
 20
281.1747065894197
 30
0.0
 10
148.0255293258051
 20
281.2413519223347
 30
0.0
 10
148.3039821026928
 20
281.2808545082816
 30
0.0
 10
148.5848792599034
 20
281.295856288099
 30
0.0
 10
148.7715212085622
 20
281.2831524076933
 30
0.0
 10
148.8648421828917
 20
281.2768004674906
 30
0.0
 11
148.8648421828917
 21
281.2768004674906
 31
0.0
 11
149.1431689366254
 21
281.2368626580266
 31
0.0
 11
149.4164429711742
 21
281.1707254388875
 31
0.0
 11
149.6844476420034
 21
281.0785716172217
 31
0.0
 11
149.9426692800211
 21
280.9618415659469
 31
0.0
 11
150.1920559233716
 21
280.820242627785
 31
0.0
 11
150.4275023012278
 21
280.6565650272609
 31
0.0
 11
150.650554150052
 21
280.4698765536843
 31
0.0
 11
150.8562222066471
 21
280.2642423434134
 31
0.0
 11
151.0460736113914
 21
280.038248189287
 31
0.0
 11
151.2158465427629
 21
279.7968453801648
 31
0.0
 11
151.3667082251963
 21
279.5385462649414
 31
0.0
 11
151.4955080921279
 21
279.2685968535234
 31
0.0
 11
151.6028403241416
 21
278.985963254529
 31
0.0
 11
151.686768345704
 21
278.6955377404686
 31
0.0
 11
151.7474029963996
 21
278.3972417018276
 31
0.0
 11
151.7838613473157
 21
278.0950461475856
 31
0.0
 11
151.7960752329603
 21
277.790182346372
 31
0.0
 11
151.7838613473157
 21
277.4853185451583
 31
0.0
 11
151.7474029963996
 21
277.1831229909161
 31
0.0
 11
151.6867683457039
 21
276.8848269522752
 31
0.0
 11
151.6028403241415
 21
276.5944014382149
 31
0.0
 11
151.4955080921278
 21
276.3117678392206
 31
0.0
 11
151.3667082251962
 21
276.0418184278025
 31
0.0
 11
151.2158465427629
 21
275.7835193125791
 31
0.0
 11
151.0460736113915
 21
275.5421165034568
 31
0.0
 11
150.856222206647
 21
275.3161223493303
 31
0.0
 11
150.6505541500519
 21
275.1104881390594
 31
0.0
 11
150.4275023012278
 21
274.9237996654829
 31
0.0
 11
150.1920559233716
 21
274.7601220649588
 31
0.0
 11
149.9426692800211
 21
274.6185231267968
 31
0.0
 11
149.6844476420035
 21
274.5017930755221
 31
0.0
 11
149.4164429711742
 21
274.4096392538564
 31
0.0
 11
149.1431689366253
 21
274.3435020347174
 31
0.0
 11
148.8648421828916
 21
274.3035642252535
 31
0.0
 11
148.5847670882939
 21
274.290182346372
 31
0.0
 11
148.3046919936961
 21
274.3035642252535
 31
0.0
 11
148.0263652399625
 21
274.3435020347174
 31
0.0
 11
147.7530912054137
 21
274.4096392538564
 31
0.0
 11
147.4850865345846
 21
274.5017930755221
 31
0.0
 11
147.226864896567
 21
274.6185231267968
 31
0.0
 11
146.9774782532165
 21
274.7601220649588
 31
0.0
 11
146.7420318753603
 21
274.9237996654828
 31
0.0
 11
146.5189800265361
 21
275.1104881390594
 31
0.0
 11
146.3133119699409
 21
275.3161223493304
 31
0.0
 11
146.1234605651964
 21
275.5421165034568
 31
0.0
 11
145.9536876338251
 21
275.7835193125791
 31
0.0
 11
145.8028259513918
 21
276.0418184278025
 31
0.0
 11
145.6740260844602
 21
276.3117678392205
 31
0.0
 11
145.5666938524464
 21
276.5944014382149
 31
0.0
 11
145.482765830884
 21
276.8848269522752
 31
0.0
 11
145.4221311801883
 21
277.1831229909161
 31
0.0
 11
145.3856728292723
 21
277.4853185451583
 31
0.0
 11
145.3734589436278
 21
277.7901823463719
 31
0.0
 11
145.3856728292723
 21
278.0950461475856
 31
0.0
 11
145.4221311801883
 21
278.3972417018277
 31
0.0
 11
145.482765830884
 21
278.6955377404686
 31
0.0
 11
145.5666938524464
 21
278.985963254529
 31
0.0
 11
145.6740260844601
 21
279.2685968535233
 31
0.0
 11
145.8028259513917
 21
279.5385462649414
 31
0.0
 11
145.9536876338251
 21
279.7968453801648
 31
0.0
 11
146.1234605651965
 21
280.038248189287
 31
0.0
 11
146.3133119699409
 21
280.2642423434135
 31
0.0
 11
146.5189800265361
 21
280.4698765536843
 31
0.0
 11
146.7420318753603
 21
280.6565650272609
 31
0.0
 11
146.9774782532165
 21
280.8202426277849
 31
0.0
 11
147.226864896567
 21
280.9618415659469
 31
0.0
 11
147.4850865345846
 21
281.0785716172217
 31
0.0
 11
147.7530912054137
 21
281.1707254388875
 31
0.0
 11
148.0263652399625
 21
281.2368626580267
 31
0.0
 11
148.3046919936962
 21
281.2768004674906
 31
0.0
 11
148.5847670882939
 21
281.290182346372
 31
0.0
 11
148.8648421828917
 21
281.2768004674906
 31
0.0
  0
SPLINE
  5
A2
330
3D
100
AcDbEntity
  8
1
  6
Continuous
 62
     7
100
AcDbSpline
210
0.0
220
0.0
230
1.0
 70
    11
 71
     3
 72
    81
 73
    77
 74
    75
 42
0.0000000001
 43
0.0000000001
 44
0.00000001
 40
0.0
 40
0.0
 40
0.0
 40
0.0
 40
0.3171240095162091
 40
0.6340440100872763
 40
0.9694545235866749
 40
1.304528132737447
 40
1.666089110462254
 40
2.027350030065022
 40
2.418688401679225
 40
2.809801280419237
 40
3.230593109564606
 40
3.651230377500534
 40
4.097981219928545
 40
4.544632081171209
 40
5.01150061011283
 40
5.478309844538462
 40
5.957859124523359
 40
6.437380864507588
 40
6.921249243348694
 40
7.405117622191551
 40
7.884639362170774
 40
8.36418864211347
 40
8.830997876594669
 40
9.297866405961347
 40
9.744517266730101
 40
10.19126810576484
 40
10.61190537717686
 40
11.03269723042322
 40
11.42381008575621
 40
11.81514829829296
 40
12.17640936785039
 40
12.53797134388012
 40
12.87304401580449
 40
13.20844847859317
 40
13.52537429894769
 40
13.84253416457207
 40
14.15301689709639
 40
14.46349962962069
 40
14.78065949524511
 40
15.09758531559955
 40
15.43298977838811
 40
15.76806245031197
 40
16.12962442634225
 40
16.49088549590212
 40
16.88222370843636
 40
17.27333656375704
 40
17.69412841701575
 40
18.11476568848569
 40
18.56151652746738
 40
19.00816738799997
 40
19.47503591755378
 40
19.94184515273218
 40
20.42135448514057
 40
20.90083615639584
 40
21.38470441098752
 40
21.8685729140805
 40
22.34813472280657
 40
22.82772395030112
 40
23.29453318403138
 40
23.76140171279562
 40
24.20805257426587
 40
24.65480341669808
 40
25.07544068461648
 40
25.49623251397883
 40
25.88734539254995
 40
26.27868376317327
 40
26.63994468351274
 40
27.00150566498224
 40
27.336579271623
 40
27.67198977500068
 40
27.98888464195549
 40
28.30598302648018
 40
28.46169281138852
 40
28.61669012075252
 40
28.77171266520224
 40
28.9274480354837
 40
28.9274480354837
 40
28.9274480354837
 40
28.9274480354837
 10
312.8026295085994
 20
277.4796998320103
 30
0.0
 10
312.8212101518822
 20
277.3754641250978
 30
0.0
 10
312.85835948534
 20
277.1670597671122
 30
0.0
 10
312.9692186683355
 20
276.8620370779631
 30
0.0
 10
313.1162399284656
 20
276.5668854870557
 30
0.0
 10
313.3063175195438
 20
276.2791975053767
 30
0.0
 10
313.5314512993832
 20
276.0069636541055
 30
0.0
 10
313.7960400832401
 20
275.7455599672501
 30
0.0
 10
314.0911407715138
 20
275.5033775712335
 30
0.0
 10
314.4218873440267
 20
275.2757566188728
 30
0.0
 10
314.7780171352939
 20
275.0700712416011
 30
0.0
 10
315.1647494021682
 20
274.8826970191823
 30
0.0
 10
315.5714890701127
 20
274.7192508507478
 30
0.0
 10
316.0024771939862
 20
274.5774601022102
 30
0.0
 10
316.4479111850109
 20
274.4610313297363
 30
0.0
 10
316.9101458586797
 20
274.3688556949654
 30
0.0
 10
317.3811149861737
 20
274.3029830724092
 30
0.0
 10
317.8606770810988
 20
274.2629981953912
 30
0.0
 10
318.3431620969519
 20
274.2497848324015
 30
0.0
 10
318.8256466290226
 20
274.2630158493678
 30
0.0
 10
319.3052072605328
 20
274.3030182733281
 30
0.0
 10
319.7761739776776
 20
274.3689081279439
 30
0.0
 10
320.2384052779723
 20
274.4611006756656
 30
0.0
 10
320.6838350102227
 20
274.5775457482552
 30
0.0
 10
321.1148179367036
 20
274.7193522673571
 30
0.0
 10
321.5215516559296
 20
274.8828133028468
 30
0.0
 10
321.9082769774294
 20
275.0702016917765
 30
0.0
 10
322.2643995677454
 20
275.2759001033874
 30
0.0
 10
322.5951365312422
 20
275.5035333014303
 30
0.0
 10
322.8902329233671
 20
275.7457256486773
 30
0.0
 10
323.1547971788722
 20
276.0071413982574
 30
0.0
 10
323.379974647685
 20
276.2793767025953
 30
0.0
 10
323.5698511616304
 20
276.567096350516
 30
0.0
 10
323.7175490241871
 20
276.8621549343299
 30
0.0
 10
323.8259819883974
 20
277.1675330665245
 30
0.0
 10
323.8901589200721
 20
277.4767662945449
 30
0.0
 10
323.9127124240957
 20
277.7896644666072
 30
0.0
 10
323.8901474712817
 20
278.1025618132375
 30
0.0
 10
323.8259592249428
 20
278.4117926928453
 30
0.0
 10
323.7175150871548
 20
278.7171668573213
 30
0.0
 10
323.5698064286341
 20
279.0122200367381
 30
0.0
 10
323.379919387281
 20
279.2999327369684
 30
0.0
 10
323.154731957649
 20
279.5721598019806
 30
0.0
 10
322.8901581372375
 20
279.8335658711001
 30
0.0
 10
322.5950528836032
 20
280.0757474207366
 30
0.0
 10
322.264307591311
 20
280.303368517085
 30
0.0
 10
321.9081774748044
 20
280.5090538981781
 30
0.0
 10
321.5214452971948
 20
280.6964281371277
 30
0.0
 10
321.1147055973713
 20
280.8598742901167
 30
0.0
 10
320.683717481973
 20
281.0016650390338
 30
0.0
 10
320.2382834896267
 20
281.1180938101711
 30
0.0
 10
319.776061882332
 20
281.2102668602336
 30
0.0
 10
319.305119383652
 20
281.2761368880023
 30
0.0
 10
318.8255842448982
 20
281.3161228762916
 30
0.0
 10
318.3431127039866
 20
281.3293403121674
 30
0.0
 10
317.8606146968448
 20
281.316113367833
 30
0.0
 10
317.3810271091514
 20
281.2761120545159
 30
0.0
 10
316.9100337631075
 20
281.2102196042788
 30
0.0
 10
316.4477893971155
 20
281.1180244712965
 30
0.0
 10
316.002359664071
 20
281.0015793976481
 30
0.0
 10
315.5713767366878
 20
280.8597728779646
 30
0.0
 10
315.1646430219561
 20
280.6963118305016
 30
0.0
 10
314.7779177077275
 20
280.5089234456693
 30
0.0
 10
314.4217950948768
 20
280.3032250827046
 30
0.0
 10
314.0910580617488
 20
280.0755918736766
 30
0.0
 10
313.7959619012118
 20
279.8333992346185
 30
0.0
 10
313.5313976833166
 20
279.5719839424604
 30
0.0
 10
313.3062201328985
 20
279.2997487478545
 30
0.0
 10
313.116339696429
 20
279.0120298882609
 30
0.0
 10
312.9686598417557
 20
278.7169667087246
 30
0.0
 10
312.8601980106984
 20
278.4116511977623
 30
0.0
 10
312.8066373193965
 20
278.1530181991848
 30
0.0
 10
312.7845256011076
 20
277.9447823610429
 30
0.0
 10
312.7792677585657
 20
277.7895185014833
 30
0.0
 10
312.7841095676034
 20
277.6341546247298
 30
0.0
 10
312.7964467617919
 20
277.5312634345502
 30
0.0
 10
312.8026295085993
 20
277.4796998320103
 30
0.0
 11
312.8026295085994
 21
277.4796998320103
 31
0.0
 11
312.8672158635414
 21
277.1692223929476
 31
0.0
 11
312.9724230191862
 21
276.8702746698201
 31
0.0
 11
313.1222095253713
 21
276.570167663686
 31
0.0
 11
313.3060545561554
 21
276.2900331813291
 31
0.0
 11
313.535976018302
 21
276.0109947218694
 31
0.0
 11
313.792459540274
 21
275.7565823499433
 31
0.0
 11
314.0944987297163
 21
275.5077489736878
 31
0.0
 11
314.4163782344255
 21
275.2855714132446
 31
0.0
 11
314.7804348119302
 21
275.0745534712325
 31
0.0
 11
315.1588104202909
 21
274.8907938179507
 31
0.0
 11
315.5731522102106
 21
274.7237393467854
 31
0.0
 11
315.9973514412146
 21
274.5839108651929
 31
0.0
 11
316.4489518984373
 21
274.4654910596184
 31
0.0
 11
316.9067210555701
 21
274.3740675389959
 31
0.0
 11
317.3816156839246
 21
274.3074146778864
 31
0.0
 11
317.8594777819748
 21
274.2675534891865
 31
0.0
 11
318.343162016079
 21
274.2542054660614
 31
0.0
 11
318.8268457614612
 21
274.2675711870311
 31
0.0
 11
319.3047064006883
 21
274.3074498604068
 31
0.0
 11
319.779598589926
 21
274.3741200973537
 31
0.0
 11
320.2373644016064
 21
274.465560367768
 31
0.0
 11
320.6889605256
 21
274.5839966987946
 31
0.0
 11
321.1131546400566
 21
274.7238407000453
 31
0.0
 11
321.5274903172425
 21
274.8909103226257
 31
0.0
 11
321.9058592016721
 21
275.0746838283234
 31
0.0
 11
322.2699080579192
 21
275.2857151388527
 31
0.0
 11
322.5917794330006
 21
275.5079044354219
 31
0.0
 11
322.8938095173335
 21
275.75674861307
 31
0.0
 11
323.1502837304716
 21
276.011170582194
 31
0.0
 11
323.3801949836268
 21
276.2902187468236
 31
0.0
 11
323.564029763376
 21
276.5703588353956
 31
0.0
 11
323.7138052831563
 21
276.8704645623204
 31
0.0
 11
323.8190015054045
 21
277.1694223025315
 31
0.0
 11
323.8835765299844
 21
277.4799387216841
 31
0.0
 11
323.9052462032678
 21
277.7896643300144
 31
0.0
 11
323.883565197276
 21
278.0993891452536
 31
0.0
 11
323.818978811081
 21
278.4099032014268
 31
0.0
 11
323.713771650172
 21
278.7088570923545
 31
0.0
 11
323.5639851497563
 21
279.0089573388584
 31
0.0
 11
323.3801401199285
 21
279.2890907008091
 31
0.0
 11
323.1502186566785
 21
279.5681304529017
 31
0.0
 11
322.8937351345252
 21
279.8225430375813
 31
0.0
 11
322.5916959452959
 21
280.0713761639115
 31
0.0
 11
322.2698164406197
 21
280.2935536831759
 31
0.0
 11
321.9057598630765
 21
280.5045716732062
 31
0.0
 11
321.5273842547233
 21
280.6883313345931
 31
0.0
 11
321.1130424647955
 21
280.8553857965218
 31
0.0
 11
320.6888432337022
 21
280.995214275575
 31
0.0
 11
320.2372427765758
 21
281.1136340839307
 31
0.0
 11
319.7794736200038
 21
281.2050576112047
 31
0.0
 11
319.3046187066134
 21
281.2717060252569
 31
0.0
 11
318.8267968155031
 21
281.3115672024295
 31
0.0
 11
318.3431128286024
 21
281.3249196785064
 31
0.0
 11
317.8594288358943
 21
281.311558410476
 31
0.0
 11
317.3815279896874
 21
281.2716797246484
 31
0.0
 11
316.90659608565
 21
281.2050050393754
 31
0.0
 11
316.4488302734067
 21
281.1135647756125
 31
0.0
 11
315.9972341493059
 21
280.9951284473697
 31
0.0
 11
315.5730400349484
 21
280.8552844435778
 31
0.0
 11
315.1587043578292
 21
280.688214811747
 31
0.0
 11
314.7803354733409
 21
280.5044413141666
 31
0.0
 11
314.4162866168231
 21
280.2934100517285
 31
0.0
 11
314.0944152419737
 21
280.0712207139178
 31
0.0
 11
313.7923851590378
 21
279.8223762859636
 31
0.0
 11
313.5359109447105
 21
279.5679545299172
 31
0.0
 11
313.3059996843325
 21
279.288907659889
 31
0.0
 11
313.1221649108438
 21
279.0087664492048
 31
0.0
 11
312.9723894288343
 21
278.7086539523559
 31
0.0
 11
312.8671999331548
 21
278.4097266590202
 31
0.0
 11
312.8026249945658
 21
278.099273018722
 31
0.0
 11
312.7863679389303
 21
277.9444142273724
 31
0.0
 11
312.7809484713762
 21
277.7895116925916
 31
0.0
 11
312.7863683938705
 21
277.6345839232027
 31
0.0
 11
312.8026295085993
 21
277.4796998320103
 31
0.0
  0
SPLINE
  5
A3
330
3D
100
AcDbEntity
  8
1
  6
Continuous
 62
     7
100
AcDbSpline
210
0.0
220
0.0
230
1.0
 70
    11
 71
     3
 72
    81
 73
    77
 74
    75
 42
0.0000000001
 43
0.0000000001
 44
0.00000001
 40
0.0
 40
0.0
 40
0.0
 40
0.0
 40
0.3171240095162091
 40
0.6340440100872763
 40
0.9694545235866496
 40
1.304528132737453
 40
1.66608911046226
 40
2.027350030065068
 40
2.418688401679272
 40
2.809801280419236
 40
3.230593109564556
 40
3.651230377500536
 40
4.097981219928493
 40
4.544632081171158
 40
5.011500610112724
 40
5.478309844538466
 40
5.957859124523363
 40
6.437380864507593
 40
6.921249243348812
 40
7.40511762219167
 40
7.884639362170836
 40
8.364188642113474
 40
8.830997876594672
 40
9.297866405961406
 40
9.744517266730107
 40
10.19126810576479
 40
10.61190537717681
 40
11.03269723042322
 40
11.42381008575626
 40
11.81514829829297
 40
12.1764093678504
 40
12.53797134388016
 40
12.8730440158045
 40
13.20844847859313
 40
13.52537429894765
 40
13.84253416457204
 40
14.15301689709636
 40
14.46349962962066
 40
14.78065949524507
 40
15.09758531559955
 40
15.43298977838813
 40
15.76806245031196
 40
16.12962442634217
 40
16.49088549590204
 40
16.88222370843632
 40
17.273336563757
 40
17.69412841701572
 40
18.11476568848565
 40
18.56151652746745
 40
19.00816738800004
 40
19.47503591755373
 40
19.94184515273214
 40
20.42135448514053
 40
20.9008361563958
 40
21.38470441098742
 40
21.86857291408034
 40
22.34813472280653
 40
22.82772395030107
 40
23.29453318403134
 40
23.76140171279558
 40
24.20805257426578
 40
24.65480341669804
 40
25.07544068461644
 40
25.49623251397878
 40
25.88734539254991
 40
26.27868376317318
 40
26.6399446835127
 40
27.00150566498224
 40
27.33657927162296
 40
27.67198977500067
 40
27.98888464195545
 40
28.30598302648014
 40
28.46169281138849
 40
28.61669012075248
 40
28.77171266520221
 40
28.92744803548367
 40
28.92744803548367
 40
28.92744803548367
 40
28.92744803548367
 10
310.883565166407
 20
277.4796998320103
 30
0.0
 10
310.8649845231242
 20
277.3754641250978
 30
0.0
 10
310.8278351896664
 20
277.1670597671122
 30
0.0
 10
310.7169760066708
 20
276.862037077963
 30
0.0
 10
310.5699547465409
 20
276.5668854870557
 30
0.0
 10
310.3798771554626
 20
276.2791975053766
 30
0.0
 10
310.1547433756232
 20
276.0069636541055
 30
0.0
 10
309.8901545917662
 20
275.7455599672501
 30
0.0
 10
309.5950539034924
 20
275.5033775712334
 30
0.0
 10
309.2643073309798
 20
275.2757566188728
 30
0.0
 10
308.9081775397126
 20
275.0700712416009
 30
0.0
 10
308.5214452728382
 20
274.8826970191823
 30
0.0
 10
308.1147056048937
 20
274.7192508507476
 30
0.0
 10
307.6837174810203
 20
274.5774601022102
 30
0.0
 10
307.2382834899956
 20
274.4610313297363
 30
0.0
 10
306.7760488163268
 20
274.3688556949654
 30
0.0
 10
306.3050796888327
 20
274.3029830724093
 30
0.0
 10
305.8255175939075
 20
274.262998195391
 30
0.0
 10
305.3430325780545
 20
274.2497848324014
 30
0.0
 10
304.8605480459839
 20
274.263015849368
 30
0.0
 10
304.3809874144735
 20
274.303018273328
 30
0.0
 10
303.9100206973289
 20
274.3689081279439
 30
0.0
 10
303.447789397034
 20
274.4611006756657
 30
0.0
 10
303.0023596647835
 20
274.5775457482552
 30
0.0
 10
302.5713767383029
 20
274.7193522673571
 30
0.0
 10
302.1646430190769
 20
274.8828133028467
 30
0.0
 10
301.7779176975769
 20
275.0702016917767
 30
0.0
 10
301.4217951072611
 20
275.2759001033874
 30
0.0
 10
301.0910581437642
 20
275.5035333014303
 30
0.0
 10
300.7959617516394
 20
275.7457256486773
 30
0.0
 10
300.5313974961342
 20
276.0071413982574
 30
0.0
 10
300.3062200273212
 20
276.2793767025953
 30
0.0
 10
300.116343513376
 20
276.567096350516
 30
0.0
 10
299.9686456508194
 20
276.86215493433
 30
0.0
 10
299.860212686609
 20
277.1675330665244
 30
0.0
 10
299.7960357549343
 20
277.4767662945449
 30
0.0
 10
299.7734822509106
 20
277.7896644666072
 30
0.0
 10
299.7960472037248
 20
278.1025618132375
 30
0.0
 10
299.8602354500634
 20
278.4117926928453
 30
0.0
 10
299.9686795878517
 20
278.7171668573213
 30
0.0
 10
300.1163882463726
 20
279.0122200367381
 30
0.0
 10
300.3062752877253
 20
279.2999327369683
 30
0.0
 10
300.5314627173574
 20
279.5721598019806
 30
0.0
 10
300.7960365377688
 20
279.8335658711001
 30
0.0
 10
301.0911417914032
 20
280.0757474207365
 30
0.0
 10
301.4218870836953
 20
280.3033685170851
 30
0.0
 10
301.7780172002019
 20
280.5090538981781
 30
0.0
 10
302.1647493778118
 20
280.6964281371277
 30
0.0
 10
302.5714890776351
 20
280.8598742901168
 30
0.0
 10
303.0024771930335
 20
281.0016650390338
 30
0.0
 10
303.4479111853797
 20
281.118093810171
 30
0.0
 10
303.9101327926744
 20
281.2102668602336
 30
0.0
 10
304.3810752913544
 20
281.2761368880023
 30
0.0
 10
304.8606104301082
 20
281.3161228762917
 30
0.0
 10
305.3430819710197
 20
281.3293403121675
 30
0.0
 10
305.8255799781615
 20
281.3161133678329
 30
0.0
 10
306.305167565855
 20
281.276112054516
 30
0.0
 10
306.7761609118988
 20
281.2102196042788
 30
0.0
 10
307.2384052778909
 20
281.1180244712965
 30
0.0
 10
307.6838350109353
 20
281.0015793976482
 30
0.0
 10
308.1148179383187
 20
280.8597728779646
 30
0.0
 10
308.5215516530502
 20
280.6963118305017
 30
0.0
 10
308.9082769672788
 20
280.5089234456693
 30
0.0
 10
309.2643995801295
 20
280.3032250827046
 30
0.0
 10
309.5951366132578
 20
280.0755918736766
 30
0.0
 10
309.8902327737944
 20
279.8333992346185
 30
0.0
 10
310.1547969916899
 20
279.5719839424604
 30
0.0
 10
310.379974542108
 20
279.2997487478546
 30
0.0
 10
310.5698549785772
 20
279.0120298882608
 30
0.0
 10
310.7175348332509
 20
278.7169667087247
 30
0.0
 10
310.8259966643081
 20
278.4116511977622
 30
0.0
 10
310.8795573556098
 20
278.1530181991849
 30
0.0
 10
310.9016690738989
 20
277.9447823610428
 30
0.0
 10
310.9069269164406
 20
277.7895185014834
 30
0.0
 10
310.902085107403
 20
277.6341546247298
 30
0.0
 10
310.8897479132144
 20
277.5312634345502
 30
0.0
 10
310.883565166407
 20
277.4796998320103
 30
0.0
 11
310.883565166407
 21
277.4796998320103
 31
0.0
 11
310.818978811465
 21
277.1692223929476
 31
0.0
 11
310.7137716558202
 21
276.8702746698201
 31
0.0
 11
310.5639851496351
 21
276.570167663686
 31
0.0
 11
310.3801401188511
 21
276.2900331813291
 31
0.0
 11
310.1502186567044
 21
276.0109947218694
 31
0.0
 11
309.8937351347323
 21
275.7565823499433
 31
0.0
 11
309.59169594529
 21
275.5077489736878
 31
0.0
 11
309.2698164405809
 21
275.2855714132446
 31
0.0
 11
308.9057598630762
 21
275.0745534712325
 31
0.0
 11
308.5273842547155
 21
274.8907938179507
 31
0.0
 11
308.1130424647959
 21
274.7237393467854
 31
0.0
 11
307.6888432337919
 21
274.5839108651929
 31
0.0
 11
307.2372427765692
 21
274.4654910596184
 31
0.0
 11
306.7794736194363
 21
274.3740675389959
 31
0.0
 11
306.3045789910818
 21
274.3074146778864
 31
0.0
 11
305.8267168930316
 21
274.2675534891865
 31
0.0
 11
305.3430326589273
 21
274.2542054660614
 31
0.0
 11
304.8593489135451
 21
274.2675711870311
 31
0.0
 11
304.3814882743181
 21
274.3074498604068
 31
0.0
 11
303.9065960850804
 21
274.3741200973537
 31
0.0
 11
303.4488302734
 21
274.465560367768
 31
0.0
 11
302.9972341494064
 21
274.5839966987946
 31
0.0
 11
302.5730400349498
 21
274.7238407000453
 31
0.0
 11
302.158704357764
 21
274.8909103226257
 31
0.0
 11
301.7803354733343
 21
275.0746838283234
 31
0.0
 11
301.4162866170872
 21
275.2857151388527
 31
0.0
 11
301.0944152420057
 21
275.5079044354219
 31
0.0
 11
300.7923851576729
 21
275.75674861307
 31
0.0
 11
300.5359109445348
 21
276.011170582194
 31
0.0
 11
300.3059996913796
 21
276.2902187468236
 31
0.0
 11
300.1221649116304
 21
276.5703588353956
 31
0.0
 11
299.9723893918502
 21
276.8704645623204
 31
0.0
 11
299.8671931696021
 21
277.1694223025315
 31
0.0
 11
299.8026181450221
 21
277.4799387216841
 31
0.0
 11
299.7809484717386
 21
277.7896643300144
 31
0.0
 11
299.8026294777304
 21
278.0993891452536
 31
0.0
 11
299.8672158639254
 21
278.4099032014268
 31
0.0
 11
299.9724230248345
 21
278.7088570923545
 31
0.0
 11
300.1222095252502
 21
279.0089573388584
 31
0.0
 11
300.306054555078
 21
279.2890907008091
 31
0.0
 11
300.5359760183279
 21
279.5681304529017
 31
0.0
 11
300.7924595404812
 21
279.8225430375813
 31
0.0
 11
301.0944987297105
 21
280.0713761639115
 31
0.0
 11
301.4163782343867
 21
280.2935536831759
 31
0.0
 11
301.7804348119299
 21
280.5045716732062
 31
0.0
 11
302.1588104202831
 21
280.6883313345931
 31
0.0
 11
302.573152210211
 21
280.8553857965218
 31
0.0
 11
302.9973514413043
 21
280.995214275575
 31
0.0
 11
303.4489518984306
 21
281.1136340839307
 31
0.0
 11
303.9067210550026
 21
281.2050576112047
 31
0.0
 11
304.381575968393
 21
281.2717060252569
 31
0.0
 11
304.8593978595033
 21
281.3115672024295
 31
0.0
 11
305.343081846404
 21
281.3249196785064
 31
0.0
 11
305.826765839112
 21
281.311558410476
 31
0.0
 11
306.304666685319
 21
281.2716797246484
 31
0.0
 11
306.7795985893564
 21
281.2050050393754
 31
0.0
 11
307.2373644015997
 21
281.1135647756125
 31
0.0
 11
307.6889605257005
 21
280.9951284473697
 31
0.0
 11
308.113154640058
 21
280.8552844435778
 31
0.0
 11
308.5274903171772
 21
280.688214811747
 31
0.0
 11
308.9058592016655
 21
280.5044413141666
 31
0.0
 11
309.2699080581833
 21
280.2934100517285
 31
0.0
 11
309.5917794330327
 21
280.0712207139178
 31
0.0
 11
309.8938095159685
 21
279.8223762859636
 31
0.0
 11
310.1502837302959
 21
279.5679545299172
 31
0.0
 11
310.380194990674
 21
279.288907659889
 31
0.0
 11
310.5640297641626
 21
279.0087664492048
 31
0.0
 11
310.7138052461722
 21
278.7086539523559
 31
0.0
 11
310.8189947418516
 21
278.4097266590202
 31
0.0
 11
310.8835696804406
 21
278.099273018722
 31
0.0
 11
310.8998267360761
 21
277.9444142273724
 31
0.0
 11
310.9052462036302
 21
277.7895116925916
 31
0.0
 11
310.8998262811359
 21
277.6345839232027
 31
0.0
 11
310.883565166407
 21
277.4796998320103
 31
0.0
  0
ENDBLK
  5
3F
330
3D
100
AcDbEntity
  8
0
100
AcDbBlockEnd
  0
BLOCK
  5
41
330
40
100
AcDbEntity
  8
0
100
AcDbBlockBegin
  2
36-54K
 70
     0
 71
     0
 10
1389.049870261586
 20
671.7320983050794
 30
0.0
  3
36-54K
  1

  0
LINE
  5
A4
330
40
100
AcDbEntity
  8
1
  6
Continuous
 62
     7
100
AcDbLine
 10
164.5930973374913
 20
288.2542054645968
 30
0.0
 11
164.5930973374913
 21
291.2901823463719
 31
0.0
  0
LINE
  5
A5
330
40
100
AcDbEntity
  8
1
  6
Continuous
 62
     7
100
AcDbLine
 10
155.0930973374788
 20
288.2542054645968
 30
0.0
 11
155.0930973374788
 21
291.2901823463719
 31
0.0
  0
LINE
  5
A6
330
40
100
AcDbEntity
  8
1
  6
Continuous
 62
     7
100
AcDbLine
 10
307.0930973374911
 20
288.2542054645968
 30
0.0
 11
307.0930973374911
 21
291.2901823463719
 31
0.0
  0
LINE
  5
A7
330
40
100
AcDbEntity
  8
1
  6
Continuous
 62
     7
100
AcDbLine
 10
316.5930973375036
 20
288.2542054645968
 30
0.0
 11
316.5930973375036
 21
291.2901823463719
 31
0.0
  0
ENDBLK
  5
42
330
40
100
AcDbEntity
  8
0
100
AcDbBlockEnd
  0
BLOCK
  5
44
330
43
100
AcDbEntity
  8
0
100
AcDbBlockBegin
  2
42-15K
 70
     0
 71
     0
 10
594.2575635923145
 20
544.9764017366708
 30
0.0
  3
42-15K
  1

  0
LINE
  5
A8
330
43
100
AcDbEntity
  8
1
  6
Continuous
 62
     7
100
AcDbLine
 10
166.8430973374913
 20
305.0901823463721
 30
0.0
 11
165.5930973374913
 21
305.4199480665757
 31
0.0
  0
LINE
  5
A9
330
43
100
AcDbEntity
  8
1
  6
Continuous
 62
     7
100
AcDbLine
 10
166.8430973374913
 20
305.0901823463721
 30
0.0
 11
166.8430973374913
 21
302.290182346372
 31
0.0
  0
LINE
  5
AA
330
43
100
AcDbEntity
  8
1
  6
Continuous
 62
     2
100
AcDbLine
 10
158.3430973374913
 20
304.3765025045937
 30
0.0
 11
158.3430973374913
 21
303.2277761747412
 31
0.0
  0
LINE
  5
AB
330
43
100
AcDbEntity
  8
1
  6
Continuous
 62
     2
100
AcDbLine
 10
157.3430973374913
 20
304.621725473658
 30
0.0
 11
157.3430973374913
 21
302.9037315370493
 31
0.0
  0
LINE
  5
AC
330
43
100
AcDbEntity
  8
1
  6
Continuous
 62
     2
100
AcDbLine
 10
156.3430973374913
 20
304.8144006636369
 30
0.0
 11
156.3430973374913
 21
302.544655046634
 31
0.0
  0
LINE
  5
AD
330
43
100
AcDbEntity
  8
1
  6
Continuous
 62
     2
100
AcDbLine
 10
155.3430973374913
 20
304.9457701113497
 30
0.0
 11
155.3430973374913
 21
302.3957696725595
 31
0.0
  0
LINE
  5
AE
330
43
100
AcDbEntity
  8
1
  6
Continuous
 62
     7
100
AcDbLine
 10
152.8430973374913
 20
302.290182346372
 30
0.0
 11
166.8430973374913
 21
302.290182346372
 31
0.0
  0
LINE
  5
AF
330
43
100
AcDbEntity
  8
1
  6
Continuous
 62
     2
100
AcDbLine
 10
154.3430973374913
 20
305.0901823463719
 30
0.0
 11
154.3430973374913
 21
302.290182346372
 31
0.0
  0
LINE
  5
B0
330
43
100
AcDbEntity
  8
1
  6
Continuous
 62
     2
100
AcDbLine
 10
153.3430973374913
 20
305.0901823463719
 30
0.0
 11
153.3430973374913
 21
302.290182346372
 31
0.0
  0
LINE
  5
B1
330
43
100
AcDbEntity
  8
1
  6
PHANTOM
 62
     4
100
AcDbLine
 10
159.8430973374913
 20
289.1174366290906
 30
0.0
 11
159.8430973374913
 21
307.0251825476382
 31
0.0
  0
LINE
  5
B2
330
43
100
AcDbEntity
  8
1
  6
Continuous
 62
     7
100
AcDbLine
 10
152.8430973374913
 20
302.290182346372
 30
0.0
 11
152.8430973374913
 21
305.0901823463719
 31
0.0
  0
LINE
  5
B3
330
43
100
AcDbEntity
  8
1
  6
Continuous
 62
     7
100
AcDbLine
 10
152.8430973374913
 20
305.0901823463719
 30
0.0
 11
153.8430973374912
 21
305.3595045453952
 31
0.0
  0
LINE
  5
B4
330
43
100
AcDbEntity
  8
1
  6
Continuous
 62
     2
100
AcDbLine
 10
153.8430973374913
 20
305.0901823463719
 30
0.0
 11
153.8430973374913
 21
302.290182346372
 31
0.0
  0
LINE
  5
B5
330
43
100
AcDbEntity
  8
1
  6
Continuous
 62
     2
100
AcDbLine
 10
154.8430973374913
 20
305.0901823463719
 30
0.0
 11
154.8430973374913
 21
302.290182346372
 31
0.0
  0
LINE
  5
B6
330
43
100
AcDbEntity
  8
1
  6
Continuous
 62
     2
100
AcDbLine
 10
155.8430973374913
 20
304.9002559379197
 30
0.0
 11
155.8430973374913
 21
302.4562306588235
 31
0.0
  0
LINE
  5
B7
330
43
100
AcDbEntity
  8
1
  6
Continuous
 62
     2
100
AcDbLine
 10
156.8430973374913
 20
304.7867088400443
 30
0.0
 11
156.8430973374913
 21
302.6508828266098
 31
0.0
  0
LINE
  5
B8
330
43
100
AcDbEntity
  8
1
  6
Continuous
 62
     2
100
AcDbLine
 10
157.8430973374913
 20
304.575835658276
 30
0.0
 11
157.8430973374913
 21
303.0077451342179
 31
0.0
  0
LINE
  5
B9
330
43
100
AcDbEntity
  8
1
  6
Continuous
 62
     2
100
AcDbLine
 10
158.8430973374913
 20
304.3325204485432
 30
0.0
 11
158.8430973374913
 21
303.2672813579327
 31
0.0
  0
LINE
  5
BA
330
43
100
AcDbEntity
  8
1
  6
Continuous
 62
     7
100
AcDbLine
 10
166.8430973374913
 20
305.0901823463721
 30
0.0
 11
152.8430973374913
 21
305.0901823463719
 31
0.0
  0
LINE
  5
BB
330
43
100
AcDbEntity
  8
1
  6
Continuous
 62
     7
100
AcDbLine
 10
318.8430973375036
 20
305.0840821240377
 30
0.0
 11
317.5930973375036
 21
305.4138478442415
 31
0.0
  0
LINE
  5
BC
330
43
100
AcDbEntity
  8
1
  6
Continuous
 62
     7
100
AcDbLine
 10
318.8430973375036
 20
305.0840821240377
 30
0.0
 11
318.8430973375036
 21
302.2840821240376
 31
0.0
  0
LINE
  5
BD
330
43
100
AcDbEntity
  8
1
  6
Continuous
 62
     2
100
AcDbLine
 10
310.3430973375036
 20
304.3704022822594
 30
0.0
 11
310.3430973375036
 21
303.2216759524069
 31
0.0
  0
LINE
  5
BE
330
43
100
AcDbEntity
  8
1
  6
Continuous
 62
     2
100
AcDbLine
 10
309.3430973375036
 20
304.6156252513237
 30
0.0
 11
309.3430973375036
 21
302.897631314715
 31
0.0
  0
LINE
  5
BF
330
43
100
AcDbEntity
  8
1
  6
Continuous
 62
     2
100
AcDbLine
 10
308.3430973375036
 20
304.8083004413026
 30
0.0
 11
308.3430973375036
 21
302.5385548242998
 31
0.0
  0
LINE
  5
C0
330
43
100
AcDbEntity
  8
1
  6
Continuous
 62
     2
100
AcDbLine
 10
307.3430973375036
 20
304.9396698890155
 30
0.0
 11
307.3430973375036
 21
302.3896694502251
 31
0.0
  0
LINE
  5
C1
330
43
100
AcDbEntity
  8
1
  6
Continuous
 62
     7
100
AcDbLine
 10
304.8430973375036
 20
302.2840821240376
 30
0.0
 11
318.8430973375036
 21
302.2840821240376
 31
0.0
  0
LINE
  5
C2
330
43
100
AcDbEntity
  8
1
  6
Continuous
 62
     2
100
AcDbLine
 10
306.3430973375036
 20
305.0840821240377
 30
0.0
 11
306.3430973375036
 21
302.2840821240376
 31
0.0
  0
LINE
  5
C3
330
43
100
AcDbEntity
  8
1
  6
Continuous
 62
     2
100
AcDbLine
 10
305.3430973375036
 20
305.0840821240377
 30
0.0
 11
305.3430973375036
 21
302.2840821240376
 31
0.0
  0
LINE
  5
C4
330
43
100
AcDbEntity
  8
1
  6
PHANTOM
 62
     4
100
AcDbLine
 10
311.8430973375036
 20
289.042209431987
 30
0.0
 11
311.8430973375036
 21
306.9499553505345
 31
0.0
  0
LINE
  5
C5
330
43
100
AcDbEntity
  8
1
  6
Continuous
 62
     7
100
AcDbLine
 10
304.8430973375036
 20
302.2840821240376
 30
0.0
 11
304.8430973375036
 21
305.0840821240377
 31
0.0
  0
LINE
  5
C6
330
43
100
AcDbEntity
  8
1
  6
Continuous
 62
     7
100
AcDbLine
 10
304.8430973375036
 20
305.0840821240377
 30
0.0
 11
305.8430973375035
 21
305.3534043230609
 31
0.0
  0
LINE
  5
C7
330
43
100
AcDbEntity
  8
1
  6
Continuous
 62
     2
100
AcDbLine
 10
305.8430973375036
 20
305.0840821240377
 30
0.0
 11
305.8430973375036
 21
302.2840821240376
 31
0.0
  0
LINE
  5
C8
330
43
100
AcDbEntity
  8
1
  6
Continuous
 62
     2
100
AcDbLine
 10
306.8430973375036
 20
305.0840821240377
 30
0.0
 11
306.8430973375036
 21
302.2840821240376
 31
0.0
  0
LINE
  5
C9
330
43
100
AcDbEntity
  8
1
  6
Continuous
 62
     2
100
AcDbLine
 10
307.8430973375036
 20
304.8941557155854
 30
0.0
 11
307.8430973375036
 21
302.4501304364892
 31
0.0
  0
LINE
  5
CA
330
43
100
AcDbEntity
  8
1
  6
Continuous
 62
     2
100
AcDbLine
 10
308.8430973375036
 20
304.7806086177101
 30
0.0
 11
308.8430973375036
 21
302.6447826042754
 31
0.0
  0
LINE
  5
CB
330
43
100
AcDbEntity
  8
1
  6
Continuous
 62
     2
100
AcDbLine
 10
309.8430973375036
 20
304.5697354359417
 30
0.0
 11
309.8430973375036
 21
303.0016449118836
 31
0.0
  0
LINE
  5
CC
330
43
100
AcDbEntity
  8
1
  6
Continuous
 62
     2
100
AcDbLine
 10
310.8430973375036
 20
304.3264202262089
 30
0.0
 11
310.8430973375036
 21
303.2611811355986
 31
0.0
  0
LINE
  5
CD
330
43
100
AcDbEntity
  8
1
  6
Continuous
 62
     7
100
AcDbLine
 10
318.8430973375036
 20
305.0840821240377
 30
0.0
 11
304.8430973375036
 21
305.0840821240377
 31
0.0
  0
LINE
  5
CE
330
43
100
AcDbEntity
  8
1
  6
Continuous
 62
     2
100
AcDbLine
 10
160.8430973374913
 20
303.2672813579327
 30
0.0
 11
160.8430973374913
 21
304.3325204485432
 31
0.0
  0
LINE
  5
CF
330
43
100
AcDbEntity
  8
1
  6
Continuous
 62
     2
100
AcDbLine
 10
161.3430973374913
 20
303.2277761747412
 30
0.0
 11
161.3430973374913
 21
304.3765025045937
 31
0.0
  0
LINE
  5
D0
330
43
100
AcDbEntity
  8
1
  6
Continuous
 62
     2
100
AcDbLine
 10
161.8430973374913
 20
303.0077451342179
 30
0.0
 11
161.8430973374913
 21
304.575835658276
 31
0.0
  0
LINE
  5
D1
330
43
100
AcDbEntity
  8
1
  6
Continuous
 62
     2
100
AcDbLine
 10
161.8430973374913
 20
303.0077451342179
 30
0.0
 11
161.8430973374913
 21
304.575835658276
 31
0.0
  0
LINE
  5
D2
330
43
100
AcDbEntity
  8
1
  6
Continuous
 62
     2
100
AcDbLine
 10
162.3430973374913
 20
302.9037315370493
 30
0.0
 11
162.3430973374913
 21
304.621725473658
 31
0.0
  0
LINE
  5
D3
330
43
100
AcDbEntity
  8
1
  6
Continuous
 62
     2
100
AcDbLine
 10
162.8430973374913
 20
302.6508828266098
 30
0.0
 11
162.8430973374913
 21
304.7867088400443
 31
0.0
  0
LINE
  5
D4
330
43
100
AcDbEntity
  8
1
  6
Continuous
 62
     2
100
AcDbLine
 10
163.3430973374913
 20
302.544655046634
 30
0.0
 11
163.3430973374913
 21
304.8144006636369
 31
0.0
  0
LINE
  5
D5
330
43
100
AcDbEntity
  8
1
  6
Continuous
 62
     2
100
AcDbLine
 10
163.3430973374913
 20
302.544655046634
 30
0.0
 11
163.3430973374913
 21
304.8144006636369
 31
0.0
  0
LINE
  5
D6
330
43
100
AcDbEntity
  8
1
  6
Continuous
 62
     2
100
AcDbLine
 10
164.3430973374913
 20
302.3957696725595
 30
0.0
 11
164.3430973374913
 21
304.9457701113497
 31
0.0
  0
LINE
  5
D7
330
43
100
AcDbEntity
  8
1
  6
Continuous
 62
     2
100
AcDbLine
 10
163.8430973374913
 20
302.4562306588235
 30
0.0
 11
163.8430973374913
 21
304.9002559379197
 31
0.0
  0
LINE
  5
D8
330
43
100
AcDbEntity
  8
1
  6
Continuous
 62
     2
100
AcDbLine
 10
163.8430973374913
 20
302.4562306588235
 30
0.0
 11
163.8430973374913
 21
304.9002559379197
 31
0.0
  0
LINE
  5
D9
330
43
100
AcDbEntity
  8
1
  6
Continuous
 62
     2
100
AcDbLine
 10
164.8430973374913
 20
302.290182346372
 30
0.0
 11
164.8430973374913
 21
305.0901823463719
 31
0.0
  0
LINE
  5
DA
330
43
100
AcDbEntity
  8
1
  6
Continuous
 62
     2
100
AcDbLine
 10
165.3430973374913
 20
302.290182346372
 30
0.0
 11
165.3430973374913
 21
305.0901823463719
 31
0.0
  0
LINE
  5
DB
330
43
100
AcDbEntity
  8
1
  6
Continuous
 62
     2
100
AcDbLine
 10
165.8430973374913
 20
302.290182346372
 30
0.0
 11
165.8430973374913
 21
305.0901823463719
 31
0.0
  0
LINE
  5
DC
330
43
100
AcDbEntity
  8
1
  6
Continuous
 62
     2
100
AcDbLine
 10
166.3430973374913
 20
302.290182346372
 30
0.0
 11
166.3430973374913
 21
305.0901823463719
 31
0.0
  0
LINE
  5
DD
330
43
100
AcDbEntity
  8
1
  6
Continuous
 62
     2
100
AcDbLine
 10
312.8430973375036
 20
303.2611811355986
 30
0.0
 11
312.8430973375036
 21
304.3264202262089
 31
0.0
  0
LINE
  5
DE
330
43
100
AcDbEntity
  8
1
  6
Continuous
 62
     2
100
AcDbLine
 10
313.3430973375036
 20
303.2216759524069
 30
0.0
 11
313.3430973375036
 21
304.3704022822594
 31
0.0
  0
LINE
  5
DF
330
43
100
AcDbEntity
  8
1
  6
Continuous
 62
     2
100
AcDbLine
 10
313.8430973375036
 20
303.0016449118836
 30
0.0
 11
313.8430973375036
 21
304.5697354359417
 31
0.0
  0
LINE
  5
E0
330
43
100
AcDbEntity
  8
1
  6
Continuous
 62
     2
100
AcDbLine
 10
314.3430973375036
 20
302.897631314715
 30
0.0
 11
314.3430973375036
 21
304.6156252513237
 31
0.0
  0
LINE
  5
E1
330
43
100
AcDbEntity
  8
1
  6
Continuous
 62
     2
100
AcDbLine
 10
314.8430973375036
 20
302.6447826042754
 30
0.0
 11
314.8430973375036
 21
304.7806086177101
 31
0.0
  0
LINE
  5
E2
330
43
100
AcDbEntity
  8
1
  6
Continuous
 62
     2
100
AcDbLine
 10
315.3430973375036
 20
302.5385548242998
 30
0.0
 11
315.3430973375036
 21
304.8083004413026
 31
0.0
  0
LINE
  5
E3
330
43
100
AcDbEntity
  8
1
  6
Continuous
 62
     2
100
AcDbLine
 10
315.3430973375036
 20
302.5385548242998
 30
0.0
 11
315.3430973375036
 21
304.8083004413026
 31
0.0
  0
LINE
  5
E4
330
43
100
AcDbEntity
  8
1
  6
Continuous
 62
     2
100
AcDbLine
 10
315.8430973375036
 20
302.4501304364892
 30
0.0
 11
315.8430973375036
 21
304.8941557155854
 31
0.0
  0
LINE
  5
E5
330
43
100
AcDbEntity
  8
1
  6
Continuous
 62
     2
100
AcDbLine
 10
316.3430973375036
 20
302.3896694502251
 30
0.0
 11
316.3430973375036
 21
304.9396698890155
 31
0.0
  0
LINE
  5
E6
330
43
100
AcDbEntity
  8
1
  6
Continuous
 62
     2
100
AcDbLine
 10
316.8430973375036
 20
302.2840821240376
 30
0.0
 11
316.8430973375036
 21
305.0840821240377
 31
0.0
  0
LINE
  5
E7
330
43
100
AcDbEntity
  8
1
  6
Continuous
 62
     2
100
AcDbLine
 10
317.3430973375036
 20
302.2840821240376
 30
0.0
 11
317.3430973375036
 21
305.0840821240377
 31
0.0
  0
LINE
  5
E8
330
43
100
AcDbEntity
  8
1
  6
Continuous
 62
     2
100
AcDbLine
 10
317.8430973375036
 20
302.2840821240376
 30
0.0
 11
317.8430973375036
 21
305.0840821240377
 31
0.0
  0
LINE
  5
E9
330
43
100
AcDbEntity
  8
1
  6
Continuous
 62
     2
100
AcDbLine
 10
318.3430973375036
 20
302.2840821240376
 30
0.0
 11
318.3430973375036
 21
305.0840821240377
 31
0.0
  0
ARC
  5
EA
330
43
100
AcDbEntity
  8
1
  6
Continuous
 62
     7
100
AcDbCircle
 10
159.8430973374913
 20
281.0901823463721
 30
0.0
 40
24.99999999999991
100
AcDbArc
 50
76.7029282527909
 51
90.0
  0
ARC
  5
EB
330
43
100
AcDbEntity
  8
1
  6
Continuous
 62
     7
100
AcDbCircle
 10
159.8430973374913
 20
281.0901823463721
 30
0.0
 40
24.99999999999991
100
AcDbArc
 50
103.2970717472091
 51
103.8865403626292
  0
ARC
  5
EC
330
43
100
AcDbEntity
  8
1
  6
Continuous
 62
     7
100
AcDbCircle
 10
159.8430973374913
 20
281.0901823463721
 30
0.0
 40
25.0
100
AcDbArc
 50
90.0
 51
103.2970717472091
  0
ARC
  5
ED
330
43
100
AcDbEntity
  8
1
  6
Continuous
 62
     7
100
AcDbCircle
 10
311.8430973375036
 20
281.0840821240377
 30
0.0
 40
25.00000000000008
100
AcDbArc
 50
76.70292825279098
 51
90.0
  0
ARC
  5
EE
330
43
100
AcDbEntity
  8
1
  6
Continuous
 62
     7
100
AcDbCircle
 10
311.8430973375036
 20
281.0840821240377
 30
0.0
 40
25.0
100
AcDbArc
 50
90.0
 51
103.8865403626293
  0
CIRCLE
  5
EF
330
43
100
AcDbEntity
  8
0
  6
Continuous
 62
     7
100
AcDbCircle
 10
159.8430973374913
 20
400.7901823463719
 30
0.0
 40
7.0
  0
ENDBLK
  5
45
330
43
100
AcDbEntity
  8
0
100
AcDbBlockEnd
  0
BLOCK
  5
47
330
46
100
AcDbEntity
  8
0
100
AcDbBlockBegin
  2
21-1C-M1K
 70
     0
 71
     0
 10
1050.0
 20
891.0
 30
0.0
  3
21-1C-M1K
  1

  0
LINE
  5
F0
330
46
100
AcDbEntity
  8
1
  6
Continuous
 62
     7
100
AcDbLine
 10
129.4182815411017
 20
291.290182346372
 30
0.0
 11
177.767871625417
 21
291.290182346372
 31
0.0
  0
LINE
  5
F1
330
46
100
AcDbEntity
  8
1
  6
PHANTOM
 62
     4
100
AcDbLine
 10
311.8430973375034
 20
305.2901823463719
 30
0.0
 11
311.8430973375034
 21
288.2901823463719
 31
0.0
  0
LINE
  5
F2
330
46
100
AcDbEntity
  8
0
  6
Continuous
 62
     7
100
AcDbLine
 10
338.8922650607721
 20
295.5698450695091
 30
0.0
 11
339.4136822628869
 21
291.8597688968519
 31
0.0
  0
LINE
  5
F3
330
46
100
AcDbEntity
  8
0
  6
Continuous
 62
     7
100
AcDbLine
 10
284.2725124121197
 20
291.8597688968519
 30
0.0
 11
284.7939296142346
 21
295.5698450695091
 31
0.0
  0
LINE
  5
F4
330
46
100
AcDbEntity
  8
1
  6
Continuous
 62
     7
100
AcDbLine
 10
309.5430973375032
 20
302.2725479764687
 30
0.0
 11
314.1430973375033
 21
302.2725479764687
 31
0.0
  0
LINE
  5
F5
330
46
100
AcDbEntity
  8
1
  6
Continuous
 62
     7
100
AcDbLine
 10
284.7676464464905
 20
291.2901823463719
 30
0.0
 11
338.9185482285162
 21
291.2901823463719
 31
0.0
  0
LINE
  5
F6
330
46
100
AcDbEntity
  8
1
  6
Continuous
 62
     7
100
AcDbLine
 10
129.3750556057233
 20
295.0752621017226
 30
0.0
 11
128.923147506731
 21
291.859768896852
 31
0.0
  0
LINE
  5
F7
330
46
100
AcDbEntity
  8
1
  6
PHANTOM
 62
     4
100
AcDbLine
 10
159.8430973374913
 20
305.290182346372
 30
0.0
 11
159.8430973374913
 21
288.290182346372
 31
0.0
  0
LINE
  5
F8
330
46
100
AcDbEntity
  8
1
  6
Continuous
 62
     7
100
AcDbLine
 10
177.6457831918426
 20
296.2492589521156
 30
0.0
 11
178.2630006858501
 21
291.8598042790846
 31
0.0
  0
LINE
  5
F9
330
46
100
AcDbEntity
  8
1
  6
Continuous
 62
     2
100
AcDbLine
 10
128.923147506731
 20
291.859768896852
 30
0.0
 11
128.923147506731
 21
291.8690277315629
 31
0.0
  0
LINE
  5
FA
330
46
100
AcDbEntity
  8
1
  6
Continuous
 62
     7
100
AcDbLine
 10
155.8430973374913
 20
302.290182346372
 30
0.0
 11
163.8430973374913
 21
302.290182346372
 31
0.0
  0
LINE
  5
FB
330
46
100
AcDbEntity
  8
1
  6
PHANTOM
 62
     4
100
AcDbLine
 10
125.8430973374889
 20
400.790182346367
 30
0.0
 11
176.81176964303
 21
400.790182346367
 31
0.0
  0
LINE
  5
FC
330
46
100
AcDbEntity
  8
1
  6
PHANTOM
 62
     4
100
AcDbLine
 10
178.3424289697203
 20
432.8319646394581
 30
0.0
 11
148.7891311110135
 21
381.644151216961
 31
0.0
  0
LINE
  5
FD
330
46
100
AcDbEntity
  8
1
  6
Continuous
 62
     7
100
AcDbLine
 10
168.1004566503697
 20
426.6834581280972
 30
0.0
 11
159.0719646203149
 21
417.6549660980423
 31
0.0
  0
LINE
  5
FE
330
46
100
AcDbEntity
  8
1
  6
Continuous
 62
     7
100
AcDbLine
 10
178.1386522952233
 20
420.8879031703629
 30
0.0
 11
174.833994854358
 21
408.5547536994426
 31
0.0
  0
LINE
  5
FF
330
46
100
AcDbEntity
  8
1
  6
Continuous
 62
     7
100
AcDbLine
 10
178.3424289697203
 20
379.9319566197506
 30
0.0
 11
174.833994854358
 21
393.0256109932913
 31
0.0
  0
LINE
  5
100
330
46
100
AcDbEntity
  8
1
  6
Continuous
 62
     7
100
AcDbLine
 10
168.1004566503697
 20
374.8969065646367
 30
0.0
 11
159.0719646203149
 21
383.9253985946916
 31
0.0
  0
LINE
  5
101
330
46
100
AcDbEntity
  8
1
  6
Continuous
 62
     7
100
AcDbLine
 10
133.2901830668737
 20
394.9946273886325
 30
0.0
 11
145.623332537794
 21
391.6899699477672
 31
0.0
  0
LINE
  5
102
330
46
100
AcDbEntity
  8
1
  6
PHANTOM
 62
     4
100
AcDbLine
 10
178.3424289697203
 20
368.748400053276
 30
0.0
 11
149.155560614532
 21
419.3015389582866
 31
0.0
  0
LINE
  5
103
330
46
100
AcDbEntity
  8
1
  6
PHANTOM
 62
     4
100
AcDbLine
 10
159.843097337489
 20
428.790182346367
 30
0.0
 11
159.843097337489
 21
372.7901823463669
 31
0.0
  0
LINE
  5
104
330
46
100
AcDbEntity
  8
1
  6
Continuous
 62
     7
100
AcDbLine
 10
133.2901830668737
 20
406.5857373041014
 30
0.0
 11
145.623332537794
 21
409.8903947449668
 31
0.0
  0
ARC
  5
105
330
46
100
AcDbEntity
  8
0
  6
Continuous
 62
     7
100
AcDbCircle
 10
332.9506566483227
 20
294.7348064637488
 30
0.0
 40
5.999999999999964
100
AcDbArc
 50
7.99999999999919
 51
81.57119997717585
  0
ARC
  5
106
330
46
100
AcDbEntity
  8
0
  6
Continuous
 62
     7
100
AcDbCircle
 10
311.8430973375166
 20
152.2901823463787
 30
0.0
 40
149.9999999999933
100
AcDbArc
 50
81.57119997717508
 51
88.37640229967344
  0
ARC
  5
107
330
46
100
AcDbEntity
  8
0
  6
Continuous
 62
     7
100
AcDbCircle
 10
311.8430973375166
 20
152.2901823463787
 30
0.0
 40
149.9999999999933
100
AcDbArc
 50
88.37640229967344
 51
89.12143028492717
  0
ARC
  5
108
330
46
100
AcDbEntity
  8
0
  6
Continuous
 62
     7
100
AcDbCircle
 10
311.8430973374901
 20
152.2901823463787
 30
0.0
 40
149.9999999999933
100
AcDbArc
 50
91.62359770032657
 51
98.42880002282493
  0
ARC
  5
109
330
46
100
AcDbEntity
  8
0
  6
Continuous
 62
     7
100
AcDbCircle
 10
311.8430973374901
 20
152.2901823463787
 30
0.0
 40
149.9999999999931
100
AcDbArc
 50
90.87856971507293
 51
91.62359770032657
  0
ARC
  5
10A
330
46
100
AcDbEntity
  8
0
  6
Continuous
 62
     7
100
AcDbCircle
 10
290.735538026684
 20
294.7348064637488
 30
0.0
 40
6.000000000000067
100
AcDbArc
 50
98.42880002282413
 51
172.0000000000008
  0
ARC
  5
10B
330
46
100
AcDbEntity
  8
1
  6
Continuous
 62
     7
100
AcDbCircle
 10
160.207293002738
 20
227.3783613376727
 30
0.0
 40
75.0000000000001
100
AcDbArc
 50
80.40850751733498
 51
87.22136103403739
  0
ARC
  5
10C
330
46
100
AcDbEntity
  8
1
  6
Continuous
 62
     7
100
AcDbCircle
 10
159.8430973374913
 20
152.290182346372
 30
0.0
 40
150.0533238552216
100
AcDbArc
 50
98.63404412973965
 51
99.80290179376779
  0
ARC
  5
10D
330
46
100
AcDbEntity
  8
1
  6
Continuous
 62
     7
100
AcDbCircle
 10
159.8430973374913
 20
152.290182346372
 30
0.0
 40
150.0533238552215
100
AcDbArc
 50
91.52752544221293
 51
98.63404412973965
  0
ARC
  5
10E
330
46
100
AcDbEntity
  8
1
  6
Continuous
 62
     7
100
AcDbCircle
 10
134.8430973374889
 20
400.790182346367
 30
0.0
 40
6.000000000000004
100
AcDbArc
 50
105.0000000000006
 51
180.0
  0
ARC
  5
10F
330
46
100
AcDbEntity
  8
1
  6
Continuous
 62
     7
100
AcDbCircle
 10
172.3430973374889
 20
422.4408174409779
 30
0.0
 40
5.999999999999959
100
AcDbArc
 50
-14.99999999999907
 51
134.9999999999996
  0
ARC
  5
110
330
46
100
AcDbEntity
  8
1
  6
Continuous
 62
     7
100
AcDbCircle
 10
172.3430973374889
 20
379.139547251756
 30
0.0
 40
5.999999999999968
100
AcDbArc
 50
-134.9999999999992
 51
7.52424107894036
  0
ARC
  5
111
330
46
100
AcDbEntity
  8
1
  6
Continuous
 62
     7
100
AcDbCircle
 10
134.8430973374889
 20
400.790182346367
 30
0.0
 40
6.0
100
AcDbArc
 50
180.0
 51
-105.0000000000005
  0
ARC
  5
112
330
46
100
AcDbEntity
  8
0
  6
Continuous
 62
     7
100
AcDbCircle
 10
338.9185482285162
 20
291.7901823463719
 30
0.0
 40
0.5
100
AcDbArc
 50
-90.0
 51
7.99999999999624
  0
ARC
  5
113
330
46
100
AcDbEntity
  8
0
  6
Continuous
 62
     7
100
AcDbCircle
 10
284.7676464464905
 20
291.7901823463719
 30
0.0
 40
0.5000000000000426
100
AcDbArc
 50
172.0000000000065
 51
-90.0
  0
ARC
  5
114
330
46
100
AcDbEntity
  8
1
  6
Continuous
 62
     7
100
AcDbCircle
 10
135.3166640181728
 20
294.2402234959624
 30
0.0
 40
5.999999999999907
100
AcDbArc
 50
99.80290179376799
 51
172.000000000002
  0
ARC
  5
115
330
46
100
AcDbEntity
  8
1
  6
Continuous
 62
     7
100
AcDbCircle
 10
171.7042344666453
 20
295.4137957595642
 30
0.0
 40
6.000000000000175
100
AcDbArc
 50
8.00409437170076
 51
80.40850751733541
  0
ARC
  5
116
330
46
100
AcDbEntity
  8
1
  6
Continuous
 62
     7
100
AcDbCircle
 10
129.4182815411017
 20
291.790182346372
 30
0.0
 40
0.4999999999999098
100
AcDbArc
 50
171.9999999999978
 51
-90.0
  0
ARC
  5
117
330
46
100
AcDbEntity
  8
1
  6
Continuous
 62
     7
100
AcDbCircle
 10
177.767871625417
 20
291.790182346372
 30
0.0
 40
0.5
100
AcDbArc
 50
-90.0
 51
8.00409437169984
  0
ARC
  5
118
330
46
100
AcDbEntity
  8
0
  6
Continuous
 62
     7
100
AcDbCircle
 10
137.8587611847183
 20
362.7121951590952
 30
0.0
 40
30.00000000000012
100
AcDbArc
 50
44.99999999999977
 51
74.99999999999986
  0
ARC
  5
119
330
46
100
AcDbEntity
  8
0
  6
Continuous
 62
     7
100
AcDbCircle
 10
203.81176964303
 20
400.790182346367
 30
0.0
 40
29.99999999999996
100
AcDbArc
 50
165.0
 51
-164.9999999999999
  0
ARC
  5
11A
330
46
100
AcDbEntity
  8
0
  6
Continuous
 62
     7
100
AcDbCircle
 10
137.8587611847184
 20
438.8681695336389
 30
0.0
 40
30.00000000000004
100
AcDbArc
 50
-75.00000000000006
 51
-45.00000000000011
  0
ENDBLK
  5
48
330
46
100
AcDbEntity
  8
0
100
AcDbBlockEnd
  0
BLOCK
  5
4E
330
49
100
AcDbEntity
  8
0
100
AcDbBlockBegin
  2
R10AK-13Z
 70
     0
 71
     0
 10
496.9999999999877
 20
681.9000000000002
 30
0.0
  3
R10AK-13Z
  1

  0
INSERT
  5
4A
330
49
100
AcDbEntity
  8
0
100
AcDbBlockReference
  2
37-1-13K
 10
68.0418671207203
 20
177.2944764562274
 30
0.0
  0
INSERT
  5
4B
330
49
100
AcDbEntity
  8
1
100
AcDbBlockReference
  2
36-54K
 10
1389.049870261586
 20
671.7320983050794
 30
0.0
  0
INSERT
  5
4C
330
49
100
AcDbEntity
  8
0
100
AcDbBlockReference
  2
42-15K
 10
594.2575635923145
 20
544.9764017366708
 30
0.0
  0
INSERT
  5
4D
330
49
100
AcDbEntity
  8
1
100
AcDbBlockReference
  2
21-1C-M1K
 10
1050.0
 20
891.0
 30
0.0
  0
LINE
  5
11B
330
49
100
AcDbEntity
  8
1
  6
PHANTOM
 62
     4
100
AcDbLine
 10
311.8430973375039
 20
309.0840821240379
 30
0.0
 11
311.8430973375039
 21
245.1840821240379
 31
0.0
  0
LINE
  5
11C
330
49
100
AcDbEntity
  8
1
  6
PHANTOM
 62
     4
100
AcDbLine
 10
159.8430973374913
 20
309.0901823463721
 30
0.0
 11
159.8430973374914
 21
245.1901823463722
 31
0.0
  0
ENDBLK
  5
4F
330
49
100
AcDbEntity
  8
0
100
AcDbBlockEnd
  0
BLOCK
  5
51
330
50
100
AcDbEntity
  8
0
100
AcDbBlockBegin
  2
B4121L-0B-13-M11
 70
     0
 71
     0
 10
420.0
 20
594.0
 30
0.0
  3
B4121L-0B-13-M11
  1

  0
LINE
  5
11D
330
50
100
AcDbEntity
  8
1
  6
Continuous
 62
     7
100
AcDbLine
 10
299.8430973375029
 20
271.491144240695
 30
0.0
 11
299.8430973375029
 21
274.2542054645968
 31
0.0
  0
LINE
  5
11E
330
50
100
AcDbEntity
  8
1
  6
Continuous
 62
     7
100
AcDbLine
 10
120.2050973374912
 20
259.2676823463842
 30
0.0
 11
120.2050973374912
 21
238.3126823463844
 31
0.0
  0
LINE
  5
11F
330
50
100
AcDbEntity
  8
1
  6
Continuous
 62
     7
100
AcDbLine
 10
135.8430973374914
 20
239.4521823463842
 30
0.0
 11
135.8430973374914
 21
258.1281823463842
 31
0.0
  0
LINE
  5
120
330
50
100
AcDbEntity
  8
1
  6
Continuous
 62
     7
100
AcDbLine
 10
137.8167692327161
 20
238.3126823463844
 30
0.0
 11
137.8167692327161
 21
259.2676823463842
 31
0.0
  0
LINE
  5
121
330
50
100
AcDbEntity
  8
1
  6
Continuous
 62
     7
100
AcDbLine
 10
148.5930973374913
 20
272.790182346372
 30
0.0
 11
171.0930973374914
 21
272.790182346372
 31
0.0
  0
LINE
  5
122
330
50
100
AcDbEntity
  8
1
  6
Continuous
 62
     7
100
AcDbLine
 10
171.8430973374914
 20
271.491144240695
 30
0.0
 11
147.8430973374913
 21
271.491144240695
 31
0.0
  0
LINE
  5
123
330
50
100
AcDbEntity
  8
1
  6
Continuous
 62
     7
100
AcDbLine
 10
173.1212188970257
 20
270.2130226811606
 30
0.0
 11
173.1653215099105
 21
269.3714946964283
 31
0.0
  0
LINE
  5
124
330
50
100
AcDbEntity
  8
1
  6
Continuous
 62
     7
100
AcDbLine
 10
146.429159551327
 20
267.6214946964218
 30
0.0
 11
146.4291595513275
 21
267.6214946964284
 31
0.0
  0
LINE
  5
125
330
50
100
AcDbEntity
  8
1
  6
Continuous
 62
     7
100
AcDbLine
 10
119.0430973374913
 20
242.2901823463721
 30
0.0
 11
119.0430973374913
 21
242.2901823463757
 31
0.0
  0
LINE
  5
126
330
50
100
AcDbEntity
  8
1
  6
Continuous
 62
     7
100
AcDbLine
 10
119.0430973374913
 20
242.2901823463757
 30
0.0
 11
119.0430973374913
 21
255.2901823463684
 31
0.0
  0
LINE
  5
127
330
50
100
AcDbEntity
  8
1
  6
Continuous
 62
     7
100
AcDbLine
 10
146.429159551327
 20
267.6214946964218
 30
0.0
 11
146.5649757779568
 21
270.2130226811606
 31
0.0
  0
LINE
  5
128
330
50
100
AcDbEntity
  8
1
  6
Continuous
 62
     7
100
AcDbLine
 10
119.0430973374913
 20
255.2901823463684
 30
0.0
 11
119.0430973374913
 21
258.1281823463842
 31
0.0
  0
LINE
  5
129
330
50
100
AcDbEntity
  8
1
  6
Continuous
 62
     7
100
AcDbLine
 10
119.0430973374913
 20
242.2901823463721
 30
0.0
 11
119.0430973374913
 21
239.4521823463842
 31
0.0
  0
LINE
  5
12A
330
50
100
AcDbEntity
  8
1
  6
Continuous
 62
     7
100
AcDbLine
 10
135.8430973374914
 20
238.3126823463844
 30
0.0
 11
135.8430973374914
 21
239.4521823463842
 31
0.0
  0
LINE
  5
12B
330
50
100
AcDbEntity
  8
1
  6
Continuous
 62
     7
100
AcDbLine
 10
120.2050973374912
 20
238.3126823463844
 30
0.0
 11
119.0430973374913
 21
239.4521823463842
 31
0.0
  0
LINE
  5
12C
330
50
100
AcDbEntity
  8
1
  6
Continuous
 62
     7
100
AcDbLine
 10
137.8167692327161
 20
259.2676823463842
 30
0.0
 11
120.2050973374912
 21
259.2676823463842
 31
0.0
  0
LINE
  5
12D
330
50
100
AcDbEntity
  8
1
  6
Continuous
 62
     7
100
AcDbLine
 10
120.2050973374912
 20
259.2676823463842
 30
0.0
 11
119.0430973374913
 21
258.1281823463842
 31
0.0
  0
LINE
  5
12E
330
50
100
AcDbEntity
  8
1
  6
Continuous
 62
     7
100
AcDbLine
 10
137.8167692327161
 20
259.2676823463842
 30
0.0
 11
120.2050973374912
 21
259.2676823463842
 31
0.0
  0
LINE
  5
12F
330
50
100
AcDbEntity
  8
1
  6
Continuous
 62
     2
100
AcDbLine
 10
119.0430973374913
 20
258.1281823463842
 30
0.0
 11
135.8430973374914
 21
258.1281823463842
 31
0.0
  0
LINE
  5
130
330
50
100
AcDbEntity
  8
1
  6
Continuous
 62
     7
100
AcDbLine
 10
135.8430973374914
 20
258.1281823463842
 30
0.0
 11
135.8430973374914
 21
259.2676823463842
 31
0.0
  0
LINE
  5
131
330
50
100
AcDbEntity
  8
1
  6
Continuous
 62
     2
100
AcDbLine
 10
135.8430973374914
 20
258.1281823463842
 30
0.0
 11
137.8167692327161
 21
259.2676823463842
 31
0.0
  0
LINE
  5
132
330
50
100
AcDbEntity
  8
1
  6
Continuous
 62
     2
100
AcDbLine
 10
137.8167692327161
 20
238.3126823463844
 30
0.0
 11
135.8430973374914
 21
239.4521823463842
 31
0.0
  0
LINE
  5
133
330
50
100
AcDbEntity
  8
1
  6
Continuous
 62
     2
100
AcDbLine
 10
135.8430973374914
 20
239.4521823463842
 30
0.0
 11
119.0430973374913
 21
239.4521823463842
 31
0.0
  0
LINE
  5
134
330
50
100
AcDbEntity
  8
1
  6
Continuous
 62
     7
100
AcDbLine
 10
148.0638783481011
 20
235.7901823463721
 30
0.0
 11
194.8430973374915
 21
235.7901823463721
 31
0.0
  0
LINE
  5
135
330
50
100
AcDbEntity
  8
1
  6
Continuous
 62
     7
100
AcDbLine
 10
146.5649757779568
 20
270.2130226811606
 30
0.0
 11
147.8430973374913
 21
271.491144240695
 31
0.0
  0
LINE
  5
136
330
50
100
AcDbEntity
  8
1
  6
Continuous
 62
     7
100
AcDbLine
 10
171.8430973374914
 20
271.491144240695
 30
0.0
 11
173.1212188970257
 21
270.2130226811606
 31
0.0
  0
LINE
  5
137
330
50
100
AcDbEntity
  8
1
  6
Continuous
 62
     7
100
AcDbLine
 10
181.154357787947
 20
261.790182346372
 30
0.0
 11
194.8430973374915
 21
261.790182346372
 31
0.0
  0
LINE
  5
138
330
50
100
AcDbEntity
  8
1
  6
Continuous
 62
     7
100
AcDbLine
 10
194.8430973374915
 20
261.790182346372
 30
0.0
 11
194.8430973374915
 21
235.7901823463721
 31
0.0
  0
LINE
  5
139
330
50
100
AcDbEntity
  8
1
  6
Continuous
 62
     2
100
AcDbLine
 10
147.8430973374913
 20
271.491144240695
 30
0.0
 11
148.5930973374913
 21
272.790182346372
 31
0.0
  0
LINE
  5
13A
330
50
100
AcDbEntity
  8
1
  6
Continuous
 62
     2
100
AcDbLine
 10
171.8430973374914
 20
271.491144240695
 30
0.0
 11
171.0930973374914
 21
272.790182346372
 31
0.0
  0
LINE
  5
13B
330
50
100
AcDbEntity
  8
1
  6
Continuous
 62
     2
100
AcDbLine
 10
171.0930973374914
 20
272.790182346372
 30
0.0
 11
171.0930973374914
 21
274.290182346372
 31
0.0
  0
LINE
  5
13C
330
50
100
AcDbEntity
  8
1
  6
Continuous
 62
     2
100
AcDbLine
 10
148.5930973374913
 20
272.790182346372
 30
0.0
 11
148.5930973374913
 21
274.290182346372
 31
0.0
  0
LINE
  5
13D
330
50
100
AcDbEntity
  8
1
  6
Continuous
 62
     7
100
AcDbLine
 10
171.8430973374914
 20
272.790182346372
 30
0.0
 11
171.0930973374914
 21
272.790182346372
 31
0.0
  0
LINE
  5
13E
330
50
100
AcDbEntity
  8
1
  6
Continuous
 62
     7
100
AcDbLine
 10
147.8430973374913
 20
271.491144240695
 30
0.0
 11
147.8430973374914
 21
272.790182346372
 31
0.0
  0
LINE
  5
13F
330
50
100
AcDbEntity
  8
1
  6
Continuous
 62
     7
100
AcDbLine
 10
147.8430973374914
 20
272.790182346372
 30
0.0
 11
148.5930973374913
 21
272.790182346372
 31
0.0
  0
LINE
  5
140
330
50
100
AcDbEntity
  8
1
  6
Continuous
 62
     7
100
AcDbLine
 10
147.8430973374914
 20
272.790182346372
 30
0.0
 11
147.8430973374914
 21
274.290182346372
 31
0.0
  0
LINE
  5
141
330
50
100
AcDbEntity
  8
1
  6
PHANTOM
 62
     4
100
AcDbLine
 10
159.8430973374914
 20
232.7901823463721
 30
0.0
 11
159.8430973374914
 21
281.790182346372
 31
0.0
  0
LINE
  5
142
330
50
100
AcDbEntity
  8
1
  6
Continuous
 62
     7
100
AcDbLine
 10
136.0711735004733
 20
255.590182346372
 30
0.0
 11
136.071173500471
 21
255.590182346372
 31
0.0
  0
LINE
  5
143
330
50
100
AcDbEntity
  8
1
  6
Continuous
 62
     7
100
AcDbLine
 10
137.8167692327161
 20
238.3126823463844
 30
0.0
 11
120.2050973374912
 21
238.3126823463844
 31
0.0
  0
LINE
  5
144
330
50
100
AcDbEntity
  8
1
  6
Continuous
 62
     7
100
AcDbLine
 10
136.0711735004772
 20
255.590182346372
 30
0.0
 11
136.0711735004733
 21
255.590182346372
 31
0.0
  0
LINE
  5
145
330
50
100
AcDbEntity
  8
1
  6
Continuous
 62
     7
100
AcDbLine
 10
136.0735735155521
 20
255.590182346372
 30
0.0
 11
136.0711735004733
 21
255.590182346372
 31
0.0
  0
LINE
  5
146
330
50
100
AcDbEntity
  8
1
  6
Continuous
 62
     7
100
AcDbLine
 10
171.8430973374914
 20
274.290182346372
 30
0.0
 11
171.8430973374914
 21
271.491144240695
 31
0.0
  0
LINE
  5
147
330
50
100
AcDbEntity
  8
1
  6
Continuous
 62
     7
100
AcDbLine
 10
143.1757596855262
 20
265.290182346372
 30
0.0
 11
144.3930637231866
 21
265.290182346372
 31
0.0
  0
LINE
  5
148
330
50
100
AcDbEntity
  8
1
  6
Continuous
 62
     7
100
AcDbLine
 10
141.0462624574028
 20
261.8973441416749
 30
0.0
 11
141.1833702893428
 21
263.4644938318673
 31
0.0
  0
LINE
  5
149
330
50
100
AcDbEntity
  8
1
  6
Continuous
 62
     7
100
AcDbLine
 10
186.0042105046928
 20
248.790182346372
 30
0.0
 11
193.68198417029
 21
248.790182346372
 31
0.0
  0
LINE
  5
14A
330
50
100
AcDbEntity
  8
1
  6
PHANTOM
 62
     4
100
AcDbLine
 10
116.0430973374913
 20
248.790182346372
 30
0.0
 11
197.8430973374915
 21
248.790182346372
 31
0.0
  0
LINE
  5
14B
330
50
100
AcDbEntity
  8
1
  6
Continuous
 62
     2
100
AcDbLine
 10
288.3430973375035
 20
239.4746823463721
 30
0.0
 11
295.830454299107
 21
239.4746823463721
 31
0.0
  0
LINE
  5
14C
330
50
100
AcDbEntity
  8
1
  6
Continuous
 62
     2
100
AcDbLine
 10
288.3430973375035
 20
258.1056823463717
 30
0.0
 11
295.8304542991081
 21
258.105682346372
 31
0.0
  0
LINE
  5
14D
330
50
100
AcDbEntity
  8
1
  6
Continuous
 62
     7
100
AcDbLine
 10
288.3430973375035
 20
259.2676823463715
 30
0.0
 11
297.8430973375029
 21
259.2676823463718
 31
0.0
  0
LINE
  5
14E
330
50
100
AcDbEntity
  8
1
  6
Continuous
 62
     2
100
AcDbLine
 10
323.030097337502
 20
274.2542054645968
 30
0.0
 11
323.030097337502
 21
272.790182346372
 31
0.0
  0
LINE
  5
14F
330
50
100
AcDbEntity
  8
1
  6
Continuous
 62
     7
100
AcDbLine
 10
135.8430973374913
 20
407.2697886212641
 30
0.0
 11
135.8430973374913
 21
411.267682346372
 31
0.0
  0
LINE
  5
150
330
50
100
AcDbEntity
  8
1
  6
Continuous
 62
     7
100
AcDbLine
 10
137.816769232716
 20
407.7986324117136
 30
0.0
 11
137.8167692327157
 21
411.267682346372
 31
0.0
  0
LINE
  5
151
330
50
100
AcDbEntity
  8
1
  6
Continuous
 62
     7
100
AcDbLine
 10
138.2627723156579
 20
407.9181385776097
 30
0.0
 11
138.2627723156578
 21
412.0401823463843
 31
0.0
  0
LINE
  5
152
330
50
100
AcDbEntity
  8
1
  6
Continuous
 62
     7
100
AcDbLine
 10
158.18412926481
 20
384.7775393079895
 30
0.0
 11
150.5232242735107
 21
384.7775393079895
 31
0.0
  0
LINE
  5
153
330
50
100
AcDbEntity
  8
1
  6
Continuous
 62
     7
100
AcDbLine
 10
149.3612242735105
 20
377.2901823463841
 30
0.0
 11
149.3612242735104
 21
386.7901823463843
 31
0.0
  0
LINE
  5
154
330
50
100
AcDbEntity
  8
1
  6
Continuous
 62
     2
100
AcDbLine
 10
150.5232242735104
 20
377.2901823463841
 30
0.0
 11
150.5232242735107
 21
384.7775393079895
 31
0.0
  0
LINE
  5
155
330
50
100
AcDbEntity
  8
1
  6
Continuous
 62
     7
100
AcDbLine
 10
155.7543062451431
 20
386.790182346372
 30
0.0
 11
149.369970401472
 21
386.790182346372
 31
0.0
  0
LINE
  5
156
330
50
100
AcDbEntity
  8
1
  6
Continuous
 62
     7
100
AcDbLine
 10
194.8430973374913
 20
387.7901823463718
 30
0.0
 11
192.8319903385616
 21
385.7790753474413
 31
0.0
  0
LINE
  5
157
330
50
100
AcDbEntity
  8
1
  6
Continuous
 62
     7
100
AcDbLine
 10
192.8319903385616
 20
415.8012893453016
 30
0.0
 11
194.8430973374913
 21
413.790182346372
 31
0.0
  0
LINE
  5
158
330
50
100
AcDbEntity
  8
1
  6
Continuous
 62
     7
100
AcDbLine
 10
186.8542043364213
 20
385.7790753474421
 30
0.0
 11
192.8319903385616
 21
385.7790753474413
 31
0.0
  0
LINE
  5
159
330
50
100
AcDbEntity
  8
1
  6
Continuous
 62
     7
100
AcDbLine
 10
192.8319903385616
 20
385.7790753474413
 30
0.0
 11
192.831990338564
 21
385.779075347442
 31
0.0
  0
LINE
  5
15A
330
50
100
AcDbEntity
  8
1
  6
Continuous
 62
     7
100
AcDbLine
 10
186.8542043364213
 20
415.8012893453016
 30
0.0
 11
192.8319903385616
 21
415.8012893453016
 31
0.0
  0
LINE
  5
15B
330
50
100
AcDbEntity
  8
1
  6
Continuous
 62
     7
100
AcDbLine
 10
194.8430973374913
 20
387.7901823463718
 30
0.0
 11
194.8430973374913
 21
413.790182346372
 31
0.0
  0
LINE
  5
15C
330
50
100
AcDbEntity
  8
1
  6
Continuous
 62
     7
100
AcDbLine
 10
186.8542043364213
 20
408.2957358458367
 30
0.0
 11
192.8319903385616
 21
408.2957358458367
 31
0.0
  0
LINE
  5
15D
330
50
100
AcDbEntity
  8
1
  6
Continuous
 62
     7
100
AcDbLine
 10
186.8542043364213
 20
393.2846288469067
 30
0.0
 11
192.8319903385616
 21
393.2846288469067
 31
0.0
  0
LINE
  5
15E
330
50
100
AcDbEntity
  8
1
  6
Continuous
 62
     7
100
AcDbLine
 10
302.7607678503549
 20
246.790182346372
 30
0.0
 11
320.9254268246511
 21
246.790182346372
 31
0.0
  0
LINE
  5
15F
330
50
100
AcDbEntity
  8
1
  6
Continuous
 62
     7
100
AcDbLine
 10
319.348650836967
 20
261.790182346372
 30
0.0
 11
326.8542043364329
 21
248.790182346372
 31
0.0
  0
LINE
  5
160
330
50
100
AcDbEntity
  8
1
  6
Continuous
 62
     7
100
AcDbLine
 10
326.8542043364329
 20
248.790182346372
 30
0.0
 11
319.348650836967
 21
235.790182346372
 31
0.0
  0
LINE
  5
161
330
50
100
AcDbEntity
  8
1
  6
Continuous
 62
     7
100
AcDbLine
 10
296.831990338572
 20
248.790182346372
 30
0.0
 11
304.3375438380371
 21
261.790182346372
 31
0.0
  0
LINE
  5
162
330
50
100
AcDbEntity
  8
1
  6
Continuous
 62
     7
100
AcDbLine
 10
304.3375438380371
 20
235.790182346372
 30
0.0
 11
296.831990338572
 21
248.790182346372
 31
0.0
  0
LINE
  5
163
330
50
100
AcDbEntity
  8
1
  6
Continuous
 62
     7
100
AcDbLine
 10
319.348650836967
 20
235.790182346372
 30
0.0
 11
304.3375438380371
 21
235.790182346372
 31
0.0
  0
LINE
  5
164
330
50
100
AcDbEntity
  8
1
  6
Continuous
 62
     2
100
AcDbLine
 10
323.8430973375029
 20
271.491144240695
 30
0.0
 11
323.030097337502
 21
272.790182346372
 31
0.0
  0
LINE
  5
165
330
50
100
AcDbEntity
  8
1
  6
Continuous
 62
     7
100
AcDbLine
 10
323.8430973375029
 20
271.491144240695
 30
0.0
 11
323.8430973375029
 21
274.2542054645968
 31
0.0
  0
LINE
  5
166
330
50
100
AcDbEntity
  8
1
  6
Continuous
 62
     7
100
AcDbLine
 10
297.8430973375029
 20
237.540182346372
 30
0.0
 11
298.3825067115311
 21
237.540182346372
 31
0.0
  0
LINE
  5
167
330
50
100
AcDbEntity
  8
1
  6
Continuous
 62
     7
100
AcDbLine
 10
325.121218897037
 20
270.2130226811611
 30
0.0
 11
326.1075179265139
 21
251.3933160847304
 31
0.0
  0
LINE
  5
168
330
50
100
AcDbEntity
  8
1
  6
Continuous
 62
     2
100
AcDbLine
 10
300.656097337503
 20
272.790182346372
 30
0.0
 11
300.656097337503
 21
274.2542054645968
 31
0.0
  0
LINE
  5
169
330
50
100
AcDbEntity
  8
1
  6
Continuous
 62
     7
100
AcDbLine
 10
297.8430973375029
 20
237.540182346372
 30
0.0
 11
297.8430973375029
 21
238.3126823463721
 31
0.0
  0
LINE
  5
16A
330
50
100
AcDbEntity
  8
1
  6
Continuous
 62
     7
100
AcDbLine
 10
323.8430973375029
 20
271.491144240695
 30
0.0
 11
325.121218897037
 21
270.2130226811611
 31
0.0
  0
LINE
  5
16B
330
50
100
AcDbEntity
  8
1
  6
Continuous
 62
     7
100
AcDbLine
 10
298.564975777969
 20
270.2130226811611
 30
0.0
 11
299.8430973375029
 21
271.491144240695
 31
0.0
  0
LINE
  5
16C
330
50
100
AcDbEntity
  8
1
  6
Continuous
 62
     7
100
AcDbLine
 10
295.830454299107
 20
238.3126823463721
 30
0.0
 11
295.830454299107
 21
239.4746823463721
 31
0.0
  0
LINE
  5
16D
330
50
100
AcDbEntity
  8
1
  6
Continuous
 62
     7
100
AcDbLine
 10
323.030097337502
 20
272.790182346372
 30
0.0
 11
323.8430973375029
 21
272.790182346372
 31
0.0
  0
LINE
  5
16E
330
50
100
AcDbEntity
  8
1
  6
Continuous
 62
     7
100
AcDbLine
 10
297.8430973375029
 20
238.3126823463721
 30
0.0
 11
288.3430973375035
 21
238.3126823463719
 31
0.0
  0
LINE
  5
16F
330
50
100
AcDbEntity
  8
1
  6
Continuous
 62
     2
100
AcDbLine
 10
297.8430973375029
 20
238.3126823463721
 30
0.0
 11
295.830454299107
 21
239.4746823463721
 31
0.0
  0
LINE
  5
170
330
50
100
AcDbEntity
  8
1
  6
Continuous
 62
     7
100
AcDbLine
 10
295.8304542991081
 20
258.105682346372
 30
0.0
 11
295.8304542991081
 21
259.2676823463718
 31
0.0
  0
LINE
  5
171
330
50
100
AcDbEntity
  8
1
  6
Continuous
 62
     7
100
AcDbLine
 10
299.8430973375029
 20
272.790182346372
 30
0.0
 11
300.656097337503
 21
272.790182346372
 31
0.0
  0
LINE
  5
172
330
50
100
AcDbEntity
  8
1
  6
Continuous
 62
     2
100
AcDbLine
 10
300.656097337503
 20
272.790182346372
 30
0.0
 11
299.8430973375029
 21
271.491144240695
 31
0.0
  0
LINE
  5
173
330
50
100
AcDbEntity
  8
1
  6
Continuous
 62
     2
100
AcDbLine
 10
295.8304542991081
 20
258.105682346372
 30
0.0
 11
297.8430973375029
 21
259.2676823463718
 31
0.0
  0
LINE
  5
174
330
50
100
AcDbEntity
  8
1
  6
Continuous
 62
     7
100
AcDbLine
 10
300.656097337503
 20
272.790182346372
 30
0.0
 11
323.030097337502
 21
272.790182346372
 31
0.0
  0
LINE
  5
175
330
50
100
AcDbEntity
  8
1
  6
Continuous
 62
     7
100
AcDbLine
 10
323.8430973375029
 20
271.491144240695
 30
0.0
 11
299.8430973375029
 21
271.491144240695
 31
0.0
  0
LINE
  5
176
330
50
100
AcDbEntity
  8
1
  6
Continuous
 62
     7
100
AcDbLine
 10
298.564975777969
 20
270.2130226811611
 30
0.0
 11
325.121218897037
 21
270.2130226811611
 31
0.0
  0
LINE
  5
177
330
50
100
AcDbEntity
  8
1
  6
Continuous
 62
     7
100
AcDbLine
 10
297.8430973375029
 20
259.2676823463718
 30
0.0
 11
297.8430973375029
 21
250.5414710404076
 31
0.0
  0
LINE
  5
178
330
50
100
AcDbEntity
  8
1
  6
Continuous
 62
     7
100
AcDbLine
 10
295.830454299107
 20
239.4746823463721
 30
0.0
 11
295.8304542991081
 21
258.105682346372
 31
0.0
  0
LINE
  5
179
330
50
100
AcDbEntity
  8
1
  6
Continuous
 62
     7
100
AcDbLine
 10
297.8430973375029
 20
247.0388936523367
 30
0.0
 11
297.8430973375029
 21
238.3126823463721
 31
0.0
  0
LINE
  5
17A
330
50
100
AcDbEntity
  8
1
  6
Continuous
 62
     7
100
AcDbLine
 10
297.843097337502
 20
265.0076957421503
 30
0.0
 11
297.8430973375029
 21
259.2676823463718
 31
0.0
  0
LINE
  5
17B
330
50
100
AcDbEntity
  8
1
  6
Continuous
 62
     7
100
AcDbLine
 10
298.4291595513392
 20
267.6214946964286
 30
0.0
 11
298.564975777969
 21
270.2130226811611
 31
0.0
  0
LINE
  5
17C
330
50
100
AcDbEntity
  8
1
  6
Continuous
 62
     7
100
AcDbLine
 10
138.2627723156578
 20
412.0401823463843
 30
0.0
 11
138.2627723156719
 21
412.0401823463843
 31
0.0
  0
LINE
  5
17D
330
50
100
AcDbEntity
  8
1
  6
Continuous
 62
     7
100
AcDbLine
 10
138.2627723156578
 20
389.5401823463843
 30
0.0
 11
138.2627723156578
 21
393.6622261151354
 31
0.0
  0
LINE
  5
17E
330
50
100
AcDbEntity
  8
1
  6
Continuous
 62
     7
100
AcDbLine
 10
137.816769232716
 20
390.3126823463721
 30
0.0
 11
138.2627723156578
 21
389.5401823463843
 31
0.0
  0
LINE
  5
17F
330
50
100
AcDbEntity
  8
1
  6
Continuous
 62
     7
100
AcDbLine
 10
137.8167692327157
 20
411.267682346372
 30
0.0
 11
138.2627723156578
 21
412.0401823463843
 31
0.0
  0
LINE
  5
180
330
50
100
AcDbEntity
  8
1
  6
Continuous
 62
     2
100
AcDbLine
 10
120.2050973374913
 20
410.1281823463723
 30
0.0
 11
135.8430973374913
 21
410.1281823463722
 31
0.0
  0
LINE
  5
181
330
50
100
AcDbEntity
  8
1
  6
Continuous
 62
     7
100
AcDbLine
 10
137.816769232716
 20
390.3126823463721
 30
0.0
 11
137.8167692327159
 21
393.7817322810315
 31
0.0
  0
LINE
  5
182
330
50
100
AcDbEntity
  8
1
  6
Continuous
 62
     2
100
AcDbLine
 10
135.8430973374913
 20
410.1281823463722
 30
0.0
 11
137.8167692327157
 21
411.267682346372
 31
0.0
  0
LINE
  5
183
330
50
100
AcDbEntity
  8
1
  6
Continuous
 62
     7
100
AcDbLine
 10
138.2627723156578
 20
389.5401823463843
 30
0.0
 11
140.6199704014722
 21
389.5401823463843
 31
0.0
  0
LINE
  5
184
330
50
100
AcDbEntity
  8
1
  6
Continuous
 62
     7
100
AcDbLine
 10
138.2627723156719
 20
412.0401823463843
 30
0.0
 11
142.110711711218
 21
412.0401823463843
 31
0.0
  0
LINE
  5
185
330
50
100
AcDbEntity
  8
1
  6
PHANTOM
 62
     4
100
AcDbLine
 10
159.8430973374915
 20
366.2901823463843
 30
0.0
 11
159.8430973374913
 21
418.2901823463726
 31
0.0
  0
LINE
  5
186
330
50
100
AcDbEntity
  8
1
  6
Continuous
 62
     7
100
AcDbLine
 10
183.5301814576401
 20
413.7901823463718
 30
0.0
 11
176.2368237323344
 21
413.7901823463718
 31
0.0
  0
LINE
  5
187
330
50
100
AcDbEntity
  8
1
  6
Continuous
 62
     7
100
AcDbLine
 10
150.5232242735107
 20
384.7775393079895
 30
0.0
 11
149.3612242735109
 21
384.7775393079895
 31
0.0
  0
LINE
  5
188
330
50
100
AcDbEntity
  8
1
  6
Continuous
 62
     2
100
AcDbLine
 10
150.5232242735107
 20
384.7775393079895
 30
0.0
 11
149.369970401472
 21
386.790182346372
 31
0.0
  0
LINE
  5
189
330
50
100
AcDbEntity
  8
1
  6
Continuous
 62
     7
100
AcDbLine
 10
146.6563186352847
 20
386.7901823463984
 30
0.0
 11
149.369970401472
 21
386.790182346372
 31
0.0
  0
LINE
  5
18A
330
50
100
AcDbEntity
  8
1
  6
Continuous
 62
     2
100
AcDbLine
 10
137.816769232716
 20
390.3126823463721
 30
0.0
 11
135.8430973374913
 21
391.4521823463716
 31
0.0
  0
LINE
  5
18B
330
50
100
AcDbEntity
  8
1
  6
Continuous
 62
     7
100
AcDbLine
 10
119.0430973374913
 20
391.4521823463716
 30
0.0
 11
120.2050973374913
 21
390.3126823463721
 31
0.0
  0
LINE
  5
18C
330
50
100
AcDbEntity
  8
1
  6
Continuous
 62
     7
100
AcDbLine
 10
119.0430973374913
 20
410.1281823463722
 30
0.0
 11
120.2050973374913
 21
411.267682346372
 31
0.0
  0
LINE
  5
18D
330
50
100
AcDbEntity
  8
1
  6
Continuous
 62
     7
100
AcDbLine
 10
120.2050973374913
 20
410.1281823463723
 30
0.0
 11
120.2050973374913
 21
411.267682346372
 31
0.0
  0
LINE
  5
18E
330
50
100
AcDbEntity
  8
1
  6
Continuous
 62
     7
100
AcDbLine
 10
119.0430973374913
 20
410.1281823463722
 30
0.0
 11
120.2050973374913
 21
410.1281823463723
 31
0.0
  0
LINE
  5
18F
330
50
100
AcDbEntity
  8
1
  6
Continuous
 62
     7
100
AcDbLine
 10
135.8430973374913
 20
391.4521823463716
 30
0.0
 11
135.8430973374913
 21
394.3105760714809
 31
0.0
  0
LINE
  5
190
330
50
100
AcDbEntity
  8
1
  6
Continuous
 62
     7
100
AcDbLine
 10
135.8430973374913
 20
390.3126823463721
 30
0.0
 11
135.8430973374913
 21
391.4521823463716
 31
0.0
  0
LINE
  5
191
330
50
100
AcDbEntity
  8
1
  6
Continuous
 62
     2
100
AcDbLine
 10
135.8430973374913
 20
391.4521823463716
 30
0.0
 11
119.0430973374913
 21
391.4521823463716
 31
0.0
  0
LINE
  5
192
330
50
100
AcDbEntity
  8
1
  6
Continuous
 62
     7
100
AcDbLine
 10
120.2050973374913
 20
410.1281823463723
 30
0.0
 11
120.2050973374913
 21
390.3126823463721
 31
0.0
  0
LINE
  5
193
330
50
100
AcDbEntity
  8
1
  6
Continuous
 62
     7
100
AcDbLine
 10
183.5301814576401
 20
387.790182346372
 30
0.0
 11
179.0749704014723
 21
387.7901823463716
 31
0.0
  0
LINE
  5
194
330
50
100
AcDbEntity
  8
1
  6
Continuous
 62
     7
100
AcDbLine
 10
119.0430973374913
 20
391.4521823463716
 30
0.0
 11
119.0430973374913
 21
410.1281823463722
 31
0.0
  0
LINE
  5
195
330
50
100
AcDbEntity
  8
1
  6
Continuous
 62
     7
100
AcDbLine
 10
120.2050973374913
 20
390.3126823463721
 30
0.0
 11
137.816769232716
 21
390.3126823463721
 31
0.0
  0
LINE
  5
196
330
50
100
AcDbEntity
  8
1
  6
Continuous
 62
     7
100
AcDbLine
 10
120.2050973374913
 20
411.267682346372
 30
0.0
 11
137.8167692327157
 21
411.267682346372
 31
0.0
  0
LINE
  5
197
330
50
100
AcDbEntity
  8
1
  6
PHANTOM
 62
     4
100
AcDbLine
 10
197.8430973374913
 20
400.7901823463718
 30
0.0
 11
116.0430973374913
 21
400.790182346372
 31
0.0
  0
LINE
  5
198
330
50
100
AcDbEntity
  8
1
  6
Continuous
 62
     7
100
AcDbLine
 10
304.3375438380371
 20
261.790182346372
 30
0.0
 11
319.348650836967
 21
261.790182346372
 31
0.0
  0
LINE
  5
199
330
50
100
AcDbEntity
  8
1
  6
Continuous
 62
     7
100
AcDbLine
 10
138.5906861825409
 20
260.0415992962087
 30
0.0
 11
137.8167692327161
 21
259.2676823463842
 31
0.0
  0
LINE
  5
19A
330
50
100
AcDbEntity
  8
1
  6
Continuous
 62
     7
100
AcDbLine
 10
138.2627723156581
 20
259.713685429326
 30
0.0
 11
138.2627723156581
 21
237.8666792634181
 31
0.0
  0
LINE
  5
19B
330
50
100
AcDbEntity
  8
1
  6
Continuous
 62
     7
100
AcDbLine
 10
137.8167692327161
 20
238.3126823463599
 30
0.0
 11
138.5892692327043
 21
237.5401823463721
 31
0.0
  0
LINE
  5
19C
330
50
100
AcDbEntity
  8
1
  6
Continuous
 62
     7
100
AcDbLine
 10
139.5468538426962
 20
237.5401823463721
 30
0.0
 11
138.5892692327043
 21
237.5401823463721
 31
0.0
  0
ARC
  5
19D
330
50
100
AcDbEntity
  8
1
  6
Continuous
 62
     7
100
AcDbCircle
 10
176.5042105046924
 20
242.2901823463721
 30
0.0
 40
18.36643427850106
100
AcDbArc
 50
-20.7264395950211
 51
20.72643959502085
  0
ARC
  5
19E
330
50
100
AcDbEntity
  8
1
  6
Continuous
 62
     7
100
AcDbCircle
 10
176.5042105046924
 20
255.290182346372
 30
0.0
 40
18.36643427850106
100
AcDbArc
 50
-20.7264395950211
 51
20.72643959502101
  0
ARC
  5
19F
330
50
100
AcDbEntity
  8
1
  6
Continuous
 62
     7
100
AcDbCircle
 10
203.1819841702921
 20
242.2901823463721
 30
0.0
 40
18.36643427850263
100
AcDbArc
 50
159.2735604049811
 51
-159.2735604049808
  0
ARC
  5
1A0
330
50
100
AcDbEntity
  8
1
  6
Continuous
 62
     7
100
AcDbCircle
 10
203.1819841702921
 20
255.290182346372
 30
0.0
 40
18.36643427850265
100
AcDbArc
 50
159.2735604049809
 51
-159.2735604049808
  0
ARC
  5
1A1
330
50
100
AcDbEntity
  8
1
  6
Continuous
 62
     7
100
AcDbCircle
 10
181.154357787947
 20
269.790182346372
 30
0.0
 40
7.999999999999897
100
AcDbArc
 50
-176.9999999999989
 51
-90.0
  0
ARC
  5
1A2
330
50
100
AcDbEntity
  8
1
  6
Continuous
 62
     7
100
AcDbCircle
 10
159.8430973374914
 20
284.290182346372
 30
0.0
 40
50.00000000000002
100
AcDbArc
 50
-108.1948723387673
 51
-104.5143030815588
  0
ARC
  5
1A3
330
50
100
AcDbEntity
  8
1
  6
Continuous
 62
     7
100
AcDbCircle
 10
138.4401232732973
 20
268.040182346365
 30
0.0
 40
7.999999999993147
100
AcDbArc
 50
-7.18075578139922
 51
-3.00000000000004
  0
ARC
  5
1A4
330
50
100
AcDbEntity
  8
1
  6
Continuous
 62
     7
100
AcDbCircle
 10
138.4401232732973
 20
268.040182346365
 30
0.0
 40
7.999999999992971
100
AcDbArc
 50
-88.92160892513613
 51
-84.12885185724193
  0
ARC
  5
1A5
330
50
100
AcDbEntity
  8
1
  6
Continuous
 62
     7
100
AcDbCircle
 10
138.4401232732973
 20
268.040182346365
 30
0.0
 40
7.999999999992919
100
AcDbArc
 50
-71.95520315219835
 51
-20.10550978788043
  0
ARC
  5
1A6
330
50
100
AcDbEntity
  8
1
  6
Continuous
 62
     7
100
AcDbCircle
 10
138.4401232732973
 20
268.040182346365
 30
0.0
 40
7.999999999993229
100
AcDbArc
 50
-20.10550978788043
 51
-7.18075578139922
  0
ARC
  5
1A7
330
50
100
AcDbEntity
  8
1
  6
Continuous
 62
     7
100
AcDbCircle
 10
138.4401232732973
 20
268.040182346365
 30
0.0
 40
7.999999999992973
100
AcDbArc
 50
-84.12885185724178
 51
-71.95520315219835
  0
ARC
  5
1A8
330
50
100
AcDbEntity
  8
1
  6
Continuous
 62
     7
100
AcDbCircle
 10
179.0749704013794
 20
379.7901823467329
 30
0.0
 40
7.999999999638703
100
AcDbArc
 50
89.99999999933458
 51
109.8105225356442
  0
ARC
  5
1A9
330
50
100
AcDbEntity
  8
1
  6
Continuous
 62
     7
100
AcDbCircle
 10
190.3361554631593
 20
412.0485125955692
 30
0.0
 40
4.506941874332017
100
AcDbArc
 50
-56.37357086401417
 51
33.62642913597031
  0
ARC
  5
1AA
330
50
100
AcDbEntity
  8
1
  6
Continuous
 62
     7
100
AcDbCircle
 10
189.3500392118237
 20
389.5318520971745
 30
0.0
 40
4.506941874332426
100
AcDbArc
 50
179.9999999999978
 51
-140.8289251476787
  0
ARC
  5
1AB
330
50
100
AcDbEntity
  8
1
  6
Continuous
 62
     7
100
AcDbCircle
 10
183.5301814576401
 20
384.790182346372
 30
0.0
 40
3.00000000000011
100
AcDbArc
 50
39.17107485232067
 51
90.0
  0
ARC
  5
1AC
330
50
100
AcDbEntity
  8
1
  6
Continuous
 62
     7
100
AcDbCircle
 10
189.3500392118237
 20
412.0485125955692
 30
0.0
 40
4.50694187433197
100
AcDbArc
 50
123.6264291359875
 51
140.8289251476798
  0
ARC
  5
1AD
330
50
100
AcDbEntity
  8
1
  6
Continuous
 62
     7
100
AcDbCircle
 10
183.5301814576401
 20
416.7901823463717
 30
0.0
 40
2.999999999999886
100
AcDbArc
 50
-90.0
 51
-39.1710748523215
  0
ARC
  5
1AE
330
50
100
AcDbEntity
  8
1
  6
Continuous
 62
     7
100
AcDbCircle
 10
190.3361554631593
 20
389.5318520971745
 30
0.0
 40
4.506941874332229
100
AcDbArc
 50
-33.62642913598273
 51
56.37357086401177
  0
ARC
  5
1AF
330
50
100
AcDbEntity
  8
1
  6
Continuous
 62
     7
100
AcDbCircle
 10
189.3500392118237
 20
389.5318520971745
 30
0.0
 40
4.506941874332397
100
AcDbArc
 50
-140.8289251476787
 51
-123.6264291359871
  0
ARC
  5
1B0
330
50
100
AcDbEntity
  8
1
  6
Continuous
 62
     7
100
AcDbCircle
 10
189.3500392118237
 20
389.5318520971745
 30
0.0
 40
4.50694187433178
100
AcDbArc
 50
123.6264291359891
 51
179.9999999999978
  0
ARC
  5
1B1
330
50
100
AcDbEntity
  8
1
  6
Continuous
 62
     7
100
AcDbCircle
 10
189.3500392118237
 20
412.0485125955692
 30
0.0
 40
4.506941874332325
100
AcDbArc
 50
140.8289251476798
 51
-179.9999999999971
  0
ARC
  5
1B2
330
50
100
AcDbEntity
  8
1
  6
Continuous
 62
     7
100
AcDbCircle
 10
189.3500392118237
 20
412.0485125955692
 30
0.0
 40
4.506941874332426
100
AcDbArc
 50
-179.9999999999971
 51
-123.6264291359868
  0
ARC
  5
1B3
330
50
100
AcDbEntity
  8
1
  6
Continuous
 62
     7
100
AcDbCircle
 10
199.8542043364261
 20
400.7901823463718
 30
0.0
 40
15.01110699893431
100
AcDbArc
 50
150.00000000001
 51
-150.0000000000092
  0
ARC
  5
1B4
330
50
100
AcDbEntity
  8
1
  6
Continuous
 62
     7
100
AcDbCircle
 10
179.8319903385569
 20
400.7901823463718
 30
0.0
 40
15.01110699893435
100
AcDbArc
 50
-29.99999999999096
 51
29.9999999999902
  0
ARC
  5
1B5
330
50
100
AcDbEntity
  8
1
  6
Continuous
 62
     7
100
AcDbCircle
 10
311.8430973375029
 20
248.790182346372
 30
0.0
 40
14.49999999999919
100
AcDbArc
 50
3.70844472526939
 51
10.3421789369476
  0
ARC
  5
1B6
330
50
100
AcDbEntity
  8
1
  6
Continuous
 62
     7
100
AcDbCircle
 10
298.3825067115311
 20
222.540182346372
 30
0.0
 40
14.99999999999998
100
AcDbArc
 50
68.23482288898471
 51
90.0
  0
ARC
  5
1B7
330
50
100
AcDbEntity
  8
1
  6
Continuous
 62
     7
100
AcDbCircle
 10
311.8430973375029
 20
248.790182346372
 30
0.0
 40
14.49999999999987
100
AcDbArc
 50
-56.29155527473056
 51
-3.70844472526827
  0
ARC
  5
1B8
330
50
100
AcDbEntity
  8
1
  6
Continuous
 62
     7
100
AcDbCircle
 10
290.4401232733009
 20
268.0401823463723
 30
0.0
 40
8.000000000001247
100
AcDbArc
 50
-22.27552015977964
 51
-3.00000000000048
  0
LINE
  5
1B9
330
50
100
AcDbEntity
  8
1
  6
Continuous
 62
     7
100
AcDbLine
 10
146.656318635297
 20
386.7901823463843
 30
0.0
 11
146.6563186352847
 21
386.7901823463984
 31
0.0
  0
ARC
  5
1BA
330
50
100
AcDbEntity
  8
1
  6
Continuous
 62
     7
100
AcDbCircle
 10
140.6199704014726
 20
381.5401823463843
 30
0.0
 40
7.999999999999638
100
AcDbArc
 50
41.01449966586658
 51
90.00000000000306
  0
ARC
  5
1BB
330
50
100
AcDbEntity
  8
1
  6
Continuous
 62
     7
100
AcDbCircle
 10
159.8430973374913
 20
365.2901823463802
 30
0.0
 40
49.99999999999236
100
AcDbArc
 50
94.13029832017614
 51
110.7718550452923
  0
CIRCLE
  5
1BC
330
50
100
AcDbEntity
  8
1
  6
Continuous
 62
     7
100
AcDbCircle
 10
311.8430973375029
 20
248.790182346372
 30
0.0
 40
9.299930586467724
  0
CIRCLE
  5
1BD
330
50
100
AcDbEntity
  8
1
  6
Continuous
 62
     7
100
AcDbCircle
 10
311.8430973375029
 20
248.790182346372
 30
0.0
 40
12.99999999999983
  0
CIRCLE
  5
1BE
330
50
100
AcDbEntity
  8
1
  6
Continuous
 62
     2
100
AcDbCircle
 10
311.8430973375029
 20
248.790182346372
 30
0.0
 40
10.5
  0
ARC
  5
1BF
330
50
100
AcDbEntity
  8
1
  6
Continuous
 62
     7
100
AcDbCircle
 10
148.0638783481011
 20
238.7901823463721
 30
0.0
 40
3.000000000000054
100
AcDbArc
 50
-104.5143030815571
 51
-90.0
  0
ARC
  5
1C0
330
50
100
AcDbEntity
  8
1
  6
Continuous
 62
     7
100
AcDbCircle
 10
139.5468538426962
 20
222.5401823463721
 30
0.0
 40
15.0
100
AcDbArc
 50
71.80512766123326
 51
90.0
  0
ARC
  5
1C1
330
50
100
AcDbEntity
  8
1
  6
Continuous
 62
     7
100
AcDbCircle
 10
143.1757596855262
 20
263.290182346372
 30
0.0
 40
2.0
100
AcDbArc
 50
90.0
 51
175.0
  0
ARC
  5
1C2
330
50
100
AcDbEntity
  8
1
  6
Continuous
 62
     7
100
AcDbCircle
 10
139.0538730612193
 20
262.0716556271703
 30
0.0
 40
2.000000000000029
100
AcDbArc
 50
-84.12885185724171
 51
-5.00000000000137
  0
ARC
  5
1C3
330
50
100
AcDbEntity
  8
1
  6
Continuous
 62
     7
100
AcDbCircle
 10
144.3930637231866
 20
267.290182346372
 30
0.0
 40
2.0
100
AcDbArc
 50
-90.0
 51
-7.18075578139917
  0
ENDBLK
  5
52
330
50
100
AcDbEntity
  8
0
100
AcDbBlockEnd
  0
BLOCK
  5
54
330
53
100
AcDbEntity
  8
0
100
AcDbBlockBegin
  2
_J__A4
 70
     0
 71
     0
 10
0.0
 20
0.0
 30
0.0
  3
_J__A4
  1

  0
POINT
  5
1C4
330
53
100
AcDbEntity
  8
1
 62
     4
100
AcDbPoint
 10
93.75
 20
17.0
 30
0.0
  0
POINT
  5
1C5
330
53
100
AcDbEntity
  8
1
 62
     4
100
AcDbPoint
 10
85.25
 20
17.0
 30
0.0
  0
POINT
  5
1C6
330
53
100
AcDbEntity
  8
1
 62
     4
100
AcDbPoint
 10
106.5
 20
19.00000000000001
 30
0.0
  0
POINT
  5
1C7
330
53
100
AcDbEntity
  8
1
 62
     4
100
AcDbPoint
 10
106.5
 20
12.5
 30
0.0
  0
POINT
  5
1C8
330
53
100
AcDbEntity
  8
1
 62
     4
100
AcDbPoint
 10
112.25
 20
12.5
 30
0.0
  0
POINT
  5
1C9
330
53
100
AcDbEntity
  8
1
 62
     4
100
AcDbPoint
 10
100.75
 20
12.5
 30
0.0
  0
POINT
  5
1CA
330
53
100
AcDbEntity
  8
1
 62
     4
100
AcDbPoint
 10
123.5
 20
19.00000000000001
 30
0.0
  0
POINT
  5
1CB
330
53
100
AcDbEntity
  8
1
 62
     4
100
AcDbPoint
 10
123.5
 20
12.5
 30
0.0
  0
POINT
  5
1CC
330
53
100
AcDbEntity
  8
1
 62
     4
100
AcDbPoint
 10
129.25
 20
12.5
 30
0.0
  0
POINT
  5
1CD
330
53
100
AcDbEntity
  8
1
 62
     4
100
AcDbPoint
 10
117.75
 20
12.5
 30
0.0
  0
POINT
  5
1CE
330
53
100
AcDbEntity
  8
1
 62
     4
100
AcDbPoint
 10
140.5
 20
19.00000000000001
 30
0.0
  0
POINT
  5
1CF
330
53
100
AcDbEntity
  8
1
 62
     4
100
AcDbPoint
 10
140.5
 20
12.5
 30
0.0
  0
POINT
  5
1D0
330
53
100
AcDbEntity
  8
1
 62
     4
100
AcDbPoint
 10
146.25
 20
12.5
 30
0.0
  0
POINT
  5
1D1
330
53
100
AcDbEntity
  8
1
 62
     4
100
AcDbPoint
 10
134.75
 20
12.5
 30
0.0
  0
POINT
  5
1D2
330
53
100
AcDbEntity
  8
1
 62
     4
100
AcDbPoint
 10
151.75
 20
12.5
 30
0.0
  0
POINT
  5
1D3
330
53
100
AcDbEntity
  8
1
 62
     4
100
AcDbPoint
 10
163.25
 20
12.5
 30
0.0
  0
POINT
  5
1D4
330
53
100
AcDbEntity
  8
1
 62
     4
100
AcDbPoint
 10
157.5
 20
12.5
 30
0.0
  0
POINT
  5
1D5
330
53
100
AcDbEntity
  8
1
 62
     4
100
AcDbPoint
 10
57.0
 20
14.25
 30
0.0
  0
POINT
  5
1D6
330
53
100
AcDbEntity
  8
1
 62
     4
100
AcDbPoint
 10
57.0
 20
22.75000000000001
 30
0.0
  0
POINT
  5
1D7
330
53
100
AcDbEntity
  8
1
 62
     4
100
AcDbPoint
 10
47.5
 20
282.0000000000003
 30
0.0
  0
POINT
  5
1D8
330
53
100
AcDbEntity
  8
1
 62
     4
100
AcDbPoint
 10
157.5
 20
19.00000000000001
 30
0.0
  0
POINT
  5
1D9
330
53
100
AcDbEntity
  8
1
 62
     4
100
AcDbPoint
 10
57.0
 20
16.25
 30
0.0
  0
POINT
  5
1DA
330
53
100
AcDbEntity
  8
1
 62
     4
100
AcDbPoint
 10
57.0
 20
24.75000000000001
 30
0.0
  0
POINT
  5
1DB
330
53
100
AcDbEntity
  8
1
 62
     4
100
AcDbPoint
 10
57.0
 20
20.75000000000001
 30
0.0
  0
POINT
  5
1DC
330
53
100
AcDbEntity
  8
1
 62
     4
100
AcDbPoint
 10
57.0
 20
12.25
 30
0.0
  0
POINT
  5
1DD
330
53
100
AcDbEntity
  8
1
 62
     4
100
AcDbPoint
 10
34.0
 20
34.00000000000001
 30
0.0
  0
LINE
  5
1DE
330
53
100
AcDbEntity
  8
1
  6
Continuous
 62
     7
100
AcDbLine
 10
105.0
 20
10.0
 30
0.0
 11
200.0
 21
10.0
 31
0.0
  0
LINE
  5
1DF
330
53
100
AcDbEntity
  8
1
  6
Continuous
 62
     2
100
AcDbLine
 10
105.0
 20
10.0
 30
0.0
 11
105.0
 21
5.0
 31
0.0
  0
LINE
  5
1E0
330
53
100
AcDbEntity
  8
1
  6
Continuous
 62
     7
100
AcDbLine
 10
200.0
 20
148.5
 30
0.0
 11
200.0
 21
287.0000000000003
 31
0.0
  0
LINE
  5
1E1
330
53
100
AcDbEntity
  8
1
  6
Continuous
 62
     2
100
AcDbLine
 10
200.0
 20
148.5
 30
0.0
 11
205.0
 21
148.5
 31
0.0
  0
LINE
  5
1E2
330
53
100
AcDbEntity
  8
1
  6
Continuous
 62
     7
100
AcDbLine
 10
25.0
 20
148.5
 30
0.0
 11
25.0
 21
287.0000000000003
 31
0.0
  0
LINE
  5
1E3
330
53
100
AcDbEntity
  8
1
  6
Continuous
 62
     2
100
AcDbLine
 10
25.0
 20
148.5
 30
0.0
 11
20.0
 21
148.5
 31
0.0
  0
LINE
  5
1E4
330
53
100
AcDbEntity
  8
1
  6
Continuous
 62
     7
100
AcDbLine
 10
105.0
 20
287.0000000000003
 30
0.0
 11
25.0
 21
287.0000000000003
 31
0.0
  0
LINE
  5
1E5
330
53
100
AcDbEntity
  8
1
  6
Continuous
 62
     2
100
AcDbLine
 10
105.0
 20
287.0000000000003
 30
0.0
 11
105.0
 21
292.0000000000003
 31
0.0
  0
LINE
  5
1E6
330
53
100
AcDbEntity
  8
1
  6
Continuous
 62
     2
100
AcDbLine
 10
166.0
 20
20.00000000000001
 30
0.0
 11
200.0
 21
20.00000000000001
 31
0.0
  0
LINE
  5
1E7
330
53
100
AcDbEntity
  8
1
  6
Continuous
 62
     2
100
AcDbLine
 10
98.0
 20
27.00000000000001
 30
0.0
 11
98.0
 21
9.99999999999999
 31
0.0
  0
LINE
  5
1E8
330
53
100
AcDbEntity
  8
1
  6
Continuous
 62
     2
100
AcDbLine
 10
115.0
 20
27.00000000000001
 30
0.0
 11
115.0
 21
9.99999999999999
 31
0.0
  0
LINE
  5
1E9
330
53
100
AcDbEntity
  8
1
  6
Continuous
 62
     2
100
AcDbLine
 10
149.0
 20
27.00000000000001
 30
0.0
 11
149.0
 21
10.0
 31
0.0
  0
LINE
  5
1EA
330
53
100
AcDbEntity
  8
1
  6
Continuous
 62
     2
100
AcDbLine
 10
132.0
 20
27.00000000000001
 30
0.0
 11
132.0
 21
9.99999999999999
 31
0.0
  0
LINE
  5
1EB
330
53
100
AcDbEntity
  8
1
  6
Continuous
 62
     2
100
AcDbLine
 10
166.0
 20
27.00000000000001
 30
0.0
 11
166.0
 21
10.0
 31
0.0
  0
LINE
  5
1EC
330
53
100
AcDbEntity
  8
1
  6
Continuous
 62
     2
100
AcDbLine
 10
55.0
 20
277.0000000000003
 30
0.0
 11
25.0
 21
277.0000000000003
 31
0.0
  0
LINE
  5
1ED
330
53
100
AcDbEntity
  8
1
  6
Continuous
 62
     7
100
AcDbLine
 10
25.0
 20
10.0
 30
0.0
 11
25.0
 21
148.5
 31
0.0
  0
LINE
  5
1EE
330
53
100
AcDbEntity
  8
1
  6
Continuous
 62
     2
100
AcDbLine
 10
40.0
 20
287.0000000000003
 30
0.0
 11
40.0
 21
277.0000000000003
 31
0.0
  0
LINE
  5
1EF
330
53
100
AcDbEntity
  8
1
  6
Continuous
 62
     2
100
AcDbLine
 10
55.0
 20
287.0000000000003
 30
0.0
 11
55.0
 21
277.0000000000003
 31
0.0
  0
LINE
  5
1F0
330
53
100
AcDbEntity
  8
1
  6
Continuous
 62
     2
100
AcDbLine
 10
33.0
 20
41.00000000000001
 30
0.0
 11
33.0
 21
27.0
 31
0.0
  0
LINE
  5
1F1
330
53
100
AcDbEntity
  8
1
  6
Continuous
 62
     7
100
AcDbLine
 10
200.0
 20
27.00000000000001
 30
0.0
 11
25.0
 21
27.00000000000001
 31
0.0
  0
LINE
  5
1F2
330
53
100
AcDbEntity
  8
1
  6
Continuous
 62
     7
100
AcDbLine
 10
25.0
 20
41.0
 30
0.0
 11
200.0
 21
41.0
 31
0.0
  0
LINE
  5
1F3
330
53
100
AcDbEntity
  8
1
  6
PHANTOM
 62
     4
100
AcDbLine
 10
0.0
 20
0.0
 30
0.0
 11
210.0
 21
0.0
 31
0.0
  0
LINE
  5
1F4
330
53
100
AcDbEntity
  8
1
  6
PHANTOM
 62
     4
100
AcDbLine
 10
210.0
 20
0.0
 30
0.0
 11
210.0
 21
297.0
 31
0.0
  0
LINE
  5
1F5
330
53
100
AcDbEntity
  8
1
  6
PHANTOM
 62
     4
100
AcDbLine
 10
210.0
 20
297.0
 30
0.0
 11
0.0
 21
297.0
 31
0.0
  0
LINE
  5
1F6
330
53
100
AcDbEntity
  8
1
  6
PHANTOM
 62
     4
100
AcDbLine
 10
0.0
 20
297.0
 30
0.0
 11
0.0
 21
0.0
 31
0.0
  0
LINE
  5
1F7
330
53
100
AcDbEntity
  8
1
  6
Continuous
 62
     7
100
AcDbLine
 10
25.0
 20
10.0
 30
0.0
 11
105.0
 21
10.0
 31
0.0
  0
LINE
  5
1F8
330
53
100
AcDbEntity
  8
1
  6
Continuous
 62
     7
100
AcDbLine
 10
200.0
 20
10.0
 30
0.0
 11
200.0
 21
148.5
 31
0.0
  0
LINE
  5
1F9
330
53
100
AcDbEntity
  8
1
  6
Continuous
 62
     7
100
AcDbLine
 10
200.0
 20
287.0000000000003
 30
0.0
 11
105.0
 21
287.0000000000003
 31
0.0
  0
LINE
  5
1FA
330
53
100
AcDbEntity
  8
1
  6
Continuous
 62
     2
100
AcDbLine
 10
25.0
 20
18.50000000000001
 30
0.0
 11
81.0
 21
18.50000000000001
 31
0.0
  0
LINE
  5
1FB
330
53
100
AcDbEntity
  8
1
  6
Continuous
 62
     2
100
AcDbLine
 10
33.0
 20
27.0
 30
0.0
 11
33.0
 21
10.0
 31
0.0
  0
LINE
  5
1FC
330
53
100
AcDbEntity
  8
1
  6
Continuous
 62
     7
100
AcDbLine
 10
191.0
 20
24.70000000000001
 30
0.0
 11
191.0
 21
22.30000000000001
 31
0.0
  0
LINE
  5
1FD
330
53
100
AcDbEntity
  8
1
  6
Continuous
 62
     7
100
AcDbLine
 10
191.0
 20
24.70000000000001
 30
0.0
 11
196.0
 21
25.50000000000001
 31
0.0
  0
LINE
  5
1FE
330
53
100
AcDbEntity
  8
1
  6
Continuous
 62
     7
100
AcDbLine
 10
196.0
 20
25.50000000000001
 30
0.0
 11
196.0
 21
21.50000000000001
 31
0.0
  0
LINE
  5
1FF
330
53
100
AcDbEntity
  8
1
  6
Continuous
 62
     7
100
AcDbLine
 10
196.0
 20
21.50000000000001
 30
0.0
 11
191.0
 21
22.30000000000001
 31
0.0
  0
LINE
  5
200
330
53
100
AcDbEntity
  8
1
  6
DOT_CENTER
 62
     2
100
AcDbLine
 10
184.0
 20
23.50000000000001
 30
0.0
 11
197.0
 21
23.50000000000001
 31
0.0
  0
LINE
  5
201
330
53
100
AcDbEntity
  8
1
  6
DOT_CENTER
 62
     2
100
AcDbLine
 10
187.0
 20
26.50000000000001
 30
0.0
 11
187.0
 21
20.50000000000001
 31
0.0
  0
LINE
  5
202
330
53
100
AcDbEntity
  8
1
  6
Continuous
 62
     2
100
AcDbLine
 10
81.0
 20
27.00000000000001
 30
0.0
 11
81.0
 21
10.0
 31
0.0
  0
CIRCLE
  5
203
330
53
100
AcDbEntity
  8
1
  6
Continuous
 62
     7
100
AcDbCircle
 10
103.5
 20
12.5
 30
0.0
 40
0.2999999999999972
  0
CIRCLE
  5
204
330
53
100
AcDbEntity
  8
1
  6
Continuous
 62
     7
100
AcDbCircle
 10
109.5
 20
12.5
 30
0.0
 40
0.2999999999999972
  0
CIRCLE
  5
205
330
53
100
AcDbEntity
  8
1
  6
Continuous
 62
     7
100
AcDbCircle
 10
120.5
 20
12.5
 30
0.0
 40
0.2999999999999972
  0
CIRCLE
  5
206
330
53
100
AcDbEntity
  8
1
  6
Continuous
 62
     7
100
AcDbCircle
 10
126.5
 20
12.5
 30
0.0
 40
0.2999999999999972
  0
CIRCLE
  5
207
330
53
100
AcDbEntity
  8
1
  6
Continuous
 62
     7
100
AcDbCircle
 10
137.5
 20
12.5
 30
0.0
 40
0.3000000000000114
  0
CIRCLE
  5
208
330
53
100
AcDbEntity
  8
1
  6
Continuous
 62
     7
100
AcDbCircle
 10
143.5
 20
12.5
 30
0.0
 40
0.3000000000000114
  0
CIRCLE
  5
209
330
53
100
AcDbEntity
  8
1
  6
Continuous
 62
     7
100
AcDbCircle
 10
160.5
 20
12.5
 30
0.0
 40
0.3000000000000114
  0
CIRCLE
  5
20A
330
53
100
AcDbEntity
  8
1
  6
Continuous
 62
     7
100
AcDbCircle
 10
154.5
 20
12.5
 30
0.0
 40
0.3000000000000114
  0
CIRCLE
  5
20B
330
53
100
AcDbEntity
  8
1
  6
Continuous
 62
     7
100
AcDbCircle
 10
187.0
 20
23.50000000000001
 30
0.0
 40
1.200000000000102
  0
CIRCLE
  5
20C
330
53
100
AcDbEntity
  8
1
  6
Continuous
 62
     7
100
AcDbCircle
 10
187.0
 20
23.50000000000001
 30
0.0
 40
2.0
  0
CIRCLE
  5
20D
330
53
100
AcDbEntity
  8
1
  6
DOT_CENTER
 62
     7
100
AcDbCircle
 10
89.5
 20
16.0
 30
0.0
 40
0.1000000000000227
  0
CIRCLE
  5
20E
330
53
100
AcDbEntity
  8
1
  6
DOT_CENTER
 62
     7
100
AcDbCircle
 10
89.5
 20
18.0
 30
0.0
 40
0.1000000000000227
  0
MTEXT
  5
210
330
53
100
AcDbEntity
  8
1
 62
     7
100
AcDbMText
 10
188.5
 20
15.0
 30
0.0
 40
3.0
 41
0.0
 71
     5
 72
     1
  1
三栄水栓製作所
  7
CONVERTER_1
 73
     1
 44
1.32052821128451
  0
MTEXT
  5
211
330
53
100
AcDbEntity
  8
1
 62
     7
100
AcDbMText
 10
171.5
 20
15.0
 30
0.0
 40
2.5
 41
0.0
 71
     5
 72
     1
  1
株式会社
  7
CONVERTER_1
 73
     1
 44
1.32052821128451
  0
MTEXT
  5
212
330
53
100
AcDbEntity
  8
1
 62
     2
100
AcDbMText
 10
32.5
 20
282.0000000000003
 30
0.0
 40
5.0
 41
0.0
 71
     5
 72
     1
  1
図番
  7
CONVERTER_1
 73
     1
 44
0.60024009603842
  0
MTEXT
  5
213
330
53
100
AcDbEntity
  8
1
 62
     2
100
AcDbMText
 10
29.0
 20
34.00000000000001
 30
0.0
 40
3.5
 41
0.0
 71
     5
 72
     1
  1
備考
  7
CONVERTER_1
 73
     1
 44
0.60024009603842
  0
MTEXT
  5
214
330
53
100
AcDbEntity
  8
1
 62
     2
100
AcDbMText
 10
29.0
 20
22.75
 30
0.0
 40
3.5
 41
0.0
 71
     5
 72
     1
  1
品名
  7
CONVERTER_1
 73
     1
 44
0.96038415366146
  0
MTEXT
  5
215
330
53
100
AcDbEntity
  8
1
 62
     2
100
AcDbMText
 10
29.0
 20
14.25
 30
0.0
 40
3.5
 41
0.0
 71
     5
 72
     1
  1
品番
  7
CONVERTER_1
 73
     1
 44
0.96038415366146
  0
MTEXT
  5
216
330
53
100
AcDbEntity
  8
1
 62
     2
100
AcDbMText
 10
101.5
 20
25.00000000000001
 30
0.0
 40
3.0
 41
0.0
 71
     5
 72
     1
  1
承認
  7
CONVERTER_1
 73
     1
 44
0.78031212484994
  0
MTEXT
  5
217
330
53
100
AcDbEntity
  8
1
 62
     2
100
AcDbMText
 10
175.0
 20
23.50000000000001
 30
0.0
 40
3.5
 41
0.0
 71
     5
 72
     1
  1
第三角法
  7
CONVERTER_1
 73
     1
 44
0.7202881152461
  0
MTEXT
  5
218
330
53
100
AcDbEntity
  8
1
 62
     2
100
AcDbMText
 10
118.5
 20
25.00000000000001
 30
0.0
 40
3.0
 41
0.0
 71
     5
 72
     1
  1
検図
  7
CONVERTER_1
 73
     1
 44
0.78031212484994
  0
MTEXT
  5
219
330
53
100
AcDbEntity
  8
1
 62
     2
100
AcDbMText
 10
152.5
 20
25.00000000000001
 30
0.0
 40
3.0
 41
0.0
 71
     5
 72
     1
  1
設計
  7
CONVERTER_1
 73
     1
 44
0.78031212484994
  0
MTEXT
  5
21A
330
53
100
AcDbEntity
  8
1
 62
     2
100
AcDbMText
 10
135.5
 20
25.00000000000001
 30
0.0
 40
3.0
 41
0.0
 71
     5
 72
     1
  1
製図
  7
CONVERTER_1
 73
     1
 44
0.78031212484994
  0
MTEXT
  5
21B
330
53
100
AcDbEntity
  8
1
 62
     2
100
AcDbMText
 10
89.5
 20
24.00000000000001
 30
0.0
 40
3.5
 41
0.0
 71
     5
 72
     1
  1
尺度
  7
CONVERTER_1
 73
     1
 44
0.7202881152461
  0
MTEXT
  5
21C
330
53
100
AcDbEntity
  8
1
 62
   250
100
AcDbMText
 10
25.0
 20
5.0
 30
0.0
 40
3.5
 41
0.0
 71
     4
 72
     1
  1
備考欄の文字列 原点位置=4
  7
CONVERTER_1
 73
     1
 44
0.7202881152461
  0
ENDBLK
  5
55
330
53
100
AcDbEntity
  8
0
100
AcDbBlockEnd
  0
BLOCK
  5
23E
330
236
100
AcDbEntity
  8
0
100
AcDbBlockBegin
  2
*D010
 70
     1
 71
     0
 10
0.0
 20
0.0
 30
0.0
  3
*D010
  1

  0
LINE
  5
237
330
236
100
AcDbEntity
  8
1
  6
Continuous
 62
     2
100
AcDbLine
 10
148.3430973374913
 20
345.2901823463838
 30
0.0
 11
171.3430973374916
 21
345.2901823463838
 31
0.0
  0
LINE
  5
238
330
236
100
AcDbEntity
  8
1
  6
Continuous
 62
     2
100
AcDbLine
 10
135.157362267638
 20
345.2901823463838
 30
0.0
 11
148.3430973374913
 21
345.2901823463838
 31
0.0
  0
LINE
  5
239
330
236
100
AcDbEntity
  8
1
  6
Continuous
 62
     2
100
AcDbLine
 10
148.3430973374913
 20
366.0223554699577
 30
0.0
 11
148.3430973374913
 21
343.2901823463838
 31
0.0
  0
LINE
  5
23A
330
236
100
AcDbEntity
  8
1
  6
Continuous
 62
     2
100
AcDbLine
 10
171.3430973374916
 20
366.0223554699576
 30
0.0
 11
171.3430973374916
 21
343.2901823463838
 31
0.0
  0
SOLID
  5
23B
330
236
100
AcDbEntity
  8
1
 62
     2
100
AcDbTrace
 10
155.3430973374913
 20
346.2117498294956
 30
0.0
 11
155.3430973374913
 21
344.3686148632721
 31
0.0
 12
148.3430973374913
 22
345.2901823463838
 32
0.0
 13
148.3430973374913
 23
345.2901823463838
 33
0.0
  0
SOLID
  5
23C
330
236
100
AcDbEntity
  8
1
 62
     2
100
AcDbTrace
 10
164.3430973374916
 20
344.3686148632721
 30
0.0
 11
164.3430973374916
 21
346.2117498294956
 31
0.0
 12
171.3430973374916
 22
345.2901823463838
 32
0.0
 13
171.3430973374916
 23
345.2901823463838
 33
0.0
  0
MTEXT
  5
23D
330
236
100
AcDbEntity
  8
1
 62
     7
100
AcDbMText
 10
135.157362267638
 20
347.2901823463838
 30
0.0
 40
7.0
 41
0.0
 71
     7
 72
     1
  1
23
  7
CONVERTER_2
 11
0.9999999999970621
 21
2.424068405545307E-6
 31
0.0
 73
     1
 44
0.60024009603842
  0
ENDBLK
  5
23F
330
236
100
AcDbEntity
  8
0
100
AcDbBlockEnd
  0
BLOCK
  5
24B
330
242
100
AcDbEntity
  8
0
100
AcDbBlockBegin
  2
*D111
 70
     1
 71
     0
 10
0.0
 20
0.0
 30
0.0
  3
*D111
  1

  0
LINE
  5
243
330
242
100
AcDbEntity
  8
1
  6
Continuous
 62
     2
100
AcDbLine
 10
119.0430973374913
 20
431.267682346372
 30
0.0
 11
105.0430973374913
 21
431.267682346372
 31
0.0
  0
LINE
  5
244
330
242
100
AcDbEntity
  8
1
  6
Continuous
 62
     2
100
AcDbLine
 10
135.8430973374913
 20
431.267682346372
 30
0.0
 11
119.0430973374913
 21
431.267682346372
 31
0.0
  0
LINE
  5
245
330
242
100
AcDbEntity
  8
1
  6
Continuous
 62
     2
100
AcDbLine
 10
149.8430973374913
 20
431.267682346372
 30
0.0
 11
135.8430973374913
 21
431.267682346372
 31
0.0
  0
LINE
  5
246
330
242
100
AcDbEntity
  8
1
  6
Continuous
 62
     2
100
AcDbLine
 10
135.8430973374913
 20
411.267682346372
 30
0.0
 11
135.8430973374913
 21
433.267682346372
 31
0.0
  0
LINE
  5
247
330
242
100
AcDbEntity
  8
1
  6
Continuous
 62
     2
100
AcDbLine
 10
119.0430973374913
 20
410.1281823463722
 30
0.0
 11
119.0430973374913
 21
433.267682346372
 31
0.0
  0
SOLID
  5
248
330
242
100
AcDbEntity
  8
1
 62
     2
100
AcDbTrace
 10
142.8430973374913
 20
432.1892498294837
 30
0.0
 11
142.8430973374913
 21
430.3461148632603
 31
0.0
 12
135.8430973374913
 22
431.267682346372
 32
0.0
 13
135.8430973374913
 23
431.267682346372
 33
0.0
  0
SOLID
  5
249
330
242
100
AcDbEntity
  8
1
 62
     2
100
AcDbTrace
 10
112.0430973374913
 20
430.3461148632603
 30
0.0
 11
112.0430973374913
 21
432.1892498294837
 31
0.0
 12
119.0430973374913
 22
431.267682346372
 32
0.0
 13
119.0430973374913
 23
431.267682346372
 33
0.0
  0
MTEXT
  5
24A
330
242
100
AcDbEntity
  8
1
 62
     7
100
AcDbMText
 10
122.004024637832
 20
433.267682346372
 30
0.0
 40
7.0
 41
0.0
 71
     7
 72
     1
  1
16
  7
CONVERTER_2
 11
0.9999999999970621
 21
2.424068405545307E-6
 31
0.0
 73
     1
 44
0.60024009603842
  0
ENDBLK
  5
24C
330
242
100
AcDbEntity
  8
0
100
AcDbBlockEnd
  0
BLOCK
  5
256
330
24F
100
AcDbEntity
  8
0
100
AcDbBlockBegin
  2
*D212
 70
     1
 71
     0
 10
0.0
 20
0.0
 30
0.0
  3
*D212
  1

  0
LINE
  5
250
330
24F
100
AcDbEntity
  8
1
  6
Continuous
 62
     2
100
AcDbLine
 10
119.0430973374913
 20
329.2901823463841
 30
0.0
 11
159.8430973374884
 21
329.2901823463841
 31
0.0
  0
LINE
  5
251
330
24F
100
AcDbEntity
  8
1
  6
Continuous
 62
     2
100
AcDbLine
 10
119.0430973374913
 20
391.4521823463716
 30
0.0
 11
119.0430973374913
 21
327.2901823463841
 31
0.0
  0
LINE
  5
252
330
24F
100
AcDbEntity
  8
1
  6
Continuous
 62
     2
100
AcDbLine
 10
159.8430973374884
 20
359.2901823463841
 30
0.0
 11
159.8430973374884
 21
327.2901823463841
 31
0.0
  0
SOLID
  5
253
330
24F
100
AcDbEntity
  8
1
 62
     2
100
AcDbTrace
 10
126.0430973374913
 20
330.2117498294958
 30
0.0
 11
126.0430973374913
 21
328.3686148632723
 31
0.0
 12
119.0430973374913
 22
329.2901823463841
 32
0.0
 13
119.0430973374913
 23
329.2901823463841
 33
0.0
  0
SOLID
  5
254
330
24F
100
AcDbEntity
  8
1
 62
     2
100
AcDbTrace
 10
152.8430973374884
 20
328.3686148632723
 30
0.0
 11
152.8430973374884
 21
330.2117498294958
 31
0.0
 12
159.8430973374884
 22
329.2901823463841
 32
0.0
 13
159.8430973374884
 23
329.2901823463841
 33
0.0
  0
MTEXT
  5
255
330
24F
100
AcDbEntity
  8
1
 62
     7
100
AcDbMText
 10
133.828311769424
 20
331.2901823463841
 30
0.0
 40
7.0
 41
0.0
 71
     7
 72
     1
  1
41
  7
CONVERTER_2
 11
0.9999999999970621
 21
2.424068405545307E-6
 31
0.0
 73
     1
 44
0.60024009603842
  0
ENDBLK
  5
257
330
24F
100
AcDbEntity
  8
0
100
AcDbBlockEnd
  0
BLOCK
  5
261
330
25A
100
AcDbEntity
  8
0
100
AcDbBlockBegin
  2
*D313
 70
     1
 71
     0
 10
0.0
 20
0.0
 30
0.0
  3
*D313
  1

  0
LINE
  5
25B
330
25A
100
AcDbEntity
  8
1
  6
Continuous
 62
     2
100
AcDbLine
 10
194.8430973374913
 20
329.2901823463841
 30
0.0
 11
159.8430973374884
 21
329.2901823463841
 31
0.0
  0
LINE
  5
25C
330
25A
100
AcDbEntity
  8
1
  6
Continuous
 62
     2
100
AcDbLine
 10
194.8430973374913
 20
387.7901823463718
 30
0.0
 11
194.8430973374913
 21
327.2901823463841
 31
0.0
  0
LINE
  5
25D
330
25A
100
AcDbEntity
  8
1
  6
Continuous
 62
     2
100
AcDbLine
 10
159.8430973374884
 20
359.2901823463841
 30
0.0
 11
159.8430973374884
 21
327.2901823463841
 31
0.0
  0
SOLID
  5
25E
330
25A
100
AcDbEntity
  8
1
 62
     2
100
AcDbTrace
 10
187.8430973374913
 20
328.3686148632723
 30
0.0
 11
187.8430973374913
 21
330.2117498294958
 31
0.0
 12
194.8430973374913
 22
329.2901823463841
 32
0.0
 13
194.8430973374913
 23
329.2901823463841
 33
0.0
  0
SOLID
  5
25F
330
25A
100
AcDbEntity
  8
1
 62
     2
100
AcDbTrace
 10
166.8430973374884
 20
330.2117498294958
 30
0.0
 11
166.8430973374884
 21
328.3686148632723
 31
0.0
 12
159.8430973374884
 22
329.2901823463841
 32
0.0
 13
159.8430973374884
 23
329.2901823463841
 33
0.0
  0
MTEXT
  5
260
330
25A
100
AcDbEntity
  8
1
 62
     7
100
AcDbMText
 10
170.937868306753
 20
331.2901823463841
 30
0.0
 40
7.0
 41
0.0
 71
     7
 72
     1
  1
35
  7
CONVERTER_2
 11
0.9999999999970621
 21
2.424068405545307E-6
 31
0.0
 73
     1
 44
0.60024009603842
  0
ENDBLK
  5
262
330
25A
100
AcDbEntity
  8
0
100
AcDbBlockEnd
  0
BLOCK
  5
26C
330
265
100
AcDbEntity
  8
0
100
AcDbBlockBegin
  2
*D414
 70
     1
 71
     0
 10
0.0
 20
0.0
 30
0.0
  3
*D414
  1

  0
LINE
  5
266
330
265
100
AcDbEntity
  8
1
  6
Continuous
 62
     2
100
AcDbLine
 10
214.8430973374915
 20
261.790182346372
 30
0.0
 11
214.8430973374915
 21
235.7901823463721
 31
0.0
  0
LINE
  5
267
330
265
100
AcDbEntity
  8
1
  6
Continuous
 62
     2
100
AcDbLine
 10
194.8430973374915
 20
261.790182346372
 30
0.0
 11
216.8430973374915
 21
261.790182346372
 31
0.0
  0
LINE
  5
268
330
265
100
AcDbEntity
  8
1
  6
Continuous
 62
     2
100
AcDbLine
 10
194.8430973374915
 20
235.7901823463721
 30
0.0
 11
216.8430973374915
 21
235.7901823463721
 31
0.0
  0
SOLID
  5
269
330
265
100
AcDbEntity
  8
1
 62
     2
100
AcDbTrace
 10
215.7646648206033
 20
254.790182346372
 30
0.0
 11
213.9215298543797
 21
254.790182346372
 31
0.0
 12
214.8430973374915
 22
261.790182346372
 32
0.0
 13
214.8430973374915
 23
261.790182346372
 33
0.0
  0
SOLID
  5
26A
330
265
100
AcDbEntity
  8
1
 62
     2
100
AcDbTrace
 10
213.9215298543797
 20
242.7901823463721
 30
0.0
 11
215.7646648206033
 21
242.7901823463721
 31
0.0
 12
214.8430973374915
 22
235.7901823463721
 32
0.0
 13
214.8430973374915
 23
235.7901823463721
 33
0.0
  0
MTEXT
  5
26B
330
265
100
AcDbEntity
  8
1
 62
     7
100
AcDbMText
 10
212.8430973374915
 20
244.873827830184
 30
0.0
 40
7.0
 41
0.0
 71
     7
 72
     1
  1
26
  7
CONVERTER_2
 11
0.0
 21
1.0
 31
0.0
 73
     1
 44
0.60024009603842
  0
ENDBLK
  5
26D
330
265
100
AcDbEntity
  8
0
100
AcDbBlockEnd
  0
BLOCK
  5
277
330
270
100
AcDbEntity
  8
0
100
AcDbBlockBegin
  2
*D515
 70
     1
 71
     0
 10
0.0
 20
0.0
 30
0.0
  3
*D515
  1

  0
LINE
  5
271
330
270
100
AcDbEntity
  8
1
  6
Continuous
 62
     2
100
AcDbLine
 10
119.0430973374913
 20
215.7901823463721
 30
0.0
 11
194.8430973374915
 21
215.7901823463721
 31
0.0
  0
LINE
  5
272
330
270
100
AcDbEntity
  8
1
  6
Continuous
 62
     2
100
AcDbLine
 10
119.0430973374913
 20
239.4521823463842
 30
0.0
 11
119.0430973374913
 21
213.7901823463721
 31
0.0
  0
LINE
  5
273
330
270
100
AcDbEntity
  8
1
  6
Continuous
 62
     2
100
AcDbLine
 10
194.8430973374915
 20
235.7901823463721
 30
0.0
 11
194.8430973374915
 21
213.7901823463721
 31
0.0
  0
SOLID
  5
274
330
270
100
AcDbEntity
  8
1
 62
     2
100
AcDbTrace
 10
126.0430973374913
 20
216.7117498294839
 30
0.0
 11
126.0430973374913
 21
214.8686148632603
 31
0.0
 12
119.0430973374913
 22
215.7901823463721
 32
0.0
 13
119.0430973374913
 23
215.7901823463721
 33
0.0
  0
SOLID
  5
275
330
270
100
AcDbEntity
  8
1
 62
     2
100
AcDbTrace
 10
187.8430973374915
 20
214.8686148632603
 30
0.0
 11
187.8430973374915
 21
216.7117498294839
 31
0.0
 12
194.8430973374915
 22
215.7901823463721
 32
0.0
 13
194.8430973374915
 23
215.7901823463721
 33
0.0
  0
MTEXT
  5
276
330
270
100
AcDbEntity
  8
1
 62
     7
100
AcDbMText
 10
153.43814222311
 20
217.7901823463721
 30
0.0
 40
7.0
 41
0.0
 71
     7
 72
     1
  1
76
  7
CONVERTER_2
 11
0.9999999999970621
 21
2.424068405545307E-6
 31
0.0
 73
     1
 44
0.60024009603842
  0
ENDBLK
  5
278
330
270
100
AcDbEntity
  8
0
100
AcDbBlockEnd
  0
BLOCK
  5
282
330
27B
100
AcDbEntity
  8
0
100
AcDbBlockBegin
  2
*D616
 70
     1
 71
     0
 10
0.0
 20
0.0
 30
0.0
  3
*D616
  1

  0
LINE
  5
27C
330
27B
100
AcDbEntity
  8
1
  6
Continuous
 62
     2
100
AcDbLine
 10
359.4136822628622
 20
248.7901823463719
 30
0.0
 11
359.4136822628622
 21
306.0840821240377
 31
0.0
  0
LINE
  5
27D
330
27B
100
AcDbEntity
  8
1
  6
Continuous
 62
     2
100
AcDbLine
 10
329.3430973375036
 20
248.7901823463719
 30
0.0
 11
361.4136822628622
 21
248.7901823463719
 31
0.0
  0
LINE
  5
27E
330
27B
100
AcDbEntity
  8
1
  6
Continuous
 62
     2
100
AcDbLine
 10
311.8430973375036
 20
306.0840821240377
 30
0.0
 11
361.4136822628622
 21
306.0840821240377
 31
0.0
  0
SOLID
  5
27F
330
27B
100
AcDbEntity
  8
1
 62
     2
100
AcDbTrace
 10
358.4921147797505
 20
255.7901823463719
 30
0.0
 11
360.335249745974
 21
255.7901823463719
 31
0.0
 12
359.4136822628622
 22
248.7901823463719
 32
0.0
 13
359.4136822628622
 23
248.7901823463719
 33
0.0
  0
SOLID
  5
280
330
27B
100
AcDbEntity
  8
1
 62
     2
100
AcDbTrace
 10
360.335249745974
 20
299.0840821240377
 30
0.0
 11
358.4921147797505
 21
299.0840821240377
 31
0.0
 12
359.4136822628622
 22
306.0840821240377
 32
0.0
 13
359.4136822628622
 23
306.0840821240377
 33
0.0
  0
MTEXT
  5
281
330
27B
100
AcDbEntity
  8
1
 62
     7
100
AcDbMText
 10
357.4136822628622
 20
258.5371322352048
 30
0.0
 40
7.0
 41
0.0
 71
     7
 72
     1
  1
58リフト5
  7
CONVERTER_1
 11
0.0
 21
1.0
 31
0.0
 73
     1
 44
0.60024009603842
  0
ENDBLK
  5
283
330
27B
100
AcDbEntity
  8
0
100
AcDbBlockEnd
  0
BLOCK
  5
28D
330
286
100
AcDbEntity
  8
0
100
AcDbBlockBegin
  2
*D717
 70
     1
 71
     0
 10
0.0
 20
0.0
 30
0.0
  3
*D717
  1

  0
LINE
  5
287
330
286
100
AcDbEntity
  8
1
  6
Continuous
 62
     2
100
AcDbLine
 10
276.3430973375035
 20
215.790182346372
 30
0.0
 11
311.8430973375027
 21
215.790182346372
 31
0.0
  0
LINE
  5
288
330
286
100
AcDbEntity
  8
1
  6
Continuous
 62
     2
100
AcDbLine
 10
311.8430973375027
 20
229.7901823463721
 30
0.0
 11
311.8430973375027
 21
213.790182346372
 31
0.0
  0
LINE
  5
289
330
286
100
AcDbEntity
  8
1
  6
Continuous
 62
     2
100
AcDbLine
 10
276.3430973375035
 20
237.7901823463718
 30
0.0
 11
276.3430973375035
 21
213.790182346372
 31
0.0
  0
SOLID
  5
28A
330
286
100
AcDbEntity
  8
1
 62
     2
100
AcDbTrace
 10
283.3430973375035
 20
216.7117498294838
 30
0.0
 11
283.3430973375035
 21
214.8686148632602
 31
0.0
 12
276.3430973375035
 22
215.790182346372
 32
0.0
 13
276.3430973375035
 23
215.790182346372
 33
0.0
  0
SOLID
  5
28B
330
286
100
AcDbEntity
  8
1
 62
     2
100
AcDbTrace
 10
304.8430973375027
 20
214.8686148632602
 30
0.0
 11
304.8430973375027
 21
216.7117498294838
 31
0.0
 12
311.8430973375027
 22
215.790182346372
 32
0.0
 13
311.8430973375027
 23
215.790182346372
 33
0.0
  0
MTEXT
  5
28C
330
286
100
AcDbEntity
  8
1
 62
     7
100
AcDbMText
 10
289.248309118793
 20
217.790182346372
 30
0.0
 40
7.0
 41
0.0
 71
     7
 72
     1
  1
36
  7
CONVERTER_2
 11
0.9999999999970621
 21
2.424068405545307E-6
 31
0.0
 73
     1
 44
0.60024009603842
  0
ENDBLK
  5
28E
330
286
100
AcDbEntity
  8
0
100
AcDbBlockEnd
  0
ENDSEC
  0
SECTION
  2
ENTITIES
  0
INSERT
  5
56
330
1F
100
AcDbEntity
  8
1
100
AcDbBlockReference
  2
B41A-240-13
 10
1112.121361746919
 20
-318.8816946935094
 30
0.0
  0
INSERT
  5
57
330
1F
100
AcDbEntity
  8
1
100
AcDbBlockReference
  2
R10AK-13Z
 10
496.9999999999877
 20
681.9000000000002
 30
0.0
  0
INSERT
  5
58
330
1F
100
AcDbEntity
  8
1
100
AcDbBlockReference
  2
B4121L-0B-13-M11
 10
420.0
 20
594.0
 30
0.0
  0
INSERT
  5
59
330
1F
100
AcDbEntity
  8
1
100
AcDbBlockReference
  2
_J__A4
 10
0.0
 20
0.0
 30
0.0
 41
2.0
 42
2.0
 43
2.0
  0
LINE
  5
21D
330
1F
100
AcDbEntity
  8
1
  6
DASH_CENTER
 62
     2
100
AcDbLine
 10
159.8430973374913
 20
309.0901823463721
 30
0.0
 11
159.8430973374913
 21
232.7901823463721
 31
0.0
  0
LINE
  5
21E
330
1F
100
AcDbEntity
  8
0
  6
DASH_CENTER
 62
     2
100
AcDbLine
 10
116.0430973374913
 20
400.7901823463718
 30
0.0
 11
200.8430973374913
 21
400.7901823463718
 31
0.0
  0
LINE
  5
21F
330
1F
100
AcDbEntity
  8
0
  6
DASH_CENTER
 62
     2
100
AcDbLine
 10
116.0430973374913
 20
248.790182346372
 30
0.0
 11
197.8430973374914
 21
248.790182346372
 31
0.0
  0
LINE
  5
220
330
1F
100
AcDbEntity
  8
1
  6
DASH_CENTER
 62
     2
100
AcDbLine
 10
311.8430973375027
 20
229.7901823463721
 30
0.0
 11
311.8430973375036
 21
309.0840821240377
 31
0.0
  0
LINE
  5
221
330
1F
100
AcDbEntity
  8
0
  6
DASH_CENTER
 62
     2
100
AcDbLine
 10
273.3430973375039
 20
248.790182346372
 30
0.0
 11
329.3430973375036
 21
248.790182346372
 31
0.0
  0
LINE
  5
222
330
1F
100
AcDbEntity
  8
1
  6
DASH_CENTER
 62
     2
100
AcDbLine
 10
178.3430973374913
 20
432.8331222863967
 30
0.0
 11
149.8587611847208
 21
383.4968048499273
 31
0.0
  0
LINE
  5
223
330
1F
100
AcDbEntity
  8
1
  6
DASH_CENTER
 62
     2
100
AcDbLine
 10
149.8587611847208
 20
418.0835598428178
 30
0.0
 11
178.3430973374912
 21
368.7472424063483
 31
0.0
  0
LINE
  5
224
330
1F
100
AcDbEntity
  8
0
  6
DASH_CENTER
 62
     2
100
AcDbLine
 10
159.8430973374884
 20
424.4260988152219
 30
0.0
 11
159.8430973374884
 21
359.2901823463841
 31
0.0
  0
SOLID
  5
225
330
1F
100
AcDbEntity
  8
1
 62
     2
100
AcDbTrace
 10
127.1761711354042
 20
264.4932429292628
 30
0.0
 11
128.69042739777
 21
265.5440399960658
 31
0.0
 12
131.9240973374913
 22
259.2676823463719
 32
0.0
 13
131.9240973374913
 23
259.2676823463719
 33
0.0
  0
LEADER
  5
226
330
1F
100
AcDbEntity
  8
1
  6
Continuous
 62
     2
100
AcDbLeader
  3
Standard
 71
     0
 76
     3
 10
131.9240973374913
 20
259.2676823463719
 30
0.0
 10
118.211254794137
 20
279.0286412908871
 30
0.0
 10
94.43430362015801
 20
279.0286412908871
 30
0.0
  0
SOLID
  5
227
330
1F
100
AcDbEntity
  8
1
 62
     2
100
AcDbTrace
 10
144.1034134750476
 20
376.3627369308207
 30
0.0
 11
142.8961448294049
 21
377.7554497228076
 31
0.0
 12
148.7891311110158
 22
381.6441512169665
 32
0.0
 13
148.7891311110158
 23
381.6441512169665
 33
0.0
  0
LEADER
  5
228
330
1F
100
AcDbEntity
  8
1
  6
Continuous
 62
     2
100
AcDbLeader
  3
Standard
 71
     0
 76
     3
 10
148.7891311110158
 20
381.6441512169665
 30
0.0
 10
130.5546038451155
 20
365.8376093636148
 30
0.0
 10
97.0986886557385
 20
365.8376093636148
 30
0.0
  0
SOLID
  5
229
330
1F
100
AcDbEntity
  8
1
 62
     2
100
AcDbTrace
 10
198.8388273145839
 20
232.2367349513088
 30
0.0
 11
197.1961040708602
 21
231.4009079068518
 31
0.0
 12
194.8430973374914
 22
238.057682346372
 32
0.0
 13
194.8430973374914
 23
238.057682346372
 33
0.0
  0
LEADER
  5
22A
330
1F
100
AcDbEntity
  8
1
  6
Continuous
 62
     2
100
AcDbLeader
  3
Standard
 71
     0
 76
     3
 10
194.8430973374914
 20
238.057682346372
 30
0.0
 10
206.1729295435895
 20
215.790182346372
 30
0.0
 10
241.2424738470005
 20
215.790182346372
 30
0.0
  0
MTEXT
  5
22C
330
1F
100
AcDbEntity
  8
1
 62
     7
100
AcDbMText
 10
187.5
 20
34.0
 30
0.0
 40
7.0
 41
0.0
 71
     5
 72
     1
  1
2
  7
CONVERTER_2
 73
     1
 44
0.7202881152461
  0
MTEXT
  5
22D
330
1F
100
AcDbEntity
  8
1
 62
     7
100
AcDbMText
 10
170.5
 20
34.0
 30
0.0
 40
7.0
 41
0.0
 71
     5
 72
     1
  1
1
  7
CONVERTER_2
 73
     1
 44
0.7202881152461
  0
MTEXT
  5
22E
330
1F
100
AcDbEntity
  8
1
 62
     7
100
AcDbMText
 10
114.0
 20
28.5
 30
0.0
 40
7.0
 41
0.0
 71
     5
 72
     1
  1
B4121-L-13
  7
CONVERTER_2
 73
     1
 44
0.7202881152461
  0
MTEXT
  5
22F
330
1F
100
AcDbEntity
  8
1
 62
     7
100
AcDbMText
 10
114.0
 20
45.50000000000002
 30
0.0
 40
7.0
 41
0.0
 71
     5
 72
     1
  1
ストレート分岐バルブ
  7
CONVERTER_1
 73
     1
 44
0.7202881152461
  0
MTEXT
  5
230
330
1F
100
AcDbEntity
  8
1
 62
     7
100
AcDbMText
 10
106.8430973374914
 20
285.0286412908871
 30
0.0
 40
7.0
 41
0.0
 71
     5
 72
     1
  1
G1/2
  7
CONVERTER_2
 73
     1
 44
0.7202881152461
  0
MTEXT
  5
231
330
1F
100
AcDbEntity
  8
1
 62
     7
100
AcDbMText
 10
107.8430973374914
 20
371.8376093636148
 30
0.0
 40
7.0
 41
0.0
 71
     5
 72
     1
  1
G1/2
  7
CONVERTER_2
 73
     1
 44
0.7202881152461
  0
MTEXT
  5
232
330
1F
100
AcDbEntity
  8
1
 62
     7
100
AcDbMText
 10
223.8430973374914
 20
221.790182346372
 30
0.0
 40
7.0
 41
0.0
 71
     5
 72
     1
  1
Rc1/2
  7
CONVERTER_2
 73
     1
 44
0.7202881152461
  0
MTEXT
  5
233
330
1F
100
AcDbEntity
  8
1
 62
     7
100
AcDbMText
 10
68.0
 20
77.33333333333334
 30
0.0
 40
7.0
 41
0.0
 71
     4
 72
     1
  1
JIS
  7
CONVERTER_2
 73
     1
 44
0.7202881152461
  0
MTEXT
  5
234
330
1F
100
AcDbEntity
  8
1
 62
     7
100
AcDbMText
 10
68.0
 20
58.66666666666669
 30
0.0
 40
7.0
 41
0.0
 71
     4
 72
     1
  1
ハンドル操作により分岐側も同時に吐止水
  7
CONVERTER_1
 73
     1
 44
0.7202881152461
  0
MTEXT
  5
235
330
1F
100
AcDbEntity
  8
1
 62
     7
100
AcDbMText
 10
68.0
 20
68.00000000000001
 30
0.0
 40
7.0
 41
0.0
 71
     4
 72
     1
  1
共用形
  7
CONVERTER_1
 73
     1
 44
0.7202881152461
  0
DIMENSION
  5
241
330
1F
100
AcDbEntity
  8
1
100
AcDbDimension
  2
*D010
 10
148.3430973374913
 20
345.2901823463838
 30
0.0
 11
140.407362267638
 21
350.7901823463838
 31
0.0
  1
<>
 71
     5
 42
0.0
 53
0.00013888888889
  3
ME10_DIM_0
100
AcDbAlignedDimension
 13
171.3430973374916
 23
366.0223554699576
 33
0.0
 14
148.3430973374913
 24
366.0223554699577
 34
0.0
100
AcDbRotatedDimension
  0
DIMENSION
  5
24E
330
1F
100
AcDbEntity
  8
1
100
AcDbDimension
  2
*D111
 10
135.8430973374913
 20
431.267682346372
 30
0.0
 11
126.204024637832
 21
436.767682346372
 31
0.0
  1
16
 71
     5
 42
0.0
 53
0.00013888888889
  3
ME10_DIM_1
100
AcDbAlignedDimension
 13
119.0430973374913
 23
410.1281823463722
 33
0.0
 14
135.8430973374913
 24
411.267682346372
 34
0.0
100
AcDbRotatedDimension
  0
DIMENSION
  5
259
330
1F
100
AcDbEntity
  8
1
100
AcDbDimension
  2
*D212
 10
119.0430973374913
 20
329.2901823463841
 30
0.0
 11
138.028311769424
 21
334.7901823463841
 31
0.0
  1
41
 71
     5
 42
0.0
 53
0.00013888888889
  3
ME10_DIM_2
100
AcDbAlignedDimension
 13
159.8430973374884
 23
359.2901823463841
 33
0.0
 14
119.0430973374913
 24
391.4521823463716
 34
0.0
100
AcDbRotatedDimension
  0
DIMENSION
  5
264
330
1F
100
AcDbEntity
  8
1
100
AcDbDimension
  2
*D313
 10
194.8430973374913
 20
329.2901823463841
 30
0.0
 11
176.187868306753
 21
334.7901823463841
 31
0.0
  1
<>
 71
     5
 42
0.0
 53
0.00013888888889
  3
ME10_DIM_3
100
AcDbAlignedDimension
 13
159.8430973374884
 23
359.2901823463841
 33
0.0
 14
194.8430973374913
 24
387.7901823463718
 34
0.0
100
AcDbRotatedDimension
  0
DIMENSION
  5
26F
330
1F
100
AcDbEntity
  8
1
100
AcDbDimension
  2
*D414
 10
214.8430973374915
 20
261.790182346372
 30
0.0
 11
209.3430973374915
 21
250.123827830184
 31
0.0
  1
<>
 71
     5
 42
0.0
 53
90.0
  3
ME10_DIM_4
100
AcDbAlignedDimension
 13
194.8430973374915
 23
235.7901823463721
 33
0.0
 14
194.8430973374915
 24
261.790182346372
 34
0.0
 50
90.0
100
AcDbRotatedDimension
  0
DIMENSION
  5
27A
330
1F
100
AcDbEntity
  8
1
100
AcDbDimension
  2
*D515
 10
119.0430973374913
 20
215.7901823463721
 30
0.0
 11
158.68814222311
 21
221.2901823463721
 31
0.0
  1
76
 71
     5
 42
0.0
 53
0.00013888888889
  3
ME10_DIM_5
100
AcDbAlignedDimension
 13
194.8430973374915
 23
235.7901823463721
 33
0.0
 14
119.0430973374913
 24
239.4521823463842
 34
0.0
100
AcDbRotatedDimension
  0
DIMENSION
  5
285
330
1F
100
AcDbEntity
  8
1
100
AcDbDimension
  2
*D616
 10
359.4136822628622
 20
248.7901823463719
 30
0.0
 11
353.9136822628622
 21
277.4371322352048
 31
0.0
  1
58リフト5
 71
     5
 42
0.0
 53
90.0
  3
ME10_DIM_6
100
AcDbAlignedDimension
 13
311.8430973375036
 23
306.0840821240377
 33
0.0
 14
329.3430973375036
 24
248.790182346372
 34
0.0
 50
90.0
100
AcDbRotatedDimension
  0
DIMENSION
  5
290
330
1F
100
AcDbEntity
  8
1
100
AcDbDimension
  2
*D717
 10
276.3430973375035
 20
215.790182346372
 30
0.0
 11
294.498309118793
 21
221.290182346372
 31
0.0
  1
36
 71
     5
 42
0.0
 53
0.00013888888889
  3
ME10_DIM_7
100
AcDbAlignedDimension
 13
311.8430973375027
 23
229.7901823463721
 33
0.0
 14
276.3430973375035
 24
237.7901823463718
 34
0.0
100
AcDbRotatedDimension
  0
ENDSEC
  0
SECTION
  2
OBJECTS
  0
DICTIONARY
  5
C
330
0
100
AcDbDictionary
281
     1
  3
ACAD_GROUP
350
D
  3
ACAD_LAYOUT
350
1A
  3
ACAD_MLINESTYLE
350
17
  3
ACAD_PLOTSETTINGS
350
19
  3
ACAD_PLOTSTYLENAME
350
E
  3
ACAD_TABLESTYLE
350
2A
  3
AcDbVariableDictionary
350
2C
  0
DICTIONARY
  5
D
102
{ACAD_REACTORS
330
C
102
}
330
C
100
AcDbDictionary
281
     1
  0
DICTIONARY
  5
1A
102
{ACAD_REACTORS
330
C
102
}
330
C
100
AcDbDictionary
281
     1
  3
Layout1
350
1E
  3
Layout2
350
26
  3
Model
350
22
  0
DICTIONARY
  5
17
102
{ACAD_REACTORS
330
C
102
}
330
C
100
AcDbDictionary
281
     1
  3
Standard
350
18
  0
DICTIONARY
  5
19
102
{ACAD_REACTORS
330
C
102
}
330
C
100
AcDbDictionary
281
     1
  0
ACDBDICTIONARYWDFLT
  5
E
102
{ACAD_REACTORS
330
C
102
}
330
C
100
AcDbDictionary
281
     1
  3
Normal
350
F
100
AcDbDictionaryWithDefault
340
F
  0
DICTIONARY
  5
2A
102
{ACAD_REACTORS
330
C
102
}
330
C
100
AcDbDictionary
281
     1
  3
Standard
350
2B
  0
DICTIONARY
  5
2C
102
{ACAD_REACTORS
330
C
102
}
330
C
100
AcDbDictionary
281
     1
  3
CTABLESTYLE
350
2D
  0
LAYOUT
  5
1E
102
{ACAD_REACTORS
330
1A
102
}
330
1A
100
AcDbPlotSettings
  1

  2

  4

  6

 40
0.0
 41
0.0
 42
0.0
 43
0.0
 44
0.0
 45
0.0
 46
0.0
 47
0.0
 48
0.0
 49
0.0
140
0.0
141
0.0
142
1.0
143
1.0
 70
   688
 72
     0
 73
     0
 74
     5
  7

 75
    16
147
1.0
148
0.0
149
0.0
100
AcDbLayout
  1
Layout1
 70
     1
 71
     1
 10
0.0
 20
0.0
 11
12.0
 21
9.0
 12
0.0
 22
0.0
 32
0.0
 14
1.00000000000000E+20
 24
1.00000000000000E+20
 34
1.00000000000000E+20
 15
-1.00000000000000E+20
 25
-1.00000000000000E+20
 35
-1.00000000000000E+20
146
0.0
 13
0.0
 23
0.0
 33
0.0
 16
1.0
 26
0.0
 36
0.0
 17
0.0
 27
1.0
 37
0.0
 76
     0
330
1B
  0
LAYOUT
  5
26
102
{ACAD_REACTORS
330
1A
102
}
330
1A
100
AcDbPlotSettings
  1

  2

  4

  6

 40
0.0
 41
0.0
 42
0.0
 43
0.0
 44
0.0
 45
0.0
 46
0.0
 47
0.0
 48
0.0
 49
0.0
140
0.0
141
0.0
142
1.0
143
1.0
 70
   688
 72
     0
 73
     0
 74
     5
  7

 75
    16
147
1.0
148
0.0
149
0.0
100
AcDbLayout
  1
Layout2
 70
     1
 71
     2
 10
0.0
 20
0.0
 11
0.0
 21
0.0
 12
0.0
 22
0.0
 32
0.0
 14
0.0
 24
0.0
 34
0.0
 15
0.0
 25
0.0
 35
0.0
146
0.0
 13
0.0
 23
0.0
 33
0.0
 16
1.0
 26
0.0
 36
0.0
 17
0.0
 27
1.0
 37
0.0
 76
     0
330
23
  0
LAYOUT
  5
22
102
{ACAD_REACTORS
330
1A
102
}
330
1A
100
AcDbPlotSettings
  1

  2

  4

  6

 40
0.0
 41
0.0
 42
0.0
 43
0.0
 44
0.0
 45
0.0
 46
0.0
 47
0.0
 48
0.0
 49
0.0
140
0.0
141
0.0
142
1.0
143
1.0
 70
  1712
 72
     0
 73
     0
 74
     0
  7

 75
     0
147
1.0
148
0.0
149
0.0
100
AcDbLayout
  1
Model
 70
     1
 71
     0
 10
0.0
 20
0.0
 11
0.0
 21
0.0
 12
0.0
 22
0.0
 32
0.0
 14
0.0
 24
0.0
 34
0.0
 15
420.0
 25
594.0
 35
0.0
146
0.0
 13
0.0
 23
0.0
 33
0.0
 16
1.0
 26
0.0
 36
0.0
 17
0.0
 27
1.0
 37
0.0
 76
     0
330
1F
  0
MLINESTYLE
  5
18
102
{ACAD_REACTORS
330
17
102
}
330
17
100
AcDbMlineStyle
  2
Standard
 70
     0
  3

 62
   256
 51
90.0
 52
90.0
 71
     2
 49
0.5
 62
   256
  6
BYLAYER
 49
-0.5
 62
   256
  6
BYLAYER
  0
ACDBPLACEHOLDER
  5
F
102
{ACAD_REACTORS
330
E
102
}
330
E
  0
TABLESTYLE
  5
2B
102
{ACAD_REACTORS
330
2A
102
}
330
2A
100
AcDbTableStyle
  3
Standard
 70
     0
 71
     0
 40
0.06
 41
0.06
280
     0
281
     0
  7
Standard
140
0.18
170
     2
 62
     0
 63
     7
283
     0
274
    -2
284
     1
 64
     0
275
    -2
285
     1
 65
     0
276
    -2
286
     1
 66
     0
277
    -2
287
     1
 67
     0
278
    -2
288
     1
 68
     0
279
    -2
289
     1
 69
     0
  7
Standard
140
0.25
170
     5
 62
     0
 63
     7
283
     0
274
    -2
284
     1
 64
     0
275
    -2
285
     1
 65
     0
276
    -2
286
     1
 66
     0
277
    -2
287
     1
 67
     0
278
    -2
288
     1
 68
     0
279
    -2
289
     1
 69
     0
  7
Standard
140
0.18
170
     5
 62
     0
 63
     7
283
     0
274
    -2
284
     1
 64
     0
275
    -2
285
     1
 65
     0
276
    -2
286
     1
 66
     0
277
    -2
287
     1
 67
     0
278
    -2
288
     1
 68
     0
279
    -2
289
     1
 69
     0
  0
DICTIONARYVAR
  5
2D
102
{ACAD_REACTORS
330
2C
102
}
330
2C
100
DictionaryVariables
280
     0
  1
Standard
  0
ENDSEC
  0
EOF
