  0
SECTION
  2
HEADER
  9
$ACADVER
  1
AC1015
  9
$ACADMAINTVER
 70
     6
  9
$DWGCODEPAGE
  3
DOS932
  9
$INSBASE
 10
0.0
 20
0.0
 30
0.0
  9
$EXTMIN
 10
0.0
 20
0.0
 30
0.0
  9
$EXTMAX
 10
420.0
 20
594.0
 30
0.0
  9
$LIMMIN
 10
0.0
 20
0.0
  9
$LIMMAX
 10
12.0
 20
9.0
  9
$ORTHOMODE
 70
     0
  9
$REGENMODE
 70
     1
  9
$FILLMODE
 70
     1
  9
$QTEXTMODE
 70
     0
  9
$MIRRTEXT
 70
     1
  9
$LTSCALE
 40
1.0
  9
$ATTMODE
 70
     1
  9
$TEXTSIZE
 40
0.2
  9
$TRACEWID
 40
0.05
  9
$TEXTSTYLE
  7
Standard
  9
$CLAYER
  8
0
  9
$CELTYPE
  6
ByLayer
  9
$CECOLOR
 62
   256
  9
$CELTSCALE
 40
1.0
  9
$DISPSILH
 70
     0
  9
$DIMSCALE
 40
1.0
  9
$DIMASZ
 40
0.18
  9
$DIMEXO
 40
0.0625
  9
$DIMDLI
 40
0.38
  9
$DIMRND
 40
0.0
  9
$DIMDLE
 40
0.0
  9
$DIMEXE
 40
0.18
  9
$DIMTP
 40
0.0
  9
$DIMTM
 40
0.0
  9
$DIMTXT
 40
0.18
  9
$DIMCEN
 40
0.09
  9
$DIMTSZ
 40
0.0
  9
$DIMTOL
 70
     0
  9
$DIMLIM
 70
     0
  9
$DIMTIH
 70
     1
  9
$DIMTOH
 70
     1
  9
$DIMSE1
 70
     0
  9
$DIMSE2
 70
     0
  9
$DIMTAD
 70
     0
  9
$DIMZIN
 70
     0
  9
$DIMBLK
  1

  9
$DIMASO
 70
     1
  9
$DIMSHO
 70
     1
  9
$DIMPOST
  1

  9
$DIMAPOST
  1

  9
$DIMALT
 70
     0
  9
$DIMALTD
 70
     2
  9
$DIMALTF
 40
25.4
  9
$DIMLFAC
 40
1.0
  9
$DIMTOFL
 70
     0
  9
$DIMTVP
 40
0.0
  9
$DIMTIX
 70
     0
  9
$DIMSOXD
 70
     0
  9
$DIMSAH
 70
     0
  9
$DIMBLK1
  1

  9
$DIMBLK2
  1

  9
$DIMSTYLE
  2
Standard
  9
$DIMCLRD
 70
     0
  9
$DIMCLRE
 70
     0
  9
$DIMCLRT
 70
     0
  9
$DIMTFAC
 40
1.0
  9
$DIMGAP
 40
0.09
  9
$DIMJUST
 70
     0
  9
$DIMSD1
 70
     0
  9
$DIMSD2
 70
     0
  9
$DIMTOLJ
 70
     1
  9
$DIMTZIN
 70
     0
  9
$DIMALTZ
 70
     0
  9
$DIMALTTZ
 70
     0
  9
$DIMUPT
 70
     0
  9
$DIMDEC
 70
     4
  9
$DIMTDEC
 70
     4
  9
$DIMALTU
 70
     2
  9
$DIMALTTD
 70
     2
  9
$DIMTXSTY
  7
Standard
  9
$DIMAUNIT
 70
     0
  9
$DIMADEC
 70
     0
  9
$DIMALTRND
 40
0.0
  9
$DIMAZIN
 70
     0
  9
$DIMDSEP
 70
    46
  9
$DIMATFIT
 70
     3
  9
$DIMFRAC
 70
     0
  9
$DIMLDRBLK
  1

  9
$DIMLUNIT
 70
     2
  9
$DIMLWD
 70
    -2
  9
$DIMLWE
 70
    -2
  9
$DIMTMOVE
 70
     0
  9
$LUNITS
 70
     2
  9
$LUPREC
 70
     4
  9
$SKETCHINC
 40
0.1
  9
$FILLETRAD
 40
0.5
  9
$AUNITS
 70
     0
  9
$AUPREC
 70
     0
  9
$MENU
  1
.
  9
$ELEVATION
 40
0.0
  9
$PELEVATION
 40
0.0
  9
$THICKNESS
 40
0.0
  9
$LIMCHECK
 70
     0
  9
$CHAMFERA
 40
0.5
  9
$CHAMFERB
 40
0.5
  9
$CHAMFERC
 40
1.0
  9
$CHAMFERD
 40
0.0
  9
$SKPOLY
 70
     0
  9
$TDCREATE
 40
2456134.672883565
  9
$TDUCREATE
 40
2456134.297883565
  9
$TDUPDATE
 40
2456134.672883576
  9
$TDUUPDATE
 40
2456134.297883576
  9
$TDINDWG
 40
0.0000000116
  9
$TDUSRTIMER
 40
0.0000000116
  9
$USRTIMER
 70
     1
  9
$ANGBASE
 50
0.0
  9
$ANGDIR
 70
     0
  9
$PDMODE
 70
     0
  9
$PDSIZE
 40
0.0
  9
$PLINEWID
 40
0.0
  9
$SPLFRAME
 70
     0
  9
$SPLINETYPE
 70
     6
  9
$SPLINESEGS
 70
     8
  9
$HANDSEED
  5
263
  9
$SURFTAB1
 70
     6
  9
$SURFTAB2
 70
     6
  9
$SURFTYPE
 70
     6
  9
$SURFU
 70
     6
  9
$SURFV
 70
     6
  9
$UCSBASE
  2

  9
$UCSNAME
  2

  9
$UCSORG
 10
0.0
 20
0.0
 30
0.0
  9
$UCSXDIR
 10
1.0
 20
0.0
 30
0.0
  9
$UCSYDIR
 10
0.0
 20
1.0
 30
0.0
  9
$UCSORTHOREF
  2

  9
$UCSORTHOVIEW
 70
     0
  9
$UCSORGTOP
 10
0.0
 20
0.0
 30
0.0
  9
$UCSORGBOTTOM
 10
0.0
 20
0.0
 30
0.0
  9
$UCSORGLEFT
 10
0.0
 20
0.0
 30
0.0
  9
$UCSORGRIGHT
 10
0.0
 20
0.0
 30
0.0
  9
$UCSORGFRONT
 10
0.0
 20
0.0
 30
0.0
  9
$UCSORGBACK
 10
0.0
 20
0.0
 30
0.0
  9
$PUCSBASE
  2

  9
$PUCSNAME
  2

  9
$PUCSORG
 10
0.0
 20
0.0
 30
0.0
  9
$PUCSXDIR
 10
1.0
 20
0.0
 30
0.0
  9
$PUCSYDIR
 10
0.0
 20
1.0
 30
0.0
  9
$PUCSORTHOREF
  2

  9
$PUCSORTHOVIEW
 70
     0
  9
$PUCSORGTOP
 10
0.0
 20
0.0
 30
0.0
  9
$PUCSORGBOTTOM
 10
0.0
 20
0.0
 30
0.0
  9
$PUCSORGLEFT
 10
0.0
 20
0.0
 30
0.0
  9
$PUCSORGRIGHT
 10
0.0
 20
0.0
 30
0.0
  9
$PUCSORGFRONT
 10
0.0
 20
0.0
 30
0.0
  9
$PUCSORGBACK
 10
0.0
 20
0.0
 30
0.0
  9
$USERI1
 70
     0
  9
$USERI2
 70
     0
  9
$USERI3
 70
     0
  9
$USERI4
 70
     0
  9
$USERI5
 70
     0
  9
$USERR1
 40
13.2
  9
$USERR2
 40
0.0
  9
$USERR3
 40
0.0
  9
$USERR4
 40
0.0
  9
$USERR5
 40
0.0
  9
$WORLDVIEW
 70
     1
  9
$SHADEDGE
 70
     3
  9
$SHADEDIF
 70
    70
  9
$TILEMODE
 70
     1
  9
$MAXACTVP
 70
    64
  9
$PINSBASE
 10
0.0
 20
0.0
 30
0.0
  9
$PLIMCHECK
 70
     0
  9
$PEXTMIN
 10
1.00000000000000E+20
 20
1.00000000000000E+20
 30
1.00000000000000E+20
  9
$PEXTMAX
 10
-1.00000000000000E+20
 20
-1.00000000000000E+20
 30
-1.00000000000000E+20
  9
$PLIMMIN
 10
0.0
 20
0.0
  9
$PLIMMAX
 10
12.0
 20
9.0
  9
$UNITMODE
 70
     0
  9
$VISRETAIN
 70
     1
  9
$PLINEGEN
 70
     0
  9
$PSLTSCALE
 70
     1
  9
$TREEDEPTH
 70
  3020
  9
$CMLSTYLE
  2
Standard
  9
$CMLJUST
 70
     0
  9
$CMLSCALE
 40
1.0
  9
$PROXYGRAPHICS
 70
     1
  9
$MEASUREMENT
 70
     1
  9
$CELWEIGHT
370
    -1
  9
$ENDCAPS
280
     0
  9
$JOINSTYLE
280
     0
  9
$LWDISPLAY
290
     0
  9
$INSUNITS
 70
     1
  9
$HYPERLINKBASE
  1

  9
$STYLESHEET
  1

  9
$XEDIT
290
     1
  9
$CEPSNTYPE
380
     0
  9
$PSTYLEMODE
290
     0
  9
$FINGERPRINTGUID
  2
{FAEB1C30-E019-11D5-929B-00C0DF256EC4}
  9
$VERSIONGUID
  2
{FAEB1C32-E019-11D5-929B-00C0DF256EC4}
  9
$EXTNAMES
290
     1
  9
$PSVPSCALE
 40
0.0
  9
$OLESTARTUP
290
     0
  0
ENDSEC
  0
SECTION
  2
CLASSES
  0
CLASS
  1
ACDBDICTIONARYWDFLT
  2
AcDbDictionaryWithDefault
  3
ObjectDBX Classes
 90
        0
280
     0
281
     0
  0
CLASS
  1
TABLESTYLE
  2
AcDbTableStyle
  3
ObjectDBX Classes
 90
     2047
280
     0
281
     0
  0
CLASS
  1
DICTIONARYVAR
  2
AcDbDictionaryVar
  3
ObjectDBX Classes
 90
        0
280
     0
281
     0
  0
CLASS
  1

  2
exOdDbCircle
  3

 90
        0
280
     0
281
     1
  0
CLASS
  1

  2
exOdDbSpline
  3

 90
        0
280
     0
281
     1
  0
CLASS
  1
ACDBPLACEHOLDER
  2
AcDbPlaceHolder
  3
ObjectDBX Classes
 90
        0
280
     0
281
     0
  0
CLASS
  1
LAYOUT
  2
AcDbLayout
  3
ObjectDBX Classes
 90
        0
280
     0
281
     0
  0
ENDSEC
  0
SECTION
  2
TABLES
  0
TABLE
  2
VPORT
  5
8
330
0
100
AcDbSymbolTable
 70
     2
  0
VPORT
  5
29
330
8
100
AcDbSymbolTableRecord
100
AcDbViewportTableRecord
  2
*Active
 70
     0
 10
0.0
 20
0.0
 11
1.0
 21
1.0
 12
210.0
 22
297.0
 13
0.0
 23
0.0
 14
0.5
 24
0.5
 15
0.5
 25
0.5
 16
0.0
 26
0.0
 36
1.0
 17
0.0
 27
0.0
 37
0.0
 40
653.4000000000001
 41
1.60267857142857
 42
50.0
 43
0.0
 44
0.0
 50
0.0
 51
0.0
 71
     0
 72
   100
 73
     1
 74
     3
 75
     0
 76
     0
 77
     0
 78
     0
281
     0
 65
     1
110
0.0
120
0.0
130
0.0
111
1.0
121
0.0
131
0.0
112
0.0
122
1.0
132
0.0
 79
     0
146
0.0
  0
ENDTAB
  0
TABLE
  2
LTYPE
  5
5
330
0
100
AcDbSymbolTable
 70
     8
  0
LTYPE
  5
14
330
5
100
AcDbSymbolTableRecord
100
AcDbLinetypeTableRecord
  2
ByBlock
 70
     0
  3

 72
    65
 73
     0
 40
0.0
  0
LTYPE
  5
15
330
5
100
AcDbSymbolTableRecord
100
AcDbLinetypeTableRecord
  2
ByLayer
 70
     0
  3

 72
    65
 73
     0
 40
0.0
  0
LTYPE
  5
16
330
5
100
AcDbSymbolTableRecord
100
AcDbLinetypeTableRecord
  2
Continuous
 70
     0
  3
Solid line
 72
    65
 73
     0
 40
0.0
  0
LTYPE
  5
2E
330
5
100
AcDbSymbolTableRecord
100
AcDbLinetypeTableRecord
  2
DASHED
 70
     0
  3
Dashed
 72
    65
 73
     2
 40
15.0
 49
7.0
 74
     0
 49
-8.0
 74
     0
  0
LTYPE
  5
2F
330
5
100
AcDbSymbolTableRecord
100
AcDbLinetypeTableRecord
  2
DOTTED
 70
     0
  3
Dotted
 72
    65
 73
     2
 40
1.0
 49
0.0
 74
     0
 49
-1.0
 74
     0
  0
LTYPE
  5
30
330
5
100
AcDbSymbolTableRecord
100
AcDbLinetypeTableRecord
  2
DOT_CENTER
 70
     0
  3
Dot_Center
 72
    65
 73
     4
 40
14.0
 49
12.0
 74
     0
 49
-1.0
 74
     0
 49
0.0
 74
     0
 49
-1.0
 74
     0
  0
LTYPE
  5
31
330
5
100
AcDbSymbolTableRecord
100
AcDbLinetypeTableRecord
  2
LONG_DASHED
 70
     0
  3
Long_Dashed
 72
    65
 73
     2
 40
15.0
 49
10.0
 74
     0
 49
-5.0
 74
     0
  0
LTYPE
  5
32
330
5
100
AcDbSymbolTableRecord
100
AcDbLinetypeTableRecord
  2
DASH_CENTER
 70
     0
  3
Dash_Center
 72
    65
 73
     4
 40
14.0
 49
11.0
 74
     0
 49
-1.0
 74
     0
 49
1.0
 74
     0
 49
-1.0
 74
     0
  0
LTYPE
  5
33
330
5
100
AcDbSymbolTableRecord
100
AcDbLinetypeTableRecord
  2
PHANTOM
 70
     0
  3
Phantom
 72
    65
 73
     6
 40
13.0
 49
10.0
 74
     0
 49
-1.0
 74
     0
 49
0.0
 74
     0
 49
-1.0
 74
     0
 49
0.0
 74
     0
 49
-1.0
 74
     0
  0
LTYPE
  5
34
330
5
100
AcDbSymbolTableRecord
100
AcDbLinetypeTableRecord
  2
CENTER_DASH_DASH
 70
     0
  3
Center_Dash_Dash
 72
    65
 73
     6
 40
14.0
 49
9.0
 74
     0
 49
-1.0
 74
     0
 49
1.0
 74
     0
 49
-1.0
 74
     0
 49
1.0
 74
     0
 49
-1.0
 74
     0
  0
ENDTAB
  0
TABLE
  2
LAYER
  5
2
330
0
100
AcDbSymbolTable
 70
     2
  0
LAYER
  5
10
330
2
100
AcDbSymbolTableRecord
100
AcDbLayerTableRecord
  2
0
 70
     0
 62
     7
  6
Continuous
370
    -3
390
F
  0
LAYER
  5
35
330
2
100
AcDbSymbolTableRecord
100
AcDbLayerTableRecord
  2
1
 70
     0
 62
     7
  6
Continuous
370
    -3
390
F
  0
ENDTAB
  0
TABLE
  2
STYLE
  5
3
330
0
100
AcDbSymbolTable
 70
     3
  0
STYLE
  5
11
330
3
100
AcDbSymbolTableRecord
100
AcDbTextStyleTableRecord
  2
Standard
 70
     0
 40
0.0
 41
1.0
 50
0.0
 71
     0
 42
0.2
  3
txt
  4

  0
STYLE
  5
A5
330
3
100
AcDbSymbolTableRecord
100
AcDbTextStyleTableRecord
  2
CONVERTER_1
 70
     0
 40
0.0
 41
0.89
 50
0.0
 71
     0
 42
0.2
  3
msmincho.ttc
  4

1001
ACAD
1000
MS Mincho
1071
    32785
  0
STYLE
  5
1FD
330
3
100
AcDbSymbolTableRecord
100
AcDbTextStyleTableRecord
  2
CONVERTER_2
 70
     0
 40
0.0
 41
0.9
 50
0.0
 71
     0
 42
0.2
  3
txt.shx
  4

  0
ENDTAB
  0
TABLE
  2
VIEW
  5
6
330
0
100
AcDbSymbolTable
 70
     0
  0
ENDTAB
  0
TABLE
  2
UCS
  5
7
330
0
100
AcDbSymbolTable
 70
     0
  0
ENDTAB
  0
TABLE
  2
APPID
  5
9
330
0
100
AcDbSymbolTable
 70
     1
  0
APPID
  5
12
330
9
100
AcDbSymbolTableRecord
100
AcDbRegAppTableRecord
  2
ACAD
 70
     0
  0
ENDTAB
  0
TABLE
  2
DIMSTYLE
  5
A
330
0
100
AcDbSymbolTable
 70
     9
100
AcDbDimStyleTable
  0
DIMSTYLE
105
27
330
A
100
AcDbSymbolTableRecord
100
AcDbDimStyleTableRecord
  2
Standard
 70
     0
340
11
  0
DIMSTYLE
105
210
102
{ACAD_REACTORS
330
211
102
}
330
A
100
AcDbSymbolTableRecord
100
AcDbDimStyleTableRecord
  2
ME10_DIM_0
 70
     0
 41
7.0
 42
0.0
 44
2.0
 73
     0
 74
     0
 77
     1
 78
     8
140
7.0
147
0.625
172
     1
173
     1
176
     2
177
     2
178
     7
271
     2
340
1FD
  0
DIMSTYLE
105
21D
102
{ACAD_REACTORS
330
21E
102
}
330
A
100
AcDbSymbolTableRecord
100
AcDbDimStyleTableRecord
  2
ME10_DIM_1
 70
     0
 41
7.0
 42
0.0
 44
2.0
 73
     0
 74
     0
 77
     1
 78
     8
140
7.0
147
0.625
172
     1
173
     1
176
     2
177
     2
178
     7
271
     2
340
1FD
  0
DIMSTYLE
105
228
102
{ACAD_REACTORS
330
229
102
}
330
A
100
AcDbSymbolTableRecord
100
AcDbDimStyleTableRecord
  2
ME10_DIM_2
 70
     0
 41
7.0
 42
0.0
 44
2.0
 73
     0
 74
     0
 77
     1
 78
     8
140
7.0
147
0.625
172
     1
173
     1
176
     2
177
     2
178
     7
271
     2
340
1FD
  0
DIMSTYLE
105
233
102
{ACAD_REACTORS
330
234
102
}
330
A
100
AcDbSymbolTableRecord
100
AcDbDimStyleTableRecord
  2
ME10_DIM_3
 70
     0
 41
7.0
 42
0.0
 44
2.0
 73
     0
 74
     0
 77
     1
 78
     8
140
7.0
147
0.625
172
     1
173
     1
176
     2
177
     2
178
     7
271
     2
340
1FD
  0
DIMSTYLE
105
23F
102
{ACAD_REACTORS
330
240
102
}
330
A
100
AcDbSymbolTableRecord
100
AcDbDimStyleTableRecord
  2
ME10_DIM_4
 70
     0
 41
7.0
 42
0.0
 44
2.0
 73
     0
 74
     0
 77
     1
 78
     8
140
7.0
147
0.625
172
     1
173
     1
176
     2
177
     2
178
     7
271
     2
340
1FD
  0
DIMSTYLE
105
24A
102
{ACAD_REACTORS
330
24B
102
}
330
A
100
AcDbSymbolTableRecord
100
AcDbDimStyleTableRecord
  2
ME10_DIM_5
 70
     0
 41
7.0
 42
0.0
 44
2.0
 73
     0
 74
     0
 77
     1
 78
     8
140
7.0
147
0.625
172
     1
173
     1
176
     2
177
     2
178
     7
271
     2
340
1FD
  0
DIMSTYLE
105
255
102
{ACAD_REACTORS
330
256
102
}
330
A
100
AcDbSymbolTableRecord
100
AcDbDimStyleTableRecord
  2
ME10_DIM_6
 70
     0
 41
7.0
 42
0.0
 44
2.0
 73
     0
 74
     0
 77
     1
 78
     8
140
7.0
147
0.625
172
     1
173
     1
176
     2
177
     2
178
     7
271
     2
340
A5
  0
DIMSTYLE
105
261
102
{ACAD_REACTORS
330
262
102
}
330
A
100
AcDbSymbolTableRecord
100
AcDbDimStyleTableRecord
  2
ME10_DIM_7
 70
     0
 41
7.0
 42
0.0
 44
2.0
 73
     0
 74
     0
 77
     1
 78
     8
140
7.0
147
0.625
172
     1
173
     1
176
     2
177
     2
178
     7
271
     2
340
1FD
  0
ENDTAB
  0
TABLE
  2
BLOCK_RECORD
  5
1
330
0
100
AcDbSymbolTable
 70
    18
  0
BLOCK_RECORD
  5
1F
330
1
100
AcDbSymbolTableRecord
100
AcDbBlockTableRecord
  2
*Model_Space
340
22
  0
BLOCK_RECORD
  5
1B
330
1
100
AcDbSymbolTableRecord
100
AcDbBlockTableRecord
  2
*Paper_Space
340
1E
  0
BLOCK_RECORD
  5
23
330
1
100
AcDbSymbolTableRecord
100
AcDbBlockTableRecord
  2
*Paper_Space0
340
26
  0
BLOCK_RECORD
  5
36
330
1
100
AcDbSymbolTableRecord
100
AcDbBlockTableRecord
  2
_J__A4
340
0
102
{BLKREFS
331
56
102
}
  0
BLOCK_RECORD
  5
39
330
1
100
AcDbSymbolTableRecord
100
AcDbBlockTableRecord
  2
B4121R-0B-13-M11
340
0
102
{BLKREFS
331
57
102
}
  0
BLOCK_RECORD
  5
3C
330
1
100
AcDbSymbolTableRecord
100
AcDbBlockTableRecord
  2
34-188-M2K
340
0
102
{BLKREFS
331
40
102
}
  0
BLOCK_RECORD
  5
3F
330
1
100
AcDbSymbolTableRecord
100
AcDbBlockTableRecord
  2
B41A-240-13
340
0
102
{BLKREFS
331
58
102
}
  0
BLOCK_RECORD
  5
43
330
1
100
AcDbSymbolTableRecord
100
AcDbBlockTableRecord
  2
36-1A-13-M11K
340
0
102
{BLKREFS
331
50
102
}
  0
BLOCK_RECORD
  5
46
330
1
100
AcDbSymbolTableRecord
100
AcDbBlockTableRecord
  2
37-1-13K
340
0
102
{BLKREFS
331
51
102
}
  0
BLOCK_RECORD
  5
49
330
1
100
AcDbSymbolTableRecord
100
AcDbBlockTableRecord
  2
42-15K
340
0
102
{BLKREFS
331
52
102
}
  0
BLOCK_RECORD
  5
4C
330
1
100
AcDbSymbolTableRecord
100
AcDbBlockTableRecord
  2
21-1C-M1K
340
0
102
{BLKREFS
331
53
102
}
  0
BLOCK_RECORD
  5
4F
330
1
100
AcDbSymbolTableRecord
100
AcDbBlockTableRecord
  2
R10AK-13Z
340
0
102
{BLKREFS
331
59
102
}
  0
BLOCK_RECORD
  5
207
330
1
100
AcDbSymbolTableRecord
100
AcDbBlockTableRecord
  2
*D010
340
0
  0
BLOCK_RECORD
  5
212
330
1
100
AcDbSymbolTableRecord
100
AcDbBlockTableRecord
  2
*D111
340
0
  0
BLOCK_RECORD
  5
21F
330
1
100
AcDbSymbolTableRecord
100
AcDbBlockTableRecord
  2
*D212
340
0
  0
BLOCK_RECORD
  5
22A
330
1
100
AcDbSymbolTableRecord
100
AcDbBlockTableRecord
  2
*D313
340
0
  0
BLOCK_RECORD
  5
235
330
1
100
AcDbSymbolTableRecord
100
AcDbBlockTableRecord
  2
*D414
340
0
  0
BLOCK_RECORD
  5
241
330
1
100
AcDbSymbolTableRecord
100
AcDbBlockTableRecord
  2
*D515
340
0
  0
BLOCK_RECORD
  5
24C
330
1
100
AcDbSymbolTableRecord
100
AcDbBlockTableRecord
  2
*D616
340
0
  0
BLOCK_RECORD
  5
257
330
1
100
AcDbSymbolTableRecord
100
AcDbBlockTableRecord
  2
*D717
340
0
  0
ENDTAB
  0
ENDSEC
  0
SECTION
  2
BLOCKS
  0
BLOCK
  5
20
330
1F
100
AcDbEntity
  8
0
100
AcDbBlockBegin
  2
*Model_Space
 70
     0
 71
     0
 10
0.0
 20
0.0
 30
0.0
  3
*Model_Space
  1

  0
ENDBLK
  5
21
330
1F
100
AcDbEntity
  8
0
100
AcDbBlockEnd
  0
BLOCK
  5
1C
330
1B
100
AcDbEntity
 67
     1
  8
0
100
AcDbBlockBegin
  2
*Paper_Space
 70
     0
 71
     0
 10
0.0
 20
0.0
 30
0.0
  3
*Paper_Space
  1

  0
ENDBLK
  5
1D
330
1B
100
AcDbEntity
 67
     1
  8
0
100
AcDbBlockEnd
  0
BLOCK
  5
24
330
23
100
AcDbEntity
  8
0
100
AcDbBlockBegin
  2
*Paper_Space0
 70
     0
 71
     0
 10
0.0
 20
0.0
 30
0.0
  3
*Paper_Space0
  1

  0
ENDBLK
  5
25
330
23
100
AcDbEntity
  8
0
100
AcDbBlockEnd
  0
BLOCK
  5
37
330
36
100
AcDbEntity
  8
0
100
AcDbBlockBegin
  2
_J__A4
 70
     0
 71
     0
 10
0.0
 20
0.0
 30
0.0
  3
_J__A4
  1

  0
POINT
  5
5A
330
36
100
AcDbEntity
  8
1
 62
     4
100
AcDbPoint
 10
34.0
 20
34.00000000000001
 30
0.0
  0
POINT
  5
5B
330
36
100
AcDbEntity
  8
1
 62
     4
100
AcDbPoint
 10
57.0
 20
12.25
 30
0.0
  0
POINT
  5
5C
330
36
100
AcDbEntity
  8
1
 62
     4
100
AcDbPoint
 10
57.0
 20
20.75000000000001
 30
0.0
  0
POINT
  5
5D
330
36
100
AcDbEntity
  8
1
 62
     4
100
AcDbPoint
 10
57.0
 20
24.75000000000001
 30
0.0
  0
POINT
  5
5E
330
36
100
AcDbEntity
  8
1
 62
     4
100
AcDbPoint
 10
57.0
 20
16.25
 30
0.0
  0
POINT
  5
5F
330
36
100
AcDbEntity
  8
1
 62
     4
100
AcDbPoint
 10
157.5
 20
19.00000000000001
 30
0.0
  0
POINT
  5
60
330
36
100
AcDbEntity
  8
1
 62
     4
100
AcDbPoint
 10
47.5
 20
282.0000000000003
 30
0.0
  0
POINT
  5
61
330
36
100
AcDbEntity
  8
1
 62
     4
100
AcDbPoint
 10
57.0
 20
22.75000000000001
 30
0.0
  0
POINT
  5
62
330
36
100
AcDbEntity
  8
1
 62
     4
100
AcDbPoint
 10
57.0
 20
14.25
 30
0.0
  0
POINT
  5
63
330
36
100
AcDbEntity
  8
1
 62
     4
100
AcDbPoint
 10
157.5
 20
12.5
 30
0.0
  0
POINT
  5
64
330
36
100
AcDbEntity
  8
1
 62
     4
100
AcDbPoint
 10
163.25
 20
12.5
 30
0.0
  0
POINT
  5
65
330
36
100
AcDbEntity
  8
1
 62
     4
100
AcDbPoint
 10
151.75
 20
12.5
 30
0.0
  0
POINT
  5
66
330
36
100
AcDbEntity
  8
1
 62
     4
100
AcDbPoint
 10
134.75
 20
12.5
 30
0.0
  0
POINT
  5
67
330
36
100
AcDbEntity
  8
1
 62
     4
100
AcDbPoint
 10
146.25
 20
12.5
 30
0.0
  0
POINT
  5
68
330
36
100
AcDbEntity
  8
1
 62
     4
100
AcDbPoint
 10
140.5
 20
12.5
 30
0.0
  0
POINT
  5
69
330
36
100
AcDbEntity
  8
1
 62
     4
100
AcDbPoint
 10
140.5
 20
19.00000000000001
 30
0.0
  0
POINT
  5
6A
330
36
100
AcDbEntity
  8
1
 62
     4
100
AcDbPoint
 10
117.75
 20
12.5
 30
0.0
  0
POINT
  5
6B
330
36
100
AcDbEntity
  8
1
 62
     4
100
AcDbPoint
 10
129.25
 20
12.5
 30
0.0
  0
POINT
  5
6C
330
36
100
AcDbEntity
  8
1
 62
     4
100
AcDbPoint
 10
123.5
 20
12.5
 30
0.0
  0
POINT
  5
6D
330
36
100
AcDbEntity
  8
1
 62
     4
100
AcDbPoint
 10
123.5
 20
19.00000000000001
 30
0.0
  0
POINT
  5
6E
330
36
100
AcDbEntity
  8
1
 62
     4
100
AcDbPoint
 10
100.75
 20
12.5
 30
0.0
  0
POINT
  5
6F
330
36
100
AcDbEntity
  8
1
 62
     4
100
AcDbPoint
 10
112.25
 20
12.5
 30
0.0
  0
POINT
  5
70
330
36
100
AcDbEntity
  8
1
 62
     4
100
AcDbPoint
 10
106.5
 20
12.5
 30
0.0
  0
POINT
  5
71
330
36
100
AcDbEntity
  8
1
 62
     4
100
AcDbPoint
 10
106.5
 20
19.00000000000001
 30
0.0
  0
POINT
  5
72
330
36
100
AcDbEntity
  8
1
 62
     4
100
AcDbPoint
 10
85.25
 20
17.0
 30
0.0
  0
POINT
  5
73
330
36
100
AcDbEntity
  8
1
 62
     4
100
AcDbPoint
 10
93.75
 20
17.0
 30
0.0
  0
LINE
  5
74
330
36
100
AcDbEntity
  8
1
  6
Continuous
 62
     2
100
AcDbLine
 10
81.0
 20
27.00000000000001
 30
0.0
 11
81.0
 21
10.0
 31
0.0
  0
LINE
  5
75
330
36
100
AcDbEntity
  8
1
  6
DOT_CENTER
 62
     2
100
AcDbLine
 10
187.0
 20
26.50000000000001
 30
0.0
 11
187.0
 21
20.50000000000001
 31
0.0
  0
LINE
  5
76
330
36
100
AcDbEntity
  8
1
  6
DOT_CENTER
 62
     2
100
AcDbLine
 10
184.0
 20
23.50000000000001
 30
0.0
 11
197.0
 21
23.50000000000001
 31
0.0
  0
LINE
  5
77
330
36
100
AcDbEntity
  8
1
  6
Continuous
 62
     7
100
AcDbLine
 10
196.0
 20
21.50000000000001
 30
0.0
 11
191.0
 21
22.30000000000001
 31
0.0
  0
LINE
  5
78
330
36
100
AcDbEntity
  8
1
  6
Continuous
 62
     7
100
AcDbLine
 10
196.0
 20
25.50000000000001
 30
0.0
 11
196.0
 21
21.50000000000001
 31
0.0
  0
LINE
  5
79
330
36
100
AcDbEntity
  8
1
  6
Continuous
 62
     7
100
AcDbLine
 10
191.0
 20
24.70000000000001
 30
0.0
 11
196.0
 21
25.50000000000001
 31
0.0
  0
LINE
  5
7A
330
36
100
AcDbEntity
  8
1
  6
Continuous
 62
     7
100
AcDbLine
 10
191.0
 20
24.70000000000001
 30
0.0
 11
191.0
 21
22.30000000000001
 31
0.0
  0
LINE
  5
7B
330
36
100
AcDbEntity
  8
1
  6
Continuous
 62
     2
100
AcDbLine
 10
33.0
 20
27.0
 30
0.0
 11
33.0
 21
10.0
 31
0.0
  0
LINE
  5
7C
330
36
100
AcDbEntity
  8
1
  6
Continuous
 62
     2
100
AcDbLine
 10
25.0
 20
18.50000000000001
 30
0.0
 11
81.0
 21
18.50000000000001
 31
0.0
  0
LINE
  5
7D
330
36
100
AcDbEntity
  8
1
  6
Continuous
 62
     7
100
AcDbLine
 10
200.0
 20
287.0000000000003
 30
0.0
 11
105.0
 21
287.0000000000003
 31
0.0
  0
LINE
  5
7E
330
36
100
AcDbEntity
  8
1
  6
Continuous
 62
     7
100
AcDbLine
 10
200.0
 20
10.0
 30
0.0
 11
200.0
 21
148.5
 31
0.0
  0
LINE
  5
7F
330
36
100
AcDbEntity
  8
1
  6
Continuous
 62
     7
100
AcDbLine
 10
25.0
 20
10.0
 30
0.0
 11
105.0
 21
10.0
 31
0.0
  0
LINE
  5
80
330
36
100
AcDbEntity
  8
1
  6
PHANTOM
 62
     4
100
AcDbLine
 10
0.0
 20
297.0
 30
0.0
 11
0.0
 21
0.0
 31
0.0
  0
LINE
  5
81
330
36
100
AcDbEntity
  8
1
  6
PHANTOM
 62
     4
100
AcDbLine
 10
210.0
 20
297.0
 30
0.0
 11
0.0
 21
297.0
 31
0.0
  0
LINE
  5
82
330
36
100
AcDbEntity
  8
1
  6
PHANTOM
 62
     4
100
AcDbLine
 10
210.0
 20
0.0
 30
0.0
 11
210.0
 21
297.0
 31
0.0
  0
LINE
  5
83
330
36
100
AcDbEntity
  8
1
  6
PHANTOM
 62
     4
100
AcDbLine
 10
0.0
 20
0.0
 30
0.0
 11
210.0
 21
0.0
 31
0.0
  0
LINE
  5
84
330
36
100
AcDbEntity
  8
1
  6
Continuous
 62
     7
100
AcDbLine
 10
25.0
 20
41.0
 30
0.0
 11
200.0
 21
41.0
 31
0.0
  0
LINE
  5
85
330
36
100
AcDbEntity
  8
1
  6
Continuous
 62
     7
100
AcDbLine
 10
200.0
 20
27.00000000000001
 30
0.0
 11
25.0
 21
27.00000000000001
 31
0.0
  0
LINE
  5
86
330
36
100
AcDbEntity
  8
1
  6
Continuous
 62
     2
100
AcDbLine
 10
33.0
 20
41.00000000000001
 30
0.0
 11
33.0
 21
27.0
 31
0.0
  0
LINE
  5
87
330
36
100
AcDbEntity
  8
1
  6
Continuous
 62
     2
100
AcDbLine
 10
55.0
 20
287.0000000000003
 30
0.0
 11
55.0
 21
277.0000000000003
 31
0.0
  0
LINE
  5
88
330
36
100
AcDbEntity
  8
1
  6
Continuous
 62
     2
100
AcDbLine
 10
40.0
 20
287.0000000000003
 30
0.0
 11
40.0
 21
277.0000000000003
 31
0.0
  0
LINE
  5
89
330
36
100
AcDbEntity
  8
1
  6
Continuous
 62
     7
100
AcDbLine
 10
25.0
 20
10.0
 30
0.0
 11
25.0
 21
148.5
 31
0.0
  0
LINE
  5
8A
330
36
100
AcDbEntity
  8
1
  6
Continuous
 62
     2
100
AcDbLine
 10
55.0
 20
277.0000000000003
 30
0.0
 11
25.0
 21
277.0000000000003
 31
0.0
  0
LINE
  5
8B
330
36
100
AcDbEntity
  8
1
  6
Continuous
 62
     2
100
AcDbLine
 10
166.0
 20
27.00000000000001
 30
0.0
 11
166.0
 21
10.0
 31
0.0
  0
LINE
  5
8C
330
36
100
AcDbEntity
  8
1
  6
Continuous
 62
     2
100
AcDbLine
 10
132.0
 20
27.00000000000001
 30
0.0
 11
132.0
 21
9.99999999999999
 31
0.0
  0
LINE
  5
8D
330
36
100
AcDbEntity
  8
1
  6
Continuous
 62
     2
100
AcDbLine
 10
149.0
 20
27.00000000000001
 30
0.0
 11
149.0
 21
10.0
 31
0.0
  0
LINE
  5
8E
330
36
100
AcDbEntity
  8
1
  6
Continuous
 62
     2
100
AcDbLine
 10
115.0
 20
27.00000000000001
 30
0.0
 11
115.0
 21
9.99999999999999
 31
0.0
  0
LINE
  5
8F
330
36
100
AcDbEntity
  8
1
  6
Continuous
 62
     2
100
AcDbLine
 10
98.0
 20
27.00000000000001
 30
0.0
 11
98.0
 21
9.99999999999999
 31
0.0
  0
LINE
  5
90
330
36
100
AcDbEntity
  8
1
  6
Continuous
 62
     2
100
AcDbLine
 10
166.0
 20
20.00000000000001
 30
0.0
 11
200.0
 21
20.00000000000001
 31
0.0
  0
LINE
  5
91
330
36
100
AcDbEntity
  8
1
  6
Continuous
 62
     2
100
AcDbLine
 10
105.0
 20
287.0000000000003
 30
0.0
 11
105.0
 21
292.0000000000003
 31
0.0
  0
LINE
  5
92
330
36
100
AcDbEntity
  8
1
  6
Continuous
 62
     7
100
AcDbLine
 10
105.0
 20
287.0000000000003
 30
0.0
 11
25.0
 21
287.0000000000003
 31
0.0
  0
LINE
  5
93
330
36
100
AcDbEntity
  8
1
  6
Continuous
 62
     2
100
AcDbLine
 10
25.0
 20
148.5
 30
0.0
 11
20.0
 21
148.5
 31
0.0
  0
LINE
  5
94
330
36
100
AcDbEntity
  8
1
  6
Continuous
 62
     7
100
AcDbLine
 10
25.0
 20
148.5
 30
0.0
 11
25.0
 21
287.0000000000003
 31
0.0
  0
LINE
  5
95
330
36
100
AcDbEntity
  8
1
  6
Continuous
 62
     2
100
AcDbLine
 10
200.0
 20
148.5
 30
0.0
 11
205.0
 21
148.5
 31
0.0
  0
LINE
  5
96
330
36
100
AcDbEntity
  8
1
  6
Continuous
 62
     7
100
AcDbLine
 10
200.0
 20
148.5
 30
0.0
 11
200.0
 21
287.0000000000003
 31
0.0
  0
LINE
  5
97
330
36
100
AcDbEntity
  8
1
  6
Continuous
 62
     2
100
AcDbLine
 10
105.0
 20
10.0
 30
0.0
 11
105.0
 21
5.0
 31
0.0
  0
LINE
  5
98
330
36
100
AcDbEntity
  8
1
  6
Continuous
 62
     7
100
AcDbLine
 10
105.0
 20
10.0
 30
0.0
 11
200.0
 21
10.0
 31
0.0
  0
CIRCLE
  5
99
330
36
100
AcDbEntity
  8
1
  6
DOT_CENTER
 62
     7
100
AcDbCircle
 10
89.5
 20
18.0
 30
0.0
 40
0.1000000000000227
  0
CIRCLE
  5
9A
330
36
100
AcDbEntity
  8
1
  6
DOT_CENTER
 62
     7
100
AcDbCircle
 10
89.5
 20
16.0
 30
0.0
 40
0.1000000000000227
  0
CIRCLE
  5
9B
330
36
100
AcDbEntity
  8
1
  6
Continuous
 62
     7
100
AcDbCircle
 10
187.0
 20
23.50000000000001
 30
0.0
 40
2.0
  0
CIRCLE
  5
9C
330
36
100
AcDbEntity
  8
1
  6
Continuous
 62
     7
100
AcDbCircle
 10
187.0
 20
23.50000000000001
 30
0.0
 40
1.200000000000102
  0
CIRCLE
  5
9D
330
36
100
AcDbEntity
  8
1
  6
Continuous
 62
     7
100
AcDbCircle
 10
154.5
 20
12.5
 30
0.0
 40
0.3000000000000114
  0
CIRCLE
  5
9E
330
36
100
AcDbEntity
  8
1
  6
Continuous
 62
     7
100
AcDbCircle
 10
160.5
 20
12.5
 30
0.0
 40
0.3000000000000114
  0
CIRCLE
  5
9F
330
36
100
AcDbEntity
  8
1
  6
Continuous
 62
     7
100
AcDbCircle
 10
143.5
 20
12.5
 30
0.0
 40
0.3000000000000114
  0
CIRCLE
  5
A0
330
36
100
AcDbEntity
  8
1
  6
Continuous
 62
     7
100
AcDbCircle
 10
137.5
 20
12.5
 30
0.0
 40
0.3000000000000114
  0
CIRCLE
  5
A1
330
36
100
AcDbEntity
  8
1
  6
Continuous
 62
     7
100
AcDbCircle
 10
126.5
 20
12.5
 30
0.0
 40
0.2999999999999972
  0
CIRCLE
  5
A2
330
36
100
AcDbEntity
  8
1
  6
Continuous
 62
     7
100
AcDbCircle
 10
120.5
 20
12.5
 30
0.0
 40
0.2999999999999972
  0
CIRCLE
  5
A3
330
36
100
AcDbEntity
  8
1
  6
Continuous
 62
     7
100
AcDbCircle
 10
109.5
 20
12.5
 30
0.0
 40
0.2999999999999972
  0
CIRCLE
  5
A4
330
36
100
AcDbEntity
  8
1
  6
Continuous
 62
     7
100
AcDbCircle
 10
103.5
 20
12.5
 30
0.0
 40
0.2999999999999972
  0
MTEXT
  5
A6
330
36
100
AcDbEntity
  8
1
 62
   250
100
AcDbMText
 10
25.0
 20
5.0
 30
0.0
 40
3.5
 41
0.0
 71
     4
 72
     1
  1
備考欄の文字列 原点位置=4
  7
CONVERTER_1
 73
     1
 44
0.7202881152461
  0
MTEXT
  5
A7
330
36
100
AcDbEntity
  8
1
 62
     2
100
AcDbMText
 10
89.5
 20
24.00000000000001
 30
0.0
 40
3.5
 41
0.0
 71
     5
 72
     1
  1
尺度
  7
CONVERTER_1
 73
     1
 44
0.7202881152461
  0
MTEXT
  5
A8
330
36
100
AcDbEntity
  8
1
 62
     2
100
AcDbMText
 10
135.5
 20
25.00000000000001
 30
0.0
 40
3.0
 41
0.0
 71
     5
 72
     1
  1
製図
  7
CONVERTER_1
 73
     1
 44
0.78031212484994
  0
MTEXT
  5
A9
330
36
100
AcDbEntity
  8
1
 62
     2
100
AcDbMText
 10
152.5
 20
25.00000000000001
 30
0.0
 40
3.0
 41
0.0
 71
     5
 72
     1
  1
設計
  7
CONVERTER_1
 73
     1
 44
0.78031212484994
  0
MTEXT
  5
AA
330
36
100
AcDbEntity
  8
1
 62
     2
100
AcDbMText
 10
118.5
 20
25.00000000000001
 30
0.0
 40
3.0
 41
0.0
 71
     5
 72
     1
  1
検図
  7
CONVERTER_1
 73
     1
 44
0.78031212484994
  0
MTEXT
  5
AB
330
36
100
AcDbEntity
  8
1
 62
     2
100
AcDbMText
 10
175.0
 20
23.50000000000001
 30
0.0
 40
3.5
 41
0.0
 71
     5
 72
     1
  1
第三角法
  7
CONVERTER_1
 73
     1
 44
0.7202881152461
  0
MTEXT
  5
AC
330
36
100
AcDbEntity
  8
1
 62
     2
100
AcDbMText
 10
101.5
 20
25.00000000000001
 30
0.0
 40
3.0
 41
0.0
 71
     5
 72
     1
  1
承認
  7
CONVERTER_1
 73
     1
 44
0.78031212484994
  0
MTEXT
  5
AD
330
36
100
AcDbEntity
  8
1
 62
     2
100
AcDbMText
 10
29.0
 20
14.25
 30
0.0
 40
3.5
 41
0.0
 71
     5
 72
     1
  1
品番
  7
CONVERTER_1
 73
     1
 44
0.96038415366146
  0
MTEXT
  5
AE
330
36
100
AcDbEntity
  8
1
 62
     2
100
AcDbMText
 10
29.0
 20
22.75
 30
0.0
 40
3.5
 41
0.0
 71
     5
 72
     1
  1
品名
  7
CONVERTER_1
 73
     1
 44
0.96038415366146
  0
MTEXT
  5
AF
330
36
100
AcDbEntity
  8
1
 62
     2
100
AcDbMText
 10
29.0
 20
34.00000000000001
 30
0.0
 40
3.5
 41
0.0
 71
     5
 72
     1
  1
備考
  7
CONVERTER_1
 73
     1
 44
0.60024009603842
  0
MTEXT
  5
B0
330
36
100
AcDbEntity
  8
1
 62
     2
100
AcDbMText
 10
32.5
 20
282.0000000000003
 30
0.0
 40
5.0
 41
0.0
 71
     5
 72
     1
  1
図番
  7
CONVERTER_1
 73
     1
 44
0.60024009603842
  0
MTEXT
  5
B1
330
36
100
AcDbEntity
  8
1
 62
     7
100
AcDbMText
 10
171.5
 20
15.0
 30
0.0
 40
2.5
 41
0.0
 71
     5
 72
     1
  1
株式会社
  7
CONVERTER_1
 73
     1
 44
1.32052821128451
  0
MTEXT
  5
B2
330
36
100
AcDbEntity
  8
1
 62
     7
100
AcDbMText
 10
188.5
 20
15.0
 30
0.0
 40
3.0
 41
0.0
 71
     5
 72
     1
  1
三栄水栓製作所
  7
CONVERTER_1
 73
     1
 44
1.32052821128451
  0
ENDBLK
  5
38
330
36
100
AcDbEntity
  8
0
100
AcDbBlockEnd
  0
BLOCK
  5
3A
330
39
100
AcDbEntity
  8
0
100
AcDbBlockBegin
  2
B4121R-0B-13-M11
 70
     0
 71
     0
 10
420.0
 20
594.0
 30
0.0
  3
B4121R-0B-13-M11
  1

  0
LINE
  5
B3
330
39
100
AcDbEntity
  8
1
  6
PHANTOM
 62
     4
100
AcDbLine
 10
201.2499999999999
 20
287.3786996130602
 30
0.0
 11
113.4499999999997
 21
287.3786996130602
 31
0.0
  0
LINE
  5
B4
330
39
100
AcDbEntity
  8
1
  6
Continuous
 62
     7
100
AcDbLine
 10
186.4111131672011
 20
287.3786996130601
 30
0.0
 11
194.0888868327984
 21
287.3786996130601
 31
0.0
  0
LINE
  5
B5
330
39
100
AcDbEntity
  8
1
  6
Continuous
 62
     7
100
AcDbLine
 10
119.4499999999997
 20
296.7166996130723
 30
0.0
 11
119.4499999999997
 21
278.0406996130723
 31
0.0
  0
LINE
  5
B6
330
39
100
AcDbEntity
  8
1
  6
Continuous
 62
     7
100
AcDbLine
 10
120.6119999999995
 20
297.8561996130723
 30
0.0
 11
120.6119999999995
 21
276.9011996130726
 31
0.0
  0
LINE
  5
B7
330
39
100
AcDbEntity
  8
1
  6
Continuous
 62
     7
100
AcDbLine
 10
304.8610141612206
 20
300.3786996130602
 30
0.0
 11
319.8721211601505
 21
300.3786996130602
 31
0.0
  0
LINE
  5
B8
330
39
100
AcDbEntity
  8
1
  6
PHANTOM
 62
     4
100
AcDbLine
 10
116.4499999999985
 20
420.0
 30
0.0
 11
198.2499999999985
 21
420.0000000000002
 31
0.0
  0
LINE
  5
B9
330
39
100
AcDbEntity
  8
1
  6
Continuous
 62
     7
100
AcDbLine
 10
138.2236718952229
 20
409.5225
 30
0.0
 11
120.6119999999986
 21
409.5225
 31
0.0
  0
LINE
  5
BA
330
39
100
AcDbEntity
  8
1
  6
Continuous
 62
     7
100
AcDbLine
 10
138.2236718952232
 20
430.4775
 30
0.0
 11
120.6119999999986
 21
430.4775
 31
0.0
  0
LINE
  5
BB
330
39
100
AcDbEntity
  8
1
  6
Continuous
 62
     7
100
AcDbLine
 10
119.4499999999985
 20
410.6619999999998
 30
0.0
 11
119.4499999999985
 21
429.3380000000004
 31
0.0
  0
LINE
  5
BC
330
39
100
AcDbEntity
  8
1
  6
Continuous
 62
     7
100
AcDbLine
 10
179.4818730639796
 20
433.0000000000005
 30
0.0
 11
183.9370841201473
 21
433.0
 31
0.0
  0
LINE
  5
BD
330
39
100
AcDbEntity
  8
1
  6
Continuous
 62
     7
100
AcDbLine
 10
120.6119999999986
 20
430.4775
 30
0.0
 11
120.6119999999986
 21
409.5225
 31
0.0
  0
LINE
  5
BE
330
39
100
AcDbEntity
  8
1
  6
Continuous
 62
     2
100
AcDbLine
 10
119.4499999999985
 20
429.3380000000004
 30
0.0
 11
136.2499999999985
 21
429.3380000000004
 31
0.0
  0
LINE
  5
BF
330
39
100
AcDbEntity
  8
1
  6
Continuous
 62
     7
100
AcDbLine
 10
136.2499999999985
 20
429.3380000000004
 30
0.0
 11
136.2499999999985
 21
430.4775
 31
0.0
  0
LINE
  5
C0
330
39
100
AcDbEntity
  8
1
  6
Continuous
 62
     7
100
AcDbLine
 10
136.2499999999985
 20
409.5225
 30
0.0
 11
136.2499999999985
 21
413.5203937251089
 31
0.0
  0
LINE
  5
C1
330
39
100
AcDbEntity
  8
1
  6
Continuous
 62
     7
100
AcDbLine
 10
120.6119999999986
 20
409.5225
 30
0.0
 11
119.4499999999985
 21
410.6619999999998
 31
0.0
  0
LINE
  5
C2
330
39
100
AcDbEntity
  8
1
  6
Continuous
 62
     7
100
AcDbLine
 10
120.6119999999986
 20
430.4775
 30
0.0
 11
119.4499999999985
 21
429.3380000000004
 31
0.0
  0
LINE
  5
C3
330
39
100
AcDbEntity
  8
1
  6
Continuous
 62
     2
100
AcDbLine
 10
136.2499999999985
 20
429.3380000000004
 30
0.0
 11
138.2236718952232
 21
430.4775
 31
0.0
  0
LINE
  5
C4
330
39
100
AcDbEntity
  8
1
  6
Continuous
 62
     7
100
AcDbLine
 10
149.7768730639792
 20
434.0
 30
0.0
 11
147.0632212977919
 21
433.9999999999736
 31
0.0
  0
LINE
  5
C5
330
39
100
AcDbEntity
  8
1
  6
Continuous
 62
     7
100
AcDbLine
 10
149.7681269360176
 20
433.9999999999877
 30
0.0
 11
149.7681269360182
 21
443.4999999999874
 31
0.0
  0
LINE
  5
C6
330
39
100
AcDbEntity
  8
1
  6
Continuous
 62
     2
100
AcDbLine
 10
150.9301269360179
 20
436.0126430383825
 30
0.0
 11
150.9301269360182
 21
443.4999999999874
 31
0.0
  0
LINE
  5
C7
330
39
100
AcDbEntity
  8
1
  6
Continuous
 62
     2
100
AcDbLine
 10
149.7768730639792
 20
434.0
 30
0.0
 11
150.9301269360179
 21
436.0126430383825
 31
0.0
  0
LINE
  5
C8
330
39
100
AcDbEntity
  8
1
  6
Continuous
 62
     7
100
AcDbLine
 10
149.7681269360181
 20
436.0126430383825
 30
0.0
 11
150.9301269360179
 21
436.0126430383825
 31
0.0
  0
LINE
  5
C9
330
39
100
AcDbEntity
  8
1
  6
PHANTOM
 62
     4
100
AcDbLine
 10
160.2499999999985
 20
402.4999999999994
 30
0.0
 11
160.2499999999987
 21
454.4999999999877
 31
0.0
  0
LINE
  5
CA
330
39
100
AcDbEntity
  8
1
  6
Continuous
 62
     7
100
AcDbLine
 10
142.5176143737252
 20
408.7499999999877
 30
0.0
 11
138.6696749781791
 21
408.7499999999877
 31
0.0
  0
LINE
  5
CB
330
39
100
AcDbEntity
  8
1
  6
Continuous
 62
     7
100
AcDbLine
 10
141.0268730639794
 20
431.2499999999877
 30
0.0
 11
138.669674978165
 21
431.2499999999877
 31
0.0
  0
LINE
  5
CC
330
39
100
AcDbEntity
  8
1
  6
Continuous
 62
     2
100
AcDbLine
 10
138.2236718952229
 20
409.5225
 30
0.0
 11
136.2499999999985
 21
410.6619999999998
 31
0.0
  0
LINE
  5
CD
330
39
100
AcDbEntity
  8
1
  6
Continuous
 62
     7
100
AcDbLine
 10
138.2236718952229
 20
409.5225
 30
0.0
 11
138.223671895223
 21
412.9915499346595
 31
0.0
  0
LINE
  5
CE
330
39
100
AcDbEntity
  8
1
  6
Continuous
 62
     2
100
AcDbLine
 10
136.2499999999985
 20
410.6619999999998
 30
0.0
 11
119.4499999999985
 21
410.6619999999998
 31
0.0
  0
LINE
  5
CF
330
39
100
AcDbEntity
  8
1
  6
Continuous
 62
     7
100
AcDbLine
 10
138.669674978165
 20
408.7499999999877
 30
0.0
 11
138.2236718952229
 21
409.5225
 31
0.0
  0
LINE
  5
D0
330
39
100
AcDbEntity
  8
1
  6
Continuous
 62
     7
100
AcDbLine
 10
138.669674978165
 20
431.2499999999877
 30
0.0
 11
138.2236718952232
 21
430.4775
 31
0.0
  0
LINE
  5
D1
330
39
100
AcDbEntity
  8
1
  6
Continuous
 62
     7
100
AcDbLine
 10
138.669674978165
 20
408.7499999999877
 30
0.0
 11
138.6696749781652
 21
412.8720437687633
 31
0.0
  0
LINE
  5
D2
330
39
100
AcDbEntity
  8
1
  6
Continuous
 62
     7
100
AcDbLine
 10
138.6696749781791
 20
408.7499999999877
 30
0.0
 11
138.669674978165
 21
408.7499999999877
 31
0.0
  0
LINE
  5
D3
330
39
100
AcDbEntity
  8
1
  6
Continuous
 62
     7
100
AcDbLine
 10
298.9526298745228
 20
306.2100119631168
 30
0.0
 11
299.0884461011526
 21
308.8015399478492
 31
0.0
  0
LINE
  5
D4
330
39
100
AcDbEntity
  8
1
  6
Continuous
 62
     7
100
AcDbLine
 10
298.3665676606855
 20
303.5962130088385
 30
0.0
 11
298.3665676606864
 21
297.8561996130599
 31
0.0
  0
LINE
  5
D5
330
39
100
AcDbEntity
  8
1
  6
Continuous
 62
     7
100
AcDbLine
 10
298.3665676606864
 20
285.6274109190248
 30
0.0
 11
298.3665676606864
 21
276.9011996130602
 31
0.0
  0
LINE
  5
D6
330
39
100
AcDbEntity
  8
1
  6
Continuous
 62
     7
100
AcDbLine
 10
296.3539246222906
 20
278.0631996130603
 30
0.0
 11
296.3539246222916
 21
296.6941996130601
 31
0.0
  0
LINE
  5
D7
330
39
100
AcDbEntity
  8
1
  6
Continuous
 62
     7
100
AcDbLine
 10
298.3665676606864
 20
297.8561996130599
 30
0.0
 11
298.3665676606864
 21
289.1299883070957
 31
0.0
  0
LINE
  5
D8
330
39
100
AcDbEntity
  8
1
  6
Continuous
 62
     7
100
AcDbLine
 10
299.0884461011526
 20
308.8015399478492
 30
0.0
 11
325.6446892202205
 21
308.8015399478492
 31
0.0
  0
LINE
  5
D9
330
39
100
AcDbEntity
  8
1
  6
Continuous
 62
     7
100
AcDbLine
 10
324.3665676606864
 20
310.0796615073832
 30
0.0
 11
300.3665676606864
 21
310.0796615073832
 31
0.0
  0
LINE
  5
DA
330
39
100
AcDbEntity
  8
1
  6
Continuous
 62
     7
100
AcDbLine
 10
301.1795676606865
 20
311.3786996130602
 30
0.0
 11
323.5535676606855
 21
311.3786996130602
 31
0.0
  0
LINE
  5
DB
330
39
100
AcDbEntity
  8
1
  6
Continuous
 62
     7
100
AcDbLine
 10
300.3665676606864
 20
310.1887807082598
 30
0.0
 11
300.3665676606864
 21
310.0796615073832
 31
0.0
  0
LINE
  5
DC
330
39
100
AcDbEntity
  8
1
  6
Continuous
 62
     7
100
AcDbLine
 10
300.3665676606864
 20
310.1887807082598
 30
0.0
 11
300.3665676606864
 21
310.0796615073832
 31
0.0
  0
LINE
  5
DD
330
39
100
AcDbEntity
  8
1
  6
Continuous
 62
     2
100
AcDbLine
 10
296.3539246222916
 20
296.6941996130601
 30
0.0
 11
298.3665676606864
 21
297.8561996130599
 31
0.0
  0
LINE
  5
DE
330
39
100
AcDbEntity
  8
1
  6
Continuous
 62
     2
100
AcDbLine
 10
301.1795676606865
 20
311.3786996130602
 30
0.0
 11
300.3665676606864
 21
310.0796615073832
 31
0.0
  0
LINE
  5
DF
330
39
100
AcDbEntity
  8
1
  6
Continuous
 62
     7
100
AcDbLine
 10
300.3665676606864
 20
311.3786996130602
 30
0.0
 11
300.3665676606864
 21
310.1887807082598
 31
0.0
  0
LINE
  5
E0
330
39
100
AcDbEntity
  8
1
  6
Continuous
 62
     7
100
AcDbLine
 10
300.3665676606864
 20
311.3786996130602
 30
0.0
 11
301.1795676606865
 21
311.3786996130602
 31
0.0
  0
LINE
  5
E1
330
39
100
AcDbEntity
  8
1
  6
Continuous
 62
     7
100
AcDbLine
 10
296.3539246222916
 20
296.6941996130601
 30
0.0
 11
296.3539246222916
 21
297.8561996130599
 31
0.0
  0
LINE
  5
E2
330
39
100
AcDbEntity
  8
1
  6
Continuous
 62
     2
100
AcDbLine
 10
298.3665676606864
 20
276.9011996130602
 30
0.0
 11
296.3539246222906
 21
278.0631996130603
 31
0.0
  0
LINE
  5
E3
330
39
100
AcDbEntity
  8
1
  6
Continuous
 62
     7
100
AcDbLine
 10
298.3665676606864
 20
276.9011996130602
 30
0.0
 11
288.3699999999996
 21
276.90119961306
 31
0.0
  0
LINE
  5
E4
330
39
100
AcDbEntity
  8
1
  6
Continuous
 62
     7
100
AcDbLine
 10
323.5535676606855
 20
311.3786996130602
 30
0.0
 11
324.3665676606864
 21
311.3786996130602
 31
0.0
  0
LINE
  5
E5
330
39
100
AcDbEntity
  8
1
  6
Continuous
 62
     7
100
AcDbLine
 10
296.3539246222906
 20
276.9011996130602
 30
0.0
 11
296.3539246222906
 21
278.0631996130603
 31
0.0
  0
LINE
  5
E6
330
39
100
AcDbEntity
  8
1
  6
Continuous
 62
     7
100
AcDbLine
 10
299.0884461011526
 20
308.8015399478492
 30
0.0
 11
300.3665676606864
 21
310.0796615073832
 31
0.0
  0
LINE
  5
E7
330
39
100
AcDbEntity
  8
1
  6
Continuous
 62
     7
100
AcDbLine
 10
324.3665676606864
 20
310.0796615073832
 30
0.0
 11
325.6446892202205
 21
308.8015399478492
 31
0.0
  0
LINE
  5
E8
330
39
100
AcDbEntity
  8
1
  6
Continuous
 62
     7
100
AcDbLine
 10
298.3665676606864
 20
276.1286996130602
 30
0.0
 11
298.3665676606864
 21
276.9011996130602
 31
0.0
  0
LINE
  5
E9
330
39
100
AcDbEntity
  8
1
  6
Continuous
 62
     2
100
AcDbLine
 10
301.1795676606865
 20
311.3786996130602
 30
0.0
 11
301.1795676606867
 21
312.8786996130602
 31
0.0
  0
LINE
  5
EA
330
39
100
AcDbEntity
  8
1
  6
Continuous
 62
     7
100
AcDbLine
 10
325.6446892202205
 20
308.8015399478492
 30
0.0
 11
326.6309882496975
 21
289.9818333514185
 31
0.0
  0
LINE
  5
EB
330
39
100
AcDbEntity
  8
1
  6
Continuous
 62
     7
100
AcDbLine
 10
298.3665676606864
 20
276.1286996130602
 30
0.0
 11
298.9059770347146
 21
276.1286996130602
 31
0.0
  0
LINE
  5
EC
330
39
100
AcDbEntity
  8
1
  6
Continuous
 62
     7
100
AcDbLine
 10
324.3665676606864
 20
310.0796615073832
 30
0.0
 11
324.3665676606865
 21
312.8786996130602
 31
0.0
  0
LINE
  5
ED
330
39
100
AcDbEntity
  8
1
  6
Continuous
 62
     2
100
AcDbLine
 10
324.3665676606864
 20
310.0796615073832
 30
0.0
 11
323.5535676606855
 21
311.3786996130602
 31
0.0
  0
LINE
  5
EE
330
39
100
AcDbEntity
  8
1
  6
Continuous
 62
     7
100
AcDbLine
 10
319.8721211601505
 20
274.3786996130602
 30
0.0
 11
304.8610141612206
 21
274.3786996130602
 31
0.0
  0
LINE
  5
EF
330
39
100
AcDbEntity
  8
1
  6
Continuous
 62
     7
100
AcDbLine
 10
304.8610141612206
 20
274.3786996130602
 30
0.0
 11
297.3554606617556
 21
287.3786996130602
 31
0.0
  0
LINE
  5
F0
330
39
100
AcDbEntity
  8
1
  6
Continuous
 62
     7
100
AcDbLine
 10
297.3554606617556
 20
287.3786996130602
 30
0.0
 11
304.8610141612206
 21
300.3786996130602
 31
0.0
  0
LINE
  5
F1
330
39
100
AcDbEntity
  8
1
  6
Continuous
 62
     7
100
AcDbLine
 10
327.3776746596165
 20
287.3786996130602
 30
0.0
 11
319.8721211601505
 21
274.3786996130602
 31
0.0
  0
LINE
  5
F2
330
39
100
AcDbEntity
  8
1
  6
Continuous
 62
     7
100
AcDbLine
 10
319.8721211601505
 20
300.3786996130602
 30
0.0
 11
327.3776746596165
 21
287.3786996130602
 31
0.0
  0
LINE
  5
F3
330
39
100
AcDbEntity
  8
1
  6
Continuous
 62
     7
100
AcDbLine
 10
303.2842381735384
 20
285.3786996130602
 30
0.0
 11
321.4488971478347
 21
285.3786996130602
 31
0.0
  0
LINE
  5
F4
330
39
100
AcDbEntity
  8
1
  6
Continuous
 62
     7
100
AcDbLine
 10
193.2388930010688
 20
427.5055534994654
 30
0.0
 11
187.2611069989285
 21
427.5055534994654
 31
0.0
  0
LINE
  5
F5
330
39
100
AcDbEntity
  8
1
  6
Continuous
 62
     7
100
AcDbLine
 10
193.2388930010688
 20
412.4944465005353
 30
0.0
 11
187.2611069989285
 21
412.4944465005353
 31
0.0
  0
LINE
  5
F6
330
39
100
AcDbEntity
  8
1
  6
Continuous
 62
     7
100
AcDbLine
 10
195.2499999999985
 20
407.0
 30
0.0
 11
195.2499999999985
 21
433.0000000000002
 31
0.0
  0
LINE
  5
F7
330
39
100
AcDbEntity
  8
1
  6
Continuous
 62
     7
100
AcDbLine
 10
193.2388930010688
 20
404.9888930010704
 30
0.0
 11
187.2611069989285
 21
404.9888930010704
 31
0.0
  0
LINE
  5
F8
330
39
100
AcDbEntity
  8
1
  6
Continuous
 62
     7
100
AcDbLine
 10
193.2388930010712
 20
435.01110699893
 30
0.0
 11
193.2388930010688
 21
435.0111069989307
 31
0.0
  0
LINE
  5
F9
330
39
100
AcDbEntity
  8
1
  6
Continuous
 62
     7
100
AcDbLine
 10
193.2388930010688
 20
435.0111069989307
 30
0.0
 11
187.2611069989285
 21
435.0111069989299
 31
0.0
  0
LINE
  5
FA
330
39
100
AcDbEntity
  8
1
  6
Continuous
 62
     7
100
AcDbLine
 10
195.2499999999985
 20
407.0
 30
0.0
 11
193.2388930010688
 21
404.9888930010704
 31
0.0
  0
LINE
  5
FB
330
39
100
AcDbEntity
  8
1
  6
Continuous
 62
     7
100
AcDbLine
 10
193.2388930010688
 20
435.0111069989307
 30
0.0
 11
195.2499999999985
 21
433.0000000000002
 31
0.0
  0
LINE
  5
FC
330
39
100
AcDbEntity
  8
1
  6
Continuous
 62
     7
100
AcDbLine
 10
138.2236718952231
 20
427.0084500653415
 30
0.0
 11
138.2236718952232
 21
430.4775
 31
0.0
  0
LINE
  5
FD
330
39
100
AcDbEntity
  8
1
  6
Continuous
 62
     7
100
AcDbLine
 10
138.6696749781656
 20
427.1279562312378
 30
0.0
 11
138.669674978165
 21
431.2499999999877
 31
0.0
  0
LINE
  5
FE
330
39
100
AcDbEntity
  8
1
  6
Continuous
 62
     7
100
AcDbLine
 10
136.2499999999985
 20
426.4796062748921
 30
0.0
 11
136.2499999999985
 21
429.3380000000004
 31
0.0
  0
LINE
  5
FF
330
39
100
AcDbEntity
  8
1
  6
Continuous
 62
     7
100
AcDbLine
 10
176.6437263948419
 20
407.0000000000002
 30
0.0
 11
183.9370841201473
 21
407.0000000000002
 31
0.0
  0
LINE
  5
100
330
39
100
AcDbEntity
  8
1
  6
Continuous
 62
     7
100
AcDbLine
 10
149.7768730639792
 20
434.0
 30
0.0
 11
156.1612089076489
 21
434.0
 31
0.0
  0
LINE
  5
101
330
39
100
AcDbEntity
  8
1
  6
Continuous
 62
     7
100
AcDbLine
 10
150.9301269360179
 20
436.0126430383825
 30
0.0
 11
158.5910319273161
 21
436.0126430383826
 31
0.0
  0
LINE
  5
102
330
39
100
AcDbEntity
  8
1
  6
Continuous
 62
     7
100
AcDbLine
 10
136.2499999999998
 20
278.0406996130723
 30
0.0
 11
136.2499999999998
 21
296.7166996130723
 31
0.0
  0
LINE
  5
103
330
39
100
AcDbEntity
  8
1
  6
Continuous
 62
     7
100
AcDbLine
 10
138.2236718952245
 20
276.9011996130726
 30
0.0
 11
138.2236718952245
 21
297.8561996130723
 31
0.0
  0
LINE
  5
104
330
39
100
AcDbEntity
  8
1
  6
Continuous
 62
     7
100
AcDbLine
 10
148.9999999999997
 20
311.37869961306
 30
0.0
 11
171.4999999999997
 21
311.37869961306
 31
0.0
  0
LINE
  5
105
330
39
100
AcDbEntity
  8
1
  6
Continuous
 62
     7
100
AcDbLine
 10
172.2499999999997
 20
310.0796615073831
 30
0.0
 11
148.2499999999997
 21
310.0796615073831
 31
0.0
  0
LINE
  5
106
330
39
100
AcDbEntity
  8
1
  6
Continuous
 62
     7
100
AcDbLine
 10
173.528121559534
 20
308.8015399478487
 30
0.0
 11
173.5722241724189
 21
307.9600119631164
 31
0.0
  0
LINE
  5
107
330
39
100
AcDbEntity
  8
1
  6
Continuous
 62
     7
100
AcDbLine
 10
146.8360622138354
 20
306.2100119631099
 30
0.0
 11
146.8360622138358
 21
306.2100119631165
 31
0.0
  0
LINE
  5
108
330
39
100
AcDbEntity
  8
1
  6
Continuous
 62
     7
100
AcDbLine
 10
146.8360622138354
 20
306.2100119631099
 30
0.0
 11
146.9718784404652
 21
308.8015399478487
 31
0.0
  0
LINE
  5
109
330
39
100
AcDbEntity
  8
1
  6
Continuous
 62
     7
100
AcDbLine
 10
136.2499999999998
 20
276.9011996130726
 30
0.0
 11
136.2499999999998
 21
278.0406996130723
 31
0.0
  0
LINE
  5
10A
330
39
100
AcDbEntity
  8
1
  6
Continuous
 62
     7
100
AcDbLine
 10
120.6119999999995
 20
276.9011996130726
 30
0.0
 11
119.4499999999997
 21
278.0406996130723
 31
0.0
  0
LINE
  5
10B
330
39
100
AcDbEntity
  8
1
  6
Continuous
 62
     7
100
AcDbLine
 10
138.2236718952245
 20
297.8561996130723
 30
0.0
 11
120.6119999999995
 21
297.8561996130723
 31
0.0
  0
LINE
  5
10C
330
39
100
AcDbEntity
  8
1
  6
Continuous
 62
     7
100
AcDbLine
 10
120.6119999999995
 20
297.8561996130723
 30
0.0
 11
119.4499999999997
 21
296.7166996130723
 31
0.0
  0
LINE
  5
10D
330
39
100
AcDbEntity
  8
1
  6
Continuous
 62
     7
100
AcDbLine
 10
138.2236718952245
 20
297.8561996130723
 30
0.0
 11
120.6119999999995
 21
297.8561996130723
 31
0.0
  0
LINE
  5
10E
330
39
100
AcDbEntity
  8
1
  6
Continuous
 62
     2
100
AcDbLine
 10
119.4499999999997
 20
296.7166996130723
 30
0.0
 11
136.2499999999998
 21
296.7166996130723
 31
0.0
  0
LINE
  5
10F
330
39
100
AcDbEntity
  8
1
  6
Continuous
 62
     7
100
AcDbLine
 10
136.2499999999998
 20
296.7166996130723
 30
0.0
 11
136.2499999999998
 21
297.8561996130723
 31
0.0
  0
LINE
  5
110
330
39
100
AcDbEntity
  8
1
  6
Continuous
 62
     2
100
AcDbLine
 10
136.2499999999998
 20
296.7166996130723
 30
0.0
 11
138.2236718952245
 21
297.8561996130723
 31
0.0
  0
LINE
  5
111
330
39
100
AcDbEntity
  8
1
  6
Continuous
 62
     2
100
AcDbLine
 10
138.2236718952245
 20
276.9011996130726
 30
0.0
 11
136.2499999999998
 21
278.0406996130723
 31
0.0
  0
LINE
  5
112
330
39
100
AcDbEntity
  8
1
  6
Continuous
 62
     2
100
AcDbLine
 10
136.2499999999998
 20
278.0406996130723
 30
0.0
 11
119.4499999999997
 21
278.0406996130723
 31
0.0
  0
LINE
  5
113
330
39
100
AcDbEntity
  8
1
  6
Continuous
 62
     7
100
AcDbLine
 10
148.4707810106095
 20
274.3786996130602
 30
0.0
 11
195.2499999999999
 21
274.3786996130602
 31
0.0
  0
LINE
  5
114
330
39
100
AcDbEntity
  8
1
  6
Continuous
 62
     7
100
AcDbLine
 10
146.9718784404652
 20
308.8015399478487
 30
0.0
 11
148.2499999999997
 21
310.0796615073831
 31
0.0
  0
LINE
  5
115
330
39
100
AcDbEntity
  8
1
  6
Continuous
 62
     7
100
AcDbLine
 10
172.2499999999997
 20
310.0796615073831
 30
0.0
 11
173.528121559534
 21
308.8015399478487
 31
0.0
  0
LINE
  5
116
330
39
100
AcDbEntity
  8
1
  6
Continuous
 62
     7
100
AcDbLine
 10
181.5612604504553
 20
300.37869961306
 30
0.0
 11
195.2499999999999
 21
300.37869961306
 31
0.0
  0
LINE
  5
117
330
39
100
AcDbEntity
  8
1
  6
Continuous
 62
     7
100
AcDbLine
 10
195.2499999999999
 20
274.3786996130602
 30
0.0
 11
195.2499999999999
 21
300.37869961306
 31
0.0
  0
LINE
  5
118
330
39
100
AcDbEntity
  8
1
  6
Continuous
 62
     2
100
AcDbLine
 10
148.2499999999997
 20
310.0796615073831
 30
0.0
 11
148.9999999999997
 21
311.37869961306
 31
0.0
  0
LINE
  5
119
330
39
100
AcDbEntity
  8
1
  6
Continuous
 62
     2
100
AcDbLine
 10
172.2499999999997
 20
310.0796615073831
 30
0.0
 11
171.4999999999997
 21
311.37869961306
 31
0.0
  0
LINE
  5
11A
330
39
100
AcDbEntity
  8
1
  6
Continuous
 62
     2
100
AcDbLine
 10
171.4999999999997
 20
311.37869961306
 30
0.0
 11
171.4999999999997
 21
312.87869961306
 31
0.0
  0
LINE
  5
11B
330
39
100
AcDbEntity
  8
1
  6
Continuous
 62
     2
100
AcDbLine
 10
148.9999999999997
 20
311.37869961306
 30
0.0
 11
148.9999999999997
 21
312.87869961306
 31
0.0
  0
LINE
  5
11C
330
39
100
AcDbEntity
  8
1
  6
Continuous
 62
     7
100
AcDbLine
 10
172.2499999999997
 20
311.37869961306
 30
0.0
 11
171.4999999999997
 21
311.37869961306
 31
0.0
  0
LINE
  5
11D
330
39
100
AcDbEntity
  8
1
  6
Continuous
 62
     7
100
AcDbLine
 10
148.2499999999997
 20
310.0796615073831
 30
0.0
 11
148.2499999999998
 21
311.37869961306
 31
0.0
  0
LINE
  5
11E
330
39
100
AcDbEntity
  8
1
  6
Continuous
 62
     7
100
AcDbLine
 10
148.2499999999998
 20
311.37869961306
 30
0.0
 11
148.9999999999997
 21
311.37869961306
 31
0.0
  0
LINE
  5
11F
330
39
100
AcDbEntity
  8
1
  6
Continuous
 62
     7
100
AcDbLine
 10
148.2499999999998
 20
311.37869961306
 30
0.0
 11
148.2499999999998
 21
312.87869961306
 31
0.0
  0
LINE
  5
120
330
39
100
AcDbEntity
  8
1
  6
PHANTOM
 62
     4
100
AcDbLine
 10
160.2499999999998
 20
271.3786996130602
 30
0.0
 11
160.2499999999998
 21
320.37869961306
 31
0.0
  0
LINE
  5
121
330
39
100
AcDbEntity
  8
1
  6
Continuous
 62
     7
100
AcDbLine
 10
136.4780761629817
 20
294.1786996130601
 30
0.0
 11
136.4780761629793
 21
294.1786996130601
 31
0.0
  0
LINE
  5
122
330
39
100
AcDbEntity
  8
1
  6
Continuous
 62
     7
100
AcDbLine
 10
138.2236718952245
 20
276.9011996130726
 30
0.0
 11
120.6119999999995
 21
276.9011996130726
 31
0.0
  0
LINE
  5
123
330
39
100
AcDbEntity
  8
1
  6
Continuous
 62
     7
100
AcDbLine
 10
136.4780761629855
 20
294.1786996130601
 30
0.0
 11
136.4780761629817
 21
294.1786996130601
 31
0.0
  0
LINE
  5
124
330
39
100
AcDbEntity
  8
1
  6
Continuous
 62
     7
100
AcDbLine
 10
136.4804761780605
 20
294.1786996130601
 30
0.0
 11
136.4780761629817
 21
294.1786996130601
 31
0.0
  0
LINE
  5
125
330
39
100
AcDbEntity
  8
1
  6
Continuous
 62
     7
100
AcDbLine
 10
172.2499999999997
 20
312.87869961306
 30
0.0
 11
172.2499999999997
 21
310.0796615073831
 31
0.0
  0
LINE
  5
126
330
39
100
AcDbEntity
  8
1
  6
Continuous
 62
     7
100
AcDbLine
 10
143.5826623480346
 20
303.87869961306
 30
0.0
 11
144.7999663856949
 21
303.87869961306
 31
0.0
  0
LINE
  5
127
330
39
100
AcDbEntity
  8
1
  6
Continuous
 62
     7
100
AcDbLine
 10
141.4531651199112
 20
300.485861408363
 30
0.0
 11
141.5902729518512
 21
302.0530110985553
 31
0.0
  0
LINE
  5
128
330
39
100
AcDbEntity
  8
1
  6
Continuous
 62
     2
100
AcDbLine
 10
323.5535676606846
 20
312.8786996130602
 30
0.0
 11
323.5535676606855
 21
311.3786996130602
 31
0.0
  0
LINE
  5
129
330
39
100
AcDbEntity
  8
1
  6
Continuous
 62
     7
100
AcDbLine
 10
300.3665676606864
 20
312.8786996130602
 30
0.0
 11
300.3665676606864
 21
310.1887807082598
 31
0.0
  0
LINE
  5
12A
330
39
100
AcDbEntity
  8
1
  6
Continuous
 62
     7
100
AcDbLine
 10
288.3699999999996
 20
297.8561996130599
 30
0.0
 11
298.3665676606864
 21
297.8561996130599
 31
0.0
  0
LINE
  5
12B
330
39
100
AcDbEntity
  8
1
  6
Continuous
 62
     2
100
AcDbLine
 10
288.3699999999996
 20
296.6941996130601
 30
0.0
 11
296.3539246222916
 21
296.6941996130601
 31
0.0
  0
LINE
  5
12C
330
39
100
AcDbEntity
  8
1
  6
Continuous
 62
     2
100
AcDbLine
 10
288.3699999999996
 20
278.0631996130601
 30
0.0
 11
296.3539246222906
 21
278.0631996130603
 31
0.0
  0
LINE
  5
12D
330
39
100
AcDbEntity
  8
1
  6
Continuous
 62
     7
100
AcDbLine
 10
138.2236718952245
 20
297.8561996130723
 30
0.0
 11
138.9975888450495
 21
298.6301165628968
 31
0.0
  0
LINE
  5
12E
330
39
100
AcDbEntity
  8
1
  6
Continuous
 62
     7
100
AcDbLine
 10
138.6696749781667
 20
298.3022026960141
 30
0.0
 11
138.6696749781664
 21
276.4551965301064
 31
0.0
  0
LINE
  5
12F
330
39
100
AcDbEntity
  8
1
  6
Continuous
 62
     7
100
AcDbLine
 10
138.9975888450495
 20
276.1272826632234
 30
0.0
 11
138.2236718952245
 21
276.9011996130478
 31
0.0
  0
LINE
  5
130
330
39
100
AcDbEntity
  8
1
  6
Continuous
 62
     7
100
AcDbLine
 10
139.9537565052045
 20
276.1286996130602
 30
0.0
 11
138.9961718952127
 21
276.1286996130602
 31
0.0
  0
ARC
  5
131
330
39
100
AcDbEntity
  8
1
  6
Continuous
 62
     7
100
AcDbCircle
 10
141.0268730639799
 20
439.2499999999877
 30
0.0
 40
8.0
100
AcDbArc
 50
-90.00000000000367
 51
-41.01449966586698
  0
LINE
  5
132
330
39
100
AcDbEntity
  8
1
  6
Continuous
 62
     7
100
AcDbLine
 10
147.0632212977919
 20
433.9999999999736
 30
0.0
 11
147.0632212978042
 21
433.9999999999877
 31
0.0
  0
ARC
  5
133
330
39
100
AcDbEntity
  8
1
  6
Continuous
 62
     7
100
AcDbCircle
 10
179.4818730638866
 20
440.9999999996392
 30
0.0
 40
7.999999999638731
100
AcDbArc
 50
-109.8105225356471
 51
-89.99999999933397
  0
ARC
  5
134
330
39
100
AcDbEntity
  8
1
  6
Continuous
 62
     7
100
AcDbCircle
 10
290.9635935964844
 20
306.6286996130604
 30
0.0
 40
8.000000000001256
100
AcDbArc
 50
-22.27552015977874
 51
-2.99999999999961
  0
ARC
  5
135
330
39
100
AcDbEntity
  8
1
  6
Continuous
 62
     7
100
AcDbCircle
 10
312.3665676606864
 20
287.3786996130602
 30
0.0
 40
14.49999999999994
100
AcDbArc
 50
-56.29155527473074
 51
-3.70844472526849
  0
ARC
  5
136
330
39
100
AcDbEntity
  8
1
  6
Continuous
 62
     7
100
AcDbCircle
 10
298.9059770347146
 20
261.1286996130602
 30
0.0
 40
14.99999999999991
100
AcDbArc
 50
68.23482288898484
 51
90.0
  0
ARC
  5
137
330
39
100
AcDbEntity
  8
1
  6
Continuous
 62
     7
100
AcDbCircle
 10
312.3665676606864
 20
287.3786996130602
 30
0.0
 40
14.49999999999919
100
AcDbArc
 50
3.70844472526961
 51
10.3421789369473
  0
ARC
  5
138
330
39
100
AcDbEntity
  8
1
  6
Continuous
 62
     7
100
AcDbCircle
 10
180.2388930010641
 20
420.0000000000002
 30
0.0
 40
15.01110699893424
100
AcDbArc
 50
-29.99999999999044
 51
29.9999999999912
  0
ARC
  5
139
330
39
100
AcDbEntity
  8
1
  6
Continuous
 62
     7
100
AcDbCircle
 10
200.2611069989333
 20
420.0000000000002
 30
0.0
 40
15.01110699893443
100
AcDbArc
 50
150.000000000009
 51
-150.0000000000097
  0
ARC
  5
13A
330
39
100
AcDbEntity
  8
1
  6
Continuous
 62
     7
100
AcDbCircle
 10
189.756941874331
 20
408.7416697508029
 30
0.0
 40
4.506941874332016
100
AcDbArc
 50
123.6264291359885
 51
179.9999999999986
  0
ARC
  5
13B
330
39
100
AcDbEntity
  8
1
  6
Continuous
 62
     7
100
AcDbCircle
 10
189.756941874331
 20
408.7416697508029
 30
0.0
 40
4.506941874332512
100
AcDbArc
 50
179.9999999999986
 51
-140.82892514768
  0
ARC
  5
13C
330
39
100
AcDbEntity
  8
1
  6
Continuous
 62
     7
100
AcDbCircle
 10
189.756941874331
 20
431.2583302491976
 30
0.0
 40
4.506941874332512
100
AcDbArc
 50
-179.9999999999957
 51
-123.6264291359897
  0
ARC
  5
13D
330
39
100
AcDbEntity
  8
1
  6
Continuous
 62
     7
100
AcDbCircle
 10
189.756941874331
 20
431.2583302491976
 30
0.0
 40
4.506941874331922
100
AcDbArc
 50
123.6264291359892
 51
140.8289251476811
  0
ARC
  5
13E
330
39
100
AcDbEntity
  8
1
  6
Continuous
 62
     7
100
AcDbCircle
 10
190.7430581256666
 20
431.2583302491976
 30
0.0
 40
4.506941874331702
100
AcDbArc
 50
-56.37357086401367
 51
33.62642913598173
  0
ARC
  5
13F
330
39
100
AcDbEntity
  8
1
  6
Continuous
 62
     7
100
AcDbCircle
 10
183.9370841201473
 20
404.0000000000003
 30
0.0
 40
3.000000000000204
100
AcDbArc
 50
39.17107485232201
 51
90.0
  0
ARC
  5
140
330
39
100
AcDbEntity
  8
1
  6
Continuous
 62
     7
100
AcDbCircle
 10
189.756941874331
 20
408.7416697508029
 30
0.0
 40
4.506941874332426
100
AcDbArc
 50
-140.82892514768
 51
-123.6264291359876
  0
ARC
  5
141
330
39
100
AcDbEntity
  8
1
  6
Continuous
 62
     7
100
AcDbCircle
 10
183.9370841201473
 20
436.0
 30
0.0
 40
3.0
100
AcDbArc
 50
-90.0
 51
-39.17107485232032
  0
ARC
  5
142
330
39
100
AcDbEntity
  8
1
  6
Continuous
 62
     7
100
AcDbCircle
 10
189.756941874331
 20
431.2583302491976
 30
0.0
 40
4.506941874332355
100
AcDbArc
 50
140.8289251476811
 51
-179.9999999999957
  0
ARC
  5
143
330
39
100
AcDbEntity
  8
1
  6
Continuous
 62
     7
100
AcDbCircle
 10
190.7430581256666
 20
408.7416697508029
 30
0.0
 40
4.506941874332128
100
AcDbArc
 50
-33.62642913597231
 51
56.37357086401487
  0
ARC
  5
144
330
39
100
AcDbEntity
  8
1
  6
Continuous
 62
     7
100
AcDbCircle
 10
160.2499999999985
 20
455.4999999999918
 30
0.0
 40
49.99999999999247
100
AcDbArc
 50
-110.7718550452923
 51
-94.13029832017925
  0
ARC
  5
145
330
39
100
AcDbEntity
  8
1
  6
Continuous
 62
     7
100
AcDbCircle
 10
176.9111131672007
 20
280.8786996130602
 30
0.0
 40
18.36643427850114
100
AcDbArc
 50
-20.726439595021
 51
20.72643959502084
  0
ARC
  5
146
330
39
100
AcDbEntity
  8
1
  6
Continuous
 62
     7
100
AcDbCircle
 10
176.9111131672007
 20
293.8786996130601
 30
0.0
 40
18.36643427850114
100
AcDbArc
 50
-20.726439595021
 51
20.72643959502067
  0
ARC
  5
147
330
39
100
AcDbEntity
  8
1
  6
Continuous
 62
     7
100
AcDbCircle
 10
203.5888868328005
 20
280.8786996130602
 30
0.0
 40
18.36643427850272
100
AcDbArc
 50
159.2735604049811
 51
-159.2735604049809
  0
ARC
  5
148
330
39
100
AcDbEntity
  8
1
  6
Continuous
 62
     7
100
AcDbCircle
 10
203.5888868328005
 20
293.8786996130601
 30
0.0
 40
18.3664342785027
100
AcDbArc
 50
159.2735604049812
 51
-159.2735604049809
  0
ARC
  5
149
330
39
100
AcDbEntity
  8
1
  6
Continuous
 62
     7
100
AcDbCircle
 10
181.5612604504553
 20
308.37869961306
 30
0.0
 40
7.999999999999806
100
AcDbArc
 50
-176.9999999999996
 51
-90.0
  0
ARC
  5
14A
330
39
100
AcDbEntity
  8
1
  6
Continuous
 62
     7
100
AcDbCircle
 10
160.2499999999998
 20
322.87869961306
 30
0.0
 40
50.0
100
AcDbArc
 50
-108.1948723387674
 51
-104.5143030815589
  0
ARC
  5
14B
330
39
100
AcDbEntity
  8
1
  6
Continuous
 62
     7
100
AcDbCircle
 10
138.8470259358056
 20
306.6286996130531
 30
0.0
 40
7.999999999993147
100
AcDbArc
 50
-7.18075578139922
 51
-3.0
  0
ARC
  5
14C
330
39
100
AcDbEntity
  8
1
  6
Continuous
 62
     7
100
AcDbCircle
 10
138.8470259358056
 20
306.6286996130531
 30
0.0
 40
7.999999999992976
100
AcDbArc
 50
-88.9216089251339
 51
-84.12885185724171
  0
ARC
  5
14D
330
39
100
AcDbEntity
  8
1
  6
Continuous
 62
     7
100
AcDbCircle
 10
138.8470259358056
 20
306.6286996130531
 30
0.0
 40
7.999999999992954
100
AcDbArc
 50
-71.95520315219757
 51
-20.10550978788054
  0
ARC
  5
14E
330
39
100
AcDbEntity
  8
1
  6
Continuous
 62
     7
100
AcDbCircle
 10
138.8470259358056
 20
306.6286996130531
 30
0.0
 40
7.999999999993355
100
AcDbArc
 50
-20.10550978788054
 51
-7.18075578139922
  0
ARC
  5
14F
330
39
100
AcDbEntity
  8
1
  6
Continuous
 62
     7
100
AcDbCircle
 10
138.8470259358056
 20
306.6286996130531
 30
0.0
 40
7.999999999992984
100
AcDbArc
 50
-84.12885185724096
 51
-71.95520315219757
  0
CIRCLE
  5
150
330
39
100
AcDbEntity
  8
1
  6
Continuous
 62
     2
100
AcDbCircle
 10
312.3665676606864
 20
287.3786996130602
 30
0.0
 40
10.5
  0
CIRCLE
  5
151
330
39
100
AcDbEntity
  8
1
  6
Continuous
 62
     7
100
AcDbCircle
 10
312.3665676606864
 20
287.3786996130602
 30
0.0
 40
12.99999999999972
  0
CIRCLE
  5
152
330
39
100
AcDbEntity
  8
1
  6
Continuous
 62
     7
100
AcDbCircle
 10
312.3665676606864
 20
287.3786996130602
 30
0.0
 40
9.29993058646761
  0
ARC
  5
153
330
39
100
AcDbEntity
  8
1
  6
Continuous
 62
     7
100
AcDbCircle
 10
148.4707810106095
 20
277.3786996130602
 30
0.0
 40
3.00000000000013
100
AcDbArc
 50
-104.5143030815585
 51
-90.0
  0
ARC
  5
154
330
39
100
AcDbEntity
  8
1
  6
Continuous
 62
     7
100
AcDbCircle
 10
139.9537565052045
 20
261.1286996130602
 30
0.0
 40
15.0
100
AcDbArc
 50
71.80512766123326
 51
90.0
  0
ARC
  5
155
330
39
100
AcDbEntity
  8
1
  6
Continuous
 62
     7
100
AcDbCircle
 10
143.5826623480346
 20
301.87869961306
 30
0.0
 40
2.0
100
AcDbArc
 50
90.0
 51
175.0
  0
ARC
  5
156
330
39
100
AcDbEntity
  8
1
  6
Continuous
 62
     7
100
AcDbCircle
 10
139.4607757237276
 20
300.6601728938583
 30
0.0
 40
1.999999999999981
100
AcDbArc
 50
-84.12885185723913
 51
-4.99999999999953
  0
ARC
  5
157
330
39
100
AcDbEntity
  8
1
  6
Continuous
 62
     7
100
AcDbCircle
 10
144.7999663856949
 20
305.87869961306
 30
0.0
 40
2.0
100
AcDbArc
 50
-90.0
 51
-7.18075578139756
  0
ENDBLK
  5
3B
330
39
100
AcDbEntity
  8
0
100
AcDbBlockEnd
  0
BLOCK
  5
3D
330
3C
100
AcDbEntity
  8
0
100
AcDbBlockBegin
  2
34-188-M2K
 70
     0
 71
     0
 10
898.2309259439627
 20
267.6646823621676
 30
0.0
  3
34-188-M2K
  1

  0
LINE
  5
158
330
3C
100
AcDbEntity
  8
1
  6
Continuous
 62
     7
100
AcDbLine
 10
171.7499999999988
 20
447.5667148778471
 30
0.0
 11
171.7499999999989
 21
454.7678268764133
 31
0.0
  0
LINE
  5
159
330
3C
100
AcDbEntity
  8
1
  6
Continuous
 62
     7
100
AcDbLine
 10
148.7499999999986
 20
454.7678268764132
 30
0.0
 11
148.7499999999986
 21
444.2321731236974
 31
0.0
  0
LINE
  5
15A
330
3C
100
AcDbEntity
  8
1
  6
Continuous
 62
     7
100
AcDbLine
 10
149.2499999999986
 20
443.4999999999871
 30
0.0
 11
166.1140835309998
 21
443.4999999999871
 31
0.0
  0
LINE
  5
15B
330
3C
100
AcDbEntity
  8
1
  6
Continuous
 62
     7
100
AcDbLine
 10
149.2499999999989
 20
455.4999999999871
 30
0.0
 11
171.2499999999988
 21
455.4999999999871
 31
0.0
  0
LINE
  5
15C
330
3C
100
AcDbEntity
  8
1
  6
Continuous
 62
     7
100
AcDbLine
 10
276.3699999999998
 20
276.3786996130645
 30
0.0
 11
276.3699999999996
 21
287.3786996130645
 31
0.0
  0
LINE
  5
15D
330
3C
100
AcDbEntity
  8
1
  6
Continuous
 62
     7
100
AcDbLine
 10
288.3699999999998
 20
276.3786996130645
 30
0.0
 11
288.3699999999998
 21
287.3786996130645
 31
0.0
  0
LINE
  5
15E
330
3C
100
AcDbEntity
  8
1
  6
Continuous
 62
     7
100
AcDbLine
 10
288.3699999999998
 20
287.3786996130645
 30
0.0
 11
288.3699999999998
 21
298.3786996130645
 31
0.0
  0
LINE
  5
15F
330
3C
100
AcDbEntity
  8
1
  6
Continuous
 62
     7
100
AcDbLine
 10
276.3699999999996
 20
287.3786996130645
 30
0.0
 11
276.3699999999998
 21
298.3786996130645
 31
0.0
  0
ARC
  5
160
330
3C
100
AcDbEntity
  8
1
  6
Continuous
 62
     7
100
AcDbCircle
 10
163.2499999999989
 20
449.4999999999871
 30
0.0
 40
9.999999999999925
100
AcDbArc
 50
31.78833061705093
 51
36.86989764584431
  0
ARC
  5
161
330
3C
100
AcDbEntity
  8
1
  6
Continuous
 62
     7
100
AcDbCircle
 10
157.2499999999986
 20
449.4999999999871
 30
0.0
 40
9.999999999927999
100
AcDbArc
 50
-148.211669383614
 51
-143.130102354156
  0
ARC
  5
162
330
3C
100
AcDbEntity
  8
1
  6
Continuous
 62
     7
100
AcDbCircle
 10
157.2499999999986
 20
449.4999999999871
 30
0.0
 40
9.999999999999773
100
AcDbArc
 50
143.130102354155
 51
148.2116693829496
  0
ARC
  5
163
330
3C
100
AcDbEntity
  8
1
  6
Continuous
 62
     7
100
AcDbCircle
 10
282.3699999999998
 20
284.3786996130644
 30
0.0
 40
9.999999999999909
100
AcDbArc
 50
-126.8698976458444
 51
-53.13010235415559
  0
ARC
  5
164
330
3C
100
AcDbEntity
  8
1
  6
Continuous
 62
     7
100
AcDbCircle
 10
282.3699999999998
 20
290.3786996130646
 30
0.0
 40
9.999999999999909
100
AcDbArc
 50
53.13010235415559
 51
126.8698976458444
  0
SPLINE
  5
165
330
3C
100
AcDbEntity
  8
1
  6
Continuous
 62
     7
100
AcDbSpline
210
0.0
220
0.0
230
1.0
 70
     8
 71
     3
 72
    11
 73
     7
 74
     5
 42
0.0000000001
 43
0.0000000001
 44
0.00000001
 40
0.0
 40
0.0
 40
0.0
 40
0.0
 40
0.2378827264336794
 40
0.4762225037816759
 40
0.9342389612442865
 40
1.39225541870698
 40
1.39225541870698
 40
1.39225541870698
 40
1.39225541870698
 10
166.9294710945605
 20
444.3153875635467
 30
0.0
 10
166.8512425976693
 20
444.3023194684541
 30
0.0
 10
166.694635301229
 20
444.2761581701626
 30
0.0
 10
166.3849163076133
 20
444.242903597961
 30
0.0
 10
165.9998451554268
 20
444.2235482035352
 30
0.0
 10
165.694897837315
 20
444.242688738482
 30
0.0
 10
165.5424241782591
 20
444.2522590059555
 30
0.0
 11
166.9294710945605
 21
444.3153875635467
 31
0.0
 11
166.6944687041694
 21
444.2784813574835
 31
0.0
 11
166.457575821738
 21
444.2522590059556
 31
0.0
 11
165.9999999999986
 21
444.2321731236974
 31
0.0
 11
165.5424241782591
 21
444.2522590059555
 31
0.0
  0
SPLINE
  5
166
330
3C
100
AcDbEntity
  8
1
  6
Continuous
 62
     7
100
AcDbSpline
210
0.0
220
0.0
230
1.0
 70
     8
 71
     3
 72
    65
 73
    61
 74
    59
 42
0.0000000001
 43
0.0000000001
 44
0.00000001
 40
0.0
 40
0.0
 40
0.0
 40
0.0
 40
0.4580629073445691
 40
0.9161250954496316
 40
1.374321004625374
 40
1.83251556410403
 40
2.290914921249731
 40
2.749312464134564
 40
3.207961104920467
 40
3.666607688416333
 40
4.125521335344119
 40
4.584432931141512
 40
5.043595344343751
 40
5.502755958881478
 40
5.962120941340181
 40
6.421484591837527
 40
6.880981585492368
 40
7.340477871484097
 40
7.80002045810805
 40
8.259563044731827
 40
8.719059330723493
 40
9.178556324378235
 40
9.637919974875553
 40
10.09728495733433
 40
10.55644557187209
 40
11.01560798507435
 40
11.47451958087179
 40
11.93343322779966
 40
12.39207981129552
 40
12.85072845208143
 40
13.3091259949661
 40
13.76752535211187
 40
14.22571991159051
 40
14.68391582076633
 40
15.14197800887146
 40
15.60004091621598
 40
16.05805737367865
 40
16.51607383114129
 40
16.97413673848588
 40
17.432198926591
 40
17.89039483576684
 40
18.34858939524553
 40
18.80698875239125
 40
19.26538629527597
 40
19.72403493606186
 40
20.18268151955783
 40
20.64159516648569
 40
21.10050676228313
 40
21.55966917548532
 40
22.0188297900231
 40
22.47819477248186
 40
22.93755842297918
 40
23.39705541663384
 40
23.85655170262558
 40
24.31609428924936
 40
24.77563687587331
 40
25.2351331618651
 40
25.69463015551987
 40
26.13012632708866
 40
26.56546039687664
 40
26.56546039687664
 40
26.56546039687664
 40
26.56546039687664
 10
165.5424241782591
 20
444.2522590059555
 30
0.0
 10
165.3906071794584
 20
444.2694424226622
 30
0.0
 10
165.0869734202367
 20
444.3038092290948
 30
0.0
 10
164.6394496311764
 20
444.4057815272388
 30
0.0
 10
164.2019940541751
 20
444.543445346907
 30
0.0
 10
163.7783476044275
 20
444.7198261181369
 30
0.0
 10
163.3715279840129
 20
444.9321596198635
 30
0.0
 10
162.9848058955596
 20
445.1795303411238
 30
0.0
 10
162.6209359572045
 20
445.4595551743078
 30
0.0
 10
162.2829022989982
 20
445.7705338231355
 30
0.0
 10
161.97303070113
 20
446.1097001597885
 30
0.0
 10
161.6939558586894
 20
446.4748423919479
 30
0.0
 10
161.4474921695645
 20
446.862840741396
 30
0.0
 10
161.2358517618304
 20
447.2710486411534
 30
0.0
 10
161.0602792006256
 20
447.6960912007246
 30
0.0
 10
160.92249838611
 20
448.1349601776537
 30
0.0
 10
160.823147694579
 20
448.5841362561831
 30
0.0
 10
160.7634074457303
 20
449.0403329472679
 30
0.0
 10
160.7432959394034
 20
449.500000000123
 30
0.0
 10
160.7634074457297
 20
449.9596670529855
 30
0.0
 10
160.8231476945805
 20
450.4158637440477
 30
0.0
 10
160.9224983861041
 20
450.86503982266
 30
0.0
 10
161.060279200647
 20
451.3039087992793
 30
0.0
 10
161.2358517617506
 20
451.7289513600063
 30
0.0
 10
161.4474921698629
 20
452.1371592554525
 30
0.0
 10
161.6939558575758
 20
452.5251576209861
 30
0.0
 10
161.973030705284
 20
452.8902997931451
 30
0.0
 10
162.2829022834992
 20
453.2294663536555
 30
0.0
 10
162.6209360150101
 20
453.5404441674997
 30
0.0
 10
162.9848056798703
 20
453.8204721159526
 30
0.0
 10
163.3715287884872
 20
454.0678312169395
 30
0.0
 10
163.7783446025872
 20
454.2802080748764
 30
0.0
 10
164.2020052516503
 20
454.4564271073627
 30
0.0
 10
164.6394078460223
 20
454.5946944310566
 30
0.0
 10
165.0871293141459
 20
454.6944150457258
 30
0.0
 10
165.5418269974817
 20
454.754366141798
 30
0.0
 10
165.9999999999986
 20
454.7745569026637
 30
0.0
 10
166.4581730025156
 20
454.7543661417981
 30
0.0
 10
166.9128706858513
 20
454.6944150457257
 30
0.0
 10
167.360592153975
 20
454.5946944310566
 30
0.0
 10
167.7979947483472
 20
454.4564271073627
 30
0.0
 10
168.2216553974097
 20
454.2802080748766
 30
0.0
 10
168.6284712115112
 20
454.0678312169388
 30
0.0
 10
169.0151943201228
 20
453.8204721159547
 30
0.0
 10
169.3790639850028
 20
453.5404441674927
 30
0.0
 10
169.7170977164399
 20
453.2294663536812
 30
0.0
 10
170.0269692949306
 20
452.8902997930488
 30
0.0
 10
170.3060441416109
 20
452.5251576213443
 30
0.0
 10
170.5525078331615
 20
452.1371592541156
 30
0.0
 10
170.7641482269477
 20
451.7289513649966
 30
0.0
 10
170.9397208415402
 20
451.3039087806454
 30
0.0
 10
171.0775014564219
 20
450.8650398922101
 30
0.0
 10
171.1768528932968
 20
450.4158634844005
 30
0.0
 10
171.2365903602011
 20
449.9596680220321
 30
0.0
 10
171.2567122498749
 20
449.499996383189
 30
0.0
 10
171.2365619928601
 20
449.0403464452286
 30
0.0
 10
171.1769663493957
 20
448.584085886738
 30
0.0
 10
171.078805735667
 20
448.1429218942033
 30
0.0
 10
170.9486564025174
 20
447.7182178378193
 30
0.0
 10
170.8349520104346
 20
447.4509556514971
 30
0.0
 10
170.7781103972161
 20
447.3173494332623
 30
0.0
 11
165.5424241782591
 21
444.2522590059555
 31
0.0
 11
165.0883015633789
 21
444.3122113014853
 31
0.0
 11
164.6411777833639
 21
444.4117165451499
 31
0.0
 11
164.2043126937439
 21
444.5498917406688
 31
0.0
 11
163.7812240772835
 21
444.7257845402867
 31
0.0
 11
163.3748988274289
 21
444.9379867126654
 31
0.0
 11
162.9886943368095
 21
445.1849166597117
 31
0.0
 11
162.6252633938944
 21
445.4646960825193
 31
0.0
 11
162.2876691511885
 21
445.7751583440654
 31
0.0
 11
161.978181474298
 21
446.1140080352109
 31
0.0
 11
161.6994467641473
 21
446.4785719035722
 31
0.0
 11
161.453308414209
 21
446.8661877370818
 31
0.0
 11
161.241896499785
 21
447.2737824774579
 31
0.0
 11
161.0665842102495
 21
447.6983785069343
 31
0.0
 11
160.9289167586064
 21
448.136628020518
 31
0.0
 11
160.8297513236717
 21
448.5852968334435
 31
0.0
 11
160.7700137955234
 21
449.0408934363401
 31
0.0
 11
160.7499999999987
 21
449.5000000001243
 31
0.0
 11
160.7700137955233
 21
449.9591065639083
 31
0.0
 11
160.8297513236715
 21
450.4147031668049
 31
0.0
 11
160.9289167586063
 21
450.8633719797304
 31
0.0
 11
161.0665842102495
 21
451.301621493314
 31
0.0
 11
161.241896499785
 21
451.7262175227904
 31
0.0
 11
161.453308414209
 21
452.1338122631666
 31
0.0
 11
161.6994467641473
 21
452.5214280966762
 31
0.0
 11
161.978181474298
 21
452.8859919650375
 31
0.0
 11
162.2876691511886
 21
453.2248416561832
 31
0.0
 11
162.6252633938943
 21
453.5353039177293
 31
0.0
 11
162.9886943368095
 21
453.8150833405369
 31
0.0
 11
163.3748988274288
 21
454.062013287583
 31
0.0
 11
163.7812240772834
 21
454.2742154599617
 31
0.0
 11
164.2043126937439
 21
454.4501082595796
 31
0.0
 11
164.6411777833639
 21
454.5882834550986
 31
0.0
 11
165.0883015633789
 21
454.6877886987633
 31
0.0
 11
165.5424241782591
 21
454.7477409942929
 31
0.0
 11
165.9999999999986
 21
454.7678268765511
 31
0.0
 11
166.4575758217381
 21
454.7477409942929
 31
0.0
 11
166.9116984366183
 21
454.6877886987633
 31
0.0
 11
167.3588222166333
 21
454.5882834550986
 31
0.0
 11
167.7956873062534
 21
454.4501082595797
 31
0.0
 11
168.2187759227139
 21
454.2742154599617
 31
0.0
 11
168.6251011725685
 21
454.0620132875831
 31
0.0
 11
169.0113056631878
 21
453.8150833405369
 31
0.0
 11
169.3747366061029
 21
453.5353039177293
 31
0.0
 11
169.7123308488088
 21
453.2248416561831
 31
0.0
 11
170.0218185256993
 21
452.8859919650374
 31
0.0
 11
170.30055323585
 21
452.5214280966761
 31
0.0
 11
170.5466915857884
 21
452.1338122631666
 31
0.0
 11
170.7581035002123
 21
451.7262175227904
 31
0.0
 11
170.9334157897478
 21
451.301621493314
 31
0.0
 11
171.071083241391
 21
450.8633719797304
 31
0.0
 11
171.1702486763257
 21
450.4147031668049
 31
0.0
 11
171.229986204474
 21
449.9591065639083
 31
0.0
 11
171.2499999999987
 21
449.5000000001243
 31
0.0
 11
171.229986204474
 21
449.0408934363401
 31
0.0
 11
171.1702486763257
 21
448.5852968334435
 31
0.0
 11
171.071083241391
 21
448.136628020518
 31
0.0
 11
170.9415106822785
 21
447.7208542029487
 31
0.0
 11
170.7781103972161
 21
447.3173494332623
 31
0.0
  0
SPLINE
  5
167
330
3C
100
AcDbEntity
  8
1
  6
Continuous
 62
     7
100
AcDbSpline
210
0.0
220
0.0
230
1.0
 70
    11
 71
     3
 72
    79
 73
    75
 74
    73
 42
0.0000000001
 43
0.0000000001
 44
0.00000001
 40
0.0
 40
0.0
 40
0.0
 40
0.0
 40
0.4580629073446611
 40
0.9161250954497822
 40
1.374321004625578
 40
1.832515564104235
 40
2.290914921249986
 40
2.749312464134796
 40
3.207961104920676
 40
3.666607688416562
 40
4.125521335344329
 40
4.584432931141706
 40
5.043595344343929
 40
5.502755958881669
 40
5.962120941340372
 40
6.421484591837718
 40
6.880981585492546
 40
7.340477871484276
 40
7.800020458108227
 40
8.259563044732008
 40
8.719059330723681
 40
9.178556324378411
 40
9.637919974875711
 40
10.0972849573345
 40
10.55644557187229
 40
11.01560798507451
 40
11.47451958087192
 40
11.93343322779979
 40
12.39207981129569
 40
12.85072845208163
 40
13.30912599496629
 40
13.76752535211202
 40
14.2257199115906
 40
14.68391582076651
 40
15.14197800887169
 40
15.6000409162163
 40
16.05805737367894
 40
16.51607383114152
 40
16.97413673848608
 40
17.43219892659126
 40
17.8903948357671
 40
18.34858939524575
 40
18.80698875239146
 40
19.26538629527615
 40
19.72403493606204
 40
20.18268151955798
 40
20.64159516648585
 40
21.10050676228329
 40
21.55966917548551
 40
22.01882979002329
 40
22.47819477248205
 40
22.93755842297937
 40
23.39705541663405
 40
23.85655170262578
 40
24.31609428924956
 40
24.77563687587351
 40
25.2351331618653
 40
25.69463015552002
 40
26.15399380601737
 40
26.61335878847614
 40
27.07251940301393
 40
27.53168181621614
 40
27.99059341201357
 40
28.44950705894124
 40
28.90815364243712
 40
29.366802283223
 40
29.82519982610781
 40
30.28359918325351
 40
30.7417937427322
 40
31.19998965190801
 40
31.65805184001314
 40
32.11611474735774
 40
32.57413120482035
 40
33.03214766228305
 40
33.03214766228305
 40
33.03214766228305
 40
33.03214766228305
 10
154.0424241782592
 20
444.2522590059556
 30
0.0
 10
153.8906071794586
 20
444.2694424226624
 30
0.0
 10
153.5869734202368
 20
444.3038092290951
 30
0.0
 10
153.1394496311763
 20
444.4057815272385
 30
0.0
 10
152.7019940541751
 20
444.5434453469072
 30
0.0
 10
152.2783476044274
 20
444.7198261181367
 30
0.0
 10
151.8715279840128
 20
444.9321596198636
 30
0.0
 10
151.4848058955594
 20
445.1795303411238
 30
0.0
 10
151.1209359572044
 20
445.4595551743076
 30
0.0
 10
150.7829022989981
 20
445.7705338231356
 30
0.0
 10
150.4730307011299
 20
446.1097001597885
 30
0.0
 10
150.1939558586894
 20
446.474842391948
 30
0.0
 10
149.9474921695644
 20
446.8628407413959
 30
0.0
 10
149.7358517618304
 20
447.2710486411536
 30
0.0
 10
149.5602792006255
 20
447.6960912007247
 30
0.0
 10
149.4224983861099
 20
448.1349601776537
 30
0.0
 10
149.3231476945791
 20
448.5841362561831
 30
0.0
 10
149.2634074457302
 20
449.0403329472679
 30
0.0
 10
149.2432959394035
 20
449.500000000123
 30
0.0
 10
149.2634074457299
 20
449.9596670529858
 30
0.0
 10
149.3231476945806
 20
450.4158637440476
 30
0.0
 10
149.4224983861042
 20
450.86503982266
 30
0.0
 10
149.5602792006471
 20
451.3039087992796
 30
0.0
 10
149.7358517617506
 20
451.7289513600061
 30
0.0
 10
149.9474921698631
 20
452.1371592554526
 30
0.0
 10
150.1939558575759
 20
452.5251576209863
 30
0.0
 10
150.473030705284
 20
452.8902997931451
 30
0.0
 10
150.7829022834993
 20
453.2294663536555
 30
0.0
 10
151.1209360150102
 20
453.5404441674997
 30
0.0
 10
151.4848056798705
 20
453.820472115953
 30
0.0
 10
151.8715287884873
 20
454.0678312169392
 30
0.0
 10
152.2783446025873
 20
454.2802080748764
 30
0.0
 10
152.7020052516503
 20
454.4564271073626
 30
0.0
 10
153.1394078460224
 20
454.5946944310567
 30
0.0
 10
153.587129314146
 20
454.6944150457258
 30
0.0
 10
154.0418269974819
 20
454.7543661417981
 30
0.0
 10
154.4999999999987
 20
454.7745569026637
 30
0.0
 10
154.9581730025157
 20
454.7543661417981
 30
0.0
 10
155.4128706858514
 20
454.6944150457256
 30
0.0
 10
155.8605921539751
 20
454.5946944310567
 30
0.0
 10
156.2979947483472
 20
454.4564271073627
 30
0.0
 10
156.7216553974101
 20
454.2802080748763
 30
0.0
 10
157.1284712115103
 20
454.0678312169393
 30
0.0
 10
157.515194320127
 20
453.8204721159527
 30
0.0
 10
157.8790639849874
 20
453.5404441674999
 30
0.0
 10
158.2170977164981
 20
453.2294663536555
 30
0.0
 10
158.5269692947135
 20
452.8902997931448
 30
0.0
 10
158.8060441424216
 20
452.5251576209862
 30
0.0
 10
159.0525078301345
 20
452.1371592554525
 30
0.0
 10
159.264148238247
 20
451.7289513600061
 30
0.0
 10
159.4397207993504
 20
451.3039087992793
 30
0.0
 10
159.5775016138934
 20
450.8650398226602
 30
0.0
 10
159.6768523054169
 20
450.4158637440478
 30
0.0
 10
159.7365925542678
 20
449.9596670529853
 30
0.0
 10
159.756704060594
 20
449.5000000001242
 30
0.0
 10
159.7365925542677
 20
449.0403329472636
 30
0.0
 10
159.6768523054167
 20
448.5841362561993
 30
0.0
 10
159.5775016138937
 20
448.134960177593
 30
0.0
 10
159.4397207993489
 20
447.6960912009514
 30
0.0
 10
159.2641482382527
 20
447.2710486403076
 30
0.0
 10
159.0525078301131
 20
446.8628407445516
 30
0.0
 10
158.8060441425016
 20
446.474842380173
 30
0.0
 10
158.5269692944153
 20
446.1097002037064
 30
0.0
 10
158.2170977176109
 20
445.7705336592675
 30
0.0
 10
157.8790639808374
 20
445.4595557854775
 30
0.0
 10
157.5151943356119
 20
445.1795280606791
 30
0.0
 10
157.1284711537547
 20
444.932168125437
 30
0.0
 10
156.7216556129215
 20
444.7197943801766
 30
0.0
 10
156.2979939444458
 20
444.5435637359649
 30
0.0
 10
155.8605951538607
 20
444.4053397396945
 30
0.0
 10
155.4128594937448
 20
444.3054574696934
 30
0.0
 10
154.9582147707185
 20
444.2461096234123
 30
0.0
 10
154.4998441364395
 20
444.2236677178604
 30
0.0
 10
154.1948974976527
 20
444.2427285765904
 30
0.0
 10
154.0424241782593
 20
444.2522590059556
 30
0.0
 11
154.0424241782592
 21
444.2522590059556
 31
0.0
 11
153.5883015633789
 21
444.3122113014854
 31
0.0
 11
153.1411777833639
 21
444.4117165451499
 31
0.0
 11
152.7043126937438
 21
444.5498917406688
 31
0.0
 11
152.2812240772834
 21
444.7257845402867
 31
0.0
 11
151.8748988274288
 21
444.9379867126654
 31
0.0
 11
151.4886943368094
 21
445.1849166597117
 31
0.0
 11
151.1252633938943
 21
445.4646960825193
 31
0.0
 11
150.7876691511884
 21
445.7751583440654
 31
0.0
 11
150.4781814742979
 21
446.1140080352109
 31
0.0
 11
150.1994467641472
 21
446.4785719035722
 31
0.0
 11
149.9533084142089
 21
446.8661877370818
 31
0.0
 11
149.741896499785
 21
447.2737824774579
 31
0.0
 11
149.5665842102495
 21
447.6983785069343
 31
0.0
 11
149.4289167586064
 21
448.136628020518
 31
0.0
 11
149.3297513236717
 21
448.5852968334435
 31
0.0
 11
149.2700137955234
 21
449.0408934363401
 31
0.0
 11
149.2499999999987
 21
449.5000000001243
 31
0.0
 11
149.2700137955234
 21
449.9591065639083
 31
0.0
 11
149.3297513236717
 21
450.4147031668049
 31
0.0
 11
149.4289167586064
 21
450.8633719797304
 31
0.0
 11
149.5665842102496
 21
451.301621493314
 31
0.0
 11
149.7418964997851
 21
451.7262175227904
 31
0.0
 11
149.9533084142091
 21
452.1338122631666
 31
0.0
 11
150.1994467641474
 21
452.5214280966762
 31
0.0
 11
150.4781814742981
 21
452.8859919650375
 31
0.0
 11
150.7876691511886
 21
453.2248416561832
 31
0.0
 11
151.1252633938944
 21
453.5353039177293
 31
0.0
 11
151.4886943368096
 21
453.8150833405369
 31
0.0
 11
151.8748988274289
 21
454.062013287583
 31
0.0
 11
152.2812240772835
 21
454.2742154599617
 31
0.0
 11
152.7043126937439
 21
454.4501082595796
 31
0.0
 11
153.141177783364
 21
454.5882834550986
 31
0.0
 11
153.5883015633791
 21
454.6877886987633
 31
0.0
 11
154.0424241782594
 21
454.7477409942929
 31
0.0
 11
154.4999999999988
 21
454.7678268765511
 31
0.0
 11
154.9575758217382
 21
454.7477409942929
 31
0.0
 11
155.4116984366185
 21
454.6877886987633
 31
0.0
 11
155.8588222166335
 21
454.5882834550986
 31
0.0
 11
156.2956873062536
 21
454.4501082595797
 31
0.0
 11
156.718775922714
 21
454.2742154599617
 31
0.0
 11
157.1251011725686
 21
454.0620132875831
 31
0.0
 11
157.5113056631879
 21
453.8150833405369
 31
0.0
 11
157.874736606103
 21
453.5353039177293
 31
0.0
 11
158.2123308488089
 21
453.2248416561831
 31
0.0
 11
158.5218185256994
 21
452.8859919650374
 31
0.0
 11
158.8005532358501
 21
452.5214280966761
 31
0.0
 11
159.0466915857885
 21
452.1338122631666
 31
0.0
 11
159.2581035002124
 21
451.7262175227904
 31
0.0
 11
159.4334157897479
 21
451.301621493314
 31
0.0
 11
159.5710832413911
 21
450.8633719797304
 31
0.0
 11
159.6702486763259
 21
450.4147031668049
 31
0.0
 11
159.7299862044741
 21
449.9591065639083
 31
0.0
 11
159.7499999999988
 21
449.5000000001243
 31
0.0
 11
159.7299862044741
 21
449.0408934363401
 31
0.0
 11
159.6702486763257
 21
448.5852968334435
 31
0.0
 11
159.5710832413911
 21
448.136628020518
 31
0.0
 11
159.4334157897479
 21
447.6983785069343
 31
0.0
 11
159.2581035002124
 21
447.2737824774579
 31
0.0
 11
159.0466915857885
 21
446.8661877370817
 31
0.0
 11
158.8005532358501
 21
446.4785719035722
 31
0.0
 11
158.5218185256994
 21
446.1140080352109
 31
0.0
 11
158.2123308488089
 21
445.7751583440654
 31
0.0
 11
157.8747366061031
 21
445.4646960825193
 31
0.0
 11
157.511305663188
 21
445.1849166597117
 31
0.0
 11
157.1251011725686
 21
444.9379867126654
 31
0.0
 11
156.718775922714
 21
444.7257845402868
 31
0.0
 11
156.2956873062536
 21
444.5498917406688
 31
0.0
 11
155.8588222166335
 21
444.4117165451499
 31
0.0
 11
155.4116984366185
 21
444.3122113014853
 31
0.0
 11
154.9575758217382
 21
444.2522590059556
 31
0.0
 11
154.4999999999988
 21
444.2321731236974
 31
0.0
 11
154.0424241782593
 21
444.2522590059556
 31
0.0
  0
SPLINE
  5
168
330
3C
100
AcDbEntity
  8
1
  6
Continuous
 62
     7
100
AcDbSpline
210
0.0
220
0.0
230
1.0
 70
     8
 71
     3
 72
    45
 73
    41
 74
    39
 42
0.0000000001
 43
0.0000000001
 44
0.00000001
 40
0.0
 40
0.0
 40
0.0
 40
0.0
 40
0.2639815460522617
 40
0.5283419841191088
 40
1.054652170762623
 40
1.580985067100827
 40
2.101700160272526
 40
2.622460348438444
 40
3.134495226137503
 40
3.646596368619065
 40
4.147789061289613
 40
4.649065936797166
 40
5.138470095605115
 40
5.627969508813668
 40
6.1060463612463
 40
6.584217829940108
 40
7.05287364957028
 40
7.521607363809197
 40
7.98402555662773
 40
8.446488192993048
 40
8.906737372258981
 40
9.366986551524859
 40
9.829449187890184
 40
10.29186738070862
 40
10.76060109494757
 40
11.22925691457774
 40
11.70742838327168
 40
12.18550523570426
 40
12.67500464891282
 40
13.16440880772081
 40
13.66568568322837
 40
14.16687837589901
 40
14.6789795183806
 40
15.19101439607956
 40
15.71177458424535
 40
16.23248967741707
 40
16.75882257375528
 40
17.28513276039874
 40
17.54949319846365
 40
17.81347474451358
 40
17.81347474451358
 40
17.81347474451358
 40
17.81347474451358
 10
277.1021731235729
 20
287.3786996130688
 30
0.0
 10
277.103141634922
 20
287.2906998491419
 30
0.0
 10
277.105080047722
 20
287.1145740154599
 30
0.0
 10
277.1257153829659
 20
286.7635205680032
 30
0.0
 10
277.1752090108902
 20
286.3268938283924
 30
0.0
 10
277.274412109697
 20
285.8113757944977
 30
0.0
 10
277.4122922395571
 20
285.3067574649626
 30
0.0
 10
277.5875103677249
 20
284.8188923381314
 30
0.0
 10
277.7995095139182
 20
284.3489955360313
 30
0.0
 10
278.04561548264
 20
283.9034324259314
 30
0.0
 10
278.3254657230095
 20
283.4825449428469
 30
0.0
 10
278.6351874867823
 20
283.0926986986491
 30
0.0
 10
278.9745684178689
 20
282.7337139882536
 30
0.0
 10
279.3387579223992
 20
282.4114206253246
 30
0.0
 10
279.7274820182916
 20
282.1254440949151
 30
0.0
 10
280.1353282677523
 20
281.8806397522734
 30
0.0
 10
280.5615932453942
 20
281.6766231922771
 30
0.0
 10
281.0008507804279
 20
281.5170282455154
 30
0.0
 10
281.4515573369286
 20
281.4014263789049
 30
0.0
 10
281.9088349264928
 20
281.3322211709292
 30
0.0
 10
282.3699999999998
 20
281.3086909247136
 30
0.0
 10
282.8311650735068
 20
281.3322211709292
 30
0.0
 10
283.2884426630708
 20
281.4014263789052
 30
0.0
 10
283.7391492195717
 20
281.5170282455152
 30
0.0
 10
284.1784067546051
 20
281.676623192277
 30
0.0
 10
284.6046717322474
 20
281.8806397522733
 30
0.0
 10
285.012517981708
 20
282.125444094915
 30
0.0
 10
285.4012420776003
 20
282.4114206253246
 30
0.0
 10
285.7654315821308
 20
282.7337139882534
 30
0.0
 10
286.1048125132172
 20
283.0926986986491
 30
0.0
 10
286.4145342769901
 20
283.482544942847
 30
0.0
 10
286.6943845173594
 20
283.9034324259317
 30
0.0
 10
286.9404904860813
 20
284.3489955360315
 30
0.0
 10
287.1524896322745
 20
284.8188923381315
 30
0.0
 10
287.3277077604424
 20
285.3067574649626
 30
0.0
 10
287.4655878903023
 20
285.8113757944977
 30
0.0
 10
287.5647909891093
 20
286.3268938283924
 30
0.0
 10
287.6142846170336
 20
286.7635205680026
 30
0.0
 10
287.6349199522772
 20
287.1145740154578
 30
0.0
 10
287.6368583650774
 20
287.2906998491384
 30
0.0
 10
287.6378268764265
 20
287.3786996130645
 30
0.0
 11
277.1021731235729
 21
287.3786996130688
 31
0.0
 11
277.1071754300253
 21
287.1147654667628
 31
0.0
 11
277.1221823493826
 21
286.8508313204567
 31
0.0
 11
277.1819109253902
 21
286.3279212806097
 31
0.0
 11
277.2813523923149
 21
285.8110676142557
 31
0.0
 11
277.4187563205751
 21
285.3088083497761
 31
0.0
 11
277.5949111369886
 21
284.81874646161
 31
0.0
 11
277.8056753385404
 21
284.3521008066163
 31
0.0
 11
278.0534382820388
 21
283.9039255016742
 31
0.0
 11
278.3311717788851
 21
283.4867226494358
 31
0.0
 11
278.6431506867549
 21
283.0943609961579
 31
0.0
 11
278.979606121216
 21
282.7389539460307
 31
0.0
 11
279.3462965372078
 21
282.4146889088292
 31
0.0
 11
279.7316042176003
 21
282.1316774810344
 31
0.0
 11
280.1416502769292
 21
281.8856893050958
 31
0.0
 11
280.564538601778
 21
281.6836899437607
 31
0.0
 11
281.0051000885513
 21
281.5236372298309
 31
0.0
 11
281.4530977704838
 21
281.4090568561507
 31
0.0
 11
281.9103372228648
 21
281.3397475983257
 31
0.0
 11
282.3699999999998
 21
281.3165217865735
 31
0.0
 11
282.8296627771347
 21
281.3397475983257
 31
0.0
 11
283.2869022295157
 21
281.4090568561508
 31
0.0
 11
283.7348999114481
 21
281.5236372298309
 31
0.0
 11
284.1754613982215
 21
281.6836899437606
 31
0.0
 11
284.5983497230703
 21
281.8856893050956
 31
0.0
 11
285.0083957823994
 21
282.1316774810343
 31
0.0
 11
285.3937034627918
 21
282.4146889088291
 31
0.0
 11
285.7603938787836
 21
282.7389539460306
 31
0.0
 11
286.0968493132447
 21
283.0943609961579
 31
0.0
 11
286.4088282211144
 21
283.4867226494359
 31
0.0
 11
286.6865617179607
 21
283.9039255016744
 31
0.0
 11
286.9343246614592
 21
284.3521008066165
 31
0.0
 11
287.1450888630109
 21
284.8187464616102
 31
0.0
 11
287.3212436794243
 21
285.3088083497761
 31
0.0
 11
287.4586476076845
 21
285.8110676142557
 31
0.0
 11
287.5580890746093
 21
286.3279212806097
 31
0.0
 11
287.6178176506169
 21
286.8508313204567
 31
0.0
 11
287.6328245699741
 21
287.1147654667608
 31
0.0
 11
287.6378268764265
 21
287.3786996130645
 31
0.0
  0
SPLINE
  5
169
330
3C
100
AcDbEntity
  8
1
  6
Continuous
 62
     7
100
AcDbSpline
210
0.0
220
0.0
230
1.0
 70
    11
 71
     3
 72
    79
 73
    75
 74
    73
 42
0.0000000001
 43
0.0000000001
 44
0.00000001
 40
0.0
 40
0.0
 40
0.0
 40
0.0
 40
0.2746255860865011
 40
0.5489296448750209
 40
0.8445351226056557
 40
1.139720930735086
 40
1.464847760107481
 40
1.789634474685627
 40
2.147784125837216
 40
2.50570221120716
 40
2.896040828699581
 40
3.286231079274645
 40
3.704624946715707
 40
4.122927269101195
 40
4.562895988146209
 40
5.002812031777879
 40
5.456315478849835
 40
5.909794870758275
 40
6.367899400179659
 40
6.826003929601038
 40
7.279483321509479
 40
7.732986768581427
 40
8.172902812213081
 40
8.612871531258096
 40
9.031173853643709
 40
9.449567721084698
 40
9.839757971659763
 40
10.23009658915218
 40
10.58801467452218
 40
10.94616432567373
 40
11.27095104025184
 40
11.59607786962415
 40
11.89126367775363
 40
12.18686915548429
 40
12.46117321427279
 40
12.73579880035928
 40
13.00262036940766
 40
13.26944193845605
 40
13.54406752454254
 40
13.81837158333104
 40
14.11397706106165
 40
14.40916286919105
 40
14.73428969856344
 40
15.05907641314155
 40
15.41722606429318
 40
15.77514414966315
 40
16.16548276715557
 40
16.55567301773068
 40
16.97406688517173
 40
17.39236920755727
 40
17.83233792660229
 40
18.27225397023392
 40
18.72575741730586
 40
19.1792368092143
 40
19.63734133863563
 40
20.09544586805706
 40
20.54892525996545
 40
21.00242870703745
 40
21.44234475066914
 40
21.88231346971408
 40
22.30061579209963
 40
22.71900965954067
 40
23.10919991011576
 40
23.49953852760821
 40
23.85745661297818
 40
24.21560626412973
 40
24.54039297870784
 40
24.86551980808027
 40
25.16070561620975
 40
25.45631109394036
 40
25.73061515272885
 40
26.00524073881539
 40
26.27206230786372
 40
26.53888387691211
 40
26.53888387691211
 40
26.53888387691211
 40
26.53888387691211
 10
277.1228614652557
 20
277.1533891577154
 30
0.0
 10
277.1406044939243
 20
277.0633998894548
 30
0.0
 10
277.1760697780039
 20
276.8835267109473
 30
0.0
 10
277.2819461843425
 20
276.6211403747055
 30
0.0
 10
277.4216110559709
 20
276.3681904933598
 30
0.0
 10
277.6023803127828
 20
276.1212132485085
 30
0.0
 10
277.8156184479141
 20
275.8885279979393
 30
0.0
 10
278.0666349091259
 20
275.6644127407766
 30
0.0
 10
278.3457381453757
 20
275.4575522007062
 30
0.0
 10
278.6591585989315
 20
275.2625098126634
 30
0.0
 10
278.9958819774046
 20
275.0867625989324
 30
0.0
 10
279.3621645628525
 20
274.9262362193067
 30
0.0
 10
279.7468042749762
 20
274.7864978098099
 30
0.0
 10
280.1548933551843
 20
274.6650296643298
 30
0.0
 10
280.5762413678953
 20
274.5654367895381
 30
0.0
 10
281.01383880986
 20
274.4864713673253
 30
0.0
 10
281.4594573996077
 20
274.4301044561481
 30
0.0
 10
281.9133859914554
 20
274.3958405263098
 30
0.0
 10
282.3699999999971
 20
274.3845384890417
 30
0.0
 10
282.8266140085549
 20
274.3958405263081
 30
0.0
 10
283.2805426003545
 20
274.4301044561538
 30
0.0
 10
283.7261611902766
 20
274.4864713673036
 30
0.0
 10
284.1637586316105
 20
274.5654367896153
 30
0.0
 10
284.5851066466215
 20
274.6650296640477
 30
0.0
 10
284.9931957186499
 20
274.7864978108054
 30
0.0
 10
285.3778354603002
 20
274.9262362156908
 30
0.0
 10
285.7441179426229
 20
275.0867626114218
 30
0.0
 10
286.0808416898512
 20
275.2625097675638
 30
0.0
 10
286.3942608756117
 20
275.4575523535995
 30
0.0
 10
286.6733686135699
 20
275.6644121906332
 30
0.0
 10
286.9243697535927
 20
275.8885298405227
 30
0.0
 10
287.1376621954019
 20
276.1212066099588
 30
0.0
 10
287.3182463623787
 20
276.3682127604913
 30
0.0
 10
287.4585722337113
 20
276.6210594127934
 30
0.0
 10
287.562148803453
 20
276.8838049170206
 30
0.0
 10
287.6232279604697
 20
277.1498022045632
 30
0.0
 10
287.6450211254406
 20
277.4194074695434
 30
0.0
 10
287.6232279604698
 20
277.6890127345237
 30
0.0
 10
287.5621488034529
 20
277.9550100220662
 30
0.0
 10
287.4585722337114
 20
278.2177555262933
 30
0.0
 10
287.3182463623787
 20
278.4706021785955
 30
0.0
 10
287.137662195402
 20
278.7176083291279
 30
0.0
 10
286.9243697535927
 20
278.950285098564
 30
0.0
 10
286.6733686135699
 20
279.1744027484536
 30
0.0
 10
286.3942608756116
 20
279.3812625854872
 30
0.0
 10
286.0808416898512
 20
279.576305171523
 30
0.0
 10
285.7441179426229
 20
279.752052327665
 30
0.0
 10
285.3778354603002
 20
279.9125787233962
 30
0.0
 10
284.9931957186499
 20
280.0523171282815
 30
0.0
 10
284.5851066466214
 20
280.1737852750391
 30
0.0
 10
284.1637586316105
 20
280.2733781494717
 30
0.0
 10
283.7261611902763
 20
280.3523435717831
 30
0.0
 10
283.2805426003546
 20
280.4087104829328
 30
0.0
 10
282.8266140085543
 20
280.4429744127788
 30
0.0
 10
282.3699999999996
 20
280.4542764500445
 30
0.0
 10
281.9133859914461
 20
280.4429744127789
 30
0.0
 10
281.4594573996424
 20
280.4087104829324
 30
0.0
 10
281.0138388097328
 20
280.3523435717848
 30
0.0
 10
280.5762413683542
 20
280.2733781494661
 30
0.0
 10
280.1548933535059
 20
280.1737852750592
 30
0.0
 10
279.7468042808987
 20
280.0523171282111
 30
0.0
 10
279.3621645413376
 20
279.912578723652
 30
0.0
 10
278.9958820517182
 20
279.7520523267815
 30
0.0
 10
278.6591583305817
 20
279.5763051747142
 30
0.0
 10
278.3457390551165
 20
279.3812625746691
 30
0.0
 10
278.0666316356829
 20
279.1744027873798
 30
0.0
 10
277.8156294115884
 20
278.9502849681896
 30
0.0
 10
277.6023408123226
 20
278.7176087988476
 30
0.0
 10
277.4217435490606
 20
278.470600603054
 30
0.0
 10
277.2814644476689
 20
278.2177612548645
 30
0.0
 10
277.1777251498338
 20
277.9549903372139
 30
0.0
 10
277.1172385807375
 20
277.6890855947719
 30
0.0
 10
277.0932924751253
 20
277.419144102708
 30
0.0
 10
277.1130051352122
 20
277.2419741393795
 30
0.0
 10
277.1228614652557
 20
277.1533891577154
 30
0.0
 11
277.1228614652557
 21
277.1533891577154
 31
0.0
 11
277.1844383469367
 21
276.8857560129522
 31
0.0
 11
277.2840389229287
 21
276.6301734589117
 31
0.0
 11
277.4269915824164
 21
276.3714320134303
 31
0.0
 11
277.6004408409766
 21
276.1325805616325
 31
0.0
 11
277.8194984864657
 21
275.8923281878033
 31
0.0
 11
278.0612835431043
 21
275.675472483814
 31
0.0
 11
278.3485104633916
 21
275.4615288723593
 31
0.0
 11
278.6521140328795
 21
275.2719761661557
 31
0.0
 11
278.9978262780355
 21
275.0907379807336
 31
0.0
 11
279.355054227786
 21
274.9337774010938
 31
0.0
 11
279.7481183480506
 21
274.7904106487665
 31
0.0
 11
280.1489694655951
 21
274.6708480522889
 31
0.0
 11
280.5770544363483
 21
274.5692816624083
 31
0.0
 11
281.0099565317759
 21
274.4910390830866
 31
0.0
 11
281.4598461507469
 21
274.4339014663333
 31
0.0
 11
281.9120383087143
 21
274.3997574894347
 31
0.0
 11
282.3699999999998
 21
274.3883185562979
 31
0.0
 11
282.8279616912853
 21
274.3997574894345
 31
0.0
 11
283.2801538492527
 21
274.4339014663332
 31
0.0
 11
283.7300434682237
 21
274.4910390830863
 31
0.0
 11
284.1629455636513
 21
274.5692816624083
 31
0.0
 11
284.5910305344044
 21
274.6708480522889
 31
0.0
 11
284.991881651949
 21
274.7904106487666
 31
0.0
 11
285.3849457722135
 21
274.9337774010938
 31
0.0
 11
285.7421737219641
 21
275.0907379807336
 31
0.0
 11
286.0878859671201
 21
275.2719761661557
 31
0.0
 11
286.391489536608
 21
275.4615288723593
 31
0.0
 11
286.6787164568953
 21
275.675472483814
 31
0.0
 11
286.9205015135339
 21
275.8923281878033
 31
0.0
 11
287.1395591590229
 21
276.1325805616324
 31
0.0
 11
287.3130084175832
 21
276.3714320134303
 31
0.0
 11
287.4559610770708
 21
276.6301734589116
 31
0.0
 11
287.5555616530628
 21
276.8857560129522
 31
0.0
 11
287.6171385347437
 21
277.1533891577153
 31
0.0
 11
287.6378268764265
 21
277.4194074695434
 31
0.0
 11
287.6171385347437
 21
277.6854257813715
 31
0.0
 11
287.5555616530628
 21
277.9530589261346
 31
0.0
 11
287.4559610770708
 21
278.2086414801752
 31
0.0
 11
287.3130084175832
 21
278.4673829256565
 31
0.0
 11
287.139559159023
 21
278.7062343774543
 31
0.0
 11
286.9205015135339
 21
278.9464867512834
 31
0.0
 11
286.6787164568953
 21
279.1633424552728
 31
0.0
 11
286.3914895366079
 21
279.3772860667274
 31
0.0
 11
286.0878859671201
 21
279.5668387729311
 31
0.0
 11
285.7421737219641
 21
279.7480769583532
 31
0.0
 11
285.3849457722135
 21
279.9050375379931
 31
0.0
 11
284.9918816519489
 21
280.0484042903204
 31
0.0
 11
284.5910305344044
 21
280.167966886798
 31
0.0
 11
284.1629455636513
 21
280.2695332766785
 31
0.0
 11
283.7300434682237
 21
280.3477758560005
 31
0.0
 11
283.2801538492527
 21
280.4049134727536
 31
0.0
 11
282.8279616912853
 21
280.4390574496522
 31
0.0
 11
282.3699999999998
 21
280.4504963827889
 31
0.0
 11
281.9120383087143
 21
280.4390574496523
 31
0.0
 11
281.459846150747
 21
280.4049134727536
 31
0.0
 11
281.0099565317759
 21
280.3477758560005
 31
0.0
 11
280.5770544363483
 21
280.2695332766785
 31
0.0
 11
280.1489694655951
 21
280.167966886798
 31
0.0
 11
279.7481183480506
 21
280.0484042903204
 31
0.0
 11
279.355054227786
 21
279.9050375379932
 31
0.0
 11
278.9978262780355
 21
279.7480769583534
 31
0.0
 11
278.6521140328795
 21
279.5668387729312
 31
0.0
 11
278.3485104633916
 21
279.3772860667275
 31
0.0
 11
278.0612835431043
 21
279.1633424552729
 31
0.0
 11
277.8194984864657
 21
278.9464867512835
 31
0.0
 11
277.6004408409767
 21
278.7062343774543
 31
0.0
 11
277.4269915824164
 21
278.4673829256565
 31
0.0
 11
277.2840389229287
 21
278.2086414801752
 31
0.0
 11
277.1844383469366
 21
277.9530589261346
 31
0.0
 11
277.1228614652557
 21
277.6854257813715
 31
0.0
 11
277.1021731235729
 21
277.4194074695434
 31
0.0
 11
277.1228614652557
 21
277.1533891577154
 31
0.0
  0
SPLINE
  5
16A
330
3C
100
AcDbEntity
  8
1
  6
Continuous
 62
     7
100
AcDbSpline
210
0.0
220
0.0
230
1.0
 70
    11
 71
     3
 72
    79
 73
    75
 74
    73
 42
0.0000000001
 43
0.0000000001
 44
0.00000001
 40
0.0
 40
0.0
 40
0.0
 40
0.0
 40
0.2746255860865011
 40
0.5489296448750209
 40
0.8445351226056557
 40
1.139720930735086
 40
1.464847760107439
 40
1.789634474685623
 40
2.147784125837211
 40
2.505702211207155
 40
2.89604082869955
 40
3.286231079274637
 40
3.704624946715679
 40
4.122927269101184
 40
4.562895988146211
 40
5.00281203177788
 40
5.456315478849815
 40
5.909794870758264
 40
6.367899400179648
 40
6.826003929601027
 40
7.279483321509463
 40
7.732986768581419
 40
8.172902812213064
 40
8.612871531258104
 40
9.031173853643702
 40
9.449567721084691
 40
9.839757971659756
 40
10.23009658915218
 40
10.58801467452214
 40
10.94616432567369
 40
11.2709510402518
 40
11.5960778696242
 40
11.89126367775363
 40
12.18686915548429
 40
12.46117321427279
 40
12.73579880035933
 40
13.00262036940766
 40
13.26944193845605
 40
13.54406752454254
 40
13.81837158333104
 40
14.11397706106165
 40
14.40916286919105
 40
14.7342896985634
 40
15.05907641314154
 40
15.41722606429321
 40
15.77514414966315
 40
16.16548276715557
 40
16.55567301773068
 40
16.97406688517173
 40
17.39236920755727
 40
17.83233792660229
 40
18.27225397023392
 40
18.72575741730585
 40
19.1792368092143
 40
19.63734133863562
 40
20.09544586805706
 40
20.54892525996544
 40
21.00242870703744
 40
21.44234475066912
 40
21.88231346971408
 40
22.30061579209961
 40
22.71900965954067
 40
23.10919991011573
 40
23.49953852760821
 40
23.85745661297815
 40
24.21560626412978
 40
24.54039297870788
 40
24.86551980808027
 40
25.16070561620975
 40
25.45631109394036
 40
25.7306151527289
 40
26.00524073881539
 40
26.27206230786384
 40
26.53888387691211
 40
26.53888387691211
 40
26.53888387691211
 40
26.53888387691211
 10
277.1228614652557
 20
297.6040100684136
 30
0.0
 10
277.1406044939243
 20
297.6939993366742
 30
0.0
 10
277.1760697780039
 20
297.8738725151815
 30
0.0
 10
277.2819461843426
 20
298.1362588514236
 30
0.0
 10
277.4216110559708
 20
298.3892087327692
 30
0.0
 10
277.6023803127827
 20
298.6361859776206
 30
0.0
 10
277.8156184479142
 20
298.8688712281897
 30
0.0
 10
278.0666349091259
 20
299.0929864853524
 30
0.0
 10
278.3457381453758
 20
299.299847025423
 30
0.0
 10
278.6591585989315
 20
299.4948894134655
 30
0.0
 10
278.9958819774047
 20
299.6706366271966
 30
0.0
 10
279.3621645628525
 20
299.8311630068223
 30
0.0
 10
279.7468042749763
 20
299.9709014163188
 30
0.0
 10
280.1548933551842
 20
300.0923695617992
 30
0.0
 10
280.5762413678954
 20
300.1919624365909
 30
0.0
 10
281.01383880986
 20
300.2709278588039
 30
0.0
 10
281.4594573996076
 20
300.3272947699805
 30
0.0
 10
281.9133859914555
 20
300.3615586998193
 30
0.0
 10
282.3699999999971
 20
300.3728607370873
 30
0.0
 10
282.8266140085549
 20
300.3615586998208
 30
0.0
 10
283.2805426003545
 20
300.3272947699752
 30
0.0
 10
283.7261611902765
 20
300.2709278588255
 30
0.0
 10
284.1637586316104
 20
300.1919624365137
 30
0.0
 10
284.5851066466216
 20
300.0923695620812
 30
0.0
 10
284.9931957186499
 20
299.9709014153236
 30
0.0
 10
285.3778354603001
 20
299.8311630104382
 30
0.0
 10
285.744117942623
 20
299.6706366147073
 30
0.0
 10
286.0808416898511
 20
299.4948894585651
 30
0.0
 10
286.3942608756117
 20
299.2998468725295
 30
0.0
 10
286.6733686135699
 20
299.0929870354959
 30
0.0
 10
286.9243697535927
 20
298.8688693856063
 30
0.0
 10
287.1376621954019
 20
298.6361926161702
 30
0.0
 10
287.3182463623788
 20
298.3891864656378
 30
0.0
 10
287.4585722337114
 20
298.1363398133356
 30
0.0
 10
287.5621488034529
 20
297.8735943091084
 30
0.0
 10
287.6232279604696
 20
297.6075970215658
 30
0.0
 10
287.6450211254405
 20
297.3379917565855
 30
0.0
 10
287.6232279604697
 20
297.0683864916055
 30
0.0
 10
287.5621488034529
 20
296.8023892040628
 30
0.0
 10
287.4585722337114
 20
296.5396436998356
 30
0.0
 10
287.3182463623787
 20
296.2867970475335
 30
0.0
 10
287.1376621954019
 20
296.0397908970011
 30
0.0
 10
286.9243697535927
 20
295.8071141275651
 30
0.0
 10
286.6733686135698
 20
295.5829964776755
 30
0.0
 10
286.3942608756117
 20
295.3761366406417
 30
0.0
 10
286.0808416898512
 20
295.181094054606
 30
0.0
 10
285.7441179426229
 20
295.005346898464
 30
0.0
 10
285.3778354603002
 20
294.8448205027328
 30
0.0
 10
284.9931957186499
 20
294.7050820978475
 30
0.0
 10
284.5851066466214
 20
294.5836139510898
 30
0.0
 10
284.1637586316106
 20
294.4840210766574
 30
0.0
 10
283.7261611902764
 20
294.4050556543457
 30
0.0
 10
283.2805426003547
 20
294.3486887431963
 30
0.0
 10
282.8266140085543
 20
294.3144248133503
 30
0.0
 10
282.3699999999996
 20
294.3031227760844
 30
0.0
 10
281.913385991446
 20
294.3144248133502
 30
0.0
 10
281.4594573996423
 20
294.3486887431965
 30
0.0
 10
281.0138388097328
 20
294.4050556543443
 30
0.0
 10
280.5762413683541
 20
294.4840210766627
 30
0.0
 10
280.1548933535059
 20
294.5836139510699
 30
0.0
 10
279.7468042808987
 20
294.7050820979177
 30
0.0
 10
279.3621645413376
 20
294.844820502477
 30
0.0
 10
278.9958820517181
 20
295.0053468993474
 30
0.0
 10
278.6591583305817
 20
295.1810940514149
 30
0.0
 10
278.3457390551165
 20
295.3761366514598
 30
0.0
 10
278.0666316356829
 20
295.5829964387493
 30
0.0
 10
277.8156294115884
 20
295.8071142579395
 30
0.0
 10
277.6023408123226
 20
296.0397904272814
 30
0.0
 10
277.4217435490606
 20
296.286798623075
 30
0.0
 10
277.2814644476688
 20
296.5396379712645
 30
0.0
 10
277.1777251498338
 20
296.8024088889151
 30
0.0
 10
277.1172385807375
 20
297.0683136313571
 30
0.0
 10
277.0932924751252
 20
297.3382551234212
 30
0.0
 10
277.1130051352122
 20
297.5154250867495
 30
0.0
 10
277.1228614652557
 20
297.6040100684136
 30
0.0
 11
277.1228614652557
 21
297.6040100684136
 31
0.0
 11
277.1844383469367
 21
297.8716432131768
 31
0.0
 11
277.2840389229287
 21
298.1272257672173
 31
0.0
 11
277.4269915824164
 21
298.3859672126987
 31
0.0
 11
277.6004408409766
 21
298.6248186644965
 31
0.0
 11
277.8194984864657
 21
298.8650710383256
 31
0.0
 11
278.0612835431043
 21
299.081926742315
 31
0.0
 11
278.3485104633916
 21
299.2958703537697
 31
0.0
 11
278.6521140328795
 21
299.4854230599733
 31
0.0
 11
278.9978262780355
 21
299.6666612453954
 31
0.0
 11
279.355054227786
 21
299.8236218250352
 31
0.0
 11
279.7481183480506
 21
299.9669885773624
 31
0.0
 11
280.1489694655951
 21
300.0865511738401
 31
0.0
 11
280.5770544363483
 21
300.1881175637207
 31
0.0
 11
281.0099565317759
 21
300.2663601430425
 31
0.0
 11
281.4598461507469
 21
300.3234977597955
 31
0.0
 11
281.9120383087143
 21
300.3576417366944
 31
0.0
 11
282.3699999999998
 21
300.3690806698311
 31
0.0
 11
282.8279616912853
 21
300.3576417366945
 31
0.0
 11
283.2801538492527
 21
300.3234977597959
 31
0.0
 11
283.7300434682237
 21
300.2663601430427
 31
0.0
 11
284.1629455636513
 21
300.1881175637207
 31
0.0
 11
284.5910305344044
 21
300.08655117384
 31
0.0
 11
284.991881651949
 21
299.9669885773624
 31
0.0
 11
285.3849457722135
 21
299.8236218250352
 31
0.0
 11
285.7421737219641
 21
299.6666612453954
 31
0.0
 11
286.0878859671201
 21
299.4854230599733
 31
0.0
 11
286.391489536608
 21
299.2958703537697
 31
0.0
 11
286.6787164568953
 21
299.0819267423151
 31
0.0
 11
286.9205015135339
 21
298.8650710383258
 31
0.0
 11
287.1395591590229
 21
298.6248186644966
 31
0.0
 11
287.3130084175832
 21
298.3859672126987
 31
0.0
 11
287.4559610770708
 21
298.1272257672174
 31
0.0
 11
287.5555616530628
 21
297.8716432131768
 31
0.0
 11
287.6171385347437
 21
297.6040100684136
 31
0.0
 11
287.6378268764265
 21
297.3379917565856
 31
0.0
 11
287.6171385347437
 21
297.0719734447575
 31
0.0
 11
287.5555616530628
 21
296.8043402999944
 31
0.0
 11
287.4559610770708
 21
296.5487577459538
 31
0.0
 11
287.3130084175832
 21
296.2900163004725
 31
0.0
 11
287.139559159023
 21
296.0511648486747
 31
0.0
 11
286.9205015135339
 21
295.8109124748456
 31
0.0
 11
286.6787164568953
 21
295.5940567708562
 31
0.0
 11
286.3914895366079
 21
295.3801131594015
 31
0.0
 11
286.0878859671201
 21
295.1905604531979
 31
0.0
 11
285.7421737219641
 21
295.0093222677758
 31
0.0
 11
285.3849457722135
 21
294.8523616881359
 31
0.0
 11
284.9918816519489
 21
294.7089949358086
 31
0.0
 11
284.5910305344044
 21
294.589432339331
 31
0.0
 11
284.1629455636513
 21
294.4878659494505
 31
0.0
 11
283.7300434682237
 21
294.4096233701285
 31
0.0
 11
283.2801538492527
 21
294.3524857533755
 31
0.0
 11
282.8279616912853
 21
294.3183417764768
 31
0.0
 11
282.3699999999998
 21
294.3069028433401
 31
0.0
 11
281.9120383087143
 21
294.3183417764768
 31
0.0
 11
281.459846150747
 21
294.3524857533755
 31
0.0
 11
281.0099565317759
 21
294.4096233701285
 31
0.0
 11
280.5770544363483
 21
294.4878659494504
 31
0.0
 11
280.1489694655951
 21
294.589432339331
 31
0.0
 11
279.7481183480506
 21
294.7089949358085
 31
0.0
 11
279.355054227786
 21
294.8523616881358
 31
0.0
 11
278.9978262780355
 21
295.0093222677756
 31
0.0
 11
278.6521140328795
 21
295.1905604531978
 31
0.0
 11
278.3485104633916
 21
295.3801131594015
 31
0.0
 11
278.0612835431043
 21
295.5940567708562
 31
0.0
 11
277.8194984864657
 21
295.8109124748455
 31
0.0
 11
277.6004408409767
 21
296.0511648486747
 31
0.0
 11
277.4269915824164
 21
296.2900163004725
 31
0.0
 11
277.2840389229287
 21
296.5487577459538
 31
0.0
 11
277.1844383469366
 21
296.8043402999944
 31
0.0
 11
277.1228614652557
 21
297.0719734447575
 31
0.0
 11
277.1021731235729
 21
297.3379917565857
 31
0.0
 11
277.1228614652557
 21
297.6040100684136
 31
0.0
  0
SPLINE
  5
16B
330
3C
100
AcDbEntity
  8
1
  6
Continuous
 62
     7
100
AcDbSpline
210
0.0
220
0.0
230
1.0
 70
     8
 71
     3
 72
    45
 73
    41
 74
    39
 42
0.0000000001
 43
0.0000000001
 44
0.00000001
 40
0.0
 40
0.0
 40
0.0
 40
0.0
 40
0.2639815460522617
 40
0.5283419841191657
 40
1.054652170762623
 40
1.580985067100827
 40
2.101700160272527
 40
2.622460348438445
 40
3.134495226137556
 40
3.646596368619019
 40
4.147789061289567
 40
4.649065936797165
 40
5.138470095605114
 40
5.627969508813705
 40
6.106046361246337
 40
6.584217829940116
 40
7.052873649570313
 40
7.52160736380923
 40
7.984025556627735
 40
8.44648819299306
 40
8.906737372258993
 40
9.366986551524871
 40
9.829449187890189
 40
10.29186738070865
 40
10.7606010949476
 40
11.22925691457775
 40
11.70742838327169
 40
12.18550523570427
 40
12.67500464891286
 40
13.16440880772081
 40
13.66568568322838
 40
14.16687837589902
 40
14.67897951838061
 40
15.19101439607957
 40
15.71177458424541
 40
16.23248967741708
 40
16.75882257375529
 40
17.28513276039875
 40
17.54949319846372
 40
17.81347474451359
 40
17.81347474451359
 40
17.81347474451359
 40
17.81347474451359
 10
277.1021731235729
 20
287.3786996130602
 30
0.0
 10
277.1031416349221
 20
287.4666993769871
 30
0.0
 10
277.1050800477221
 20
287.6428252106691
 30
0.0
 10
277.1257153829659
 20
287.9938786581259
 30
0.0
 10
277.1752090108902
 20
288.4305053977366
 30
0.0
 10
277.274412109697
 20
288.9460234316313
 30
0.0
 10
277.4122922395571
 20
289.4506417611664
 30
0.0
 10
277.587510367725
 20
289.9385068879977
 30
0.0
 10
277.7995095139182
 20
290.4084036900977
 30
0.0
 10
278.04561548264
 20
290.8539668001974
 30
0.0
 10
278.3254657230096
 20
291.2748542832821
 30
0.0
 10
278.6351874867823
 20
291.6647005274798
 30
0.0
 10
278.9745684178688
 20
292.0236852378754
 30
0.0
 10
279.3387579223993
 20
292.3459786008045
 30
0.0
 10
279.7274820182915
 20
292.6319551312139
 30
0.0
 10
280.1353282677522
 20
292.8767594738556
 30
0.0
 10
280.5615932453943
 20
293.080776033852
 30
0.0
 10
281.0008507804278
 20
293.2403709806139
 30
0.0
 10
281.4515573369287
 20
293.355972847224
 30
0.0
 10
281.9088349264928
 20
293.4251780551998
 30
0.0
 10
282.3699999999998
 20
293.4487083014154
 30
0.0
 10
282.8311650735068
 20
293.4251780551997
 30
0.0
 10
283.2884426630709
 20
293.3559728472242
 30
0.0
 10
283.7391492195717
 20
293.2403709806136
 30
0.0
 10
284.1784067546052
 20
293.080776033852
 30
0.0
 10
284.6046717322472
 20
292.8767594738556
 30
0.0
 10
285.012517981708
 20
292.6319551312141
 30
0.0
 10
285.4012420776003
 20
292.3459786008044
 30
0.0
 10
285.7654315821307
 20
292.0236852378754
 30
0.0
 10
286.1048125132174
 20
291.66470052748
 30
0.0
 10
286.41453427699
 20
291.274854283282
 30
0.0
 10
286.6943845173594
 20
290.8539668001973
 30
0.0
 10
286.9404904860813
 20
290.4084036900974
 30
0.0
 10
287.1524896322745
 20
289.9385068879976
 30
0.0
 10
287.3277077604424
 20
289.4506417611664
 30
0.0
 10
287.4655878903025
 20
288.9460234316313
 30
0.0
 10
287.5647909891093
 20
288.4305053977366
 30
0.0
 10
287.6142846170336
 20
287.9938786581265
 30
0.0
 10
287.6349199522773
 20
287.6428252106712
 30
0.0
 10
287.6368583650773
 20
287.4666993769906
 30
0.0
 10
287.6378268764265
 20
287.3786996130645
 30
0.0
 11
277.1021731235729
 21
287.3786996130602
 31
0.0
 11
277.1071754300253
 21
287.6426337593662
 31
0.0
 11
277.1221823493826
 21
287.9065679056723
 31
0.0
 11
277.1819109253902
 21
288.4294779455193
 31
0.0
 11
277.2813523923149
 21
288.9463316118734
 31
0.0
 11
277.4187563205751
 21
289.4485908763529
 31
0.0
 11
277.5949111369886
 21
289.938652764519
 31
0.0
 11
277.8056753385404
 21
290.4052984195128
 31
0.0
 11
278.0534382820388
 21
290.8534737244547
 31
0.0
 11
278.3311717788851
 21
291.2706765766931
 31
0.0
 11
278.6431506867549
 21
291.6630382299711
 31
0.0
 11
278.979606121216
 21
292.0184452800983
 31
0.0
 11
279.3462965372078
 21
292.3427103172999
 31
0.0
 11
279.7316042176003
 21
292.6257217450947
 31
0.0
 11
280.1416502769292
 21
292.8717099210332
 31
0.0
 11
280.564538601778
 21
293.0737092823684
 31
0.0
 11
281.0051000885513
 21
293.2337619962981
 31
0.0
 11
281.4530977704838
 21
293.3483423699782
 31
0.0
 11
281.9103372228648
 21
293.4176516278033
 31
0.0
 11
282.3699999999998
 21
293.4408774395555
 31
0.0
 11
282.8296627771347
 21
293.4176516278033
 31
0.0
 11
283.2869022295157
 21
293.3483423699782
 31
0.0
 11
283.7348999114481
 21
293.2337619962981
 31
0.0
 11
284.1754613982215
 21
293.0737092823684
 31
0.0
 11
284.5983497230703
 21
292.8717099210334
 31
0.0
 11
285.0083957823994
 21
292.6257217450947
 31
0.0
 11
285.3937034627918
 21
292.3427103172999
 31
0.0
 11
285.7603938787836
 21
292.0184452800983
 31
0.0
 11
286.0968493132447
 21
291.6630382299711
 31
0.0
 11
286.4088282211144
 21
291.2706765766931
 31
0.0
 11
286.6865617179607
 21
290.8534737244546
 31
0.0
 11
286.9343246614592
 21
290.4052984195125
 31
0.0
 11
287.1450888630109
 21
289.9386527645189
 31
0.0
 11
287.3212436794243
 21
289.4485908763528
 31
0.0
 11
287.4586476076845
 21
288.9463316118734
 31
0.0
 11
287.5580890746093
 21
288.4294779455193
 31
0.0
 11
287.6178176506169
 21
287.9065679056723
 31
0.0
 11
287.6328245699741
 21
287.6426337593682
 31
0.0
 11
287.6378268764265
 21
287.3786996130645
 31
0.0
  0
ENDBLK
  5
3E
330
3C
100
AcDbEntity
  8
0
100
AcDbBlockEnd
  0
BLOCK
  5
41
330
3F
100
AcDbEntity
  8
0
100
AcDbBlockBegin
  2
B41A-240-13
 70
     0
 71
     0
 10
688.2309259439627
 20
267.6646823621676
 30
0.0
  3
B41A-240-13
  1

  0
INSERT
  5
40
330
3F
100
AcDbEntity
  8
1
100
AcDbBlockReference
  2
34-188-M2K
 10
898.2309259439627
 20
267.6646823621676
 30
0.0
  0
LINE
  5
16C
330
3F
100
AcDbEntity
  8
1
  6
PHANTOM
 62
     4
100
AcDbLine
 10
273.3699999999996
 20
287.3786996130602
 30
0.0
 11
291.3699999999996
 21
287.3786996130602
 31
0.0
  0
LINE
  5
16D
330
3F
100
AcDbEntity
  8
1
  6
PHANTOM
 62
     4
100
AcDbLine
 10
160.2499999999988
 20
440.4999999999874
 30
0.0
 11
160.2499999999988
 21
458.4999999999874
 31
0.0
  0
ENDBLK
  5
42
330
3F
100
AcDbEntity
  8
0
100
AcDbBlockEnd
  0
BLOCK
  5
44
330
43
100
AcDbEntity
  8
0
100
AcDbBlockBegin
  2
36-1A-13-M11K
 70
     0
 71
     0
 10
262.6321260094359
 20
184.809573603624
 30
0.0
  3
36-1A-13-M11K
  1

  0
LINE
  5
16E
330
43
100
AcDbEntity
  8
1
  6
Continuous
 62
     7
100
AcDbLine
 10
155.4999999999998
 20
326.8786996130602
 30
0.0
 11
155.4999999999998
 21
329.7028035750578
 31
0.0
  0
LINE
  5
16F
330
43
100
AcDbEntity
  8
1
  6
Continuous
 62
     7
100
AcDbLine
 10
164.9999999999998
 20
329.7028035750578
 30
0.0
 11
164.9999999999998
 21
326.8786996130602
 31
0.0
  0
LINE
  5
170
330
43
100
AcDbEntity
  8
1
  6
Continuous
 62
     7
100
AcDbLine
 10
307.4999999999996
 20
326.8786996130602
 30
0.0
 11
307.4999999999996
 21
329.8786996130602
 31
0.0
  0
LINE
  5
171
330
43
100
AcDbEntity
  8
1
  6
Continuous
 62
     7
100
AcDbLine
 10
316.9999999999996
 20
329.8786996130602
 30
0.0
 11
316.9999999999996
 21
326.8786996130602
 31
0.0
  0
ENDBLK
  5
45
330
43
100
AcDbEntity
  8
0
100
AcDbBlockEnd
  0
BLOCK
  5
47
330
46
100
AcDbEntity
  8
0
100
AcDbBlockBegin
  2
37-1-13K
 70
     0
 71
     0
 10
189.2698425388217
 20
310.2886666674796
 30
0.0
  3
37-1-13K
  1

  0
LINE
  5
172
330
46
100
AcDbEntity
  8
1
  6
Continuous
 62
     7
100
AcDbLine
 10
324.8299999999997
 20
319.9494138273316
 30
0.0
 11
299.6699999999997
 21
319.9494138273316
 31
0.0
  0
LINE
  5
173
330
46
100
AcDbEntity
  8
1
  6
Continuous
 62
     7
100
AcDbLine
 10
166.2499999999998
 20
326.8786996130602
 30
0.0
 11
160.2499999999998
 21
326.8786996130602
 31
0.0
  0
LINE
  5
174
330
46
100
AcDbEntity
  8
1
  6
Continuous
 62
     7
100
AcDbLine
 10
160.2499999999998
 20
326.8786996130602
 30
0.0
 11
154.2499999999998
 21
326.8786996130602
 31
0.0
  0
LINE
  5
175
330
46
100
AcDbEntity
  8
1
  6
Continuous
 62
     7
100
AcDbLine
 10
147.7499999999999
 20
320.3786996130602
 30
0.0
 11
160.2499999999998
 21
320.3786996130602
 31
0.0
  0
LINE
  5
176
330
46
100
AcDbEntity
  8
1
  6
Continuous
 62
     7
100
AcDbLine
 10
160.2499999999998
 20
320.3786996130602
 30
0.0
 11
172.7499999999998
 21
320.3786996130602
 31
0.0
  0
LINE
  5
177
330
46
100
AcDbEntity
  8
1
  6
Continuous
 62
     7
100
AcDbLine
 10
160.8721257303307
 20
312.8786996130602
 30
0.0
 11
147.1792857857284
 21
312.8786996130602
 31
0.0
  0
LINE
  5
178
330
46
100
AcDbEntity
  8
1
  6
Continuous
 62
     7
100
AcDbLine
 10
173.3207142142713
 20
312.8786996130602
 30
0.0
 11
159.6278742696688
 21
312.8786996130602
 31
0.0
  0
LINE
  5
179
330
46
100
AcDbEntity
  8
1
  6
Continuous
 62
     7
100
AcDbLine
 10
299.2499999999997
 20
312.8786996130602
 30
0.0
 11
299.2499999999997
 21
319.9494138273316
 31
0.0
  0
LINE
  5
17A
330
46
100
AcDbEntity
  8
1
  6
Continuous
 62
     7
100
AcDbLine
 10
325.2499999999997
 20
312.8786996130602
 30
0.0
 11
299.2499999999997
 21
312.8786996130602
 31
0.0
  0
LINE
  5
17B
330
46
100
AcDbEntity
  8
1
  6
Continuous
 62
     7
100
AcDbLine
 10
318.2499999999997
 20
326.8786996130602
 30
0.0
 11
306.2499999999997
 21
326.8786996130602
 31
0.0
  0
LINE
  5
17C
330
46
100
AcDbEntity
  8
1
  6
Continuous
 62
     7
100
AcDbLine
 10
325.2499999999997
 20
312.8786996130602
 30
0.0
 11
325.2499999999997
 21
319.9494138273316
 31
0.0
  0
ARC
  5
17D
330
46
100
AcDbEntity
  8
1
  6
Continuous
 62
     7
100
AcDbCircle
 10
186.1564552051148
 20
340.2851548181748
 30
0.0
 40
23.99999999999992
100
AcDbArc
 50
-146.0408074999032
 51
-123.959192500098
  0
ARC
  5
17E
330
46
100
AcDbEntity
  8
1
  6
Continuous
 62
     7
100
AcDbCircle
 10
134.3435447948848
 20
340.2851548181748
 30
0.0
 40
23.99999999999986
100
AcDbArc
 50
-56.04080749990179
 51
-33.95919250009682
  0
ARC
  5
17F
330
46
100
AcDbEntity
  8
1
  6
Continuous
 62
     7
100
AcDbCircle
 10
150.7499999999998
 20
316.3786996130602
 30
0.0
 40
4.999999999999949
100
AcDbArc
 50
126.8698976458433
 51
-135.572995999194
  0
ARC
  5
180
330
46
100
AcDbEntity
  8
1
  6
Continuous
 62
     7
100
AcDbCircle
 10
169.7499999999998
 20
316.3786996130602
 30
0.0
 40
5.000000000000057
100
AcDbArc
 50
-44.42700400080507
 51
53.13010235415598
  0
ARC
  5
181
330
46
100
AcDbEntity
  8
1
  6
Continuous
 62
     7
100
AcDbCircle
 10
286.3435447948848
 20
340.2851548181752
 30
0.0
 40
24.00000000000013
100
AcDbArc
 50
-56.04080749990254
 51
-33.95919250009773
  0
ARC
  5
182
330
46
100
AcDbEntity
  8
1
  6
Continuous
 62
     7
100
AcDbCircle
 10
302.7499999999997
 20
316.3786996130602
 30
0.0
 40
4.999999999999966
100
AcDbArc
 50
126.8698976458435
 51
134.4270040008055
  0
ARC
  5
183
330
46
100
AcDbEntity
  8
1
  6
Continuous
 62
     7
100
AcDbCircle
 10
338.1564552051146
 20
340.2851548181752
 30
0.0
 40
24.00000000000002
100
AcDbArc
 50
-146.0408074999022
 51
-123.9591925000975
  0
ARC
  5
184
330
46
100
AcDbEntity
  8
1
  6
Continuous
 62
     7
100
AcDbCircle
 10
321.7499999999997
 20
316.3786996130602
 30
0.0
 40
5.000000000000016
100
AcDbArc
 50
45.57299599919448
 51
53.13010235415703
  0
SPLINE
  5
185
330
46
100
AcDbEntity
  8
1
  6
Continuous
 62
     7
100
AcDbSpline
210
0.0
220
0.0
230
1.0
 70
    11
 71
     3
 72
    79
 73
    75
 74
    73
 42
0.0000000001
 43
0.0000000001
 44
0.00000001
 40
0.0
 40
0.0
 40
0.0
 40
0.0
 40
0.3105305927635866
 40
0.6211097050892958
 40
0.9446853874345484
 40
1.26835083388484
 40
1.615177941517032
 40
1.962073591621473
 40
2.337982254486254
 40
2.71393441418305
 40
3.120408259025861
 40
3.526909442882825
 40
3.961816267817439
 40
4.396740384516125
 40
4.855202007200589
 40
5.313674298559615
 40
5.788867666243133
 40
6.264066854325069
 40
6.747928781316548
 40
7.231792560540557
 40
7.715656339764621
 40
8.199518266756105
 40
8.674717454837879
 40
9.149910822521441
 40
9.608383113880413
 40
10.06684473656493
 40
10.50176885326367
 40
10.93667567819828
 40
11.34317686205525
 40
11.74965070689801
 40
12.12560286659485
 40
12.50151152945959
 40
12.84840717956407
 40
13.19523428719626
 40
13.51889973364655
 40
13.84247541599179
 40
14.15305452831749
 40
14.46358512108108
 40
14.77411571384467
 40
15.08469482617049
 40
15.4082705085158
 40
15.73193595496611
 40
16.07876306259821
 40
16.42565871270277
 40
16.80156737556747
 40
17.17751953526435
 40
17.58399338010714
 40
17.99049456396395
 40
18.42540138889854
 40
18.86032550559739
 40
19.31878712828187
 40
19.77725941964091
 40
20.25245278732442
 40
20.72765197540624
 40
21.21151390239766
 40
21.69537768162178
 40
22.17924146084579
 40
22.66310338783727
 40
23.13830257591916
 40
23.6134959436027
 40
24.0719682349618
 40
24.53042985764623
 40
24.96535397434498
 40
25.40026079927962
 40
25.80676198313653
 40
26.21323582797927
 40
26.58918798767619
 40
26.96509665054085
 40
27.31199230064537
 40
27.65881940827748
 40
27.98248485472783
 40
28.30606053707313
 40
28.6166396493989
 40
28.92717024216254
 40
28.92717024216254
 40
28.92717024216254
 40
28.92717024216254
 10
311.3121488653215
 20
316.414056720196
 30
0.0
 10
311.3079328146025
 20
316.5176417545271
 30
0.0
 10
311.299500054418
 20
316.7248280080697
 30
0.0
 10
311.2327721213924
 20
317.0340476046798
 30
0.0
 10
311.1270647398549
 20
317.3360527509011
 30
0.0
 10
310.9785418717255
 20
317.6332129396482
 30
0.0
 10
310.7920741363314
 20
317.9173596050124
 30
0.0
 10
310.5649030808419
 20
318.1929591901469
 30
0.0
 10
310.3044696227823
 20
318.4513243099972
 30
0.0
 10
310.0060635117849
 20
318.6970922874543
 30
0.0
 10
309.6795497923731
 20
318.9225249399833
 30
0.0
 10
309.3193229341174
 20
319.131270669283
 30
0.0
 10
308.9363097268758
 20
319.3173394635161
 30
0.0
 10
308.5253599691202
 20
319.4829884131319
 30
0.0
 10
308.0971106614562
 20
319.6242028337917
 30
0.0
 10
307.6479703994584
 20
319.7419489558647
 30
0.0
 10
307.1871837286373
 20
319.8340200380436
 30
0.0
 10
306.713484859832
 20
319.9004816115636
 30
0.0
 10
306.2339260409943
 20
319.9405252649861
 30
0.0
 10
305.749999999999
 20
319.9538581170108
 30
0.0
 10
305.2660739590078
 20
319.9405252649863
 30
0.0
 10
304.7865151401576
 20
319.9004816115636
 30
0.0
 10
304.3128162713985
 20
319.8340200380434
 30
0.0
 10
303.8520296004078
 20
319.7419489558649
 30
0.0
 10
303.4028893390218
 20
319.6242028337915
 30
0.0
 10
302.9746400291302
 20
319.4829884131322
 30
0.0
 10
302.56369027928
 20
319.317339463516
 30
0.0
 10
302.1806770435013
 20
319.1312706692829
 30
0.0
 10
301.8204502851105
 20
318.9225249399832
 30
0.0
 10
301.4939362076001
 20
318.6970922874544
 30
0.0
 10
301.1955313374421
 20
318.4513243099971
 30
0.0
 10
300.9350934437526
 20
318.1929591901469
 30
0.0
 10
300.7079377260011
 20
317.9173596050123
 30
0.0
 10
300.5214149997595
 20
317.6332129396482
 30
0.0
 10
300.3730843108867
 20
317.3360527509011
 30
0.0
 10
300.2666799515201
 20
317.0340476046798
 30
0.0
 10
300.2024538257737
 20
316.7248280080698
 30
0.0
 10
300.1805503594933
 20
316.414056720196
 30
0.0
 10
300.2024538257737
 20
316.1032854323223
 30
0.0
 10
300.26667995152
 20
315.7940658357121
 30
0.0
 10
300.3730843108868
 20
315.4920606894909
 30
0.0
 10
300.5214149997594
 20
315.1949005007435
 30
0.0
 10
300.7079377260012
 20
314.9107538353795
 30
0.0
 10
300.9350934437525
 20
314.635154250245
 30
0.0
 10
301.195531337442
 20
314.3767891303947
 30
0.0
 10
301.4939362076001
 20
314.1310211529374
 30
0.0
 10
301.8204502851105
 20
313.9055885004088
 30
0.0
 10
302.1806770435014
 20
313.6968427711091
 30
0.0
 10
302.5636902792801
 20
313.5107739768759
 30
0.0
 10
302.97464002913
 20
313.3451250272597
 30
0.0
 10
303.402889339022
 20
313.2039106066001
 30
0.0
 10
303.8520296004077
 20
313.0861644845269
 30
0.0
 10
304.3128162713986
 20
312.9940934023484
 30
0.0
 10
304.7865151401575
 20
312.9276318288282
 30
0.0
 10
305.2660739590078
 20
312.8875881754057
 30
0.0
 10
305.7499999999989
 20
312.874255323381
 30
0.0
 10
306.2339260409945
 20
312.8875881754058
 30
0.0
 10
306.7134848598319
 20
312.9276318288281
 30
0.0
 10
307.1871837286373
 20
312.9940934023484
 30
0.0
 10
307.6479703994584
 20
313.0861644845269
 30
0.0
 10
308.0971106614561
 20
313.2039106066001
 30
0.0
 10
308.5253599691203
 20
313.3451250272598
 30
0.0
 10
308.9363097268758
 20
313.5107739768759
 30
0.0
 10
309.3193229341174
 20
313.6968427711092
 30
0.0
 10
309.679549792373
 20
313.9055885004087
 30
0.0
 10
310.0060635117849
 20
314.1310211529374
 30
0.0
 10
310.3044696227825
 20
314.3767891303947
 30
0.0
 10
310.5649030808418
 20
314.635154250245
 30
0.0
 10
310.7920741363315
 20
314.9107538353795
 30
0.0
 10
310.9785418717256
 20
315.1949005007436
 30
0.0
 10
311.127064739855
 20
315.4920606894909
 30
0.0
 10
311.2327721213924
 20
315.7940658357121
 30
0.0
 10
311.299500054418
 20
316.1032854323223
 30
0.0
 10
311.3079328146025
 20
316.3104716858649
 30
0.0
 10
311.3121488653215
 20
316.414056720196
 30
0.0
 11
311.3121488653215
 21
316.414056720196
 31
0.0
 11
311.2906422531082
 21
316.7238416692707
 31
0.0
 11
311.2276473259767
 21
317.0279650392519
 31
0.0
 11
311.1207582436978
 21
317.3333761495521
 31
0.0
 11
310.9767102444553
 21
317.6232200646859
 31
0.0
 11
310.7870405604292
 21
317.9135895767734
 31
0.0
 11
310.5669622169992
 21
318.1817352737638
 31
0.0
 11
310.3006100174694
 21
318.4469970852302
 31
0.0
 11
310.01085323008
 21
318.6865404644801
 31
0.0
 11
309.6767035876477
 21
318.9179816081942
 31
0.0
 11
309.3252803738606
 21
319.1222973865586
 31
0.0
 11
308.9342941660457
 21
319.3127540264355
 31
0.0
 11
308.5310744326606
 21
319.4757657864254
 31
0.0
 11
308.0957746559368
 21
319.6196447767565
 31
0.0
 11
307.6523669521158
 21
319.7362057056143
 31
0.0
 11
307.1864222480742
 21
319.8295023800778
 31
0.0
 11
306.715857014375
 21
319.89570380897
 31
0.0
 11
306.2336787362117
 21
319.9360333571876
 31
0.0
 11
305.7499999999997
 21
319.9494138273316
 31
0.0
 11
305.2663212637876
 21
319.9360333571876
 31
0.0
 11
304.7841429856244
 21
319.89570380897
 31
0.0
 11
304.3135777519254
 21
319.8295023800777
 31
0.0
 11
303.8476330478837
 21
319.7362057056143
 31
0.0
 11
303.4042253440628
 21
319.6196447767565
 31
0.0
 11
302.9689255673389
 21
319.4757657864254
 31
0.0
 11
302.5657058339538
 21
319.3127540264355
 31
0.0
 11
302.1747196261388
 21
319.1222973865586
 31
0.0
 11
301.8232964123517
 21
318.9179816081942
 31
0.0
 11
301.4891467699195
 21
318.6865404644801
 31
0.0
 11
301.1993899825301
 21
318.4469970852302
 31
0.0
 11
300.9330377830003
 21
318.1817352737638
 31
0.0
 11
300.7129594395702
 21
317.9135895767734
 31
0.0
 11
300.5232897555441
 21
317.6232200646859
 31
0.0
 11
300.3792417563016
 21
317.3333761495521
 31
0.0
 11
300.2723526740228
 21
317.0279650392519
 31
0.0
 11
300.2093577468913
 21
316.7238416692707
 31
0.0
 11
300.187851134678
 21
316.414056720196
 31
0.0
 11
300.2093577468913
 21
316.1042717711213
 31
0.0
 11
300.2723526740228
 21
315.80014840114
 31
0.0
 11
300.3792417563017
 21
315.4947372908398
 31
0.0
 11
300.5232897555441
 21
315.2048933757059
 31
0.0
 11
300.7129594395702
 21
314.9145238636185
 31
0.0
 11
300.9330377830003
 21
314.646378166628
 31
0.0
 11
301.1993899825301
 21
314.3811163551617
 31
0.0
 11
301.4891467699195
 21
314.1415729759117
 31
0.0
 11
301.8232964123519
 21
313.9101318321978
 31
0.0
 11
302.1747196261388
 21
313.7058160538334
 31
0.0
 11
302.5657058339537
 21
313.5153594139565
 31
0.0
 11
302.9689255673389
 21
313.3523476539664
 31
0.0
 11
303.4042253440627
 21
313.2084686636353
 31
0.0
 11
303.8476330478837
 21
313.0919077347774
 31
0.0
 11
304.3135777519253
 21
312.998611060314
 31
0.0
 11
304.7841429856244
 21
312.9324096314218
 31
0.0
 11
305.2663212637876
 21
312.8920800832042
 31
0.0
 11
305.7499999999997
 21
312.8786996130602
 31
0.0
 11
306.2336787362117
 21
312.8920800832042
 31
0.0
 11
306.715857014375
 21
312.9324096314218
 31
0.0
 11
307.1864222480741
 21
312.9986110603141
 31
0.0
 11
307.6523669521158
 21
313.0919077347774
 31
0.0
 11
308.0957746559369
 21
313.2084686636353
 31
0.0
 11
308.5310744326606
 21
313.3523476539664
 31
0.0
 11
308.9342941660457
 21
313.5153594139565
 31
0.0
 11
309.3252803738606
 21
313.7058160538334
 31
0.0
 11
309.6767035876477
 21
313.9101318321978
 31
0.0
 11
310.01085323008
 21
314.1415729759117
 31
0.0
 11
310.3006100174695
 21
314.3811163551617
 31
0.0
 11
310.5669622169992
 21
314.646378166628
 31
0.0
 11
310.7870405604293
 21
314.9145238636185
 31
0.0
 11
310.9767102444553
 21
315.2048933757059
 31
0.0
 11
311.1207582436978
 21
315.4947372908398
 31
0.0
 11
311.2276473259767
 21
315.80014840114
 31
0.0
 11
311.2906422531082
 21
316.1042717711213
 31
0.0
 11
311.3121488653215
 21
316.414056720196
 31
0.0
  0
SPLINE
  5
186
330
46
100
AcDbEntity
  8
1
  6
Continuous
 62
     7
100
AcDbSpline
210
0.0
220
0.0
230
1.0
 70
    11
 71
     3
 72
    79
 73
    75
 74
    73
 42
0.0000000001
 43
0.0000000001
 44
0.00000001
 40
0.0
 40
0.0
 40
0.0
 40
0.0
 40
0.3105305927635906
 40
0.6211097050893111
 40
0.9446853874345638
 40
1.26835083388483
 40
1.615177941516959
 40
1.962073591621437
 40
2.337982254486137
 40
2.713934414183021
 40
3.120408259025879
 40
3.526909442882843
 40
3.961816267817405
 40
4.396740384516092
 40
4.85520200720061
 40
5.313674298559636
 40
5.788867666243211
 40
6.264066854324978
 40
6.747928781316461
 40
7.231792560540582
 40
7.715656339764703
 40
8.199518266756186
 40
8.67471745483796
 40
9.149910822521301
 40
9.608383113880272
 40
10.06684473656479
 40
10.50176885326358
 40
10.9366756781983
 40
11.34317686205516
 40
11.74965070689793
 40
12.1256028665948
 40
12.50151152945958
 40
12.84840717956406
 40
13.19523428719619
 40
13.51889973364646
 40
13.84247541599169
 40
14.15305452831741
 40
14.463585121081
 40
14.7741157138446
 40
15.08469482617042
 40
15.40827050851569
 40
15.73193595496603
 40
16.07876306259816
 40
16.42565871270264
 40
16.80156737556738
 40
17.1775195352643
 40
17.58399338010696
 40
17.9904945639638
 40
18.42540138889854
 40
18.8603255055974
 40
19.31878712828182
 40
19.77725941964092
 40
20.25245278732432
 40
20.72765197540602
 40
21.21151390239756
 40
21.69537768162162
 40
22.17924146084569
 40
22.66310338783723
 40
23.138302575919
 40
23.61349594360254
 40
24.07196823496153
 40
24.53042985764612
 40
24.96535397434476
 40
25.40026079927945
 40
25.80676198313636
 40
26.21323582797915
 40
26.58918798767595
 40
26.96509665054064
 40
27.31199230064517
 40
27.65881940827731
 40
27.9824848547277
 40
28.30606053707293
 40
28.61663964939871
 40
28.92717024216236
 40
28.92717024216236
 40
28.92717024216236
 40
28.92717024216236
 10
313.1878511346779
 20
316.414056720196
 30
0.0
 10
313.1920671853969
 20
316.5176417545271
 30
0.0
 10
313.2004999455816
 20
316.7248280080697
 30
0.0
 10
313.2672278786071
 20
317.0340476046798
 30
0.0
 10
313.3729352601445
 20
317.336052750901
 30
0.0
 10
313.521458128274
 20
317.6332129396483
 30
0.0
 10
313.7079258636679
 20
317.9173596050124
 30
0.0
 10
313.9350969191576
 20
318.1929591901468
 30
0.0
 10
314.195530377217
 20
318.4513243099972
 30
0.0
 10
314.4939364882144
 20
318.6970922874543
 30
0.0
 10
314.8204502076264
 20
318.9225249399832
 30
0.0
 10
315.180677065882
 20
319.1312706692829
 30
0.0
 10
315.5636902731235
 20
319.3173394635161
 30
0.0
 10
315.9746400308793
 20
319.4829884131321
 30
0.0
 10
316.4028893385433
 20
319.6242028337916
 30
0.0
 10
316.8520296005411
 20
319.7419489558647
 30
0.0
 10
317.3128162713622
 20
319.8340200380436
 30
0.0
 10
317.7865151401675
 20
319.9004816115636
 30
0.0
 10
318.266073959005
 20
319.9405252649862
 30
0.0
 10
318.7500000000005
 20
319.9538581170107
 30
0.0
 10
319.2339260409916
 20
319.9405252649862
 30
0.0
 10
319.713484859842
 20
319.9004816115635
 30
0.0
 10
320.1871837286009
 20
319.8340200380435
 30
0.0
 10
320.6479703995916
 20
319.7419489558648
 30
0.0
 10
321.0971106609773
 20
319.6242028337916
 30
0.0
 10
321.5253599708692
 20
319.482988413132
 30
0.0
 10
321.9363097207192
 20
319.3173394635161
 30
0.0
 10
322.3193229564982
 20
319.131270669283
 30
0.0
 10
322.6795497148888
 20
318.9225249399831
 30
0.0
 10
323.0060637923994
 20
318.6970922874544
 30
0.0
 10
323.3044686625572
 20
318.451324309997
 30
0.0
 10
323.5649065562469
 20
318.1929591901468
 30
0.0
 10
323.7920622739983
 20
317.9173596050124
 30
0.0
 10
323.9785850002398
 20
317.6332129396482
 30
0.0
 10
324.1269156891126
 20
317.3360527509011
 30
0.0
 10
324.2333200484791
 20
317.0340476046798
 30
0.0
 10
324.2975461742258
 20
316.7248280080698
 30
0.0
 10
324.319449640506
 20
316.414056720196
 30
0.0
 10
324.2975461742257
 20
316.1032854323222
 30
0.0
 10
324.2333200484791
 20
315.7940658357122
 30
0.0
 10
324.1269156891127
 20
315.4920606894908
 30
0.0
 10
323.9785850002399
 20
315.1949005007437
 30
0.0
 10
323.7920622739983
 20
314.9107538353793
 30
0.0
 10
323.564906556247
 20
314.635154250245
 30
0.0
 10
323.3044686625572
 20
314.3767891303946
 30
0.0
 10
323.0060637923994
 20
314.1310211529375
 30
0.0
 10
322.6795497148888
 20
313.9055885004088
 30
0.0
 10
322.3193229564981
 20
313.6968427711091
 30
0.0
 10
321.9363097207192
 20
313.510773976876
 30
0.0
 10
321.5253599708693
 20
313.3451250272598
 30
0.0
 10
321.0971106609774
 20
313.2039106066001
 30
0.0
 10
320.6479703995917
 20
313.086164484527
 30
0.0
 10
320.1871837286008
 20
312.9940934023481
 30
0.0
 10
319.713484859842
 20
312.9276318288283
 30
0.0
 10
319.2339260409917
 20
312.8875881754057
 30
0.0
 10
318.7500000000004
 20
312.874255323381
 30
0.0
 10
318.266073959005
 20
312.8875881754057
 30
0.0
 10
317.7865151401674
 20
312.9276318288281
 30
0.0
 10
317.3128162713622
 20
312.9940934023485
 30
0.0
 10
316.852029600541
 20
313.0861644845267
 30
0.0
 10
316.4028893385435
 20
313.2039106066003
 30
0.0
 10
315.9746400308792
 20
313.3451250272597
 30
0.0
 10
315.5636902731235
 20
313.5107739768759
 30
0.0
 10
315.1806770658821
 20
313.6968427711092
 30
0.0
 10
314.8204502076264
 20
313.9055885004087
 30
0.0
 10
314.4939364882144
 20
314.1310211529374
 30
0.0
 10
314.195530377217
 20
314.3767891303946
 30
0.0
 10
313.9350969191577
 20
314.635154250245
 30
0.0
 10
313.7079258636682
 20
314.9107538353795
 30
0.0
 10
313.5214581282738
 20
315.1949005007436
 30
0.0
 10
313.3729352601445
 20
315.4920606894909
 30
0.0
 10
313.2672278786071
 20
315.7940658357121
 30
0.0
 10
313.2004999455814
 20
316.1032854323223
 30
0.0
 10
313.192067185397
 20
316.3104716858649
 30
0.0
 10
313.1878511346779
 20
316.414056720196
 30
0.0
 11
313.1878511346779
 21
316.414056720196
 31
0.0
 11
313.2093577468912
 21
316.7238416692707
 31
0.0
 11
313.2723526740228
 21
317.0279650392519
 31
0.0
 11
313.3792417563017
 21
317.3333761495521
 31
0.0
 11
313.5232897555441
 21
317.6232200646859
 31
0.0
 11
313.7129594395701
 21
317.9135895767734
 31
0.0
 11
313.9330377830002
 21
318.1817352737638
 31
0.0
 11
314.1993899825299
 21
318.4469970852302
 31
0.0
 11
314.4891467699194
 21
318.6865404644801
 31
0.0
 11
314.8232964123517
 21
318.9179816081942
 31
0.0
 11
315.1747196261388
 21
319.1222973865586
 31
0.0
 11
315.5657058339537
 21
319.3127540264355
 31
0.0
 11
315.9689255673388
 21
319.4757657864254
 31
0.0
 11
316.4042253440626
 21
319.6196447767565
 31
0.0
 11
316.8476330478836
 21
319.7362057056143
 31
0.0
 11
317.3135777519253
 21
319.8295023800778
 31
0.0
 11
317.7841429856243
 21
319.89570380897
 31
0.0
 11
318.2663212637876
 21
319.9360333571876
 31
0.0
 11
318.7499999999997
 21
319.9494138273316
 31
0.0
 11
319.2336787362119
 21
319.9360333571876
 31
0.0
 11
319.7158570143751
 21
319.89570380897
 31
0.0
 11
320.1864222480741
 21
319.8295023800777
 31
0.0
 11
320.6523669521156
 21
319.7362057056143
 31
0.0
 11
321.0957746559365
 21
319.6196447767565
 31
0.0
 11
321.5310744326604
 21
319.4757657864254
 31
0.0
 11
321.9342941660456
 21
319.3127540264355
 31
0.0
 11
322.3252803738606
 21
319.1222973865586
 31
0.0
 11
322.6767035876476
 21
318.9179816081942
 31
0.0
 11
323.0108532300798
 21
318.6865404644801
 31
0.0
 11
323.3006100174692
 21
318.4469970852301
 31
0.0
 11
323.5669622169991
 21
318.1817352737638
 31
0.0
 11
323.7870405604292
 21
317.9135895767734
 31
0.0
 11
323.9767102444552
 21
317.6232200646859
 31
0.0
 11
324.1207582436977
 21
317.3333761495521
 31
0.0
 11
324.2276473259765
 21
317.0279650392519
 31
0.0
 11
324.2906422531081
 21
316.7238416692707
 31
0.0
 11
324.3121488653214
 21
316.414056720196
 31
0.0
 11
324.290642253108
 21
316.1042717711213
 31
0.0
 11
324.2276473259765
 21
315.80014840114
 31
0.0
 11
324.1207582436977
 21
315.4947372908398
 31
0.0
 11
323.9767102444552
 21
315.2048933757059
 31
0.0
 11
323.7870405604292
 21
314.9145238636184
 31
0.0
 11
323.5669622169991
 21
314.646378166628
 31
0.0
 11
323.3006100174693
 21
314.3811163551617
 31
0.0
 11
323.0108532300798
 21
314.1415729759117
 31
0.0
 11
322.6767035876476
 21
313.9101318321978
 31
0.0
 11
322.3252803738606
 21
313.7058160538334
 31
0.0
 11
321.9342941660456
 21
313.5153594139565
 31
0.0
 11
321.5310744326604
 21
313.3523476539664
 31
0.0
 11
321.0957746559366
 21
313.2084686636353
 31
0.0
 11
320.6523669521156
 21
313.0919077347774
 31
0.0
 11
320.1864222480741
 21
312.998611060314
 31
0.0
 11
319.7158570143751
 21
312.9324096314218
 31
0.0
 11
319.2336787362118
 21
312.8920800832042
 31
0.0
 11
318.7499999999997
 21
312.8786996130602
 31
0.0
 11
318.2663212637876
 21
312.8920800832042
 31
0.0
 11
317.7841429856243
 21
312.9324096314218
 31
0.0
 11
317.3135777519253
 21
312.9986110603141
 31
0.0
 11
316.8476330478836
 21
313.0919077347774
 31
0.0
 11
316.4042253440627
 21
313.2084686636353
 31
0.0
 11
315.9689255673388
 21
313.3523476539664
 31
0.0
 11
315.5657058339538
 21
313.5153594139565
 31
0.0
 11
315.1747196261388
 21
313.7058160538334
 31
0.0
 11
314.8232964123517
 21
313.9101318321978
 31
0.0
 11
314.4891467699194
 21
314.1415729759117
 31
0.0
 11
314.19938998253
 21
314.3811163551616
 31
0.0
 11
313.9330377830003
 21
314.646378166628
 31
0.0
 11
313.7129594395702
 21
314.9145238636185
 31
0.0
 11
313.5232897555441
 21
315.2048933757059
 31
0.0
 11
313.3792417563016
 21
315.4947372908399
 31
0.0
 11
313.2723526740228
 21
315.80014840114
 31
0.0
 11
313.2093577468912
 21
316.1042717711213
 31
0.0
 11
313.1878511346779
 21
316.414056720196
 31
0.0
  0
SPLINE
  5
187
330
46
100
AcDbEntity
  8
1
  6
Continuous
 62
     7
100
AcDbSpline
210
0.0
220
0.0
230
1.0
 70
     8
 71
     3
 72
    29
 73
    25
 74
    23
 42
0.0000000001
 43
0.0000000001
 44
0.00000001
 40
0.0
 40
0.0
 40
0.0
 40
0.0
 40
0.6069077131758821
 40
1.212222625822654
 40
1.842666707826803
 40
2.474631900595519
 40
3.102420172365455
 40
3.729333891456414
 40
4.271042939833145
 40
4.812985328221136
 40
5.340107980728431
 40
5.866248927280347
 40
6.26387483734349
 40
6.661485236222595
 40
7.280966497569211
 40
7.902596738528289
 40
8.549168915178933
 40
9.195896772489302
 40
9.722415974179359
 40
10.24911841725719
 40
11.0789753727403
 40
11.90732207846641
 40
12.67331709995035
 40
13.44191271185833
 40
13.44191271185833
 40
13.44191271185833
 40
13.44191271185833
 10
160.2499999999998
 20
319.8786996130602
 30
0.0
 10
160.0479401704424
 20
319.8688242395978
 30
0.0
 10
159.6443508077736
 20
319.8490994101226
 30
0.0
 10
159.032645257435
 20
319.7853090560697
 30
0.0
 10
158.4232281955451
 20
319.6511257587524
 30
0.0
 10
157.8248220200396
 20
319.4506701380681
 30
0.0
 10
157.250259488144
 20
319.19210902125
 30
0.0
 10
156.7353616904725
 20
318.8831796314786
 30
0.0
 10
156.2863428164744
 20
318.529362706904
 30
0.0
 10
155.9124012139832
 20
318.1413380387408
 30
0.0
 10
155.6054353125231
 20
317.7044076349781
 30
0.0
 10
155.3981266549892
 20
317.2641936678779
 30
0.0
 10
155.2822240667183
 20
316.8374845471931
 30
0.0
 10
155.2315208618239
 20
316.3665691046909
 30
0.0
 10
155.291977185102
 20
315.8175945116469
 30
0.0
 10
155.5049244168488
 20
315.2198484454271
 30
0.0
 10
155.852161354195
 20
314.6782461994285
 30
0.0
 10
156.2735190800273
 20
314.2376382312907
 30
0.0
 10
156.7209325702846
 20
313.887764307654
 30
0.0
 10
157.2567689562072
 20
313.5588539246651
 30
0.0
 10
157.9216600061206
 20
313.2551153030379
 30
0.0
 10
158.7013210675945
 20
313.0303454376947
 30
0.0
 10
159.4837266859039
 20
312.9259586322851
 30
0.0
 10
159.9942871552665
 20
312.8945361535363
 30
0.0
 10
160.2499999999998
 20
312.8787982891469
 30
0.0
 11
160.2499999999998
 21
319.8786996130602
 31
0.0
 11
159.6441139782416
 21
319.8434987472978
 31
0.0
 11
159.0426711587602
 21
319.7751417552136
 31
0.0
 11
158.426779947019
 21
319.6404652693892
 31
0.0
 11
157.8273184854702
 21
319.4404003774442
 31
0.0
 11
157.2556197121502
 21
319.1810191391938
 31
0.0
 11
156.7190544951372
 21
318.8567991844158
 31
0.0
 11
156.2946219563581
 21
318.5201900444348
 31
0.0
 11
155.9198729810776
 21
318.1286996130602
 31
0.0
 11
155.6183170951175
 21
317.6963544518416
 31
0.0
 11
155.3962967812837
 21
317.2193520662252
 31
0.0
 11
155.2925360641406
 21
316.8355030360955
 31
0.0
 11
155.2507779663199
 21
316.4400914902813
 31
0.0
 11
155.3153715779414
 21
315.8239870360714
 31
0.0
 11
155.5229897480928
 21
315.2380528657947
 31
0.0
 11
155.8683623489477
 21
314.6914512318807
 31
0.0
 11
156.3126364755506
 21
314.2214752518003
 31
0.0
 11
156.7265068943254
 21
313.8960006042292
 31
0.0
 11
157.1745457415497
 21
313.6190951060497
 31
0.0
 11
157.9293064481872
 21
313.2741330178722
 31
0.0
 11
158.7254627585751
 21
313.0454555281256
 31
0.0
 11
159.4834718891747
 21
312.9351353991109
 31
0.0
 11
160.2499999999998
 21
312.8787982891469
 31
0.0
  0
SPLINE
  5
188
330
46
100
AcDbEntity
  8
1
  6
Continuous
 62
     7
100
AcDbSpline
210
0.0
220
0.0
230
1.0
 70
     8
 71
     3
 72
    29
 73
    25
 74
    23
 42
0.0000000001
 43
0.0000000001
 44
0.00000001
 40
0.0
 40
0.0
 40
0.0
 40
0.0
 40
0.6069077131758538
 40
1.212222625822626
 40
1.84266670782679
 40
2.474631900595496
 40
3.102420172365303
 40
3.729333891456213
 40
4.271042939833011
 40
4.8129853282211
 40
5.340107980728427
 40
5.866248927280356
 40
6.263874837343484
 40
6.661485236222574
 40
7.280966497569181
 40
7.902596738528249
 40
8.549168915178894
 40
9.195896772489263
 40
9.72241597417932
 40
10.24911841725715
 40
11.07897537274021
 40
11.90732207846638
 40
12.67331709995028
 40
13.44191271185829
 40
13.44191271185829
 40
13.44191271185829
 40
13.44191271185829
 10
160.2499999999998
 20
319.8786996130602
 30
0.0
 10
160.4520598295572
 20
319.8688242395978
 30
0.0
 10
160.855649192226
 20
319.8490994101227
 30
0.0
 10
161.4673547425646
 20
319.7853090560697
 30
0.0
 10
162.0767718044545
 20
319.6511257587524
 30
0.0
 10
162.6751779799599
 20
319.4506701380681
 30
0.0
 10
163.2497405118555
 20
319.1921090212501
 30
0.0
 10
163.7646383095269
 20
318.8831796314786
 30
0.0
 10
164.2136571835252
 20
318.529362706904
 30
0.0
 10
164.5875987860164
 20
318.1413380387409
 30
0.0
 10
164.8945646874765
 20
317.7044076349779
 30
0.0
 10
165.1018733450106
 20
317.264193667878
 30
0.0
 10
165.2177759332813
 20
316.837484547193
 30
0.0
 10
165.2684791381756
 20
316.366569104691
 30
0.0
 10
165.2080228148976
 20
315.817594511647
 30
0.0
 10
164.9950755831508
 20
315.219848445427
 30
0.0
 10
164.6478386458047
 20
314.6782461994285
 30
0.0
 10
164.2264809199723
 20
314.2376382312908
 30
0.0
 10
163.7790674297151
 20
313.887764307654
 30
0.0
 10
163.2432310437924
 20
313.5588539246651
 30
0.0
 10
162.5783399938791
 20
313.2551153030379
 30
0.0
 10
161.7986789324053
 20
313.0303454376948
 30
0.0
 10
161.0162733140957
 20
312.9259586322852
 30
0.0
 10
160.5057128447331
 20
312.8945361535363
 30
0.0
 10
160.2499999999998
 20
312.8787982891469
 30
0.0
 11
160.2499999999998
 21
319.8786996130602
 31
0.0
 11
160.855886021758
 21
319.8434987472978
 31
0.0
 11
161.4573288412394
 21
319.7751417552136
 31
0.0
 11
162.0732200529806
 21
319.6404652693893
 31
0.0
 11
162.6726815145294
 21
319.4404003774442
 31
0.0
 11
163.2443802878493
 21
319.1810191391938
 31
0.0
 11
163.7809455048622
 21
318.8567991844158
 31
0.0
 11
164.2053780436414
 21
318.5201900444348
 31
0.0
 11
164.580127018922
 21
318.1286996130602
 31
0.0
 11
164.8816829048822
 21
317.6963544518416
 31
0.0
 11
165.103703218716
 21
317.2193520662252
 31
0.0
 11
165.207463935859
 21
316.8355030360955
 31
0.0
 11
165.2492220336796
 21
316.4400914902813
 31
0.0
 11
165.1846284220582
 21
315.8239870360714
 31
0.0
 11
164.9770102519068
 21
315.2380528657947
 31
0.0
 11
164.6316376510519
 21
314.6914512318807
 31
0.0
 11
164.187363524449
 21
314.2214752518003
 31
0.0
 11
163.7734931056742
 21
313.8960006042292
 31
0.0
 11
163.3254542584499
 21
313.6190951060497
 31
0.0
 11
162.5706935518125
 21
313.2741330178722
 31
0.0
 11
161.7745372414245
 21
313.0454555281256
 31
0.0
 11
161.0165281108249
 21
312.9351353991109
 31
0.0
 11
160.2499999999998
 21
312.8787982891469
 31
0.0
  0
SPLINE
  5
189
330
46
100
AcDbEntity
  8
1
  6
Continuous
 62
     7
100
AcDbSpline
210
0.0
220
0.0
230
1.0
 70
    11
 71
     3
 72
    79
 73
    75
 74
    73
 42
0.0000000001
 43
0.0000000001
 44
0.00000001
 40
0.0
 40
0.0
 40
0.0
 40
0.0
 40
0.2803981145479286
 40
0.5607977859033146
 40
0.8427454841467514
 40
1.124697473048425
 40
1.40953645163808
 40
1.694381500885849
 40
1.983071310125134
 40
2.271767843422794
 40
2.564776142200779
 40
2.857790854546442
 40
3.155055698552696
 40
3.452325978930649
 40
3.753284827389568
 40
4.054247742882682
 40
4.357919806975684
 40
4.661594368328943
 40
4.966700748943365
 40
5.271807969839198
 40
5.576915190735313
 40
5.882021571349909
 40
6.18569613270289
 40
6.489368196795782
 40
6.790331112288852
 40
7.091289960747759
 40
7.388560241125846
 40
7.685825085132162
 40
7.978839797477658
 40
8.271848096255683
 40
8.560544629553409
 40
8.84923443879287
 40
9.134079488040586
 40
9.418918466630196
 40
9.700870455531796
 40
9.982818153775218
 40
10.26321782513056
 40
10.54361593967854
 40
10.82401405422647
 40
11.10441372558186
 40
11.38636142382527
 40
11.668313412727
 40
11.95315239131661
 40
12.2379974405644
 40
12.52668724980383
 40
12.81538378310159
 40
13.10839208187951
 40
13.40140679422497
 40
13.69867163823135
 40
13.99594191860948
 40
14.29690076706842
 40
14.59786368256142
 40
14.90153574665424
 40
15.20521030800727
 40
15.51031668862192
 40
15.81542390951799
 40
16.12053113041382
 40
16.42563751102825
 40
16.72931207238151
 40
17.03298413647448
 40
17.33394705196763
 40
17.63490590042648
 40
17.93217618080449
 40
18.2294410248108
 40
18.52245573715632
 40
18.81546403593431
 40
19.10416056923193
 40
19.39285037847126
 40
19.6776954277191
 40
19.96253440630875
 40
20.24448639521048
 40
20.52643409345397
 40
20.80683376480936
 40
21.08723187935729
 40
21.08723187935729
 40
21.08723187935729
 40
21.08723187935729
 10
171.5083302491976
 20
319.8786996130602
 30
0.0
 10
171.6018307922512
 20
319.876118227171
 30
0.0
 10
171.7888323974856
 20
319.8709554410605
 30
0.0
 10
172.0673168107255
 20
319.8294830910114
 30
0.0
 10
172.3412590071279
 20
319.7635829306187
 30
0.0
 10
172.6091871724632
 20
319.6713508213847
 30
0.0
 10
172.8682329600235
 20
319.5542686320255
 30
0.0
 10
173.1173922541763
 20
319.4127923504462
 30
0.0
 10
173.3537022743542
 20
319.2485100044533
 30
0.0
 10
173.5764772682723
 20
319.0620498562369
 30
0.0
 10
173.7829333005703
 20
318.8556253812998
 30
0.0
 10
173.9725460442107
 20
318.6299076868631
 30
0.0
 10
174.1429452201363
 20
318.3876168885145
 30
0.0
 10
174.2936580277442
 20
318.1295593956744
 30
0.0
 10
174.4228811642697
 20
317.8587321921926
 30
0.0
 10
174.5301608374541
 20
317.5762153386958
 30
0.0
 10
174.6143153410095
 20
317.2850273681026
 30
0.0
 10
174.6749586148407
 20
316.9866485951878
 30
0.0
 10
174.7114923771119
 20
316.6838876233077
 30
0.0
 10
174.7237114078484
 20
316.3786996130598
 30
0.0
 10
174.7114923771119
 20
316.0735116028135
 30
0.0
 10
174.6749586148407
 20
315.7707506309286
 30
0.0
 10
174.6143153410095
 20
315.4723718580308
 30
0.0
 10
174.5301608374541
 20
315.181183887375
 30
0.0
 10
174.4228811642697
 20
314.8986670341103
 30
0.0
 10
174.2936580277441
 20
314.6278398297685
 30
0.0
 10
174.1429452201364
 20
314.3697823400994
 30
0.0
 10
173.9725460442108
 20
314.1274915300037
 30
0.0
 10
173.7829333005703
 20
313.9017738788059
 30
0.0
 10
173.5764772682723
 20
313.6953492437793
 30
0.0
 10
173.3537022743542
 20
313.5088896846021
 30
0.0
 10
173.1173922541764
 20
313.344605156891
 30
0.0
 10
172.8682329600235
 20
313.203136913821
 30
0.0
 10
172.6091871724633
 20
313.0860249102196
 30
0.0
 10
172.3412590071278
 20
312.9939029917467
 30
0.0
 10
172.0673168107256
 20
312.927593226179
 30
0.0
 10
171.7888323974856
 20
312.8876415610832
 30
0.0
 10
171.5083302491976
 20
312.8742286514603
 30
0.0
 10
171.2278281009096
 20
312.8876415610833
 30
0.0
 10
170.9493436876697
 20
312.9275932261791
 30
0.0
 10
170.6754014912673
 20
312.9939029917466
 30
0.0
 10
170.4074733259319
 20
313.0860249102194
 30
0.0
 10
170.1484275383716
 20
313.2031369138211
 30
0.0
 10
169.8992682442187
 20
313.3446051568909
 30
0.0
 10
169.6629582240408
 20
313.5088896846021
 30
0.0
 10
169.4401832301227
 20
313.6953492437792
 30
0.0
 10
169.2337271978248
 20
313.9017738788059
 30
0.0
 10
169.0441144541844
 20
314.1274915300037
 30
0.0
 10
168.8737152782587
 20
314.3697823400994
 30
0.0
 10
168.7230024706508
 20
314.6278398297685
 30
0.0
 10
168.5937793341254
 20
314.8986670341101
 30
0.0
 10
168.4864996609409
 20
315.1811838873752
 30
0.0
 10
168.4023451573857
 20
315.4723718580308
 30
0.0
 10
168.3417018835545
 20
315.7707506309286
 30
0.0
 10
168.3051681212833
 20
316.0735116028135
 30
0.0
 10
168.2929490905466
 20
316.3786996130597
 30
0.0
 10
168.3051681212833
 20
316.6838876233077
 30
0.0
 10
168.3417018835546
 20
316.9866485951878
 30
0.0
 10
168.4023451573858
 20
317.2850273681027
 30
0.0
 10
168.486499660941
 20
317.5762153386958
 30
0.0
 10
168.5937793341253
 20
317.8587321921925
 30
0.0
 10
168.7230024706508
 20
318.1295593956745
 30
0.0
 10
168.8737152782589
 20
318.3876168885145
 30
0.0
 10
169.0441144541845
 20
318.629907686863
 30
0.0
 10
169.2337271978248
 20
318.8556253812998
 30
0.0
 10
169.4401832301227
 20
319.062049856237
 30
0.0
 10
169.6629582240408
 20
319.2485100044534
 30
0.0
 10
169.8992682442187
 20
319.4127923504462
 30
0.0
 10
170.1484275383715
 20
319.5542686320254
 30
0.0
 10
170.4074733259319
 20
319.6713508213848
 30
0.0
 10
170.6754014912672
 20
319.7635829306187
 30
0.0
 10
170.9493436876696
 20
319.8294830910115
 30
0.0
 10
171.2278281009097
 20
319.8709554410604
 30
0.0
 10
171.4148297061441
 20
319.8761182271709
 30
0.0
 10
171.5083302491976
 20
319.8786996130602
 30
0.0
 11
171.5083302491976
 21
319.8786996130602
 31
0.0
 11
171.7884102480672
 21
319.8653468277621
 31
0.0
 11
172.0659680564459
 21
319.825526748603
 31
0.0
 11
172.3400194608248
 21
319.759267165879
 31
0.0
 11
172.6066623210991
 21
319.6676237858108
 31
0.0
 11
172.8662507456351
 21
319.5503757855255
 31
0.0
 11
173.1139843215306
 21
319.4097885263055
 31
0.0
 11
173.3510848061396
 21
319.2450913309535
 31
0.0
 11
173.5725193354745
 21
319.0598551639766
 31
0.0
 11
173.7798027247842
 21
318.8527622870613
 31
0.0
 11
173.9683350085618
 21
318.6284562469629
 31
0.0
 11
174.1394235551354
 21
318.3853614162622
 31
0.0
 11
174.2894046818583
 21
318.1286996130602
 31
0.0
 11
174.4190814617327
 21
317.857111393089
 31
0.0
 11
174.5259728158101
 21
317.5757701146999
 31
0.0
 11
174.6103388771404
 21
317.2840526311544
 31
0.0
 11
174.6708514073762
 21
316.9864682348942
 31
0.0
 11
174.7074303559391
 21
316.68356250036
 31
0.0
 11
174.7196383938638
 21
316.3786996130602
 31
0.0
 11
174.7074303559392
 21
316.07383672576
 31
0.0
 11
174.6708514073762
 21
315.7709309912257
 31
0.0
 11
174.6103388771404
 21
315.4733465949658
 31
0.0
 11
174.5259728158101
 21
315.1816291114204
 31
0.0
 11
174.4190814617327
 21
314.9002878330314
 31
0.0
 11
174.2894046818583
 21
314.6286996130602
 31
0.0
 11
174.1394235551354
 21
314.372037809858
 31
0.0
 11
173.9683350085618
 21
314.1289429791572
 31
0.0
 11
173.7798027247843
 21
313.904636939059
 31
0.0
 11
173.5725193354745
 21
313.6975440621437
 31
0.0
 11
173.3510848061397
 21
313.5123078951666
 31
0.0
 11
173.1139843215306
 21
313.3476106998144
 31
0.0
 11
172.8662507456351
 21
313.2070234405945
 31
0.0
 11
172.6066623210991
 21
313.0897754403093
 31
0.0
 11
172.3400194608248
 21
312.9981320602414
 31
0.0
 11
172.0659680564459
 21
312.9318724775174
 31
0.0
 11
171.7884102480673
 21
312.8920523983583
 31
0.0
 11
171.5083302491976
 21
312.8786996130602
 31
0.0
 11
171.228250250328
 21
312.8920523983583
 31
0.0
 11
170.9506924419493
 21
312.9318724775174
 31
0.0
 11
170.6766410375705
 21
312.9981320602413
 31
0.0
 11
170.409998177296
 21
313.0897754403093
 31
0.0
 11
170.1504097527599
 21
313.2070234405945
 31
0.0
 11
169.9026761768644
 21
313.3476106998144
 31
0.0
 11
169.6655756922554
 21
313.5123078951665
 31
0.0
 11
169.4441411629205
 21
313.6975440621437
 31
0.0
 11
169.2368577736109
 21
313.904636939059
 31
0.0
 11
169.0483254898334
 21
314.1289429791572
 31
0.0
 11
168.8772369432597
 21
314.372037809858
 31
0.0
 11
168.7272558165367
 21
314.6286996130602
 31
0.0
 11
168.5975790366624
 21
314.9002878330314
 31
0.0
 11
168.490687682585
 21
315.1816291114204
 31
0.0
 11
168.4063216212547
 21
315.4733465949657
 31
0.0
 11
168.345809091019
 21
315.7709309912257
 31
0.0
 11
168.309230142456
 21
316.0738367257601
 31
0.0
 11
168.2970221045313
 21
316.3786996130602
 31
0.0
 11
168.309230142456
 21
316.68356250036
 31
0.0
 11
168.345809091019
 21
316.9864682348942
 31
0.0
 11
168.4063216212548
 21
317.2840526311544
 31
0.0
 11
168.490687682585
 21
317.5757701146999
 31
0.0
 11
168.5975790366623
 21
317.857111393089
 31
0.0
 11
168.7272558165367
 21
318.1286996130602
 31
0.0
 11
168.8772369432598
 21
318.3853614162622
 31
0.0
 11
169.0483254898334
 21
318.6284562469629
 31
0.0
 11
169.2368577736108
 21
318.8527622870612
 31
0.0
 11
169.4441411629205
 21
319.0598551639766
 31
0.0
 11
169.6655756922554
 21
319.2450913309535
 31
0.0
 11
169.9026761768644
 21
319.4097885263055
 31
0.0
 11
170.15040975276
 21
319.5503757855255
 31
0.0
 11
170.409998177296
 21
319.6676237858108
 31
0.0
 11
170.6766410375704
 21
319.759267165879
 31
0.0
 11
170.9506924419493
 21
319.825526748603
 31
0.0
 11
171.228250250328
 21
319.8653468277621
 31
0.0
 11
171.5083302491976
 21
319.8786996130602
 31
0.0
  0
SPLINE
  5
18A
330
46
100
AcDbEntity
  8
1
  6
Continuous
 62
     7
100
AcDbSpline
210
0.0
220
0.0
230
1.0
 70
    11
 71
     3
 72
    79
 73
    75
 74
    73
 42
0.0000000001
 43
0.0000000001
 44
0.00000001
 40
0.0
 40
0.0
 40
0.0
 40
0.0
 40
0.2803981145479286
 40
0.5607977859033146
 40
0.8427454841467514
 40
1.124697473048425
 40
1.409536451638028
 40
1.694381500885847
 40
1.983071310125132
 40
2.271767843422792
 40
2.564776142200777
 40
2.857790854546439
 40
3.155055698552663
 40
3.452325978930666
 40
3.75328482738956
 40
4.054247742882684
 40
4.357919806975685
 40
4.661594368328944
 40
4.966700748943364
 40
5.271807969839197
 40
5.576915190735314
 40
5.882021571349906
 40
6.185696132702892
 40
6.489368196795777
 40
6.790331112288857
 40
7.09128996074774
 40
7.38856024112584
 40
7.685825085132157
 40
7.978839797477689
 40
8.271848096255674
 40
8.560544629553423
 40
8.849234438792861
 40
9.134079488040602
 40
9.418918466630187
 40
9.700870455531787
 40
9.982818153775209
 40
10.2632178251306
 40
10.54361593967853
 40
10.82401405422644
 40
11.10441372558182
 40
11.38636142382529
 40
11.66831341272699
 40
11.95315239131662
 40
12.23799744056439
 40
12.52668724980382
 40
12.81538378310158
 40
13.1083920818795
 40
13.40140679422496
 40
13.6986716382313
 40
13.99594191860943
 40
14.29690076706831
 40
14.59786368256141
 40
14.90153574665417
 40
15.20521030800725
 40
15.51031668862191
 40
15.81542390951798
 40
16.12053113041381
 40
16.42563751102824
 40
16.72931207238149
 40
17.03298413647447
 40
17.33394705196757
 40
17.63490590042651
 40
17.9321761808045
 40
18.22944102481078
 40
18.5224557371563
 40
18.81546403593429
 40
19.10416056923193
 40
19.39285037847123
 40
19.67769542771905
 40
19.96253440630873
 40
20.24448639521046
 40
20.52643409345398
 40
20.80683376480937
 40
21.08723187935727
 40
21.08723187935727
 40
21.08723187935727
 40
21.08723187935727
 10
148.991669750802
 20
319.8786996130602
 30
0.0
 10
148.8981692077485
 20
319.876118227171
 30
0.0
 10
148.7111676025141
 20
319.8709554410605
 30
0.0
 10
148.4326831892739
 20
319.8294830910114
 30
0.0
 10
148.1587409928718
 20
319.7635829306188
 30
0.0
 10
147.8908128275363
 20
319.6713508213845
 30
0.0
 10
147.6317670399762
 20
319.5542686320255
 30
0.0
 10
147.3826077458233
 20
319.4127923504462
 30
0.0
 10
147.1462977256454
 20
319.2485100044532
 30
0.0
 10
146.9235227317273
 20
319.062049856237
 30
0.0
 10
146.7170666994293
 20
318.8556253812998
 30
0.0
 10
146.5274539557889
 20
318.6299076868631
 30
0.0
 10
146.3570547798632
 20
318.3876168885145
 30
0.0
 10
146.2063419722554
 20
318.1295593956745
 30
0.0
 10
146.07711883573
 20
317.8587321921925
 30
0.0
 10
145.9698391625454
 20
317.5762153386958
 30
0.0
 10
145.8856846589902
 20
317.2850273681028
 30
0.0
 10
145.8250413851588
 20
316.9866485951876
 30
0.0
 10
145.7885076228879
 20
316.6838876233078
 30
0.0
 10
145.7762885921512
 20
316.3786996130598
 30
0.0
 10
145.7885076228878
 20
316.0735116028134
 30
0.0
 10
145.8250413851589
 20
315.7707506309287
 30
0.0
 10
145.8856846589902
 20
315.4723718580308
 30
0.0
 10
145.9698391625454
 20
315.1811838873751
 30
0.0
 10
146.07711883573
 20
314.8986670341103
 30
0.0
 10
146.2063419722554
 20
314.6278398297685
 30
0.0
 10
146.3570547798633
 20
314.3697823400993
 30
0.0
 10
146.5274539557888
 20
314.1274915300037
 30
0.0
 10
146.7170666994294
 20
313.9017738788059
 30
0.0
 10
146.9235227317273
 20
313.6953492437793
 30
0.0
 10
147.1462977256454
 20
313.5088896846022
 30
0.0
 10
147.3826077458232
 20
313.3446051568909
 30
0.0
 10
147.6317670399761
 20
313.2031369138211
 30
0.0
 10
147.8908128275363
 20
313.0860249102195
 30
0.0
 10
148.1587409928718
 20
312.9939029917466
 30
0.0
 10
148.432683189274
 20
312.9275932261791
 30
0.0
 10
148.711167602514
 20
312.8876415610832
 30
0.0
 10
148.991669750802
 20
312.8742286514603
 30
0.0
 10
149.2721718990899
 20
312.8876415610833
 30
0.0
 10
149.55065631233
 20
312.9275932261791
 30
0.0
 10
149.8245985087323
 20
312.9939029917466
 30
0.0
 10
150.0925266740678
 20
313.0860249102195
 30
0.0
 10
150.3515724616281
 20
313.2031369138211
 30
0.0
 10
150.600731755781
 20
313.3446051568909
 30
0.0
 10
150.8370417759589
 20
313.508889684602
 30
0.0
 10
151.0598167698768
 20
313.6953492437792
 30
0.0
 10
151.2662728021748
 20
313.901773878806
 30
0.0
 10
151.4558855458152
 20
314.1274915300038
 30
0.0
 10
151.6262847217408
 20
314.3697823400993
 30
0.0
 10
151.7769975293486
 20
314.6278398297684
 30
0.0
 10
151.9062206658743
 20
314.8986670341102
 30
0.0
 10
152.0135003390587
 20
315.1811838873751
 30
0.0
 10
152.0976548426139
 20
315.4723718580307
 30
0.0
 10
152.1582981164451
 20
315.7707506309287
 30
0.0
 10
152.1948318787163
 20
316.0735116028136
 30
0.0
 10
152.207050909453
 20
316.3786996130598
 30
0.0
 10
152.1948318787163
 20
316.6838876233077
 30
0.0
 10
152.158298116445
 20
316.9866485951877
 30
0.0
 10
152.097654842614
 20
317.2850273681027
 30
0.0
 10
152.0135003390587
 20
317.5762153386959
 30
0.0
 10
151.9062206658742
 20
317.8587321921925
 30
0.0
 10
151.7769975293487
 20
318.1295593956746
 30
0.0
 10
151.6262847217407
 20
318.3876168885143
 30
0.0
 10
151.4558855458151
 20
318.6299076868631
 30
0.0
 10
151.2662728021749
 20
318.8556253812998
 30
0.0
 10
151.0598167698769
 20
319.062049856237
 30
0.0
 10
150.8370417759588
 20
319.2485100044532
 30
0.0
 10
150.6007317557809
 20
319.4127923504462
 30
0.0
 10
150.3515724616281
 20
319.5542686320256
 30
0.0
 10
150.0925266740678
 20
319.6713508213846
 30
0.0
 10
149.8245985087323
 20
319.7635829306188
 30
0.0
 10
149.55065631233
 20
319.8294830910115
 30
0.0
 10
149.2721718990899
 20
319.8709554410604
 30
0.0
 10
149.0851702938555
 20
319.8761182271709
 30
0.0
 10
148.991669750802
 20
319.8786996130602
 30
0.0
 11
148.991669750802
 21
319.8786996130602
 31
0.0
 11
148.7115897519324
 21
319.8653468277621
 31
0.0
 11
148.4340319435537
 21
319.825526748603
 31
0.0
 11
148.1599805391749
 21
319.759267165879
 31
0.0
 11
147.8933376789005
 21
319.6676237858108
 31
0.0
 11
147.6337492543646
 21
319.5503757855255
 31
0.0
 11
147.386015678469
 21
319.4097885263055
 31
0.0
 11
147.14891519386
 21
319.2450913309535
 31
0.0
 11
146.9274806645251
 21
319.0598551639766
 31
0.0
 11
146.7201972752154
 21
318.8527622870613
 31
0.0
 11
146.5316649914378
 21
318.6284562469629
 31
0.0
 11
146.3605764448642
 21
318.3853614162622
 31
0.0
 11
146.2105953181413
 21
318.1286996130602
 31
0.0
 11
146.0809185382669
 21
317.857111393089
 31
0.0
 11
145.9740271841895
 21
317.5757701146999
 31
0.0
 11
145.8896611228592
 21
317.2840526311544
 31
0.0
 11
145.8291485926234
 21
316.9864682348942
 31
0.0
 11
145.7925696440605
 21
316.68356250036
 31
0.0
 11
145.7803616061358
 21
316.3786996130602
 31
0.0
 11
145.7925696440605
 21
316.07383672576
 31
0.0
 11
145.8291485926234
 21
315.7709309912257
 31
0.0
 11
145.8896611228592
 21
315.4733465949658
 31
0.0
 11
145.9740271841895
 21
315.1816291114204
 31
0.0
 11
146.080918538267
 21
314.9002878330314
 31
0.0
 11
146.2105953181413
 21
314.6286996130602
 31
0.0
 11
146.3605764448642
 21
314.372037809858
 31
0.0
 11
146.5316649914378
 21
314.1289429791572
 31
0.0
 11
146.7201972752154
 21
313.904636939059
 31
0.0
 11
146.9274806645251
 21
313.6975440621437
 31
0.0
 11
147.14891519386
 21
313.5123078951666
 31
0.0
 11
147.386015678469
 21
313.3476106998144
 31
0.0
 11
147.6337492543645
 21
313.2070234405945
 31
0.0
 11
147.8933376789005
 21
313.0897754403093
 31
0.0
 11
148.1599805391749
 21
312.9981320602414
 31
0.0
 11
148.4340319435537
 21
312.9318724775174
 31
0.0
 11
148.7115897519324
 21
312.8920523983583
 31
0.0
 11
148.991669750802
 21
312.8786996130602
 31
0.0
 11
149.2717497496716
 21
312.8920523983583
 31
0.0
 11
149.5493075580503
 21
312.9318724775174
 31
0.0
 11
149.8233589624292
 21
312.9981320602413
 31
0.0
 11
150.0900018227036
 21
313.0897754403093
 31
0.0
 11
150.3495902472397
 21
313.2070234405945
 31
0.0
 11
150.5973238231352
 21
313.3476106998144
 31
0.0
 11
150.8344243077443
 21
313.5123078951665
 31
0.0
 11
151.0558588370791
 21
313.6975440621437
 31
0.0
 11
151.2631422263887
 21
313.904636939059
 31
0.0
 11
151.4516745101662
 21
314.1289429791572
 31
0.0
 11
151.6227630567398
 21
314.372037809858
 31
0.0
 11
151.7727441834628
 21
314.6286996130602
 31
0.0
 11
151.9024209633373
 21
314.9002878330313
 31
0.0
 11
152.0093123174146
 21
315.1816291114204
 31
0.0
 11
152.0936783787449
 21
315.4733465949657
 31
0.0
 11
152.1541909089806
 21
315.7709309912257
 31
0.0
 11
152.1907698575436
 21
316.0738367257601
 31
0.0
 11
152.2029778954683
 21
316.3786996130602
 31
0.0
 11
152.1907698575436
 21
316.68356250036
 31
0.0
 11
152.1541909089806
 21
316.9864682348942
 31
0.0
 11
152.0936783787449
 21
317.2840526311544
 31
0.0
 11
152.0093123174146
 21
317.5757701146999
 31
0.0
 11
151.9024209633373
 21
317.857111393089
 31
0.0
 11
151.7727441834628
 21
318.1286996130602
 31
0.0
 11
151.6227630567398
 21
318.3853614162622
 31
0.0
 11
151.4516745101662
 21
318.6284562469629
 31
0.0
 11
151.2631422263888
 21
318.8527622870612
 31
0.0
 11
151.0558588370791
 21
319.0598551639766
 31
0.0
 11
150.8344243077442
 21
319.2450913309535
 31
0.0
 11
150.5973238231352
 21
319.4097885263055
 31
0.0
 11
150.3495902472397
 21
319.5503757855255
 31
0.0
 11
150.0900018227036
 21
319.6676237858108
 31
0.0
 11
149.8233589624292
 21
319.759267165879
 31
0.0
 11
149.5493075580503
 21
319.825526748603
 31
0.0
 11
149.2717497496716
 21
319.8653468277621
 31
0.0
 11
148.991669750802
 21
319.8786996130602
 31
0.0
  0
ENDBLK
  5
48
330
46
100
AcDbEntity
  8
0
100
AcDbBlockEnd
  0
BLOCK
  5
4A
330
49
100
AcDbEntity
  8
0
100
AcDbBlockBegin
  2
42-15K
 70
     0
 71
     0
 10
-11.68817991347808
 20
617.9764017366709
 30
0.0
  3
42-15K
  1

  0
LINE
  5
18B
330
49
100
AcDbEntity
  8
1
  6
Continuous
 62
     7
100
AcDbLine
 10
166.25
 20
344.1480218120835
 30
0.0
 11
167.2499999999998
 21
343.8786996130602
 31
0.0
  0
LINE
  5
18C
330
49
100
AcDbEntity
  8
1
  6
Continuous
 62
     2
100
AcDbLine
 10
158.7499999999998
 20
343.165019771282
 30
0.0
 11
158.7499999999998
 21
341.8162934414294
 31
0.0
  0
LINE
  5
18D
330
49
100
AcDbEntity
  8
1
  6
Continuous
 62
     2
100
AcDbLine
 10
157.7499999999998
 20
343.4102427403461
 30
0.0
 11
157.7499999999998
 21
341.4922488037375
 31
0.0
  0
LINE
  5
18E
330
49
100
AcDbEntity
  8
1
  6
Continuous
 62
     2
100
AcDbLine
 10
156.7499999999998
 20
343.602917930325
 30
0.0
 11
156.7499999999998
 21
341.1331723133222
 31
0.0
  0
LINE
  5
18F
330
49
100
AcDbEntity
  8
1
  6
Continuous
 62
     2
100
AcDbLine
 10
155.7499999999998
 20
343.7342873780381
 30
0.0
 11
155.7499999999998
 21
340.9842869392476
 31
0.0
  0
LINE
  5
190
330
49
100
AcDbEntity
  8
1
  6
Continuous
 62
     7
100
AcDbLine
 10
154.7499999999998
 20
340.8786996130602
 30
0.0
 11
162.8999999999997
 21
340.8786996130602
 31
0.0
  0
LINE
  5
191
330
49
100
AcDbEntity
  8
1
  6
Continuous
 62
     7
100
AcDbLine
 10
165.7499999999998
 20
343.8786996130602
 30
0.0
 11
154.7499999999998
 21
343.8786996130602
 31
0.0
  0
LINE
  5
192
330
49
100
AcDbEntity
  8
1
  6
Continuous
 62
     2
100
AcDbLine
 10
154.7499999999998
 20
343.8786996130602
 30
0.0
 11
154.7499999999998
 21
340.8786996130602
 31
0.0
  0
LINE
  5
193
330
49
100
AcDbEntity
  8
1
  6
Continuous
 62
     7
100
AcDbLine
 10
154.7499999999998
 20
340.8786996130602
 30
0.0
 11
153.7499999999998
 21
340.8786996130602
 31
0.0
  0
LINE
  5
194
330
49
100
AcDbEntity
  8
1
  6
Continuous
 62
     7
100
AcDbLine
 10
154.7499999999998
 20
343.8786996130602
 30
0.0
 11
153.7499999999998
 21
343.8786996130602
 31
0.0
  0
LINE
  5
195
330
49
100
AcDbEntity
  8
1
  6
Continuous
 62
     2
100
AcDbLine
 10
153.7499999999998
 20
343.8786996130602
 30
0.0
 11
153.7499999999998
 21
340.8786996130602
 31
0.0
  0
LINE
  5
196
330
49
100
AcDbEntity
  8
1
  6
Continuous
 62
     7
100
AcDbLine
 10
153.2499999999998
 20
340.8786996130602
 30
0.0
 11
153.2499999999998
 21
343.8786996130602
 31
0.0
  0
LINE
  5
197
330
49
100
AcDbEntity
  8
1
  6
Continuous
 62
     7
100
AcDbLine
 10
153.2499999999998
 20
340.8786996130602
 30
0.0
 11
153.7499999999998
 21
340.8786996130602
 31
0.0
  0
LINE
  5
198
330
49
100
AcDbEntity
  8
1
  6
Continuous
 62
     7
100
AcDbLine
 10
153.2499999999998
 20
343.8786996130602
 30
0.0
 11
154.2499999999998
 21
344.1480218120835
 31
0.0
  0
LINE
  5
199
330
49
100
AcDbEntity
  8
1
  6
Continuous
 62
     7
100
AcDbLine
 10
153.2499999999998
 20
343.8786996130602
 30
0.0
 11
153.7499999999998
 21
343.8786996130602
 31
0.0
  0
LINE
  5
19A
330
49
100
AcDbEntity
  8
1
  6
Continuous
 62
     7
100
AcDbLine
 10
154.4999999999998
 20
344.2084653332639
 30
0.0
 11
160.2499999999998
 21
344.2084653332639
 31
0.0
  0
LINE
  5
19B
330
49
100
AcDbEntity
  8
1
  6
Continuous
 62
     7
100
AcDbLine
 10
160.2499999999998
 20
344.2084653332639
 30
0.0
 11
165.9999999999998
 21
344.2084653332639
 31
0.0
  0
LINE
  5
19C
330
49
100
AcDbEntity
  8
1
  6
Continuous
 62
     7
100
AcDbLine
 10
166.7499999999998
 20
340.8786996130602
 30
0.0
 11
165.7499999999998
 21
340.8786996130602
 31
0.0
  0
LINE
  5
19D
330
49
100
AcDbEntity
  8
1
  6
Continuous
 62
     7
100
AcDbLine
 10
166.7499999999998
 20
343.8786996130602
 30
0.0
 11
165.7499999999998
 21
343.8786996130602
 31
0.0
  0
LINE
  5
19E
330
49
100
AcDbEntity
  8
1
  6
Continuous
 62
     7
100
AcDbLine
 10
166.7499999999998
 20
343.8786996130602
 30
0.0
 11
167.2499999999998
 21
343.8786996130602
 31
0.0
  0
LINE
  5
19F
330
49
100
AcDbEntity
  8
1
  6
Continuous
 62
     7
100
AcDbLine
 10
166.7499999999998
 20
340.8786996130602
 30
0.0
 11
167.2499999999998
 21
340.8786996130602
 31
0.0
  0
LINE
  5
1A0
330
49
100
AcDbEntity
  8
1
  6
Continuous
 62
     7
100
AcDbLine
 10
167.2499999999998
 20
343.8786996130602
 30
0.0
 11
167.2499999999998
 21
340.8786996130602
 31
0.0
  0
LINE
  5
1A1
330
49
100
AcDbEntity
  8
1
  6
Continuous
 62
     2
100
AcDbLine
 10
166.7499999999998
 20
340.8786996130602
 30
0.0
 11
166.7499999999998
 21
343.8786996130602
 31
0.0
  0
LINE
  5
1A2
330
49
100
AcDbEntity
  8
1
  6
Continuous
 62
     2
100
AcDbLine
 10
165.7499999999998
 20
340.8786996130602
 30
0.0
 11
165.7499999999998
 21
343.8786996130602
 31
0.0
  0
LINE
  5
1A3
330
49
100
AcDbEntity
  8
1
  6
Continuous
 62
     7
100
AcDbLine
 10
162.8999999999997
 20
340.8786996130602
 30
0.0
 11
165.7499999999998
 21
340.8786996130602
 31
0.0
  0
LINE
  5
1A4
330
49
100
AcDbEntity
  8
1
  6
Continuous
 62
     2
100
AcDbLine
 10
164.7499999999998
 20
340.9842869392476
 30
0.0
 11
164.7499999999998
 21
343.7342873780381
 31
0.0
  0
LINE
  5
1A5
330
49
100
AcDbEntity
  8
1
  6
Continuous
 62
     2
100
AcDbLine
 10
163.7499999999998
 20
341.1331723133222
 30
0.0
 11
163.7499999999998
 21
343.602917930325
 31
0.0
  0
LINE
  5
1A6
330
49
100
AcDbEntity
  8
1
  6
Continuous
 62
     2
100
AcDbLine
 10
162.7499999999998
 20
341.4922488037375
 30
0.0
 11
162.7499999999998
 21
343.4102427403461
 31
0.0
  0
LINE
  5
1A7
330
49
100
AcDbEntity
  8
1
  6
Continuous
 62
     2
100
AcDbLine
 10
161.7499999999998
 20
341.8162934414294
 30
0.0
 11
161.7499999999998
 21
343.165019771282
 31
0.0
  0
LINE
  5
1A8
330
49
100
AcDbEntity
  8
1
  6
Continuous
 62
     2
100
AcDbLine
 10
310.7499999999996
 20
343.165019771282
 30
0.0
 11
310.7499999999996
 21
341.8162934414294
 31
0.0
  0
LINE
  5
1A9
330
49
100
AcDbEntity
  8
1
  6
Continuous
 62
     2
100
AcDbLine
 10
309.7499999999996
 20
343.4102427403461
 30
0.0
 11
309.7499999999996
 21
341.4922488037375
 31
0.0
  0
LINE
  5
1AA
330
49
100
AcDbEntity
  8
1
  6
Continuous
 62
     2
100
AcDbLine
 10
308.7499999999996
 20
343.602917930325
 30
0.0
 11
308.7499999999996
 21
341.1331723133222
 31
0.0
  0
LINE
  5
1AB
330
49
100
AcDbEntity
  8
1
  6
Continuous
 62
     2
100
AcDbLine
 10
307.7499999999996
 20
343.7342873780381
 30
0.0
 11
307.7499999999996
 21
340.9842869392476
 31
0.0
  0
LINE
  5
1AC
330
49
100
AcDbEntity
  8
1
  6
Continuous
 62
     7
100
AcDbLine
 10
306.7499999999996
 20
340.8786996130602
 30
0.0
 11
314.8999999999995
 21
340.8786996130602
 31
0.0
  0
LINE
  5
1AD
330
49
100
AcDbEntity
  8
1
  6
Continuous
 62
     7
100
AcDbLine
 10
317.7499999999996
 20
343.8786996130602
 30
0.0
 11
306.7499999999996
 21
343.8786996130602
 31
0.0
  0
LINE
  5
1AE
330
49
100
AcDbEntity
  8
1
  6
Continuous
 62
     2
100
AcDbLine
 10
306.7499999999996
 20
343.8786996130602
 30
0.0
 11
306.7499999999996
 21
340.8786996130602
 31
0.0
  0
LINE
  5
1AF
330
49
100
AcDbEntity
  8
1
  6
Continuous
 62
     7
100
AcDbLine
 10
306.7499999999996
 20
340.8786996130602
 30
0.0
 11
305.7499999999995
 21
340.8786996130602
 31
0.0
  0
LINE
  5
1B0
330
49
100
AcDbEntity
  8
1
  6
Continuous
 62
     7
100
AcDbLine
 10
306.7499999999996
 20
343.8786996130602
 30
0.0
 11
305.2499999999995
 21
343.8786996130602
 31
0.0
  0
LINE
  5
1B1
330
49
100
AcDbEntity
  8
1
  6
Continuous
 62
     2
100
AcDbLine
 10
305.7499999999995
 20
343.8786996130602
 30
0.0
 11
305.7499999999995
 21
340.8786996130602
 31
0.0
  0
LINE
  5
1B2
330
49
100
AcDbEntity
  8
1
  6
Continuous
 62
     7
100
AcDbLine
 10
305.2499999999995
 20
340.8786996130602
 30
0.0
 11
305.2499999999995
 21
343.8786996130602
 31
0.0
  0
LINE
  5
1B3
330
49
100
AcDbEntity
  8
1
  6
Continuous
 62
     7
100
AcDbLine
 10
305.2499999999995
 20
340.8786996130602
 30
0.0
 11
305.7499999999995
 21
340.8786996130602
 31
0.0
  0
LINE
  5
1B4
330
49
100
AcDbEntity
  8
1
  6
Continuous
 62
     7
100
AcDbLine
 10
318.7499999999996
 20
340.8786996130602
 30
0.0
 11
317.7499999999996
 21
340.8786996130602
 31
0.0
  0
LINE
  5
1B5
330
49
100
AcDbEntity
  8
1
  6
Continuous
 62
     7
100
AcDbLine
 10
319.2499999999996
 20
343.8786996130602
 30
0.0
 11
317.7499999999996
 21
343.8786996130602
 31
0.0
  0
LINE
  5
1B6
330
49
100
AcDbEntity
  8
1
  6
Continuous
 62
     7
100
AcDbLine
 10
318.7499999999996
 20
340.8786996130602
 30
0.0
 11
319.2499999999996
 21
340.8786996130602
 31
0.0
  0
LINE
  5
1B7
330
49
100
AcDbEntity
  8
1
  6
Continuous
 62
     7
100
AcDbLine
 10
319.2499999999996
 20
343.8786996130602
 30
0.0
 11
319.2499999999996
 21
340.8786996130602
 31
0.0
  0
LINE
  5
1B8
330
49
100
AcDbEntity
  8
1
  6
Continuous
 62
     2
100
AcDbLine
 10
318.7499999999996
 20
340.8786996130602
 30
0.0
 11
318.7499999999996
 21
343.8786996130602
 31
0.0
  0
LINE
  5
1B9
330
49
100
AcDbEntity
  8
1
  6
Continuous
 62
     2
100
AcDbLine
 10
317.7499999999996
 20
340.8786996130602
 30
0.0
 11
317.7499999999996
 21
343.8786996130602
 31
0.0
  0
LINE
  5
1BA
330
49
100
AcDbEntity
  8
1
  6
Continuous
 62
     7
100
AcDbLine
 10
314.8999999999995
 20
340.8786996130602
 30
0.0
 11
317.7499999999996
 21
340.8786996130602
 31
0.0
  0
LINE
  5
1BB
330
49
100
AcDbEntity
  8
1
  6
Continuous
 62
     2
100
AcDbLine
 10
316.7499999999996
 20
340.9842869392476
 30
0.0
 11
316.7499999999996
 21
343.7342873780381
 31
0.0
  0
LINE
  5
1BC
330
49
100
AcDbEntity
  8
1
  6
Continuous
 62
     2
100
AcDbLine
 10
315.7499999999996
 20
341.1331723133222
 30
0.0
 11
315.7499999999996
 21
343.602917930325
 31
0.0
  0
LINE
  5
1BD
330
49
100
AcDbEntity
  8
1
  6
Continuous
 62
     2
100
AcDbLine
 10
314.7499999999996
 20
341.4922488037375
 30
0.0
 11
314.7499999999996
 21
343.4102427403461
 31
0.0
  0
LINE
  5
1BE
330
49
100
AcDbEntity
  8
1
  6
Continuous
 62
     2
100
AcDbLine
 10
313.7499999999996
 20
341.8162934414294
 30
0.0
 11
313.7499999999996
 21
343.165019771282
 31
0.0
  0
ARC
  5
1BF
330
49
100
AcDbEntity
  8
1
  6
Continuous
 62
     7
100
AcDbCircle
 10
160.2499999999998
 20
319.8786996130602
 30
0.0
 40
25.0000000000002
100
AcDbArc
 50
76.11345963737065
 51
103.8865403626289
  0
ARC
  5
1C0
330
49
100
AcDbEntity
  8
1
  6
Continuous
 62
     7
100
AcDbCircle
 10
312.2499999999996
 20
319.8786996130602
 30
0.0
 40
25.00000000000005
100
AcDbArc
 50
89.73284563256497
 51
106.2602047083122
  0
ARC
  5
1C1
330
49
100
AcDbEntity
  8
1
  6
Continuous
 62
     7
100
AcDbCircle
 10
312.2499999999996
 20
319.8786996130602
 30
0.0
 40
25.0
100
AcDbArc
 50
73.73979529168804
 51
89.73284563256497
  0
CIRCLE
  5
1C2
330
49
100
AcDbEntity
  8
0
  6
Continuous
 62
     7
100
AcDbCircle
 10
160.2499999999999
 20
420.0000000000001
 30
0.0
 40
6.999999999999801
  0
ENDBLK
  5
4B
330
49
100
AcDbEntity
  8
0
100
AcDbBlockEnd
  0
BLOCK
  5
4D
330
4C
100
AcDbEntity
  8
0
100
AcDbBlockBegin
  2
21-1C-M1K
 70
     0
 71
     0
 10
1470.0
 20
1485.0
 30
0.0
  3
21-1C-M1K
  1

  0
LINE
  5
1C3
330
4C
100
AcDbEntity
  8
1
  6
Continuous
 62
     7
100
AcDbLine
 10
133.6970857293862
 20
425.7955549577301
 30
0.0
 11
146.0302352003065
 21
429.1002123985955
 31
0.0
  0
LINE
  5
1C4
330
4C
100
AcDbEntity
  8
1
  6
PHANTOM
 62
     4
100
AcDbLine
 10
160.2500000000015
 20
447.9999999999957
 30
0.0
 11
160.2500000000015
 21
391.9999999999957
 31
0.0
  0
LINE
  5
1C5
330
4C
100
AcDbEntity
  8
1
  6
PHANTOM
 62
     4
100
AcDbLine
 10
178.7493316322327
 20
387.9582177069048
 30
0.0
 11
149.5624632770445
 21
438.5113566119153
 31
0.0
  0
LINE
  5
1C6
330
4C
100
AcDbEntity
  8
1
  6
Continuous
 62
     7
100
AcDbLine
 10
133.6970857293862
 20
414.2044450422613
 30
0.0
 11
146.0302352003065
 21
410.8997876013959
 31
0.0
  0
LINE
  5
1C7
330
4C
100
AcDbEntity
  8
1
  6
Continuous
 62
     7
100
AcDbLine
 10
168.5073593128822
 20
394.1067242182655
 30
0.0
 11
159.4788672828274
 21
403.1352162483204
 31
0.0
  0
LINE
  5
1C8
330
4C
100
AcDbEntity
  8
1
  6
Continuous
 62
     7
100
AcDbLine
 10
178.7493316322327
 20
399.1417742733794
 30
0.0
 11
175.2408975168705
 21
412.2354286469201
 31
0.0
  0
LINE
  5
1C9
330
4C
100
AcDbEntity
  8
1
  6
Continuous
 62
     7
100
AcDbLine
 10
178.5455549577358
 20
440.0977208239917
 30
0.0
 11
175.2408975168705
 21
427.7645713530714
 31
0.0
  0
LINE
  5
1CA
330
4C
100
AcDbEntity
  8
1
  6
Continuous
 62
     7
100
AcDbLine
 10
168.5073593128822
 20
445.893275781726
 30
0.0
 11
159.4788672828274
 21
436.864783751671
 31
0.0
  0
LINE
  5
1CB
330
4C
100
AcDbEntity
  8
1
  6
PHANTOM
 62
     4
100
AcDbLine
 10
178.7493316322327
 20
452.0417822930867
 30
0.0
 11
149.196033773526
 21
400.8539688705898
 31
0.0
  0
LINE
  5
1CC
330
4C
100
AcDbEntity
  8
1
  6
PHANTOM
 62
     4
100
AcDbLine
 10
126.2500000000014
 20
419.9999999999957
 30
0.0
 11
177.2186723055424
 21
419.9999999999957
 31
0.0
  0
LINE
  5
1CD
330
4C
100
AcDbEntity
  8
1
  6
Continuous
 62
     7
100
AcDbLine
 10
156.2499999999998
 20
340.7028035750578
 30
0.0
 11
164.2499999999998
 21
340.7028035750578
 31
0.0
  0
LINE
  5
1CE
330
4C
100
AcDbEntity
  8
1
  6
Continuous
 62
     2
100
AcDbLine
 10
129.3300501692395
 20
330.272390125538
 30
0.0
 11
129.3300501692395
 21
330.2816489602488
 31
0.0
  0
LINE
  5
1CF
330
4C
100
AcDbEntity
  8
1
  6
Continuous
 62
     7
100
AcDbLine
 10
178.0526858543512
 20
334.6618801808015
 30
0.0
 11
178.6699033483587
 21
330.2724255077704
 31
0.0
  0
LINE
  5
1D0
330
4C
100
AcDbEntity
  8
1
  6
PHANTOM
 62
     4
100
AcDbLine
 10
160.2499999999998
 20
343.7028035750578
 30
0.0
 11
160.2499999999998
 21
326.7028035750578
 31
0.0
  0
LINE
  5
1D1
330
4C
100
AcDbEntity
  8
1
  6
Continuous
 62
     7
100
AcDbLine
 10
129.7819582682319
 20
333.4878833304085
 30
0.0
 11
129.3300501692395
 21
330.272390125538
 31
0.0
  0
LINE
  5
1D2
330
4C
100
AcDbEntity
  8
1
  6
Continuous
 62
     7
100
AcDbLine
 10
285.2911167696735
 20
329.8786996130602
 30
0.0
 11
339.4420185516992
 21
329.8786996130602
 31
0.0
  0
LINE
  5
1D3
330
4C
100
AcDbEntity
  8
1
  6
Continuous
 62
     7
100
AcDbLine
 10
310.0665676606863
 20
340.8610652431569
 30
0.0
 11
314.6665676606864
 21
340.8610652431569
 31
0.0
  0
LINE
  5
1D4
330
4C
100
AcDbEntity
  8
0
  6
Continuous
 62
     7
100
AcDbLine
 10
284.7959827353027
 20
330.4482861635401
 30
0.0
 11
285.3173999374177
 21
334.1583623361973
 31
0.0
  0
LINE
  5
1D5
330
4C
100
AcDbEntity
  8
0
  6
Continuous
 62
     7
100
AcDbLine
 10
339.4157353839552
 20
334.1583623361973
 30
0.0
 11
339.9371525860698
 21
330.4482861635401
 31
0.0
  0
LINE
  5
1D6
330
4C
100
AcDbEntity
  8
1
  6
PHANTOM
 62
     4
100
AcDbLine
 10
312.3665676606864
 20
343.8786996130602
 30
0.0
 11
312.3665676606864
 21
326.8786996130602
 31
0.0
  0
LINE
  5
1D7
330
4C
100
AcDbEntity
  8
1
  6
Continuous
 62
     7
100
AcDbLine
 10
129.8251842036103
 20
329.7028035750578
 30
0.0
 11
178.1747742879256
 21
329.7028035750578
 31
0.0
  0
ARC
  5
1D8
330
4C
100
AcDbEntity
  8
1
  6
Continuous
 62
     7
100
AcDbCircle
 10
135.2500000000014
 20
419.9999999999957
 30
0.0
 40
6.0
100
AcDbArc
 50
180.0
 51
-105.0000000000006
  0
ARC
  5
1D9
330
4C
100
AcDbEntity
  8
1
  6
Continuous
 62
     7
100
AcDbCircle
 10
172.7500000000014
 20
398.3493649053849
 30
0.0
 40
6.000000000000008
100
AcDbArc
 50
-134.9999999999989
 51
7.52424107893925
  0
ARC
  5
1DA
330
4C
100
AcDbEntity
  8
1
  6
Continuous
 62
     7
100
AcDbCircle
 10
172.7500000000014
 20
441.6506350946067
 30
0.0
 40
5.999999999999944
100
AcDbArc
 50
-14.99999999999854
 51
134.9999999999992
  0
ARC
  5
1DB
330
4C
100
AcDbEntity
  8
1
  6
Continuous
 62
     7
100
AcDbCircle
 10
135.2500000000014
 20
419.9999999999957
 30
0.0
 40
6.000000000000004
100
AcDbArc
 50
105.0000000000006
 51
180.0
  0
ARC
  5
1DC
330
4C
100
AcDbEntity
  8
1
  6
Continuous
 62
     7
100
AcDbCircle
 10
160.2499999999998
 20
190.7028035750579
 30
0.0
 40
150.0533238552215
100
AcDbArc
 50
91.52752544221293
 51
98.63404412973962
  0
ARC
  5
1DD
330
4C
100
AcDbEntity
  8
1
  6
Continuous
 62
     7
100
AcDbCircle
 10
160.2499999999998
 20
190.7028035750579
 30
0.0
 40
150.0533238552217
100
AcDbArc
 50
98.63404412973962
 51
99.80290179376779
  0
ARC
  5
1DE
330
4C
100
AcDbEntity
  8
1
  6
Continuous
 62
     7
100
AcDbCircle
 10
160.6141956652465
 20
265.7909825663586
 30
0.0
 40
75.00000000000011
100
AcDbArc
 50
80.40850751733491
 51
87.22136103403739
  0
ARC
  5
1DF
330
4C
100
AcDbEntity
  8
0
  6
Continuous
 62
     7
100
AcDbCircle
 10
291.259008349867
 20
333.323323730437
 30
0.0
 40
6.000000000000059
100
AcDbArc
 50
98.42880002282361
 51
172.0000000000007
  0
ARC
  5
1E0
330
4C
100
AcDbEntity
  8
0
  6
Continuous
 62
     7
100
AcDbCircle
 10
312.3665676606731
 20
190.878699613067
 30
0.0
 40
149.999999999993
100
AcDbArc
 50
90.87856971507287
 51
91.62359770032657
  0
ARC
  5
1E1
330
4C
100
AcDbEntity
  8
0
  6
Continuous
 62
     7
100
AcDbCircle
 10
312.3665676606731
 20
190.878699613067
 30
0.0
 40
149.9999999999932
100
AcDbArc
 50
91.62359770032657
 51
98.42880002282493
  0
ARC
  5
1E2
330
4C
100
AcDbEntity
  8
0
  6
Continuous
 62
     7
100
AcDbCircle
 10
312.3665676606996
 20
190.878699613067
 30
0.0
 40
149.9999999999932
100
AcDbArc
 50
88.37640229967344
 51
89.12143028492714
  0
ARC
  5
1E3
330
4C
100
AcDbEntity
  8
0
  6
Continuous
 62
     7
100
AcDbCircle
 10
312.3665676606996
 20
190.878699613067
 30
0.0
 40
149.9999999999932
100
AcDbArc
 50
81.5711999771751
 51
88.37640229967344
  0
ARC
  5
1E4
330
4C
100
AcDbEntity
  8
0
  6
Continuous
 62
     7
100
AcDbCircle
 10
333.4741269715057
 20
333.323323730437
 30
0.0
 40
6.000000000000076
100
AcDbArc
 50
7.99999999999903
 51
81.57119997717639
  0
ARC
  5
1E5
330
4C
100
AcDbEntity
  8
0
  6
Continuous
 62
     7
100
AcDbCircle
 10
138.2656638472308
 20
458.0779871872676
 30
0.0
 40
30.00000000000006
100
AcDbArc
 50
-74.99999999999989
 51
-45.0
  0
ARC
  5
1E6
330
4C
100
AcDbEntity
  8
0
  6
Continuous
 62
     7
100
AcDbCircle
 10
204.2186723055424
 20
419.9999999999957
 30
0.0
 40
29.9999999999999
100
AcDbArc
 50
164.9999999999998
 51
-165.0000000000001
  0
ARC
  5
1E7
330
4C
100
AcDbEntity
  8
0
  6
Continuous
 62
     7
100
AcDbCircle
 10
138.2656638472308
 20
381.922012812724
 30
0.0
 40
30.00000000000008
100
AcDbArc
 50
44.99999999999969
 51
74.99999999999977
  0
ARC
  5
1E8
330
4C
100
AcDbEntity
  8
1
  6
Continuous
 62
     7
100
AcDbCircle
 10
178.1747742879256
 20
330.2028035750578
 30
0.0
 40
0.5
100
AcDbArc
 50
-90.0
 51
8.00409437169339
  0
ARC
  5
1E9
330
4C
100
AcDbEntity
  8
1
  6
Continuous
 62
     7
100
AcDbCircle
 10
129.8251842036103
 20
330.2028035750578
 30
0.0
 40
0.5000000000000101
100
AcDbArc
 50
171.9999999999862
 51
-90.0
  0
ARC
  5
1EA
330
4C
100
AcDbEntity
  8
1
  6
Continuous
 62
     7
100
AcDbCircle
 10
172.1111371291539
 20
333.8264169882501
 30
0.0
 40
6.000000000000175
100
AcDbArc
 50
8.00409437170076
 51
80.40850751733541
  0
ARC
  5
1EB
330
4C
100
AcDbEntity
  8
1
  6
Continuous
 62
     7
100
AcDbCircle
 10
135.7235666806814
 20
332.6528447246484
 30
0.0
 40
5.999999999999865
100
AcDbArc
 50
99.80290179376888
 51
172.0000000000026
  0
ARC
  5
1EC
330
4C
100
AcDbEntity
  8
0
  6
Continuous
 62
     7
100
AcDbCircle
 10
285.2911167696735
 20
330.3786996130602
 30
0.0
 40
0.5000000000000346
100
AcDbArc
 50
172.0000000000129
 51
-90.0
  0
ARC
  5
1ED
330
4C
100
AcDbEntity
  8
0
  6
Continuous
 62
     7
100
AcDbCircle
 10
339.4420185516992
 20
330.3786996130602
 30
0.0
 40
0.5
100
AcDbArc
 50
-90.0
 51
7.9999999999916
  0
ENDBLK
  5
4E
330
4C
100
AcDbEntity
  8
0
100
AcDbBlockEnd
  0
BLOCK
  5
54
330
4F
100
AcDbEntity
  8
0
100
AcDbBlockBegin
  2
R10AK-13Z
 70
     0
 71
     0
 10
916.9999999999877
 20
1275.9
 30
0.0
  3
R10AK-13Z
  1

  0
INSERT
  5
50
330
4F
100
AcDbEntity
  8
0
100
AcDbBlockReference
  2
36-1A-13-M11K
 10
262.6321260094359
 20
184.809573603624
 30
0.0
  0
INSERT
  5
51
330
4F
100
AcDbEntity
  8
1
100
AcDbBlockReference
  2
37-1-13K
 10
189.2698425388217
 20
310.2886666674796
 30
0.0
  0
INSERT
  5
52
330
4F
100
AcDbEntity
  8
0
100
AcDbBlockReference
  2
42-15K
 10
-11.68817991347808
 20
617.9764017366709
 30
0.0
  0
INSERT
  5
53
330
4F
100
AcDbEntity
  8
1
100
AcDbBlockReference
  2
21-1C-M1K
 10
1470.0
 20
1485.0
 30
0.0
  0
LINE
  5
1EE
330
4F
100
AcDbEntity
  8
1
  6
PHANTOM
 62
     4
100
AcDbLine
 10
160.2499999999998
 20
347.8786996130605
 30
0.0
 11
160.2499999999999
 21
283.9786996130606
 31
0.0
  0
LINE
  5
1EF
330
4F
100
AcDbEntity
  8
1
  6
PHANTOM
 62
     4
100
AcDbLine
 10
312.3665676606867
 20
347.878427851193
 30
0.0
 11
312.3665676606867
 21
283.978427851193
 31
0.0
  0
ENDBLK
  5
55
330
4F
100
AcDbEntity
  8
0
100
AcDbBlockEnd
  0
BLOCK
  5
20E
330
207
100
AcDbEntity
  8
0
100
AcDbBlockBegin
  2
*D010
 70
     1
 71
     0
 10
0.0
 20
0.0
 30
0.0
  3
*D010
  1

  0
LINE
  5
208
330
207
100
AcDbEntity
  8
1
  6
Continuous
 62
     2
100
AcDbLine
 10
119.4499999999997
 20
254.3786996130602
 30
0.0
 11
195.2499999999999
 21
254.3786996130602
 31
0.0
  0
LINE
  5
209
330
207
100
AcDbEntity
  8
1
  6
Continuous
 62
     2
100
AcDbLine
 10
119.4499999999997
 20
278.0406996130723
 30
0.0
 11
119.4499999999997
 21
252.3786996130602
 31
0.0
  0
LINE
  5
20A
330
207
100
AcDbEntity
  8
1
  6
Continuous
 62
     2
100
AcDbLine
 10
195.2499999999999
 20
274.3786996130602
 30
0.0
 11
195.2499999999999
 21
252.3786996130602
 31
0.0
  0
SOLID
  5
20B
330
207
100
AcDbEntity
  8
1
 62
     2
100
AcDbTrace
 10
126.4499999999997
 20
255.300267096172
 30
0.0
 11
126.4499999999997
 21
253.4571321299484
 31
0.0
 12
119.4499999999997
 22
254.3786996130602
 32
0.0
 13
119.4499999999997
 23
254.3786996130602
 33
0.0
  0
SOLID
  5
20C
330
207
100
AcDbEntity
  8
1
 62
     2
100
AcDbTrace
 10
188.2499999999999
 20
253.4571321299484
 30
0.0
 11
188.2499999999999
 21
255.300267096172
 31
0.0
 12
195.2499999999999
 22
254.3786996130602
 32
0.0
 13
195.2499999999999
 23
254.3786996130602
 33
0.0
  0
MTEXT
  5
20D
330
207
100
AcDbEntity
  8
1
 62
     7
100
AcDbMText
 10
153.617794831861
 20
256.3786996130602
 30
0.0
 40
7.0
 41
0.0
 71
     7
 72
     1
  1
76
  7
CONVERTER_2
 11
0.9999999999970621
 21
2.424068405545307E-6
 31
0.0
 73
     1
 44
0.60024009603842
  0
ENDBLK
  5
20F
330
207
100
AcDbEntity
  8
0
100
AcDbBlockEnd
  0
BLOCK
  5
21B
330
212
100
AcDbEntity
  8
0
100
AcDbBlockBegin
  2
*D111
 70
     1
 71
     0
 10
0.0
 20
0.0
 30
0.0
  3
*D111
  1

  0
LINE
  5
213
330
212
100
AcDbEntity
  8
1
  6
Continuous
 62
     2
100
AcDbLine
 10
136.2499999999985
 20
389.5225000000002
 30
0.0
 11
150.2499999999985
 21
389.5225000000002
 31
0.0
  0
LINE
  5
214
330
212
100
AcDbEntity
  8
1
  6
Continuous
 62
     2
100
AcDbLine
 10
119.4499999999985
 20
389.5225000000002
 30
0.0
 11
136.2499999999985
 21
389.5225000000002
 31
0.0
  0
LINE
  5
215
330
212
100
AcDbEntity
  8
1
  6
Continuous
 62
     2
100
AcDbLine
 10
105.4499999999985
 20
389.5225000000002
 30
0.0
 11
119.4499999999985
 21
389.5225000000002
 31
0.0
  0
LINE
  5
216
330
212
100
AcDbEntity
  8
1
  6
Continuous
 62
     2
100
AcDbLine
 10
119.4499999999985
 20
410.6619999999998
 30
0.0
 11
119.4499999999985
 21
387.5225000000002
 31
0.0
  0
LINE
  5
217
330
212
100
AcDbEntity
  8
1
  6
Continuous
 62
     2
100
AcDbLine
 10
136.2499999999985
 20
409.5225
 30
0.0
 11
136.2499999999985
 21
387.5225000000002
 31
0.0
  0
SOLID
  5
218
330
212
100
AcDbEntity
  8
1
 62
     2
100
AcDbTrace
 10
112.4499999999985
 20
388.6009325168885
 30
0.0
 11
112.4499999999985
 21
390.444067483112
 31
0.0
 12
119.4499999999985
 22
389.5225000000002
 32
0.0
 13
119.4499999999985
 23
389.5225000000002
 33
0.0
  0
SOLID
  5
219
330
212
100
AcDbEntity
  8
1
 62
     2
100
AcDbTrace
 10
143.2499999999985
 20
390.444067483112
 30
0.0
 11
143.2499999999985
 21
388.6009325168885
 31
0.0
 12
136.2499999999985
 22
389.5225000000002
 32
0.0
 13
136.2499999999985
 23
389.5225000000002
 33
0.0
  0
MTEXT
  5
21A
330
212
100
AcDbEntity
  8
1
 62
     7
100
AcDbMText
 10
124.178325679677
 20
391.5225000000002
 30
0.0
 40
7.0
 41
0.0
 71
     7
 72
     1
  1
16
  7
CONVERTER_2
 11
0.9999999999970621
 21
2.424068405545307E-6
 31
0.0
 73
     1
 44
0.60024009603842
  0
ENDBLK
  5
21C
330
212
100
AcDbEntity
  8
0
100
AcDbBlockEnd
  0
BLOCK
  5
226
330
21F
100
AcDbEntity
  8
0
100
AcDbBlockBegin
  2
*D212
 70
     1
 71
     0
 10
0.0
 20
0.0
 30
0.0
  3
*D212
  1

  0
LINE
  5
220
330
21F
100
AcDbEntity
  8
1
  6
Continuous
 62
     2
100
AcDbLine
 10
195.2499999999985
 20
491.4999999999871
 30
0.0
 11
160.2499999999988
 21
491.4999999999871
 31
0.0
  0
LINE
  5
221
330
21F
100
AcDbEntity
  8
1
  6
Continuous
 62
     2
100
AcDbLine
 10
160.2499999999988
 20
458.4999999999921
 30
0.0
 11
160.2499999999988
 21
493.4999999999871
 31
0.0
  0
LINE
  5
222
330
21F
100
AcDbEntity
  8
1
  6
Continuous
 62
     2
100
AcDbLine
 10
195.2499999999985
 20
433.0000000000002
 30
0.0
 11
195.2499999999985
 21
493.4999999999871
 31
0.0
  0
SOLID
  5
223
330
21F
100
AcDbEntity
  8
1
 62
     2
100
AcDbTrace
 10
188.2499999999985
 20
490.5784325168754
 30
0.0
 11
188.2499999999985
 21
492.4215674830988
 31
0.0
 12
195.2499999999985
 22
491.4999999999871
 32
0.0
 13
195.2499999999985
 23
491.4999999999871
 33
0.0
  0
SOLID
  5
224
330
21F
100
AcDbEntity
  8
1
 62
     2
100
AcDbTrace
 10
167.2499999999988
 20
492.4215674830988
 30
0.0
 11
167.2499999999988
 21
490.5784325168754
 31
0.0
 12
160.2499999999988
 22
491.4999999999871
 32
0.0
 13
160.2499999999988
 23
491.4999999999871
 33
0.0
  0
MTEXT
  5
225
330
21F
100
AcDbEntity
  8
1
 62
     7
100
AcDbMText
 10
173.672509366454
 20
493.4999999999871
 30
0.0
 40
7.0
 41
0.0
 71
     7
 72
     1
  1
35
  7
CONVERTER_2
 11
0.9999999999970621
 21
2.424068405545307E-6
 31
0.0
 73
     1
 44
0.60024009603842
  0
ENDBLK
  5
227
330
21F
100
AcDbEntity
  8
0
100
AcDbBlockEnd
  0
BLOCK
  5
231
330
22A
100
AcDbEntity
  8
0
100
AcDbBlockBegin
  2
*D313
 70
     1
 71
     0
 10
0.0
 20
0.0
 30
0.0
  3
*D313
  1

  0
LINE
  5
22B
330
22A
100
AcDbEntity
  8
1
  6
Continuous
 62
     2
100
AcDbLine
 10
215.2499999999999
 20
300.37869961306
 30
0.0
 11
215.2499999999999
 21
274.3786996130602
 31
0.0
  0
LINE
  5
22C
330
22A
100
AcDbEntity
  8
1
  6
Continuous
 62
     2
100
AcDbLine
 10
195.2499999999999
 20
274.3786996130602
 30
0.0
 11
217.2499999999999
 21
274.3786996130602
 31
0.0
  0
LINE
  5
22D
330
22A
100
AcDbEntity
  8
1
  6
Continuous
 62
     2
100
AcDbLine
 10
195.2499999999999
 20
300.37869961306
 30
0.0
 11
217.2499999999999
 21
300.37869961306
 31
0.0
  0
SOLID
  5
22E
330
22A
100
AcDbEntity
  8
1
 62
     2
100
AcDbTrace
 10
216.1715674831117
 20
293.37869961306
 30
0.0
 11
214.3284325168881
 21
293.37869961306
 31
0.0
 12
215.2499999999999
 22
300.37869961306
 32
0.0
 13
215.2499999999999
 23
300.37869961306
 33
0.0
  0
SOLID
  5
22F
330
22A
100
AcDbEntity
  8
1
 62
     2
100
AcDbTrace
 10
214.3284325168881
 20
281.3786996130602
 30
0.0
 11
216.1715674831117
 21
281.3786996130602
 31
0.0
 12
215.2499999999999
 22
274.3786996130602
 32
0.0
 13
215.2499999999999
 23
274.3786996130602
 33
0.0
  0
MTEXT
  5
230
330
22A
100
AcDbEntity
  8
1
 62
     7
100
AcDbMText
 10
213.2499999999999
 20
282.337600409737
 30
0.0
 40
7.0
 41
0.0
 71
     7
 72
     1
  1
26
  7
CONVERTER_2
 11
0.0
 21
1.0
 31
0.0
 73
     1
 44
0.60024009603842
  0
ENDBLK
  5
232
330
22A
100
AcDbEntity
  8
0
100
AcDbBlockEnd
  0
BLOCK
  5
23D
330
235
100
AcDbEntity
  8
0
100
AcDbBlockBegin
  2
*D414
 70
     1
 71
     0
 10
0.0
 20
0.0
 30
0.0
  3
*D414
  1

  0
LINE
  5
236
330
235
100
AcDbEntity
  8
1
  6
Continuous
 62
     2
100
AcDbLine
 10
148.7499999999986
 20
475.4999999999871
 30
0.0
 11
171.7499999999989
 21
475.4999999999871
 31
0.0
  0
LINE
  5
237
330
235
100
AcDbEntity
  8
1
  6
Continuous
 62
     2
100
AcDbLine
 10
171.7499999999989
 20
475.4999999999871
 30
0.0
 11
186.169880779586
 21
475.4999999999871
 31
0.0
  0
LINE
  5
238
330
235
100
AcDbEntity
  8
1
  6
Continuous
 62
     2
100
AcDbLine
 10
171.7499999999989
 20
454.7678268764133
 30
0.0
 11
171.7499999999989
 21
477.4999999999871
 31
0.0
  0
LINE
  5
239
330
235
100
AcDbEntity
  8
1
  6
Continuous
 62
     2
100
AcDbLine
 10
148.7499999999986
 20
454.7678268764132
 30
0.0
 11
148.7499999999986
 21
477.4999999999871
 31
0.0
  0
SOLID
  5
23A
330
235
100
AcDbEntity
  8
1
 62
     2
100
AcDbTrace
 10
155.7499999999986
 20
476.4215674830988
 30
0.0
 11
155.7499999999986
 21
474.5784325168754
 31
0.0
 12
148.7499999999986
 22
475.4999999999871
 32
0.0
 13
148.7499999999986
 23
475.4999999999871
 33
0.0
  0
SOLID
  5
23B
330
235
100
AcDbEntity
  8
1
 62
     2
100
AcDbTrace
 10
164.7499999999989
 20
474.5784325168754
 30
0.0
 11
164.7499999999989
 21
476.4215674830988
 31
0.0
 12
171.7499999999989
 22
475.4999999999871
 32
0.0
 13
171.7499999999989
 23
475.4999999999871
 33
0.0
  0
MTEXT
  5
23C
330
235
100
AcDbEntity
  8
1
 62
     7
100
AcDbMText
 10
175.669880779586
 20
477.4999999999871
 30
0.0
 40
7.0
 41
0.0
 71
     7
 72
     1
  1
23
  7
CONVERTER_2
 11
0.9999999999970621
 21
2.424068405545307E-6
 31
0.0
 73
     1
 44
0.60024009603842
  0
ENDBLK
  5
23E
330
235
100
AcDbEntity
  8
0
100
AcDbBlockEnd
  0
BLOCK
  5
248
330
241
100
AcDbEntity
  8
0
100
AcDbBlockBegin
  2
*D515
 70
     1
 71
     0
 10
0.0
 20
0.0
 30
0.0
  3
*D515
  1

  0
LINE
  5
242
330
241
100
AcDbEntity
  8
1
  6
Continuous
 62
     2
100
AcDbLine
 10
276.3699999999998
 20
254.3786996130602
 30
0.0
 11
312.3665676606864
 21
254.3786996130602
 31
0.0
  0
LINE
  5
243
330
241
100
AcDbEntity
  8
1
  6
Continuous
 62
     2
100
AcDbLine
 10
312.3665676606864
 20
271.3786996130602
 30
0.0
 11
312.3665676606864
 21
252.3786996130602
 31
0.0
  0
LINE
  5
244
330
241
100
AcDbEntity
  8
1
  6
Continuous
 62
     2
100
AcDbLine
 10
276.3699999999998
 20
276.3786996130645
 30
0.0
 11
276.3699999999998
 21
252.3786996130602
 31
0.0
  0
SOLID
  5
245
330
241
100
AcDbEntity
  8
1
 62
     2
100
AcDbTrace
 10
283.3699999999998
 20
255.300267096172
 30
0.0
 11
283.3699999999998
 21
253.4571321299484
 31
0.0
 12
276.3699999999998
 22
254.3786996130602
 32
0.0
 13
276.3699999999998
 23
254.3786996130602
 33
0.0
  0
SOLID
  5
246
330
241
100
AcDbEntity
  8
1
 62
     2
100
AcDbTrace
 10
305.3665676606864
 20
253.4571321299484
 30
0.0
 11
305.3665676606864
 21
255.300267096172
 31
0.0
 12
312.3665676606864
 22
254.3786996130602
 32
0.0
 13
312.3665676606864
 23
254.3786996130602
 33
0.0
  0
MTEXT
  5
247
330
241
100
AcDbEntity
  8
1
 62
     7
100
AcDbMText
 10
290.396342818816
 20
256.3786996130602
 30
0.0
 40
7.0
 41
0.0
 71
     7
 72
     1
  1
36
  7
CONVERTER_2
 11
0.9999999999970621
 21
2.424068405545307E-6
 31
0.0
 73
     1
 44
0.60024009603842
  0
ENDBLK
  5
249
330
241
100
AcDbEntity
  8
0
100
AcDbBlockEnd
  0
BLOCK
  5
253
330
24C
100
AcDbEntity
  8
0
100
AcDbBlockBegin
  2
*D616
 70
     1
 71
     0
 10
0.0
 20
0.0
 30
0.0
  3
*D616
  1

  0
LINE
  5
24D
330
24C
100
AcDbEntity
  8
1
  6
Continuous
 62
     2
100
AcDbLine
 10
363.3776746596165
 20
344.8784278511928
 30
0.0
 11
363.3776746596165
 21
287.3786996130602
 31
0.0
  0
LINE
  5
24E
330
24C
100
AcDbEntity
  8
1
  6
Continuous
 62
     2
100
AcDbLine
 10
312.3665676606864
 20
344.8784278511928
 30
0.0
 11
365.3776746596165
 21
344.8784278511928
 31
0.0
  0
LINE
  5
24F
330
24C
100
AcDbEntity
  8
1
  6
Continuous
 62
     2
100
AcDbLine
 10
330.3776746596157
 20
287.3786996130602
 30
0.0
 11
365.3776746596165
 21
287.3786996130602
 31
0.0
  0
SOLID
  5
250
330
24C
100
AcDbEntity
  8
1
 62
     2
100
AcDbTrace
 10
364.2992421427283
 20
337.8784278511928
 30
0.0
 11
362.4561071765048
 21
337.8784278511928
 31
0.0
 12
363.3776746596165
 22
344.8784278511928
 32
0.0
 13
363.3776746596165
 23
344.8784278511928
 33
0.0
  0
SOLID
  5
251
330
24C
100
AcDbEntity
  8
1
 62
     2
100
AcDbTrace
 10
362.4561071765048
 20
294.3786996130602
 30
0.0
 11
364.2992421427283
 21
294.3786996130602
 31
0.0
 12
363.3776746596165
 22
287.3786996130602
 32
0.0
 13
363.3776746596165
 23
287.3786996130602
 33
0.0
  0
MTEXT
  5
252
330
24C
100
AcDbEntity
  8
1
 62
     7
100
AcDbMText
 10
361.3776746596165
 20
296.92481482967
 30
0.0
 40
7.0
 41
0.0
 71
     7
 72
     1
  1
58リフト5
  7
CONVERTER_1
 11
0.0
 21
1.0
 31
0.0
 73
     1
 44
0.60024009603842
  0
ENDBLK
  5
254
330
24C
100
AcDbEntity
  8
0
100
AcDbBlockEnd
  0
BLOCK
  5
25F
330
257
100
AcDbEntity
  8
0
100
AcDbBlockBegin
  2
*D717
 70
     1
 71
     0
 10
0.0
 20
0.0
 30
0.0
  3
*D717
  1

  0
LINE
  5
258
330
257
100
AcDbEntity
  8
1
  6
Continuous
 62
     2
100
AcDbLine
 10
119.4499999999985
 20
491.4999999999871
 30
0.0
 11
160.2499999999988
 21
491.4999999999871
 31
0.0
  0
LINE
  5
259
330
257
100
AcDbEntity
  8
1
  6
Continuous
 62
     2
100
AcDbLine
 10
160.2499999999988
 20
458.4999999999921
 30
0.0
 11
160.2499999999988
 21
493.4999999999871
 31
0.0
  0
LINE
  5
25A
330
257
100
AcDbEntity
  8
1
  6
Continuous
 62
     2
100
AcDbLine
 10
119.4499999999985
 20
475.105655866492
 30
0.0
 11
119.4499999999985
 21
493.4999999999871
 31
0.0
  0
LINE
  5
25B
330
257
100
AcDbEntity
  8
1
  6
Continuous
 62
     2
100
AcDbLine
 10
119.4499999999985
 20
429.3380000000004
 30
0.0
 11
119.4499999999985
 21
459.759669774588
 31
0.0
  0
SOLID
  5
25C
330
257
100
AcDbEntity
  8
1
 62
     2
100
AcDbTrace
 10
126.4499999999985
 20
492.4215674830988
 30
0.0
 11
126.4499999999985
 21
490.5784325168754
 31
0.0
 12
119.4499999999985
 22
491.4999999999871
 32
0.0
 13
119.4499999999985
 23
491.4999999999871
 33
0.0
  0
SOLID
  5
25D
330
257
100
AcDbEntity
  8
1
 62
     2
100
AcDbTrace
 10
153.2499999999988
 20
490.5784325168754
 30
0.0
 11
153.2499999999988
 21
492.4215674830988
 31
0.0
 12
160.2499999999988
 22
491.4999999999871
 32
0.0
 13
160.2499999999988
 23
491.4999999999871
 33
0.0
  0
MTEXT
  5
25E
330
257
100
AcDbEntity
  8
1
 62
     7
100
AcDbMText
 10
135.659569312585
 20
493.4999999999871
 30
0.0
 40
7.0
 41
0.0
 71
     7
 72
     1
  1
41
  7
CONVERTER_2
 11
0.9999999999970621
 21
2.424068405545307E-6
 31
0.0
 73
     1
 44
0.60024009603842
  0
ENDBLK
  5
260
330
257
100
AcDbEntity
  8
0
100
AcDbBlockEnd
  0
ENDSEC
  0
SECTION
  2
ENTITIES
  0
INSERT
  5
56
330
1F
100
AcDbEntity
  8
1
100
AcDbBlockReference
  2
_J__A4
 10
0.0
 20
0.0
 30
0.0
 41
2.0
 42
2.0
 43
2.0
  0
INSERT
  5
57
330
1F
100
AcDbEntity
  8
1
100
AcDbBlockReference
  2
B4121R-0B-13-M11
 10
420.0
 20
594.0
 30
0.0
  0
INSERT
  5
58
330
1F
100
AcDbEntity
  8
1
100
AcDbBlockReference
  2
B41A-240-13
 10
688.2309259439627
 20
267.6646823621676
 30
0.0
  0
INSERT
  5
59
330
1F
100
AcDbEntity
  8
1
100
AcDbBlockReference
  2
R10AK-13Z
 10
916.9999999999877
 20
1275.9
 30
0.0
  0
LINE
  5
1F0
330
1F
100
AcDbEntity
  8
1
  6
DASH_CENTER
 62
     2
100
AcDbLine
 10
160.2499999999988
 20
458.4999999999921
 30
0.0
 11
160.2499999999986
 21
399.3640835311513
 31
0.0
  0
LINE
  5
1F1
330
1F
100
AcDbEntity
  8
1
  6
DASH_CENTER
 62
     2
100
AcDbLine
 10
198.249999999999
 20
420.0000000000001
 30
0.0
 11
116.4499999999985
 21
420.0000000000005
 31
0.0
  0
LINE
  5
1F2
330
1F
100
AcDbEntity
  8
1
  6
DASH_CENTER
 62
     2
100
AcDbLine
 10
330.3776746596157
 20
287.3786996130602
 30
0.0
 11
273.3699999999996
 21
287.3786996130602
 31
0.0
  0
LINE
  5
1F3
330
1F
100
AcDbEntity
  8
1
  6
DASH_CENTER
 62
     2
100
AcDbLine
 10
198.2499999999998
 20
287.3786996130602
 30
0.0
 11
116.4499999999997
 21
287.3786996130602
 31
0.0
  0
LINE
  5
1F4
330
1F
100
AcDbEntity
  8
0
  6
DASH_CENTER
 62
     2
100
AcDbLine
 10
160.2499999999998
 20
347.8786996130602
 30
0.0
 11
160.2499999999998
 21
271.3786996130602
 31
0.0
  0
LINE
  5
1F5
330
1F
100
AcDbEntity
  8
0
  6
DASH_CENTER
 62
     2
100
AcDbLine
 10
312.3665676606864
 20
271.3786996130602
 30
0.0
 11
312.3665676606864
 21
347.8786996130602
 31
0.0
  0
SOLID
  5
1F6
330
1F
100
AcDbEntity
  8
1
 62
     2
100
AcDbTrace
 10
199.8310661798519
 20
276.5118123932854
 30
0.0
 11
198.2844801582348
 21
275.5092066973837
 31
0.0
 12
195.2499999999998
 22
281.8842531125251
 32
0.0
 13
195.2499999999998
 23
281.8842531125251
 33
0.0
  0
LEADER
  5
1F7
330
1F
100
AcDbEntity
  8
1
  6
Continuous
 62
     2
100
AcDbLeader
  3
Standard
 71
     0
 76
     3
 10
195.2499999999998
 20
281.8842531125251
 30
0.0
 10
213.0810318482368
 20
254.3786996130602
 30
0.0
 10
245.171601088834
 20
254.3786996130602
 30
0.0
  0
SOLID
  5
1F8
330
1F
100
AcDbEntity
  8
1
 62
     2
100
AcDbTrace
 10
145.4700260843417
 20
446.0447092779131
 30
0.0
 11
147.0662277876946
 21
446.9662767610249
 31
0.0
 12
149.7681269360182
 22
440.443315192978
 32
0.0
 13
149.7681269360182
 23
440.443315192978
 33
0.0
  0
LEADER
  5
1F9
330
1F
100
AcDbEntity
  8
1
  6
Continuous
 62
     2
100
AcDbLeader
  3
Standard
 71
     0
 76
     3
 10
149.7681269360182
 20
440.443315192978
 30
0.0
 10
136.7450188906585
 20
463.0
 30
0.0
 10
100.959960969317
 20
463.0
 30
0.0
  0
SOLID
  5
1FA
330
1F
100
AcDbEntity
  8
1
 62
     2
100
AcDbTrace
 10
127.724057186159
 20
303.4575936979952
 30
0.0
 11
129.3202588895119
 21
304.379161181107
 31
0.0
 12
132.0221580378355
 22
297.8561996130601
 32
0.0
 13
132.0221580378355
 23
297.8561996130601
 33
0.0
  0
LEADER
  5
1FB
330
1F
100
AcDbEntity
  8
1
  6
Continuous
 62
     2
100
AcDbLeader
  3
Standard
 71
     0
 76
     3
 10
132.0221580378355
 20
297.8561996130601
 30
0.0
 10
122.3509972660893
 20
314.6071414378916
 30
0.0
 10
98.1979332778121
 20
314.6071414378916
 30
0.0
  0
MTEXT
  5
1FC
330
1F
100
AcDbEntity
  8
1
 62
     7
100
AcDbMText
 10
68.0
 20
61.00000000000001
 30
0.0
 40
7.0
 41
0.0
 71
     4
 72
     1
  1
ハンドル操作により分岐側も同時に吐止水
  7
CONVERTER_1
 73
     1
 44
0.7202881152461
  0
MTEXT
  5
1FE
330
1F
100
AcDbEntity
  8
1
 62
     7
100
AcDbMText
 10
68.0
 20
75.00000000000001
 30
0.0
 40
7.0
 41
0.0
 71
     4
 72
     1
  1
JIS
  7
CONVERTER_2
 73
     1
 44
0.7202881152461
  0
MTEXT
  5
1FF
330
1F
100
AcDbEntity
  8
1
 62
     7
100
AcDbMText
 10
187.5
 20
34.0
 30
0.0
 40
7.0
 41
0.0
 71
     5
 72
     1
  1
2
  7
CONVERTER_2
 73
     1
 44
0.7202881152461
  0
MTEXT
  5
200
330
1F
100
AcDbEntity
  8
1
 62
     7
100
AcDbMText
 10
170.5
 20
34.0
 30
0.0
 40
7.0
 41
0.0
 71
     5
 72
     1
  1
1
  7
CONVERTER_2
 73
     1
 44
0.7202881152461
  0
MTEXT
  5
201
330
1F
100
AcDbEntity
  8
1
 62
     7
100
AcDbMText
 10
114.0
 20
28.50000000000004
 30
0.0
 40
7.0
 41
0.0
 71
     5
 72
     1
  1
B4121-R-13
  7
CONVERTER_2
 73
     1
 44
0.7202881152461
  0
MTEXT
  5
202
330
1F
100
AcDbEntity
  8
1
 62
     7
100
AcDbMText
 10
114.0
 20
45.50000000000005
 30
0.0
 40
7.0
 41
0.0
 71
     5
 72
     1
  1
ストレート分岐バルブ
  7
CONVERTER_1
 73
     1
 44
0.7202881152461
  0
MTEXT
  5
203
330
1F
100
AcDbEntity
  8
1
 62
     7
100
AcDbMText
 10
113.2980832630215
 20
469.0
 30
0.0
 40
7.0
 41
0.0
 71
     5
 72
     1
  1
G1/2
  7
CONVERTER_2
 73
     1
 44
0.7202881152461
  0
MTEXT
  5
204
330
1F
100
AcDbEntity
  8
1
 62
     7
100
AcDbMText
 10
230.2499999999998
 20
260.3786996130602
 30
0.0
 40
7.0
 41
0.0
 71
     5
 72
     1
  1
Rc1/2
  7
CONVERTER_2
 73
     1
 44
0.7202881152461
  0
MTEXT
  5
205
330
1F
100
AcDbEntity
  8
1
 62
     7
100
AcDbMText
 10
110.2019167369779
 20
320.6071414378916
 30
0.0
 40
7.0
 41
0.0
 71
     5
 72
     1
  1
G1/2
  7
CONVERTER_2
 73
     1
 44
0.7202881152461
  0
MTEXT
  5
206
330
1F
100
AcDbEntity
  8
1
 62
     7
100
AcDbMText
 10
68.0
 20
68.00000000000001
 30
0.0
 40
7.0
 41
0.0
 71
     4
 72
     1
  1
共用形
  7
CONVERTER_1
 73
     1
 44
0.7202881152461
  0
DIMENSION
  5
211
330
1F
100
AcDbEntity
  8
1
100
AcDbDimension
  2
*D010
 10
119.4499999999997
 20
254.3786996130602
 30
0.0
 11
158.867794831861
 21
259.8786996130602
 31
0.0
  1
76
 71
     5
 42
0.0
 53
0.00013888888889
  3
ME10_DIM_0
100
AcDbAlignedDimension
 13
195.2499999999999
 23
274.3786996130602
 33
0.0
 14
119.4499999999997
 24
278.0406996130723
 34
0.0
100
AcDbRotatedDimension
  0
DIMENSION
  5
21E
330
1F
100
AcDbEntity
  8
1
100
AcDbDimension
  2
*D111
 10
119.4499999999985
 20
389.5225000000002
 30
0.0
 11
128.378325679677
 21
395.0225000000002
 31
0.0
  1
16
 71
     5
 42
0.0
 53
0.00013888888889
  3
ME10_DIM_1
100
AcDbAlignedDimension
 13
136.2499999999985
 23
409.5225
 33
0.0
 14
119.4499999999985
 24
410.6619999999998
 34
0.0
100
AcDbRotatedDimension
  0
DIMENSION
  5
229
330
1F
100
AcDbEntity
  8
1
100
AcDbDimension
  2
*D212
 10
195.2499999999985
 20
491.4999999999871
 30
0.0
 11
178.922509366454
 21
496.9999999999871
 31
0.0
  1
<>
 71
     5
 42
0.0
 53
0.00013888888889
  3
ME10_DIM_2
100
AcDbAlignedDimension
 13
160.2499999999988
 23
458.4999999999921
 33
0.0
 14
195.2499999999985
 24
433.0000000000002
 34
0.0
100
AcDbRotatedDimension
  0
DIMENSION
  5
234
330
1F
100
AcDbEntity
  8
1
100
AcDbDimension
  2
*D313
 10
215.2499999999999
 20
300.37869961306
 30
0.0
 11
209.7499999999999
 21
287.587600409737
 31
0.0
  1
<>
 71
     5
 42
0.0
 53
90.0
  3
ME10_DIM_3
100
AcDbAlignedDimension
 13
195.2499999999999
 23
274.3786996130602
 33
0.0
 14
195.2499999999999
 24
300.37869961306
 34
0.0
 50
90.0
100
AcDbRotatedDimension
  0
DIMENSION
  5
240
330
1F
100
AcDbEntity
  8
1
100
AcDbDimension
  2
*D414
 10
148.7499999999986
 20
475.4999999999871
 30
0.0
 11
180.919880779586
 21
480.9999999999871
 31
0.0
  1
<>
 71
     5
 42
0.0
 53
0.00013888888889
  3
ME10_DIM_4
100
AcDbAlignedDimension
 13
171.7499999999989
 23
454.7678268764133
 33
0.0
 14
148.7499999999986
 24
454.7678268764132
 34
0.0
100
AcDbRotatedDimension
  0
DIMENSION
  5
24B
330
1F
100
AcDbEntity
  8
1
100
AcDbDimension
  2
*D515
 10
276.3699999999998
 20
254.3786996130602
 30
0.0
 11
295.646342818816
 21
259.8786996130602
 31
0.0
  1
<>
 71
     5
 42
0.0
 53
0.00013888888889
  3
ME10_DIM_5
100
AcDbAlignedDimension
 13
312.3665676606864
 23
271.3786996130602
 33
0.0
 14
276.3699999999998
 24
276.3786996130645
 34
0.0
100
AcDbRotatedDimension
  0
DIMENSION
  5
256
330
1F
100
AcDbEntity
  8
1
100
AcDbDimension
  2
*D616
 10
363.3776746596165
 20
344.8784278511928
 30
0.0
 11
357.8776746596165
 21
315.82481482967
 31
0.0
  1
58リフト5
 71
     5
 42
0.0
 53
90.0
  3
ME10_DIM_6
100
AcDbAlignedDimension
 13
330.3776746596157
 23
287.3786996130602
 33
0.0
 14
312.3665676606864
 24
344.8784278511928
 34
0.0
 50
90.0
100
AcDbRotatedDimension
  0
DIMENSION
  5
262
330
1F
100
AcDbEntity
  8
1
100
AcDbDimension
  2
*D717
 10
119.4499999999985
 20
491.4999999999871
 30
0.0
 11
139.859569312585
 21
496.9999999999871
 31
0.0
  1
41
 71
     5
 42
0.0
 53
0.00013888888889
  3
ME10_DIM_7
100
AcDbAlignedDimension
 13
160.2499999999988
 23
458.4999999999921
 33
0.0
 14
119.4499999999985
 24
429.3380000000004
 34
0.0
100
AcDbRotatedDimension
  0
ENDSEC
  0
SECTION
  2
OBJECTS
  0
DICTIONARY
  5
C
330
0
100
AcDbDictionary
281
     1
  3
ACAD_GROUP
350
D
  3
ACAD_LAYOUT
350
1A
  3
ACAD_MLINESTYLE
350
17
  3
ACAD_PLOTSETTINGS
350
19
  3
ACAD_PLOTSTYLENAME
350
E
  3
ACAD_TABLESTYLE
350
2A
  3
AcDbVariableDictionary
350
2C
  0
DICTIONARY
  5
D
102
{ACAD_REACTORS
330
C
102
}
330
C
100
AcDbDictionary
281
     1
  0
DICTIONARY
  5
1A
102
{ACAD_REACTORS
330
C
102
}
330
C
100
AcDbDictionary
281
     1
  3
Layout1
350
1E
  3
Layout2
350
26
  3
Model
350
22
  0
DICTIONARY
  5
17
102
{ACAD_REACTORS
330
C
102
}
330
C
100
AcDbDictionary
281
     1
  3
Standard
350
18
  0
DICTIONARY
  5
19
102
{ACAD_REACTORS
330
C
102
}
330
C
100
AcDbDictionary
281
     1
  0
ACDBDICTIONARYWDFLT
  5
E
102
{ACAD_REACTORS
330
C
102
}
330
C
100
AcDbDictionary
281
     1
  3
Normal
350
F
100
AcDbDictionaryWithDefault
340
F
  0
DICTIONARY
  5
2A
102
{ACAD_REACTORS
330
C
102
}
330
C
100
AcDbDictionary
281
     1
  3
Standard
350
2B
  0
DICTIONARY
  5
2C
102
{ACAD_REACTORS
330
C
102
}
330
C
100
AcDbDictionary
281
     1
  3
CTABLESTYLE
350
2D
  0
LAYOUT
  5
1E
102
{ACAD_REACTORS
330
1A
102
}
330
1A
100
AcDbPlotSettings
  1

  2

  4

  6

 40
0.0
 41
0.0
 42
0.0
 43
0.0
 44
0.0
 45
0.0
 46
0.0
 47
0.0
 48
0.0
 49
0.0
140
0.0
141
0.0
142
1.0
143
1.0
 70
   688
 72
     0
 73
     0
 74
     5
  7

 75
    16
147
1.0
148
0.0
149
0.0
100
AcDbLayout
  1
Layout1
 70
     1
 71
     1
 10
0.0
 20
0.0
 11
12.0
 21
9.0
 12
0.0
 22
0.0
 32
0.0
 14
1.00000000000000E+20
 24
1.00000000000000E+20
 34
1.00000000000000E+20
 15
-1.00000000000000E+20
 25
-1.00000000000000E+20
 35
-1.00000000000000E+20
146
0.0
 13
0.0
 23
0.0
 33
0.0
 16
1.0
 26
0.0
 36
0.0
 17
0.0
 27
1.0
 37
0.0
 76
     0
330
1B
  0
LAYOUT
  5
26
102
{ACAD_REACTORS
330
1A
102
}
330
1A
100
AcDbPlotSettings
  1

  2

  4

  6

 40
0.0
 41
0.0
 42
0.0
 43
0.0
 44
0.0
 45
0.0
 46
0.0
 47
0.0
 48
0.0
 49
0.0
140
0.0
141
0.0
142
1.0
143
1.0
 70
   688
 72
     0
 73
     0
 74
     5
  7

 75
    16
147
1.0
148
0.0
149
0.0
100
AcDbLayout
  1
Layout2
 70
     1
 71
     2
 10
0.0
 20
0.0
 11
0.0
 21
0.0
 12
0.0
 22
0.0
 32
0.0
 14
0.0
 24
0.0
 34
0.0
 15
0.0
 25
0.0
 35
0.0
146
0.0
 13
0.0
 23
0.0
 33
0.0
 16
1.0
 26
0.0
 36
0.0
 17
0.0
 27
1.0
 37
0.0
 76
     0
330
23
  0
LAYOUT
  5
22
102
{ACAD_REACTORS
330
1A
102
}
330
1A
100
AcDbPlotSettings
  1

  2

  4

  6

 40
0.0
 41
0.0
 42
0.0
 43
0.0
 44
0.0
 45
0.0
 46
0.0
 47
0.0
 48
0.0
 49
0.0
140
0.0
141
0.0
142
1.0
143
1.0
 70
  1712
 72
     0
 73
     0
 74
     0
  7

 75
     0
147
1.0
148
0.0
149
0.0
100
AcDbLayout
  1
Model
 70
     1
 71
     0
 10
0.0
 20
0.0
 11
0.0
 21
0.0
 12
0.0
 22
0.0
 32
0.0
 14
0.0
 24
0.0
 34
0.0
 15
420.0
 25
594.0
 35
0.0
146
0.0
 13
0.0
 23
0.0
 33
0.0
 16
1.0
 26
0.0
 36
0.0
 17
0.0
 27
1.0
 37
0.0
 76
     0
330
1F
  0
MLINESTYLE
  5
18
102
{ACAD_REACTORS
330
17
102
}
330
17
100
AcDbMlineStyle
  2
Standard
 70
     0
  3

 62
   256
 51
90.0
 52
90.0
 71
     2
 49
0.5
 62
   256
  6
BYLAYER
 49
-0.5
 62
   256
  6
BYLAYER
  0
ACDBPLACEHOLDER
  5
F
102
{ACAD_REACTORS
330
E
102
}
330
E
  0
TABLESTYLE
  5
2B
102
{ACAD_REACTORS
330
2A
102
}
330
2A
100
AcDbTableStyle
  3
Standard
 70
     0
 71
     0
 40
0.06
 41
0.06
280
     0
281
     0
  7
Standard
140
0.18
170
     2
 62
     0
 63
     7
283
     0
274
    -2
284
     1
 64
     0
275
    -2
285
     1
 65
     0
276
    -2
286
     1
 66
     0
277
    -2
287
     1
 67
     0
278
    -2
288
     1
 68
     0
279
    -2
289
     1
 69
     0
  7
Standard
140
0.25
170
     5
 62
     0
 63
     7
283
     0
274
    -2
284
     1
 64
     0
275
    -2
285
     1
 65
     0
276
    -2
286
     1
 66
     0
277
    -2
287
     1
 67
     0
278
    -2
288
     1
 68
     0
279
    -2
289
     1
 69
     0
  7
Standard
140
0.18
170
     5
 62
     0
 63
     7
283
     0
274
    -2
284
     1
 64
     0
275
    -2
285
     1
 65
     0
276
    -2
286
     1
 66
     0
277
    -2
287
     1
 67
     0
278
    -2
288
     1
 68
     0
279
    -2
289
     1
 69
     0
  0
DICTIONARYVAR
  5
2D
102
{ACAD_REACTORS
330
2C
102
}
330
2C
100
DictionaryVariables
280
     0
  1
Standard
  0
ENDSEC
  0
EOF
