  0
SECTION
  2
HEADER
  9
$ACADVER
  1
AC1015
  9
$ACADMAINTVER
 70
     6
  9
$DWGCODEPAGE
  3
DOS932
  9
$INSBASE
 10
0.0
 20
0.0
 30
0.0
  9
$EXTMIN
 10
0.0
 20
0.0
 30
0.0
  9
$EXTMAX
 10
420.0
 20
594.0
 30
0.0
  9
$LIMMIN
 10
0.0
 20
0.0
  9
$LIMMAX
 10
12.0
 20
9.0
  9
$ORTHOMODE
 70
     0
  9
$REGENMODE
 70
     1
  9
$FILLMODE
 70
     1
  9
$QTEXTMODE
 70
     0
  9
$MIRRTEXT
 70
     1
  9
$LTSCALE
 40
1.0
  9
$ATTMODE
 70
     1
  9
$TEXTSIZE
 40
0.2
  9
$TRACEWID
 40
0.05
  9
$TEXTSTYLE
  7
Standard
  9
$CLAYER
  8
0
  9
$CELTYPE
  6
ByLayer
  9
$CECOLOR
 62
   256
  9
$CELTSCALE
 40
1.0
  9
$DISPSILH
 70
     0
  9
$DIMSCALE
 40
1.0
  9
$DIMASZ
 40
0.18
  9
$DIMEXO
 40
0.0625
  9
$DIMDLI
 40
0.38
  9
$DIMRND
 40
0.0
  9
$DIMDLE
 40
0.0
  9
$DIMEXE
 40
0.18
  9
$DIMTP
 40
0.0
  9
$DIMTM
 40
0.0
  9
$DIMTXT
 40
0.18
  9
$DIMCEN
 40
0.09
  9
$DIMTSZ
 40
0.0
  9
$DIMTOL
 70
     0
  9
$DIMLIM
 70
     0
  9
$DIMTIH
 70
     1
  9
$DIMTOH
 70
     1
  9
$DIMSE1
 70
     0
  9
$DIMSE2
 70
     0
  9
$DIMTAD
 70
     0
  9
$DIMZIN
 70
     0
  9
$DIMBLK
  1

  9
$DIMASO
 70
     1
  9
$DIMSHO
 70
     1
  9
$DIMPOST
  1

  9
$DIMAPOST
  1

  9
$DIMALT
 70
     0
  9
$DIMALTD
 70
     2
  9
$DIMALTF
 40
25.4
  9
$DIMLFAC
 40
1.0
  9
$DIMTOFL
 70
     0
  9
$DIMTVP
 40
0.0
  9
$DIMTIX
 70
     0
  9
$DIMSOXD
 70
     0
  9
$DIMSAH
 70
     0
  9
$DIMBLK1
  1

  9
$DIMBLK2
  1

  9
$DIMSTYLE
  2
Standard
  9
$DIMCLRD
 70
     0
  9
$DIMCLRE
 70
     0
  9
$DIMCLRT
 70
     0
  9
$DIMTFAC
 40
1.0
  9
$DIMGAP
 40
0.09
  9
$DIMJUST
 70
     0
  9
$DIMSD1
 70
     0
  9
$DIMSD2
 70
     0
  9
$DIMTOLJ
 70
     1
  9
$DIMTZIN
 70
     0
  9
$DIMALTZ
 70
     0
  9
$DIMALTTZ
 70
     0
  9
$DIMUPT
 70
     0
  9
$DIMDEC
 70
     4
  9
$DIMTDEC
 70
     4
  9
$DIMALTU
 70
     2
  9
$DIMALTTD
 70
     2
  9
$DIMTXSTY
  7
Standard
  9
$DIMAUNIT
 70
     0
  9
$DIMADEC
 70
     0
  9
$DIMALTRND
 40
0.0
  9
$DIMAZIN
 70
     0
  9
$DIMDSEP
 70
    46
  9
$DIMATFIT
 70
     3
  9
$DIMFRAC
 70
     0
  9
$DIMLDRBLK
  1

  9
$DIMLUNIT
 70
     2
  9
$DIMLWD
 70
    -2
  9
$DIMLWE
 70
    -2
  9
$DIMTMOVE
 70
     0
  9
$LUNITS
 70
     2
  9
$LUPREC
 70
     4
  9
$SKETCHINC
 40
0.1
  9
$FILLETRAD
 40
0.5
  9
$AUNITS
 70
     0
  9
$AUPREC
 70
     0
  9
$MENU
  1
.
  9
$ELEVATION
 40
0.0
  9
$PELEVATION
 40
0.0
  9
$THICKNESS
 40
0.0
  9
$LIMCHECK
 70
     0
  9
$CHAMFERA
 40
0.5
  9
$CHAMFERB
 40
0.5
  9
$CHAMFERC
 40
1.0
  9
$CHAMFERD
 40
0.0
  9
$SKPOLY
 70
     0
  9
$TDCREATE
 40
2456141.637854988
  9
$TDUCREATE
 40
2456141.262854988
  9
$TDUPDATE
 40
2456141.637855
  9
$TDUUPDATE
 40
2456141.262855
  9
$TDINDWG
 40
0.0000000116
  9
$TDUSRTIMER
 40
0.0000000116
  9
$USRTIMER
 70
     1
  9
$ANGBASE
 50
0.0
  9
$ANGDIR
 70
     0
  9
$PDMODE
 70
     0
  9
$PDSIZE
 40
0.0
  9
$PLINEWID
 40
0.0
  9
$SPLFRAME
 70
     0
  9
$SPLINETYPE
 70
     6
  9
$SPLINESEGS
 70
     8
  9
$HANDSEED
  5
239
  9
$SURFTAB1
 70
     6
  9
$SURFTAB2
 70
     6
  9
$SURFTYPE
 70
     6
  9
$SURFU
 70
     6
  9
$SURFV
 70
     6
  9
$UCSBASE
  2

  9
$UCSNAME
  2

  9
$UCSORG
 10
0.0
 20
0.0
 30
0.0
  9
$UCSXDIR
 10
1.0
 20
0.0
 30
0.0
  9
$UCSYDIR
 10
0.0
 20
1.0
 30
0.0
  9
$UCSORTHOREF
  2

  9
$UCSORTHOVIEW
 70
     0
  9
$UCSORGTOP
 10
0.0
 20
0.0
 30
0.0
  9
$UCSORGBOTTOM
 10
0.0
 20
0.0
 30
0.0
  9
$UCSORGLEFT
 10
0.0
 20
0.0
 30
0.0
  9
$UCSORGRIGHT
 10
0.0
 20
0.0
 30
0.0
  9
$UCSORGFRONT
 10
0.0
 20
0.0
 30
0.0
  9
$UCSORGBACK
 10
0.0
 20
0.0
 30
0.0
  9
$PUCSBASE
  2

  9
$PUCSNAME
  2

  9
$PUCSORG
 10
0.0
 20
0.0
 30
0.0
  9
$PUCSXDIR
 10
1.0
 20
0.0
 30
0.0
  9
$PUCSYDIR
 10
0.0
 20
1.0
 30
0.0
  9
$PUCSORTHOREF
  2

  9
$PUCSORTHOVIEW
 70
     0
  9
$PUCSORGTOP
 10
0.0
 20
0.0
 30
0.0
  9
$PUCSORGBOTTOM
 10
0.0
 20
0.0
 30
0.0
  9
$PUCSORGLEFT
 10
0.0
 20
0.0
 30
0.0
  9
$PUCSORGRIGHT
 10
0.0
 20
0.0
 30
0.0
  9
$PUCSORGFRONT
 10
0.0
 20
0.0
 30
0.0
  9
$PUCSORGBACK
 10
0.0
 20
0.0
 30
0.0
  9
$USERI1
 70
     0
  9
$USERI2
 70
     0
  9
$USERI3
 70
     0
  9
$USERI4
 70
     0
  9
$USERI5
 70
     0
  9
$USERR1
 40
13.2
  9
$USERR2
 40
0.0
  9
$USERR3
 40
0.0
  9
$USERR4
 40
0.0
  9
$USERR5
 40
0.0
  9
$WORLDVIEW
 70
     1
  9
$SHADEDGE
 70
     3
  9
$SHADEDIF
 70
    70
  9
$TILEMODE
 70
     1
  9
$MAXACTVP
 70
    64
  9
$PINSBASE
 10
0.0
 20
0.0
 30
0.0
  9
$PLIMCHECK
 70
     0
  9
$PEXTMIN
 10
1.00000000000000E+20
 20
1.00000000000000E+20
 30
1.00000000000000E+20
  9
$PEXTMAX
 10
-1.00000000000000E+20
 20
-1.00000000000000E+20
 30
-1.00000000000000E+20
  9
$PLIMMIN
 10
0.0
 20
0.0
  9
$PLIMMAX
 10
12.0
 20
9.0
  9
$UNITMODE
 70
     0
  9
$VISRETAIN
 70
     1
  9
$PLINEGEN
 70
     0
  9
$PSLTSCALE
 70
     1
  9
$TREEDEPTH
 70
  3020
  9
$CMLSTYLE
  2
Standard
  9
$CMLJUST
 70
     0
  9
$CMLSCALE
 40
1.0
  9
$PROXYGRAPHICS
 70
     1
  9
$MEASUREMENT
 70
     1
  9
$CELWEIGHT
370
    -1
  9
$ENDCAPS
280
     0
  9
$JOINSTYLE
280
     0
  9
$LWDISPLAY
290
     0
  9
$INSUNITS
 70
     1
  9
$HYPERLINKBASE
  1

  9
$STYLESHEET
  1

  9
$XEDIT
290
     1
  9
$CEPSNTYPE
380
     0
  9
$PSTYLEMODE
290
     0
  9
$FINGERPRINTGUID
  2
{FAEB1C30-E019-11D5-929B-00C0DF256EC4}
  9
$VERSIONGUID
  2
{FAEB1C32-E019-11D5-929B-00C0DF256EC4}
  9
$EXTNAMES
290
     1
  9
$PSVPSCALE
 40
0.0
  9
$OLESTARTUP
290
     0
  0
ENDSEC
  0
SECTION
  2
CLASSES
  0
CLASS
  1
ACDBDICTIONARYWDFLT
  2
AcDbDictionaryWithDefault
  3
ObjectDBX Classes
 90
        0
280
     0
281
     0
  0
CLASS
  1
TABLESTYLE
  2
AcDbTableStyle
  3
ObjectDBX Classes
 90
     2047
280
     0
281
     0
  0
CLASS
  1
DICTIONARYVAR
  2
AcDbDictionaryVar
  3
ObjectDBX Classes
 90
        0
280
     0
281
     0
  0
CLASS
  1

  2
exOdDbCircle
  3

 90
        0
280
     0
281
     1
  0
CLASS
  1

  2
exOdDbSpline
  3

 90
        0
280
     0
281
     1
  0
CLASS
  1
ACDBPLACEHOLDER
  2
AcDbPlaceHolder
  3
ObjectDBX Classes
 90
        0
280
     0
281
     0
  0
CLASS
  1
LAYOUT
  2
AcDbLayout
  3
ObjectDBX Classes
 90
        0
280
     0
281
     0
  0
ENDSEC
  0
SECTION
  2
TABLES
  0
TABLE
  2
VPORT
  5
8
330
0
100
AcDbSymbolTable
 70
     2
  0
VPORT
  5
29
330
8
100
AcDbSymbolTableRecord
100
AcDbViewportTableRecord
  2
*Active
 70
     0
 10
0.0
 20
0.0
 11
1.0
 21
1.0
 12
210.0
 22
297.0
 13
0.0
 23
0.0
 14
0.5
 24
0.5
 15
0.5
 25
0.5
 16
0.0
 26
0.0
 36
1.0
 17
0.0
 27
0.0
 37
0.0
 40
653.4000000000001
 41
1.60267857142857
 42
50.0
 43
0.0
 44
0.0
 50
0.0
 51
0.0
 71
     0
 72
   100
 73
     1
 74
     3
 75
     0
 76
     0
 77
     0
 78
     0
281
     0
 65
     1
110
0.0
120
0.0
130
0.0
111
1.0
121
0.0
131
0.0
112
0.0
122
1.0
132
0.0
 79
     0
146
0.0
  0
ENDTAB
  0
TABLE
  2
LTYPE
  5
5
330
0
100
AcDbSymbolTable
 70
     8
  0
LTYPE
  5
14
330
5
100
AcDbSymbolTableRecord
100
AcDbLinetypeTableRecord
  2
ByBlock
 70
     0
  3

 72
    65
 73
     0
 40
0.0
  0
LTYPE
  5
15
330
5
100
AcDbSymbolTableRecord
100
AcDbLinetypeTableRecord
  2
ByLayer
 70
     0
  3

 72
    65
 73
     0
 40
0.0
  0
LTYPE
  5
16
330
5
100
AcDbSymbolTableRecord
100
AcDbLinetypeTableRecord
  2
Continuous
 70
     0
  3
Solid line
 72
    65
 73
     0
 40
0.0
  0
LTYPE
  5
2E
330
5
100
AcDbSymbolTableRecord
100
AcDbLinetypeTableRecord
  2
DASHED
 70
     0
  3
Dashed
 72
    65
 73
     2
 40
15.0
 49
7.0
 74
     0
 49
-8.0
 74
     0
  0
LTYPE
  5
2F
330
5
100
AcDbSymbolTableRecord
100
AcDbLinetypeTableRecord
  2
DOTTED
 70
     0
  3
Dotted
 72
    65
 73
     2
 40
1.0
 49
0.0
 74
     0
 49
-1.0
 74
     0
  0
LTYPE
  5
30
330
5
100
AcDbSymbolTableRecord
100
AcDbLinetypeTableRecord
  2
DOT_CENTER
 70
     0
  3
Dot_Center
 72
    65
 73
     4
 40
14.0
 49
12.0
 74
     0
 49
-1.0
 74
     0
 49
0.0
 74
     0
 49
-1.0
 74
     0
  0
LTYPE
  5
31
330
5
100
AcDbSymbolTableRecord
100
AcDbLinetypeTableRecord
  2
LONG_DASHED
 70
     0
  3
Long_Dashed
 72
    65
 73
     2
 40
15.0
 49
10.0
 74
     0
 49
-5.0
 74
     0
  0
LTYPE
  5
32
330
5
100
AcDbSymbolTableRecord
100
AcDbLinetypeTableRecord
  2
DASH_CENTER
 70
     0
  3
Dash_Center
 72
    65
 73
     4
 40
14.0
 49
11.0
 74
     0
 49
-1.0
 74
     0
 49
1.0
 74
     0
 49
-1.0
 74
     0
  0
LTYPE
  5
33
330
5
100
AcDbSymbolTableRecord
100
AcDbLinetypeTableRecord
  2
PHANTOM
 70
     0
  3
Phantom
 72
    65
 73
     6
 40
13.0
 49
10.0
 74
     0
 49
-1.0
 74
     0
 49
0.0
 74
     0
 49
-1.0
 74
     0
 49
0.0
 74
     0
 49
-1.0
 74
     0
  0
LTYPE
  5
34
330
5
100
AcDbSymbolTableRecord
100
AcDbLinetypeTableRecord
  2
CENTER_DASH_DASH
 70
     0
  3
Center_Dash_Dash
 72
    65
 73
     6
 40
14.0
 49
9.0
 74
     0
 49
-1.0
 74
     0
 49
1.0
 74
     0
 49
-1.0
 74
     0
 49
1.0
 74
     0
 49
-1.0
 74
     0
  0
ENDTAB
  0
TABLE
  2
LAYER
  5
2
330
0
100
AcDbSymbolTable
 70
     2
  0
LAYER
  5
10
330
2
100
AcDbSymbolTableRecord
100
AcDbLayerTableRecord
  2
0
 70
     0
 62
     7
  6
Continuous
370
    -3
390
F
  0
LAYER
  5
35
330
2
100
AcDbSymbolTableRecord
100
AcDbLayerTableRecord
  2
1
 70
     0
 62
     7
  6
Continuous
370
    -3
390
F
  0
ENDTAB
  0
TABLE
  2
STYLE
  5
3
330
0
100
AcDbSymbolTable
 70
     3
  0
STYLE
  5
11
330
3
100
AcDbSymbolTableRecord
100
AcDbTextStyleTableRecord
  2
Standard
 70
     0
 40
0.0
 41
1.0
 50
0.0
 71
     0
 42
0.2
  3
txt
  4

  0
STYLE
  5
192
330
3
100
AcDbSymbolTableRecord
100
AcDbTextStyleTableRecord
  2
CONVERTER_1
 70
     0
 40
0.0
 41
0.89
 50
0.0
 71
     0
 42
0.2
  3
msmincho.ttc
  4

1001
ACAD
1000
MS Mincho
1071
    32785
  0
STYLE
  5
1D1
330
3
100
AcDbSymbolTableRecord
100
AcDbTextStyleTableRecord
  2
CONVERTER_2
 70
     0
 40
0.0
 41
0.9
 50
0.0
 71
     0
 42
0.2
  3
txt.shx
  4

  0
ENDTAB
  0
TABLE
  2
VIEW
  5
6
330
0
100
AcDbSymbolTable
 70
     0
  0
ENDTAB
  0
TABLE
  2
UCS
  5
7
330
0
100
AcDbSymbolTable
 70
     0
  0
ENDTAB
  0
TABLE
  2
APPID
  5
9
330
0
100
AcDbSymbolTable
 70
     1
  0
APPID
  5
12
330
9
100
AcDbSymbolTableRecord
100
AcDbRegAppTableRecord
  2
ACAD
 70
     0
  0
ENDTAB
  0
TABLE
  2
DIMSTYLE
  5
A
330
0
100
AcDbSymbolTable
 70
     9
100
AcDbDimStyleTable
  0
DIMSTYLE
105
27
330
A
100
AcDbSymbolTableRecord
100
AcDbDimStyleTableRecord
  2
Standard
 70
     0
340
11
  0
DIMSTYLE
105
1E5
102
{ACAD_REACTORS
330
1E6
102
}
330
A
100
AcDbSymbolTableRecord
100
AcDbDimStyleTableRecord
  2
ME10_DIM_0
 70
     0
 41
7.0
 42
0.0
 44
2.0
 73
     0
 74
     0
 77
     1
 78
     8
140
7.0
147
0.625
172
     1
173
     1
176
     2
177
     2
178
     7
271
     2
340
1D1
  0
DIMSTYLE
105
1F1
102
{ACAD_REACTORS
330
1F2
102
}
330
A
100
AcDbSymbolTableRecord
100
AcDbDimStyleTableRecord
  2
ME10_DIM_1
 70
     0
 41
7.0
 42
0.0
 44
2.0
 73
     0
 74
     0
 77
     1
 78
     8
140
7.0
147
0.625
172
     1
173
     1
176
     2
177
     2
178
     7
271
     2
340
192
  0
DIMSTYLE
105
1FC
102
{ACAD_REACTORS
330
1FD
102
}
330
A
100
AcDbSymbolTableRecord
100
AcDbDimStyleTableRecord
  2
ME10_DIM_2
 70
     0
 41
7.0
 42
0.0
 44
2.0
 73
     0
 74
     0
 77
     1
 78
     8
140
7.0
147
0.625
172
     1
173
     1
176
     2
177
     2
178
     7
271
     2
340
1D1
  0
DIMSTYLE
105
209
102
{ACAD_REACTORS
330
20A
102
}
330
A
100
AcDbSymbolTableRecord
100
AcDbDimStyleTableRecord
  2
ME10_DIM_3
 70
     0
 41
7.0
 42
0.0
 44
2.0
 73
     0
 74
     0
 77
     1
 78
     8
140
7.0
147
0.625
172
     1
173
     1
176
     2
177
     2
178
     7
271
     2
340
1D1
  0
DIMSTYLE
105
215
102
{ACAD_REACTORS
330
216
102
}
330
A
100
AcDbSymbolTableRecord
100
AcDbDimStyleTableRecord
  2
ME10_DIM_4
 70
     0
 41
7.0
 42
0.0
 44
2.0
 73
     0
 74
     0
 77
     1
 78
     8
140
7.0
147
0.625
172
     1
173
     1
176
     2
177
     2
178
     7
271
     2
340
1D1
  0
DIMSTYLE
105
220
102
{ACAD_REACTORS
330
221
102
}
330
A
100
AcDbSymbolTableRecord
100
AcDbDimStyleTableRecord
  2
ME10_DIM_5
 70
     0
 41
7.0
 42
0.0
 44
2.0
 73
     0
 74
     0
 77
     1
 78
     8
140
7.0
147
0.625
172
     1
173
     1
176
     2
177
     2
178
     7
271
     2
340
1D1
  0
DIMSTYLE
105
22C
102
{ACAD_REACTORS
330
22D
102
}
330
A
100
AcDbSymbolTableRecord
100
AcDbDimStyleTableRecord
  2
ME10_DIM_6
 70
     0
 41
7.0
 42
0.0
 44
2.0
 73
     0
 74
     0
 77
     1
 78
     8
140
7.0
147
0.625
172
     1
173
     1
176
     2
177
     2
178
     7
271
     2
340
1D1
  0
DIMSTYLE
105
237
102
{ACAD_REACTORS
330
238
102
}
330
A
100
AcDbSymbolTableRecord
100
AcDbDimStyleTableRecord
  2
ME10_DIM_7
 70
     0
 41
7.0
 42
0.0
 44
2.0
 73
     0
 74
     0
 77
     1
 78
     8
140
7.0
147
0.625
172
     1
173
     1
176
     2
177
     2
178
     7
271
     2
340
1D1
  0
ENDTAB
  0
TABLE
  2
BLOCK_RECORD
  5
1
330
0
100
AcDbSymbolTable
 70
    15
  0
BLOCK_RECORD
  5
1F
330
1
100
AcDbSymbolTableRecord
100
AcDbBlockTableRecord
  2
*Model_Space
340
22
  0
BLOCK_RECORD
  5
1B
330
1
100
AcDbSymbolTableRecord
100
AcDbBlockTableRecord
  2
*Paper_Space
340
1E
  0
BLOCK_RECORD
  5
23
330
1
100
AcDbSymbolTableRecord
100
AcDbBlockTableRecord
  2
*Paper_Space0
340
26
  0
BLOCK_RECORD
  5
36
330
1
100
AcDbSymbolTableRecord
100
AcDbBlockTableRecord
  2
B4121L-0B-13-M11
340
0
102
{BLKREFS
331
49
102
}
  0
BLOCK_RECORD
  5
39
330
1
100
AcDbSymbolTableRecord
100
AcDbBlockTableRecord
  2
36-45A-M11
340
0
102
{BLKREFS
331
4A
102
}
  0
BLOCK_RECORD
  5
3C
330
1
100
AcDbSymbolTableRecord
100
AcDbBlockTableRecord
  2
37-1-13
340
0
102
{BLKREFS
331
4B
102
}
  0
BLOCK_RECORD
  5
3F
330
1
100
AcDbSymbolTableRecord
100
AcDbBlockTableRecord
  2
_J__A4
340
0
102
{BLKREFS
331
4C
102
}
  0
BLOCK_RECORD
  5
42
330
1
100
AcDbSymbolTableRecord
100
AcDbBlockTableRecord
  2
34-188-M2K
340
0
102
{BLKREFS
331
46
102
}
  0
BLOCK_RECORD
  5
45
330
1
100
AcDbSymbolTableRecord
100
AcDbBlockTableRecord
  2
B41A-240-13
340
0
102
{BLKREFS
331
4D
102
}
  0
BLOCK_RECORD
  5
1DC
330
1
100
AcDbSymbolTableRecord
100
AcDbBlockTableRecord
  2
*D07
340
0
  0
BLOCK_RECORD
  5
1E7
330
1
100
AcDbSymbolTableRecord
100
AcDbBlockTableRecord
  2
*D18
340
0
  0
BLOCK_RECORD
  5
1F3
330
1
100
AcDbSymbolTableRecord
100
AcDbBlockTableRecord
  2
*D29
340
0
  0
BLOCK_RECORD
  5
1FE
330
1
100
AcDbSymbolTableRecord
100
AcDbBlockTableRecord
  2
*D310
340
0
  0
BLOCK_RECORD
  5
20B
330
1
100
AcDbSymbolTableRecord
100
AcDbBlockTableRecord
  2
*D411
340
0
  0
BLOCK_RECORD
  5
217
330
1
100
AcDbSymbolTableRecord
100
AcDbBlockTableRecord
  2
*D512
340
0
  0
BLOCK_RECORD
  5
222
330
1
100
AcDbSymbolTableRecord
100
AcDbBlockTableRecord
  2
*D613
340
0
  0
BLOCK_RECORD
  5
22E
330
1
100
AcDbSymbolTableRecord
100
AcDbBlockTableRecord
  2
*D714
340
0
  0
ENDTAB
  0
ENDSEC
  0
SECTION
  2
BLOCKS
  0
BLOCK
  5
20
330
1F
100
AcDbEntity
  8
0
100
AcDbBlockBegin
  2
*Model_Space
 70
     0
 71
     0
 10
0.0
 20
0.0
 30
0.0
  3
*Model_Space
  1

  0
ENDBLK
  5
21
330
1F
100
AcDbEntity
  8
0
100
AcDbBlockEnd
  0
BLOCK
  5
1C
330
1B
100
AcDbEntity
 67
     1
  8
0
100
AcDbBlockBegin
  2
*Paper_Space
 70
     0
 71
     0
 10
0.0
 20
0.0
 30
0.0
  3
*Paper_Space
  1

  0
ENDBLK
  5
1D
330
1B
100
AcDbEntity
 67
     1
  8
0
100
AcDbBlockEnd
  0
BLOCK
  5
24
330
23
100
AcDbEntity
  8
0
100
AcDbBlockBegin
  2
*Paper_Space0
 70
     0
 71
     0
 10
0.0
 20
0.0
 30
0.0
  3
*Paper_Space0
  1

  0
ENDBLK
  5
25
330
23
100
AcDbEntity
  8
0
100
AcDbBlockEnd
  0
BLOCK
  5
37
330
36
100
AcDbEntity
  8
0
100
AcDbBlockBegin
  2
B4121L-0B-13-M11
 70
     0
 71
     0
 10
-19.1778256229495
 20
634.607817146807
 30
0.0
  3
B4121L-0B-13-M11
  1

  0
LINE
  5
4E
330
36
100
AcDbEntity
  8
1
  6
Continuous
 62
     7
100
AcDbLine
 10
133.5430973374914
 20
281.6281823463842
 30
0.0
 11
133.5430973374914
 21
262.9521823463842
 31
0.0
  0
LINE
  5
4F
330
36
100
AcDbEntity
  8
1
  6
Continuous
 62
     7
100
AcDbLine
 10
134.7050973374913
 20
282.7676823463842
 30
0.0
 11
134.7050973374913
 21
261.8126823463844
 31
0.0
  0
LINE
  5
50
330
36
100
AcDbEntity
  8
1
  6
Continuous
 62
     7
100
AcDbLine
 10
152.3167692327161
 20
261.8126823463597
 30
0.0
 11
153.0892692327041
 21
261.0401823463722
 31
0.0
  0
LINE
  5
51
330
36
100
AcDbEntity
  8
1
  6
Continuous
 62
     7
100
AcDbLine
 10
152.3167692327161
 20
282.7676823463842
 30
0.0
 11
153.0906861825409
 21
283.5415992962087
 31
0.0
  0
LINE
  5
52
330
36
100
AcDbEntity
  8
1
  6
PHANTOM
 62
     4
100
AcDbLine
 10
127.5430973374914
 20
272.290182346372
 30
0.0
 11
215.3430973374915
 21
272.290182346372
 31
0.0
  0
LINE
  5
53
330
36
100
AcDbEntity
  8
1
  6
PHANTOM
 62
     4
100
AcDbLine
 10
200.5042105046928
 20
272.290182346372
 30
0.0
 11
208.18198417029
 21
272.290182346372
 31
0.0
  0
LINE
  5
54
330
36
100
AcDbEntity
  8
1
  6
Continuous
 62
     7
100
AcDbLine
 10
200.5042105046928
 20
272.290182346372
 30
0.0
 11
208.18198417029
 21
272.290182346372
 31
0.0
  0
LINE
  5
55
330
36
100
AcDbEntity
  8
1
  6
Continuous
 62
     7
100
AcDbLine
 10
150.3430973374913
 20
262.9521823463842
 30
0.0
 11
150.3430973374913
 21
281.6281823463842
 31
0.0
  0
LINE
  5
56
330
36
100
AcDbEntity
  8
1
  6
Continuous
 62
     7
100
AcDbLine
 10
152.3167692327161
 20
261.8126823463844
 30
0.0
 11
152.3167692327161
 21
282.7676823463842
 31
0.0
  0
LINE
  5
57
330
36
100
AcDbEntity
  8
1
  6
Continuous
 62
     7
100
AcDbLine
 10
163.0930973374913
 20
296.290182346372
 30
0.0
 11
185.5930973374913
 21
296.290182346372
 31
0.0
  0
LINE
  5
58
330
36
100
AcDbEntity
  8
1
  6
Continuous
 62
     7
100
AcDbLine
 10
186.3430973374913
 20
294.991144240695
 30
0.0
 11
162.3430973374913
 21
294.991144240695
 31
0.0
  0
LINE
  5
59
330
36
100
AcDbEntity
  8
1
  6
Continuous
 62
     7
100
AcDbLine
 10
187.6212188970257
 20
293.7130226811606
 30
0.0
 11
187.6653215099105
 21
292.8714946964283
 31
0.0
  0
LINE
  5
5A
330
36
100
AcDbEntity
  8
1
  6
Continuous
 62
     7
100
AcDbLine
 10
152.3167692327161
 20
261.8126823463844
 30
0.0
 11
152.3167692327161
 21
261.8126823463597
 31
0.0
  0
LINE
  5
5B
330
36
100
AcDbEntity
  8
1
  6
Continuous
 62
     7
100
AcDbLine
 10
160.929159551327
 20
291.1214946964218
 30
0.0
 11
160.9291595513274
 21
291.1214946964284
 31
0.0
  0
LINE
  5
5C
330
36
100
AcDbEntity
  8
1
  6
Continuous
 62
     7
100
AcDbLine
 10
160.929159551327
 20
291.1214946964218
 30
0.0
 11
161.0649757779568
 21
293.7130226811606
 31
0.0
  0
LINE
  5
5D
330
36
100
AcDbEntity
  8
1
  6
Continuous
 62
     7
100
AcDbLine
 10
150.3430973374913
 20
261.8126823463844
 30
0.0
 11
150.3430973374913
 21
262.9521823463842
 31
0.0
  0
LINE
  5
5E
330
36
100
AcDbEntity
  8
1
  6
Continuous
 62
     7
100
AcDbLine
 10
154.0468538426962
 20
261.0401823463721
 30
0.0
 11
153.0892692327041
 21
261.0401823463722
 31
0.0
  0
LINE
  5
5F
330
36
100
AcDbEntity
  8
1
  6
Continuous
 62
     7
100
AcDbLine
 10
134.7050973374913
 20
261.8126823463844
 30
0.0
 11
133.5430973374914
 21
262.9521823463842
 31
0.0
  0
LINE
  5
60
330
36
100
AcDbEntity
  8
1
  6
Continuous
 62
     7
100
AcDbLine
 10
152.3167692327161
 20
282.7676823463842
 30
0.0
 11
134.7050973374913
 21
282.7676823463842
 31
0.0
  0
LINE
  5
61
330
36
100
AcDbEntity
  8
1
  6
Continuous
 62
     7
100
AcDbLine
 10
134.7050973374913
 20
282.7676823463842
 30
0.0
 11
133.5430973374914
 21
281.6281823463842
 31
0.0
  0
LINE
  5
62
330
36
100
AcDbEntity
  8
1
  6
Continuous
 62
     7
100
AcDbLine
 10
152.3167692327161
 20
282.7676823463842
 30
0.0
 11
134.7050973374913
 21
282.7676823463842
 31
0.0
  0
LINE
  5
63
330
36
100
AcDbEntity
  8
1
  6
Continuous
 62
     2
100
AcDbLine
 10
133.5430973374914
 20
281.6281823463842
 30
0.0
 11
150.3430973374913
 21
281.6281823463842
 31
0.0
  0
LINE
  5
64
330
36
100
AcDbEntity
  8
1
  6
Continuous
 62
     7
100
AcDbLine
 10
150.3430973374913
 20
281.6281823463842
 30
0.0
 11
150.3430973374913
 21
282.7676823463842
 31
0.0
  0
LINE
  5
65
330
36
100
AcDbEntity
  8
1
  6
Continuous
 62
     2
100
AcDbLine
 10
150.3430973374913
 20
281.6281823463842
 30
0.0
 11
152.3167692327161
 21
282.7676823463842
 31
0.0
  0
LINE
  5
66
330
36
100
AcDbEntity
  8
1
  6
Continuous
 62
     2
100
AcDbLine
 10
152.3167692327161
 20
261.8126823463844
 30
0.0
 11
150.3430973374913
 21
262.9521823463842
 31
0.0
  0
LINE
  5
67
330
36
100
AcDbEntity
  8
1
  6
Continuous
 62
     2
100
AcDbLine
 10
150.3430973374913
 20
262.9521823463842
 30
0.0
 11
133.5430973374914
 21
262.9521823463842
 31
0.0
  0
LINE
  5
68
330
36
100
AcDbEntity
  8
1
  6
Continuous
 62
     7
100
AcDbLine
 10
162.5638783481011
 20
259.2901823463721
 30
0.0
 11
209.3430973374915
 21
259.2901823463721
 31
0.0
  0
LINE
  5
69
330
36
100
AcDbEntity
  8
1
  6
Continuous
 62
     7
100
AcDbLine
 10
161.0649757779568
 20
293.7130226811606
 30
0.0
 11
162.3430973374913
 21
294.991144240695
 31
0.0
  0
LINE
  5
6A
330
36
100
AcDbEntity
  8
1
  6
Continuous
 62
     7
100
AcDbLine
 10
186.3430973374913
 20
294.991144240695
 30
0.0
 11
187.6212188970257
 21
293.7130226811606
 31
0.0
  0
LINE
  5
6B
330
36
100
AcDbEntity
  8
1
  6
Continuous
 62
     7
100
AcDbLine
 10
195.654357787947
 20
285.290182346372
 30
0.0
 11
209.3430973374915
 21
285.290182346372
 31
0.0
  0
LINE
  5
6C
330
36
100
AcDbEntity
  8
1
  6
Continuous
 62
     7
100
AcDbLine
 10
209.3430973374915
 20
285.290182346372
 30
0.0
 11
209.3430973374915
 21
259.2901823463721
 31
0.0
  0
LINE
  5
6D
330
36
100
AcDbEntity
  8
1
  6
Continuous
 62
     2
100
AcDbLine
 10
162.3430973374913
 20
294.991144240695
 30
0.0
 11
163.0930973374913
 21
296.290182346372
 31
0.0
  0
LINE
  5
6E
330
36
100
AcDbEntity
  8
1
  6
Continuous
 62
     2
100
AcDbLine
 10
186.3430973374913
 20
294.991144240695
 30
0.0
 11
185.5930973374913
 21
296.290182346372
 31
0.0
  0
LINE
  5
6F
330
36
100
AcDbEntity
  8
1
  6
Continuous
 62
     2
100
AcDbLine
 10
185.5930973374913
 20
296.290182346372
 30
0.0
 11
185.5930973374913
 21
297.790182346372
 31
0.0
  0
LINE
  5
70
330
36
100
AcDbEntity
  8
1
  6
Continuous
 62
     2
100
AcDbLine
 10
163.0930973374913
 20
296.290182346372
 30
0.0
 11
163.0930973374913
 21
297.790182346372
 31
0.0
  0
LINE
  5
71
330
36
100
AcDbEntity
  8
1
  6
Continuous
 62
     7
100
AcDbLine
 10
186.3430973374913
 20
296.290182346372
 30
0.0
 11
185.5930973374913
 21
296.290182346372
 31
0.0
  0
LINE
  5
72
330
36
100
AcDbEntity
  8
1
  6
Continuous
 62
     7
100
AcDbLine
 10
162.3430973374913
 20
296.290182346372
 30
0.0
 11
163.0930973374913
 21
296.290182346372
 31
0.0
  0
LINE
  5
73
330
36
100
AcDbEntity
  8
1
  6
Continuous
 62
     7
100
AcDbLine
 10
162.3430973374913
 20
294.991144240695
 30
0.0
 11
162.3430973374913
 21
297.790182346372
 31
0.0
  0
LINE
  5
74
330
36
100
AcDbEntity
  8
1
  6
PHANTOM
 62
     4
100
AcDbLine
 10
174.3430973374913
 20
256.2901823463721
 30
0.0
 11
174.3430973374913
 21
305.290182346372
 31
0.0
  0
LINE
  5
75
330
36
100
AcDbEntity
  8
1
  6
Continuous
 62
     7
100
AcDbLine
 10
150.5711735004733
 20
279.090182346372
 30
0.0
 11
150.571173500471
 21
279.090182346372
 31
0.0
  0
LINE
  5
76
330
36
100
AcDbEntity
  8
1
  6
Continuous
 62
     7
100
AcDbLine
 10
152.3167692327161
 20
261.8126823463844
 30
0.0
 11
134.7050973374913
 21
261.8126823463844
 31
0.0
  0
LINE
  5
77
330
36
100
AcDbEntity
  8
1
  6
Continuous
 62
     7
100
AcDbLine
 10
150.5711735004772
 20
279.090182346372
 30
0.0
 11
150.5711735004733
 21
279.090182346372
 31
0.0
  0
LINE
  5
78
330
36
100
AcDbEntity
  8
1
  6
Continuous
 62
     7
100
AcDbLine
 10
150.5735735155521
 20
279.090182346372
 30
0.0
 11
150.5711735004733
 21
279.090182346372
 31
0.0
  0
LINE
  5
79
330
36
100
AcDbEntity
  8
1
  6
Continuous
 62
     7
100
AcDbLine
 10
186.3430973374913
 20
297.790182346372
 30
0.0
 11
186.3430973374913
 21
294.991144240695
 31
0.0
  0
LINE
  5
7A
330
36
100
AcDbEntity
  8
1
  6
Continuous
 62
     7
100
AcDbLine
 10
157.6757596855262
 20
288.790182346372
 30
0.0
 11
158.8930637231865
 21
288.790182346372
 31
0.0
  0
LINE
  5
7B
330
36
100
AcDbEntity
  8
1
  6
Continuous
 62
     7
100
AcDbLine
 10
155.5462624574027
 20
285.397344141675
 30
0.0
 11
155.6833702893429
 21
286.9644938318673
 31
0.0
  0
LINE
  5
7C
330
36
100
AcDbEntity
  8
1
  6
Continuous
 62
     2
100
AcDbLine
 10
165.0232242735104
 20
400.7901823463841
 30
0.0
 11
165.0232242735108
 21
408.2775393079895
 31
0.0
  0
LINE
  5
7D
330
36
100
AcDbEntity
  8
1
  6
Continuous
 62
     7
100
AcDbLine
 10
163.8612242735107
 20
400.7901823463841
 30
0.0
 11
163.8612242735106
 21
410.2901823463843
 31
0.0
  0
LINE
  5
7E
330
36
100
AcDbEntity
  8
1
  6
Continuous
 62
     2
100
AcDbLine
 10
183.6542242735108
 20
400.7901823463841
 30
0.0
 11
183.6542242735107
 21
408.2775393079893
 31
0.0
  0
LINE
  5
7F
330
36
100
AcDbEntity
  8
1
  6
Continuous
 62
     7
100
AcDbLine
 10
155.843097337491
 20
422.2901823463717
 30
0.0
 11
160.4866908769407
 21
422.2901823463717
 31
0.0
  0
LINE
  5
80
330
36
100
AcDbEntity
  8
1
  6
Continuous
 62
     7
100
AcDbLine
 10
155.843097337491
 20
426.2901823463717
 30
0.0
 11
155.843097337491
 21
422.2901823463717
 31
0.0
  0
LINE
  5
81
330
36
100
AcDbEntity
  8
1
  6
Continuous
 62
     7
100
AcDbLine
 10
160.4866908769399
 20
426.2901823463717
 30
0.0
 11
155.843097337491
 21
426.2901823463717
 31
0.0
  0
LINE
  5
82
330
36
100
AcDbEntity
  8
1
  6
Continuous
 62
     7
100
AcDbLine
 10
209.3430973374914
 20
411.2901823463718
 30
0.0
 11
207.3319903385618
 21
409.2790753474413
 31
0.0
  0
LINE
  5
83
330
36
100
AcDbEntity
  8
1
  6
Continuous
 62
     7
100
AcDbLine
 10
207.3319903385618
 20
439.3012893453016
 30
0.0
 11
209.3430973374914
 21
437.290182346372
 31
0.0
  0
LINE
  5
84
330
36
100
AcDbEntity
  8
1
  6
Continuous
 62
     7
100
AcDbLine
 10
201.3542043364216
 20
409.2790753474421
 30
0.0
 11
207.3319903385618
 21
409.2790753474413
 31
0.0
  0
LINE
  5
85
330
36
100
AcDbEntity
  8
1
  6
Continuous
 62
     7
100
AcDbLine
 10
207.3319903385618
 20
409.2790753474413
 30
0.0
 11
207.331990338564
 21
409.279075347442
 31
0.0
  0
LINE
  5
86
330
36
100
AcDbEntity
  8
1
  6
Continuous
 62
     7
100
AcDbLine
 10
201.3542043364216
 20
439.3012893453016
 30
0.0
 11
207.3319903385618
 21
439.3012893453016
 31
0.0
  0
LINE
  5
87
330
36
100
AcDbEntity
  8
1
  6
Continuous
 62
     7
100
AcDbLine
 10
209.3430973374914
 20
411.2901823463718
 30
0.0
 11
209.3430973374914
 21
437.290182346372
 31
0.0
  0
LINE
  5
88
330
36
100
AcDbEntity
  8
1
  6
Continuous
 62
     7
100
AcDbLine
 10
201.3542043364216
 20
431.7957358458367
 30
0.0
 11
207.3319903385618
 21
431.7957358458367
 31
0.0
  0
LINE
  5
89
330
36
100
AcDbEntity
  8
1
  6
Continuous
 62
     7
100
AcDbLine
 10
201.3542043364216
 20
416.7846288469068
 30
0.0
 11
207.3319903385618
 21
416.7846288469068
 31
0.0
  0
LINE
  5
8A
330
36
100
AcDbEntity
  8
1
  6
Continuous
 62
     7
100
AcDbLine
 10
317.2607678503547
 20
270.290182346372
 30
0.0
 11
335.4254268246509
 21
270.290182346372
 31
0.0
  0
LINE
  5
8B
330
36
100
AcDbEntity
  8
1
  6
Continuous
 62
     7
100
AcDbLine
 10
333.8486508369668
 20
285.290182346372
 30
0.0
 11
341.3542043364327
 21
272.290182346372
 31
0.0
  0
LINE
  5
8C
330
36
100
AcDbEntity
  8
1
  6
Continuous
 62
     7
100
AcDbLine
 10
341.3542043364327
 20
272.290182346372
 30
0.0
 11
333.8486508369668
 21
259.290182346372
 31
0.0
  0
LINE
  5
8D
330
36
100
AcDbEntity
  8
1
  6
Continuous
 62
     7
100
AcDbLine
 10
311.3319903385718
 20
272.290182346372
 30
0.0
 11
318.8375438380369
 21
285.290182346372
 31
0.0
  0
LINE
  5
8E
330
36
100
AcDbEntity
  8
1
  6
Continuous
 62
     7
100
AcDbLine
 10
318.8375438380369
 20
259.290182346372
 30
0.0
 11
311.3319903385718
 21
272.290182346372
 31
0.0
  0
LINE
  5
8F
330
36
100
AcDbEntity
  8
1
  6
Continuous
 62
     7
100
AcDbLine
 10
333.8486508369668
 20
259.290182346372
 30
0.0
 11
318.8375438380369
 21
259.290182346372
 31
0.0
  0
LINE
  5
90
330
36
100
AcDbEntity
  8
1
  6
Continuous
 62
     2
100
AcDbLine
 10
338.3430973375027
 20
294.991144240695
 30
0.0
 11
337.5300973375018
 21
296.290182346372
 31
0.0
  0
LINE
  5
91
330
36
100
AcDbEntity
  8
1
  6
Continuous
 62
     7
100
AcDbLine
 10
338.3430973375027
 20
294.991144240695
 30
0.0
 11
338.3430973375037
 21
297.7542054645968
 31
0.0
  0
LINE
  5
92
330
36
100
AcDbEntity
  8
1
  6
Continuous
 62
     7
100
AcDbLine
 10
312.3430973375027
 20
261.040182346372
 30
0.0
 11
312.8825067115308
 21
261.040182346372
 31
0.0
  0
LINE
  5
93
330
36
100
AcDbEntity
  8
1
  6
Continuous
 62
     7
100
AcDbLine
 10
339.6212188970368
 20
293.7130226811609
 30
0.0
 11
340.6075179265137
 21
274.8933160847303
 31
0.0
  0
LINE
  5
94
330
36
100
AcDbEntity
  8
1
  6
Continuous
 62
     2
100
AcDbLine
 10
315.1560973375028
 20
296.290182346372
 30
0.0
 11
315.1560973375038
 21
297.7542054645968
 31
0.0
  0
LINE
  5
95
330
36
100
AcDbEntity
  8
1
  6
Continuous
 62
     7
100
AcDbLine
 10
312.3430973375027
 20
261.040182346372
 30
0.0
 11
312.3430973375027
 21
261.812682346372
 31
0.0
  0
LINE
  5
96
330
36
100
AcDbEntity
  8
1
  6
Continuous
 62
     7
100
AcDbLine
 10
338.3430973375027
 20
294.991144240695
 30
0.0
 11
339.6212188970368
 21
293.7130226811609
 31
0.0
  0
LINE
  5
97
330
36
100
AcDbEntity
  8
1
  6
Continuous
 62
     7
100
AcDbLine
 10
313.0649757779688
 20
293.7130226811609
 30
0.0
 11
314.3430973375027
 21
294.991144240695
 31
0.0
  0
LINE
  5
98
330
36
100
AcDbEntity
  8
1
  6
Continuous
 62
     7
100
AcDbLine
 10
310.3304542991068
 20
261.812682346372
 30
0.0
 11
310.3304542991068
 21
262.9746823463721
 31
0.0
  0
LINE
  5
99
330
36
100
AcDbEntity
  8
1
  6
Continuous
 62
     7
100
AcDbLine
 10
337.5300973375018
 20
296.290182346372
 30
0.0
 11
338.3430973375027
 21
296.290182346372
 31
0.0
  0
LINE
  5
9A
330
36
100
AcDbEntity
  8
1
  6
Continuous
 62
     7
100
AcDbLine
 10
312.3430973375027
 20
261.812682346372
 30
0.0
 11
302.8430973375035
 21
261.8126823463719
 31
0.0
  0
LINE
  5
9B
330
36
100
AcDbEntity
  8
1
  6
Continuous
 62
     2
100
AcDbLine
 10
312.3430973375027
 20
261.812682346372
 30
0.0
 11
310.3304542991068
 21
262.9746823463721
 31
0.0
  0
LINE
  5
9C
330
36
100
AcDbEntity
  8
1
  6
Continuous
 62
     7
100
AcDbLine
 10
310.3304542991079
 20
281.6056823463719
 30
0.0
 11
310.3304542991079
 21
282.7676823463717
 31
0.0
  0
LINE
  5
9D
330
36
100
AcDbEntity
  8
1
  6
Continuous
 62
     7
100
AcDbLine
 10
314.3430973375027
 20
296.290182346372
 30
0.0
 11
315.1560973375028
 21
296.290182346372
 31
0.0
  0
LINE
  5
9E
330
36
100
AcDbEntity
  8
1
  6
Continuous
 62
     2
100
AcDbLine
 10
315.1560973375028
 20
296.290182346372
 30
0.0
 11
314.3430973375027
 21
294.991144240695
 31
0.0
  0
LINE
  5
9F
330
36
100
AcDbEntity
  8
1
  6
Continuous
 62
     2
100
AcDbLine
 10
310.3304542991079
 20
281.6056823463719
 30
0.0
 11
312.3430973375027
 21
282.7676823463717
 31
0.0
  0
LINE
  5
A0
330
36
100
AcDbEntity
  8
1
  6
Continuous
 62
     7
100
AcDbLine
 10
314.3430973375037
 20
297.7542054645968
 30
0.0
 11
314.3430973375027
 21
294.991144240695
 31
0.0
  0
LINE
  5
A1
330
36
100
AcDbEntity
  8
1
  6
Continuous
 62
     7
100
AcDbLine
 10
315.1560973375028
 20
296.290182346372
 30
0.0
 11
337.5300973375018
 21
296.290182346372
 31
0.0
  0
LINE
  5
A2
330
36
100
AcDbEntity
  8
1
  6
Continuous
 62
     7
100
AcDbLine
 10
338.3430973375027
 20
294.991144240695
 30
0.0
 11
314.3430973375027
 21
294.991144240695
 31
0.0
  0
LINE
  5
A3
330
36
100
AcDbEntity
  8
1
  6
Continuous
 62
     7
100
AcDbLine
 10
313.0649757779688
 20
293.7130226811609
 30
0.0
 11
339.6212188970368
 21
293.7130226811609
 31
0.0
  0
LINE
  5
A4
330
36
100
AcDbEntity
  8
1
  6
Continuous
 62
     7
100
AcDbLine
 10
312.3430973375027
 20
282.7676823463717
 30
0.0
 11
312.3430973375027
 21
274.0414710404075
 31
0.0
  0
LINE
  5
A5
330
36
100
AcDbEntity
  8
1
  6
Continuous
 62
     7
100
AcDbLine
 10
310.3304542991068
 20
262.9746823463721
 30
0.0
 11
310.3304542991079
 21
281.6056823463719
 31
0.0
  0
LINE
  5
A6
330
36
100
AcDbEntity
  8
1
  6
Continuous
 62
     7
100
AcDbLine
 10
312.3430973375027
 20
270.5388936523366
 30
0.0
 11
312.3430973375027
 21
261.812682346372
 31
0.0
  0
LINE
  5
A7
330
36
100
AcDbEntity
  8
1
  6
Continuous
 62
     7
100
AcDbLine
 10
312.3430973375018
 20
288.5076957421503
 30
0.0
 11
312.3430973375027
 21
282.7676823463717
 31
0.0
  0
LINE
  5
A8
330
36
100
AcDbEntity
  8
1
  6
Continuous
 62
     7
100
AcDbLine
 10
312.929159551339
 20
291.1214946964286
 30
0.0
 11
313.0649757779688
 21
293.7130226811609
 31
0.0
  0
LINE
  5
A9
330
36
100
AcDbEntity
  8
1
  6
Continuous
 62
     7
100
AcDbLine
 10
152.762772315658
 20
435.5401823463843
 30
0.0
 11
152.7627723156721
 21
435.5401823463843
 31
0.0
  0
LINE
  5
AA
330
36
100
AcDbEntity
  8
1
  6
Continuous
 62
     7
100
AcDbLine
 10
152.762772315658
 20
413.0401823463843
 30
0.0
 11
152.762772315658
 21
435.5401823463843
 31
0.0
  0
LINE
  5
AB
330
36
100
AcDbEntity
  8
1
  6
Continuous
 62
     7
100
AcDbLine
 10
152.3167692327161
 20
413.8126823463722
 30
0.0
 11
152.762772315658
 21
413.0401823463843
 31
0.0
  0
LINE
  5
AC
330
36
100
AcDbEntity
  8
1
  6
Continuous
 62
     7
100
AcDbLine
 10
152.3167692327159
 20
434.767682346372
 30
0.0
 11
152.762772315658
 21
435.5401823463843
 31
0.0
  0
LINE
  5
AD
330
36
100
AcDbEntity
  8
1
  6
Continuous
 62
     2
100
AcDbLine
 10
134.7050973374916
 20
433.6281823463723
 30
0.0
 11
150.3430973374914
 21
433.6281823463722
 31
0.0
  0
LINE
  5
AE
330
36
100
AcDbEntity
  8
1
  6
Continuous
 62
     7
100
AcDbLine
 10
152.3167692327161
 20
413.8126823463722
 30
0.0
 11
152.3167692327159
 21
434.767682346372
 31
0.0
  0
LINE
  5
AF
330
36
100
AcDbEntity
  8
1
  6
Continuous
 62
     2
100
AcDbLine
 10
150.3430973374914
 20
433.6281823463722
 30
0.0
 11
152.3167692327159
 21
434.767682346372
 31
0.0
  0
LINE
  5
B0
330
36
100
AcDbEntity
  8
1
  6
Continuous
 62
     7
100
AcDbLine
 10
152.762772315658
 20
413.0401823463843
 30
0.0
 11
155.1199704014724
 21
413.0401823463843
 31
0.0
  0
LINE
  5
B1
330
36
100
AcDbEntity
  8
1
  6
Continuous
 62
     7
100
AcDbLine
 10
152.7627723156721
 20
435.5401823463843
 30
0.0
 11
156.6107117112181
 21
435.5401823463843
 31
0.0
  0
LINE
  5
B2
330
36
100
AcDbEntity
  8
1
  6
PHANTOM
 62
     4
100
AcDbLine
 10
174.3430973374917
 20
389.7901823463843
 30
0.0
 11
174.3430973374914
 21
441.7901823463726
 31
0.0
  0
LINE
  5
B3
330
36
100
AcDbEntity
  8
1
  6
Continuous
 62
     7
100
AcDbLine
 10
198.0301814576403
 20
437.2901823463718
 30
0.0
 11
188.2265407137252
 21
437.2901823463718
 31
0.0
  0
LINE
  5
B4
330
36
100
AcDbEntity
  8
1
  6
Continuous
 62
     7
100
AcDbLine
 10
183.6542242735107
 20
408.2775393079893
 30
0.0
 11
165.0232242735108
 21
408.2775393079895
 31
0.0
  0
LINE
  5
B5
330
36
100
AcDbEntity
  8
1
  6
Continuous
 62
     7
100
AcDbLine
 10
184.8162242735036
 20
410.290182346372
 30
0.0
 11
163.8699704014721
 21
410.290182346372
 31
0.0
  0
LINE
  5
B6
330
36
100
AcDbEntity
  8
1
  6
Continuous
 62
     2
100
AcDbLine
 10
183.6542242735107
 20
408.2775393079893
 30
0.0
 11
184.8162242735036
 21
410.290182346372
 31
0.0
  0
LINE
  5
B7
330
36
100
AcDbEntity
  8
1
  6
Continuous
 62
     7
100
AcDbLine
 10
165.0232242735108
 20
408.2775393079895
 30
0.0
 11
163.861224273511
 21
408.2775393079895
 31
0.0
  0
LINE
  5
B8
330
36
100
AcDbEntity
  8
1
  6
Continuous
 62
     2
100
AcDbLine
 10
165.0232242735108
 20
408.2775393079895
 30
0.0
 11
163.8699704014721
 21
410.290182346372
 31
0.0
  0
LINE
  5
B9
330
36
100
AcDbEntity
  8
1
  6
Continuous
 62
     7
100
AcDbLine
 10
184.8162242735107
 20
408.2775393079872
 30
0.0
 11
183.6542242735107
 21
408.2775393079893
 31
0.0
  0
LINE
  5
BA
330
36
100
AcDbEntity
  8
1
  6
Continuous
 62
     7
100
AcDbLine
 10
184.8162242735105
 20
410.2901823463843
 30
0.0
 11
184.8162242735106
 21
400.7901823463841
 31
0.0
  0
LINE
  5
BB
330
36
100
AcDbEntity
  8
1
  6
Continuous
 62
     7
100
AcDbLine
 10
161.1563186352849
 20
410.2901823463984
 30
0.0
 11
163.8699704014721
 21
410.290182346372
 31
0.0
  0
LINE
  5
BC
330
36
100
AcDbEntity
  8
1
  6
Continuous
 62
     2
100
AcDbLine
 10
152.3167692327161
 20
413.8126823463722
 30
0.0
 11
150.3430973374914
 21
414.9521823463716
 31
0.0
  0
LINE
  5
BD
330
36
100
AcDbEntity
  8
1
  6
Continuous
 62
     7
100
AcDbLine
 10
133.5430973374914
 20
414.9521823463716
 30
0.0
 11
134.7050973374916
 21
413.8126823463722
 31
0.0
  0
LINE
  5
BE
330
36
100
AcDbEntity
  8
1
  6
Continuous
 62
     7
100
AcDbLine
 10
133.5430973374914
 20
433.6281823463722
 30
0.0
 11
134.7050973374916
 21
434.767682346372
 31
0.0
  0
LINE
  5
BF
330
36
100
AcDbEntity
  8
1
  6
Continuous
 62
     7
100
AcDbLine
 10
134.7050973374916
 20
433.6281823463723
 30
0.0
 11
134.7050973374916
 21
434.767682346372
 31
0.0
  0
LINE
  5
C0
330
36
100
AcDbEntity
  8
1
  6
Continuous
 62
     7
100
AcDbLine
 10
133.5430973374914
 20
433.6281823463722
 30
0.0
 11
134.7050973374916
 21
433.6281823463723
 31
0.0
  0
LINE
  5
C1
330
36
100
AcDbEntity
  8
1
  6
Continuous
 62
     7
100
AcDbLine
 10
150.3430973374914
 20
414.9521823463716
 30
0.0
 11
150.3430973374914
 21
434.767682346372
 31
0.0
  0
LINE
  5
C2
330
36
100
AcDbEntity
  8
1
  6
Continuous
 62
     7
100
AcDbLine
 10
150.3430973374914
 20
413.8126823463722
 30
0.0
 11
150.3430973374914
 21
414.9521823463716
 31
0.0
  0
LINE
  5
C3
330
36
100
AcDbEntity
  8
1
  6
Continuous
 62
     2
100
AcDbLine
 10
150.3430973374914
 20
414.9521823463716
 30
0.0
 11
133.5430973374914
 21
414.9521823463716
 31
0.0
  0
LINE
  5
C4
330
36
100
AcDbEntity
  8
1
  6
Continuous
 62
     7
100
AcDbLine
 10
134.7050973374916
 20
433.6281823463723
 30
0.0
 11
134.7050973374916
 21
413.8126823463722
 31
0.0
  0
LINE
  5
C5
330
36
100
AcDbEntity
  8
1
  6
Continuous
 62
     7
100
AcDbLine
 10
198.0301814576403
 20
411.290182346372
 30
0.0
 11
193.5749704014725
 21
411.2901823463717
 31
0.0
  0
LINE
  5
C6
330
36
100
AcDbEntity
  8
1
  6
Continuous
 62
     7
100
AcDbLine
 10
133.5430973374914
 20
414.9521823463716
 30
0.0
 11
133.5430973374914
 21
433.6281823463722
 31
0.0
  0
LINE
  5
C7
330
36
100
AcDbEntity
  8
1
  6
Continuous
 62
     7
100
AcDbLine
 10
134.7050973374916
 20
413.8126823463722
 30
0.0
 11
152.3167692327161
 21
413.8126823463722
 31
0.0
  0
LINE
  5
C8
330
36
100
AcDbEntity
  8
1
  6
Continuous
 62
     7
100
AcDbLine
 10
134.7050973374916
 20
434.767682346372
 30
0.0
 11
152.3167692327159
 21
434.767682346372
 31
0.0
  0
LINE
  5
C9
330
36
100
AcDbEntity
  8
1
  6
Continuous
 62
     7
100
AcDbLine
 10
189.7019870552646
 20
410.290182346372
 30
0.0
 11
184.8162242735036
 21
410.290182346372
 31
0.0
  0
LINE
  5
CA
330
36
100
AcDbEntity
  8
1
  6
PHANTOM
 62
     4
100
AcDbLine
 10
212.3430973374914
 20
424.2901823463718
 30
0.0
 11
130.5430973374914
 21
424.290182346372
 31
0.0
  0
LINE
  5
CB
330
36
100
AcDbEntity
  8
1
  6
Continuous
 62
     7
100
AcDbLine
 10
318.8375438380369
 20
285.290182346372
 30
0.0
 11
333.8486508369668
 21
285.290182346372
 31
0.0
  0
LINE
  5
CC
330
36
100
AcDbEntity
  8
1
  6
Continuous
 62
     7
100
AcDbLine
 10
302.8430973375035
 20
282.7676823463717
 30
0.0
 11
312.3430973375027
 21
282.7676823463717
 31
0.0
  0
LINE
  5
CD
330
36
100
AcDbEntity
  8
1
  6
Continuous
 62
     2
100
AcDbLine
 10
302.8430973375035
 20
281.6056823463717
 30
0.0
 11
310.3304542991079
 21
281.6056823463719
 31
0.0
  0
LINE
  5
CE
330
36
100
AcDbEntity
  8
1
  6
Continuous
 62
     2
100
AcDbLine
 10
302.8430973375035
 20
262.9746823463721
 30
0.0
 11
310.3304542991068
 21
262.9746823463721
 31
0.0
  0
LINE
  5
CF
330
36
100
AcDbEntity
  8
1
  6
Continuous
 62
     2
100
AcDbLine
 10
337.5300973375026
 20
297.7542054645968
 30
0.0
 11
337.5300973375018
 21
296.290182346372
 31
0.0
  0
ARC
  5
D0
330
36
100
AcDbEntity
  8
1
  6
Continuous
 62
     7
100
AcDbCircle
 10
191.0042105046924
 20
265.7901823463721
 30
0.0
 40
18.36643427850106
100
AcDbArc
 50
-20.7264395950211
 51
20.72643959502076
  0
ARC
  5
D1
330
36
100
AcDbEntity
  8
1
  6
Continuous
 62
     7
100
AcDbCircle
 10
191.0042105046924
 20
278.790182346372
 30
0.0
 40
18.36643427850106
100
AcDbArc
 50
-20.7264395950211
 51
20.7264395950211
  0
ARC
  5
D2
330
36
100
AcDbEntity
  8
1
  6
Continuous
 62
     7
100
AcDbCircle
 10
217.6819841702921
 20
265.7901823463721
 30
0.0
 40
18.36643427850262
100
AcDbArc
 50
159.2735604049811
 51
-159.2735604049808
  0
ARC
  5
D3
330
36
100
AcDbEntity
  8
1
  6
Continuous
 62
     7
100
AcDbCircle
 10
217.6819841702921
 20
278.790182346372
 30
0.0
 40
18.36643427850266
100
AcDbArc
 50
159.2735604049808
 51
-159.2735604049808
  0
ARC
  5
D4
330
36
100
AcDbEntity
  8
1
  6
Continuous
 62
     7
100
AcDbCircle
 10
195.654357787947
 20
293.290182346372
 30
0.0
 40
7.999999999999897
100
AcDbArc
 50
-176.9999999999989
 51
-90.0
  0
ARC
  5
D5
330
36
100
AcDbEntity
  8
1
  6
Continuous
 62
     7
100
AcDbCircle
 10
174.3430973374913
 20
307.790182346372
 30
0.0
 40
50.00000000000002
100
AcDbArc
 50
-108.1948723387673
 51
-104.5143030815586
  0
ARC
  5
D6
330
36
100
AcDbEntity
  8
1
  6
Continuous
 62
     7
100
AcDbCircle
 10
152.9401232732973
 20
291.540182346365
 30
0.0
 40
7.99999999999314
100
AcDbArc
 50
-7.18075578139882
 51
-3.00000000000004
  0
ARC
  5
D7
330
36
100
AcDbEntity
  8
1
  6
Continuous
 62
     7
100
AcDbCircle
 10
152.9401232732973
 20
291.540182346365
 30
0.0
 40
7.999999999992971
100
AcDbArc
 50
-88.92160892513613
 51
-84.12885185724254
  0
ARC
  5
D8
330
36
100
AcDbEntity
  8
1
  6
Continuous
 62
     7
100
AcDbCircle
 10
152.9401232732973
 20
291.540182346365
 30
0.0
 40
7.999999999992919
100
AcDbArc
 50
-71.95520315219835
 51
-20.10550978788082
  0
ARC
  5
D9
330
36
100
AcDbEntity
  8
1
  6
Continuous
 62
     7
100
AcDbCircle
 10
152.9401232732973
 20
291.540182346365
 30
0.0
 40
7.999999999993248
100
AcDbArc
 50
-20.10550978788082
 51
-7.18075578139882
  0
ARC
  5
DA
330
36
100
AcDbEntity
  8
1
  6
Continuous
 62
     7
100
AcDbCircle
 10
152.9401232732973
 20
291.540182346365
 30
0.0
 40
7.999999999992961
100
AcDbArc
 50
-84.12885185724258
 51
-71.95520315219835
  0
ARC
  5
DB
330
36
100
AcDbEntity
  8
1
  6
Continuous
 62
     7
100
AcDbCircle
 10
204.8361554631595
 20
435.5485125955692
 30
0.0
 40
4.506941874332001
100
AcDbArc
 50
-56.37357086401447
 51
33.62642913597171
  0
ARC
  5
DC
330
36
100
AcDbEntity
  8
1
  6
Continuous
 62
     7
100
AcDbCircle
 10
203.8500392118239
 20
413.0318520971746
 30
0.0
 40
4.506941874332512
100
AcDbArc
 50
179.9999999999971
 51
-140.8289251476782
  0
ARC
  5
DD
330
36
100
AcDbEntity
  8
1
  6
Continuous
 62
     7
100
AcDbCircle
 10
198.0301814576403
 20
408.290182346372
 30
0.0
 40
3.00000000000011
100
AcDbArc
 50
39.17107485232067
 51
90.0
  0
ARC
  5
DE
330
36
100
AcDbEntity
  8
1
  6
Continuous
 62
     7
100
AcDbCircle
 10
203.8500392118239
 20
435.5485125955692
 30
0.0
 40
4.506941874331922
100
AcDbArc
 50
123.6264291359866
 51
140.8289251476798
  0
ARC
  5
DF
330
36
100
AcDbEntity
  8
1
  6
Continuous
 62
     7
100
AcDbCircle
 10
198.0301814576403
 20
440.2901823463717
 30
0.0
 40
2.999999999999886
100
AcDbArc
 50
-90.0
 51
-39.1710748523215
  0
ARC
  5
E0
330
36
100
AcDbEntity
  8
1
  6
Continuous
 62
     7
100
AcDbCircle
 10
204.8361554631595
 20
413.0318520971746
 30
0.0
 40
4.506941874332237
100
AcDbArc
 50
-33.62642913598354
 51
56.37357086401247
  0
ARC
  5
E1
330
36
100
AcDbEntity
  8
1
  6
Continuous
 62
     7
100
AcDbCircle
 10
203.8500392118239
 20
413.0318520971746
 30
0.0
 40
4.506941874332433
100
AcDbArc
 50
-140.8289251476782
 51
-123.6264291359858
  0
ARC
  5
E2
330
36
100
AcDbEntity
  8
1
  6
Continuous
 62
     7
100
AcDbCircle
 10
203.8500392118239
 20
413.0318520971746
 30
0.0
 40
4.50694187433178
100
AcDbArc
 50
123.6264291359879
 51
179.9999999999971
  0
ARC
  5
E3
330
36
100
AcDbEntity
  8
1
  6
Continuous
 62
     7
100
AcDbCircle
 10
203.8500392118239
 20
435.5485125955692
 30
0.0
 40
4.506941874332325
100
AcDbArc
 50
140.8289251476798
 51
-179.9999999999971
  0
ARC
  5
E4
330
36
100
AcDbEntity
  8
1
  6
Continuous
 62
     7
100
AcDbCircle
 10
203.8500392118239
 20
435.5485125955692
 30
0.0
 40
4.506941874332512
100
AcDbArc
 50
-179.9999999999971
 51
-123.6264291359858
  0
ARC
  5
E5
330
36
100
AcDbEntity
  8
1
  6
Continuous
 62
     7
100
AcDbCircle
 10
214.3542043364262
 20
424.2901823463718
 30
0.0
 40
15.01110699893414
100
AcDbArc
 50
150.0000000000096
 51
-150.0000000000092
  0
ARC
  5
E6
330
36
100
AcDbEntity
  8
1
  6
Continuous
 62
     7
100
AcDbCircle
 10
194.3319903385571
 20
424.2901823463718
 30
0.0
 40
15.01110699893429
100
AcDbArc
 50
-29.99999999999058
 51
29.9999999999902
  0
ARC
  5
E7
330
36
100
AcDbEntity
  8
1
  6
Continuous
 62
     7
100
AcDbCircle
 10
326.3430973375027
 20
272.290182346372
 30
0.0
 40
14.49999999999919
100
AcDbArc
 50
3.70844472526961
 51
10.34217893694734
  0
ARC
  5
E8
330
36
100
AcDbEntity
  8
1
  6
Continuous
 62
     7
100
AcDbCircle
 10
312.8825067115308
 20
246.040182346372
 30
0.0
 40
14.99999999999992
100
AcDbArc
 50
68.2348228889844
 51
90.0
  0
ARC
  5
E9
330
36
100
AcDbEntity
  8
1
  6
Continuous
 62
     7
100
AcDbCircle
 10
326.3430973375027
 20
272.290182346372
 30
0.0
 40
14.49999999999994
100
AcDbArc
 50
-56.29155527473074
 51
-3.70844472526849
  0
ARC
  5
EA
330
36
100
AcDbEntity
  8
1
  6
Continuous
 62
     7
100
AcDbCircle
 10
304.9401232733007
 20
291.5401823463722
 30
0.0
 40
8.000000000001204
100
AcDbArc
 50
-22.27552015977889
 51
-2.99999999999965
  0
ARC
  5
EB
330
36
100
AcDbEntity
  8
1
  6
Continuous
 62
     7
100
AcDbCircle
 10
193.5749704013795
 20
403.290182346733
 30
0.0
 40
7.999999999638703
100
AcDbArc
 50
89.99999999933377
 51
118.9550243725318
  0
LINE
  5
EC
330
36
100
AcDbEntity
  8
1
  6
Continuous
 62
     7
100
AcDbLine
 10
161.1563186352972
 20
410.2901823463843
 30
0.0
 11
161.1563186352849
 21
410.2901823463984
 31
0.0
  0
ARC
  5
ED
330
36
100
AcDbEntity
  8
1
  6
Continuous
 62
     7
100
AcDbCircle
 10
155.1199704014728
 20
405.0401823463843
 30
0.0
 40
7.999999999999638
100
AcDbArc
 50
41.01449966586658
 51
90.00000000000306
  0
ARC
  5
EE
330
36
100
AcDbEntity
  8
1
  6
Continuous
 62
     7
100
AcDbCircle
 10
188.2265407137252
 20
452.2901823405928
 30
0.0
 40
14.99999999421122
100
AcDbArc
 50
-102.3329031005346
 51
-90.0
  0
ARC
  5
EF
330
36
100
AcDbEntity
  8
1
  6
Continuous
 62
     7
100
AcDbCircle
 10
174.3430973374914
 20
388.7901823463802
 30
0.0
 40
49.99999999998948
100
AcDbArc
 50
77.66709689946558
 51
110.7718550452923
  0
CIRCLE
  5
F0
330
36
100
AcDbEntity
  8
1
  6
Continuous
 62
     7
100
AcDbCircle
 10
326.3430973375027
 20
272.290182346372
 30
0.0
 40
9.299930586467667
  0
CIRCLE
  5
F1
330
36
100
AcDbEntity
  8
1
  6
Continuous
 62
     7
100
AcDbCircle
 10
326.3430973375027
 20
272.290182346372
 30
0.0
 40
12.99999999999977
  0
CIRCLE
  5
F2
330
36
100
AcDbEntity
  8
1
  6
Continuous
 62
     2
100
AcDbCircle
 10
326.3430973375027
 20
272.290182346372
 30
0.0
 40
10.5
  0
ARC
  5
F3
330
36
100
AcDbEntity
  8
1
  6
Continuous
 62
     7
100
AcDbCircle
 10
162.5638783481011
 20
262.2901823463721
 30
0.0
 40
3.000000000000054
100
AcDbArc
 50
-104.5143030815571
 51
-90.0
  0
ARC
  5
F4
330
36
100
AcDbEntity
  8
1
  6
Continuous
 62
     7
100
AcDbCircle
 10
154.0468538426962
 20
246.0401823463721
 30
0.0
 40
14.99999999999996
100
AcDbArc
 50
71.80512766123366
 51
90.0
  0
ARC
  5
F5
330
36
100
AcDbEntity
  8
1
  6
Continuous
 62
     7
100
AcDbCircle
 10
158.8930637231865
 20
290.790182346372
 30
0.0
 40
2.0
100
AcDbArc
 50
-90.0
 51
-7.18075578139715
  0
ARC
  5
F6
330
36
100
AcDbEntity
  8
1
  6
Continuous
 62
     7
100
AcDbCircle
 10
157.6757596855262
 20
286.790182346372
 30
0.0
 40
2.0
100
AcDbArc
 50
90.0
 51
174.9999999999998
  0
ARC
  5
F7
330
36
100
AcDbEntity
  8
1
  6
Continuous
 62
     7
100
AcDbCircle
 10
153.5538730612192
 20
285.5716556271703
 30
0.0
 40
1.99999999999717
100
AcDbArc
 50
-84.1288518572423
 51
-4.99999999999981
  0
ENDBLK
  5
38
330
36
100
AcDbEntity
  8
0
100
AcDbBlockEnd
  0
BLOCK
  5
3A
330
39
100
AcDbEntity
  8
0
100
AcDbBlockBegin
  2
36-45A-M11
 70
     0
 71
     0
 10
582.0422565377066
 20
311.3173543257218
 30
0.0
  3
36-45A-M11
  1

  0
LINE
  5
F8
330
39
100
AcDbEntity
  8
1
  6
Continuous
 62
     7
100
AcDbLine
 10
173.4430973374913
 20
314.290182346372
 30
0.0
 11
173.4430973374913
 21
311.790182346372
 31
0.0
  0
LINE
  5
F9
330
39
100
AcDbEntity
  8
1
  6
Continuous
 62
     7
100
AcDbLine
 10
331.0930973375037
 20
313.290182346372
 30
0.0
 11
330.0930973375037
 21
314.290182346372
 31
0.0
  0
LINE
  5
FA
330
39
100
AcDbEntity
  8
1
  6
Continuous
 62
     7
100
AcDbLine
 10
327.2430973375036
 20
314.290182346372
 30
0.0
 11
330.0930973375037
 21
314.290182346372
 31
0.0
  0
LINE
  5
FB
330
39
100
AcDbEntity
  8
1
  6
Continuous
 62
     7
100
AcDbLine
 10
322.5930973375037
 20
314.290182346372
 30
0.0
 11
325.4430973375037
 21
314.290182346372
 31
0.0
  0
LINE
  5
FC
330
39
100
AcDbEntity
  8
1
  6
Continuous
 62
     7
100
AcDbLine
 10
322.5930973375037
 20
314.290182346372
 30
0.0
 11
321.5930973375037
 21
313.290182346372
 31
0.0
  0
LINE
  5
FD
330
39
100
AcDbEntity
  8
1
  6
Continuous
 62
     7
100
AcDbLine
 10
321.5930973375037
 20
313.290182346372
 30
0.0
 11
321.5930973375037
 21
311.790182346372
 31
0.0
  0
LINE
  5
FE
330
39
100
AcDbEntity
  8
0
  6
Continuous
 62
     7
100
AcDbLine
 10
325.4430973375037
 20
314.290182346372
 30
0.0
 11
327.2430973375036
 21
314.290182346372
 31
0.0
  0
LINE
  5
FF
330
39
100
AcDbEntity
  8
1
  6
Continuous
 62
     7
100
AcDbLine
 10
173.4430973374911
 20
428.9541398933485
 30
0.0
 11
173.4430973374911
 21
428.4734824790422
 31
0.0
  0
LINE
  5
100
330
39
100
AcDbEntity
  8
1
  6
Continuous
 62
     7
100
AcDbLine
 10
175.243097337491
 20
428.9541398933485
 30
0.0
 11
175.243097337491
 21
428.4734824790422
 31
0.0
  0
LINE
  5
101
330
39
100
AcDbEntity
  8
1
  6
Continuous
 62
     7
100
AcDbLine
 10
173.4430973374911
 20
428.4734824790422
 30
0.0
 11
173.4430973374911
 21
420.1068822137014
 31
0.0
  0
LINE
  5
102
330
39
100
AcDbEntity
  8
1
  6
Continuous
 62
     7
100
AcDbLine
 10
173.4430973374911
 20
420.1068822137014
 30
0.0
 11
173.4430973374911
 21
419.6262247993954
 31
0.0
  0
LINE
  5
103
330
39
100
AcDbEntity
  8
1
  6
Continuous
 62
     7
100
AcDbLine
 10
175.243097337491
 20
428.4734824790422
 30
0.0
 11
175.243097337491
 21
420.1068822137014
 31
0.0
  0
LINE
  5
104
330
39
100
AcDbEntity
  8
1
  6
Continuous
 62
     7
100
AcDbLine
 10
175.243097337491
 20
420.1068822137014
 30
0.0
 11
175.243097337491
 21
419.6262247993954
 31
0.0
  0
LINE
  5
105
330
39
100
AcDbEntity
  8
1
  6
Continuous
 62
     7
100
AcDbLine
 10
169.5930973374913
 20
313.290182346372
 30
0.0
 11
169.5930973374913
 21
311.790182346372
 31
0.0
  0
LINE
  5
106
330
39
100
AcDbEntity
  8
1
  6
Continuous
 62
     7
100
AcDbLine
 10
170.5930973374913
 20
314.290182346372
 30
0.0
 11
169.5930973374913
 21
313.290182346372
 31
0.0
  0
LINE
  5
107
330
39
100
AcDbEntity
  8
1
  6
Continuous
 62
     7
100
AcDbLine
 10
170.5930973374913
 20
314.290182346372
 30
0.0
 11
173.4430973374913
 21
314.290182346372
 31
0.0
  0
LINE
  5
108
330
39
100
AcDbEntity
  8
1
  6
Continuous
 62
     7
100
AcDbLine
 10
175.2430973374913
 20
314.290182346372
 30
0.0
 11
178.0930973374913
 21
314.290182346372
 31
0.0
  0
LINE
  5
109
330
39
100
AcDbEntity
  8
1
  6
Continuous
 62
     7
100
AcDbLine
 10
179.0930973374913
 20
313.290182346372
 30
0.0
 11
178.0930973374913
 21
314.290182346372
 31
0.0
  0
LINE
  5
10A
330
39
100
AcDbEntity
  8
1
  6
Continuous
 62
     7
100
AcDbLine
 10
331.0930973375037
 20
311.790182346372
 30
0.0
 11
331.0930973375037
 21
313.290182346372
 31
0.0
  0
LINE
  5
10B
330
39
100
AcDbEntity
  8
1
  6
Continuous
 62
     7
100
AcDbLine
 10
179.0930973374913
 20
311.790182346372
 30
0.0
 11
179.0930973374913
 21
313.290182346372
 31
0.0
  0
LINE
  5
10C
330
39
100
AcDbEntity
  8
1
  6
Continuous
 62
     7
100
AcDbLine
 10
321.5930973375037
 20
313.290182346372
 30
0.0
 11
331.0930973375037
 21
313.290182346372
 31
0.0
  0
LINE
  5
10D
330
39
100
AcDbEntity
  8
1
  6
Continuous
 62
     7
100
AcDbLine
 10
175.2430973374913
 20
311.790182346372
 30
0.0
 11
175.2430973374913
 21
314.290182346372
 31
0.0
  0
ARC
  5
10E
330
39
100
AcDbEntity
  8
1
  6
Continuous
 62
     7
100
AcDbCircle
 10
174.343097337491
 20
424.2901823463718
 30
0.0
 40
4.249999999999875
100
AcDbArc
 50
-77.77421140684207
 51
77.77421140684257
  0
ARC
  5
10F
330
39
100
AcDbEntity
  8
1
  6
Continuous
 62
     7
100
AcDbCircle
 10
174.343097337491
 20
424.2901823463718
 30
0.0
 40
4.250000000000018
100
AcDbArc
 50
102.2257885931559
 51
-102.2257885931564
  0
ARC
  5
110
330
39
100
AcDbEntity
  8
1
  6
Continuous
 62
     7
100
AcDbCircle
 10
174.343097337491
 20
424.2901823463718
 30
0.0
 40
4.750000000000078
100
AcDbArc
 50
99.08472028739094
 51
-99.08472028739136
  0
ARC
  5
111
330
39
100
AcDbEntity
  8
1
  6
Continuous
 62
     7
100
AcDbCircle
 10
174.343097337491
 20
424.2901823463718
 30
0.0
 40
4.750000000000078
100
AcDbArc
 50
80.91527971260908
 51
99.08472028739094
  0
ARC
  5
112
330
39
100
AcDbEntity
  8
1
  6
Continuous
 62
     7
100
AcDbCircle
 10
174.343097337491
 20
424.2901823463718
 30
0.0
 40
4.749999999999854
100
AcDbArc
 50
-80.91527971260865
 51
80.91527971260908
  0
ARC
  5
113
330
39
100
AcDbEntity
  8
1
  6
Continuous
 62
     7
100
AcDbCircle
 10
174.343097337491
 20
424.2901823463718
 30
0.0
 40
4.749999999999854
100
AcDbArc
 50
-99.08472028739136
 51
-80.91527971260865
  0
ENDBLK
  5
3B
330
39
100
AcDbEntity
  8
0
100
AcDbBlockEnd
  0
BLOCK
  5
3D
330
3C
100
AcDbEntity
  8
0
100
AcDbBlockBegin
  2
37-1-13
 70
     0
 71
     0
 10
82.54186712072035
 20
200.7944764562274
 30
0.0
  3
37-1-13
  1

  0
LINE
  5
114
330
3C
100
AcDbEntity
  8
1
  6
Continuous
 62
     7
100
AcDbLine
 10
338.9230973375037
 20
304.8249196788681
 30
0.0
 11
313.7630973375037
 21
304.8249196788681
 31
0.0
  0
LINE
  5
115
330
3C
100
AcDbEntity
  8
1
  6
Continuous
 62
     7
100
AcDbLine
 10
174.3430973374913
 20
437.2901823463723
 30
0.0
 11
180.7657136268238
 21
437.2901823463723
 31
0.0
  0
LINE
  5
116
330
3C
100
AcDbEntity
  8
1
  6
Continuous
 62
     7
100
AcDbLine
 10
167.9204810481587
 20
437.2901823463723
 30
0.0
 11
174.3430973374913
 21
437.2901823463723
 31
0.0
  0
LINE
  5
117
330
3C
100
AcDbEntity
  8
1
  6
Continuous
 62
     7
100
AcDbLine
 10
163.0847670882936
 20
430.7901823463723
 30
0.0
 11
166.2960752329598
 21
436.3523312116939
 31
0.0
  0
LINE
  5
118
330
3C
100
AcDbEntity
  8
1
  6
Continuous
 62
     7
100
AcDbLine
 10
159.8734589436273
 20
425.2280334810506
 30
0.0
 11
163.0847670882936
 21
430.7901823463723
 31
0.0
  0
LINE
  5
119
330
3C
100
AcDbEntity
  8
1
  6
Continuous
 62
     7
100
AcDbLine
 10
163.0847670882936
 20
417.7901823463724
 30
0.0
 11
159.8734589436273
 21
423.3523312116942
 31
0.0
  0
LINE
  5
11A
330
3C
100
AcDbEntity
  8
1
  6
Continuous
 62
     7
100
AcDbLine
 10
166.2960752329598
 20
412.2280334810506
 30
0.0
 11
163.0847670882936
 21
417.7901823463724
 31
0.0
  0
LINE
  5
11B
330
3C
100
AcDbEntity
  8
1
  6
Continuous
 62
     7
100
AcDbLine
 10
174.3430973374913
 20
411.2901823463724
 30
0.0
 11
167.9204810481587
 21
411.2901823463724
 31
0.0
  0
LINE
  5
11C
330
3C
100
AcDbEntity
  8
1
  6
Continuous
 62
     7
100
AcDbLine
 10
180.7657136268238
 20
411.2901823463724
 30
0.0
 11
174.3430973374913
 21
411.2901823463724
 31
0.0
  0
LINE
  5
11D
330
3C
100
AcDbEntity
  8
1
  6
Continuous
 62
     7
100
AcDbLine
 10
185.601427586689
 20
417.7901823463724
 30
0.0
 11
182.3901194420227
 21
412.2280334810506
 31
0.0
  0
LINE
  5
11E
330
3C
100
AcDbEntity
  8
1
  6
Continuous
 62
     7
100
AcDbLine
 10
188.8127357313553
 20
423.3523312116942
 30
0.0
 11
185.601427586689
 21
417.7901823463724
 31
0.0
  0
LINE
  5
11F
330
3C
100
AcDbEntity
  8
1
  6
Continuous
 62
     7
100
AcDbLine
 10
182.3901194420227
 20
436.3523312116939
 30
0.0
 11
185.601427586689
 21
430.7901823463723
 31
0.0
  0
LINE
  5
120
330
3C
100
AcDbEntity
  8
1
  6
Continuous
 62
     7
100
AcDbLine
 10
185.601427586689
 20
430.7901823463723
 30
0.0
 11
188.8127357313553
 21
425.2280334810506
 31
0.0
  0
LINE
  5
121
330
3C
100
AcDbEntity
  8
1
  6
Continuous
 62
     7
100
AcDbLine
 10
313.3430973375037
 20
304.8249196788681
 30
0.0
 11
313.3430973375037
 21
297.7542054645968
 31
0.0
  0
LINE
  5
122
330
3C
100
AcDbEntity
  8
1
  6
Continuous
 62
     7
100
AcDbLine
 10
332.3430973375037
 20
311.7542054645968
 30
0.0
 11
320.3430973375037
 21
311.7542054645968
 31
0.0
  0
LINE
  5
123
330
3C
100
AcDbEntity
  8
1
  6
Continuous
 62
     7
100
AcDbLine
 10
339.3430973375037
 20
297.7542054645968
 30
0.0
 11
313.3430973375037
 21
297.7542054645968
 31
0.0
  0
LINE
  5
124
330
3C
100
AcDbEntity
  8
1
  6
Continuous
 62
     7
100
AcDbLine
 10
339.3430973375037
 20
304.8249196788681
 30
0.0
 11
339.3430973375037
 21
297.7542054645968
 31
0.0
  0
LINE
  5
125
330
3C
100
AcDbEntity
  8
1
  6
Continuous
 62
     7
100
AcDbLine
 10
174.9652230678223
 20
297.790182346372
 30
0.0
 11
161.27238312322
 21
297.790182346372
 31
0.0
  0
LINE
  5
126
330
3C
100
AcDbEntity
  8
1
  6
Continuous
 62
     7
100
AcDbLine
 10
187.4138115517629
 20
297.790182346372
 30
0.0
 11
173.72097160716
 21
297.790182346372
 31
0.0
  0
LINE
  5
127
330
3C
100
AcDbEntity
  8
1
  6
Continuous
 62
     7
100
AcDbLine
 10
161.8430973374915
 20
305.290182346372
 30
0.0
 11
174.3430973374913
 21
305.290182346372
 31
0.0
  0
LINE
  5
128
330
3C
100
AcDbEntity
  8
1
  6
Continuous
 62
     7
100
AcDbLine
 10
174.3430973374913
 20
305.290182346372
 30
0.0
 11
186.8430973374912
 21
305.290182346372
 31
0.0
  0
LINE
  5
129
330
3C
100
AcDbEntity
  8
1
  6
Continuous
 62
     7
100
AcDbLine
 10
180.3430973374913
 20
311.790182346372
 30
0.0
 11
168.3430973374913
 21
311.790182346372
 31
0.0
  0
ARC
  5
12A
330
3C
100
AcDbEntity
  8
1
  6
Continuous
 62
     7
100
AcDbCircle
 10
174.3430973374913
 20
424.2901823463724
 30
0.0
 40
14.49999999999983
100
AcDbArc
 50
56.29155527472896
 51
63.70844472527069
  0
ARC
  5
12B
330
3C
100
AcDbEntity
  8
1
  6
Continuous
 62
     7
100
AcDbCircle
 10
174.3430973374913
 20
424.2901823463724
 30
0.0
 40
14.49999999999996
100
AcDbArc
 50
116.2915552747295
 51
123.7084447252713
  0
ARC
  5
12C
330
3C
100
AcDbEntity
  8
1
  6
Continuous
 62
     7
100
AcDbCircle
 10
174.3430973374913
 20
424.2901823463724
 30
0.0
 40
12.99999999999994
100
AcDbArc
 50
90.0
 51
150.0000000000002
  0
ARC
  5
12D
330
3C
100
AcDbEntity
  8
1
  6
Continuous
 62
     7
100
AcDbCircle
 10
174.3430973374913
 20
424.2901823463724
 30
0.0
 40
14.5
100
AcDbArc
 50
176.2915552747295
 51
180.0
  0
ARC
  5
12E
330
3C
100
AcDbEntity
  8
1
  6
Continuous
 62
     7
100
AcDbCircle
 10
174.3430973374913
 20
424.2901823463724
 30
0.0
 40
14.5
100
AcDbArc
 50
180.0
 51
-176.2915552747297
  0
ARC
  5
12F
330
3C
100
AcDbEntity
  8
1
  6
Continuous
 62
     7
100
AcDbCircle
 10
174.3430973374913
 20
424.2901823463724
 30
0.0
 40
12.99999999999996
100
AcDbArc
 50
150.0000000000002
 51
-149.9999999999999
  0
ARC
  5
130
330
3C
100
AcDbEntity
  8
1
  6
Continuous
 62
     7
100
AcDbCircle
 10
174.3430973374913
 20
424.2901823463724
 30
0.0
 40
14.50000000000006
100
AcDbArc
 50
-123.7084447252708
 51
-116.2915552747294
  0
ARC
  5
131
330
3C
100
AcDbEntity
  8
1
  6
Continuous
 62
     7
100
AcDbCircle
 10
174.3430973374913
 20
424.2901823463724
 30
0.0
 40
12.99999999999998
100
AcDbArc
 50
-149.9999999999999
 51
-90.0
  0
ARC
  5
132
330
3C
100
AcDbEntity
  8
1
  6
Continuous
 62
     7
100
AcDbCircle
 10
174.3430973374913
 20
424.2901823463724
 30
0.0
 40
14.49999999999998
100
AcDbArc
 50
-63.70844472527077
 51
-56.29155527472947
  0
ARC
  5
133
330
3C
100
AcDbEntity
  8
1
  6
Continuous
 62
     7
100
AcDbCircle
 10
174.3430973374913
 20
424.2901823463724
 30
0.0
 40
13.0
100
AcDbArc
 50
-90.0
 51
-29.99999999999998
  0
ARC
  5
134
330
3C
100
AcDbEntity
  8
1
  6
Continuous
 62
     7
100
AcDbCircle
 10
174.3430973374913
 20
424.2901823463724
 30
0.0
 40
14.50000000000003
100
AcDbArc
 50
-3.7084447252703
 51
0.0
  0
ARC
  5
135
330
3C
100
AcDbEntity
  8
1
  6
Continuous
 62
     7
100
AcDbCircle
 10
174.3430973374913
 20
424.2901823463724
 30
0.0
 40
14.5
100
AcDbArc
 50
0.0
 51
3.70844472527052
  0
ARC
  5
136
330
3C
100
AcDbEntity
  8
1
  6
Continuous
 62
     7
100
AcDbCircle
 10
174.3430973374913
 20
424.2901823463724
 30
0.0
 40
13.00000000000001
100
AcDbArc
 50
-29.99999999999998
 51
29.99999999999976
  0
ARC
  5
137
330
3C
100
AcDbEntity
  8
1
  6
Continuous
 62
     7
100
AcDbCircle
 10
174.3430973374913
 20
424.2901823463724
 30
0.0
 40
12.99999999999998
100
AcDbArc
 50
29.99999999999976
 51
90.0
  0
ARC
  5
138
330
3C
100
AcDbEntity
  8
1
  6
Continuous
 62
     7
100
AcDbCircle
 10
316.8430973375037
 20
301.2542054645968
 30
0.0
 40
4.999999999999898
100
AcDbArc
 50
126.8698976458425
 51
134.4270040008064
  0
ARC
  5
139
330
3C
100
AcDbEntity
  8
1
  6
Continuous
 62
     7
100
AcDbCircle
 10
300.4366421323888
 20
325.1606606697118
 30
0.0
 40
24.00000000000015
100
AcDbArc
 50
-56.04080749990224
 51
-33.95919250009762
  0
ARC
  5
13A
330
3C
100
AcDbEntity
  8
1
  6
Continuous
 62
     7
100
AcDbCircle
 10
335.8430973375037
 20
301.2542054645968
 30
0.0
 40
4.999999999999934
100
AcDbArc
 50
45.57299599919357
 51
53.13010235415598
  0
ARC
  5
13B
330
3C
100
AcDbEntity
  8
1
  6
Continuous
 62
     7
100
AcDbCircle
 10
352.2495525426186
 20
325.1606606697118
 30
0.0
 40
23.99999999999999
100
AcDbArc
 50
-146.0408074999023
 51
-123.9591925000973
  0
ARC
  5
13C
330
3C
100
AcDbEntity
  8
1
  6
Continuous
 62
     7
100
AcDbCircle
 10
164.8430973374913
 20
301.290182346372
 30
0.0
 40
4.999999999999863
100
AcDbArc
 50
126.869897645842
 51
-135.5729959991931
  0
ARC
  5
13D
330
3C
100
AcDbEntity
  8
1
  6
Continuous
 62
     7
100
AcDbCircle
 10
183.8430973374913
 20
301.290182346372
 30
0.0
 40
5.000000000000138
100
AcDbArc
 50
-44.42700400080416
 51
53.13010235415676
  0
ARC
  5
13E
330
3C
100
AcDbEntity
  8
1
  6
Continuous
 62
     7
100
AcDbCircle
 10
200.2495525426063
 20
325.1966375514866
 30
0.0
 40
23.99999999999992
100
AcDbArc
 50
-146.0408074999032
 51
-123.9591925000982
  0
ARC
  5
13F
330
3C
100
AcDbEntity
  8
1
  6
Continuous
 62
     7
100
AcDbCircle
 10
148.4366421323765
 20
325.1966375514868
 30
0.0
 40
23.99999999999995
100
AcDbArc
 50
-56.04080749990219
 51
-33.95919250009747
  0
CIRCLE
  5
140
330
3C
100
AcDbEntity
  8
1
  6
Continuous
 62
     7
100
AcDbCircle
 10
174.3430973374913
 20
424.2901823463724
 30
0.0
 40
6.0
  0
CIRCLE
  5
141
330
3C
100
AcDbEntity
  8
1
  6
Continuous
 62
     7
100
AcDbCircle
 10
174.3430973374913
 20
424.2901823463724
 30
0.0
 40
5.0
  0
SPLINE
  5
142
330
3C
100
AcDbEntity
  8
1
  6
Continuous
 62
     7
100
AcDbSpline
210
0.0
220
0.0
230
1.0
 70
    11
 71
     3
 72
    79
 73
    75
 74
    73
 42
0.0000000001
 43
0.0000000001
 44
0.00000001
 40
0.0
 40
0.0
 40
0.0
 40
0.0
 40
0.3114713439932327
 40
0.6228035292710406
 40
0.9472403639552054
 40
1.271464858045332
 40
1.614803252700141
 40
1.957928915792497
 40
2.323150649725037
 40
2.6881974776051
 40
3.075390759585841
 40
3.462454984676971
 40
3.869243829725864
 40
4.275944688499287
 40
4.698050018426432
 40
5.120101305007974
 40
5.551913313124694
 40
5.983699714913286
 40
6.418825159681759
 40
6.853950604450204
 40
7.285737006238909
 40
7.717549014355694
 40
8.139600300937181
 40
8.561705630864411
 40
8.96840648963788
 40
9.375195334686826
 40
9.762259559777878
 40
10.14945284175865
 40
10.51449966963873
 40
10.87972140357124
 40
11.2228470666636
 40
11.56618546131843
 40
11.89040995540864
 40
12.21484679009279
 40
12.52617897537066
 40
12.83765031936383
 40
13.14443943074751
 40
13.45122854213119
 40
13.76269988612448
 40
14.07403207140225
 40
14.39846890608643
 40
14.72269340017651
 40
15.06603179483144
 40
15.40915745792383
 40
15.77437919185643
 40
16.1394260197364
 40
16.52661930171708
 40
16.91368352680819
 40
17.32047237185708
 40
17.72717323063056
 40
18.14927856055778
 40
18.57132984713934
 40
19.00314185525612
 40
19.43492825704471
 40
19.87005370181318
 40
20.30517914658162
 40
20.73696554837028
 40
21.16877755648703
 40
21.59082884306855
 40
22.01293417299571
 40
22.41963503176917
 40
22.82642387681811
 40
23.21348810190924
 40
23.60068138388999
 40
23.96572821176997
 40
24.33094994570249
 40
24.67407560879493
 40
25.01741400344982
 40
25.34163849753992
 40
25.66607533222402
 40
25.97740751750175
 40
26.28887886149499
 40
26.59566797287883
 40
26.90245708426257
 40
26.90245708426257
 40
26.90245708426257
 40
26.90245708426257
 10
179.3235239005396
 20
301.5963599347899
 30
0.0
 10
179.3069381870415
 20
301.6989904761512
 30
0.0
 10
179.2737741701861
 20
301.9042057057494
 30
0.0
 10
179.1748760094287
 20
302.205278861275
 30
0.0
 10
179.0430937784816
 20
302.4974638082373
 30
0.0
 10
178.8729803352572
 20
302.7818324791314
 30
0.0
 10
178.6707116358478
 20
303.0519732818261
 30
0.0
 10
178.433382446591
 20
303.3106947291312
 30
0.0
 10
178.1678552525534
 20
303.5512556239477
 30
0.0
 10
177.8708099891868
 20
303.7767032904015
 30
0.0
 10
177.5501994964
 20
303.9810237701652
 30
0.0
 10
177.2026380920292
 20
304.1666747796438
 30
0.0
 10
176.8364624714008
 20
304.3289837955131
 30
0.0
 10
176.4489782318526
 20
304.4694966172824
 30
0.0
 10
176.0480438926822
 20
304.5850735656463
 30
0.0
 10
175.6323591250494
 20
304.6764288185564
 30
0.0
 10
175.2085407634043
 20
304.7418079547868
 30
0.0
 10
174.777180076444
 20
304.7814359122691
 30
0.0
 10
174.3430973374932
 20
304.7945724075345
 30
0.0
 10
173.9090145985305
 20
304.78143591227
 30
0.0
 10
173.4776539116052
 20
304.7418079547834
 30
0.0
 10
173.0538355498326
 20
304.6764288185689
 30
0.0
 10
172.6381507826647
 20
304.5850735656002
 30
0.0
 10
172.2372164417887
 20
304.4694966174519
 30
0.0
 10
171.8497322083841
 20
304.3289837949052
 30
0.0
 10
171.4835565653705
 20
304.1666747818685
 30
0.0
 10
171.1359952406829
 20
303.9810237623068
 30
0.0
 10
170.8153844591731
 20
303.7767033190778
 30
0.0
 10
170.5183402147679
 20
303.5512555236858
 30
0.0
 10
170.2528093396974
 20
303.310695094663
 30
0.0
 10
170.0154931002555
 20
303.051972008703
 30
0.0
 10
169.8131775721465
 20
302.7818371316587
 30
0.0
 10
169.6432296906953
 20
302.4974475107658
 30
0.0
 10
169.5108449487181
 20
302.2053388048645
 30
0.0
 10
169.4141096421228
 20
301.9039919642312
 30
0.0
 10
169.356644403966
 20
301.5986968610685
 30
0.0
 10
169.3366931501539
 20
301.2901823463719
 30
0.0
 10
169.3566444039661
 20
300.9816678316751
 30
0.0
 10
169.4141096421228
 20
300.6763727285124
 30
0.0
 10
169.5108449487183
 20
300.375025887879
 30
0.0
 10
169.6432296906953
 20
300.0829171819779
 30
0.0
 10
169.8131775721466
 20
299.798527561085
 30
0.0
 10
170.0154931002556
 20
299.5283926840407
 30
0.0
 10
170.2528093396976
 20
299.2696695980807
 30
0.0
 10
170.518340214768
 20
299.0291091690578
 30
0.0
 10
170.8153844591734
 20
298.8036613736661
 30
0.0
 10
171.1359952406831
 20
298.5993409304371
 30
0.0
 10
171.4835565653708
 20
298.4136899108754
 30
0.0
 10
171.8497322083843
 20
298.2513808978387
 30
0.0
 10
172.2372164417889
 20
298.1108680752919
 30
0.0
 10
172.638150782665
 20
297.9952911271438
 30
0.0
 10
173.0538355498329
 20
297.9039358741748
 30
0.0
 10
173.4776539116054
 20
297.8385567379605
 30
0.0
 10
173.9090145985311
 20
297.7989287804738
 30
0.0
 10
174.3430973374915
 20
297.7857922852097
 30
0.0
 10
174.777180076451
 20
297.7989287804738
 30
0.0
 10
175.2085407633794
 20
297.8385567379607
 30
0.0
 10
175.6323591251427
 20
297.9039358741742
 30
0.0
 10
176.0480438923437
 20
297.9952911271471
 30
0.0
 10
176.4489782330983
 20
298.1108680752799
 30
0.0
 10
176.8364624669405
 20
298.2513808978821
 30
0.0
 10
177.2026381083592
 20
298.4136899107169
 30
0.0
 10
177.5501994387241
 20
298.5993409309971
 30
0.0
 10
177.8708101996626
 20
298.8036613716232
 30
0.0
 10
178.1678545166682
 20
299.0291091762018
 30
0.0
 10
178.4333851294676
 20
299.2696695720372
 30
0.0
 10
178.6707022915751
 20
299.5283927747501
 30
0.0
 10
178.8730144831707
 20
299.798527229596
 30
0.0
 10
179.0429741607871
 20
300.082918343162
 30
0.0
 10
179.1753159742581
 20
300.3750216169389
 30
0.0
 10
179.2722053827592
 20
300.6763879574522
 30
0.0
 10
179.3291031317987
 20
300.9816112511869
 30
0.0
 10
179.3511425062692
 20
301.2903899942988
 30
0.0
 10
179.3327301024495
 20
301.4943699546262
 30
0.0
 10
179.3235239005396
 20
301.5963599347899
 30
0.0
 11
179.3235239005396
 21
301.5963599347899
 31
0.0
 11
179.2657980021854
 21
301.9024352830102
 31
0.0
 11
179.1712333307202
 21
302.1990583645472
 31
0.0
 11
179.0375131117656
 21
302.4946563394094
 31
0.0
 11
178.8717474657932
 21
302.7733017649655
 31
0.0
 11
178.666283978419
 21
303.0483763159515
 31
0.0
 11
178.4347609783248
 21
303.3016199162655
 31
0.0
 11
178.1644420372464
 21
303.5472101950449
 31
0.0
 11
177.8739356489946
 21
303.7682649957849
 31
0.0
 11
177.5476704751935
 21
303.9767588181767
 31
0.0
 11
177.2064190328987
 21
304.1594229018853
 31
0.0
 11
176.8346871149051
 21
304.3246274587261
 31
0.0
 11
176.4524268123675
 21
304.4634894392354
 31
0.0
 11
176.0469180135332
 21
304.5806880894871
 31
0.0
 11
175.6347309502473
 21
304.6714025501036
 31
0.0
 11
175.2079949386096
 21
304.737417599337
 31
0.0
 11
174.7780212809841
 21
304.7769416492017
 31
0.0
 11
174.3430973374912
 21
304.7901823463719
 31
0.0
 11
173.9081733939983
 21
304.7769416492017
 31
0.0
 11
173.4781997363727
 21
304.737417599337
 31
0.0
 11
173.0514637247349
 21
304.6714025501035
 31
0.0
 11
172.6392766614491
 21
304.5806880894871
 31
0.0
 11
172.2337678626147
 21
304.4634894392352
 31
0.0
 11
171.8515075600772
 21
304.3246274587259
 31
0.0
 11
171.4797756420835
 21
304.159422901885
 31
0.0
 11
171.1385241997887
 21
303.9767588181765
 31
0.0
 11
170.8122590259876
 21
303.7682649957847
 31
0.0
 11
170.5217526377358
 21
303.5472101950446
 31
0.0
 11
170.2514336966575
 21
303.3016199162652
 31
0.0
 11
170.0199106965632
 21
303.0483763159513
 31
0.0
 11
169.8144472091892
 21
302.7733017649651
 31
0.0
 11
169.6486815632167
 21
302.494656339409
 31
0.0
 11
169.5149613442622
 21
302.1990583645468
 31
0.0
 11
169.420396672797
 21
301.9024352830097
 31
0.0
 11
169.3626707744428
 21
301.5963599347895
 31
0.0
 11
169.3433099063234
 21
301.2901823463718
 31
0.0
 11
169.3626707744429
 21
300.9840047579542
 31
0.0
 11
169.4203966727971
 21
300.6779294097339
 31
0.0
 11
169.5149613442623
 21
300.3813063281968
 31
0.0
 11
169.6486815632168
 21
300.0857083533346
 31
0.0
 11
169.8144472091893
 21
299.8070629277786
 31
0.0
 11
170.0199106965634
 21
299.5319883767924
 31
0.0
 11
170.2514336966577
 21
299.2787447764785
 31
0.0
 11
170.5217526377361
 21
299.0331544976989
 31
0.0
 11
170.8122590259878
 21
298.8120996969591
 31
0.0
 11
171.1385241997889
 21
298.6036058745673
 31
0.0
 11
171.4797756420837
 21
298.4209417908588
 31
0.0
 11
171.8515075600774
 21
298.2557372340179
 31
0.0
 11
172.2337678626149
 21
298.1168752535086
 31
0.0
 11
172.6392766614493
 21
297.9996766032568
 31
0.0
 11
173.0514637247352
 21
297.9089621426403
 31
0.0
 11
173.478199736373
 21
297.8429470934069
 31
0.0
 11
173.9081733939985
 21
297.8034230435422
 31
0.0
 11
174.3430973374914
 21
297.790182346372
 31
0.0
 11
174.7780212809842
 21
297.8034230435422
 31
0.0
 11
175.2079949386098
 21
297.842947093407
 31
0.0
 11
175.6347309502476
 21
297.9089621426405
 31
0.0
 11
176.0469180135334
 21
297.9996766032569
 31
0.0
 11
176.4524268123677
 21
298.1168752535087
 31
0.0
 11
176.8346871149053
 21
298.2557372340181
 31
0.0
 11
177.2064190328989
 21
298.4209417908589
 31
0.0
 11
177.5476704751937
 21
298.6036058745676
 31
0.0
 11
177.8739356489948
 21
298.8120996969594
 31
0.0
 11
178.1644420372466
 21
299.0331544976993
 31
0.0
 11
178.4347609783249
 21
299.2787447764788
 31
0.0
 11
178.6662839784192
 21
299.5319883767927
 31
0.0
 11
178.8717474657933
 21
299.8070629277789
 31
0.0
 11
179.0375131117657
 21
300.085708353335
 31
0.0
 11
179.1712333307203
 21
300.3813063281971
 31
0.0
 11
179.2657980021854
 21
300.6779294097341
 31
0.0
 11
179.3235239005396
 21
300.9840047579544
 31
0.0
 11
179.342884768659
 21
301.2901823463722
 31
0.0
 11
179.3235239005396
 21
301.5963599347899
 31
0.0
  0
SPLINE
  5
143
330
3C
100
AcDbEntity
  8
1
  6
Continuous
 62
     7
100
AcDbSpline
210
0.0
220
0.0
230
1.0
 70
    11
 71
     3
 72
    79
 73
    75
 74
    73
 42
0.0000000001
 43
0.0000000001
 44
0.00000001
 40
0.0
 40
0.0
 40
0.0
 40
0.0
 40
0.2811775426108968
 40
0.5623408931991573
 40
0.8457466631365727
 40
1.12912683042266
 40
1.415908903032235
 40
1.702658539054504
 40
1.993527432940167
 40
2.284362055943256
 40
2.579517800564201
 40
2.874641782101666
 40
3.173769982296589
 40
3.472872122787995
 40
3.77519969233723
 40
4.077508957859544
 40
4.38190522513939
 40
4.686292091405274
 40
4.991400459518958
 40
5.296508827632584
 40
5.600895693898526
 40
5.905291961178322
 40
6.207601226700628
 40
6.509928796249743
 40
6.809030936741098
 40
7.108159136936013
 40
7.403283118473555
 40
7.698438863094569
 40
7.989273486097678
 40
8.280142379983319
 40
8.566892016005621
 40
8.853674088615195
 40
9.137054255901257
 40
9.420460025838681
 40
9.701623376426982
 40
9.982800919037798
 40
10.26319552186805
 40
10.54359012469831
 40
10.82476766730921
 40
11.10593101789761
 40
11.38933678783516
 40
11.67271695512127
 40
11.9594990277309
 40
12.24624866375308
 40
12.53711755763864
 40
12.82795218064169
 40
13.12310792526272
 40
13.41823190680028
 40
13.71736010699526
 40
14.01646224748663
 40
14.31878981703573
 40
14.62109908255802
 40
14.92549534983781
 40
15.2298822161038
 40
15.53499058421749
 40
15.84009895233118
 40
16.14448581859712
 40
16.44888208587683
 40
16.75119135139912
 40
17.05351892094836
 40
17.35262106143973
 40
17.65174926163463
 40
17.9468732431721
 40
18.2420289877931
 40
18.53286361079629
 40
18.82373250468186
 40
19.11048214070418
 40
19.3972642133137
 40
19.68064438059981
 40
19.96405015053733
 40
20.24521350112572
 40
20.52639104373664
 40
20.80678564656687
 40
21.08718024939712
 40
21.08718024939712
 40
21.08718024939712
 40
21.08718024939712
 10
162.8046919936957
 20
304.7768004674905
 30
0.0
 10
162.7115959186053
 20
304.7653493454006
 30
0.0
 10
162.5254084673117
 20
304.7424476791992
 30
0.0
 10
162.2511710140057
 20
304.6744103881505
 30
0.0
 10
161.9834443466988
 20
304.5827882591771
 30
0.0
 10
161.7238838585304
 20
304.4651772713921
 30
0.0
 10
161.4751495661634
 20
304.3239589481731
 30
0.0
 10
161.2383354613727
 20
304.1591369774284
 30
0.0
 10
161.0160770973059
 20
303.9730596802635
 30
0.0
 10
160.8092217101708
 20
303.7660348306523
 30
0.0
 10
160.6201079066575
 20
303.5408360329383
 30
0.0
 10
160.4494595225067
 20
303.2979711274088
 30
0.0
 10
160.2991422052569
 20
303.0405024963987
 30
0.0
 10
160.1698188698962
 20
302.7692245991272
 30
0.0
 10
160.0627859424579
 20
302.4872714452198
 30
0.0
 10
159.9786388047959
 20
302.1958342918501
 30
0.0
 10
159.918094296088
 20
301.8978963483925
 30
0.0
 10
159.8816070993487
 20
301.5951306835922
 30
0.0
 10
159.8693800429976
 20
301.2901823463727
 30
0.0
 10
159.8816070993485
 20
300.985234009148
 30
0.0
 10
159.9180942960892
 20
300.6824683443643
 30
0.0
 10
159.9786388047913
 20
300.3845304008451
 30
0.0
 10
160.062785942475
 20
300.0930932477043
 30
0.0
 10
160.1698188698323
 20
299.811140092947
 30
0.0
 10
160.2991422054931
 20
299.5398621988157
 30
0.0
 10
160.4494595216304
 20
299.2823935561637
 30
0.0
 10
160.6201079098792
 20
299.0395286935267
 30
0.0
 10
160.8092216982147
 20
298.8143297369497
 30
0.0
 10
161.016077141203
 20
298.6073054719463
 30
0.0
 10
161.2383352984255
 20
298.4212260097621
 30
0.0
 10
161.4751501647585
 20
298.2564120100083
 30
0.0
 10
161.7238816344004
 20
298.1151641415945
 30
0.0
 10
161.9834525382868
 20
297.9976621741404
 30
0.0
 10
162.2511405295571
 20
297.9056352267706
 30
0.0
 10
162.5255212404401
 20
297.8390973991505
 30
0.0
 10
162.8040122519036
 20
297.7991946155381
 30
0.0
 10
163.0847670882934
 20
297.7856824942086
 30
0.0
 10
163.3655219246834
 20
297.7991946155382
 30
0.0
 10
163.6440129361469
 20
297.8390973991506
 30
0.0
 10
163.91839364703
 20
297.9056352267706
 30
0.0
 10
164.1860816383004
 20
297.9976621741405
 30
0.0
 10
164.4456525421869
 20
298.1151641415945
 30
0.0
 10
164.6943840118288
 20
298.2564120100084
 30
0.0
 10
164.9311988781618
 20
298.4212260097621
 30
0.0
 10
165.1534570353843
 20
298.6073054719462
 30
0.0
 10
165.3603124783724
 20
298.8143297369497
 30
0.0
 10
165.5494262667079
 20
299.0395286935267
 30
0.0
 10
165.7200746549567
 20
299.2823935561636
 30
0.0
 10
165.8703919710942
 20
299.5398621988157
 30
0.0
 10
165.999715306755
 20
299.8111400929469
 30
0.0
 10
166.1067482341122
 20
300.0930932477041
 30
0.0
 10
166.1908953717959
 20
300.384530400845
 30
0.0
 10
166.251439880498
 20
300.6824683443643
 30
0.0
 10
166.2879270772387
 20
300.9852340091482
 30
0.0
 10
166.3001541335895
 20
301.290182346372
 30
0.0
 10
166.2879270772387
 20
301.5951306835954
 30
0.0
 10
166.2514398804977
 20
301.8978963483803
 30
0.0
 10
166.1908953717963
 20
302.1958342918953
 30
0.0
 10
166.1067482341111
 20
302.4872714450524
 30
0.0
 10
165.9997153067597
 20
302.769224599749
 30
0.0
 10
165.8703919710775
 20
303.0405024941055
 30
0.0
 10
165.7200746550196
 20
303.2979711359226
 30
0.0
 10
165.5494262664768
 20
303.5408360016346
 30
0.0
 10
165.3603124792296
 20
303.7660349468218
 30
0.0
 10
165.1534570322371
 20
303.9730592537395
 30
0.0
 10
164.9311988898444
 20
304.1591385607006
 30
0.0
 10
164.694383968912
 20
304.3239531319413
 30
0.0
 10
164.4456527016477
 20
304.4651988820874
 30
0.0
 10
164.1860810509975
 20
304.5827086658461
 30
0.0
 10
163.9183958326382
 20
304.6747065894197
 30
0.0
 10
163.6440048507824
 20
304.7413519223347
 30
0.0
 10
163.3655520738946
 20
304.7808545082814
 30
0.0
 10
163.084654916684
 20
304.795856288099
 30
0.0
 10
162.8980129680252
 20
304.7831524076933
 30
0.0
 10
162.8046919936957
 20
304.7768004674905
 30
0.0
 11
162.8046919936957
 21
304.7768004674905
 31
0.0
 11
162.5263652399621
 21
304.7368626580265
 31
0.0
 11
162.2530912054133
 21
304.6707254388875
 31
0.0
 11
161.9850865345842
 21
304.5785716172217
 31
0.0
 11
161.7268648965666
 21
304.461841565947
 31
0.0
 11
161.4774782532161
 21
304.320242627785
 31
0.0
 11
161.2420318753599
 21
304.1565650272609
 31
0.0
 11
161.0189800265357
 21
303.9698765536843
 31
0.0
 11
160.8133119699405
 21
303.7642423434135
 31
0.0
 11
160.6234605651961
 21
303.5382481892871
 31
0.0
 11
160.4536876338246
 21
303.2968453801649
 31
0.0
 11
160.3028259513912
 21
303.0385462649414
 31
0.0
 11
160.1740260844597
 21
302.7685968535234
 31
0.0
 11
160.066693852446
 21
302.485963254529
 31
0.0
 11
159.9827658308836
 21
302.1955377404686
 31
0.0
 11
159.922131180188
 21
301.8972417018276
 31
0.0
 11
159.8856728292718
 21
301.5950461475856
 31
0.0
 11
159.8734589436273
 21
301.2901823463719
 31
0.0
 11
159.8856728292718
 21
300.9853185451582
 31
0.0
 11
159.922131180188
 21
300.6831229909162
 31
0.0
 11
159.9827658308836
 21
300.3848269522752
 31
0.0
 11
160.066693852446
 21
300.0944014382148
 31
0.0
 11
160.1740260844598
 21
299.8117678392206
 31
0.0
 11
160.3028259513914
 21
299.5418184278026
 31
0.0
 11
160.4536876338246
 21
299.2835193125791
 31
0.0
 11
160.623460565196
 21
299.0421165034568
 31
0.0
 11
160.8133119699405
 21
298.8161223493303
 31
0.0
 11
161.0189800265357
 21
298.6104881390595
 31
0.0
 11
161.2420318753599
 21
298.4237996654829
 31
0.0
 11
161.4774782532161
 21
298.2601220649588
 31
0.0
 11
161.7268648965666
 21
298.1185231267967
 31
0.0
 11
161.9850865345842
 21
298.001793075522
 31
0.0
 11
162.2530912054133
 21
297.9096392538563
 31
0.0
 11
162.5263652399621
 21
297.8435020347172
 31
0.0
 11
162.8046919936957
 21
297.8035642252534
 31
0.0
 11
163.0847670882935
 21
297.7901823463719
 31
0.0
 11
163.3648421828912
 21
297.8035642252535
 31
0.0
 11
163.6431689366249
 21
297.8435020347173
 31
0.0
 11
163.9164429711738
 21
297.9096392538563
 31
0.0
 11
164.1844476420031
 21
298.0017930755221
 31
0.0
 11
164.4426692800207
 21
298.1185231267968
 31
0.0
 11
164.6920559233712
 21
298.2601220649589
 31
0.0
 11
164.9275023012274
 21
298.4237996654828
 31
0.0
 11
165.1505541500515
 21
298.6104881390594
 31
0.0
 11
165.3562222066466
 21
298.8161223493302
 31
0.0
 11
165.5460736113911
 21
299.0421165034567
 31
0.0
 11
165.7158465427625
 21
299.283519312579
 31
0.0
 11
165.8667082251959
 21
299.5418184278025
 31
0.0
 11
165.9955080921275
 21
299.8117678392205
 31
0.0
 11
166.1028403241412
 21
300.0944014382147
 31
0.0
 11
166.1867683457036
 21
300.3848269522752
 31
0.0
 11
166.2474029963992
 21
300.6831229909161
 31
0.0
 11
166.2838613473153
 21
300.9853185451582
 31
0.0
 11
166.2960752329599
 21
301.2901823463719
 31
0.0
 11
166.2838613473153
 21
301.5950461475856
 31
0.0
 11
166.2474029963991
 21
301.8972417018277
 31
0.0
 11
166.1867683457036
 21
302.1955377404686
 31
0.0
 11
166.1028403241413
 21
302.485963254529
 31
0.0
 11
165.9955080921276
 21
302.7685968535234
 31
0.0
 11
165.866708225196
 21
303.0385462649414
 31
0.0
 11
165.7158465427625
 21
303.2968453801648
 31
0.0
 11
165.546073611391
 21
303.5382481892869
 31
0.0
 11
165.3562222066467
 21
303.7642423434135
 31
0.0
 11
165.1505541500515
 21
303.9698765536845
 31
0.0
 11
164.9275023012274
 21
304.156565027261
 31
0.0
 11
164.6920559233711
 21
304.320242627785
 31
0.0
 11
164.4426692800207
 21
304.461841565947
 31
0.0
 11
164.184447642003
 21
304.5785716172217
 31
0.0
 11
163.9164429711738
 21
304.6707254388875
 31
0.0
 11
163.6431689366249
 21
304.7368626580266
 31
0.0
 11
163.3648421828912
 21
304.7768004674905
 31
0.0
 11
163.0847670882935
 21
304.790182346372
 31
0.0
 11
162.8046919936957
 21
304.7768004674905
 31
0.0
  0
SPLINE
  5
144
330
3C
100
AcDbEntity
  8
1
  6
Continuous
 62
     7
100
AcDbSpline
210
0.0
220
0.0
230
1.0
 70
    11
 71
     3
 72
    79
 73
    75
 74
    73
 42
0.0000000001
 43
0.0000000001
 44
0.00000001
 40
0.0
 40
0.0
 40
0.0
 40
0.0
 40
0.2811775426108406
 40
0.5623408931991839
 40
0.8457466631365724
 40
1.129126830422634
 40
1.415908903032159
 40
1.702658539054452
 40
1.993527432940136
 40
2.284362055943225
 40
2.579517800564207
 40
2.874641782101671
 40
3.173769982296595
 40
3.472872122787989
 40
3.775199692337224
 40
4.077508957859537
 40
4.381905225139384
 40
4.686292091405266
 40
4.991400459518951
 40
5.29650882763258
 40
5.600895693898518
 40
5.905291961178309
 40
6.207601226700637
 40
6.509928796249723
 40
6.80903093674109
 40
7.10815913693602
 40
7.403283118473544
 40
7.698438863094577
 40
7.989273486097625
 40
8.28014237998331
 40
8.566892016005612
 40
8.853674088615186
 40
9.137054255901274
 40
9.420460025838699
 40
9.701623376427055
 40
9.982800919037871
 40
10.26319552186807
 40
10.54359012469833
 40
10.82476766730923
 40
11.1059310178976
 40
11.38933678783512
 40
11.67271695512124
 40
11.95949902773086
 40
12.24624866375304
 40
12.53711755763863
 40
12.82795218064169
 40
13.12310792526273
 40
13.41823190680028
 40
13.71736010699526
 40
14.01646224748664
 40
14.31878981703572
 40
14.62109908255802
 40
14.9254953498378
 40
15.2298822161038
 40
15.53499058421749
 40
15.84009895233117
 40
16.14448581859712
 40
16.44888208587684
 40
16.75119135139913
 40
17.05351892094837
 40
17.35262106143974
 40
17.65174926163465
 40
17.94687324317208
 40
18.24202898779314
 40
18.53286361079631
 40
18.82373250468188
 40
19.11048214070419
 40
19.39726421331371
 40
19.6806443805998
 40
19.96405015053734
 40
20.24521350112571
 40
20.52639104373663
 40
20.80678564656688
 40
21.08718024939714
 40
21.08718024939714
 40
21.08718024939714
 40
21.08718024939714
 10
185.8815026812869
 20
304.7768004674905
 30
0.0
 10
185.9745987563774
 20
304.7653493454006
 30
0.0
 10
186.1607862076709
 20
304.7424476791991
 30
0.0
 10
186.4350236609769
 20
304.6744103881506
 30
0.0
 10
186.7027503282839
 20
304.5827882591769
 30
0.0
 10
186.9623108164522
 20
304.4651772713924
 30
0.0
 10
187.2110451088191
 20
304.323958948173
 30
0.0
 10
187.4478592136098
 20
304.1591369774284
 30
0.0
 10
187.6701175776767
 20
303.9730596802635
 30
0.0
 10
187.8769729648118
 20
303.7660348306523
 30
0.0
 10
188.0660867683251
 20
303.5408360329382
 30
0.0
 10
188.236735152476
 20
303.2979711274088
 30
0.0
 10
188.3870524697258
 20
303.0405024963986
 30
0.0
 10
188.5163758050865
 20
302.7692245991271
 30
0.0
 10
188.6234087325248
 20
302.4872714452197
 30
0.0
 10
188.7075558701868
 20
302.1958342918501
 30
0.0
 10
188.7681003788946
 20
301.8978963483924
 30
0.0
 10
188.8045875756339
 20
301.5951306835922
 30
0.0
 10
188.816814631985
 20
301.2901823463728
 30
0.0
 10
188.8045875756341
 20
300.9852340091479
 30
0.0
 10
188.7681003788934
 20
300.6824683443645
 30
0.0
 10
188.7075558701914
 20
300.384530400845
 30
0.0
 10
188.6234087325076
 20
300.0930932477044
 30
0.0
 10
188.5163758051503
 20
299.8111400929468
 30
0.0
 10
188.3870524694895
 20
299.5398621988157
 30
0.0
 10
188.2367351533522
 20
299.2823935561638
 30
0.0
 10
188.0660867651034
 20
299.0395286935267
 30
0.0
 10
187.8769729767679
 20
298.8143297369498
 30
0.0
 10
187.6701175337797
 20
298.6073054719463
 30
0.0
 10
187.4478593765571
 20
298.4212260097621
 30
0.0
 10
187.2110445102242
 20
298.2564120100084
 30
0.0
 10
186.9623130405821
 20
298.1151641415943
 30
0.0
 10
186.7027421366958
 20
297.9976621741405
 30
0.0
 10
186.4350541454255
 20
297.9056352267706
 30
0.0
 10
186.1606734345424
 20
297.8390973991504
 30
0.0
 10
185.882182423079
 20
297.7991946155381
 30
0.0
 10
185.6014275866891
 20
297.7856824942087
 30
0.0
 10
185.3206727502992
 20
297.7991946155381
 30
0.0
 10
185.0421817388357
 20
297.8390973991506
 30
0.0
 10
184.7678010279527
 20
297.9056352267707
 30
0.0
 10
184.5001130366822
 20
297.9976621741404
 30
0.0
 10
184.2405421327958
 20
298.1151641415945
 30
0.0
 10
183.9918106631539
 20
298.2564120100084
 30
0.0
 10
183.7549957968208
 20
298.4212260097621
 30
0.0
 10
183.5327376395983
 20
298.6073054719462
 30
0.0
 10
183.3258821966102
 20
298.8143297369497
 30
0.0
 10
183.1367684082746
 20
299.0395286935267
 30
0.0
 10
182.9661200200259
 20
299.2823935561636
 30
0.0
 10
182.8158027038884
 20
299.5398621988157
 30
0.0
 10
182.6864793682275
 20
299.8111400929467
 30
0.0
 10
182.5794464408704
 20
300.0930932477044
 30
0.0
 10
182.4952993031866
 20
300.3845304008449
 30
0.0
 10
182.4347547944847
 20
300.6824683443644
 30
0.0
 10
182.3982675977438
 20
300.9852340091481
 30
0.0
 10
182.3860405413931
 20
301.290182346372
 30
0.0
 10
182.3982675977438
 20
301.5951306835954
 30
0.0
 10
182.4347547944848
 20
301.8978963483804
 30
0.0
 10
182.4952993031863
 20
302.1958342918953
 30
0.0
 10
182.5794464408716
 20
302.4872714450524
 30
0.0
 10
182.6864793682229
 20
302.769224599749
 30
0.0
 10
182.8158027039052
 20
303.0405024941053
 30
0.0
 10
182.9661200199631
 20
303.2979711359226
 30
0.0
 10
183.1367684085057
 20
303.5408360016346
 30
0.0
 10
183.3258821957531
 20
303.7660349468219
 30
0.0
 10
183.5327376427455
 20
303.9730592537395
 30
0.0
 10
183.7549957851382
 20
304.1591385607006
 30
0.0
 10
183.9918107060706
 20
304.3239531319413
 30
0.0
 10
184.240541973335
 20
304.4651988820875
 30
0.0
 10
184.500113623985
 20
304.582708665846
 30
0.0
 10
184.7677988423444
 20
304.6747065894198
 30
0.0
 10
185.0421898242002
 20
304.7413519223346
 30
0.0
 10
185.3206426010881
 20
304.7808545082815
 30
0.0
 10
185.6015397582985
 20
304.795856288099
 30
0.0
 10
185.7881817069574
 20
304.7831524076933
 30
0.0
 10
185.8815026812869
 20
304.7768004674905
 30
0.0
 11
185.8815026812869
 21
304.7768004674905
 31
0.0
 11
186.1598294350205
 21
304.7368626580265
 31
0.0
 11
186.4331034695694
 21
304.6707254388875
 31
0.0
 11
186.7011081403984
 21
304.5785716172217
 31
0.0
 11
186.959329778416
 21
304.461841565947
 31
0.0
 11
187.2087164217664
 21
304.320242627785
 31
0.0
 11
187.4441627996226
 21
304.1565650272609
 31
0.0
 11
187.6672146484469
 21
303.9698765536843
 31
0.0
 11
187.8728827050421
 21
303.7642423434135
 31
0.0
 11
188.0627341097866
 21
303.5382481892871
 31
0.0
 11
188.232507041158
 21
303.2968453801649
 31
0.0
 11
188.3833687235914
 21
303.0385462649414
 31
0.0
 11
188.5121685905229
 21
302.7685968535234
 31
0.0
 11
188.6195008225366
 21
302.485963254529
 31
0.0
 11
188.703428844099
 21
302.1955377404686
 31
0.0
 11
188.7640634947946
 21
301.8972417018276
 31
0.0
 11
188.8005218457108
 21
301.5950461475856
 31
0.0
 11
188.8127357313553
 21
301.2901823463719
 31
0.0
 11
188.8005218457108
 21
300.9853185451582
 31
0.0
 11
188.7640634947946
 21
300.6831229909162
 31
0.0
 11
188.703428844099
 21
300.3848269522752
 31
0.0
 11
188.6195008225365
 21
300.0944014382148
 31
0.0
 11
188.5121685905228
 21
299.8117678392206
 31
0.0
 11
188.3833687235913
 21
299.5418184278026
 31
0.0
 11
188.2325070411579
 21
299.2835193125791
 31
0.0
 11
188.0627341097866
 21
299.0421165034568
 31
0.0
 11
187.8728827050421
 21
298.8161223493303
 31
0.0
 11
187.6672146484469
 21
298.6104881390595
 31
0.0
 11
187.4441627996227
 21
298.4237996654829
 31
0.0
 11
187.2087164217665
 21
298.2601220649588
 31
0.0
 11
186.959329778416
 21
298.1185231267967
 31
0.0
 11
186.7011081403984
 21
298.001793075522
 31
0.0
 11
186.4331034695693
 21
297.9096392538563
 31
0.0
 11
186.1598294350204
 21
297.8435020347172
 31
0.0
 11
185.8815026812868
 21
297.8035642252534
 31
0.0
 11
185.6014275866891
 21
297.7901823463719
 31
0.0
 11
185.3213524920914
 21
297.8035642252535
 31
0.0
 11
185.0430257383577
 21
297.8435020347173
 31
0.0
 11
184.7697517038088
 21
297.9096392538563
 31
0.0
 11
184.5017470329796
 21
298.0017930755221
 31
0.0
 11
184.2435253949619
 21
298.1185231267968
 31
0.0
 11
183.9941387516114
 21
298.2601220649589
 31
0.0
 11
183.7586923737553
 21
298.4237996654828
 31
0.0
 11
183.5356405249311
 21
298.6104881390594
 31
0.0
 11
183.3299724683359
 21
298.8161223493302
 31
0.0
 11
183.1401210635915
 21
299.0421165034567
 31
0.0
 11
182.9703481322201
 21
299.283519312579
 31
0.0
 11
182.8194864497867
 21
299.5418184278025
 31
0.0
 11
182.6906865828551
 21
299.8117678392205
 31
0.0
 11
182.5833543508414
 21
300.0944014382147
 31
0.0
 11
182.499426329279
 21
300.3848269522752
 31
0.0
 11
182.4387916785834
 21
300.6831229909161
 31
0.0
 11
182.4023333276672
 21
300.9853185451582
 31
0.0
 11
182.3901194420226
 21
301.2901823463719
 31
0.0
 11
182.4023333276672
 21
301.5950461475856
 31
0.0
 11
182.4387916785834
 21
301.8972417018277
 31
0.0
 11
182.499426329279
 21
302.1955377404686
 31
0.0
 11
182.5833543508414
 21
302.485963254529
 31
0.0
 11
182.690686582855
 21
302.7685968535234
 31
0.0
 11
182.8194864497866
 21
303.0385462649414
 31
0.0
 11
182.9703481322201
 21
303.2968453801648
 31
0.0
 11
183.1401210635915
 21
303.5382481892869
 31
0.0
 11
183.3299724683359
 21
303.7642423434135
 31
0.0
 11
183.5356405249311
 21
303.9698765536845
 31
0.0
 11
183.7586923737553
 21
304.156565027261
 31
0.0
 11
183.9941387516115
 21
304.320242627785
 31
0.0
 11
184.243525394962
 21
304.461841565947
 31
0.0
 11
184.5017470329796
 21
304.5785716172217
 31
0.0
 11
184.7697517038088
 21
304.6707254388875
 31
0.0
 11
185.0430257383577
 21
304.7368626580266
 31
0.0
 11
185.3213524920914
 21
304.7768004674905
 31
0.0
 11
185.6014275866891
 21
304.790182346372
 31
0.0
 11
185.8815026812869
 21
304.7768004674905
 31
0.0
  0
SPLINE
  5
145
330
3C
100
AcDbEntity
  8
1
  6
Continuous
 62
     7
100
AcDbSpline
210
0.0
220
0.0
230
1.0
 70
    11
 71
     3
 72
    79
 73
    75
 74
    73
 42
0.0000000001
 43
0.0000000001
 44
0.00000001
 40
0.0
 40
0.0
 40
0.0
 40
0.0
 40
0.3171602498669054
 40
0.6340864389216285
 40
0.9694920549543573
 40
1.304565861614767
 40
1.666130030446023
 40
2.027393280344431
 40
2.418734799170675
 40
2.809850954366304
 40
3.230647155903785
 40
3.651288772688936
 40
4.098044837706907
 40
4.544700923250561
 40
5.011575336517586
 40
5.47839045444532
 40
5.957946024242898
 40
6.437474053935644
 40
6.92134885968769
 40
7.405223665439796
 40
7.884751695132372
 40
8.364307264930071
 40
8.831122382857917
 40
9.297996796124899
 40
9.744652881668499
 40
10.19140894668645
 40
10.61205056347152
 40
11.03284676500901
 40
11.42396292020463
 40
11.81530443903091
 40
12.1765676889294
 40
12.53813185776059
 40
12.87320566442103
 40
13.20861128045378
 40
13.52553746950852
 40
13.84269771937536
 40
14.15318054135759
 40
14.46366336333971
 40
14.78082361320656
 40
15.09774980226136
 40
15.43315541829401
 40
15.76822922495443
 40
16.12979339378565
 40
16.4910566436841
 40
16.88239816251034
 40
17.27351431770603
 40
17.69431051924351
 40
18.11495213602859
 40
18.5617082010465
 40
19.00836428659025
 40
19.4752386998573
 40
19.94205381778502
 40
20.42160938758254
 40
20.90113741727523
 40
21.3850122230274
 40
21.86888702877944
 40
22.34841505847214
 40
22.82797062826966
 40
23.29478574619749
 40
23.76166015946456
 40
24.2083162450082
 40
24.65507231002619
 40
25.07571392681126
 40
25.49651012834879
 40
25.88762628354447
 40
26.27896780237062
 40
26.64023105226903
 40
27.00179522110036
 40
27.33686902776072
 40
27.67227464379345
 40
27.98920083284827
 40
28.30636108271516
 40
28.61684390469732
 40
28.9273267266795
 40
28.9273267266795
 40
28.9273267266795
 40
28.9273267266795
 10
327.302624121485
 20
300.9798372918904
 30
0.0
 10
327.3212023194269
 20
300.875588815059
 30
0.0
 10
327.3583450048028
 20
300.6671687956375
 30
0.0
 10
327.4692016763539
 20
300.3621313606074
 30
0.0
 10
327.6162240048882
 20
300.0669797211356
 30
0.0
 10
327.8062977594865
 20
299.7792900382283
 30
0.0
 10
328.0314287187044
 20
299.5070513107407
 30
0.0
 10
328.2960165728842
 20
299.2456425307383
 30
0.0
 10
328.5911168854016
 20
299.0034550825815
 30
0.0
 10
328.9218636835127
 20
298.7758281236203
 30
0.0
 10
329.2779943551983
 20
298.5701362733237
 30
0.0
 10
329.6647283654327
 20
298.3827549933228
 30
0.0
 10
330.0714703864942
 20
298.2193014606917
 30
0.0
 10
330.5024616492759
 20
298.0775028448421
 30
0.0
 10
330.9478993712756
 20
297.9610659606354
 30
0.0
 10
331.4101384952954
 20
297.8688818813328
 30
0.0
 10
331.881112631435
 20
297.8030006629572
 30
0.0
 10
332.3606803492238
 20
297.763007016782
 30
0.0
 10
332.843171503666
 20
297.7497848326485
 30
0.0
 10
333.3256626581228
 20
297.763007016781
 30
0.0
 10
333.8052303758673
 20
297.803000662962
 30
0.0
 10
334.2762045121682
 20
297.8688818813153
 30
0.0
 10
334.7384436356019
 20
297.9610659607
 30
0.0
 10
335.1838813597453
 20
298.0775028446059
 30
0.0
 10
335.614872614858
 20
298.2193014615309
 30
0.0
 10
336.0216146637243
 20
298.382754990263
 30
0.0
 10
336.4083485759661
 20
298.5701362840047
 30
0.0
 10
336.7644796003021
 20
298.7758280848518
 30
0.0
 10
337.0952251704297
 20
299.0034552160034
 30
0.0
 10
337.390329880855
 20
299.2456420474769
 30
0.0
 10
337.6549025160322
 20
299.5070529615182
 30
0.0
 10
337.8800879777961
 20
299.7792840465501
 30
0.0
 10
338.0699723976169
 20
300.0670002783571
 30
0.0
 10
338.2176776884487
 20
300.3620561514955
 30
0.0
 10
338.3261178042903
 20
300.6674324407798
 30
0.0
 10
338.3903012871697
 20
300.9766646214204
 30
0.0
 10
338.4128608714174
 20
301.2895625717325
 30
0.0
 10
338.3903012871696
 20
301.6024605220448
 30
0.0
 10
338.3261178042902
 20
301.9116927026853
 30
0.0
 10
338.2176776884486
 20
302.2170689919695
 30
0.0
 10
338.0699723976168
 20
302.512124865108
 30
0.0
 10
337.8800879777963
 20
302.799841096915
 30
0.0
 10
337.6549025160322
 20
303.072072181947
 30
0.0
 10
337.3903298808551
 20
303.3334830959881
 30
0.0
 10
337.0952251704298
 20
303.5756699274617
 30
0.0
 10
336.7644796003021
 20
303.8032970586131
 30
0.0
 10
336.4083485759659
 20
304.0089888594603
 30
0.0
 10
336.0216146637245
 20
304.1963701532021
 30
0.0
 10
335.6148726148582
 20
304.3598236819344
 30
0.0
 10
335.1838813597453
 20
304.5016222988592
 30
0.0
 10
334.7384436356018
 20
304.6180591827651
 30
0.0
 10
334.2762045121682
 20
304.71024326215
 30
0.0
 10
333.8052303758674
 20
304.7761244805029
 30
0.0
 10
333.3256626581222
 20
304.8161181266843
 30
0.0
 10
332.8431715036683
 20
304.8293403108163
 30
0.0
 10
332.3606803492154
 20
304.8161181266844
 30
0.0
 10
331.881112631467
 20
304.7761244805026
 30
0.0
 10
331.4101384951777
 20
304.7102432621512
 30
0.0
 10
330.9478993717023
 20
304.6180591827605
 30
0.0
 10
330.5024616477111
 20
304.501622298876
 30
0.0
 10
330.0714703920536
 20
304.3598236818746
 30
0.0
 10
329.6647283451624
 20
304.1963701534193
 30
0.0
 10
329.2779944259604
 20
304.0089888587017
 30
0.0
 10
328.9218634266723
 20
303.8032970613667
 30
0.0
 10
328.5911177693233
 20
303.5756699179849
 30
0.0
 10
328.2960133712735
 20
303.3334831303134
 30
0.0
 10
328.0314396551179
 20
303.0720720646951
 30
0.0
 10
327.8062580645729
 20
302.7998415224932
 30
0.0
 10
327.6163601966381
 20
302.5121234049649
 30
0.0
 10
327.4687034154098
 20
302.2170743339399
 30
0.0
 10
327.3600916558916
 20
301.9116739764373
 30
0.0
 10
327.2965370385845
 20
301.6025299765798
 30
0.0
 10
327.2716766562971
 20
301.2893094037841
 30
0.0
 10
327.2923082997558
 20
301.0829946625216
 30
0.0
 10
327.302624121485
 20
300.9798372918904
 30
0.0
 11
327.302624121485
 21
300.9798372918904
 31
0.0
 11
327.3672057420003
 21
300.6693218520371
 31
0.0
 11
327.472408834306
 21
300.3703661384639
 31
0.0
 11
327.6221919896539
 21
300.0702629334821
 31
0.0
 11
327.806034259678
 21
299.7901264030862
 31
0.0
 11
328.0359538695369
 21
299.5110822825873
 31
0.0
 11
328.2924360022856
 21
299.2566652011879
 31
0.0
 11
328.594474840532
 21
299.0078264490852
 31
0.0
 11
328.9163543937506
 21
298.7856431912218
 31
0.0
 11
329.2804121055269
 21
298.5746184871596
 31
0.0
 11
329.6587892302578
 21
298.3908520014991
 31
0.0
 11
330.0731335892345
 21
298.2237899357434
 31
0.0
 11
330.4973357815472
 21
298.0839537501896
 31
0.0
 11
330.9489401536484
 21
297.9655256755514
 31
0.0
 11
331.406713642818
 21
297.8740938050717
 31
0.0
 11
331.8816134035797
 21
297.8074322587921
 31
0.0
 11
332.359481084424
 21
297.7675623344704
 31
0.0
 11
332.8431715036684
 21
297.754205464597
 31
0.0
 11
333.3268619229128
 21
297.7675623344705
 31
0.0
 11
333.804729603757
 21
297.8074322587922
 31
0.0
 11
334.2796293645188
 21
297.8740938050718
 31
0.0
 11
334.7374028536884
 21
297.9655256755516
 31
0.0
 11
335.1890072257896
 21
298.0839537501896
 31
0.0
 11
335.6132094181023
 21
298.2237899357434
 31
0.0
 11
336.027553777079
 21
298.390852001499
 31
0.0
 11
336.4059309018098
 21
298.5746184871595
 31
0.0
 11
336.7699886135862
 21
298.7856431912217
 31
0.0
 11
337.0918681668048
 21
299.0078264490851
 31
0.0
 11
337.3939070050511
 21
299.2566652011878
 31
0.0
 11
337.6503891378
 21
299.5110822825873
 31
0.0
 11
337.8803087476587
 21
299.7901264030862
 31
0.0
 11
338.0641510176829
 21
300.0702629334821
 31
0.0
 11
338.2139341730307
 21
300.370366138464
 31
0.0
 11
338.3191372653365
 21
300.6693218520372
 31
0.0
 11
338.3837188858517
 21
300.9798372918904
 31
0.0
 11
338.4053945351548
 21
301.2895625717326
 31
0.0
 11
338.3837188858516
 21
301.5992878515747
 31
0.0
 11
338.3191372653363
 21
301.9098032914279
 31
0.0
 11
338.2139341730306
 21
302.2087590050011
 31
0.0
 11
338.0641510176829
 21
302.5088622099829
 31
0.0
 11
337.8803087476588
 21
302.7889987403789
 31
0.0
 11
337.6503891378
 21
303.0680428608778
 31
0.0
 11
337.3939070050512
 21
303.3224599422772
 31
0.0
 11
337.0918681668049
 21
303.57129869438
 31
0.0
 11
336.7699886135862
 21
303.7934819522433
 31
0.0
 11
336.4059309018098
 21
304.0045066563055
 31
0.0
 11
336.0275537770791
 21
304.1882731419661
 31
0.0
 11
335.6132094181024
 21
304.3553352077217
 31
0.0
 11
335.1890072257896
 21
304.4951713932755
 31
0.0
 11
334.7374028536883
 21
304.6135994679136
 31
0.0
 11
334.2796293645188
 21
304.7050313383933
 31
0.0
 11
333.8047296037572
 21
304.7716928846728
 31
0.0
 11
333.3268619229128
 21
304.8115628089946
 31
0.0
 11
332.8431715036684
 21
304.8249196788681
 31
0.0
 11
332.359481084424
 21
304.8115628089946
 31
0.0
 11
331.8816134035797
 21
304.7716928846729
 31
0.0
 11
331.4067136428181
 21
304.7050313383933
 31
0.0
 11
330.9489401536484
 21
304.6135994679136
 31
0.0
 11
330.4973357815472
 21
304.4951713932754
 31
0.0
 11
330.0731335892344
 21
304.3553352077217
 31
0.0
 11
329.6587892302578
 21
304.188273141966
 31
0.0
 11
329.2804121055269
 21
304.0045066563055
 31
0.0
 11
328.9163543937505
 21
303.7934819522433
 31
0.0
 11
328.5944748405319
 21
303.5712986943799
 31
0.0
 11
328.2924360022856
 21
303.3224599422772
 31
0.0
 11
328.0359538695369
 21
303.0680428608777
 31
0.0
 11
327.806034259678
 21
302.7889987403788
 31
0.0
 11
327.6221919896538
 21
302.508862209983
 31
0.0
 11
327.472408834306
 21
302.2087590050012
 31
0.0
 11
327.3672057420001
 21
301.9098032914279
 31
0.0
 11
327.3026241214849
 21
301.5992878515747
 31
0.0
 11
327.2809484721819
 21
301.2895625717325
 31
0.0
 11
327.302624121485
 21
300.9798372918904
 31
0.0
  0
SPLINE
  5
146
330
3C
100
AcDbEntity
  8
1
  6
Continuous
 62
     7
100
AcDbSpline
210
0.0
220
0.0
230
1.0
 70
    11
 71
     3
 72
    79
 73
    75
 74
    73
 42
0.0000000001
 43
0.0000000001
 44
0.00000001
 40
0.0
 40
0.0
 40
0.0
 40
0.0
 40
0.3171602498668938
 40
0.6340864389216547
 40
0.9694920549543327
 40
1.304565861614743
 40
1.666130030445962
 40
2.027393280344451
 40
2.418734799170651
 40
2.809850954366326
 40
3.230647155903857
 40
3.651288772688905
 40
4.098044837706823
 40
4.544700923250477
 40
5.011575336517557
 40
5.478390454445345
 40
5.957946024242924
 40
6.43747405393567
 40
6.921348859687773
 40
7.405223665439879
 40
7.884751695132511
 40
8.364307264930098
 40
8.831122382857886
 40
9.297996796124922
 40
9.744652881668575
 40
10.19140894668642
 40
10.61205056347149
 40
11.03284676500902
 40
11.4239629202047
 40
11.81530443903094
 40
12.17656768892942
 40
12.53813185776064
 40
12.87320566442105
 40
13.20861128045381
 40
13.52553746950855
 40
13.8426977193754
 40
14.15318054135762
 40
14.46366336333974
 40
14.78082361320659
 40
15.09774980226138
 40
15.43315541829406
 40
15.76822922495452
 40
16.12979339378578
 40
16.49105664368418
 40
16.88239816251042
 40
17.27351431770606
 40
17.69431051924349
 40
18.11495213602867
 40
18.56170820104654
 40
19.00836428659023
 40
19.47523869985722
 40
19.94205381778506
 40
20.42160938758263
 40
20.90113741727538
 40
21.38501222302749
 40
21.86888702877954
 40
22.34841505847217
 40
22.82797062826981
 40
23.29478574619753
 40
23.76166015946465
 40
24.2083162450084
 40
24.65507231002623
 40
25.0757139268113
 40
25.49651012834879
 40
25.88762628354446
 40
26.27896780237066
 40
26.64023105226915
 40
27.00179522110037
 40
27.33686902776076
 40
27.67227464379346
 40
27.98920083284826
 40
28.30636108271515
 40
28.61684390469732
 40
28.92732672667949
 40
28.92732672667949
 40
28.92732672667949
 40
28.92732672667949
 10
325.3835705535224
 20
300.9798372918904
 30
0.0
 10
325.3649923555806
 20
300.875588815059
 30
0.0
 10
325.3278496702049
 20
300.6671687956374
 30
0.0
 10
325.2169929986533
 20
300.3621313606075
 30
0.0
 10
325.0699706701194
 20
300.0669797211356
 30
0.0
 10
324.8798969155209
 20
299.7792900382283
 30
0.0
 10
324.6547659563032
 20
299.5070513107405
 30
0.0
 10
324.3901781021232
 20
299.2456425307385
 30
0.0
 10
324.0950777896059
 20
299.0034550825815
 30
0.0
 10
323.7643309914948
 20
298.7758281236203
 30
0.0
 10
323.4082003198091
 20
298.5701362733237
 30
0.0
 10
323.0214663095748
 20
298.3827549933227
 30
0.0
 10
322.6147242885131
 20
298.2193014606917
 30
0.0
 10
322.1837330257318
 20
298.0775028448421
 30
0.0
 10
321.7382953037319
 20
297.9610659606354
 30
0.0
 10
321.276056179712
 20
297.8688818813329
 30
0.0
 10
320.8050820435724
 20
297.8030006629572
 30
0.0
 10
320.3255143257834
 20
297.763007016782
 30
0.0
 10
319.8430231713415
 20
297.7497848326485
 30
0.0
 10
319.3605320168846
 20
297.7630070167809
 30
0.0
 10
318.8809642991402
 20
297.8030006629621
 30
0.0
 10
318.4099901628391
 20
297.8688818813152
 30
0.0
 10
317.9477510394056
 20
297.9610659607
 30
0.0
 10
317.5023133152621
 20
298.0775028446058
 30
0.0
 10
317.0713220601493
 20
298.2193014615309
 30
0.0
 10
316.6645800112831
 20
298.382754990263
 30
0.0
 10
316.2778460990415
 20
298.5701362840047
 30
0.0
 10
315.9217150747052
 20
298.7758280848518
 30
0.0
 10
315.5909695045776
 20
299.0034552160033
 30
0.0
 10
315.2958647941524
 20
299.245642047477
 30
0.0
 10
315.0312921589754
 20
299.5070529615181
 30
0.0
 10
314.8061066972111
 20
299.7792840465502
 30
0.0
 10
314.6162222773906
 20
300.0670002783571
 30
0.0
 10
314.4685169865588
 20
300.3620561514955
 30
0.0
 10
314.360076870717
 20
300.6674324407798
 30
0.0
 10
314.2958933878377
 20
300.9766646214202
 30
0.0
 10
314.2733338035899
 20
301.2895625717325
 30
0.0
 10
314.2958933878379
 20
301.6024605220449
 30
0.0
 10
314.3600768707171
 20
301.9116927026852
 30
0.0
 10
314.4685169865588
 20
302.2170689919697
 30
0.0
 10
314.6162222773907
 20
302.512124865108
 30
0.0
 10
314.8061066972113
 20
302.7998410969149
 30
0.0
 10
315.0312921589754
 20
303.072072181947
 30
0.0
 10
315.2958647941524
 20
303.3334830959881
 30
0.0
 10
315.5909695045777
 20
303.5756699274618
 30
0.0
 10
315.9217150747052
 20
303.8032970586131
 30
0.0
 10
316.2778460990415
 20
304.0089888594604
 30
0.0
 10
316.664580011283
 20
304.1963701532021
 30
0.0
 10
317.0713220601492
 20
304.3598236819342
 30
0.0
 10
317.5023133152622
 20
304.5016222988593
 30
0.0
 10
317.9477510394054
 20
304.6180591827651
 30
0.0
 10
318.4099901628393
 20
304.7102432621499
 30
0.0
 10
318.8809642991401
 20
304.7761244805029
 30
0.0
 10
319.3605320168853
 20
304.8161181266843
 30
0.0
 10
319.8430231713392
 20
304.8293403108162
 30
0.0
 10
320.3255143257921
 20
304.8161181266844
 30
0.0
 10
320.8050820435406
 20
304.7761244805026
 30
0.0
 10
321.2760561798297
 20
304.7102432621511
 30
0.0
 10
321.7382953033053
 20
304.6180591827606
 30
0.0
 10
322.1837330272962
 20
304.501622298876
 30
0.0
 10
322.6147242829539
 20
304.3598236818746
 30
0.0
 10
323.0214663298451
 20
304.1963701534191
 30
0.0
 10
323.4082002490471
 20
304.0089888587018
 30
0.0
 10
323.7643312483349
 20
303.8032970613667
 30
0.0
 10
324.0950769056843
 20
303.575669917985
 30
0.0
 10
324.3901813037338
 20
303.3334831303133
 30
0.0
 10
324.6547550198897
 20
303.0720720646951
 30
0.0
 10
324.8799366104344
 20
302.7998415224931
 30
0.0
 10
325.0698344783693
 20
302.5121234049649
 30
0.0
 10
325.2174912595975
 20
302.2170743339398
 30
0.0
 10
325.3261030191158
 20
301.9116739764373
 30
0.0
 10
325.3896576364227
 20
301.6025299765798
 30
0.0
 10
325.4145180187101
 20
301.2893094037841
 30
0.0
 10
325.3938863752517
 20
301.0829946625217
 30
0.0
 10
325.3835705535224
 20
300.9798372918904
 30
0.0
 11
325.3835705535224
 21
300.9798372918904
 31
0.0
 11
325.3189889330072
 21
300.6693218520371
 31
0.0
 11
325.2137858407014
 21
300.3703661384639
 31
0.0
 11
325.0640026853536
 21
300.0702629334821
 31
0.0
 11
324.8801604153294
 21
299.7901264030862
 31
0.0
 11
324.6502408054707
 21
299.5110822825873
 31
0.0
 11
324.3937586727218
 21
299.2566652011879
 31
0.0
 11
324.0917198344755
 21
299.0078264490852
 31
0.0
 11
323.7698402812569
 21
298.7856431912218
 31
0.0
 11
323.4057825694804
 21
298.5746184871596
 31
0.0
 11
323.0274054447497
 21
298.3908520014991
 31
0.0
 11
322.613061085773
 21
298.2237899357434
 31
0.0
 11
322.1888588934603
 21
298.0839537501896
 31
0.0
 11
321.737254521359
 21
297.9655256755514
 31
0.0
 11
321.2794810321894
 21
297.8740938050717
 31
0.0
 11
320.8045812714278
 21
297.8074322587921
 31
0.0
 11
320.3267135905834
 21
297.7675623344704
 31
0.0
 11
319.843023171339
 21
297.754205464597
 31
0.0
 11
319.3593327520946
 21
297.7675623344705
 31
0.0
 11
318.8814650712503
 21
297.8074322587922
 31
0.0
 11
318.4065653104887
 21
297.8740938050718
 31
0.0
 11
317.9487918213191
 21
297.9655256755516
 31
0.0
 11
317.4971874492178
 21
298.0839537501896
 31
0.0
 11
317.072985256905
 21
298.2237899357434
 31
0.0
 11
316.6586408979285
 21
298.390852001499
 31
0.0
 11
316.2802637731977
 21
298.5746184871595
 31
0.0
 11
315.9162060614212
 21
298.7856431912217
 31
0.0
 11
315.5943265082026
 21
299.0078264490851
 31
0.0
 11
315.2922876699563
 21
299.2566652011878
 31
0.0
 11
315.0358055372075
 21
299.5110822825873
 31
0.0
 11
314.8058859273487
 21
299.7901264030862
 31
0.0
 11
314.6220436573245
 21
300.0702629334821
 31
0.0
 11
314.4722605019767
 21
300.370366138464
 31
0.0
 11
314.367057409671
 21
300.6693218520372
 31
0.0
 11
314.3024757891557
 21
300.9798372918904
 31
0.0
 11
314.2808001398526
 21
301.2895625717326
 31
0.0
 11
314.3024757891557
 21
301.5992878515747
 31
0.0
 11
314.367057409671
 21
301.9098032914279
 31
0.0
 11
314.4722605019768
 21
302.2087590050011
 31
0.0
 11
314.6220436573245
 21
302.5088622099829
 31
0.0
 11
314.8058859273487
 21
302.7889987403789
 31
0.0
 11
315.0358055372075
 21
303.0680428608778
 31
0.0
 11
315.2922876699563
 21
303.3224599422772
 31
0.0
 11
315.5943265082026
 21
303.57129869438
 31
0.0
 11
315.9162060614212
 21
303.7934819522433
 31
0.0
 11
316.2802637731975
 21
304.0045066563055
 31
0.0
 11
316.6586408979284
 21
304.1882731419661
 31
0.0
 11
317.072985256905
 21
304.3553352077217
 31
0.0
 11
317.4971874492178
 21
304.4951713932755
 31
0.0
 11
317.948791821319
 21
304.6135994679136
 31
0.0
 11
318.4065653104887
 21
304.7050313383933
 31
0.0
 11
318.8814650712503
 21
304.7716928846728
 31
0.0
 11
319.3593327520947
 21
304.8115628089946
 31
0.0
 11
319.8430231713391
 21
304.8249196788681
 31
0.0
 11
320.3267135905834
 21
304.8115628089946
 31
0.0
 11
320.8045812714277
 21
304.7716928846729
 31
0.0
 11
321.2794810321894
 21
304.7050313383933
 31
0.0
 11
321.737254521359
 21
304.6135994679136
 31
0.0
 11
322.1888588934603
 21
304.4951713932754
 31
0.0
 11
322.6130610857732
 21
304.3553352077217
 31
0.0
 11
323.0274054447497
 21
304.188273141966
 31
0.0
 11
323.4057825694805
 21
304.0045066563055
 31
0.0
 11
323.7698402812569
 21
303.7934819522433
 31
0.0
 11
324.0917198344755
 21
303.5712986943799
 31
0.0
 11
324.3937586727218
 21
303.3224599422772
 31
0.0
 11
324.6502408054706
 21
303.0680428608777
 31
0.0
 11
324.8801604153294
 21
302.7889987403788
 31
0.0
 11
325.0640026853536
 21
302.508862209983
 31
0.0
 11
325.2137858407014
 21
302.2087590050012
 31
0.0
 11
325.3189889330072
 21
301.9098032914279
 31
0.0
 11
325.3835705535224
 21
301.5992878515747
 31
0.0
 11
325.4052462028255
 21
301.2895625717325
 31
0.0
 11
325.3835705535224
 21
300.9798372918904
 31
0.0
  0
ENDBLK
  5
3E
330
3C
100
AcDbEntity
  8
0
100
AcDbBlockEnd
  0
BLOCK
  5
40
330
3F
100
AcDbEntity
  8
0
100
AcDbBlockBegin
  2
_J__A4
 70
     0
 71
     0
 10
0.0
 20
0.0
 30
0.0
  3
_J__A4
  1

  0
POINT
  5
147
330
3F
100
AcDbEntity
  8
1
 62
     4
100
AcDbPoint
 10
93.75
 20
17.0
 30
0.0
  0
POINT
  5
148
330
3F
100
AcDbEntity
  8
1
 62
     4
100
AcDbPoint
 10
85.25
 20
17.0
 30
0.0
  0
POINT
  5
149
330
3F
100
AcDbEntity
  8
1
 62
     4
100
AcDbPoint
 10
106.5
 20
19.00000000000001
 30
0.0
  0
POINT
  5
14A
330
3F
100
AcDbEntity
  8
1
 62
     4
100
AcDbPoint
 10
106.5
 20
12.5
 30
0.0
  0
POINT
  5
14B
330
3F
100
AcDbEntity
  8
1
 62
     4
100
AcDbPoint
 10
112.25
 20
12.5
 30
0.0
  0
POINT
  5
14C
330
3F
100
AcDbEntity
  8
1
 62
     4
100
AcDbPoint
 10
100.75
 20
12.5
 30
0.0
  0
POINT
  5
14D
330
3F
100
AcDbEntity
  8
1
 62
     4
100
AcDbPoint
 10
123.5
 20
19.00000000000001
 30
0.0
  0
POINT
  5
14E
330
3F
100
AcDbEntity
  8
1
 62
     4
100
AcDbPoint
 10
123.5
 20
12.5
 30
0.0
  0
POINT
  5
14F
330
3F
100
AcDbEntity
  8
1
 62
     4
100
AcDbPoint
 10
129.25
 20
12.5
 30
0.0
  0
POINT
  5
150
330
3F
100
AcDbEntity
  8
1
 62
     4
100
AcDbPoint
 10
117.75
 20
12.5
 30
0.0
  0
POINT
  5
151
330
3F
100
AcDbEntity
  8
1
 62
     4
100
AcDbPoint
 10
140.5
 20
19.00000000000001
 30
0.0
  0
POINT
  5
152
330
3F
100
AcDbEntity
  8
1
 62
     4
100
AcDbPoint
 10
140.5
 20
12.5
 30
0.0
  0
POINT
  5
153
330
3F
100
AcDbEntity
  8
1
 62
     4
100
AcDbPoint
 10
146.25
 20
12.5
 30
0.0
  0
POINT
  5
154
330
3F
100
AcDbEntity
  8
1
 62
     4
100
AcDbPoint
 10
134.75
 20
12.5
 30
0.0
  0
POINT
  5
155
330
3F
100
AcDbEntity
  8
1
 62
     4
100
AcDbPoint
 10
151.75
 20
12.5
 30
0.0
  0
POINT
  5
156
330
3F
100
AcDbEntity
  8
1
 62
     4
100
AcDbPoint
 10
163.25
 20
12.5
 30
0.0
  0
POINT
  5
157
330
3F
100
AcDbEntity
  8
1
 62
     4
100
AcDbPoint
 10
157.5
 20
12.5
 30
0.0
  0
POINT
  5
158
330
3F
100
AcDbEntity
  8
1
 62
     4
100
AcDbPoint
 10
57.0
 20
14.25
 30
0.0
  0
POINT
  5
159
330
3F
100
AcDbEntity
  8
1
 62
     4
100
AcDbPoint
 10
57.0
 20
22.75000000000001
 30
0.0
  0
POINT
  5
15A
330
3F
100
AcDbEntity
  8
1
 62
     4
100
AcDbPoint
 10
47.5
 20
282.0000000000003
 30
0.0
  0
POINT
  5
15B
330
3F
100
AcDbEntity
  8
1
 62
     4
100
AcDbPoint
 10
157.5
 20
19.00000000000001
 30
0.0
  0
POINT
  5
15C
330
3F
100
AcDbEntity
  8
1
 62
     4
100
AcDbPoint
 10
57.0
 20
16.25
 30
0.0
  0
POINT
  5
15D
330
3F
100
AcDbEntity
  8
1
 62
     4
100
AcDbPoint
 10
57.0
 20
24.75000000000001
 30
0.0
  0
POINT
  5
15E
330
3F
100
AcDbEntity
  8
1
 62
     4
100
AcDbPoint
 10
57.0
 20
20.75000000000001
 30
0.0
  0
POINT
  5
15F
330
3F
100
AcDbEntity
  8
1
 62
     4
100
AcDbPoint
 10
57.0
 20
12.25
 30
0.0
  0
POINT
  5
160
330
3F
100
AcDbEntity
  8
1
 62
     4
100
AcDbPoint
 10
34.0
 20
34.00000000000001
 30
0.0
  0
LINE
  5
161
330
3F
100
AcDbEntity
  8
1
  6
Continuous
 62
     7
100
AcDbLine
 10
105.0
 20
10.0
 30
0.0
 11
200.0
 21
10.0
 31
0.0
  0
LINE
  5
162
330
3F
100
AcDbEntity
  8
1
  6
Continuous
 62
     2
100
AcDbLine
 10
105.0
 20
10.0
 30
0.0
 11
105.0
 21
5.0
 31
0.0
  0
LINE
  5
163
330
3F
100
AcDbEntity
  8
1
  6
Continuous
 62
     7
100
AcDbLine
 10
200.0
 20
148.5
 30
0.0
 11
200.0
 21
287.0000000000003
 31
0.0
  0
LINE
  5
164
330
3F
100
AcDbEntity
  8
1
  6
Continuous
 62
     2
100
AcDbLine
 10
200.0
 20
148.5
 30
0.0
 11
205.0
 21
148.5
 31
0.0
  0
LINE
  5
165
330
3F
100
AcDbEntity
  8
1
  6
Continuous
 62
     7
100
AcDbLine
 10
25.0
 20
148.5
 30
0.0
 11
25.0
 21
287.0000000000003
 31
0.0
  0
LINE
  5
166
330
3F
100
AcDbEntity
  8
1
  6
Continuous
 62
     2
100
AcDbLine
 10
25.0
 20
148.5
 30
0.0
 11
20.0
 21
148.5
 31
0.0
  0
LINE
  5
167
330
3F
100
AcDbEntity
  8
1
  6
Continuous
 62
     7
100
AcDbLine
 10
105.0
 20
287.0000000000003
 30
0.0
 11
25.0
 21
287.0000000000003
 31
0.0
  0
LINE
  5
168
330
3F
100
AcDbEntity
  8
1
  6
Continuous
 62
     2
100
AcDbLine
 10
105.0
 20
287.0000000000003
 30
0.0
 11
105.0
 21
292.0000000000003
 31
0.0
  0
LINE
  5
169
330
3F
100
AcDbEntity
  8
1
  6
Continuous
 62
     2
100
AcDbLine
 10
166.0
 20
20.00000000000001
 30
0.0
 11
200.0
 21
20.00000000000001
 31
0.0
  0
LINE
  5
16A
330
3F
100
AcDbEntity
  8
1
  6
Continuous
 62
     2
100
AcDbLine
 10
98.0
 20
27.00000000000001
 30
0.0
 11
98.0
 21
9.99999999999999
 31
0.0
  0
LINE
  5
16B
330
3F
100
AcDbEntity
  8
1
  6
Continuous
 62
     2
100
AcDbLine
 10
115.0
 20
27.00000000000001
 30
0.0
 11
115.0
 21
9.99999999999999
 31
0.0
  0
LINE
  5
16C
330
3F
100
AcDbEntity
  8
1
  6
Continuous
 62
     2
100
AcDbLine
 10
149.0
 20
27.00000000000001
 30
0.0
 11
149.0
 21
10.0
 31
0.0
  0
LINE
  5
16D
330
3F
100
AcDbEntity
  8
1
  6
Continuous
 62
     2
100
AcDbLine
 10
132.0
 20
27.00000000000001
 30
0.0
 11
132.0
 21
9.99999999999999
 31
0.0
  0
LINE
  5
16E
330
3F
100
AcDbEntity
  8
1
  6
Continuous
 62
     2
100
AcDbLine
 10
166.0
 20
27.00000000000001
 30
0.0
 11
166.0
 21
10.0
 31
0.0
  0
LINE
  5
16F
330
3F
100
AcDbEntity
  8
1
  6
Continuous
 62
     2
100
AcDbLine
 10
55.0
 20
277.0000000000003
 30
0.0
 11
25.0
 21
277.0000000000003
 31
0.0
  0
LINE
  5
170
330
3F
100
AcDbEntity
  8
1
  6
Continuous
 62
     7
100
AcDbLine
 10
25.0
 20
10.0
 30
0.0
 11
25.0
 21
148.5
 31
0.0
  0
LINE
  5
171
330
3F
100
AcDbEntity
  8
1
  6
Continuous
 62
     2
100
AcDbLine
 10
40.0
 20
287.0000000000003
 30
0.0
 11
40.0
 21
277.0000000000003
 31
0.0
  0
LINE
  5
172
330
3F
100
AcDbEntity
  8
1
  6
Continuous
 62
     2
100
AcDbLine
 10
55.0
 20
287.0000000000003
 30
0.0
 11
55.0
 21
277.0000000000003
 31
0.0
  0
LINE
  5
173
330
3F
100
AcDbEntity
  8
1
  6
Continuous
 62
     2
100
AcDbLine
 10
33.0
 20
41.00000000000001
 30
0.0
 11
33.0
 21
27.0
 31
0.0
  0
LINE
  5
174
330
3F
100
AcDbEntity
  8
1
  6
Continuous
 62
     7
100
AcDbLine
 10
200.0
 20
27.00000000000001
 30
0.0
 11
25.0
 21
27.00000000000001
 31
0.0
  0
LINE
  5
175
330
3F
100
AcDbEntity
  8
1
  6
Continuous
 62
     7
100
AcDbLine
 10
25.0
 20
41.0
 30
0.0
 11
200.0
 21
41.0
 31
0.0
  0
LINE
  5
176
330
3F
100
AcDbEntity
  8
1
  6
PHANTOM
 62
     4
100
AcDbLine
 10
0.0
 20
0.0
 30
0.0
 11
210.0
 21
0.0
 31
0.0
  0
LINE
  5
177
330
3F
100
AcDbEntity
  8
1
  6
PHANTOM
 62
     4
100
AcDbLine
 10
210.0
 20
0.0
 30
0.0
 11
210.0
 21
297.0
 31
0.0
  0
LINE
  5
178
330
3F
100
AcDbEntity
  8
1
  6
PHANTOM
 62
     4
100
AcDbLine
 10
210.0
 20
297.0
 30
0.0
 11
0.0
 21
297.0
 31
0.0
  0
LINE
  5
179
330
3F
100
AcDbEntity
  8
1
  6
PHANTOM
 62
     4
100
AcDbLine
 10
0.0
 20
297.0
 30
0.0
 11
0.0
 21
0.0
 31
0.0
  0
LINE
  5
17A
330
3F
100
AcDbEntity
  8
1
  6
Continuous
 62
     7
100
AcDbLine
 10
25.0
 20
10.0
 30
0.0
 11
105.0
 21
10.0
 31
0.0
  0
LINE
  5
17B
330
3F
100
AcDbEntity
  8
1
  6
Continuous
 62
     7
100
AcDbLine
 10
200.0
 20
10.0
 30
0.0
 11
200.0
 21
148.5
 31
0.0
  0
LINE
  5
17C
330
3F
100
AcDbEntity
  8
1
  6
Continuous
 62
     7
100
AcDbLine
 10
200.0
 20
287.0000000000003
 30
0.0
 11
105.0
 21
287.0000000000003
 31
0.0
  0
LINE
  5
17D
330
3F
100
AcDbEntity
  8
1
  6
Continuous
 62
     2
100
AcDbLine
 10
25.0
 20
18.50000000000001
 30
0.0
 11
81.0
 21
18.50000000000001
 31
0.0
  0
LINE
  5
17E
330
3F
100
AcDbEntity
  8
1
  6
Continuous
 62
     2
100
AcDbLine
 10
33.0
 20
27.0
 30
0.0
 11
33.0
 21
10.0
 31
0.0
  0
LINE
  5
17F
330
3F
100
AcDbEntity
  8
1
  6
Continuous
 62
     7
100
AcDbLine
 10
191.0
 20
24.70000000000001
 30
0.0
 11
191.0
 21
22.30000000000001
 31
0.0
  0
LINE
  5
180
330
3F
100
AcDbEntity
  8
1
  6
Continuous
 62
     7
100
AcDbLine
 10
191.0
 20
24.70000000000001
 30
0.0
 11
196.0
 21
25.50000000000001
 31
0.0
  0
LINE
  5
181
330
3F
100
AcDbEntity
  8
1
  6
Continuous
 62
     7
100
AcDbLine
 10
196.0
 20
25.50000000000001
 30
0.0
 11
196.0
 21
21.50000000000001
 31
0.0
  0
LINE
  5
182
330
3F
100
AcDbEntity
  8
1
  6
Continuous
 62
     7
100
AcDbLine
 10
196.0
 20
21.50000000000001
 30
0.0
 11
191.0
 21
22.30000000000001
 31
0.0
  0
LINE
  5
183
330
3F
100
AcDbEntity
  8
1
  6
DOT_CENTER
 62
     2
100
AcDbLine
 10
184.0
 20
23.50000000000001
 30
0.0
 11
197.0
 21
23.50000000000001
 31
0.0
  0
LINE
  5
184
330
3F
100
AcDbEntity
  8
1
  6
DOT_CENTER
 62
     2
100
AcDbLine
 10
187.0
 20
26.50000000000001
 30
0.0
 11
187.0
 21
20.50000000000001
 31
0.0
  0
LINE
  5
185
330
3F
100
AcDbEntity
  8
1
  6
Continuous
 62
     2
100
AcDbLine
 10
81.0
 20
27.00000000000001
 30
0.0
 11
81.0
 21
10.0
 31
0.0
  0
CIRCLE
  5
186
330
3F
100
AcDbEntity
  8
1
  6
Continuous
 62
     7
100
AcDbCircle
 10
103.5
 20
12.5
 30
0.0
 40
0.2999999999999972
  0
CIRCLE
  5
187
330
3F
100
AcDbEntity
  8
1
  6
Continuous
 62
     7
100
AcDbCircle
 10
109.5
 20
12.5
 30
0.0
 40
0.2999999999999972
  0
CIRCLE
  5
188
330
3F
100
AcDbEntity
  8
1
  6
Continuous
 62
     7
100
AcDbCircle
 10
120.5
 20
12.5
 30
0.0
 40
0.2999999999999972
  0
CIRCLE
  5
189
330
3F
100
AcDbEntity
  8
1
  6
Continuous
 62
     7
100
AcDbCircle
 10
126.5
 20
12.5
 30
0.0
 40
0.2999999999999972
  0
CIRCLE
  5
18A
330
3F
100
AcDbEntity
  8
1
  6
Continuous
 62
     7
100
AcDbCircle
 10
137.5
 20
12.5
 30
0.0
 40
0.3000000000000114
  0
CIRCLE
  5
18B
330
3F
100
AcDbEntity
  8
1
  6
Continuous
 62
     7
100
AcDbCircle
 10
143.5
 20
12.5
 30
0.0
 40
0.3000000000000114
  0
CIRCLE
  5
18C
330
3F
100
AcDbEntity
  8
1
  6
Continuous
 62
     7
100
AcDbCircle
 10
160.5
 20
12.5
 30
0.0
 40
0.3000000000000114
  0
CIRCLE
  5
18D
330
3F
100
AcDbEntity
  8
1
  6
Continuous
 62
     7
100
AcDbCircle
 10
154.5
 20
12.5
 30
0.0
 40
0.3000000000000114
  0
CIRCLE
  5
18E
330
3F
100
AcDbEntity
  8
1
  6
Continuous
 62
     7
100
AcDbCircle
 10
187.0
 20
23.50000000000001
 30
0.0
 40
1.200000000000102
  0
CIRCLE
  5
18F
330
3F
100
AcDbEntity
  8
1
  6
Continuous
 62
     7
100
AcDbCircle
 10
187.0
 20
23.50000000000001
 30
0.0
 40
2.0
  0
CIRCLE
  5
190
330
3F
100
AcDbEntity
  8
1
  6
DOT_CENTER
 62
     7
100
AcDbCircle
 10
89.5
 20
16.0
 30
0.0
 40
0.1000000000000227
  0
CIRCLE
  5
191
330
3F
100
AcDbEntity
  8
1
  6
DOT_CENTER
 62
     7
100
AcDbCircle
 10
89.5
 20
18.0
 30
0.0
 40
0.1000000000000227
  0
MTEXT
  5
193
330
3F
100
AcDbEntity
  8
1
 62
     7
100
AcDbMText
 10
188.5
 20
15.0
 30
0.0
 40
3.0
 41
0.0
 71
     5
 72
     1
  1
三栄水栓製作所
  7
CONVERTER_1
 73
     1
 44
1.32052821128451
  0
MTEXT
  5
194
330
3F
100
AcDbEntity
  8
1
 62
     7
100
AcDbMText
 10
171.5
 20
15.0
 30
0.0
 40
2.5
 41
0.0
 71
     5
 72
     1
  1
株式会社
  7
CONVERTER_1
 73
     1
 44
1.32052821128451
  0
MTEXT
  5
195
330
3F
100
AcDbEntity
  8
1
 62
     2
100
AcDbMText
 10
32.5
 20
282.0000000000003
 30
0.0
 40
5.0
 41
0.0
 71
     5
 72
     1
  1
図番
  7
CONVERTER_1
 73
     1
 44
0.60024009603842
  0
MTEXT
  5
196
330
3F
100
AcDbEntity
  8
1
 62
     2
100
AcDbMText
 10
29.0
 20
34.00000000000001
 30
0.0
 40
3.5
 41
0.0
 71
     5
 72
     1
  1
備考
  7
CONVERTER_1
 73
     1
 44
0.60024009603842
  0
MTEXT
  5
197
330
3F
100
AcDbEntity
  8
1
 62
     2
100
AcDbMText
 10
29.0
 20
22.75
 30
0.0
 40
3.5
 41
0.0
 71
     5
 72
     1
  1
品名
  7
CONVERTER_1
 73
     1
 44
0.96038415366146
  0
MTEXT
  5
198
330
3F
100
AcDbEntity
  8
1
 62
     2
100
AcDbMText
 10
29.0
 20
14.25
 30
0.0
 40
3.5
 41
0.0
 71
     5
 72
     1
  1
品番
  7
CONVERTER_1
 73
     1
 44
0.96038415366146
  0
MTEXT
  5
199
330
3F
100
AcDbEntity
  8
1
 62
     2
100
AcDbMText
 10
101.5
 20
25.00000000000001
 30
0.0
 40
3.0
 41
0.0
 71
     5
 72
     1
  1
承認
  7
CONVERTER_1
 73
     1
 44
0.78031212484994
  0
MTEXT
  5
19A
330
3F
100
AcDbEntity
  8
1
 62
     2
100
AcDbMText
 10
175.0
 20
23.50000000000001
 30
0.0
 40
3.5
 41
0.0
 71
     5
 72
     1
  1
第三角法
  7
CONVERTER_1
 73
     1
 44
0.7202881152461
  0
MTEXT
  5
19B
330
3F
100
AcDbEntity
  8
1
 62
     2
100
AcDbMText
 10
118.5
 20
25.00000000000001
 30
0.0
 40
3.0
 41
0.0
 71
     5
 72
     1
  1
検図
  7
CONVERTER_1
 73
     1
 44
0.78031212484994
  0
MTEXT
  5
19C
330
3F
100
AcDbEntity
  8
1
 62
     2
100
AcDbMText
 10
152.5
 20
25.00000000000001
 30
0.0
 40
3.0
 41
0.0
 71
     5
 72
     1
  1
設計
  7
CONVERTER_1
 73
     1
 44
0.78031212484994
  0
MTEXT
  5
19D
330
3F
100
AcDbEntity
  8
1
 62
     2
100
AcDbMText
 10
135.5
 20
25.00000000000001
 30
0.0
 40
3.0
 41
0.0
 71
     5
 72
     1
  1
製図
  7
CONVERTER_1
 73
     1
 44
0.78031212484994
  0
MTEXT
  5
19E
330
3F
100
AcDbEntity
  8
1
 62
     2
100
AcDbMText
 10
89.5
 20
24.00000000000001
 30
0.0
 40
3.5
 41
0.0
 71
     5
 72
     1
  1
尺度
  7
CONVERTER_1
 73
     1
 44
0.7202881152461
  0
MTEXT
  5
19F
330
3F
100
AcDbEntity
  8
1
 62
   250
100
AcDbMText
 10
25.0
 20
5.0
 30
0.0
 40
3.5
 41
0.0
 71
     4
 72
     1
  1
備考欄の文字列 原点位置=4
  7
CONVERTER_1
 73
     1
 44
0.7202881152461
  0
ENDBLK
  5
41
330
3F
100
AcDbEntity
  8
0
100
AcDbBlockEnd
  0
BLOCK
  5
43
330
42
100
AcDbEntity
  8
0
100
AcDbBlockBegin
  2
34-188-M2K
 70
     0
 71
     0
 10
2578.230925943963
 20
1455.664682362168
 30
0.0
  3
34-188-M2K
  1

  0
LINE
  5
1A0
330
42
100
AcDbEntity
  8
1
  6
Continuous
 62
     7
100
AcDbLine
 10
185.8430973374913
 20
278.3523601728632
 30
0.0
 11
185.8430973374913
 21
266.2280045198811
 31
0.0
  0
LINE
  5
1A1
330
42
100
AcDbEntity
  8
1
  6
Continuous
 62
     7
100
AcDbLine
 10
174.8430973374913
 20
285.2805634031388
 30
0.0
 11
185.3430973374913
 21
279.2183855766476
 31
0.0
  0
LINE
  5
1A2
330
42
100
AcDbEntity
  8
1
  6
Continuous
 62
     7
100
AcDbLine
 10
163.3430973374913
 20
279.2183855766477
 30
0.0
 11
173.8430973374913
 21
285.2805634031388
 31
0.0
  0
LINE
  5
1A3
330
42
100
AcDbEntity
  8
1
  6
Continuous
 62
     7
100
AcDbLine
 10
162.8430973374913
 20
266.2280045198811
 30
0.0
 11
162.8430973374913
 21
278.3523601728632
 31
0.0
  0
LINE
  5
1A4
330
42
100
AcDbEntity
  8
1
  6
Continuous
 62
     7
100
AcDbLine
 10
173.8430973374913
 20
259.2998012896055
 30
0.0
 11
163.3430973374913
 21
265.3619791160966
 31
0.0
  0
LINE
  5
1A5
330
42
100
AcDbEntity
  8
1
  6
Continuous
 62
     7
100
AcDbLine
 10
185.3430973374913
 20
265.3619791160966
 30
0.0
 11
174.8430973374913
 21
259.2998012896055
 31
0.0
  0
LINE
  5
1A6
330
42
100
AcDbEntity
  8
1
  6
Continuous
 62
     7
100
AcDbLine
 10
185.8430973374944
 20
389.5223554699577
 30
0.0
 11
185.8430973374944
 21
400.0580092226736
 31
0.0
  0
LINE
  5
1A7
330
42
100
AcDbEntity
  8
1
  6
Continuous
 62
     7
100
AcDbLine
 10
185.3430973374943
 20
388.7901823463841
 30
0.0
 11
163.3430973374944
 21
388.7901823463841
 31
0.0
  0
LINE
  5
1A8
330
42
100
AcDbEntity
  8
1
  6
Continuous
 62
     7
100
AcDbLine
 10
185.3430973374944
 20
400.7901823463841
 30
0.0
 11
163.3430973374943
 21
400.7901823463841
 31
0.0
  0
LINE
  5
1A9
330
42
100
AcDbEntity
  8
1
  6
Continuous
 62
     7
100
AcDbLine
 10
162.8430973374943
 20
400.0580092226736
 30
0.0
 11
162.8430973374943
 21
389.5223554699579
 31
0.0
  0
LINE
  5
1AA
330
42
100
AcDbEntity
  8
1
  6
Continuous
 62
     7
100
AcDbLine
 10
302.8430973375034
 20
261.2901823463764
 30
0.0
 11
302.8430973375034
 21
283.2901823463764
 31
0.0
  0
LINE
  5
1AB
330
42
100
AcDbEntity
  8
1
  6
Continuous
 62
     7
100
AcDbLine
 10
290.8430973375034
 20
261.2901823463764
 30
0.0
 11
290.8430973375034
 21
283.2901823463764
 31
0.0
  0
ARC
  5
1AC
330
42
100
AcDbEntity
  8
1
  6
Continuous
 62
     7
100
AcDbCircle
 10
174.3430973374911
 20
272.290182346372
 30
0.0
 40
12.99999999999988
100
AcDbArc
 50
-92.20422750397118
 51
-89.99999999999912
  0
ARC
  5
1AD
330
42
100
AcDbEntity
  8
1
  6
Continuous
 62
     7
100
AcDbCircle
 10
174.3430973374911
 20
272.290182346372
 30
0.0
 40
13.00000000000023
100
AcDbArc
 50
87.79577249602713
 51
89.99999999999912
  0
ARC
  5
1AE
330
42
100
AcDbEntity
  8
1
  6
Continuous
 62
     7
100
AcDbCircle
 10
174.3430973374911
 20
272.290182346372
 30
0.0
 40
12.99999999999977
100
AcDbArc
 50
-89.99999999999912
 51
-87.79577249602708
  0
ARC
  5
1AF
330
42
100
AcDbEntity
  8
1
  6
Continuous
 62
     7
100
AcDbCircle
 10
174.3430973374911
 20
272.290182346372
 30
0.0
 40
12.99999999999974
100
AcDbArc
 50
-152.2042275039724
 51
-147.7957724960281
  0
ARC
  5
1B0
330
42
100
AcDbEntity
  8
1
  6
Continuous
 62
     7
100
AcDbCircle
 10
174.3430973374911
 20
272.290182346372
 30
0.0
 40
12.99999999999993
100
AcDbArc
 50
147.7957724960268
 51
152.2042275039711
  0
ARC
  5
1B1
330
42
100
AcDbEntity
  8
1
  6
Continuous
 62
     7
100
AcDbCircle
 10
174.3430973374911
 20
272.290182346372
 30
0.0
 40
13.00000000000023
100
AcDbArc
 50
89.99999999999912
 51
92.20422750397111
  0
ARC
  5
1B2
330
42
100
AcDbEntity
  8
1
  6
Continuous
 62
     7
100
AcDbCircle
 10
174.3430973374911
 20
272.290182346372
 30
0.0
 40
13.00000000000025
100
AcDbArc
 50
27.79577249602815
 51
32.20422750397206
  0
ARC
  5
1B3
330
42
100
AcDbEntity
  8
1
  6
Continuous
 62
     7
100
AcDbCircle
 10
174.3430973374911
 20
272.290182346372
 30
0.0
 40
13.00000000000009
100
AcDbArc
 50
-32.204227503971
 51
-27.79577249602682
  0
ARC
  5
1B4
330
42
100
AcDbEntity
  8
1
  6
Continuous
 62
     7
100
AcDbCircle
 10
177.3430973374944
 20
394.7901823463841
 30
0.0
 40
9.999999999999909
100
AcDbArc
 50
-36.86989764584442
 51
-31.78833061705176
  0
ARC
  5
1B5
330
42
100
AcDbEntity
  8
1
  6
Continuous
 62
     7
100
AcDbCircle
 10
177.3430973374944
 20
394.7901823463841
 30
0.0
 40
9.99999999992791
100
AcDbArc
 50
31.78833061638514
 51
36.86989764584402
  0
ARC
  5
1B6
330
42
100
AcDbEntity
  8
1
  6
Continuous
 62
     7
100
AcDbCircle
 10
171.3430973374943
 20
394.7901823463841
 30
0.0
 40
10.0
100
AcDbArc
 50
143.130102354156
 51
148.2116693836149
  0
ARC
  5
1B7
330
42
100
AcDbEntity
  8
1
  6
Continuous
 62
     7
100
AcDbCircle
 10
171.3430973374943
 20
394.7901823463841
 30
0.0
 40
9.999999999999895
100
AcDbArc
 50
-148.2116693829493
 51
-143.1301023541556
  0
ARC
  5
1B8
330
42
100
AcDbEntity
  8
1
  6
Continuous
 62
     7
100
AcDbCircle
 10
296.8430973375034
 20
269.2901823463761
 30
0.0
 40
9.999999999999773
100
AcDbArc
 50
-126.869897645845
 51
-53.13010235415501
  0
ARC
  5
1B9
330
42
100
AcDbEntity
  8
1
  6
Continuous
 62
     7
100
AcDbCircle
 10
296.8430973375034
 20
275.2901823463764
 30
0.0
 40
10.0
100
AcDbArc
 50
53.13010235415598
 51
126.869897645844
  0
CIRCLE
  5
1BA
330
42
100
AcDbEntity
  8
1
  6
Continuous
 62
     7
100
AcDbCircle
 10
174.3430973374911
 20
272.290182346372
 30
0.0
 40
10.99999999999977
  0
SPLINE
  5
1BB
330
42
100
AcDbEntity
  8
1
  6
Continuous
 62
     7
100
AcDbSpline
210
0.0
220
0.0
230
1.0
 70
    11
 71
     3
 72
    79
 73
    75
 74
    73
 42
0.0000000001
 43
0.0000000001
 44
0.00000001
 40
0.0
 40
0.0
 40
0.0
 40
0.0
 40
0.4580629073446951
 40
0.9161250954497854
 40
1.374321004625507
 40
1.832515564104243
 40
2.290914921250046
 40
2.749312464134781
 40
3.207961104920683
 40
3.666607688416643
 40
4.125521335344494
 40
4.584432931141881
 40
5.043595344344023
 40
5.502755958881763
 40
5.962120941340424
 40
6.421484591837662
 40
6.880981585492429
 40
7.340477871484151
 40
7.800020458108045
 40
8.259563044731994
 40
8.719059330723615
 40
9.178556324378278
 40
9.637919974875633
 40
10.09728495733435
 40
10.55644557187216
 40
11.01560798507457
 40
11.47451958087206
 40
11.93343322779979
 40
12.39207981129563
 40
12.85072845208146
 40
13.30912599496618
 40
13.76752535211193
 40
14.22571991159059
 40
14.68391582076642
 40
15.14197800887155
 40
15.60004091621619
 40
16.05805737367877
 40
16.51607383114144
 40
16.97413673848603
 40
17.4321989265911
 40
17.89039483576688
 40
18.34858939524558
 40
18.80698875239135
 40
19.26538629527604
 40
19.72403493606186
 40
20.18268151955773
 40
20.64159516648547
 40
21.10050676228294
 40
21.55966917548529
 40
22.01882979002312
 40
22.47819477248183
 40
22.93755842297921
 40
23.39705541663389
 40
23.85655170262556
 40
24.31609428924945
 40
24.7756368758734
 40
25.23513316186508
 40
25.69463015551991
 40
26.15399380601713
 40
26.61335878847571
 40
27.07251940301342
 40
27.53168181621564
 40
27.99059341201302
 40
28.44950705894095
 40
28.90815364243685
 40
29.36680228322273
 40
29.82519982610742
 40
30.28359918325322
 40
30.741793742732
 40
31.19998965190769
 40
31.65805184001282
 40
32.11611474735738
 40
32.57413120482004
 40
33.03214766228277
 40
33.03214766228277
 40
33.03214766228277
 40
33.03214766228277
 10
180.5506731592339
 20
400.0379233404156
 30
0.0
 10
180.7024901580346
 20
400.0207399237088
 30
0.0
 10
181.0061239172564
 20
399.9863731172763
 30
0.0
 10
181.4536477063168
 20
399.8844008191325
 30
0.0
 10
181.891103283318
 20
399.7467369994639
 30
0.0
 10
182.3147497330657
 20
399.5703562282342
 30
0.0
 10
182.7215693534803
 20
399.3580227265075
 30
0.0
 10
183.1082914419338
 20
399.1106520052474
 30
0.0
 10
183.4721613802889
 20
398.8306271720637
 30
0.0
 10
183.810195038495
 20
398.5196485232355
 30
0.0
 10
184.1200666363633
 20
398.1804821865826
 30
0.0
 10
184.3991414788036
 20
397.8153399544229
 30
0.0
 10
184.6456051679288
 20
397.4273416049751
 30
0.0
 10
184.8572455756627
 20
397.0191337052174
 30
0.0
 10
185.0328181368676
 20
396.5940911456465
 30
0.0
 10
185.1705989513833
 20
396.1552221687175
 30
0.0
 10
185.269949642914
 20
395.7060460901881
 30
0.0
 10
185.3296898917629
 20
395.2498493991034
 30
0.0
 10
185.3498013980896
 20
394.7901823462482
 30
0.0
 10
185.3296898917633
 20
394.3305152933855
 30
0.0
 10
185.2699496429125
 20
393.8743186023236
 30
0.0
 10
185.1705989513889
 20
393.4251425237111
 30
0.0
 10
185.0328181368461
 20
392.9862735470919
 30
0.0
 10
184.8572455757425
 20
392.5612309863649
 30
0.0
 10
184.6456051676302
 20
392.1530230909186
 30
0.0
 10
184.3991414799172
 20
391.7650247253848
 30
0.0
 10
184.1200666322091
 20
391.3998825532263
 30
0.0
 10
183.8101950539937
 20
391.0607159927155
 30
0.0
 10
183.4721613224829
 20
390.7497381788716
 30
0.0
 10
183.1082916576225
 20
390.4697102304185
 30
0.0
 10
182.7215685490058
 20
390.222351129432
 30
0.0
 10
182.3147527349056
 20
390.0099742714949
 30
0.0
 10
181.8910920858428
 20
389.8337552390086
 30
0.0
 10
181.4536894914706
 20
389.6954879153147
 30
0.0
 10
181.005968023347
 20
389.5957673006458
 30
0.0
 10
180.5512703400113
 20
389.5358162045729
 30
0.0
 10
180.0930973374943
 20
389.5156254437073
 30
0.0
 10
179.6349243349773
 20
389.5358162045731
 30
0.0
 10
179.1802266516416
 20
389.5957673006454
 30
0.0
 10
178.7325051835181
 20
389.6954879153147
 30
0.0
 10
178.295102589146
 20
389.8337552390088
 30
0.0
 10
177.8714419400831
 20
390.009974271495
 30
0.0
 10
177.4646261259829
 20
390.2223511294319
 30
0.0
 10
177.0779030173661
 20
390.4697102304186
 30
0.0
 10
176.7140333525058
 20
390.7497381788717
 30
0.0
 10
176.375999620995
 20
391.0607159927155
 30
0.0
 10
176.0661280427795
 20
391.3998825532261
 30
0.0
 10
175.7870531950715
 20
391.7650247253848
 30
0.0
 10
175.5405895073586
 20
392.1530230909186
 30
0.0
 10
175.3289490992462
 20
392.561230986365
 30
0.0
 10
175.1533765381427
 20
392.9862735470919
 30
0.0
 10
175.0155957235998
 20
393.4251425237111
 30
0.0
 10
174.9162450320762
 20
393.8743186023235
 30
0.0
 10
174.8565047832254
 20
394.3305152933859
 30
0.0
 10
174.8363932768993
 20
394.7901823462472
 30
0.0
 10
174.8565047832256
 20
395.2498493991077
 30
0.0
 10
174.9162450320766
 20
395.7060460901719
 30
0.0
 10
175.0155957235996
 20
396.1552221687783
 30
0.0
 10
175.1533765381443
 20
396.5940911454199
 30
0.0
 10
175.3289490992405
 20
397.0191337060634
 30
0.0
 10
175.5405895073801
 20
397.4273416018194
 30
0.0
 10
175.7870531949916
 20
397.8153399661981
 30
0.0
 10
176.0661280430778
 20
398.1804821426645
 30
0.0
 10
176.3759996198822
 20
398.5196486871037
 30
0.0
 10
176.7140333566558
 20
398.8306265608938
 30
0.0
 10
177.0779030018811
 20
399.110654285692
 30
0.0
 10
177.4646261837386
 20
399.3580142209341
 30
0.0
 10
177.8714417245717
 20
399.5703879661944
 30
0.0
 10
178.2951033930473
 20
399.7466186104065
 30
0.0
 10
178.7325021836325
 20
399.8848426066767
 30
0.0
 10
179.1802378437483
 20
399.9847248766779
 30
0.0
 10
179.6348825667746
 20
400.0440727229588
 30
0.0
 10
180.0932532010537
 20
400.0665146285108
 30
0.0
 10
180.3981998398405
 20
400.0474537697807
 30
0.0
 10
180.5506731592339
 20
400.0379233404156
 30
0.0
 11
180.5506731592339
 21
400.0379233404156
 31
0.0
 11
181.0047957741143
 21
399.9779710448859
 31
0.0
 11
181.4519195541292
 21
399.8784658012212
 31
0.0
 11
181.8887846437492
 21
399.7402906057023
 31
0.0
 11
182.3118732602097
 21
399.5643978060843
 31
0.0
 11
182.7181985100644
 21
399.3521956337056
 31
0.0
 11
183.1044030006838
 21
399.1052656866596
 31
0.0
 11
183.467833943599
 21
398.825486263852
 31
0.0
 11
183.8054281863047
 21
398.5150240023057
 31
0.0
 11
184.1149158631953
 21
398.17617431116
 31
0.0
 11
184.3936505733459
 21
397.8116104427987
 31
0.0
 11
184.6397889232842
 21
397.4239946092893
 31
0.0
 11
184.8512008377082
 21
397.0163998689131
 31
0.0
 11
185.0265131272437
 21
396.5918038394368
 31
0.0
 11
185.1641805788868
 21
396.1535543258532
 31
0.0
 11
185.2633460138214
 21
395.7048855129277
 31
0.0
 11
185.3230835419697
 21
395.2492889100311
 31
0.0
 11
185.3430973374944
 21
394.790182346247
 31
0.0
 11
185.3230835419697
 21
394.3310757824628
 31
0.0
 11
185.2633460138214
 21
393.8754791795663
 31
0.0
 11
185.1641805788867
 21
393.4268103666409
 31
0.0
 11
185.0265131272436
 21
392.9885608530572
 31
0.0
 11
184.8512008377081
 21
392.5639648235808
 31
0.0
 11
184.6397889232842
 21
392.1563700832046
 31
0.0
 11
184.3936505733457
 21
391.7687542496949
 31
0.0
 11
184.1149158631949
 21
391.4041903813336
 31
0.0
 11
183.8054281863044
 21
391.065340690188
 31
0.0
 11
183.4678339435986
 21
390.7548784286419
 31
0.0
 11
183.1044030006835
 21
390.4750990058344
 31
0.0
 11
182.7181985100642
 21
390.2281690587883
 31
0.0
 11
182.3118732602096
 21
390.0159668864096
 31
0.0
 11
181.8887846437491
 21
389.8400740867917
 31
0.0
 11
181.451919554129
 21
389.7018988912728
 31
0.0
 11
181.004795774114
 21
389.602393647608
 31
0.0
 11
180.5506731592337
 21
389.5424413520782
 31
0.0
 11
180.0930973374943
 21
389.52235546982
 31
0.0
 11
179.6355215157549
 21
389.5424413520782
 31
0.0
 11
179.1813989008746
 21
389.6023936476079
 31
0.0
 11
178.7342751208597
 21
389.7018988912728
 31
0.0
 11
178.2974100312397
 21
389.8400740867918
 31
0.0
 11
177.8743214147792
 21
390.0159668864097
 31
0.0
 11
177.4679961649245
 21
390.2281690587884
 31
0.0
 11
177.0817916743052
 21
390.4750990058344
 31
0.0
 11
176.7183607313901
 21
390.7548784286419
 31
0.0
 11
176.3807664886842
 21
391.065340690188
 31
0.0
 11
176.0712788117937
 21
391.4041903813335
 31
0.0
 11
175.792544101643
 21
391.7687542496949
 31
0.0
 11
175.5464057517046
 21
392.1563700832046
 31
0.0
 11
175.3349938372807
 21
392.5639648235808
 31
0.0
 11
175.1596815477452
 21
392.9885608530572
 31
0.0
 11
175.022014096102
 21
393.4268103666409
 31
0.0
 11
174.9228486611673
 21
393.8754791795663
 31
0.0
 11
174.863111133019
 21
394.3310757824629
 31
0.0
 11
174.8430973374944
 21
394.790182346247
 31
0.0
 11
174.8631111330192
 21
395.2492889100312
 31
0.0
 11
174.9228486611675
 21
395.7048855129277
 31
0.0
 11
175.0220140961022
 21
396.1535543258533
 31
0.0
 11
175.1596815477453
 21
396.5918038394369
 31
0.0
 11
175.3349938372807
 21
397.0163998689131
 31
0.0
 11
175.5464057517046
 21
397.4239946092893
 31
0.0
 11
175.792544101643
 21
397.8116104427988
 31
0.0
 11
176.0712788117937
 21
398.17617431116
 31
0.0
 11
176.3807664886843
 21
398.5150240023058
 31
0.0
 11
176.71836073139
 21
398.825486263852
 31
0.0
 11
177.0817916743052
 21
399.1052656866596
 31
0.0
 11
177.4679961649245
 21
399.3521956337056
 31
0.0
 11
177.8743214147792
 21
399.5643978060843
 31
0.0
 11
178.2974100312397
 21
399.7402906057024
 31
0.0
 11
178.7342751208597
 21
399.8784658012212
 31
0.0
 11
179.1813989008746
 21
399.977971044886
 31
0.0
 11
179.6355215157549
 21
400.0379233404157
 31
0.0
 11
180.0930973374944
 21
400.0580092226738
 31
0.0
 11
180.5506731592339
 21
400.0379233404156
 31
0.0
  0
SPLINE
  5
1BC
330
42
100
AcDbEntity
  8
1
  6
Continuous
 62
     7
100
AcDbSpline
210
0.0
220
0.0
230
1.0
 70
    11
 71
     3
 72
    79
 73
    75
 74
    73
 42
0.0000000001
 43
0.0000000001
 44
0.00000001
 40
0.0
 40
0.0
 40
0.0
 40
0.0
 40
0.4580629073446106
 40
0.9161250954496731
 40
1.37432100462545
 40
1.832515564104159
 40
2.290914921249986
 40
2.74931246413465
 40
3.207961104920507
 40
3.666607688416509
 40
4.125521335344379
 40
4.584432931141818
 40
5.04359534434396
 40
5.502755958881687
 40
5.962120941340338
 40
6.421484591837559
 40
6.88098158549232
 40
7.340477871484056
 40
7.800020458107951
 40
8.259563044731904
 40
8.719059330723528
 40
9.178556324378183
 40
9.63791997487553
 40
10.09728495733424
 40
10.5564455718721
 40
11.0156079850744
 40
11.47451958087181
 40
11.93343322779959
 40
12.39207981129548
 40
12.85072845208128
 40
13.30912599496595
 40
13.76752535211172
 40
14.22571991159044
 40
14.68391582076632
 40
15.14197800887145
 40
15.60004091621604
 40
16.05805737367862
 40
16.51607383114114
 40
16.97413673848573
 40
17.43219892659097
 40
17.89039483576689
 40
18.34858939524553
 40
18.80698875239126
 40
19.26538629527592
 40
19.72403493606172
 40
20.1826815195575
 40
20.6415951664852
 40
21.10050676228274
 40
21.55966917548513
 40
22.01882979002297
 40
22.47819477248168
 40
22.93755842297903
 40
23.39705541663369
 40
23.85655170262536
 40
24.31609428924926
 40
24.77563687587321
 40
25.23513316186488
 40
25.69463015551971
 40
26.15399380601695
 40
26.61335878847556
 40
27.07251940301332
 40
27.53168181621556
 40
27.99059341201297
 40
28.44950705894082
 40
28.90815364243668
 40
29.36680228322252
 40
29.82519982610723
 40
30.28359918325298
 40
30.74179374273168
 40
31.19998965190755
 40
31.65805184001271
 40
32.11611474735733
 40
32.57413120481994
 40
33.0321476622826
 40
33.0321476622826
 40
33.0321476622826
 40
33.0321476622826
 10
168.1355215157549
 20
400.0379233404156
 30
0.0
 10
167.9837045169543
 20
400.0207399237088
 30
0.0
 10
167.6800707577324
 20
399.9863731172763
 30
0.0
 10
167.2325469686721
 20
399.8844008191326
 30
0.0
 10
166.7950913916708
 20
399.7467369994639
 30
0.0
 10
166.3714449419231
 20
399.5703562282344
 30
0.0
 10
165.9646253215086
 20
399.3580227265074
 30
0.0
 10
165.5779032330552
 20
399.1106520052474
 30
0.0
 10
165.2140332947001
 20
398.8306271720635
 30
0.0
 10
164.8759996364939
 20
398.5196485232356
 30
0.0
 10
164.5661280386257
 20
398.1804821865825
 30
0.0
 10
164.2870531961852
 20
397.8153399544231
 30
0.0
 10
164.0405895070601
 20
397.427341604975
 30
0.0
 10
163.8289490993262
 20
397.0191337052175
 30
0.0
 10
163.6533765381213
 20
396.5940911456465
 30
0.0
 10
163.5155957236056
 20
396.1552221687174
 30
0.0
 10
163.416245032075
 20
395.706046090188
 30
0.0
 10
163.356504783226
 20
395.2498493991034
 30
0.0
 10
163.3363932768992
 20
394.7901823462482
 30
0.0
 10
163.3565047832257
 20
394.3305152933856
 30
0.0
 10
163.4162450320765
 20
393.8743186023235
 30
0.0
 10
163.5155957236
 20
393.4251425237111
 30
0.0
 10
163.6533765381428
 20
392.9862735470918
 30
0.0
 10
163.8289490992463
 20
392.5612309863651
 30
0.0
 10
164.0405895073588
 20
392.1530230909186
 30
0.0
 10
164.2870531950716
 20
391.7650247253851
 30
0.0
 10
164.5661280427796
 20
391.399882553226
 30
0.0
 10
164.8759996209951
 20
391.0607159927157
 30
0.0
 10
165.2140333525059
 20
390.7497381788716
 30
0.0
 10
165.5779030173662
 20
390.4697102304185
 30
0.0
 10
165.9646261259829
 20
390.222351129432
 30
0.0
 10
166.3714419400831
 20
390.0099742714949
 30
0.0
 10
166.795102589146
 20
389.8337552390087
 30
0.0
 10
167.2325051835181
 20
389.6954879153146
 30
0.0
 10
167.6802266516419
 20
389.5957673006458
 30
0.0
 10
168.1349243349775
 20
389.5358162045728
 30
0.0
 10
168.5930973374944
 20
389.5156254437075
 30
0.0
 10
169.0512703400113
 20
389.5358162045731
 30
0.0
 10
169.505968023347
 20
389.5957673006455
 30
0.0
 10
169.9536894914707
 20
389.6954879153148
 30
0.0
 10
170.3910920858428
 20
389.8337552390087
 30
0.0
 10
170.8147527349059
 20
390.009974271495
 30
0.0
 10
171.221568549006
 20
390.222351129432
 30
0.0
 10
171.6082916576227
 20
390.4697102304186
 30
0.0
 10
171.9721613224829
 20
390.7497381788716
 30
0.0
 10
172.3101950539937
 20
391.0607159927156
 30
0.0
 10
172.6200666322091
 20
391.3998825532261
 30
0.0
 10
172.8991414799172
 20
391.765024725385
 30
0.0
 10
173.1456051676302
 20
392.1530230909186
 30
0.0
 10
173.3572455757426
 20
392.5612309863651
 30
0.0
 10
173.5328181368461
 20
392.9862735470918
 30
0.0
 10
173.670598951389
 20
393.4251425237111
 30
0.0
 10
173.7699496429125
 20
393.8743186023235
 30
0.0
 10
173.8296898917633
 20
394.3305152933859
 30
0.0
 10
173.8498013980894
 20
394.790182346247
 30
0.0
 10
173.8296898917635
 20
395.2498493991079
 30
0.0
 10
173.7699496429123
 20
395.7060460901718
 30
0.0
 10
173.6705989513894
 20
396.1552221687783
 30
0.0
 10
173.5328181368446
 20
396.5940911454197
 30
0.0
 10
173.3572455757484
 20
397.0191337060635
 30
0.0
 10
173.1456051676087
 20
397.4273416018193
 30
0.0
 10
172.8991414799971
 20
397.8153399661979
 30
0.0
 10
172.6200666319108
 20
398.1804821426645
 30
0.0
 10
172.3101950551065
 20
398.5196486871036
 30
0.0
 10
171.972161318333
 20
398.830626560894
 30
0.0
 10
171.6082916731077
 20
399.1106542856921
 30
0.0
 10
171.2215684912503
 20
399.3580142209341
 30
0.0
 10
170.8147529504172
 20
399.5703879661945
 30
0.0
 10
170.3910912819416
 20
399.7466186104064
 30
0.0
 10
169.9536924913564
 20
399.8848426066766
 30
0.0
 10
169.5059568312404
 20
399.9847248766779
 30
0.0
 10
169.0513121082142
 20
400.044072722959
 30
0.0
 10
168.5929414739351
 20
400.0665146285106
 30
0.0
 10
168.2879948351483
 20
400.0474537697807
 30
0.0
 10
168.1355215157549
 20
400.0379233404156
 30
0.0
 11
168.1355215157549
 21
400.0379233404156
 31
0.0
 11
167.6813989008746
 21
399.9779710448859
 31
0.0
 11
167.2342751208597
 21
399.8784658012212
 31
0.0
 11
166.7974100312397
 21
399.7402906057023
 31
0.0
 11
166.3743214147792
 21
399.5643978060843
 31
0.0
 11
165.9679961649245
 21
399.3521956337056
 31
0.0
 11
165.5817916743052
 21
399.1052656866596
 31
0.0
 11
165.2183607313901
 21
398.825486263852
 31
0.0
 11
164.8807664886842
 21
398.5150240023057
 31
0.0
 11
164.5712788117937
 21
398.17617431116
 31
0.0
 11
164.292544101643
 21
397.8116104427987
 31
0.0
 11
164.0464057517046
 21
397.4239946092893
 31
0.0
 11
163.8349938372807
 21
397.0163998689131
 31
0.0
 11
163.6596815477452
 21
396.5918038394368
 31
0.0
 11
163.5220140961021
 21
396.1535543258532
 31
0.0
 11
163.4228486611675
 21
395.7048855129277
 31
0.0
 11
163.3631111330192
 21
395.2492889100311
 31
0.0
 11
163.3430973374945
 21
394.790182346247
 31
0.0
 11
163.3631111330192
 21
394.3310757824628
 31
0.0
 11
163.4228486611676
 21
393.8754791795663
 31
0.0
 11
163.5220140961022
 21
393.4268103666409
 31
0.0
 11
163.6596815477453
 21
392.9885608530572
 31
0.0
 11
163.8349938372808
 21
392.5639648235808
 31
0.0
 11
164.0464057517048
 21
392.1563700832046
 31
0.0
 11
164.2925441016431
 21
391.7687542496949
 31
0.0
 11
164.5712788117938
 21
391.4041903813336
 31
0.0
 11
164.8807664886843
 21
391.065340690188
 31
0.0
 11
165.2183607313901
 21
390.7548784286419
 31
0.0
 11
165.5817916743052
 21
390.4750990058344
 31
0.0
 11
165.9679961649245
 21
390.2281690587883
 31
0.0
 11
166.3743214147792
 21
390.0159668864096
 31
0.0
 11
166.7974100312397
 21
389.8400740867917
 31
0.0
 11
167.2342751208598
 21
389.7018988912728
 31
0.0
 11
167.6813989008748
 21
389.602393647608
 31
0.0
 11
168.135521515755
 21
389.5424413520782
 31
0.0
 11
168.5930973374944
 21
389.52235546982
 31
0.0
 11
169.0506731592338
 21
389.5424413520782
 31
0.0
 11
169.5047957741141
 21
389.6023936476079
 31
0.0
 11
169.9519195541291
 21
389.7018988912728
 31
0.0
 11
170.3887846437493
 21
389.8400740867918
 31
0.0
 11
170.8118732602097
 21
390.0159668864097
 31
0.0
 11
171.2181985100643
 21
390.2281690587884
 31
0.0
 11
171.6044030006836
 21
390.4750990058344
 31
0.0
 11
171.9678339435987
 21
390.7548784286419
 31
0.0
 11
172.3054281863044
 21
391.065340690188
 31
0.0
 11
172.6149158631949
 21
391.4041903813335
 31
0.0
 11
172.8936505733457
 21
391.7687542496949
 31
0.0
 11
173.1397889232842
 21
392.1563700832046
 31
0.0
 11
173.3512008377081
 21
392.5639648235808
 31
0.0
 11
173.5265131272436
 21
392.9885608530572
 31
0.0
 11
173.6641805788867
 21
393.4268103666409
 31
0.0
 11
173.7633460138214
 21
393.8754791795663
 31
0.0
 11
173.8230835419697
 21
394.3310757824629
 31
0.0
 11
173.8430973374944
 21
394.790182346247
 31
0.0
 11
173.8230835419697
 21
395.2492889100312
 31
0.0
 11
173.7633460138214
 21
395.7048855129277
 31
0.0
 11
173.6641805788867
 21
396.1535543258533
 31
0.0
 11
173.5265131272436
 21
396.5918038394369
 31
0.0
 11
173.3512008377081
 21
397.0163998689131
 31
0.0
 11
173.1397889232841
 21
397.4239946092893
 31
0.0
 11
172.8936505733457
 21
397.8116104427988
 31
0.0
 11
172.6149158631949
 21
398.17617431116
 31
0.0
 11
172.3054281863045
 21
398.5150240023058
 31
0.0
 11
171.9678339435988
 21
398.825486263852
 31
0.0
 11
171.6044030006837
 21
399.1052656866596
 31
0.0
 11
171.2181985100643
 21
399.3521956337056
 31
0.0
 11
170.8118732602097
 21
399.5643978060843
 31
0.0
 11
170.3887846437493
 21
399.7402906057024
 31
0.0
 11
169.9519195541291
 21
399.8784658012212
 31
0.0
 11
169.5047957741141
 21
399.977971044886
 31
0.0
 11
169.0506731592338
 21
400.0379233404157
 31
0.0
 11
168.5930973374944
 21
400.0580092226738
 31
0.0
 11
168.1355215157549
 21
400.0379233404156
 31
0.0
  0
SPLINE
  5
1BD
330
42
100
AcDbEntity
  8
1
  6
Continuous
 62
     7
100
AcDbSpline
210
0.0
220
0.0
230
1.0
 70
     8
 71
     3
 72
    45
 73
    41
 74
    39
 42
0.0000000001
 43
0.0000000001
 44
0.00000001
 40
0.0
 40
0.0
 40
0.0
 40
0.0
 40
0.2639815460523196
 40
0.5283419841191668
 40
1.054652170762618
 40
1.580985067100833
 40
2.101700160272572
 40
2.622460348438509
 40
3.134495226137517
 40
3.646596368619129
 40
4.147789061289598
 40
4.649065936797187
 40
5.138470095605216
 40
5.627969508813812
 40
6.106046361246397
 40
6.584217829940156
 40
7.052873649570254
 40
7.521607363809171
 40
7.98402555662769
 40
8.446488192993016
 40
8.906737372258892
 40
9.366986551524825
 40
9.829449187890143
 40
10.29186738070865
 40
10.76060109494749
 40
11.22925691457774
 40
11.70742838327166
 40
12.18550523570432
 40
12.67500464891283
 40
13.16440880772086
 40
13.66568568322842
 40
14.16687837589907
 40
14.67897951838068
 40
15.19101439607957
 40
15.71177458424534
 40
16.2324896774171
 40
16.75882257375532
 40
17.28513276039878
 40
17.54949319846375
 40
17.81347474451374
 40
17.81347474451374
 40
17.81347474451374
 40
17.81347474451374
 10
291.5752704610766
 20
272.2901823463806
 30
0.0
 10
291.5762389724258
 20
272.2021825824538
 30
0.0
 10
291.5781773852258
 20
272.0260567487718
 30
0.0
 10
291.5988127204695
 20
271.6750033013149
 30
0.0
 10
291.6483063483939
 20
271.2383765617042
 30
0.0
 10
291.7475094472009
 20
270.7228585278095
 30
0.0
 10
291.8853895770607
 20
270.2182401982743
 30
0.0
 10
292.0606077052286
 20
269.7303750714432
 30
0.0
 10
292.272606851422
 20
269.2604782693432
 30
0.0
 10
292.5187128201438
 20
268.8149151592434
 30
0.0
 10
292.7985630605131
 20
268.3940276761585
 30
0.0
 10
293.1082848242862
 20
268.0041814319611
 30
0.0
 10
293.4476657553726
 20
267.6451967215652
 30
0.0
 10
293.8118552599032
 20
267.3229033586364
 30
0.0
 10
294.2005793557953
 20
267.0369268282268
 30
0.0
 10
294.608425605256
 20
266.7921224855851
 30
0.0
 10
295.034690582898
 20
266.5881059255889
 30
0.0
 10
295.4739481179315
 20
266.4285109788271
 30
0.0
 10
295.9246546744324
 20
266.3129091122167
 30
0.0
 10
296.3819322639965
 20
266.2437039042411
 30
0.0
 10
296.8430973375033
 20
266.2201736580253
 30
0.0
 10
297.3042624110105
 20
266.2437039042411
 30
0.0
 10
297.7615400005745
 20
266.3129091122167
 30
0.0
 10
298.2122465570755
 20
266.4285109788269
 30
0.0
 10
298.6515040921088
 20
266.5881059255888
 30
0.0
 10
299.0777690697511
 20
266.7921224855849
 30
0.0
 10
299.4856153192117
 20
267.0369268282267
 30
0.0
 10
299.8743394151041
 20
267.3229033586364
 30
0.0
 10
300.2385289196345
 20
267.6451967215653
 30
0.0
 10
300.577909850721
 20
268.0041814319609
 30
0.0
 10
300.8876316144938
 20
268.3940276761587
 30
0.0
 10
301.1674818548632
 20
268.8149151592435
 30
0.0
 10
301.4135878235852
 20
269.2604782693433
 30
0.0
 10
301.6255869697782
 20
269.7303750714432
 30
0.0
 10
301.8008050979461
 20
270.2182401982744
 30
0.0
 10
301.9386852278059
 20
270.7228585278094
 30
0.0
 10
302.0378883266131
 20
271.2383765617043
 30
0.0
 10
302.0873819545371
 20
271.6750033013142
 30
0.0
 10
302.1080172897811
 20
272.0260567487698
 30
0.0
 10
302.1099557025812
 20
272.2021825824504
 30
0.0
 10
302.1109242139303
 20
272.2901823463764
 30
0.0
 11
291.5752704610766
 21
272.2901823463806
 31
0.0
 11
291.580272767529
 21
272.0262482000745
 31
0.0
 11
291.5952796868863
 21
271.7623140537685
 31
0.0
 11
291.6550082628939
 21
271.2394040139215
 31
0.0
 11
291.7544497298187
 21
270.7225503475675
 31
0.0
 11
291.8918536580788
 21
270.2202910830879
 31
0.0
 11
292.0680084744923
 21
269.7302291949218
 31
0.0
 11
292.2787726760441
 21
269.2635835399281
 31
0.0
 11
292.5265356195425
 21
268.815408234986
 31
0.0
 11
292.8042691163888
 21
268.3982053827476
 31
0.0
 11
293.1162480242587
 21
268.0058437294697
 31
0.0
 11
293.4527034587198
 21
267.6504366793424
 31
0.0
 11
293.8193938747116
 21
267.3261716421409
 31
0.0
 11
294.2047015551041
 21
267.0431602143461
 31
0.0
 11
294.6147476144329
 21
266.7971720384075
 31
0.0
 11
295.0376359392817
 21
266.5951726770725
 31
0.0
 11
295.478197426055
 21
266.4351199631427
 31
0.0
 11
295.9261951079875
 21
266.3205395894626
 31
0.0
 11
296.3834345603685
 21
266.2512303316375
 31
0.0
 11
296.8430973375034
 21
266.2280045198853
 31
0.0
 11
297.3027601146384
 21
266.2512303316375
 31
0.0
 11
297.7599995670194
 21
266.3205395894625
 31
0.0
 11
298.2079972489519
 21
266.4351199631426
 31
0.0
 11
298.6485587357252
 21
266.5951726770723
 31
0.0
 11
299.0714470605741
 21
266.7971720384073
 31
0.0
 11
299.4814931199031
 21
267.0431602143461
 31
0.0
 11
299.8668008002956
 21
267.3261716421409
 31
0.0
 11
300.2334912162873
 21
267.6504366793424
 31
0.0
 11
300.5699466507484
 21
268.0058437294697
 31
0.0
 11
300.8819255586182
 21
268.3982053827477
 31
0.0
 11
301.1596590554645
 21
268.8154082349862
 31
0.0
 11
301.407421998963
 21
269.2635835399283
 31
0.0
 11
301.6181862005146
 21
269.7302291949219
 31
0.0
 11
301.794341016928
 21
270.2202910830879
 31
0.0
 11
301.9317449451881
 21
270.7225503475675
 31
0.0
 11
302.031186412113
 21
271.2394040139215
 31
0.0
 11
302.0909149881206
 21
271.7623140537685
 31
0.0
 11
302.1059219074779
 21
272.0262482000726
 31
0.0
 11
302.1109242139303
 21
272.2901823463764
 31
0.0
  0
SPLINE
  5
1BE
330
42
100
AcDbEntity
  8
1
  6
Continuous
 62
     7
100
AcDbSpline
210
0.0
220
0.0
230
1.0
 70
    11
 71
     3
 72
    79
 73
    75
 74
    73
 42
0.0000000001
 43
0.0000000001
 44
0.00000001
 40
0.0
 40
0.0
 40
0.0
 40
0.0
 40
0.2746255860865011
 40
0.5489296448750209
 40
0.8445351226056831
 40
1.139720930735193
 40
1.464847760107584
 40
1.789634474685768
 40
2.147784125837323
 40
2.505702211207189
 40
2.896040828699559
 40
3.286231079274624
 40
3.704624946715739
 40
4.122927269101228
 40
4.562895988146187
 40
5.002812031777811
 40
5.456315478849696
 40
5.909794870758202
 40
6.367899400179643
 40
6.826003929601079
 40
7.279483321509519
 40
7.732986768581475
 40
8.172902812213064
 40
8.612871531258092
 40
9.031173853643598
 40
9.449567721084639
 40
9.839757971659704
 40
10.23009658915223
 40
10.58801467452222
 40
10.94616432567377
 40
11.27095104025183
 40
11.59607786962415
 40
11.89126367775367
 40
12.18686915548426
 40
12.46117321427277
 40
12.73579880035925
 40
13.00262036940759
 40
13.26944193845597
 40
13.54406752454252
 40
13.81837158333104
 40
14.11397706106162
 40
14.40916286919101
 40
14.73428969856328
 40
15.05907641314146
 40
15.41722606429309
 40
15.77514414966307
 40
16.16548276715554
 40
16.55567301773068
 40
16.9740668851717
 40
17.39236920755726
 40
17.83233792660223
 40
18.27225397023381
 40
18.72575741730574
 40
19.17923680921424
 40
19.63734133863568
 40
20.09544586805706
 40
20.5489252599655
 40
21.00242870703744
 40
21.44234475066907
 40
21.88231346971401
 40
22.3006157920995
 40
22.7190096595406
 40
23.10919991011571
 40
23.49953852760808
 40
23.85745661297797
 40
24.21560626412948
 40
24.54039297870763
 40
24.86551980808014
 40
25.16070561620966
 40
25.45631109394035
 40
25.73061515272876
 40
26.00524073881537
 40
26.27206230786376
 40
26.5388838769121
 40
26.5388838769121
 40
26.5388838769121
 40
26.5388838769121
 10
291.5959588027594
 20
262.0648718910271
 30
0.0
 10
291.613701831428
 20
261.9748826227665
 30
0.0
 10
291.6491671155076
 20
261.7950094442591
 30
0.0
 10
291.7550435218462
 20
261.5326231080172
 30
0.0
 10
291.8947083934746
 20
261.2796732266715
 30
0.0
 10
292.0754776502864
 20
261.0326959818201
 30
0.0
 10
292.288715785418
 20
260.8000107312511
 30
0.0
 10
292.5397322466297
 20
260.5758954740883
 30
0.0
 10
292.8188354828794
 20
260.3690349340178
 30
0.0
 10
293.1322559364355
 20
260.1739925459754
 30
0.0
 10
293.4689793149083
 20
259.9982453322442
 30
0.0
 10
293.8352619003563
 20
259.8377189526185
 30
0.0
 10
294.21990161248
 20
259.6979805431218
 30
0.0
 10
294.6279906926879
 20
259.5765123976415
 30
0.0
 10
295.0493387053992
 20
259.47691952285
 30
0.0
 10
295.4869361473636
 20
259.3979541006369
 30
0.0
 10
295.9325547371113
 20
259.3415871894601
 30
0.0
 10
296.3864833289592
 20
259.3073232596216
 30
0.0
 10
296.8430973375008
 20
259.2960212223534
 30
0.0
 10
297.2997113460586
 20
259.3073232596199
 30
0.0
 10
297.7536399378582
 20
259.3415871894655
 30
0.0
 10
298.1992585277802
 20
259.3979541006154
 30
0.0
 10
298.6368559691142
 20
259.4769195229271
 30
0.0
 10
299.0582039841252
 20
259.5765123973595
 30
0.0
 10
299.4662930561535
 20
259.6979805441173
 30
0.0
 10
299.8509327978038
 20
259.8377189490025
 30
0.0
 10
300.2172152801265
 20
259.9982453447336
 30
0.0
 10
300.553939027355
 20
260.1739925008756
 30
0.0
 10
300.8673582131154
 20
260.3690350869114
 30
0.0
 10
301.1464659510736
 20
260.575894923945
 30
0.0
 10
301.3974670910964
 20
260.8000125738345
 30
0.0
 10
301.6107595329057
 20
261.0326893432706
 30
0.0
 10
301.7913436998823
 20
261.2796954938031
 30
0.0
 10
301.931669571215
 20
261.5325421461052
 30
0.0
 10
302.0352461409568
 20
261.7952876503323
 30
0.0
 10
302.0963252979732
 20
262.061284937875
 30
0.0
 10
302.1181184629444
 20
262.3308902028551
 30
0.0
 10
302.0963252979733
 20
262.6004954678353
 30
0.0
 10
302.0352461409567
 20
262.866492755378
 30
0.0
 10
301.931669571215
 20
263.1292382596051
 30
0.0
 10
301.7913436998824
 20
263.3820849119073
 30
0.0
 10
301.6107595329057
 20
263.6290910624397
 30
0.0
 10
301.3974670910963
 20
263.8617678318757
 30
0.0
 10
301.1464659510737
 20
264.0858854817653
 30
0.0
 10
300.8673582131154
 20
264.2927453187991
 30
0.0
 10
300.5539390273549
 20
264.4877879048347
 30
0.0
 10
300.2172152801267
 20
264.6635350609769
 30
0.0
 10
299.8509327978038
 20
264.8240614567079
 30
0.0
 10
299.4662930561536
 20
264.9637998615933
 30
0.0
 10
299.0582039841252
 20
265.0852680083509
 30
0.0
 10
298.6368559691141
 20
265.1848608827834
 30
0.0
 10
298.1992585277802
 20
265.263826305095
 30
0.0
 10
297.7536399378585
 20
265.3201932162446
 30
0.0
 10
297.2997113460579
 20
265.3544571460905
 30
0.0
 10
296.8430973375034
 20
265.3657591833563
 30
0.0
 10
296.3864833289496
 20
265.3544571460906
 30
0.0
 10
295.9325547371458
 20
265.3201932162442
 30
0.0
 10
295.4869361472365
 20
265.2638263050965
 30
0.0
 10
295.0493387058578
 20
265.1848608827779
 30
0.0
 10
294.6279906910095
 20
265.0852680083709
 30
0.0
 10
294.2199016184025
 20
264.9637998615229
 30
0.0
 10
293.8352618788412
 20
264.8240614569638
 30
0.0
 10
293.4689793892219
 20
264.6635350600933
 30
0.0
 10
293.1322556680854
 20
264.4877879080259
 30
0.0
 10
292.8188363926204
 20
264.292745307981
 30
0.0
 10
292.5397289731868
 20
264.0858855206915
 30
0.0
 10
292.2887267490922
 20
263.8617677015014
 30
0.0
 10
292.0754381498263
 20
263.6290915321596
 30
0.0
 10
291.8948408865643
 20
263.3820833363658
 30
0.0
 10
291.7545617851724
 20
263.1292439881763
 30
0.0
 10
291.6508224873376
 20
262.8664730705258
 30
0.0
 10
291.5903359182411
 20
262.6005683280836
 30
0.0
 10
291.5663898126288
 20
262.3306268360196
 30
0.0
 10
291.5861024727158
 20
262.1534568726912
 30
0.0
 10
291.5959588027594
 20
262.0648718910271
 30
0.0
 11
291.5959588027594
 21
262.0648718910271
 31
0.0
 11
291.6575356844404
 21
261.797238746264
 31
0.0
 11
291.7571362604324
 21
261.5416561922234
 31
0.0
 11
291.9000889199201
 21
261.2829147467421
 31
0.0
 11
292.0735381784804
 21
261.0440632949442
 31
0.0
 11
292.2925958239695
 21
260.8038109211151
 31
0.0
 11
292.5343808806081
 21
260.5869552171257
 31
0.0
 11
292.8216078008954
 21
260.3730116056711
 31
0.0
 11
293.1252113703832
 21
260.1834588994675
 31
0.0
 11
293.4709236155392
 21
260.0022207140454
 31
0.0
 11
293.8281515652897
 21
259.8452601344056
 31
0.0
 11
294.2212156855544
 21
259.7018933820783
 31
0.0
 11
294.6220668030989
 21
259.5823307856007
 31
0.0
 11
295.050151773852
 21
259.4807643957201
 31
0.0
 11
295.4830538692795
 21
259.4025218163983
 31
0.0
 11
295.9329434882505
 21
259.3453841996452
 31
0.0
 11
296.3851356462179
 21
259.3112402227464
 31
0.0
 11
296.8430973375035
 21
259.2998012896096
 31
0.0
 11
297.301059028789
 21
259.3112402227462
 31
0.0
 11
297.7532511867564
 21
259.3453841996449
 31
0.0
 11
298.2031408057275
 21
259.4025218163981
 31
0.0
 11
298.636042901155
 21
259.4807643957201
 31
0.0
 11
299.0641278719081
 21
259.5823307856007
 31
0.0
 11
299.4649789894526
 21
259.7018933820784
 31
0.0
 11
299.8580431097172
 21
259.8452601344056
 31
0.0
 11
300.2152710594677
 21
260.0022207140454
 31
0.0
 11
300.5609833046239
 21
260.1834588994675
 31
0.0
 11
300.8645868741118
 21
260.3730116056711
 31
0.0
 11
301.1518137943991
 21
260.5869552171258
 31
0.0
 11
301.3935988510376
 21
260.8038109211151
 31
0.0
 11
301.6126564965266
 21
261.0440632949442
 31
0.0
 11
301.7861057550869
 21
261.2829147467421
 31
0.0
 11
301.9290584145745
 21
261.5416561922234
 31
0.0
 11
302.0286589905665
 21
261.797238746264
 31
0.0
 11
302.0902358722474
 21
262.0648718910271
 31
0.0
 11
302.1109242139302
 21
262.3308902028551
 31
0.0
 11
302.0902358722474
 21
262.5969085146832
 31
0.0
 11
302.0286589905665
 21
262.8645416594464
 31
0.0
 11
301.9290584145745
 21
263.120124213487
 31
0.0
 11
301.7861057550869
 21
263.3788656589683
 31
0.0
 11
301.6126564965266
 21
263.617717110766
 31
0.0
 11
301.3935988510377
 21
263.8579694845951
 31
0.0
 11
301.1518137943991
 21
264.0748251885846
 31
0.0
 11
300.8645868741117
 21
264.2887688000392
 31
0.0
 11
300.5609833046239
 21
264.4783215062429
 31
0.0
 11
300.2152710594678
 21
264.659559691665
 31
0.0
 11
299.8580431097172
 21
264.8165202713049
 31
0.0
 11
299.4649789894526
 21
264.9598870236321
 31
0.0
 11
299.0641278719081
 21
265.0794496201097
 31
0.0
 11
298.636042901155
 21
265.1810160099903
 31
0.0
 11
298.2031408057275
 21
265.2592585893123
 31
0.0
 11
297.7532511867564
 21
265.3163962060653
 31
0.0
 11
297.301059028789
 21
265.350540182964
 31
0.0
 11
296.8430973375034
 21
265.3619791161006
 31
0.0
 11
296.3851356462179
 21
265.350540182964
 31
0.0
 11
295.9329434882505
 21
265.3163962060653
 31
0.0
 11
295.4830538692795
 21
265.2592585893122
 31
0.0
 11
295.050151773852
 21
265.1810160099903
 31
0.0
 11
294.6220668030989
 21
265.0794496201098
 31
0.0
 11
294.2212156855544
 21
264.9598870236322
 31
0.0
 11
293.8281515652897
 21
264.816520271305
 31
0.0
 11
293.4709236155392
 21
264.6595596916651
 31
0.0
 11
293.1252113703832
 21
264.478321506243
 31
0.0
 11
292.8216078008954
 21
264.2887688000394
 31
0.0
 11
292.5343808806082
 21
264.0748251885847
 31
0.0
 11
292.2925958239695
 21
263.8579694845954
 31
0.0
 11
292.0735381784804
 21
263.6177171107662
 31
0.0
 11
291.9000889199201
 21
263.3788656589683
 31
0.0
 11
291.7571362604324
 21
263.1201242134869
 31
0.0
 11
291.6575356844404
 21
262.8645416594465
 31
0.0
 11
291.5959588027594
 21
262.5969085146832
 31
0.0
 11
291.5752704610766
 21
262.3308902028551
 31
0.0
 11
291.5959588027594
 21
262.0648718910271
 31
0.0
  0
SPLINE
  5
1BF
330
42
100
AcDbEntity
  8
1
  6
Continuous
 62
     7
100
AcDbSpline
210
0.0
220
0.0
230
1.0
 70
    11
 71
     3
 72
    79
 73
    75
 74
    73
 42
0.0000000001
 43
0.0000000001
 44
0.00000001
 40
0.0
 40
0.0
 40
0.0
 40
0.0
 40
0.2746255860865011
 40
0.5489296448749681
 40
0.8445351226056302
 40
1.13972093073514
 40
1.464847760107531
 40
1.789634474685715
 40
2.14778412583727
 40
2.505702211207166
 40
2.896040828699537
 40
3.286231079274624
 40
3.7046249467157
 40
4.122927269101205
 40
4.562895988146178
 40
5.002812031777791
 40
5.456315478849668
 40
5.909794870758175
 40
6.367899400179617
 40
6.826003929601053
 40
7.279483321509489
 40
7.732986768581445
 40
8.172902812213042
 40
8.612871531258071
 40
9.03117385364356
 40
9.449567721084602
 40
9.83975797165969
 40
10.23009658915224
 40
10.58801467452217
 40
10.94616432567373
 40
11.27095104025179
 40
11.59607786962414
 40
11.89126367775362
 40
12.18686915548431
 40
12.46117321427277
 40
12.7357988003593
 40
13.00262036940758
 40
13.26944193845597
 40
13.54406752454251
 40
13.81837158333093
 40
14.11397706106146
 40
14.40916286919094
 40
14.73428969856325
 40
15.05907641314147
 40
15.41722606429314
 40
15.77514414966308
 40
16.16548276715558
 40
16.55567301773072
 40
16.97406688517174
 40
17.39236920755728
 40
17.83233792660224
 40
18.27225397023381
 40
18.72575741730575
 40
19.17923680921425
 40
19.63734133863569
 40
20.09544586805707
 40
20.54892525996551
 40
21.00242870703745
 40
21.44234475066907
 40
21.88231346971403
 40
22.30061579209952
 40
22.71900965954062
 40
23.10919991011568
 40
23.49953852760808
 40
23.85745661297801
 40
24.21560626412958
 40
24.54039297870781
 40
24.86551980808028
 40
25.16070561620976
 40
25.45631109394035
 40
25.73061515272876
 40
26.00524073881532
 40
26.27206230786371
 40
26.53888387691204
 40
26.53888387691204
 40
26.53888387691204
 40
26.53888387691204
 10
291.5959588027594
 20
282.5154928017254
 30
0.0
 10
291.6137018314281
 20
282.605482069986
 30
0.0
 10
291.6491671155077
 20
282.7853552484934
 30
0.0
 10
291.7550435218461
 20
283.0477415847353
 30
0.0
 10
291.8947083934745
 20
283.3006914660809
 30
0.0
 10
292.0754776502864
 20
283.5476687109323
 30
0.0
 10
292.2887157854179
 20
283.7803539615014
 30
0.0
 10
292.5397322466298
 20
284.0044692186643
 30
0.0
 10
292.8188354828794
 20
284.2113297587345
 30
0.0
 10
293.1322559364353
 20
284.4063721467774
 30
0.0
 10
293.4689793149083
 20
284.5821193605083
 30
0.0
 10
293.8352619003562
 20
284.7426457401342
 30
0.0
 10
294.2199016124802
 20
284.8823841496306
 30
0.0
 10
294.6279906926879
 20
285.0038522951109
 30
0.0
 10
295.0493387053991
 20
285.1034451699027
 30
0.0
 10
295.4869361473636
 20
285.1824105921156
 30
0.0
 10
295.9325547371113
 20
285.2387775032923
 30
0.0
 10
296.3864833289591
 20
285.2730414331311
 30
0.0
 10
296.8430973375007
 20
285.284343470399
 30
0.0
 10
297.2997113460586
 20
285.2730414331327
 30
0.0
 10
297.7536399378583
 20
285.2387775032871
 30
0.0
 10
298.1992585277802
 20
285.1824105921372
 30
0.0
 10
298.6368559691142
 20
285.1034451698256
 30
0.0
 10
299.0582039841252
 20
285.003852295393
 30
0.0
 10
299.4662930561535
 20
284.8823841486353
 30
0.0
 10
299.8509327978038
 20
284.74264574375
 30
0.0
 10
300.2172152801266
 20
284.582119348019
 30
0.0
 10
300.5539390273549
 20
284.4063721918769
 30
0.0
 10
300.8673582131155
 20
284.2113296058413
 30
0.0
 10
301.1464659510737
 20
284.0044697688077
 30
0.0
 10
301.3974670910964
 20
283.7803521189181
 30
0.0
 10
301.6107595329056
 20
283.547675349482
 30
0.0
 10
301.7913436998825
 20
283.3006691989496
 30
0.0
 10
301.9316695712149
 20
283.0478225466472
 30
0.0
 10
302.0352461409568
 20
282.7850770424202
 30
0.0
 10
302.0963252979732
 20
282.5190797548775
 30
0.0
 10
302.1181184629444
 20
282.2494744898974
 30
0.0
 10
302.0963252979734
 20
281.9798692249173
 30
0.0
 10
302.0352461409566
 20
281.7138719373745
 30
0.0
 10
301.931669571215
 20
281.4511264331476
 30
0.0
 10
301.7913436998823
 20
281.1982797808453
 30
0.0
 10
301.6107595329056
 20
280.9512736303131
 30
0.0
 10
301.3974670910964
 20
280.7185968608768
 30
0.0
 10
301.1464659510737
 20
280.4944792109872
 30
0.0
 10
300.8673582131155
 20
280.2876193739534
 30
0.0
 10
300.5539390273548
 20
280.0925767879176
 30
0.0
 10
300.2172152801267
 20
279.9168296317757
 30
0.0
 10
299.8509327978038
 20
279.7563032360445
 30
0.0
 10
299.4662930561535
 20
279.6165648311592
 30
0.0
 10
299.058203984125
 20
279.4950966844016
 30
0.0
 10
298.6368559691142
 20
279.3955038099691
 30
0.0
 10
298.1992585277802
 20
279.3165383876577
 30
0.0
 10
297.7536399378585
 20
279.2601714765079
 30
0.0
 10
297.299711346058
 20
279.2259075466621
 30
0.0
 10
296.8430973375034
 20
279.2146055093963
 30
0.0
 10
296.3864833289496
 20
279.2259075466619
 30
0.0
 10
295.9325547371458
 20
279.2601714765083
 30
0.0
 10
295.4869361472365
 20
279.3165383876561
 30
0.0
 10
295.0493387058577
 20
279.3955038099746
 30
0.0
 10
294.6279906910096
 20
279.4950966843817
 30
0.0
 10
294.2199016184025
 20
279.6165648312297
 30
0.0
 10
293.8352618788414
 20
279.7563032357887
 30
0.0
 10
293.4689793892218
 20
279.9168296326592
 30
0.0
 10
293.1322556680854
 20
280.0925767847267
 30
0.0
 10
292.8188363926203
 20
280.2876193847716
 30
0.0
 10
292.5397289731867
 20
280.494479172061
 30
0.0
 10
292.2887267490924
 20
280.7185969912514
 30
0.0
 10
292.0754381498263
 20
280.9512731605933
 30
0.0
 10
291.8948408865643
 20
281.1982813563869
 30
0.0
 10
291.7545617851724
 20
281.4511207045763
 30
0.0
 10
291.6508224873375
 20
281.7138916222269
 30
0.0
 10
291.5903359182412
 20
281.9797963646688
 30
0.0
 10
291.5663898126289
 20
282.2497378567329
 30
0.0
 10
291.5861024727158
 20
282.4269078200612
 30
0.0
 10
291.5959588027594
 20
282.5154928017254
 30
0.0
 11
291.5959588027594
 21
282.5154928017254
 31
0.0
 11
291.6575356844404
 21
282.7831259464886
 31
0.0
 11
291.7571362604324
 21
283.0387085005291
 31
0.0
 11
291.9000889199201
 21
283.2974499460104
 31
0.0
 11
292.0735381784804
 21
283.5363013978083
 31
0.0
 11
292.2925958239695
 21
283.7765537716374
 31
0.0
 11
292.5343808806081
 21
283.9934094756268
 31
0.0
 11
292.8216078008954
 21
284.2073530870814
 31
0.0
 11
293.1252113703832
 21
284.396905793285
 31
0.0
 11
293.4709236155392
 21
284.5781439787072
 31
0.0
 11
293.8281515652897
 21
284.735104558347
 31
0.0
 11
294.2212156855544
 21
284.8784713106742
 31
0.0
 11
294.6220668030989
 21
284.9980339071518
 31
0.0
 11
295.050151773852
 21
285.0996002970325
 31
0.0
 11
295.4830538692795
 21
285.1778428763543
 31
0.0
 11
295.9329434882505
 21
285.2349804931073
 31
0.0
 11
296.3851356462179
 21
285.2691244700061
 31
0.0
 11
296.8430973375035
 21
285.2805634031429
 31
0.0
 11
297.301059028789
 21
285.2691244700063
 31
0.0
 11
297.7532511867564
 21
285.2349804931077
 31
0.0
 11
298.2031408057275
 21
285.1778428763545
 31
0.0
 11
298.636042901155
 21
285.0996002970325
 31
0.0
 11
299.0641278719081
 21
284.9980339071518
 31
0.0
 11
299.4649789894526
 21
284.8784713106742
 31
0.0
 11
299.8580431097172
 21
284.735104558347
 31
0.0
 11
300.2152710594677
 21
284.5781439787072
 31
0.0
 11
300.5609833046239
 21
284.396905793285
 31
0.0
 11
300.8645868741118
 21
284.2073530870815
 31
0.0
 11
301.1518137943991
 21
283.9934094756268
 31
0.0
 11
301.3935988510376
 21
283.7765537716375
 31
0.0
 11
301.6126564965266
 21
283.5363013978084
 31
0.0
 11
301.7861057550869
 21
283.2974499460105
 31
0.0
 11
301.9290584145745
 21
283.0387085005291
 31
0.0
 11
302.0286589905665
 21
282.7831259464886
 31
0.0
 11
302.0902358722474
 21
282.5154928017254
 31
0.0
 11
302.1109242139302
 21
282.2494744898974
 31
0.0
 11
302.0902358722474
 21
281.9834561780693
 31
0.0
 11
302.0286589905665
 21
281.7158230333062
 31
0.0
 11
301.9290584145745
 21
281.4602404792657
 31
0.0
 11
301.7861057550869
 21
281.2014990337844
 31
0.0
 11
301.6126564965266
 21
280.9626475819866
 31
0.0
 11
301.3935988510377
 21
280.7223952081574
 31
0.0
 11
301.1518137943991
 21
280.5055395041679
 31
0.0
 11
300.8645868741117
 21
280.2915958927132
 31
0.0
 11
300.5609833046239
 21
280.1020431865096
 31
0.0
 11
300.2152710594678
 21
279.9208050010874
 31
0.0
 11
299.8580431097172
 21
279.7638444214476
 31
0.0
 11
299.4649789894526
 21
279.6204776691204
 31
0.0
 11
299.0641278719081
 21
279.5009150726428
 31
0.0
 11
298.636042901155
 21
279.3993486827622
 31
0.0
 11
298.2031408057275
 21
279.3211061034403
 31
0.0
 11
297.7532511867564
 21
279.2639684866873
 31
0.0
 11
297.301059028789
 21
279.2298245097886
 31
0.0
 11
296.8430973375034
 21
279.2183855766519
 31
0.0
 11
296.3851356462179
 21
279.2298245097886
 31
0.0
 11
295.9329434882505
 21
279.2639684866873
 31
0.0
 11
295.4830538692795
 21
279.3211061034403
 31
0.0
 11
295.050151773852
 21
279.3993486827622
 31
0.0
 11
294.6220668030989
 21
279.5009150726428
 31
0.0
 11
294.2212156855544
 21
279.6204776691204
 31
0.0
 11
293.8281515652897
 21
279.7638444214476
 31
0.0
 11
293.4709236155392
 21
279.9208050010874
 31
0.0
 11
293.1252113703832
 21
280.1020431865096
 31
0.0
 11
292.8216078008954
 21
280.2915958927133
 31
0.0
 11
292.5343808806082
 21
280.505539504168
 31
0.0
 11
292.2925958239695
 21
280.7223952081574
 31
0.0
 11
292.0735381784804
 21
280.9626475819866
 31
0.0
 11
291.9000889199201
 21
281.2014990337844
 31
0.0
 11
291.7571362604324
 21
281.4602404792657
 31
0.0
 11
291.6575356844404
 21
281.7158230333062
 31
0.0
 11
291.5959588027594
 21
281.9834561780693
 31
0.0
 11
291.5752704610766
 21
282.2494744898974
 31
0.0
 11
291.5959588027594
 21
282.5154928017254
 31
0.0
  0
SPLINE
  5
1C0
330
42
100
AcDbEntity
  8
1
  6
Continuous
 62
     7
100
AcDbSpline
210
0.0
220
0.0
230
1.0
 70
     8
 71
     3
 72
    45
 73
    41
 74
    39
 42
0.0000000001
 43
0.0000000001
 44
0.00000001
 40
0.0
 40
0.0
 40
0.0
 40
0.0
 40
0.263981546052206
 40
0.5283419841190531
 40
1.054652170762617
 40
1.580985067100832
 40
2.101700160272516
 40
2.622460348438453
 40
3.134495226137565
 40
3.646596368619027
 40
4.147789061289544
 40
4.649065936797177
 40
5.138470095605165
 40
5.62796950881376
 40
6.106046361246346
 40
6.584217829940134
 40
7.05287364957028
 40
7.521607363809197
 40
7.984025556627702
 40
8.446488192993019
 40
8.906737372258892
 40
9.366986551524827
 40
9.829449187890161
 40
10.29186738070864
 40
10.76060109494748
 40
11.22925691457776
 40
11.70742838327167
 40
12.1855052357043
 40
12.67500464891278
 40
13.16440880772076
 40
13.66568568322837
 40
14.16687837589896
 40
14.67897951838063
 40
15.19101439607957
 40
15.71177458424534
 40
16.23248967741699
 40
16.75882257375521
 40
17.28513276039872
 40
17.54949319846364
 40
17.8134747445134
 40
17.8134747445134
 40
17.8134747445134
 40
17.8134747445134
 10
291.5752704610766
 20
272.290182346372
 30
0.0
 10
291.5762389724258
 20
272.3781821102988
 30
0.0
 10
291.5781773852257
 20
272.5543079439807
 30
0.0
 10
291.5988127204698
 20
272.9053613914376
 30
0.0
 10
291.6483063483938
 20
273.3419881310484
 30
0.0
 10
291.7475094472009
 20
273.857506164943
 30
0.0
 10
291.8853895770607
 20
274.3621244944783
 30
0.0
 10
292.0606077052287
 20
274.8499896213095
 30
0.0
 10
292.2726068514219
 20
275.3198864234094
 30
0.0
 10
292.5187128201438
 20
275.7654495335092
 30
0.0
 10
292.7985630605132
 20
276.1863370165939
 30
0.0
 10
293.1082848242861
 20
276.5761832607917
 30
0.0
 10
293.4476657553726
 20
276.9351679711873
 30
0.0
 10
293.8118552599031
 20
277.2574613341161
 30
0.0
 10
294.2005793557954
 20
277.5434378645257
 30
0.0
 10
294.6084256052561
 20
277.7882422071675
 30
0.0
 10
295.034690582898
 20
277.9922587671638
 30
0.0
 10
295.4739481179314
 20
278.1518537139256
 30
0.0
 10
295.9246546744324
 20
278.267455580536
 30
0.0
 10
296.3819322639965
 20
278.3366607885117
 30
0.0
 10
296.8430973375034
 20
278.3601910347271
 30
0.0
 10
297.3042624110105
 20
278.3366607885116
 30
0.0
 10
297.7615400005745
 20
278.2674555805355
 30
0.0
 10
298.2122465570755
 20
278.1518537139256
 30
0.0
 10
298.6515040921089
 20
277.9922587671637
 30
0.0
 10
299.077769069751
 20
277.7882422071675
 30
0.0
 10
299.4856153192117
 20
277.5434378645257
 30
0.0
 10
299.874339415104
 20
277.2574613341161
 30
0.0
 10
300.2385289196345
 20
276.9351679711874
 30
0.0
 10
300.577909850721
 20
276.5761832607917
 30
0.0
 10
300.8876316144937
 20
276.1863370165938
 30
0.0
 10
301.1674818548632
 20
275.7654495335092
 30
0.0
 10
301.4135878235852
 20
275.3198864234091
 30
0.0
 10
301.6255869697782
 20
274.8499896213093
 30
0.0
 10
301.8008050979461
 20
274.3621244944782
 30
0.0
 10
301.938685227806
 20
273.857506164943
 30
0.0
 10
302.0378883266131
 20
273.3419881310484
 30
0.0
 10
302.0873819545372
 20
272.9053613914383
 30
0.0
 10
302.108017289781
 20
272.5543079439829
 30
0.0
 10
302.1099557025812
 20
272.3781821103024
 30
0.0
 10
302.1109242139303
 20
272.2901823463764
 30
0.0
 11
291.5752704610766
 21
272.290182346372
 31
0.0
 11
291.580272767529
 21
272.554116492678
 31
0.0
 11
291.5952796868863
 21
272.818050638984
 31
0.0
 11
291.6550082628939
 21
273.3409606788311
 31
0.0
 11
291.7544497298187
 21
273.8578143451852
 31
0.0
 11
291.8918536580788
 21
274.3600736096647
 31
0.0
 11
292.0680084744923
 21
274.8501354978308
 31
0.0
 11
292.2787726760441
 21
275.3167811528246
 31
0.0
 11
292.5265356195425
 21
275.7649564577665
 31
0.0
 11
292.8042691163888
 21
276.1821593100049
 31
0.0
 11
293.1162480242587
 21
276.5745209632829
 31
0.0
 11
293.4527034587198
 21
276.9299280134101
 31
0.0
 11
293.8193938747116
 21
277.2541930506116
 31
0.0
 11
294.2047015551041
 21
277.5372044784064
 31
0.0
 11
294.6147476144329
 21
277.7831926543451
 31
0.0
 11
295.0376359392817
 21
277.9851920156802
 31
0.0
 11
295.478197426055
 21
278.14524472961
 31
0.0
 11
295.9261951079875
 21
278.2598251032901
 31
0.0
 11
296.3834345603685
 21
278.3291343611151
 31
0.0
 11
296.8430973375034
 21
278.3523601728672
 31
0.0
 11
297.3027601146384
 21
278.329134361115
 31
0.0
 11
297.7599995670194
 21
278.2598251032899
 31
0.0
 11
298.2079972489519
 21
278.1452447296099
 31
0.0
 11
298.6485587357252
 21
277.9851920156802
 31
0.0
 11
299.0714470605741
 21
277.7831926543451
 31
0.0
 11
299.4814931199031
 21
277.5372044784064
 31
0.0
 11
299.8668008002956
 21
277.2541930506116
 31
0.0
 11
300.2334912162873
 21
276.9299280134101
 31
0.0
 11
300.5699466507484
 21
276.5745209632829
 31
0.0
 11
300.8819255586182
 21
276.1821593100049
 31
0.0
 11
301.1596590554645
 21
275.7649564577664
 31
0.0
 11
301.407421998963
 21
275.3167811528243
 31
0.0
 11
301.6181862005146
 21
274.8501354978306
 31
0.0
 11
301.794341016928
 21
274.3600736096646
 31
0.0
 11
301.9317449451881
 21
273.8578143451852
 31
0.0
 11
302.031186412113
 21
273.3409606788311
 31
0.0
 11
302.0909149881206
 21
272.8180506389841
 31
0.0
 11
302.1059219074779
 21
272.55411649268
 31
0.0
 11
302.1109242139303
 21
272.2901823463764
 31
0.0
  0
ENDBLK
  5
44
330
42
100
AcDbEntity
  8
0
100
AcDbBlockEnd
  0
BLOCK
  5
47
330
45
100
AcDbEntity
  8
0
100
AcDbBlockBegin
  2
B41A-240-13
 70
     0
 71
     0
 10
2368.230925943963
 20
1455.664682362168
 30
0.0
  3
B41A-240-13
  1

  0
INSERT
  5
46
330
45
100
AcDbEntity
  8
1
100
AcDbBlockReference
  2
34-188-M2K
 10
2578.230925943963
 20
1455.664682362168
 30
0.0
  0
LINE
  5
1C1
330
45
100
AcDbEntity
  8
1
  6
PHANTOM
 62
     4
100
AcDbLine
 10
191.8430973374913
 20
272.290182346372
 30
0.0
 11
156.8430973374913
 21
272.290182346372
 31
0.0
  0
LINE
  5
1C2
330
45
100
AcDbEntity
  8
1
  6
PHANTOM
 62
     4
100
AcDbLine
 10
174.3430973374911
 20
291.2901823463722
 30
0.0
 11
174.3430973374911
 21
253.2901823463721
 31
0.0
  0
LINE
  5
1C3
330
45
100
AcDbEntity
  8
1
  6
PHANTOM
 62
     4
100
AcDbLine
 10
174.3430973374918
 20
406.7901823463841
 30
0.0
 11
174.3430973374911
 21
382.7901823463841
 31
0.0
  0
LINE
  5
1C4
330
45
100
AcDbEntity
  8
1
  6
PHANTOM
 62
     4
100
AcDbLine
 10
284.8430973375034
 20
272.290182346372
 30
0.0
 11
308.8430973375035
 21
272.290182346372
 31
0.0
  0
ENDBLK
  5
48
330
45
100
AcDbEntity
  8
0
100
AcDbBlockEnd
  0
BLOCK
  5
1E3
330
1DC
100
AcDbEntity
  8
0
100
AcDbBlockBegin
  2
*D07
 70
     1
 71
     0
 10
0.0
 20
0.0
 30
0.0
  3
*D07
  1

  0
LINE
  5
1DD
330
1DC
100
AcDbEntity
  8
1
  6
Continuous
 62
     2
100
AcDbLine
 10
133.5430973374914
 20
239.2901823463721
 30
0.0
 11
209.3430973374915
 21
239.2901823463721
 31
0.0
  0
LINE
  5
1DE
330
1DC
100
AcDbEntity
  8
1
  6
Continuous
 62
     2
100
AcDbLine
 10
133.5430973374914
 20
262.9521823463842
 30
0.0
 11
133.5430973374914
 21
237.2901823463721
 31
0.0
  0
LINE
  5
1DF
330
1DC
100
AcDbEntity
  8
1
  6
Continuous
 62
     2
100
AcDbLine
 10
209.3430973374915
 20
259.2901823463721
 30
0.0
 11
209.3430973374915
 21
237.2901823463721
 31
0.0
  0
SOLID
  5
1E0
330
1DC
100
AcDbEntity
  8
1
 62
     2
100
AcDbTrace
 10
140.5430973374914
 20
240.2117498294839
 30
0.0
 11
140.5430973374914
 21
238.3686148632603
 31
0.0
 12
133.5430973374914
 22
239.2901823463721
 32
0.0
 13
133.5430973374914
 23
239.2901823463721
 33
0.0
  0
SOLID
  5
1E1
330
1DC
100
AcDbEntity
  8
1
 62
     2
100
AcDbTrace
 10
202.3430973374915
 20
238.3686148632603
 30
0.0
 11
202.3430973374915
 21
240.2117498294839
 31
0.0
 12
209.3430973374915
 22
239.2901823463721
 32
0.0
 13
209.3430973374915
 23
239.2901823463721
 33
0.0
  0
MTEXT
  5
1E2
330
1DC
100
AcDbEntity
  8
1
 62
     7
100
AcDbMText
 10
167.907325831661
 20
241.2901823463721
 30
0.0
 40
7.0
 41
0.0
 71
     7
 72
     1
  1
76
  7
CONVERTER_2
 11
0.9999999999970621
 21
2.424068405545307E-6
 31
0.0
 73
     1
 44
0.60024009603842
  0
ENDBLK
  5
1E4
330
1DC
100
AcDbEntity
  8
0
100
AcDbBlockEnd
  0
BLOCK
  5
1EF
330
1E7
100
AcDbEntity
  8
0
100
AcDbBlockBegin
  2
*D18
 70
     1
 71
     0
 10
0.0
 20
0.0
 30
0.0
  3
*D18
  1

  0
LINE
  5
1E8
330
1E7
100
AcDbEntity
  8
1
  6
Continuous
 62
     2
100
AcDbLine
 10
361.3542043364337
 20
314.290182346372
 30
0.0
 11
361.3542043364337
 21
357.434381537982
 31
0.0
  0
LINE
  5
1E9
330
1E7
100
AcDbEntity
  8
1
  6
Continuous
 62
     2
100
AcDbLine
 10
361.3542043364337
 20
272.290182346372
 30
0.0
 11
361.3542043364337
 21
314.290182346372
 31
0.0
  0
LINE
  5
1EA
330
1E7
100
AcDbEntity
  8
1
  6
Continuous
 62
     2
100
AcDbLine
 10
347.3542043364337
 20
272.290182346372
 30
0.0
 11
363.3542043364337
 21
272.290182346372
 31
0.0
  0
LINE
  5
1EB
330
1E7
100
AcDbEntity
  8
1
  6
Continuous
 62
     2
100
AcDbLine
 10
330.0930973375038
 20
314.290182346372
 30
0.0
 11
363.3542043364337
 21
314.290182346372
 31
0.0
  0
SOLID
  5
1EC
330
1E7
100
AcDbEntity
  8
1
 62
     2
100
AcDbTrace
 10
360.432636853322
 20
279.290182346372
 30
0.0
 11
362.2757718195455
 21
279.290182346372
 31
0.0
 12
361.3542043364337
 22
272.290182346372
 32
0.0
 13
361.3542043364337
 23
272.290182346372
 33
0.0
  0
SOLID
  5
1ED
330
1E7
100
AcDbEntity
  8
1
 62
     2
100
AcDbTrace
 10
362.2757718195455
 20
307.290182346372
 30
0.0
 11
360.432636853322
 21
307.290182346372
 31
0.0
 12
361.3542043364337
 22
314.290182346372
 32
0.0
 13
361.3542043364337
 23
314.290182346372
 33
0.0
  0
MTEXT
  5
1EE
330
1E7
100
AcDbEntity
  8
1
 62
     7
100
AcDbMText
 10
359.3542043364337
 20
319.634381537982
 30
0.0
 40
7.0
 41
0.0
 71
     7
 72
     1
  1
42リフト5
  7
CONVERTER_1
 11
0.0
 21
1.0
 31
0.0
 73
     1
 44
0.60024009603842
  0
ENDBLK
  5
1F0
330
1E7
100
AcDbEntity
  8
0
100
AcDbBlockEnd
  0
BLOCK
  5
1FA
330
1F3
100
AcDbEntity
  8
0
100
AcDbBlockBegin
  2
*D29
 70
     1
 71
     0
 10
0.0
 20
0.0
 30
0.0
  3
*D29
  1

  0
LINE
  5
1F4
330
1F3
100
AcDbEntity
  8
1
  6
Continuous
 62
     2
100
AcDbLine
 10
229.3430973374915
 20
259.2901823463721
 30
0.0
 11
229.3430973374915
 21
285.290182346372
 31
0.0
  0
LINE
  5
1F5
330
1F3
100
AcDbEntity
  8
1
  6
Continuous
 62
     2
100
AcDbLine
 10
209.3430973374915
 20
285.290182346372
 30
0.0
 11
231.3430973374915
 21
285.290182346372
 31
0.0
  0
LINE
  5
1F6
330
1F3
100
AcDbEntity
  8
1
  6
Continuous
 62
     2
100
AcDbLine
 10
209.3430973374915
 20
259.2901823463721
 30
0.0
 11
231.3430973374915
 21
259.2901823463721
 31
0.0
  0
SOLID
  5
1F7
330
1F3
100
AcDbEntity
  8
1
 62
     2
100
AcDbTrace
 10
228.4215298543797
 20
266.2901823463721
 30
0.0
 11
230.2646648206033
 21
266.2901823463721
 31
0.0
 12
229.3430973374915
 22
259.2901823463721
 32
0.0
 13
229.3430973374915
 23
259.2901823463721
 33
0.0
  0
SOLID
  5
1F8
330
1F3
100
AcDbEntity
  8
1
 62
     2
100
AcDbTrace
 10
230.2646648206033
 20
278.290182346372
 30
0.0
 11
228.4215298543797
 21
278.290182346372
 31
0.0
 12
229.3430973374915
 22
285.290182346372
 32
0.0
 13
229.3430973374915
 23
285.290182346372
 33
0.0
  0
MTEXT
  5
1F9
330
1F3
100
AcDbEntity
  8
1
 62
     7
100
AcDbMText
 10
227.3430973374915
 20
267.040182346372
 30
0.0
 40
7.0
 41
0.0
 71
     7
 72
     1
  1
26
  7
CONVERTER_2
 11
0.0
 21
1.0
 31
0.0
 73
     1
 44
0.60024009603842
  0
ENDBLK
  5
1FB
330
1F3
100
AcDbEntity
  8
0
100
AcDbBlockEnd
  0
BLOCK
  5
207
330
1FE
100
AcDbEntity
  8
0
100
AcDbBlockBegin
  2
*D310
 70
     1
 71
     0
 10
0.0
 20
0.0
 30
0.0
  3
*D310
  1

  0
LINE
  5
1FF
330
1FE
100
AcDbEntity
  8
1
  6
Continuous
 62
     2
100
AcDbLine
 10
150.3430973374914
 20
454.7676823463718
 30
0.0
 11
164.3430973374914
 21
454.7676823463718
 31
0.0
  0
LINE
  5
200
330
1FE
100
AcDbEntity
  8
1
  6
Continuous
 62
     2
100
AcDbLine
 10
133.5430973374914
 20
454.7676823463718
 30
0.0
 11
150.3430973374914
 21
454.7676823463718
 31
0.0
  0
LINE
  5
201
330
1FE
100
AcDbEntity
  8
1
  6
Continuous
 62
     2
100
AcDbLine
 10
119.5430973374914
 20
454.7676823463718
 30
0.0
 11
133.5430973374914
 21
454.7676823463718
 31
0.0
  0
LINE
  5
202
330
1FE
100
AcDbEntity
  8
1
  6
Continuous
 62
     2
100
AcDbLine
 10
133.5430973374914
 20
433.6281823463722
 30
0.0
 11
133.5430973374914
 21
456.7676823463718
 31
0.0
  0
LINE
  5
203
330
1FE
100
AcDbEntity
  8
1
  6
Continuous
 62
     2
100
AcDbLine
 10
150.3430973374914
 20
434.767682346372
 30
0.0
 11
150.3430973374914
 21
456.7676823463718
 31
0.0
  0
SOLID
  5
204
330
1FE
100
AcDbEntity
  8
1
 62
     2
100
AcDbTrace
 10
126.5430973374914
 20
453.8461148632601
 30
0.0
 11
126.5430973374914
 21
455.6892498294836
 31
0.0
 12
133.5430973374914
 22
454.7676823463718
 32
0.0
 13
133.5430973374914
 23
454.7676823463718
 33
0.0
  0
SOLID
  5
205
330
1FE
100
AcDbEntity
  8
1
 62
     2
100
AcDbTrace
 10
157.3430973374914
 20
455.6892498294836
 30
0.0
 11
157.3430973374914
 21
453.8461148632601
 31
0.0
 12
150.3430973374914
 22
454.7676823463718
 32
0.0
 13
150.3430973374914
 23
454.7676823463718
 33
0.0
  0
MTEXT
  5
206
330
1FE
100
AcDbEntity
  8
1
 62
     7
100
AcDbMText
 10
137.855727908513
 20
456.7676823463718
 30
0.0
 40
7.0
 41
0.0
 71
     7
 72
     1
  1
16
  7
CONVERTER_2
 11
0.9999999999970621
 21
2.424068405545307E-6
 31
0.0
 73
     1
 44
0.60024009603842
  0
ENDBLK
  5
208
330
1FE
100
AcDbEntity
  8
0
100
AcDbBlockEnd
  0
BLOCK
  5
213
330
20B
100
AcDbEntity
  8
0
100
AcDbBlockBegin
  2
*D411
 70
     1
 71
     0
 10
0.0
 20
0.0
 30
0.0
  3
*D411
  1

  0
LINE
  5
20C
330
20B
100
AcDbEntity
  8
1
  6
Continuous
 62
     2
100
AcDbLine
 10
133.5430973374914
 20
352.7901823463841
 30
0.0
 11
174.3430973374913
 21
352.7901823463841
 31
0.0
  0
LINE
  5
20D
330
20B
100
AcDbEntity
  8
1
  6
Continuous
 62
     2
100
AcDbLine
 10
174.3430973374913
 20
382.7901823463841
 30
0.0
 11
174.3430973374913
 21
350.7901823463841
 31
0.0
  0
LINE
  5
20E
330
20B
100
AcDbEntity
  8
1
  6
Continuous
 62
     2
100
AcDbLine
 10
133.5430973374914
 20
375.499526947845
 30
0.0
 11
133.5430973374914
 21
350.7901823463841
 31
0.0
  0
LINE
  5
20F
330
20B
100
AcDbEntity
  8
1
  6
Continuous
 62
     2
100
AcDbLine
 10
133.5430973374914
 20
414.9521823463716
 30
0.0
 11
133.5430973374914
 21
390.409572552906
 31
0.0
  0
SOLID
  5
210
330
20B
100
AcDbEntity
  8
1
 62
     2
100
AcDbTrace
 10
140.5430973374914
 20
353.7117498294958
 30
0.0
 11
140.5430973374914
 21
351.8686148632723
 31
0.0
 12
133.5430973374914
 22
352.7901823463841
 32
0.0
 13
133.5430973374914
 23
352.7901823463841
 33
0.0
  0
SOLID
  5
211
330
20B
100
AcDbEntity
  8
1
 62
     2
100
AcDbTrace
 10
167.3430973374913
 20
351.8686148632723
 30
0.0
 11
167.3430973374913
 21
353.7117498294958
 31
0.0
 12
174.3430973374913
 22
352.7901823463841
 32
0.0
 13
174.3430973374913
 23
352.7901823463841
 33
0.0
  0
MTEXT
  5
212
330
20B
100
AcDbEntity
  8
1
 62
     7
100
AcDbMText
 10
150.233899565929
 20
354.7901823463841
 30
0.0
 40
7.0
 41
0.0
 71
     7
 72
     1
  1
41
  7
CONVERTER_2
 11
0.9999999999970621
 21
2.424068405545307E-6
 31
0.0
 73
     1
 44
0.60024009603842
  0
ENDBLK
  5
214
330
20B
100
AcDbEntity
  8
0
100
AcDbBlockEnd
  0
BLOCK
  5
21E
330
217
100
AcDbEntity
  8
0
100
AcDbBlockBegin
  2
*D512
 70
     1
 71
     0
 10
0.0
 20
0.0
 30
0.0
  3
*D512
  1

  0
LINE
  5
218
330
217
100
AcDbEntity
  8
1
  6
Continuous
 62
     2
100
AcDbLine
 10
209.3430973374914
 20
352.7901823463841
 30
0.0
 11
174.3430973374913
 21
352.7901823463841
 31
0.0
  0
LINE
  5
219
330
217
100
AcDbEntity
  8
1
  6
Continuous
 62
     2
100
AcDbLine
 10
174.3430973374913
 20
382.7901823463841
 30
0.0
 11
174.3430973374913
 21
350.7901823463841
 31
0.0
  0
LINE
  5
21A
330
217
100
AcDbEntity
  8
1
  6
Continuous
 62
     2
100
AcDbLine
 10
209.3430973374914
 20
411.2901823463718
 30
0.0
 11
209.3430973374914
 21
350.7901823463841
 31
0.0
  0
SOLID
  5
21B
330
217
100
AcDbEntity
  8
1
 62
     2
100
AcDbTrace
 10
202.3430973374914
 20
351.8686148632723
 30
0.0
 11
202.3430973374914
 21
353.7117498294958
 31
0.0
 12
209.3430973374914
 22
352.7901823463841
 32
0.0
 13
209.3430973374914
 23
352.7901823463841
 33
0.0
  0
SOLID
  5
21C
330
217
100
AcDbEntity
  8
1
 62
     2
100
AcDbTrace
 10
181.3430973374913
 20
353.7117498294958
 30
0.0
 11
181.3430973374913
 21
351.8686148632723
 31
0.0
 12
174.3430973374913
 22
352.7901823463841
 32
0.0
 13
174.3430973374913
 23
352.7901823463841
 33
0.0
  0
MTEXT
  5
21D
330
217
100
AcDbEntity
  8
1
 62
     7
100
AcDbMText
 10
186.371196819685
 20
354.7901823463841
 30
0.0
 40
7.0
 41
0.0
 71
     7
 72
     1
  1
35
  7
CONVERTER_2
 11
0.9999999999970621
 21
2.424068405545307E-6
 31
0.0
 73
     1
 44
0.60024009603842
  0
ENDBLK
  5
21F
330
217
100
AcDbEntity
  8
0
100
AcDbBlockEnd
  0
BLOCK
  5
22A
330
222
100
AcDbEntity
  8
0
100
AcDbBlockBegin
  2
*D613
 70
     1
 71
     0
 10
0.0
 20
0.0
 30
0.0
  3
*D613
  1

  0
LINE
  5
223
330
222
100
AcDbEntity
  8
1
  6
Continuous
 62
     2
100
AcDbLine
 10
147.540539858952
 20
368.7901823463841
 30
0.0
 11
162.8430973374943
 21
368.7901823463841
 31
0.0
  0
LINE
  5
224
330
222
100
AcDbEntity
  8
1
  6
Continuous
 62
     2
100
AcDbLine
 10
162.8430973374943
 20
368.7901823463841
 30
0.0
 11
185.8430973374944
 21
368.7901823463841
 31
0.0
  0
LINE
  5
225
330
222
100
AcDbEntity
  8
1
  6
Continuous
 62
     2
100
AcDbLine
 10
185.8430973374944
 20
389.5223554699577
 30
0.0
 11
185.8430973374944
 21
366.7901823463841
 31
0.0
  0
LINE
  5
226
330
222
100
AcDbEntity
  8
1
  6
Continuous
 62
     2
100
AcDbLine
 10
162.8430973374943
 20
389.5223554699579
 30
0.0
 11
162.8430973374943
 21
366.7901823463841
 31
0.0
  0
SOLID
  5
227
330
222
100
AcDbEntity
  8
1
 62
     2
100
AcDbTrace
 10
169.8430973374943
 20
369.7117498294958
 30
0.0
 11
169.8430973374943
 21
367.8686148632723
 31
0.0
 12
162.8430973374943
 22
368.7901823463841
 32
0.0
 13
162.8430973374943
 23
368.7901823463841
 33
0.0
  0
SOLID
  5
228
330
222
100
AcDbEntity
  8
1
 62
     2
100
AcDbTrace
 10
178.8430973374944
 20
367.8686148632723
 30
0.0
 11
178.8430973374944
 21
369.7117498294958
 31
0.0
 12
185.8430973374944
 22
368.7901823463841
 32
0.0
 13
185.8430973374944
 23
368.7901823463841
 33
0.0
  0
MTEXT
  5
229
330
222
100
AcDbEntity
  8
1
 62
     7
100
AcDbMText
 10
147.540539858952
 20
370.7901823463841
 30
0.0
 40
7.0
 41
0.0
 71
     7
 72
     1
  1
23
  7
CONVERTER_2
 11
0.9999999999970621
 21
2.424068405545307E-6
 31
0.0
 73
     1
 44
0.60024009603842
  0
ENDBLK
  5
22B
330
222
100
AcDbEntity
  8
0
100
AcDbBlockEnd
  0
BLOCK
  5
235
330
22E
100
AcDbEntity
  8
0
100
AcDbBlockBegin
  2
*D714
 70
     1
 71
     0
 10
0.0
 20
0.0
 30
0.0
  3
*D714
  1

  0
LINE
  5
22F
330
22E
100
AcDbEntity
  8
1
  6
Continuous
 62
     2
100
AcDbLine
 10
290.8430973375034
 20
239.2901823463721
 30
0.0
 11
326.3430973375027
 21
239.2901823463721
 31
0.0
  0
LINE
  5
230
330
22E
100
AcDbEntity
  8
1
  6
Continuous
 62
     2
100
AcDbLine
 10
326.3430973375027
 20
253.2901823463721
 30
0.0
 11
326.3430973375027
 21
237.2901823463721
 31
0.0
  0
LINE
  5
231
330
22E
100
AcDbEntity
  8
1
  6
Continuous
 62
     2
100
AcDbLine
 10
290.8430973375034
 20
261.2901823463764
 30
0.0
 11
290.8430973375034
 21
237.2901823463721
 31
0.0
  0
SOLID
  5
232
330
22E
100
AcDbEntity
  8
1
 62
     2
100
AcDbTrace
 10
297.8430973375034
 20
240.2117498294839
 30
0.0
 11
297.8430973375034
 21
238.3686148632603
 31
0.0
 12
290.8430973375034
 22
239.2901823463721
 32
0.0
 13
290.8430973375034
 23
239.2901823463721
 33
0.0
  0
SOLID
  5
233
330
22E
100
AcDbEntity
  8
1
 62
     2
100
AcDbTrace
 10
319.3430973375027
 20
238.3686148632603
 30
0.0
 11
319.3430973375027
 21
240.2117498294839
 31
0.0
 12
326.3430973375027
 22
239.2901823463721
 32
0.0
 13
326.3430973375027
 23
239.2901823463721
 33
0.0
  0
MTEXT
  5
234
330
22E
100
AcDbEntity
  8
1
 62
     7
100
AcDbMText
 10
303.743242908755
 20
241.2901823463721
 30
0.0
 40
7.0
 41
0.0
 71
     7
 72
     1
  1
36
  7
CONVERTER_2
 11
0.9999999999970621
 21
2.424068405545307E-6
 31
0.0
 73
     1
 44
0.60024009603842
  0
ENDBLK
  5
236
330
22E
100
AcDbEntity
  8
0
100
AcDbBlockEnd
  0
ENDSEC
  0
SECTION
  2
ENTITIES
  0
INSERT
  5
49
330
1F
100
AcDbEntity
  8
1
100
AcDbBlockReference
  2
B4121L-0B-13-M11
 10
-19.1778256229495
 20
634.607817146807
 30
0.0
  0
INSERT
  5
4A
330
1F
100
AcDbEntity
  8
1
100
AcDbBlockReference
  2
36-45A-M11
 10
582.0422565377066
 20
311.3173543257218
 30
0.0
  0
INSERT
  5
4B
330
1F
100
AcDbEntity
  8
0
100
AcDbBlockReference
  2
37-1-13
 10
82.54186712072035
 20
200.7944764562274
 30
0.0
  0
INSERT
  5
4C
330
1F
100
AcDbEntity
  8
1
100
AcDbBlockReference
  2
_J__A4
 10
0.0
 20
0.0
 30
0.0
 41
2.0
 42
2.0
 43
2.0
  0
INSERT
  5
4D
330
1F
100
AcDbEntity
  8
1
100
AcDbBlockReference
  2
B41A-240-13
 10
2368.230925943963
 20
1455.664682362168
 30
0.0
  0
LINE
  5
1C5
330
1F
100
AcDbEntity
  8
0
  6
DASH_CENTER
 62
     2
100
AcDbLine
 10
174.3430973374913
 20
444.7901823463725
 30
0.0
 11
174.3430973374913
 21
382.7901823463841
 31
0.0
  0
LINE
  5
1C6
330
1F
100
AcDbEntity
  8
1
  6
DASH_CENTER
 62
     2
100
AcDbLine
 10
174.3430973374912
 20
317.290182346372
 30
0.0
 11
174.3430973374913
 21
253.2901823463721
 31
0.0
  0
LINE
  5
1C7
330
1F
100
AcDbEntity
  8
0
  6
DASH_CENTER
 62
     2
100
AcDbLine
 10
130.5430973374914
 20
424.2901823463718
 30
0.0
 11
212.3430973374913
 21
424.2901823463718
 31
0.0
  0
LINE
  5
1C8
330
1F
100
AcDbEntity
  8
0
  6
DASH_CENTER
 62
     2
100
AcDbLine
 10
127.5430973374914
 20
272.290182346372
 30
0.0
 11
215.3430973374915
 21
272.290182346372
 31
0.0
  0
LINE
  5
1C9
330
1F
100
AcDbEntity
  8
1
  6
DASH_CENTER
 62
     2
100
AcDbLine
 10
326.3430973375027
 20
253.2901823463721
 30
0.0
 11
326.3430973375027
 21
320.290182346372
 31
0.0
  0
LINE
  5
1CA
330
1F
100
AcDbEntity
  8
0
  6
DASH_CENTER
 62
     2
100
AcDbLine
 10
284.8430973375034
 20
272.290182346372
 30
0.0
 11
347.3542043364337
 21
272.290182346372
 31
0.0
  0
SOLID
  5
1CB
330
1F
100
AcDbEntity
  8
1
 62
     2
100
AcDbTrace
 10
161.1593251251869
 20
398.2489007089578
 30
0.0
 11
159.563123421834
 21
399.1704681920696
 31
0.0
 12
163.8612242735105
 22
404.7718622770047
 32
0.0
 13
163.8612242735105
 23
404.7718622770047
 33
0.0
  0
LEADER
  5
1CC
330
1F
100
AcDbEntity
  8
1
  6
Continuous
 62
     2
100
AcDbLeader
  3
Standard
 71
     0
 76
     3
 10
163.8612242735105
 20
404.7718622770047
 30
0.0
 10
148.8606943715656
 20
378.79018234638
 30
0.0
 10
122.0
 20
378.79018234638
 30
0.0
  0
SOLID
  5
1CD
330
1F
100
AcDbEntity
  8
1
 62
     2
100
AcDbTrace
 10
142.1259964858148
 20
288.369076431307
 30
0.0
 11
143.7221981891677
 21
289.2906439144188
 31
0.0
 12
146.4240973374913
 22
282.7676823463719
 32
0.0
 13
146.4240973374913
 23
282.7676823463719
 33
0.0
  0
LEADER
  5
1CE
330
1F
100
AcDbEntity
  8
1
  6
Continuous
 62
     2
100
AcDbLeader
  3
Standard
 71
     0
 76
     3
 10
146.4240973374913
 20
282.7676823463719
 30
0.0
 10
134.8770919536917
 20
302.7676823463842
 30
0.0
 10
111.1001407797127
 20
302.7676823463842
 30
0.0
  0
SOLID
  5
1CF
330
1F
100
AcDbEntity
  8
1
 62
     2
100
AcDbTrace
 10
213.6411981891679
 20
259.894680763526
 30
0.0
 11
212.044996485815
 21
258.9731132804142
 31
0.0
 12
209.3430973374914
 22
265.4960748484611
 32
0.0
 13
209.3430973374914
 23
265.4960748484611
 33
0.0
  0
LEADER
  5
1D0
330
1F
100
AcDbEntity
  8
1
  6
Continuous
 62
     2
100
AcDbLeader
  3
Standard
 71
     0
 76
     3
 10
209.3430973374914
 20
265.4960748484611
 30
0.0
 10
224.4730764279269
 20
239.2901823463721
 30
0.0
 10
256.1940388077389
 20
239.2901823463721
 30
0.0
  0
MTEXT
  5
1D2
330
1F
100
AcDbEntity
  8
1
 62
     7
100
AcDbMText
 10
134.1940019977585
 20
384.79018234638
 30
0.0
 40
7.0
 41
0.0
 71
     5
 72
     1
  1
G1/2
  7
CONVERTER_2
 73
     1
 44
0.7202881152461
  0
MTEXT
  5
1D3
330
1F
100
AcDbEntity
  8
1
 62
     7
100
AcDbMText
 10
122.5089344970461
 20
308.7676823463842
 30
0.0
 40
7.0
 41
0.0
 71
     5
 72
     1
  1
G1/2
  7
CONVERTER_2
 73
     1
 44
0.7202881152461
  0
MTEXT
  5
1D4
330
1F
100
AcDbEntity
  8
1
 62
     7
100
AcDbMText
 10
114.0
 20
28.5
 30
0.0
 40
7.0
 41
0.0
 71
     5
 72
     1
  1
B4121D-L-13
  7
CONVERTER_2
 73
     1
 44
0.7202881152461
  0
MTEXT
  5
1D5
330
1F
100
AcDbEntity
  8
1
 62
     7
100
AcDbMText
 10
114.0
 20
45.50000000000002
 30
0.0
 40
7.0
 41
0.0
 71
     5
 72
     1
  1
D式ストレート分岐バルブ
  7
CONVERTER_1
 73
     1
 44
0.7202881152461
  0
MTEXT
  5
1D6
330
1F
100
AcDbEntity
  8
1
 62
     7
100
AcDbMText
 10
241.1602290642528
 20
245.2901823463721
 30
0.0
 40
7.0
 41
0.0
 71
     5
 72
     1
  1
Rc1/2
  7
CONVERTER_2
 73
     1
 44
0.7202881152461
  0
MTEXT
  5
1D7
330
1F
100
AcDbEntity
  8
1
 62
     7
100
AcDbMText
 10
170.5
 20
34.0
 30
0.0
 40
7.0
 41
0.0
 71
     5
 72
     1
  1
1
  7
CONVERTER_2
 73
     1
 44
0.7202881152461
  0
MTEXT
  5
1D8
330
1F
100
AcDbEntity
  8
1
 62
     7
100
AcDbMText
 10
187.5
 20
34.0
 30
0.0
 40
7.0
 41
0.0
 71
     5
 72
     1
  1
2
  7
CONVERTER_2
 73
     1
 44
0.7202881152461
  0
MTEXT
  5
1D9
330
1F
100
AcDbEntity
  8
1
 62
     7
100
AcDbMText
 10
68.0
 20
77.33333333333334
 30
0.0
 40
7.0
 41
0.0
 71
     4
 72
     1
  1
JIS
  7
CONVERTER_2
 73
     1
 44
0.7202881152461
  0
MTEXT
  5
1DA
330
1F
100
AcDbEntity
  8
1
 62
     7
100
AcDbMText
 10
68.0
 20
58.66666666666669
 30
0.0
 40
7.0
 41
0.0
 71
     4
 72
     1
  1
ハンドル操作により分岐側も同時に吐止水
  7
CONVERTER_1
 73
     1
 44
0.7202881152461
  0
MTEXT
  5
1DB
330
1F
100
AcDbEntity
  8
1
 62
     7
100
AcDbMText
 10
68.0
 20
68.00000000000001
 30
0.0
 40
7.0
 41
0.0
 71
     4
 72
     1
  1
共用形
  7
CONVERTER_1
 73
     1
 44
0.7202881152461
  0
DIMENSION
  5
1E6
330
1F
100
AcDbEntity
  8
1
100
AcDbDimension
  2
*D07
 10
133.5430973374914
 20
239.2901823463721
 30
0.0
 11
173.157325831661
 21
244.7901823463721
 31
0.0
  1
76
 71
     5
 42
0.0
 53
0.00013888888889
  3
ME10_DIM_0
100
AcDbAlignedDimension
 13
209.3430973374915
 23
259.2901823463721
 33
0.0
 14
133.5430973374914
 24
262.9521823463842
 34
0.0
100
AcDbRotatedDimension
  0
DIMENSION
  5
1F2
330
1F
100
AcDbEntity
  8
1
100
AcDbDimension
  2
*D18
 10
361.3542043364337
 20
272.290182346372
 30
0.0
 11
355.8542043364337
 21
338.534381537982
 31
0.0
  1
42リフト5
 71
     5
 42
0.0
 53
90.0
  3
ME10_DIM_1
100
AcDbAlignedDimension
 13
330.0930973375037
 23
314.290182346372
 33
0.0
 14
347.3542043364337
 24
272.290182346372
 34
0.0
 50
90.0
100
AcDbRotatedDimension
  0
DIMENSION
  5
1FD
330
1F
100
AcDbEntity
  8
1
100
AcDbDimension
  2
*D29
 10
229.3430973374915
 20
259.2901823463721
 30
0.0
 11
223.8430973374915
 21
272.290182346372
 31
0.0
  1
<>
 71
     5
 42
0.0
 53
90.0
  3
ME10_DIM_2
100
AcDbAlignedDimension
 13
209.3430973374915
 23
285.290182346372
 33
0.0
 14
209.3430973374915
 24
259.2901823463721
 34
0.0
 50
90.0
100
AcDbRotatedDimension
  0
DIMENSION
  5
20A
330
1F
100
AcDbEntity
  8
1
100
AcDbDimension
  2
*D310
 10
133.5430973374914
 20
454.7676823463718
 30
0.0
 11
142.055727908513
 21
460.2676823463718
 31
0.0
  1
16
 71
     5
 42
0.0
 53
0.00013888888889
  3
ME10_DIM_3
100
AcDbAlignedDimension
 13
150.3430973374914
 23
434.767682346372
 33
0.0
 14
133.5430973374914
 24
433.6281823463722
 34
0.0
100
AcDbRotatedDimension
  0
DIMENSION
  5
216
330
1F
100
AcDbEntity
  8
1
100
AcDbDimension
  2
*D411
 10
133.5430973374914
 20
352.7901823463841
 30
0.0
 11
154.433899565929
 21
358.2901823463841
 31
0.0
  1
41
 71
     5
 42
0.0
 53
0.00013888888889
  3
ME10_DIM_4
100
AcDbAlignedDimension
 13
174.3430973374913
 23
382.7901823463841
 33
0.0
 14
133.5430973374914
 24
414.9521823463716
 34
0.0
100
AcDbRotatedDimension
  0
DIMENSION
  5
221
330
1F
100
AcDbEntity
  8
1
100
AcDbDimension
  2
*D512
 10
209.3430973374914
 20
352.7901823463841
 30
0.0
 11
191.621196819685
 21
358.2901823463841
 31
0.0
  1
<>
 71
     5
 42
0.0
 53
0.00013888888889
  3
ME10_DIM_5
100
AcDbAlignedDimension
 13
174.3430973374913
 23
382.7901823463841
 33
0.0
 14
209.3430973374914
 24
411.2901823463718
 34
0.0
100
AcDbRotatedDimension
  0
DIMENSION
  5
22D
330
1F
100
AcDbEntity
  8
1
100
AcDbDimension
  2
*D613
 10
162.8430973374943
 20
368.7901823463841
 30
0.0
 11
152.790539858952
 21
374.2901823463841
 31
0.0
  1
<>
 71
     5
 42
0.0
 53
0.00013888888889
  3
ME10_DIM_6
100
AcDbAlignedDimension
 13
185.8430973374944
 23
389.5223554699577
 33
0.0
 14
162.8430973374943
 24
389.5223554699579
 34
0.0
100
AcDbRotatedDimension
  0
DIMENSION
  5
238
330
1F
100
AcDbEntity
  8
1
100
AcDbDimension
  2
*D714
 10
290.8430973375034
 20
239.2901823463721
 30
0.0
 11
308.993242908755
 21
244.7901823463721
 31
0.0
  1
36
 71
     5
 42
0.0
 53
0.00013888888889
  3
ME10_DIM_7
100
AcDbAlignedDimension
 13
326.3430973375027
 23
253.2901823463721
 33
0.0
 14
290.8430973375034
 24
261.2901823463764
 34
0.0
100
AcDbRotatedDimension
  0
ENDSEC
  0
SECTION
  2
OBJECTS
  0
DICTIONARY
  5
C
330
0
100
AcDbDictionary
281
     1
  3
ACAD_GROUP
350
D
  3
ACAD_LAYOUT
350
1A
  3
ACAD_MLINESTYLE
350
17
  3
ACAD_PLOTSETTINGS
350
19
  3
ACAD_PLOTSTYLENAME
350
E
  3
ACAD_TABLESTYLE
350
2A
  3
AcDbVariableDictionary
350
2C
  0
DICTIONARY
  5
D
102
{ACAD_REACTORS
330
C
102
}
330
C
100
AcDbDictionary
281
     1
  0
DICTIONARY
  5
1A
102
{ACAD_REACTORS
330
C
102
}
330
C
100
AcDbDictionary
281
     1
  3
Layout1
350
1E
  3
Layout2
350
26
  3
Model
350
22
  0
DICTIONARY
  5
17
102
{ACAD_REACTORS
330
C
102
}
330
C
100
AcDbDictionary
281
     1
  3
Standard
350
18
  0
DICTIONARY
  5
19
102
{ACAD_REACTORS
330
C
102
}
330
C
100
AcDbDictionary
281
     1
  0
ACDBDICTIONARYWDFLT
  5
E
102
{ACAD_REACTORS
330
C
102
}
330
C
100
AcDbDictionary
281
     1
  3
Normal
350
F
100
AcDbDictionaryWithDefault
340
F
  0
DICTIONARY
  5
2A
102
{ACAD_REACTORS
330
C
102
}
330
C
100
AcDbDictionary
281
     1
  3
Standard
350
2B
  0
DICTIONARY
  5
2C
102
{ACAD_REACTORS
330
C
102
}
330
C
100
AcDbDictionary
281
     1
  3
CTABLESTYLE
350
2D
  0
LAYOUT
  5
1E
102
{ACAD_REACTORS
330
1A
102
}
330
1A
100
AcDbPlotSettings
  1

  2

  4

  6

 40
0.0
 41
0.0
 42
0.0
 43
0.0
 44
0.0
 45
0.0
 46
0.0
 47
0.0
 48
0.0
 49
0.0
140
0.0
141
0.0
142
1.0
143
1.0
 70
   688
 72
     0
 73
     0
 74
     5
  7

 75
    16
147
1.0
148
0.0
149
0.0
100
AcDbLayout
  1
Layout1
 70
     1
 71
     1
 10
0.0
 20
0.0
 11
12.0
 21
9.0
 12
0.0
 22
0.0
 32
0.0
 14
1.00000000000000E+20
 24
1.00000000000000E+20
 34
1.00000000000000E+20
 15
-1.00000000000000E+20
 25
-1.00000000000000E+20
 35
-1.00000000000000E+20
146
0.0
 13
0.0
 23
0.0
 33
0.0
 16
1.0
 26
0.0
 36
0.0
 17
0.0
 27
1.0
 37
0.0
 76
     0
330
1B
  0
LAYOUT
  5
26
102
{ACAD_REACTORS
330
1A
102
}
330
1A
100
AcDbPlotSettings
  1

  2

  4

  6

 40
0.0
 41
0.0
 42
0.0
 43
0.0
 44
0.0
 45
0.0
 46
0.0
 47
0.0
 48
0.0
 49
0.0
140
0.0
141
0.0
142
1.0
143
1.0
 70
   688
 72
     0
 73
     0
 74
     5
  7

 75
    16
147
1.0
148
0.0
149
0.0
100
AcDbLayout
  1
Layout2
 70
     1
 71
     2
 10
0.0
 20
0.0
 11
0.0
 21
0.0
 12
0.0
 22
0.0
 32
0.0
 14
0.0
 24
0.0
 34
0.0
 15
0.0
 25
0.0
 35
0.0
146
0.0
 13
0.0
 23
0.0
 33
0.0
 16
1.0
 26
0.0
 36
0.0
 17
0.0
 27
1.0
 37
0.0
 76
     0
330
23
  0
LAYOUT
  5
22
102
{ACAD_REACTORS
330
1A
102
}
330
1A
100
AcDbPlotSettings
  1

  2

  4

  6

 40
0.0
 41
0.0
 42
0.0
 43
0.0
 44
0.0
 45
0.0
 46
0.0
 47
0.0
 48
0.0
 49
0.0
140
0.0
141
0.0
142
1.0
143
1.0
 70
  1712
 72
     0
 73
     0
 74
     0
  7

 75
     0
147
1.0
148
0.0
149
0.0
100
AcDbLayout
  1
Model
 70
     1
 71
     0
 10
0.0
 20
0.0
 11
0.0
 21
0.0
 12
0.0
 22
0.0
 32
0.0
 14
0.0
 24
0.0
 34
0.0
 15
420.0
 25
594.0
 35
0.0
146
0.0
 13
0.0
 23
0.0
 33
0.0
 16
1.0
 26
0.0
 36
0.0
 17
0.0
 27
1.0
 37
0.0
 76
     0
330
1F
  0
MLINESTYLE
  5
18
102
{ACAD_REACTORS
330
17
102
}
330
17
100
AcDbMlineStyle
  2
Standard
 70
     0
  3

 62
   256
 51
90.0
 52
90.0
 71
     2
 49
0.5
 62
   256
  6
BYLAYER
 49
-0.5
 62
   256
  6
BYLAYER
  0
ACDBPLACEHOLDER
  5
F
102
{ACAD_REACTORS
330
E
102
}
330
E
  0
TABLESTYLE
  5
2B
102
{ACAD_REACTORS
330
2A
102
}
330
2A
100
AcDbTableStyle
  3
Standard
 70
     0
 71
     0
 40
0.06
 41
0.06
280
     0
281
     0
  7
Standard
140
0.18
170
     2
 62
     0
 63
     7
283
     0
274
    -2
284
     1
 64
     0
275
    -2
285
     1
 65
     0
276
    -2
286
     1
 66
     0
277
    -2
287
     1
 67
     0
278
    -2
288
     1
 68
     0
279
    -2
289
     1
 69
     0
  7
Standard
140
0.25
170
     5
 62
     0
 63
     7
283
     0
274
    -2
284
     1
 64
     0
275
    -2
285
     1
 65
     0
276
    -2
286
     1
 66
     0
277
    -2
287
     1
 67
     0
278
    -2
288
     1
 68
     0
279
    -2
289
     1
 69
     0
  7
Standard
140
0.18
170
     5
 62
     0
 63
     7
283
     0
274
    -2
284
     1
 64
     0
275
    -2
285
     1
 65
     0
276
    -2
286
     1
 66
     0
277
    -2
287
     1
 67
     0
278
    -2
288
     1
 68
     0
279
    -2
289
     1
 69
     0
  0
DICTIONARYVAR
  5
2D
102
{ACAD_REACTORS
330
2C
102
}
330
2C
100
DictionaryVariables
280
     0
  1
Standard
  0
ENDSEC
  0
EOF
