  0
SECTION
  2
HEADER
  9
$ACADVER
  1
AC1015
  9
$ACADMAINTVER
 70
     6
  9
$DWGCODEPAGE
  3
DOS932
  9
$INSBASE
 10
0.0
 20
0.0
 30
0.0
  9
$EXTMIN
 10
0.0
 20
0.0
 30
0.0
  9
$EXTMAX
 10
420.0
 20
594.0
 30
0.0
  9
$LIMMIN
 10
0.0
 20
0.0
  9
$LIMMAX
 10
12.0
 20
9.0
  9
$ORTHOMODE
 70
     0
  9
$REGENMODE
 70
     1
  9
$FILLMODE
 70
     1
  9
$QTEXTMODE
 70
     0
  9
$MIRRTEXT
 70
     1
  9
$LTSCALE
 40
1.0
  9
$ATTMODE
 70
     1
  9
$TEXTSIZE
 40
0.2
  9
$TRACEWID
 40
0.05
  9
$TEXTSTYLE
  7
Standard
  9
$CLAYER
  8
0
  9
$CELTYPE
  6
ByLayer
  9
$CECOLOR
 62
   256
  9
$CELTSCALE
 40
1.0
  9
$DISPSILH
 70
     0
  9
$DIMSCALE
 40
1.0
  9
$DIMASZ
 40
0.18
  9
$DIMEXO
 40
0.0625
  9
$DIMDLI
 40
0.38
  9
$DIMRND
 40
0.0
  9
$DIMDLE
 40
0.0
  9
$DIMEXE
 40
0.18
  9
$DIMTP
 40
0.0
  9
$DIMTM
 40
0.0
  9
$DIMTXT
 40
0.18
  9
$DIMCEN
 40
0.09
  9
$DIMTSZ
 40
0.0
  9
$DIMTOL
 70
     0
  9
$DIMLIM
 70
     0
  9
$DIMTIH
 70
     1
  9
$DIMTOH
 70
     1
  9
$DIMSE1
 70
     0
  9
$DIMSE2
 70
     0
  9
$DIMTAD
 70
     0
  9
$DIMZIN
 70
     0
  9
$DIMBLK
  1

  9
$DIMASO
 70
     1
  9
$DIMSHO
 70
     1
  9
$DIMPOST
  1

  9
$DIMAPOST
  1

  9
$DIMALT
 70
     0
  9
$DIMALTD
 70
     2
  9
$DIMALTF
 40
25.4
  9
$DIMLFAC
 40
1.0
  9
$DIMTOFL
 70
     0
  9
$DIMTVP
 40
0.0
  9
$DIMTIX
 70
     0
  9
$DIMSOXD
 70
     0
  9
$DIMSAH
 70
     0
  9
$DIMBLK1
  1

  9
$DIMBLK2
  1

  9
$DIMSTYLE
  2
Standard
  9
$DIMCLRD
 70
     0
  9
$DIMCLRE
 70
     0
  9
$DIMCLRT
 70
     0
  9
$DIMTFAC
 40
1.0
  9
$DIMGAP
 40
0.09
  9
$DIMJUST
 70
     0
  9
$DIMSD1
 70
     0
  9
$DIMSD2
 70
     0
  9
$DIMTOLJ
 70
     1
  9
$DIMTZIN
 70
     0
  9
$DIMALTZ
 70
     0
  9
$DIMALTTZ
 70
     0
  9
$DIMUPT
 70
     0
  9
$DIMDEC
 70
     4
  9
$DIMTDEC
 70
     4
  9
$DIMALTU
 70
     2
  9
$DIMALTTD
 70
     2
  9
$DIMTXSTY
  7
Standard
  9
$DIMAUNIT
 70
     0
  9
$DIMADEC
 70
     0
  9
$DIMALTRND
 40
0.0
  9
$DIMAZIN
 70
     0
  9
$DIMDSEP
 70
    46
  9
$DIMATFIT
 70
     3
  9
$DIMFRAC
 70
     0
  9
$DIMLDRBLK
  1

  9
$DIMLUNIT
 70
     2
  9
$DIMLWD
 70
    -2
  9
$DIMLWE
 70
    -2
  9
$DIMTMOVE
 70
     0
  9
$LUNITS
 70
     2
  9
$LUPREC
 70
     4
  9
$SKETCHINC
 40
0.1
  9
$FILLETRAD
 40
0.5
  9
$AUNITS
 70
     0
  9
$AUPREC
 70
     0
  9
$MENU
  1
.
  9
$ELEVATION
 40
0.0
  9
$PELEVATION
 40
0.0
  9
$THICKNESS
 40
0.0
  9
$LIMCHECK
 70
     0
  9
$CHAMFERA
 40
0.5
  9
$CHAMFERB
 40
0.5
  9
$CHAMFERC
 40
1.0
  9
$CHAMFERD
 40
0.0
  9
$SKPOLY
 70
     0
  9
$TDCREATE
 40
2456134.676746771
  9
$TDUCREATE
 40
2456134.301746771
  9
$TDUPDATE
 40
2456134.676746782
  9
$TDUUPDATE
 40
2456134.301746782
  9
$TDINDWG
 40
0.0000000116
  9
$TDUSRTIMER
 40
0.0000000116
  9
$USRTIMER
 70
     1
  9
$ANGBASE
 50
0.0
  9
$ANGDIR
 70
     0
  9
$PDMODE
 70
     0
  9
$PDSIZE
 40
0.0
  9
$PLINEWID
 40
0.0
  9
$SPLFRAME
 70
     0
  9
$SPLINETYPE
 70
     6
  9
$SPLINESEGS
 70
     8
  9
$HANDSEED
  5
29C
  9
$SURFTAB1
 70
     6
  9
$SURFTAB2
 70
     6
  9
$SURFTYPE
 70
     6
  9
$SURFU
 70
     6
  9
$SURFV
 70
     6
  9
$UCSBASE
  2

  9
$UCSNAME
  2

  9
$UCSORG
 10
0.0
 20
0.0
 30
0.0
  9
$UCSXDIR
 10
1.0
 20
0.0
 30
0.0
  9
$UCSYDIR
 10
0.0
 20
1.0
 30
0.0
  9
$UCSORTHOREF
  2

  9
$UCSORTHOVIEW
 70
     0
  9
$UCSORGTOP
 10
0.0
 20
0.0
 30
0.0
  9
$UCSORGBOTTOM
 10
0.0
 20
0.0
 30
0.0
  9
$UCSORGLEFT
 10
0.0
 20
0.0
 30
0.0
  9
$UCSORGRIGHT
 10
0.0
 20
0.0
 30
0.0
  9
$UCSORGFRONT
 10
0.0
 20
0.0
 30
0.0
  9
$UCSORGBACK
 10
0.0
 20
0.0
 30
0.0
  9
$PUCSBASE
  2

  9
$PUCSNAME
  2

  9
$PUCSORG
 10
0.0
 20
0.0
 30
0.0
  9
$PUCSXDIR
 10
1.0
 20
0.0
 30
0.0
  9
$PUCSYDIR
 10
0.0
 20
1.0
 30
0.0
  9
$PUCSORTHOREF
  2

  9
$PUCSORTHOVIEW
 70
     0
  9
$PUCSORGTOP
 10
0.0
 20
0.0
 30
0.0
  9
$PUCSORGBOTTOM
 10
0.0
 20
0.0
 30
0.0
  9
$PUCSORGLEFT
 10
0.0
 20
0.0
 30
0.0
  9
$PUCSORGRIGHT
 10
0.0
 20
0.0
 30
0.0
  9
$PUCSORGFRONT
 10
0.0
 20
0.0
 30
0.0
  9
$PUCSORGBACK
 10
0.0
 20
0.0
 30
0.0
  9
$USERI1
 70
     0
  9
$USERI2
 70
     0
  9
$USERI3
 70
     0
  9
$USERI4
 70
     0
  9
$USERI5
 70
     0
  9
$USERR1
 40
13.2
  9
$USERR2
 40
0.0
  9
$USERR3
 40
0.0
  9
$USERR4
 40
0.0
  9
$USERR5
 40
0.0
  9
$WORLDVIEW
 70
     1
  9
$SHADEDGE
 70
     3
  9
$SHADEDIF
 70
    70
  9
$TILEMODE
 70
     1
  9
$MAXACTVP
 70
    64
  9
$PINSBASE
 10
0.0
 20
0.0
 30
0.0
  9
$PLIMCHECK
 70
     0
  9
$PEXTMIN
 10
1.00000000000000E+20
 20
1.00000000000000E+20
 30
1.00000000000000E+20
  9
$PEXTMAX
 10
-1.00000000000000E+20
 20
-1.00000000000000E+20
 30
-1.00000000000000E+20
  9
$PLIMMIN
 10
0.0
 20
0.0
  9
$PLIMMAX
 10
12.0
 20
9.0
  9
$UNITMODE
 70
     0
  9
$VISRETAIN
 70
     1
  9
$PLINEGEN
 70
     0
  9
$PSLTSCALE
 70
     1
  9
$TREEDEPTH
 70
  3020
  9
$CMLSTYLE
  2
Standard
  9
$CMLJUST
 70
     0
  9
$CMLSCALE
 40
1.0
  9
$PROXYGRAPHICS
 70
     1
  9
$MEASUREMENT
 70
     1
  9
$CELWEIGHT
370
    -1
  9
$ENDCAPS
280
     0
  9
$JOINSTYLE
280
     0
  9
$LWDISPLAY
290
     0
  9
$INSUNITS
 70
     1
  9
$HYPERLINKBASE
  1

  9
$STYLESHEET
  1

  9
$XEDIT
290
     1
  9
$CEPSNTYPE
380
     0
  9
$PSTYLEMODE
290
     0
  9
$FINGERPRINTGUID
  2
{FAEB1C30-E019-11D5-929B-00C0DF256EC4}
  9
$VERSIONGUID
  2
{FAEB1C32-E019-11D5-929B-00C0DF256EC4}
  9
$EXTNAMES
290
     1
  9
$PSVPSCALE
 40
0.0
  9
$OLESTARTUP
290
     0
  0
ENDSEC
  0
SECTION
  2
CLASSES
  0
CLASS
  1
ACDBDICTIONARYWDFLT
  2
AcDbDictionaryWithDefault
  3
ObjectDBX Classes
 90
        0
280
     0
281
     0
  0
CLASS
  1
TABLESTYLE
  2
AcDbTableStyle
  3
ObjectDBX Classes
 90
     2047
280
     0
281
     0
  0
CLASS
  1
DICTIONARYVAR
  2
AcDbDictionaryVar
  3
ObjectDBX Classes
 90
        0
280
     0
281
     0
  0
CLASS
  1

  2
exOdDbCircle
  3

 90
        0
280
     0
281
     1
  0
CLASS
  1

  2
exOdDbSpline
  3

 90
        0
280
     0
281
     1
  0
CLASS
  1
ACDBPLACEHOLDER
  2
AcDbPlaceHolder
  3
ObjectDBX Classes
 90
        0
280
     0
281
     0
  0
CLASS
  1
LAYOUT
  2
AcDbLayout
  3
ObjectDBX Classes
 90
        0
280
     0
281
     0
  0
ENDSEC
  0
SECTION
  2
TABLES
  0
TABLE
  2
VPORT
  5
8
330
0
100
AcDbSymbolTable
 70
     2
  0
VPORT
  5
29
330
8
100
AcDbSymbolTableRecord
100
AcDbViewportTableRecord
  2
*Active
 70
     0
 10
0.0
 20
0.0
 11
1.0
 21
1.0
 12
210.0
 22
297.0
 13
0.0
 23
0.0
 14
0.5
 24
0.5
 15
0.5
 25
0.5
 16
0.0
 26
0.0
 36
1.0
 17
0.0
 27
0.0
 37
0.0
 40
653.4000000000001
 41
1.60267857142857
 42
50.0
 43
0.0
 44
0.0
 50
0.0
 51
0.0
 71
     0
 72
   100
 73
     1
 74
     3
 75
     0
 76
     0
 77
     0
 78
     0
281
     0
 65
     1
110
0.0
120
0.0
130
0.0
111
1.0
121
0.0
131
0.0
112
0.0
122
1.0
132
0.0
 79
     0
146
0.0
  0
ENDTAB
  0
TABLE
  2
LTYPE
  5
5
330
0
100
AcDbSymbolTable
 70
     8
  0
LTYPE
  5
14
330
5
100
AcDbSymbolTableRecord
100
AcDbLinetypeTableRecord
  2
ByBlock
 70
     0
  3

 72
    65
 73
     0
 40
0.0
  0
LTYPE
  5
15
330
5
100
AcDbSymbolTableRecord
100
AcDbLinetypeTableRecord
  2
ByLayer
 70
     0
  3

 72
    65
 73
     0
 40
0.0
  0
LTYPE
  5
16
330
5
100
AcDbSymbolTableRecord
100
AcDbLinetypeTableRecord
  2
Continuous
 70
     0
  3
Solid line
 72
    65
 73
     0
 40
0.0
  0
LTYPE
  5
2E
330
5
100
AcDbSymbolTableRecord
100
AcDbLinetypeTableRecord
  2
DASHED
 70
     0
  3
Dashed
 72
    65
 73
     2
 40
15.0
 49
7.0
 74
     0
 49
-8.0
 74
     0
  0
LTYPE
  5
2F
330
5
100
AcDbSymbolTableRecord
100
AcDbLinetypeTableRecord
  2
DOTTED
 70
     0
  3
Dotted
 72
    65
 73
     2
 40
1.0
 49
0.0
 74
     0
 49
-1.0
 74
     0
  0
LTYPE
  5
30
330
5
100
AcDbSymbolTableRecord
100
AcDbLinetypeTableRecord
  2
DOT_CENTER
 70
     0
  3
Dot_Center
 72
    65
 73
     4
 40
14.0
 49
12.0
 74
     0
 49
-1.0
 74
     0
 49
0.0
 74
     0
 49
-1.0
 74
     0
  0
LTYPE
  5
31
330
5
100
AcDbSymbolTableRecord
100
AcDbLinetypeTableRecord
  2
LONG_DASHED
 70
     0
  3
Long_Dashed
 72
    65
 73
     2
 40
15.0
 49
10.0
 74
     0
 49
-5.0
 74
     0
  0
LTYPE
  5
32
330
5
100
AcDbSymbolTableRecord
100
AcDbLinetypeTableRecord
  2
DASH_CENTER
 70
     0
  3
Dash_Center
 72
    65
 73
     4
 40
14.0
 49
11.0
 74
     0
 49
-1.0
 74
     0
 49
1.0
 74
     0
 49
-1.0
 74
     0
  0
LTYPE
  5
33
330
5
100
AcDbSymbolTableRecord
100
AcDbLinetypeTableRecord
  2
PHANTOM
 70
     0
  3
Phantom
 72
    65
 73
     6
 40
13.0
 49
10.0
 74
     0
 49
-1.0
 74
     0
 49
0.0
 74
     0
 49
-1.0
 74
     0
 49
0.0
 74
     0
 49
-1.0
 74
     0
  0
LTYPE
  5
34
330
5
100
AcDbSymbolTableRecord
100
AcDbLinetypeTableRecord
  2
CENTER_DASH_DASH
 70
     0
  3
Center_Dash_Dash
 72
    65
 73
     6
 40
14.0
 49
9.0
 74
     0
 49
-1.0
 74
     0
 49
1.0
 74
     0
 49
-1.0
 74
     0
 49
1.0
 74
     0
 49
-1.0
 74
     0
  0
ENDTAB
  0
TABLE
  2
LAYER
  5
2
330
0
100
AcDbSymbolTable
 70
     2
  0
LAYER
  5
10
330
2
100
AcDbSymbolTableRecord
100
AcDbLayerTableRecord
  2
0
 70
     0
 62
     7
  6
Continuous
370
    -3
390
F
  0
LAYER
  5
35
330
2
100
AcDbSymbolTableRecord
100
AcDbLayerTableRecord
  2
1
 70
     0
 62
     7
  6
Continuous
370
    -3
390
F
  0
ENDTAB
  0
TABLE
  2
STYLE
  5
3
330
0
100
AcDbSymbolTable
 70
     3
  0
STYLE
  5
11
330
3
100
AcDbSymbolTableRecord
100
AcDbTextStyleTableRecord
  2
Standard
 70
     0
 40
0.0
 41
1.0
 50
0.0
 71
     0
 42
0.2
  3
txt
  4

  0
STYLE
  5
20B
330
3
100
AcDbSymbolTableRecord
100
AcDbTextStyleTableRecord
  2
CONVERTER_1
 70
     0
 40
0.0
 41
0.89
 50
0.0
 71
     0
 42
0.2
  3
msmincho.ttc
  4

1001
ACAD
1000
MS Mincho
1071
    32785
  0
STYLE
  5
22E
330
3
100
AcDbSymbolTableRecord
100
AcDbTextStyleTableRecord
  2
CONVERTER_2
 70
     0
 40
0.0
 41
0.9
 50
0.0
 71
     0
 42
0.2
  3
txt.shx
  4

  0
ENDTAB
  0
TABLE
  2
VIEW
  5
6
330
0
100
AcDbSymbolTable
 70
     0
  0
ENDTAB
  0
TABLE
  2
UCS
  5
7
330
0
100
AcDbSymbolTable
 70
     0
  0
ENDTAB
  0
TABLE
  2
APPID
  5
9
330
0
100
AcDbSymbolTable
 70
     1
  0
APPID
  5
12
330
9
100
AcDbSymbolTableRecord
100
AcDbRegAppTableRecord
  2
ACAD
 70
     0
  0
ENDTAB
  0
TABLE
  2
DIMSTYLE
  5
A
330
0
100
AcDbSymbolTable
 70
    10
100
AcDbDimStyleTable
  0
DIMSTYLE
105
27
330
A
100
AcDbSymbolTableRecord
100
AcDbDimStyleTableRecord
  2
Standard
 70
     0
340
11
  0
DIMSTYLE
105
240
102
{ACAD_REACTORS
330
241
102
}
330
A
100
AcDbSymbolTableRecord
100
AcDbDimStyleTableRecord
  2
ME10_DIM_0
 70
     0
  3
{\Fgdt;n}<>
 41
7.0
 42
0.0
 44
2.0
 73
     0
 74
     0
 77
     1
 78
     8
140
7.0
147
0.625
172
     1
173
     1
176
     2
177
     2
178
     7
271
     2
340
22E
  0
DIMSTYLE
105
24B
102
{ACAD_REACTORS
330
24C
102
}
330
A
100
AcDbSymbolTableRecord
100
AcDbDimStyleTableRecord
  2
ME10_DIM_1
 70
     0
 41
7.0
 42
0.0
 44
2.0
 73
     0
 74
     0
 77
     1
 78
     8
140
7.0
147
0.625
172
     1
173
     1
176
     2
177
     2
178
     7
271
     2
340
22E
  0
DIMSTYLE
105
258
102
{ACAD_REACTORS
330
259
102
}
330
A
100
AcDbSymbolTableRecord
100
AcDbDimStyleTableRecord
  2
ME10_DIM_2
 70
     0
 41
7.0
 42
0.0
 44
2.0
 73
     0
 74
     0
 77
     1
 78
     8
140
7.0
147
0.625
172
     1
173
     1
176
     2
177
     2
178
     7
271
     2
340
22E
  0
DIMSTYLE
105
263
102
{ACAD_REACTORS
330
264
102
}
330
A
100
AcDbSymbolTableRecord
100
AcDbDimStyleTableRecord
  2
ME10_DIM_3
 70
     0
 41
7.0
 42
0.0
 44
2.0
 73
     0
 74
     0
 77
     1
 78
     8
140
7.0
147
0.625
172
     1
173
     1
176
     2
177
     2
178
     7
271
     2
340
22E
  0
DIMSTYLE
105
26E
102
{ACAD_REACTORS
330
26F
102
}
330
A
100
AcDbSymbolTableRecord
100
AcDbDimStyleTableRecord
  2
ME10_DIM_4
 70
     0
 41
7.0
 42
0.0
 44
2.0
 73
     0
 74
     0
 77
     1
 78
     8
140
7.0
147
0.625
172
     1
173
     1
176
     2
177
     2
178
     7
271
     2
340
20B
  0
DIMSTYLE
105
279
102
{ACAD_REACTORS
330
27A
102
}
330
A
100
AcDbSymbolTableRecord
100
AcDbDimStyleTableRecord
  2
ME10_DIM_5
 70
     0
  3
{\Fgdt;n}<>
 41
7.0
 42
0.0
 44
2.0
 73
     0
 74
     0
 77
     1
 78
     8
140
7.0
147
0.625
172
     1
173
     1
176
     2
177
     2
178
     7
271
     2
340
22E
  0
DIMSTYLE
105
284
102
{ACAD_REACTORS
330
285
102
}
330
A
100
AcDbSymbolTableRecord
100
AcDbDimStyleTableRecord
  2
ME10_DIM_6
 70
     0
 41
7.0
 42
0.0
 44
2.0
 73
     0
 74
     0
 77
     1
 78
     8
140
7.0
147
0.625
172
     1
173
     1
176
     2
177
     2
178
     7
271
     2
340
22E
  0
DIMSTYLE
105
28F
102
{ACAD_REACTORS
330
290
102
}
330
A
100
AcDbSymbolTableRecord
100
AcDbDimStyleTableRecord
  2
ME10_DIM_7
 70
     0
 41
7.0
 42
0.0
 44
2.0
 73
     0
 74
     0
 77
     1
 78
     8
140
7.0
147
0.625
172
     1
173
     1
176
     2
177
     2
178
     7
271
     2
340
22E
  0
DIMSTYLE
105
29A
102
{ACAD_REACTORS
330
29B
102
}
330
A
100
AcDbSymbolTableRecord
100
AcDbDimStyleTableRecord
  2
ME10_DIM_8
 70
     0
 41
7.0
 42
0.0
 44
2.0
 73
     0
 74
     0
 77
     1
 78
     8
140
7.0
147
0.625
172
     1
173
     1
176
     2
177
     2
178
     7
271
     2
340
22E
  0
ENDTAB
  0
TABLE
  2
BLOCK_RECORD
  5
1
330
0
100
AcDbSymbolTable
 70
    20
  0
BLOCK_RECORD
  5
1F
330
1
100
AcDbSymbolTableRecord
100
AcDbBlockTableRecord
  2
*Model_Space
340
22
  0
BLOCK_RECORD
  5
1B
330
1
100
AcDbSymbolTableRecord
100
AcDbBlockTableRecord
  2
*Paper_Space
340
1E
  0
BLOCK_RECORD
  5
23
330
1
100
AcDbSymbolTableRecord
100
AcDbBlockTableRecord
  2
*Paper_Space0
340
26
  0
BLOCK_RECORD
  5
36
330
1
100
AcDbSymbolTableRecord
100
AcDbBlockTableRecord
  2
28-1B-28-13-M2
340
0
102
{BLKREFS
331
59
102
}
  0
BLOCK_RECORD
  5
39
330
1
100
AcDbSymbolTableRecord
100
AcDbBlockTableRecord
  2
21-1C-M1K
340
0
102
{BLKREFS
331
46
102
}
  0
BLOCK_RECORD
  5
3C
330
1
100
AcDbSymbolTableRecord
100
AcDbBlockTableRecord
  2
42-15-M1K
340
0
102
{BLKREFS
331
47
102
}
  0
BLOCK_RECORD
  5
3F
330
1
100
AcDbSymbolTableRecord
100
AcDbBlockTableRecord
  2
36-1A-13-M11K
340
0
102
{BLKREFS
331
48
102
}
  0
BLOCK_RECORD
  5
42
330
1
100
AcDbSymbolTableRecord
100
AcDbBlockTableRecord
  2
37-1-13-M1K
340
0
102
{BLKREFS
331
49
102
}
  0
BLOCK_RECORD
  5
45
330
1
100
AcDbSymbolTableRecord
100
AcDbBlockTableRecord
  2
R10A-13-C
340
0
102
{BLKREFS
331
5A
102
}
  0
BLOCK_RECORD
  5
4C
330
1
100
AcDbSymbolTableRecord
100
AcDbBlockTableRecord
  2
B41J-0-M11
340
0
102
{BLKREFS
331
5B
102
}
  0
BLOCK_RECORD
  5
4F
330
1
100
AcDbSymbolTableRecord
100
AcDbBlockTableRecord
  2
34-188-M2K
340
0
102
{BLKREFS
331
53
102
}
  0
BLOCK_RECORD
  5
52
330
1
100
AcDbSymbolTableRecord
100
AcDbBlockTableRecord
  2
B41A-240-13
340
0
102
{BLKREFS
331
5C
102
}
  0
BLOCK_RECORD
  5
56
330
1
100
AcDbSymbolTableRecord
100
AcDbBlockTableRecord
  2
_J__A4
340
0
102
{BLKREFS
331
5D
102
}
  0
BLOCK_RECORD
  5
237
330
1
100
AcDbSymbolTableRecord
100
AcDbBlockTableRecord
  2
*D011
340
0
  0
BLOCK_RECORD
  5
242
330
1
100
AcDbSymbolTableRecord
100
AcDbBlockTableRecord
  2
*D112
340
0
  0
BLOCK_RECORD
  5
24D
330
1
100
AcDbSymbolTableRecord
100
AcDbBlockTableRecord
  2
*D213
340
0
  0
BLOCK_RECORD
  5
25A
330
1
100
AcDbSymbolTableRecord
100
AcDbBlockTableRecord
  2
*D314
340
0
  0
BLOCK_RECORD
  5
265
330
1
100
AcDbSymbolTableRecord
100
AcDbBlockTableRecord
  2
*D415
340
0
  0
BLOCK_RECORD
  5
270
330
1
100
AcDbSymbolTableRecord
100
AcDbBlockTableRecord
  2
*D516
340
0
  0
BLOCK_RECORD
  5
27B
330
1
100
AcDbSymbolTableRecord
100
AcDbBlockTableRecord
  2
*D617
340
0
  0
BLOCK_RECORD
  5
286
330
1
100
AcDbSymbolTableRecord
100
AcDbBlockTableRecord
  2
*D718
340
0
  0
BLOCK_RECORD
  5
291
330
1
100
AcDbSymbolTableRecord
100
AcDbBlockTableRecord
  2
*D819
340
0
  0
ENDTAB
  0
ENDSEC
  0
SECTION
  2
BLOCKS
  0
BLOCK
  5
20
330
1F
100
AcDbEntity
  8
0
100
AcDbBlockBegin
  2
*Model_Space
 70
     0
 71
     0
 10
0.0
 20
0.0
 30
0.0
  3
*Model_Space
  1

  0
ENDBLK
  5
21
330
1F
100
AcDbEntity
  8
0
100
AcDbBlockEnd
  0
BLOCK
  5
1C
330
1B
100
AcDbEntity
 67
     1
  8
0
100
AcDbBlockBegin
  2
*Paper_Space
 70
     0
 71
     0
 10
0.0
 20
0.0
 30
0.0
  3
*Paper_Space
  1

  0
ENDBLK
  5
1D
330
1B
100
AcDbEntity
 67
     1
  8
0
100
AcDbBlockEnd
  0
BLOCK
  5
24
330
23
100
AcDbEntity
  8
0
100
AcDbBlockBegin
  2
*Paper_Space0
 70
     0
 71
     0
 10
0.0
 20
0.0
 30
0.0
  3
*Paper_Space0
  1

  0
ENDBLK
  5
25
330
23
100
AcDbEntity
  8
0
100
AcDbBlockEnd
  0
BLOCK
  5
37
330
36
100
AcDbEntity
  8
0
100
AcDbBlockBegin
  2
28-1B-28-13-M2
 70
     0
 71
     0
 10
819.1284473539399
 20
705.252446912409
 30
0.0
  3
28-1B-28-13-M2
  1

  0
LINE
  5
5E
330
36
100
AcDbEntity
  8
1
  6
Continuous
 62
     7
100
AcDbLine
 10
135.9458279238878
 20
354.4462636424765
 30
0.0
 11
135.9458279238878
 21
328.0188401592662
 31
0.0
  0
LINE
  5
5F
330
36
100
AcDbEntity
  8
1
  6
Continuous
 62
     7
100
AcDbLine
 10
132.9004738833838
 20
317.9825519008714
 30
0.0
 11
132.9004738833838
 21
364.4825519008713
 31
0.0
  0
LINE
  5
60
330
36
100
AcDbEntity
  8
1
  6
Continuous
 62
     7
100
AcDbLine
 10
132.9004738833838
 20
191.9825519008713
 30
0.0
 11
133.7413331886947
 21
191.9825519008713
 31
0.0
  0
LINE
  5
61
330
36
100
AcDbEntity
  8
1
  6
Continuous
 62
     7
100
AcDbLine
 10
138.1739861533242
 20
202.8541617573039
 30
0.0
 11
139.9004738833838
 21
203.4825519008713
 31
0.0
  0
LINE
  5
62
330
36
100
AcDbEntity
  8
1
  6
Continuous
 62
     7
100
AcDbLine
 10
133.7413331886947
 20
238.4825519008714
 30
0.0
 11
132.9004738833838
 21
238.4825519008714
 31
0.0
  0
LINE
  5
63
330
36
100
AcDbEntity
  8
1
  6
Continuous
 62
     7
100
AcDbLine
 10
139.9004738833838
 20
226.9825519008714
 30
0.0
 11
139.9004738833838
 21
203.4825519008713
 31
0.0
  0
LINE
  5
64
330
36
100
AcDbEntity
  8
1
  6
Continuous
 62
     7
100
AcDbLine
 10
132.9004738833838
 20
191.9825519008713
 30
0.0
 11
132.9004738833838
 21
238.4825519008714
 31
0.0
  0
LINE
  5
65
330
36
100
AcDbEntity
  8
1
  6
Continuous
 62
     7
100
AcDbLine
 10
139.9004738833838
 20
226.9825519008714
 30
0.0
 11
138.1739861533242
 21
227.610942044439
 31
0.0
  0
LINE
  5
66
330
36
100
AcDbEntity
  8
1
  6
PHANTOM
 62
     4
100
AcDbLine
 10
130.9004738833838
 20
215.2325519008714
 30
0.0
 11
141.9004738833838
 21
215.2325519008714
 31
0.0
  0
LINE
  5
67
330
36
100
AcDbEntity
  8
1
  6
Continuous
 62
     7
100
AcDbLine
 10
135.9458279238878
 20
228.4462636424766
 30
0.0
 11
135.9458279238878
 21
202.0188401592663
 31
0.0
  0
LINE
  5
68
330
36
100
AcDbEntity
  8
1
  6
PHANTOM
 62
     4
100
AcDbLine
 10
130.9004738833838
 20
341.2325519008714
 30
0.0
 11
141.9004738833838
 21
341.2325519008714
 31
0.0
  0
LINE
  5
69
330
36
100
AcDbEntity
  8
1
  6
Continuous
 62
     7
100
AcDbLine
 10
139.9004738833838
 20
352.9825519008714
 30
0.0
 11
138.1739861533242
 21
353.610942044439
 31
0.0
  0
LINE
  5
6A
330
36
100
AcDbEntity
  8
1
  6
Continuous
 62
     7
100
AcDbLine
 10
139.9004738833838
 20
352.9825519008714
 30
0.0
 11
139.9004738833838
 21
329.4825519008714
 31
0.0
  0
LINE
  5
6B
330
36
100
AcDbEntity
  8
1
  6
Continuous
 62
     7
100
AcDbLine
 10
133.7413331886947
 20
364.4825519008713
 30
0.0
 11
132.9004738833838
 21
364.4825519008713
 31
0.0
  0
LINE
  5
6C
330
36
100
AcDbEntity
  8
1
  6
Continuous
 62
     7
100
AcDbLine
 10
138.1739861533242
 20
328.8541617573038
 30
0.0
 11
139.9004738833838
 21
329.4825519008714
 31
0.0
  0
LINE
  5
6D
330
36
100
AcDbEntity
  8
1
  6
Continuous
 62
     7
100
AcDbLine
 10
132.9004738833838
 20
317.9825519008714
 30
0.0
 11
133.7413331886947
 21
317.9825519008714
 31
0.0
  0
ARC
  5
6E
330
36
100
AcDbEntity
  8
1
  6
Continuous
 62
     7
100
AcDbCircle
 10
329.024759871932
 20
215.2325519008714
 30
0.0
 40
23.25000000000009
100
AcDbArc
 50
-168.896573847944
 51
-13.68354656217058
  0
ARC
  5
6F
330
36
100
AcDbEntity
  8
1
  6
Continuous
 62
     7
100
AcDbCircle
 10
329.024759871932
 20
215.2325519008714
 30
0.0
 40
23.25000000000001
100
AcDbArc
 50
45.13002788197589
 51
57.47108821806143
  0
ARC
  5
70
330
36
100
AcDbEntity
  8
1
  6
Continuous
 62
     7
100
AcDbCircle
 10
329.024759871932
 20
215.2325519008714
 30
0.0
 40
23.24999999999998
100
AcDbArc
 50
122.5289117819368
 51
134.8699721180241
  0
ARC
  5
71
330
36
100
AcDbEntity
  8
1
  6
Continuous
 62
     7
100
AcDbCircle
 10
76.89555626447122
 20
203.1316932386821
 30
0.0
 40
60.00000000000004
100
AcDbArc
 50
-8.65125821882214
 51
-1.99366397762206
  0
ARC
  5
72
330
36
100
AcDbEntity
  8
1
  6
Continuous
 62
     7
100
AcDbCircle
 10
76.89555626447122
 20
227.3334105630608
 30
0.0
 40
60.00000000000003
100
AcDbArc
 50
1.99366397762198
 51
8.65125821882205
  0
ARC
  5
73
330
36
100
AcDbEntity
  8
1
  6
Continuous
 62
     7
100
AcDbCircle
 10
76.89555626447122
 20
353.3334105630607
 30
0.0
 40
60.00000000000003
100
AcDbArc
 50
1.99366397762198
 51
8.65125821882214
  0
ARC
  5
74
330
36
100
AcDbEntity
  8
1
  6
Continuous
 62
     7
100
AcDbCircle
 10
76.89555626447122
 20
329.131693238682
 30
0.0
 40
60.00000000000002
100
AcDbArc
 50
-8.65125821882203
 51
-1.99366397762203
  0
ARC
  5
75
330
36
100
AcDbEntity
  8
1
  6
Continuous
 62
     7
100
AcDbCircle
 10
138.8580264399755
 20
200.9747765157321
 30
0.0
 40
1.999999999999854
100
AcDbArc
 50
131.0717265072242
 51
178.0063360223787
  0
ARC
  5
76
330
36
100
AcDbEntity
  8
1
  6
Continuous
 62
     7
100
AcDbCircle
 10
138.8580264399755
 20
200.9747765157321
 30
0.0
 40
1.999999999999985
100
AcDbArc
 50
109.9999999999993
 51
131.0717265072242
  0
ARC
  5
77
330
36
100
AcDbEntity
  8
1
  6
Continuous
 62
     7
100
AcDbCircle
 10
138.8580264399755
 20
229.4903272860108
 30
0.0
 40
1.999999999999981
100
AcDbArc
 50
-168.1744997978514
 51
-131.0717265072209
  0
ARC
  5
78
330
36
100
AcDbEntity
  8
1
  6
Continuous
 62
     7
100
AcDbCircle
 10
138.8580264399755
 20
229.4903272860108
 30
0.0
 40
1.999999999999961
100
AcDbArc
 50
-178.0063360223762
 51
-168.1744997978514
  0
ARC
  5
79
330
36
100
AcDbEntity
  8
1
  6
Continuous
 62
     7
100
AcDbCircle
 10
133.7413331886947
 20
235.9825519008714
 30
0.0
 40
2.499999999999996
100
AcDbArc
 50
8.65125821882265
 51
30.27037786750241
  0
ARC
  5
7A
330
36
100
AcDbEntity
  8
1
  6
Continuous
 62
     7
100
AcDbCircle
 10
133.7413331886947
 20
235.9825519008714
 30
0.0
 40
2.499999999999953
100
AcDbArc
 50
30.27037786750241
 51
90.0
  0
ARC
  5
7B
330
36
100
AcDbEntity
  8
1
  6
Continuous
 62
     7
100
AcDbCircle
 10
138.8580264399755
 20
229.4903272860108
 30
0.0
 40
1.999999999999983
100
AcDbArc
 50
-131.0717265072209
 51
-109.9999999999996
  0
ARC
  5
7C
330
36
100
AcDbEntity
  8
1
  6
Continuous
 62
     7
100
AcDbCircle
 10
133.7413331886947
 20
194.4825519008713
 30
0.0
 40
2.5
100
AcDbArc
 50
-90.0
 51
-30.27037786750072
  0
ARC
  5
7D
330
36
100
AcDbEntity
  8
1
  6
Continuous
 62
     7
100
AcDbCircle
 10
133.7413331886947
 20
194.4825519008713
 30
0.0
 40
2.49999999999991
100
AcDbArc
 50
-30.27037786750072
 51
-8.65125821882072
  0
ARC
  5
7E
330
36
100
AcDbEntity
  8
1
  6
Continuous
 62
     7
100
AcDbCircle
 10
133.7413331886947
 20
320.4825519008714
 30
0.0
 40
2.499999999999939
100
AcDbArc
 50
-30.27037786750185
 51
-8.65125821882265
  0
ARC
  5
7F
330
36
100
AcDbEntity
  8
1
  6
Continuous
 62
     7
100
AcDbCircle
 10
133.7413331886947
 20
320.4825519008714
 30
0.0
 40
2.5
100
AcDbArc
 50
-90.0
 51
-30.27037786750185
  0
ARC
  5
80
330
36
100
AcDbEntity
  8
1
  6
Continuous
 62
     7
100
AcDbCircle
 10
138.8580264399756
 20
355.4903272860108
 30
0.0
 40
2.000000000000093
100
AcDbArc
 50
-131.0717265072171
 51
-110.0000000000016
  0
ARC
  5
81
330
36
100
AcDbEntity
  8
1
  6
Continuous
 62
     7
100
AcDbCircle
 10
133.7413331886947
 20
361.9825519008713
 30
0.0
 40
2.499999999999967
100
AcDbArc
 50
30.27037786750297
 51
90.0
  0
ARC
  5
82
330
36
100
AcDbEntity
  8
1
  6
Continuous
 62
     7
100
AcDbCircle
 10
133.7413331886947
 20
361.9825519008713
 30
0.0
 40
2.500000000000012
100
AcDbArc
 50
8.65125821882523
 51
30.27037786750297
  0
ARC
  5
83
330
36
100
AcDbEntity
  8
1
  6
Continuous
 62
     7
100
AcDbCircle
 10
138.8580264399756
 20
355.4903272860108
 30
0.0
 40
2.000000000000052
100
AcDbArc
 50
-178.0063360223722
 51
-168.1744997978487
  0
ARC
  5
84
330
36
100
AcDbEntity
  8
1
  6
Continuous
 62
     7
100
AcDbCircle
 10
138.8580264399756
 20
355.4903272860108
 30
0.0
 40
2.000000000000088
100
AcDbArc
 50
-168.1744997978487
 51
-131.0717265072171
  0
ARC
  5
85
330
36
100
AcDbEntity
  8
1
  6
Continuous
 62
     7
100
AcDbCircle
 10
138.8580264399756
 20
326.9747765157321
 30
0.0
 40
1.999999999999907
100
AcDbArc
 50
110.0000000000027
 51
131.0717265072225
  0
ARC
  5
86
330
36
100
AcDbEntity
  8
1
  6
Continuous
 62
     7
100
AcDbCircle
 10
138.8580264399756
 20
326.9747765157321
 30
0.0
 40
1.999999999999879
100
AcDbArc
 50
131.0717265072225
 51
178.006336022382
  0
ENDBLK
  5
38
330
36
100
AcDbEntity
  8
0
100
AcDbBlockEnd
  0
BLOCK
  5
3A
330
39
100
AcDbEntity
  8
0
100
AcDbBlockBegin
  2
21-1C-M1K
 70
     0
 71
     0
 10
207.9004738833838
 20
222.0325519008714
 30
0.0
  3
21-1C-M1K
  1

  0
LINE
  5
87
330
39
100
AcDbEntity
  8
1
  6
Continuous
 62
     7
100
AcDbLine
 10
301.8308988419427
 20
262.3176316562222
 30
0.0
 11
301.3789907429505
 21
259.1021384513514
 31
0.0
  0
LINE
  5
88
330
39
100
AcDbEntity
  8
1
  6
Continuous
 62
     7
100
AcDbLine
 10
301.8741247773212
 20
258.5325519008715
 30
0.0
 11
356.1753949665431
 21
258.5325519008715
 31
0.0
  0
LINE
  5
89
330
39
100
AcDbEntity
  8
1
  6
Continuous
 62
     7
100
AcDbLine
 10
356.6705290009139
 20
259.1021384513514
 30
0.0
 11
356.2186209019214
 21
262.3176316562222
 31
0.0
  0
LINE
  5
8A
330
39
100
AcDbEntity
  8
1
  6
Continuous
 62
     7
100
AcDbLine
 10
175.8261434575661
 20
331.7855877316665
 30
0.0
 11
189.453388153999
 21
335.436996943137
 31
0.0
  0
LINE
  5
8B
330
39
100
AcDbEntity
  8
1
  6
Continuous
 62
     7
100
AcDbLine
 10
164.6189500554655
 20
325.3151116041035
 30
0.0
 11
154.6431145705031
 21
315.3392761191411
 31
0.0
  0
LINE
  5
8C
330
39
100
AcDbEntity
  8
1
  6
Continuous
 62
     7
100
AcDbLine
 10
148.2563281371199
 20
334.7620757733084
 30
0.0
 11
144.4011422511524
 21
320.374326174255
 31
0.0
  0
LINE
  5
8D
330
39
100
AcDbEntity
  8
1
  6
Continuous
 62
     7
100
AcDbLine
 10
148.2563281371199
 20
347.7030280284345
 30
0.0
 11
144.6049189256494
 21
361.3302727248672
 31
0.0
  0
LINE
  5
8E
330
39
100
AcDbEntity
  8
1
  6
Continuous
 62
     7
100
AcDbLine
 10
164.6189500554655
 20
357.1499921976393
 30
0.0
 11
154.6431145705031
 21
367.1258276826017
 31
0.0
  0
LINE
  5
8F
330
39
100
AcDbEntity
  8
1
  6
Continuous
 62
     7
100
AcDbLine
 10
175.8261434575661
 20
350.6795160700763
 30
0.0
 11
189.453388153999
 21
347.0281068586058
 31
0.0
  0
LINE
  5
90
330
39
100
AcDbEntity
  8
1
  6
Continuous
 62
     7
100
AcDbLine
 10
144.9756995954582
 20
258.5325519008714
 30
0.0
 11
192.333790598314
 21
258.5325519008714
 31
0.0
  0
LINE
  5
91
330
39
100
AcDbEntity
  8
1
  6
Continuous
 62
     7
100
AcDbLine
 10
193.8204237141441
 20
259.1021384513515
 30
0.0
 11
193.3685156151518
 21
262.3176316562221
 31
0.0
  0
LINE
  5
92
330
39
100
AcDbEntity
  8
1
  6
Continuous
 62
     7
100
AcDbLine
 10
144.4805705350251
 20
259.1021738335841
 30
0.0
 11
145.0977880290326
 21
263.4916285066151
 31
0.0
  0
LINE
  5
93
330
39
100
AcDbEntity
  8
1
  6
Continuous
 62
     7
100
AcDbLine
 10
157.1504738833838
 20
258.5325519008714
 30
0.0
 11
158.1504738833838
 21
258.5325519008714
 31
0.0
  0
LINE
  5
94
330
39
100
AcDbEntity
  8
1
  6
Continuous
 62
     7
100
AcDbLine
 10
192.333790598314
 20
258.5325519008714
 30
0.0
 11
193.3252896797734
 21
258.5325519008714
 31
0.0
  0
ARC
  5
95
330
39
100
AcDbEntity
  8
1
  6
Continuous
 62
     7
100
AcDbCircle
 10
330.6618502228214
 20
142.162399360547
 30
0.0
 40
127.494833408141
100
AcDbArc
 50
92.53411689479742
 51
100.8094932463522
  0
ARC
  5
96
330
39
100
AcDbEntity
  8
1
  6
Continuous
 62
     7
100
AcDbCircle
 10
327.3876695210429
 20
142.162399360547
 30
0.0
 40
127.4948334081409
100
AcDbArc
 50
79.19050675364778
 51
87.46588310520268
  0
ARC
  5
97
330
39
100
AcDbEntity
  8
1
  6
Continuous
 62
     7
100
AcDbCircle
 10
187.9004738833838
 20
341.2325519008714
 30
0.0
 40
6.000000000000004
100
AcDbArc
 50
-74.99999999999938
 51
0.0
  0
ARC
  5
98
330
39
100
AcDbEntity
  8
1
  6
Continuous
 62
     7
100
AcDbCircle
 10
150.4004738833838
 20
319.5819168062604
 30
0.0
 40
5.999999999999957
100
AcDbArc
 50
172.4757589210586
 51
-44.99999999999981
  0
ARC
  5
99
330
39
100
AcDbEntity
  8
1
  6
Continuous
 62
     7
100
AcDbCircle
 10
150.4004738833838
 20
362.8831869954823
 30
0.0
 40
6.000000000000109
100
AcDbArc
 50
45.00000000000096
 51
-165.0000000000004
  0
ARC
  5
9A
330
39
100
AcDbEntity
  8
1
  6
Continuous
 62
     7
100
AcDbCircle
 10
187.9004738833838
 20
341.2325519008714
 30
0.0
 40
6.0
100
AcDbArc
 50
0.0
 51
74.99999999999938
  0
ARC
  5
9B
330
39
100
AcDbEntity
  8
1
  6
Continuous
 62
     7
100
AcDbCircle
 10
162.9004738833838
 20
119.5325519008714
 30
0.0
 40
150.0533238552216
100
AcDbArc
 50
80.19709820623226
 51
88.47247455778707
  0
ARC
  5
9C
330
39
100
AcDbEntity
  8
1
  6
Continuous
 62
     7
100
AcDbCircle
 10
162.5362782181371
 20
194.6207308921722
 30
0.0
 40
74.99999999999999
100
AcDbArc
 50
92.77863896596264
 51
96.21229304260743
  0
ARC
  5
9D
330
39
100
AcDbEntity
  8
1
  6
Continuous
 62
     7
100
AcDbCircle
 10
162.5362782181371
 20
194.6207308921722
 30
0.0
 40
75.00000000000006
100
AcDbArc
 50
96.21229304260743
 51
99.59149248266505
  0
ARC
  5
9E
330
39
100
AcDbEntity
  8
1
  6
Continuous
 62
     7
100
AcDbCircle
 10
301.8741247773212
 20
259.0325519008715
 30
0.0
 40
0.499999999999858
100
AcDbArc
 50
172.0000000000167
 51
-90.0
  0
ARC
  5
9F
330
39
100
AcDbEntity
  8
1
  6
Continuous
 62
     7
100
AcDbCircle
 10
307.7725072543922
 20
261.4825930504617
 30
0.0
 40
6.000000000000023
100
AcDbArc
 50
99.80290179376806
 51
171.9999999999988
  0
ARC
  5
A0
330
39
100
AcDbEntity
  8
1
  6
Continuous
 62
     7
100
AcDbCircle
 10
350.2770124894721
 20
261.4825930504617
 30
0.0
 40
5.999999999999883
100
AcDbArc
 50
8.00000000000149
 51
80.19709820623194
  0
ARC
  5
A1
330
39
100
AcDbEntity
  8
1
  6
Continuous
 62
     7
100
AcDbCircle
 10
356.1753949665431
 20
259.0325519008715
 30
0.0
 40
0.5
100
AcDbArc
 50
-90.0
 51
7.99999999998062
  0
ARC
  5
A2
330
39
100
AcDbEntity
  8
1
  6
Continuous
 62
     7
100
AcDbCircle
 10
182.2966195851291
 20
307.6374420744398
 30
0.0
 40
25.00000000000002
100
AcDbArc
 50
104.9999999999999
 51
134.9999999999998
  0
ARC
  5
A3
330
39
100
AcDbEntity
  8
1
  6
Continuous
 62
     7
100
AcDbCircle
 10
124.1081824798932
 20
341.2325519008714
 30
0.0
 40
24.99999999999999
100
AcDbArc
 50
-14.99999999999987
 51
15.00000000000025
  0
ARC
  5
A4
330
39
100
AcDbEntity
  8
1
  6
Continuous
 62
     7
100
AcDbCircle
 10
182.2966195851291
 20
374.8276617273029
 30
0.0
 40
24.99999999999988
100
AcDbArc
 50
-135.0
 51
-105.0
  0
ARC
  5
A5
330
39
100
AcDbEntity
  8
1
  6
Continuous
 62
     7
100
AcDbCircle
 10
187.4269072027022
 20
261.4825930504617
 30
0.0
 40
6.000000000000177
100
AcDbArc
 50
8.0
 51
80.19709820623221
  0
ARC
  5
A6
330
39
100
AcDbEntity
  8
1
  6
Continuous
 62
     7
100
AcDbCircle
 10
151.0393367542298
 20
262.6561653140636
 30
0.0
 40
5.999999999999949
100
AcDbArc
 50
99.59149248266442
 51
171.9959056282985
  0
ARC
  5
A7
330
39
100
AcDbEntity
  8
1
  6
Continuous
 62
     7
100
AcDbCircle
 10
193.3252896797734
 20
259.0325519008714
 30
0.0
 40
0.5
100
AcDbArc
 50
-90.0
 51
8.00000000000823
  0
ARC
  5
A8
330
39
100
AcDbEntity
  8
1
  6
Continuous
 62
     7
100
AcDbCircle
 10
144.9756995954582
 20
259.0325519008714
 30
0.0
 40
0.5000000000000197
100
AcDbArc
 50
171.9959056282873
 51
-90.0
  0
ENDBLK
  5
3B
330
39
100
AcDbEntity
  8
0
100
AcDbBlockEnd
  0
BLOCK
  5
3D
330
3C
100
AcDbEntity
  8
0
100
AcDbBlockBegin
  2
42-15-M1K
 70
     0
 71
     0
 10
74.79621379678031
 20
68.44290289128662
 30
0.0
  3
42-15-M1K
  1

  0
LINE
  5
A9
330
3C
100
AcDbEntity
  8
1
  6
Continuous
 62
     7
100
AcDbLine
 10
329.024759871932
 20
272.8623176210751
 30
0.0
 11
334.774759871932
 21
272.8623176210751
 31
0.0
  0
LINE
  5
AA
330
3C
100
AcDbEntity
  8
1
  6
Continuous
 62
     2
100
AcDbLine
 10
330.024759871932
 20
270.5096509124322
 30
0.0
 11
330.024759871932
 21
271.7748900030427
 31
0.0
  0
LINE
  5
AB
330
3C
100
AcDbEntity
  8
1
  6
Continuous
 62
     2
100
AcDbLine
 10
331.024759871932
 20
270.2501146887173
 30
0.0
 11
331.024759871932
 21
272.0182052127755
 31
0.0
  0
LINE
  5
AC
330
3C
100
AcDbEntity
  8
1
  6
Continuous
 62
     2
100
AcDbLine
 10
332.024759871932
 20
269.8932523811092
 30
0.0
 11
332.024759871932
 21
272.2290783945439
 31
0.0
  0
LINE
  5
AD
330
3C
100
AcDbEntity
  8
1
  6
Continuous
 62
     2
100
AcDbLine
 10
333.024759871932
 20
269.6986002133231
 30
0.0
 11
333.024759871932
 21
272.3426254924192
 31
0.0
  0
LINE
  5
AE
330
3C
100
AcDbEntity
  8
1
  6
Continuous
 62
     7
100
AcDbLine
 10
324.024759871932
 20
269.5325519008715
 30
0.0
 11
334.024759871932
 21
269.5325519008715
 31
0.0
  0
LINE
  5
AF
330
3C
100
AcDbEntity
  8
1
  6
Continuous
 62
     2
100
AcDbLine
 10
334.024759871932
 20
269.5325519008715
 30
0.0
 11
334.024759871932
 21
272.5325519008715
 31
0.0
  0
LINE
  5
B0
330
3C
100
AcDbEntity
  8
1
  6
Continuous
 62
     7
100
AcDbLine
 10
334.024759871932
 20
269.5325519008715
 30
0.0
 11
335.024759871932
 21
269.5325519008715
 31
0.0
  0
LINE
  5
B1
330
3C
100
AcDbEntity
  8
1
  6
Continuous
 62
     7
100
AcDbLine
 10
334.024759871932
 20
272.5325519008715
 30
0.0
 11
335.024759871932
 21
272.5325519008715
 31
0.0
  0
LINE
  5
B2
330
3C
100
AcDbEntity
  8
1
  6
Continuous
 62
     2
100
AcDbLine
 10
335.024759871932
 20
269.5325519008715
 30
0.0
 11
335.024759871932
 21
272.5325519008715
 31
0.0
  0
LINE
  5
B3
330
3C
100
AcDbEntity
  8
1
  6
Continuous
 62
     7
100
AcDbLine
 10
335.024759871932
 20
272.5325519008715
 30
0.0
 11
336.024759871932
 21
272.5325519008715
 31
0.0
  0
LINE
  5
B4
330
3C
100
AcDbEntity
  8
1
  6
Continuous
 62
     7
100
AcDbLine
 10
335.024759871932
 20
272.8018740998946
 30
0.0
 11
336.024759871932
 21
272.5325519008715
 31
0.0
  0
LINE
  5
B5
330
3C
100
AcDbEntity
  8
1
  6
Continuous
 62
     7
100
AcDbLine
 10
335.024759871932
 20
269.5325519008715
 30
0.0
 11
336.024759871932
 21
269.5325519008715
 31
0.0
  0
LINE
  5
B6
330
3C
100
AcDbEntity
  8
1
  6
Continuous
 62
     7
100
AcDbLine
 10
336.024759871932
 20
272.5325519008715
 30
0.0
 11
336.024759871932
 21
269.5325519008715
 31
0.0
  0
LINE
  5
B7
330
3C
100
AcDbEntity
  8
1
  6
Continuous
 62
     7
100
AcDbLine
 10
322.024759871932
 20
269.5325519008715
 30
0.0
 11
322.024759871932
 21
272.5325519008715
 31
0.0
  0
LINE
  5
B8
330
3C
100
AcDbEntity
  8
1
  6
Continuous
 62
     7
100
AcDbLine
 10
322.024759871932
 20
269.5325519008715
 30
0.0
 11
323.024759871932
 21
269.5325519008715
 31
0.0
  0
LINE
  5
B9
330
3C
100
AcDbEntity
  8
1
  6
Continuous
 62
     7
100
AcDbLine
 10
322.024759871932
 20
272.5325519008715
 30
0.0
 11
323.024759871932
 21
272.8018740998946
 31
0.0
  0
LINE
  5
BA
330
3C
100
AcDbEntity
  8
1
  6
Continuous
 62
     7
100
AcDbLine
 10
322.024759871932
 20
272.5325519008715
 30
0.0
 11
323.024759871932
 21
272.5325519008715
 31
0.0
  0
LINE
  5
BB
330
3C
100
AcDbEntity
  8
1
  6
Continuous
 62
     2
100
AcDbLine
 10
323.024759871932
 20
272.5325519008715
 30
0.0
 11
323.024759871932
 21
269.5325519008715
 31
0.0
  0
LINE
  5
BC
330
3C
100
AcDbEntity
  8
1
  6
Continuous
 62
     7
100
AcDbLine
 10
323.024759871932
 20
272.5325519008715
 30
0.0
 11
324.024759871932
 21
272.5325519008715
 31
0.0
  0
LINE
  5
BD
330
3C
100
AcDbEntity
  8
1
  6
Continuous
 62
     7
100
AcDbLine
 10
323.024759871932
 20
269.5325519008715
 30
0.0
 11
324.024759871932
 21
269.5325519008715
 31
0.0
  0
LINE
  5
BE
330
3C
100
AcDbEntity
  8
1
  6
Continuous
 62
     2
100
AcDbLine
 10
324.024759871932
 20
272.5325519008715
 30
0.0
 11
324.024759871932
 21
269.5325519008715
 31
0.0
  0
LINE
  5
BF
330
3C
100
AcDbEntity
  8
1
  6
Continuous
 62
     2
100
AcDbLine
 10
325.024759871932
 20
272.3426254924192
 30
0.0
 11
325.024759871932
 21
269.6986002133231
 31
0.0
  0
LINE
  5
C0
330
3C
100
AcDbEntity
  8
1
  6
Continuous
 62
     2
100
AcDbLine
 10
326.024759871932
 20
272.2290783945439
 30
0.0
 11
326.024759871932
 21
269.8932523811092
 31
0.0
  0
LINE
  5
C1
330
3C
100
AcDbEntity
  8
1
  6
Continuous
 62
     2
100
AcDbLine
 10
327.024759871932
 20
272.0182052127755
 30
0.0
 11
327.024759871932
 21
270.2501146887173
 31
0.0
  0
LINE
  5
C2
330
3C
100
AcDbEntity
  8
1
  6
Continuous
 62
     2
100
AcDbLine
 10
328.024759871932
 20
271.7748900030427
 30
0.0
 11
328.024759871932
 21
270.5096509124322
 31
0.0
  0
LINE
  5
C3
330
3C
100
AcDbEntity
  8
1
  6
Continuous
 62
     7
100
AcDbLine
 10
323.2747598719321
 20
272.8623176210751
 30
0.0
 11
329.024759871932
 21
272.8623176210751
 31
0.0
  0
LINE
  5
C4
330
3C
100
AcDbEntity
  8
1
  6
Continuous
 62
     7
100
AcDbLine
 10
324.024759871932
 20
272.5325519008715
 30
0.0
 11
334.024759871932
 21
272.5325519008715
 31
0.0
  0
LINE
  5
C5
330
3C
100
AcDbEntity
  8
1
  6
Continuous
 62
     7
100
AcDbLine
 10
162.9004738833838
 20
272.8623176210751
 30
0.0
 11
168.6504738833838
 21
272.8623176210751
 31
0.0
  0
LINE
  5
C6
330
3C
100
AcDbEntity
  8
1
  6
Continuous
 62
     2
100
AcDbLine
 10
163.9004738833838
 20
270.5096509124322
 30
0.0
 11
163.9004738833838
 21
271.7748900030427
 31
0.0
  0
LINE
  5
C7
330
3C
100
AcDbEntity
  8
1
  6
Continuous
 62
     2
100
AcDbLine
 10
164.9004738833838
 20
270.2501146887173
 30
0.0
 11
164.9004738833838
 21
272.0182052127754
 31
0.0
  0
LINE
  5
C8
330
3C
100
AcDbEntity
  8
1
  6
Continuous
 62
     2
100
AcDbLine
 10
165.9004738833838
 20
269.8932523811091
 30
0.0
 11
165.9004738833838
 21
272.2290783945438
 31
0.0
  0
LINE
  5
C9
330
3C
100
AcDbEntity
  8
1
  6
Continuous
 62
     2
100
AcDbLine
 10
166.9004738833838
 20
269.698600213323
 30
0.0
 11
166.9004738833838
 21
272.3426254924192
 31
0.0
  0
LINE
  5
CA
330
3C
100
AcDbEntity
  8
1
  6
Continuous
 62
     7
100
AcDbLine
 10
165.2004738833838
 20
269.5325519008714
 30
0.0
 11
167.9004738833838
 21
269.5325519008714
 31
0.0
  0
LINE
  5
CB
330
3C
100
AcDbEntity
  8
1
  6
Continuous
 62
     2
100
AcDbLine
 10
167.9004738833838
 20
269.5325519008714
 30
0.0
 11
167.9004738833838
 21
272.5325519008714
 31
0.0
  0
LINE
  5
CC
330
3C
100
AcDbEntity
  8
1
  6
Continuous
 62
     7
100
AcDbLine
 10
167.9004738833838
 20
269.5325519008714
 30
0.0
 11
168.9004738833838
 21
269.5325519008714
 31
0.0
  0
LINE
  5
CD
330
3C
100
AcDbEntity
  8
1
  6
Continuous
 62
     7
100
AcDbLine
 10
167.9004738833838
 20
272.5325519008714
 30
0.0
 11
168.9004738833838
 21
272.5325519008714
 31
0.0
  0
LINE
  5
CE
330
3C
100
AcDbEntity
  8
1
  6
Continuous
 62
     2
100
AcDbLine
 10
168.9004738833838
 20
269.5325519008714
 30
0.0
 11
168.9004738833838
 21
272.5325519008714
 31
0.0
  0
LINE
  5
CF
330
3C
100
AcDbEntity
  8
1
  6
Continuous
 62
     7
100
AcDbLine
 10
168.9004738833838
 20
272.5325519008714
 30
0.0
 11
169.9004738833838
 21
272.5325519008714
 31
0.0
  0
LINE
  5
D0
330
3C
100
AcDbEntity
  8
1
  6
Continuous
 62
     7
100
AcDbLine
 10
168.9004738833838
 20
272.8018740998946
 30
0.0
 11
169.9004738833838
 21
272.5325519008714
 31
0.0
  0
LINE
  5
D1
330
3C
100
AcDbEntity
  8
1
  6
Continuous
 62
     7
100
AcDbLine
 10
168.9004738833838
 20
269.5325519008714
 30
0.0
 11
169.9004738833838
 21
269.5325519008714
 31
0.0
  0
LINE
  5
D2
330
3C
100
AcDbEntity
  8
1
  6
Continuous
 62
     7
100
AcDbLine
 10
169.9004738833838
 20
272.5325519008714
 30
0.0
 11
169.9004738833838
 21
269.5325519008714
 31
0.0
  0
LINE
  5
D3
330
3C
100
AcDbEntity
  8
1
  6
Continuous
 62
     7
100
AcDbLine
 10
157.9004738833838
 20
269.5325519008714
 30
0.0
 11
165.2004738833838
 21
269.5325519008714
 31
0.0
  0
LINE
  5
D4
330
3C
100
AcDbEntity
  8
1
  6
Continuous
 62
     7
100
AcDbLine
 10
155.9004738833838
 20
269.5325519008714
 30
0.0
 11
155.9004738833838
 21
272.5325519008714
 31
0.0
  0
LINE
  5
D5
330
3C
100
AcDbEntity
  8
1
  6
Continuous
 62
     7
100
AcDbLine
 10
155.9004738833838
 20
269.5325519008714
 30
0.0
 11
156.9004738833838
 21
269.5325519008714
 31
0.0
  0
LINE
  5
D6
330
3C
100
AcDbEntity
  8
1
  6
Continuous
 62
     7
100
AcDbLine
 10
155.9004738833838
 20
272.5325519008714
 30
0.0
 11
156.9004738833838
 21
272.8018740998946
 31
0.0
  0
LINE
  5
D7
330
3C
100
AcDbEntity
  8
1
  6
Continuous
 62
     7
100
AcDbLine
 10
155.9004738833838
 20
272.5325519008714
 30
0.0
 11
156.9004738833838
 21
272.5325519008714
 31
0.0
  0
LINE
  5
D8
330
3C
100
AcDbEntity
  8
1
  6
Continuous
 62
     2
100
AcDbLine
 10
156.9004738833838
 20
272.5325519008714
 30
0.0
 11
156.9004738833838
 21
269.5325519008714
 31
0.0
  0
LINE
  5
D9
330
3C
100
AcDbEntity
  8
1
  6
Continuous
 62
     7
100
AcDbLine
 10
156.9004738833838
 20
272.5325519008714
 30
0.0
 11
157.9004738833838
 21
272.5325519008714
 31
0.0
  0
LINE
  5
DA
330
3C
100
AcDbEntity
  8
1
  6
Continuous
 62
     7
100
AcDbLine
 10
156.9004738833838
 20
269.5325519008714
 30
0.0
 11
157.9004738833838
 21
269.5325519008714
 31
0.0
  0
LINE
  5
DB
330
3C
100
AcDbEntity
  8
1
  6
Continuous
 62
     2
100
AcDbLine
 10
157.9004738833838
 20
272.5325519008714
 30
0.0
 11
157.9004738833838
 21
269.5325519008714
 31
0.0
  0
LINE
  5
DC
330
3C
100
AcDbEntity
  8
1
  6
Continuous
 62
     2
100
AcDbLine
 10
158.9004738833838
 20
272.3426254924192
 30
0.0
 11
158.9004738833838
 21
269.698600213323
 31
0.0
  0
LINE
  5
DD
330
3C
100
AcDbEntity
  8
1
  6
Continuous
 62
     2
100
AcDbLine
 10
159.9004738833838
 20
272.2290783945438
 30
0.0
 11
159.9004738833838
 21
269.8932523811091
 31
0.0
  0
LINE
  5
DE
330
3C
100
AcDbEntity
  8
1
  6
Continuous
 62
     2
100
AcDbLine
 10
160.9004738833838
 20
272.0182052127754
 30
0.0
 11
160.9004738833838
 21
270.2501146887173
 31
0.0
  0
LINE
  5
DF
330
3C
100
AcDbEntity
  8
1
  6
Continuous
 62
     2
100
AcDbLine
 10
161.9004738833838
 20
271.7748900030427
 30
0.0
 11
161.9004738833838
 21
270.5096509124322
 31
0.0
  0
LINE
  5
E0
330
3C
100
AcDbEntity
  8
1
  6
Continuous
 62
     7
100
AcDbLine
 10
157.1504738833839
 20
272.8623176210751
 30
0.0
 11
162.9004738833838
 21
272.8623176210751
 31
0.0
  0
LINE
  5
E1
330
3C
100
AcDbEntity
  8
1
  6
Continuous
 62
     7
100
AcDbLine
 10
157.9004738833838
 20
272.5325519008714
 30
0.0
 11
167.9004738833838
 21
272.5325519008714
 31
0.0
  0
ARC
  5
E2
330
3C
100
AcDbEntity
  8
1
  6
Continuous
 62
     7
100
AcDbCircle
 10
329.024759871932
 20
248.5325519008714
 30
0.0
 40
24.99999999999996
100
AcDbArc
 50
76.70292825279093
 51
90.0
  0
ARC
  5
E3
330
3C
100
AcDbEntity
  8
1
  6
Continuous
 62
     7
100
AcDbCircle
 10
329.024759871932
 20
248.5325519008714
 30
0.0
 40
24.99999999999999
100
AcDbArc
 50
76.11345963737101
 51
76.70292825279093
  0
ARC
  5
E4
330
3C
100
AcDbEntity
  8
1
  6
Continuous
 62
     7
100
AcDbCircle
 10
329.024759871932
 20
248.5325519008714
 30
0.0
 40
24.99999999999995
100
AcDbArc
 50
103.297071747209
 51
103.886540362629
  0
ARC
  5
E5
330
3C
100
AcDbEntity
  8
1
  6
Continuous
 62
     7
100
AcDbCircle
 10
329.024759871932
 20
248.5325519008714
 30
0.0
 40
25.00000000000011
100
AcDbArc
 50
90.0
 51
103.297071747209
  0
ARC
  5
E6
330
3C
100
AcDbEntity
  8
1
  6
Continuous
 62
     7
100
AcDbCircle
 10
162.9004738833838
 20
248.5325519008714
 30
0.0
 40
24.99999999999996
100
AcDbArc
 50
76.70292825279093
 51
90.0
  0
ARC
  5
E7
330
3C
100
AcDbEntity
  8
1
  6
Continuous
 62
     7
100
AcDbCircle
 10
162.9004738833838
 20
248.5325519008714
 30
0.0
 40
24.99999999999999
100
AcDbArc
 50
76.11345963737101
 51
76.70292825279093
  0
ARC
  5
E8
330
3C
100
AcDbEntity
  8
1
  6
Continuous
 62
     7
100
AcDbCircle
 10
162.9004738833838
 20
248.5325519008714
 30
0.0
 40
24.99999999999994
100
AcDbArc
 50
103.2970717472088
 51
103.886540362629
  0
ARC
  5
E9
330
3C
100
AcDbEntity
  8
1
  6
Continuous
 62
     7
100
AcDbCircle
 10
162.9004738833838
 20
248.5325519008714
 30
0.0
 40
25.0
100
AcDbArc
 50
90.0
 51
103.2970717472088
  0
CIRCLE
  5
EA
330
3C
100
AcDbEntity
  8
0
  6
Continuous
 62
     7
100
AcDbCircle
 10
162.9004738833845
 20
341.2325519008713
 30
0.0
 40
5.74999999999929
  0
CIRCLE
  5
EB
330
3C
100
AcDbEntity
  8
0
  6
Continuous
 62
     7
100
AcDbCircle
 10
162.9004738833845
 20
341.2325519008713
 30
0.0
 40
6.999999999999943
  0
ENDBLK
  5
3E
330
3C
100
AcDbEntity
  8
0
100
AcDbBlockEnd
  0
BLOCK
  5
40
330
3F
100
AcDbEntity
  8
0
100
AcDbBlockBegin
  2
36-1A-13-M11K
 70
     0
 71
     0
 10
-53.20741606893199
 20
123.4634258914352
 30
0.0
  3
36-1A-13-M11K
  1

  0
LINE
  5
EC
330
3F
100
AcDbEntity
  8
1
  6
Continuous
 62
     7
100
AcDbLine
 10
333.774759871932
 20
258.5325519008715
 30
0.0
 11
333.774759871932
 21
255.2325519008714
 31
0.0
  0
LINE
  5
ED
330
3F
100
AcDbEntity
  8
1
  6
Continuous
 62
     7
100
AcDbLine
 10
324.274759871932
 20
255.2325519008714
 30
0.0
 11
324.274759871932
 21
258.5325519008715
 31
0.0
  0
LINE
  5
EE
330
3F
100
AcDbEntity
  8
1
  6
Continuous
 62
     7
100
AcDbLine
 10
167.6504738833838
 20
258.5325519008714
 30
0.0
 11
167.6504738833838
 21
255.2325519008714
 31
0.0
  0
LINE
  5
EF
330
3F
100
AcDbEntity
  8
1
  6
Continuous
 62
     7
100
AcDbLine
 10
158.1504738833838
 20
255.2325519008714
 30
0.0
 11
158.1504738833838
 21
258.5325519008714
 31
0.0
  0
ENDBLK
  5
41
330
3F
100
AcDbEntity
  8
0
100
AcDbBlockEnd
  0
BLOCK
  5
43
330
42
100
AcDbEntity
  8
0
100
AcDbBlockBegin
  2
37-1-13-M1K
 70
     0
 71
     0
 10
71.09924366661278
 20
104.2368460107269
 30
0.0
  3
37-1-13-M1K
  1

  0
LINE
  5
F0
330
42
100
AcDbEntity
  8
1
  6
Continuous
 62
     7
100
AcDbLine
 10
316.5247598719321
 20
248.7325519008715
 30
0.0
 11
341.5247598719319
 21
248.7325519008715
 31
0.0
  0
LINE
  5
F1
330
42
100
AcDbEntity
  8
1
  6
Continuous
 62
     7
100
AcDbLine
 10
162.9004738833838
 20
248.7325519008714
 30
0.0
 11
175.4004738833837
 21
248.7325519008715
 31
0.0
  0
LINE
  5
F2
330
42
100
AcDbEntity
  8
1
  6
Continuous
 62
     7
100
AcDbLine
 10
150.4004738833839
 20
248.7325519008715
 30
0.0
 11
162.9004738833838
 21
248.7325519008714
 31
0.0
  0
LINE
  5
F3
330
42
100
AcDbEntity
  8
1
  6
Continuous
 62
     7
100
AcDbLine
 10
316.024759871932
 20
241.2325519008714
 30
0.0
 11
342.024759871932
 21
241.2325519008714
 31
0.0
  0
LINE
  5
F4
330
42
100
AcDbEntity
  8
1
  6
Continuous
 62
     7
100
AcDbLine
 10
316.024759871932
 20
248.3032661151429
 30
0.0
 11
316.024759871932
 21
241.2325519008714
 31
0.0
  0
LINE
  5
F5
330
42
100
AcDbEntity
  8
1
  6
Continuous
 62
     7
100
AcDbLine
 10
342.024759871932
 20
241.2325519008714
 30
0.0
 11
342.024759871932
 21
248.3032661151428
 31
0.0
  0
LINE
  5
F6
330
42
100
AcDbEntity
  8
1
  6
Continuous
 62
     7
100
AcDbLine
 10
168.1247653932028
 20
354.2325519008714
 30
0.0
 11
169.3230901727164
 21
354.2325519008714
 31
0.0
  0
LINE
  5
F7
330
42
100
AcDbEntity
  8
1
  6
Continuous
 62
     7
100
AcDbLine
 10
171.5466583776721
 20
330.2081827365928
 30
0.0
 11
170.9474959879152
 21
329.1704030355496
 31
0.0
  0
LINE
  5
F8
330
42
100
AcDbEntity
  8
1
  6
Continuous
 62
     7
100
AcDbLine
 10
149.0299978792767
 20
339.25692106515
 30
0.0
 11
148.43083548952
 21
340.2947007661931
 31
0.0
  0
LINE
  5
F9
330
42
100
AcDbEntity
  8
1
  6
Continuous
 62
     7
100
AcDbLine
 10
169.3230901727164
 20
328.2325519008714
 30
0.0
 11
168.1247653932028
 21
328.2325519008714
 31
0.0
  0
LINE
  5
FA
330
42
100
AcDbEntity
  8
1
  6
Continuous
 62
     7
100
AcDbLine
 10
170.9474959879152
 20
353.2947007661931
 30
0.0
 11
171.5466583776721
 21
352.2569210651499
 31
0.0
  0
LINE
  5
FB
330
42
100
AcDbEntity
  8
1
  6
Continuous
 62
     7
100
AcDbLine
 10
148.43083548952
 20
342.1704030355496
 30
0.0
 11
149.0299978792767
 21
343.2081827365928
 31
0.0
  0
LINE
  5
FC
330
42
100
AcDbEntity
  8
1
  6
Continuous
 62
     7
100
AcDbLine
 10
323.024759871932
 20
255.2325519008714
 30
0.0
 11
335.024759871932
 21
255.2325519008714
 31
0.0
  0
LINE
  5
FD
330
42
100
AcDbEntity
  8
1
  6
Continuous
 62
     7
100
AcDbLine
 10
149.8297596691124
 20
241.2325519008714
 30
0.0
 11
175.9711880976553
 21
241.2325519008714
 31
0.0
  0
LINE
  5
FE
330
42
100
AcDbEntity
  8
1
  6
Continuous
 62
     7
100
AcDbLine
 10
156.9004738833839
 20
255.2325519008714
 30
0.0
 11
168.9004738833838
 21
255.2325519008714
 31
0.0
  0
ARC
  5
FF
330
42
100
AcDbEntity
  8
1
  6
Continuous
 62
     7
100
AcDbCircle
 10
319.524759871932
 20
244.7325519008714
 30
0.0
 40
5.000000000000034
100
AcDbArc
 50
126.8698976458429
 51
134.4270040008053
  0
ARC
  5
100
330
42
100
AcDbEntity
  8
1
  6
Continuous
 62
     7
100
AcDbCircle
 10
162.9004738833838
 20
341.2325519008714
 30
0.0
 40
14.4999999999998
100
AcDbArc
 50
176.2915552747294
 51
180.0
  0
ARC
  5
101
330
42
100
AcDbEntity
  8
1
  6
Continuous
 62
     7
100
AcDbCircle
 10
162.9004738833838
 20
341.2325519008714
 30
0.0
 40
14.5
100
AcDbArc
 50
180.0
 51
-176.2915552747292
  0
ARC
  5
102
330
42
100
AcDbEntity
  8
1
  6
Continuous
 62
     7
100
AcDbCircle
 10
162.9004738833838
 20
341.2325519008714
 30
0.0
 40
14.50000000000002
100
AcDbArc
 50
-63.70844472527048
 51
-56.29155527472947
  0
ARC
  5
103
330
42
100
AcDbEntity
  8
1
  6
Continuous
 62
     7
100
AcDbCircle
 10
162.9004738833838
 20
341.2325519008714
 30
0.0
 40
14.49999999999997
100
AcDbArc
 50
56.29155527472934
 51
63.70844472527048
  0
ARC
  5
104
330
42
100
AcDbEntity
  8
1
  6
Continuous
 62
     7
100
AcDbCircle
 10
303.118304666817
 20
268.6390071059864
 30
0.0
 40
24.0000000000001
100
AcDbArc
 50
-56.04080749990217
 51
-33.95919250009752
  0
ARC
  5
105
330
42
100
AcDbEntity
  8
1
  6
Continuous
 62
     7
100
AcDbCircle
 10
354.931215077047
 20
268.6390071059864
 30
0.0
 40
24.0000000000001
100
AcDbArc
 50
-146.0408074999024
 51
-123.9591925000978
  0
ARC
  5
106
330
42
100
AcDbEntity
  8
1
  6
Continuous
 62
     7
100
AcDbCircle
 10
338.524759871932
 20
244.7325519008714
 30
0.0
 40
4.999999999999975
100
AcDbArc
 50
45.57299599919402
 51
53.13010235415761
  0
ARC
  5
107
330
42
100
AcDbEntity
  8
1
  6
Continuous
 62
     7
100
AcDbCircle
 10
153.4004738833838
 20
244.7325519008714
 30
0.0
 40
5.0
100
AcDbArc
 50
126.8698976458424
 51
-135.572995999194
  0
ARC
  5
108
330
42
100
AcDbEntity
  8
1
  6
Continuous
 62
     7
100
AcDbCircle
 10
136.9940186782688
 20
268.6390071059863
 30
0.0
 40
24.00000000000002
100
AcDbArc
 50
-56.04080749990196
 51
-33.95919250009718
  0
ARC
  5
109
330
42
100
AcDbEntity
  8
1
  6
Continuous
 62
     7
100
AcDbCircle
 10
188.8069290884987
 20
268.6390071059863
 30
0.0
 40
23.99999999999996
100
AcDbArc
 50
-146.0408074999025
 51
-123.9591925000978
  0
ARC
  5
10A
330
42
100
AcDbEntity
  8
1
  6
Continuous
 62
     7
100
AcDbCircle
 10
172.4004738833838
 20
244.7325519008714
 30
0.0
 40
5.000000000000057
100
AcDbArc
 50
-44.42700400080507
 51
53.13010235415734
  0
SPLINE
  5
10B
330
42
100
AcDbEntity
  8
1
  6
Continuous
 62
     7
100
AcDbSpline
210
0.0
220
0.0
230
1.0
 70
    11
 71
     3
 72
    79
 73
    75
 74
    73
 42
0.0000000001
 43
0.0000000001
 44
0.00000001
 40
0.0
 40
0.0
 40
0.0
 40
0.0
 40
0.2803981145478758
 40
0.5607977859032138
 40
0.8427454841467965
 40
1.124697473048595
 40
1.409536451638168
 40
1.69438150088594
 40
1.983071310125274
 40
2.27176784342296
 40
2.564776142200904
 40
2.857790854546483
 40
3.155055698552832
 40
3.452325978930874
 40
3.75328482738973
 40
4.05424774288278
 40
4.357919806975688
 40
4.661594368328897
 40
4.966700748943443
 40
5.271807969839362
 40
5.576915190735367
 40
5.882021571349937
 40
6.185696132703141
 40
6.489368196796084
 40
6.790331112289055
 40
7.09128996074786
 40
7.388560241125954
 40
7.685825085132271
 40
7.97883979747785
 40
8.271848096255795
 40
8.560544629553485
 40
8.849234438792811
 40
9.134079488040566
 40
9.418918466630148
 40
9.700870455531936
 40
9.982818153775526
 40
10.26321782513086
 40
10.54361593967874
 40
10.82401405422667
 40
11.10441372558195
 40
11.38636142382551
 40
11.6683134127273
 40
11.95315239131683
 40
12.23799744056456
 40
12.52668724980391
 40
12.81538378310156
 40
13.10839208187954
 40
13.40140679422516
 40
13.69867163823155
 40
13.99594191860957
 40
14.29690076706833
 40
14.59786368256131
 40
14.90153574665423
 40
15.20521030800746
 40
15.51031668862201
 40
15.81542390951804
 40
16.12053113041396
 40
16.4256375110285
 40
16.7293120723817
 40
17.03298413647462
 40
17.33394705196765
 40
17.6349059004265
 40
17.93217618080459
 40
18.2294410248109
 40
18.52245573715651
 40
18.8154640359345
 40
19.10416056923222
 40
19.39285037847149
 40
19.67769542771923
 40
19.96253440630876
 40
20.24448639521053
 40
20.52643409345411
 40
20.80683376480942
 40
21.08723187935733
 40
21.08723187935733
 40
21.08723187935733
 40
21.08723187935733
 10
151.6421436341861
 20
248.2325519008714
 30
0.0
 10
151.5486430911326
 20
248.2299705149822
 30
0.0
 10
151.3616414858982
 20
248.2248077288715
 30
0.0
 10
151.0831570726582
 20
248.1833353788226
 30
0.0
 10
150.8092148762558
 20
248.1174352184299
 30
0.0
 10
150.5412867109203
 20
248.025203109196
 30
0.0
 10
150.2822409233599
 20
247.9081209198371
 30
0.0
 10
150.0330816292072
 20
247.7666446382576
 30
0.0
 10
149.7967716090293
 20
247.6023622922646
 30
0.0
 10
149.5739966151114
 20
247.4159021440482
 30
0.0
 10
149.3675405828133
 20
247.2094776691111
 30
0.0
 10
149.1779278391728
 20
246.9837599746745
 30
0.0
 10
149.0075286632472
 20
246.7414691763257
 30
0.0
 10
148.8568158556394
 20
246.4834116834858
 30
0.0
 10
148.7275927191139
 20
246.2125844800037
 30
0.0
 10
148.6203130459294
 20
245.9300676265072
 30
0.0
 10
148.5361585423743
 20
245.6388796559139
 30
0.0
 10
148.4755152685431
 20
245.3405008829993
 30
0.0
 10
148.4389815062717
 20
245.037739911119
 30
0.0
 10
148.4267624755352
 20
244.7325519008712
 30
0.0
 10
148.4389815062718
 20
244.4273638906248
 30
0.0
 10
148.475515268543
 20
244.1246029187399
 30
0.0
 10
148.5361585423743
 20
243.8262241458421
 30
0.0
 10
148.6203130459294
 20
243.5350361751862
 30
0.0
 10
148.7275927191139
 20
243.2525193219213
 30
0.0
 10
148.8568158556394
 20
242.9816921175797
 30
0.0
 10
149.0075286632473
 20
242.7236346279106
 30
0.0
 10
149.1779278391728
 20
242.481343817815
 30
0.0
 10
149.3675405828133
 20
242.2556261666171
 30
0.0
 10
149.5739966151114
 20
242.0492015315905
 30
0.0
 10
149.7967716090293
 20
241.8627419724134
 30
0.0
 10
150.0330816292072
 20
241.6984574447023
 30
0.0
 10
150.28224092336
 20
241.5569892016326
 30
0.0
 10
150.5412867109203
 20
241.4398771980307
 30
0.0
 10
150.8092148762559
 20
241.3477552795581
 30
0.0
 10
151.0831570726582
 20
241.2814455139903
 30
0.0
 10
151.3616414858982
 20
241.2414938488945
 30
0.0
 10
151.6421436341861
 20
241.2280809392717
 30
0.0
 10
151.922645782474
 20
241.2414938488944
 30
0.0
 10
152.2011301957141
 20
241.2814455139904
 30
0.0
 10
152.4750723921164
 20
241.3477552795579
 30
0.0
 10
152.7430005574519
 20
241.4398771980308
 30
0.0
 10
153.0020463450122
 20
241.5569892016325
 30
0.0
 10
153.251205639165
 20
241.6984574447024
 30
0.0
 10
153.4875156593427
 20
241.8627419724135
 30
0.0
 10
153.7102906532608
 20
242.0492015315907
 30
0.0
 10
153.9167466855589
 20
242.2556261666171
 30
0.0
 10
154.1063594291994
 20
242.481343817815
 30
0.0
 10
154.276758605125
 20
242.7236346279106
 30
0.0
 10
154.4274714127328
 20
242.9816921175797
 30
0.0
 10
154.5566945492583
 20
243.2525193219213
 30
0.0
 10
154.6639742224427
 20
243.5350361751862
 30
0.0
 10
154.7481287259978
 20
243.826224145842
 30
0.0
 10
154.8087719998291
 20
244.1246029187399
 30
0.0
 10
154.8453057621003
 20
244.4273638906248
 30
0.0
 10
154.857524792837
 20
244.7325519008711
 30
0.0
 10
154.8453057621003
 20
245.037739911119
 30
0.0
 10
154.808771999829
 20
245.3405008829992
 30
0.0
 10
154.7481287259979
 20
245.638879655914
 30
0.0
 10
154.6639742224427
 20
245.9300676265071
 30
0.0
 10
154.5566945492583
 20
246.2125844800038
 30
0.0
 10
154.4274714127328
 20
246.4834116834857
 30
0.0
 10
154.276758605125
 20
246.7414691763258
 30
0.0
 10
154.1063594291993
 20
246.9837599746745
 30
0.0
 10
153.9167466855589
 20
247.209477669111
 30
0.0
 10
153.7102906532607
 20
247.4159021440482
 30
0.0
 10
153.4875156593428
 20
247.6023622922647
 30
0.0
 10
153.2512056391649
 20
247.7666446382576
 30
0.0
 10
153.0020463450122
 20
247.908120919837
 30
0.0
 10
152.7430005574519
 20
248.025203109196
 30
0.0
 10
152.4750723921164
 20
248.1174352184299
 30
0.0
 10
152.2011301957141
 20
248.1833353788225
 30
0.0
 10
151.922645782474
 20
248.2248077288715
 30
0.0
 10
151.7356441772396
 20
248.2299705149822
 30
0.0
 10
151.6421436341861
 20
248.2325519008714
 30
0.0
 11
151.6421436341861
 21
248.2325519008714
 31
0.0
 11
151.3620636353165
 21
248.2191991155733
 31
0.0
 11
151.0845058269379
 21
248.1793790364141
 31
0.0
 11
150.8104544225589
 21
248.1131194536902
 31
0.0
 11
150.5438115622844
 21
248.0214760736221
 31
0.0
 11
150.2842231377484
 21
247.904228073337
 31
0.0
 11
150.0364895618529
 21
247.7636408141169
 31
0.0
 11
149.7993890772439
 21
247.5989436187649
 31
0.0
 11
149.5779545479091
 21
247.4137074517878
 31
0.0
 11
149.3706711585994
 21
247.2066145748726
 31
0.0
 11
149.1821388748218
 21
246.9823085347743
 31
0.0
 11
149.0110503282482
 21
246.7392137040735
 31
0.0
 11
148.8610692015252
 21
246.4825519008714
 31
0.0
 11
148.7313924216509
 21
246.2109636809003
 31
0.0
 11
148.6245010675735
 21
245.9296224025112
 31
0.0
 11
148.5401350062433
 21
245.6379049189658
 31
0.0
 11
148.4796224760075
 21
245.3403205227056
 31
0.0
 11
148.4430435274445
 21
245.0374147881714
 31
0.0
 11
148.4308354895198
 21
244.7325519008714
 31
0.0
 11
148.4430435274445
 21
244.4276890135714
 31
0.0
 11
148.4796224760075
 21
244.1247832790371
 31
0.0
 11
148.5401350062433
 21
243.8271988827769
 31
0.0
 11
148.6245010675735
 21
243.5354813992315
 31
0.0
 11
148.7313924216509
 21
243.2541401208425
 31
0.0
 11
148.8610692015252
 21
242.9825519008714
 31
0.0
 11
149.0110503282482
 21
242.7258900976693
 31
0.0
 11
149.1821388748218
 21
242.4827952669685
 31
0.0
 11
149.3706711585994
 21
242.2584892268702
 31
0.0
 11
149.5779545479091
 21
242.051396349955
 31
0.0
 11
149.7993890772439
 21
241.866160182978
 31
0.0
 11
150.0364895618529
 21
241.7014629876259
 31
0.0
 11
150.2842231377484
 21
241.5608757284059
 31
0.0
 11
150.5438115622844
 21
241.4436277281207
 31
0.0
 11
150.8104544225589
 21
241.3519843480526
 31
0.0
 11
151.0845058269379
 21
241.2857247653287
 31
0.0
 11
151.3620636353165
 21
241.2459046861696
 31
0.0
 11
151.6421436341861
 21
241.2325519008714
 31
0.0
 11
151.9222236330558
 21
241.2459046861696
 31
0.0
 11
152.1997814414343
 21
241.2857247653287
 31
0.0
 11
152.4738328458133
 21
241.3519843480526
 31
0.0
 11
152.7404757060878
 21
241.4436277281207
 31
0.0
 11
153.0000641306237
 21
241.5608757284059
 31
0.0
 11
153.2477977065192
 21
241.7014629876259
 31
0.0
 11
153.4848981911282
 21
241.866160182978
 31
0.0
 11
153.706332720463
 21
242.051396349955
 31
0.0
 11
153.9136161097728
 21
242.2584892268702
 31
0.0
 11
154.1021483935504
 21
242.4827952669685
 31
0.0
 11
154.2732369401241
 21
242.7258900976693
 31
0.0
 11
154.423218066847
 21
242.9825519008714
 31
0.0
 11
154.5528948467213
 21
243.2541401208425
 31
0.0
 11
154.6597862007986
 21
243.5354813992315
 31
0.0
 11
154.7441522621288
 21
243.8271988827769
 31
0.0
 11
154.8046647923646
 21
244.1247832790371
 31
0.0
 11
154.8412437409276
 21
244.4276890135714
 31
0.0
 11
154.8534517788523
 21
244.7325519008714
 31
0.0
 11
154.8412437409276
 21
245.0374147881714
 31
0.0
 11
154.8046647923646
 21
245.3403205227056
 31
0.0
 11
154.7441522621289
 21
245.6379049189658
 31
0.0
 11
154.6597862007986
 21
245.9296224025112
 31
0.0
 11
154.5528948467213
 21
246.2109636809003
 31
0.0
 11
154.423218066847
 21
246.4825519008714
 31
0.0
 11
154.273236940124
 21
246.7392137040736
 31
0.0
 11
154.1021483935504
 21
246.9823085347743
 31
0.0
 11
153.9136161097728
 21
247.2066145748726
 31
0.0
 11
153.706332720463
 21
247.4137074517878
 31
0.0
 11
153.4848981911281
 21
247.5989436187649
 31
0.0
 11
153.2477977065192
 21
247.7636408141169
 31
0.0
 11
153.0000641306238
 21
247.904228073337
 31
0.0
 11
152.7404757060878
 21
248.0214760736221
 31
0.0
 11
152.4738328458133
 21
248.1131194536902
 31
0.0
 11
152.1997814414343
 21
248.1793790364141
 31
0.0
 11
151.9222236330557
 21
248.2191991155733
 31
0.0
 11
151.6421436341861
 21
248.2325519008714
 31
0.0
  0
SPLINE
  5
10C
330
42
100
AcDbEntity
  8
1
  6
Continuous
 62
     7
100
AcDbSpline
210
0.0
220
0.0
230
1.0
 70
     8
 71
     3
 72
    29
 73
    25
 74
    23
 42
0.0000000001
 43
0.0000000001
 44
0.00000001
 40
0.0
 40
0.0
 40
0.0
 40
0.0
 40
0.6069077131759072
 40
1.212222625822736
 40
1.842666707826727
 40
2.474631900595299
 40
3.102420172365325
 40
3.729333891456381
 40
4.27104293983313
 40
4.812985328221141
 40
5.340107980728348
 40
5.866248927280138
 40
6.263874837343273
 40
6.661485236222354
 40
7.280966497568946
 40
7.902596738528104
 40
8.549168915178745
 40
9.195896772489133
 40
9.72241597417921
 40
10.24911841725699
 40
11.07897537274007
 40
11.90732207846629
 40
12.67331709995021
 40
13.4419127118582
 40
13.4419127118582
 40
13.4419127118582
 40
13.4419127118582
 10
162.9004738833838
 20
248.2325519008714
 30
0.0
 10
162.6984140538264
 20
248.2226765274091
 30
0.0
 10
162.2948246911576
 20
248.2029516979341
 30
0.0
 10
161.6831191408189
 20
248.1391613438809
 30
0.0
 10
161.0737020789291
 20
248.0049780465639
 30
0.0
 10
160.4752959034238
 20
247.8045224258793
 30
0.0
 10
159.9007333715281
 20
247.5459613090613
 30
0.0
 10
159.3858355738565
 20
247.2370319192899
 30
0.0
 10
158.9368166998584
 20
246.8832149947152
 30
0.0
 10
158.5628750973673
 20
246.4951903265521
 30
0.0
 10
158.2559091959072
 20
246.0582599227894
 30
0.0
 10
158.0486005383733
 20
245.6180459556892
 30
0.0
 10
157.9326979501026
 20
245.1913368350045
 30
0.0
 10
157.8819947452081
 20
244.7204213925024
 30
0.0
 10
157.9424510684859
 20
244.1714467994583
 30
0.0
 10
158.1553983002327
 20
243.5737007332383
 30
0.0
 10
158.5026352375788
 20
243.0320984872398
 30
0.0
 10
158.9239929634115
 20
242.5914905191022
 30
0.0
 10
159.3714064536685
 20
242.2416165954653
 30
0.0
 10
159.907242839591
 20
241.9127062124761
 30
0.0
 10
160.5721338895044
 20
241.608967590849
 30
0.0
 10
161.3517949509784
 20
241.3841977255063
 30
0.0
 10
162.1342005692879
 20
241.2798109200968
 30
0.0
 10
162.6447610386505
 20
241.2483884413479
 30
0.0
 10
162.9004738833838
 20
241.2326505769583
 30
0.0
 11
162.9004738833838
 21
248.2325519008714
 31
0.0
 11
162.2945878616256
 21
248.1973510351091
 31
0.0
 11
161.6931450421441
 21
248.1289940430249
 31
0.0
 11
161.077253830403
 21
247.9943175572006
 31
0.0
 11
160.4777923688544
 21
247.7942526652555
 31
0.0
 11
159.9060935955343
 21
247.5348714270051
 31
0.0
 11
159.3695283785212
 21
247.2106514722271
 31
0.0
 11
158.9450958397421
 21
246.8740423322461
 31
0.0
 11
158.5703468644616
 21
246.4825519008714
 31
0.0
 11
158.2687909785016
 21
246.0502067396528
 31
0.0
 11
158.0467706646679
 21
245.5732043540366
 31
0.0
 11
157.9430099475248
 21
245.1893553239069
 31
0.0
 11
157.9012518497041
 21
244.7939437780927
 31
0.0
 11
157.9658454613254
 21
244.1778393238828
 31
0.0
 11
158.1734636314767
 21
243.591905153606
 31
0.0
 11
158.5188362323317
 21
243.0453035196921
 31
0.0
 11
158.9631103589346
 21
242.5753275396117
 31
0.0
 11
159.3769807777093
 21
242.2498528920405
 31
0.0
 11
159.8250196249335
 21
241.9729473938608
 31
0.0
 11
160.579780331571
 21
241.6279853056834
 31
0.0
 11
161.3759366419591
 21
241.3993078159371
 31
0.0
 11
162.1339457725587
 21
241.2889876869225
 31
0.0
 11
162.9004738833838
 21
241.2326505769583
 31
0.0
  0
SPLINE
  5
10D
330
42
100
AcDbEntity
  8
1
  6
Continuous
 62
     7
100
AcDbSpline
210
0.0
220
0.0
230
1.0
 70
     8
 71
     3
 72
    29
 73
    25
 74
    23
 42
0.0000000001
 43
0.0000000001
 44
0.00000001
 40
0.0
 40
0.0
 40
0.0
 40
0.0
 40
0.6069077131759356
 40
1.212222625822736
 40
1.842666707826755
 40
2.474631900595327
 40
3.102420172365353
 40
3.729333891456409
 40
4.271042939833181
 40
4.812985328221172
 40
5.340107980728411
 40
5.866248927280165
 40
6.2638748373433
 40
6.66148523622238
 40
7.280966497568976
 40
7.902596738528123
 40
8.54916891517875
 40
9.195896772489139
 40
9.722415974179194
 40
10.24911841725703
 40
11.07897537274017
 40
11.90732207846632
 40
12.67331709995024
 40
13.44191271185824
 40
13.44191271185824
 40
13.44191271185824
 40
13.44191271185824
 10
162.9004738833838
 20
248.2325519008714
 30
0.0
 10
163.1025337129413
 20
248.2226765274091
 30
0.0
 10
163.5061230756101
 20
248.202951697934
 30
0.0
 10
164.1178286259486
 20
248.139161343881
 30
0.0
 10
164.7272456878386
 20
248.0049780465638
 30
0.0
 10
165.3256518633439
 20
247.8045224258794
 30
0.0
 10
165.9002143952395
 20
247.5459613090612
 30
0.0
 10
166.4151121929111
 20
247.23703191929
 30
0.0
 10
166.8641310669093
 20
246.8832149947151
 30
0.0
 10
167.2380726694004
 20
246.4951903265522
 30
0.0
 10
167.5450385708604
 20
246.0582599227893
 30
0.0
 10
167.7523472283943
 20
245.6180459556892
 30
0.0
 10
167.868249816665
 20
245.1913368350045
 30
0.0
 10
167.9189530215596
 20
244.7204213925024
 30
0.0
 10
167.8584966982815
 20
244.1714467994582
 30
0.0
 10
167.645549466535
 20
243.5737007332384
 30
0.0
 10
167.2983125291887
 20
243.0320984872398
 30
0.0
 10
166.8769548033562
 20
242.5914905191022
 30
0.0
 10
166.4295413130992
 20
242.2416165954653
 30
0.0
 10
165.8937049271765
 20
241.9127062124761
 30
0.0
 10
165.2288138772632
 20
241.608967590849
 30
0.0
 10
164.4491528157892
 20
241.3841977255062
 30
0.0
 10
163.6667471974797
 20
241.2798109200969
 30
0.0
 10
163.1561867281171
 20
241.2483884413479
 30
0.0
 10
162.9004738833838
 20
241.2326505769583
 30
0.0
 11
162.9004738833838
 21
248.2325519008714
 31
0.0
 11
163.506359905142
 21
248.1973510351091
 31
0.0
 11
164.1078027246235
 21
248.1289940430249
 31
0.0
 11
164.7236939363646
 21
247.9943175572006
 31
0.0
 11
165.3231553979132
 21
247.7942526652555
 31
0.0
 11
165.8948541712333
 21
247.5348714270051
 31
0.0
 11
166.4314193882464
 21
247.2106514722271
 31
0.0
 11
166.8558519270255
 21
246.8740423322461
 31
0.0
 11
167.230600902306
 21
246.4825519008714
 31
0.0
 11
167.532156788266
 21
246.0502067396528
 31
0.0
 11
167.7541771020997
 21
245.5732043540366
 31
0.0
 11
167.8579378192428
 21
245.1893553239069
 31
0.0
 11
167.8996959170635
 21
244.7939437780927
 31
0.0
 11
167.8351023054422
 21
244.1778393238828
 31
0.0
 11
167.6274841352909
 21
243.591905153606
 31
0.0
 11
167.2821115344359
 21
243.0453035196921
 31
0.0
 11
166.837837407833
 21
242.5753275396117
 31
0.0
 11
166.4239669890583
 21
242.2498528920405
 31
0.0
 11
165.9759281418341
 21
241.9729473938608
 31
0.0
 11
165.2211674351966
 21
241.6279853056834
 31
0.0
 11
164.4250111248085
 21
241.3993078159371
 31
0.0
 11
163.6670019942089
 21
241.2889876869225
 31
0.0
 11
162.9004738833838
 21
241.2326505769583
 31
0.0
  0
SPLINE
  5
10E
330
42
100
AcDbEntity
  8
1
  6
Continuous
 62
     7
100
AcDbSpline
210
0.0
220
0.0
230
1.0
 70
    11
 71
     3
 72
    79
 73
    75
 74
    73
 42
0.0000000001
 43
0.0000000001
 44
0.00000001
 40
0.0
 40
0.0
 40
0.0
 40
0.0
 40
0.2803981145479042
 40
0.5607977859032141
 40
0.842745484146769
 40
1.124697473048567
 40
1.40953645163814
 40
1.694381500885913
 40
1.983071310125246
 40
2.271767843422932
 40
2.564776142200876
 40
2.857790854546455
 40
3.155055698552821
 40
3.452325978930849
 40
3.75328482738973
 40
4.05424774288276
 40
4.357919806975676
 40
4.661594368328879
 40
4.966700748943425
 40
5.271807969839345
 40
5.57691519073535
 40
5.882021571349924
 40
6.185696132703128
 40
6.489368196796071
 40
6.790331112289041
 40
7.091289960747846
 40
7.388560241125955
 40
7.685825085132255
 40
7.978839797477835
 40
8.271848096255779
 40
8.560544629553425
 40
8.849234438792797
 40
9.134079488040527
 40
9.418918466630135
 40
9.700870455531897
 40
9.982818153775487
 40
10.26321782513083
 40
10.5436159396787
 40
10.8240140542266
 40
11.10441372558191
 40
11.38636142382547
 40
11.66831341272727
 40
11.95315239131682
 40
12.23799744056453
 40
12.52668724980385
 40
12.81538378310154
 40
13.1083920818795
 40
13.40140679422512
 40
13.69867163823151
 40
13.99594191860955
 40
14.29690076706832
 40
14.59786368256129
 40
14.90153574665419
 40
15.20521030800744
 40
15.51031668862204
 40
15.81542390951802
 40
16.12053113041394
 40
16.42563751102848
 40
16.72931207238168
 40
17.03298413647461
 40
17.33394705196763
 40
17.63490590042648
 40
17.93217618080452
 40
18.22944102481088
 40
18.5224557371565
 40
18.81546403593446
 40
19.10416056923215
 40
19.39285037847148
 40
19.67769542771921
 40
19.96253440630874
 40
20.24448639521051
 40
20.52643409345409
 40
20.80683376480943
 40
21.0872318793573
 40
21.0872318793573
 40
21.0872318793573
 40
21.0872318793573
 10
174.1588041325815
 20
248.2325519008714
 30
0.0
 10
174.252304675635
 20
248.2299705149822
 30
0.0
 10
174.4393062808694
 20
248.2248077288715
 30
0.0
 10
174.7177906941095
 20
248.1833353788226
 30
0.0
 10
174.9917328905118
 20
248.1174352184299
 30
0.0
 10
175.2596610558473
 20
248.0252031091959
 30
0.0
 10
175.5187068434076
 20
247.9081209198371
 30
0.0
 10
175.7678661375604
 20
247.7666446382576
 30
0.0
 10
176.0041761577383
 20
247.6023622922646
 30
0.0
 10
176.2269511516562
 20
247.4159021440482
 30
0.0
 10
176.4334071839543
 20
247.2094776691111
 30
0.0
 10
176.6230199275947
 20
246.9837599746745
 30
0.0
 10
176.7934191035204
 20
246.7414691763258
 30
0.0
 10
176.9441319111282
 20
246.4834116834857
 30
0.0
 10
177.0733550476538
 20
246.2125844800038
 30
0.0
 10
177.1806347208382
 20
245.9300676265072
 30
0.0
 10
177.2647892243933
 20
245.6388796559139
 30
0.0
 10
177.3254324982245
 20
245.3405008829992
 30
0.0
 10
177.3619662604958
 20
245.0377399111191
 30
0.0
 10
177.3741852912325
 20
244.7325519008711
 30
0.0
 10
177.3619662604958
 20
244.4273638906248
 30
0.0
 10
177.3254324982246
 20
244.12460291874
 30
0.0
 10
177.2647892243933
 20
243.826224145842
 30
0.0
 10
177.1806347208382
 20
243.5350361751863
 30
0.0
 10
177.0733550476536
 20
243.2525193219212
 30
0.0
 10
176.9441319111283
 20
242.9816921175797
 30
0.0
 10
176.7934191035203
 20
242.7236346279106
 30
0.0
 10
176.6230199275948
 20
242.481343817815
 30
0.0
 10
176.4334071839543
 20
242.2556261666171
 30
0.0
 10
176.2269511516562
 20
242.0492015315906
 30
0.0
 10
176.0041761577382
 20
241.8627419724134
 30
0.0
 10
175.7678661375605
 20
241.6984574447024
 30
0.0
 10
175.5187068434076
 20
241.5569892016325
 30
0.0
 10
175.2596610558473
 20
241.4398771980309
 30
0.0
 10
174.9917328905118
 20
241.347755279558
 30
0.0
 10
174.7177906941095
 20
241.2814455139903
 30
0.0
 10
174.4393062808694
 20
241.2414938488945
 30
0.0
 10
174.1588041325816
 20
241.2280809392716
 30
0.0
 10
173.8783019842936
 20
241.2414938488945
 30
0.0
 10
173.5998175710535
 20
241.2814455139904
 30
0.0
 10
173.3258753746512
 20
241.3477552795579
 30
0.0
 10
173.0579472093157
 20
241.4398771980308
 30
0.0
 10
172.7989014217555
 20
241.5569892016325
 30
0.0
 10
172.5497421276027
 20
241.6984574447024
 30
0.0
 10
172.3134321074249
 20
241.8627419724135
 30
0.0
 10
172.0906571135068
 20
242.0492015315905
 30
0.0
 10
171.8842010812087
 20
242.2556261666172
 30
0.0
 10
171.6945883375682
 20
242.481343817815
 30
0.0
 10
171.5241891616426
 20
242.7236346279106
 30
0.0
 10
171.3734763540348
 20
242.9816921175798
 30
0.0
 10
171.2442532175093
 20
243.2525193219213
 30
0.0
 10
171.136973544325
 20
243.5350361751862
 30
0.0
 10
171.0528190407698
 20
243.8262241458421
 30
0.0
 10
170.9921757669385
 20
244.1246029187398
 30
0.0
 10
170.9556420046673
 20
244.4273638906249
 30
0.0
 10
170.9434229739306
 20
244.732551900871
 30
0.0
 10
170.9556420046674
 20
245.0377399111191
 30
0.0
 10
170.9921757669385
 20
245.3405008829991
 30
0.0
 10
171.0528190407697
 20
245.638879655914
 30
0.0
 10
171.136973544325
 20
245.9300676265071
 30
0.0
 10
171.2442532175093
 20
246.2125844800038
 30
0.0
 10
171.3734763540347
 20
246.4834116834858
 30
0.0
 10
171.5241891616426
 20
246.7414691763258
 30
0.0
 10
171.6945883375683
 20
246.9837599746745
 30
0.0
 10
171.8842010812087
 20
247.2094776691111
 30
0.0
 10
172.0906571135069
 20
247.4159021440481
 30
0.0
 10
172.3134321074248
 20
247.6023622922646
 30
0.0
 10
172.5497421276027
 20
247.7666446382576
 30
0.0
 10
172.7989014217554
 20
247.908120919837
 30
0.0
 10
173.0579472093158
 20
248.025203109196
 30
0.0
 10
173.3258753746513
 20
248.1174352184299
 30
0.0
 10
173.5998175710536
 20
248.1833353788226
 30
0.0
 10
173.8783019842936
 20
248.2248077288715
 30
0.0
 10
174.065303589528
 20
248.2299705149821
 30
0.0
 10
174.1588041325815
 20
248.2325519008714
 30
0.0
 11
174.1588041325815
 21
248.2325519008714
 31
0.0
 11
174.4388841314511
 21
248.2191991155733
 31
0.0
 11
174.7164419398297
 21
248.1793790364141
 31
0.0
 11
174.9904933442087
 21
248.1131194536902
 31
0.0
 11
175.2571362044832
 21
248.0214760736221
 31
0.0
 11
175.5167246290192
 21
247.904228073337
 31
0.0
 11
175.7644582049147
 21
247.7636408141169
 31
0.0
 11
176.0015586895237
 21
247.5989436187649
 31
0.0
 11
176.2229932188585
 21
247.4137074517878
 31
0.0
 11
176.4302766081682
 21
247.2066145748726
 31
0.0
 11
176.6188088919458
 21
246.9823085347743
 31
0.0
 11
176.7898974385195
 21
246.7392137040735
 31
0.0
 11
176.9398785652424
 21
246.4825519008714
 31
0.0
 11
177.0695553451168
 21
246.2109636809003
 31
0.0
 11
177.1764466991941
 21
245.9296224025112
 31
0.0
 11
177.2608127605243
 21
245.6379049189658
 31
0.0
 11
177.3213252907601
 21
245.3403205227056
 31
0.0
 11
177.3579042393231
 21
245.0374147881714
 31
0.0
 11
177.3701122772478
 21
244.7325519008714
 31
0.0
 11
177.3579042393231
 21
244.4276890135714
 31
0.0
 11
177.3213252907601
 21
244.1247832790371
 31
0.0
 11
177.2608127605243
 21
243.8271988827769
 31
0.0
 11
177.1764466991941
 21
243.5354813992315
 31
0.0
 11
177.0695553451167
 21
243.2541401208425
 31
0.0
 11
176.9398785652424
 21
242.9825519008714
 31
0.0
 11
176.7898974385194
 21
242.7258900976693
 31
0.0
 11
176.6188088919458
 21
242.4827952669685
 31
0.0
 11
176.4302766081682
 21
242.2584892268702
 31
0.0
 11
176.2229932188585
 21
242.051396349955
 31
0.0
 11
176.0015586895237
 21
241.866160182978
 31
0.0
 11
175.7644582049147
 21
241.7014629876259
 31
0.0
 11
175.5167246290192
 21
241.5608757284059
 31
0.0
 11
175.2571362044832
 21
241.4436277281207
 31
0.0
 11
174.9904933442087
 21
241.3519843480526
 31
0.0
 11
174.7164419398297
 21
241.2857247653287
 31
0.0
 11
174.4388841314511
 21
241.2459046861696
 31
0.0
 11
174.1588041325815
 21
241.2325519008714
 31
0.0
 11
173.8787241337119
 21
241.2459046861696
 31
0.0
 11
173.6011663253333
 21
241.2857247653287
 31
0.0
 11
173.3271149209543
 21
241.3519843480526
 31
0.0
 11
173.0604720606798
 21
241.4436277281207
 31
0.0
 11
172.8008836361439
 21
241.5608757284059
 31
0.0
 11
172.5531500602484
 21
241.7014629876259
 31
0.0
 11
172.3160495756395
 21
241.866160182978
 31
0.0
 11
172.0946150463046
 21
242.051396349955
 31
0.0
 11
171.8873316569948
 21
242.2584892268702
 31
0.0
 11
171.6987993732172
 21
242.4827952669685
 31
0.0
 11
171.5277108266436
 21
242.7258900976693
 31
0.0
 11
171.3777296999206
 21
242.9825519008714
 31
0.0
 11
171.2480529200463
 21
243.2541401208425
 31
0.0
 11
171.141161565969
 21
243.5354813992315
 31
0.0
 11
171.0567955046387
 21
243.8271988827769
 31
0.0
 11
170.996282974403
 21
244.1247832790371
 31
0.0
 11
170.95970402584
 21
244.4276890135714
 31
0.0
 11
170.9474959879153
 21
244.7325519008714
 31
0.0
 11
170.95970402584
 21
245.0374147881714
 31
0.0
 11
170.996282974403
 21
245.3403205227056
 31
0.0
 11
171.0567955046387
 21
245.6379049189658
 31
0.0
 11
171.141161565969
 21
245.9296224025112
 31
0.0
 11
171.2480529200463
 21
246.2109636809003
 31
0.0
 11
171.3777296999206
 21
246.4825519008714
 31
0.0
 11
171.5277108266436
 21
246.7392137040735
 31
0.0
 11
171.6987993732172
 21
246.9823085347743
 31
0.0
 11
171.8873316569948
 21
247.2066145748726
 31
0.0
 11
172.0946150463046
 21
247.4137074517878
 31
0.0
 11
172.3160495756395
 21
247.5989436187649
 31
0.0
 11
172.5531500602484
 21
247.7636408141169
 31
0.0
 11
172.8008836361439
 21
247.904228073337
 31
0.0
 11
173.0604720606798
 21
248.0214760736221
 31
0.0
 11
173.3271149209543
 21
248.1131194536902
 31
0.0
 11
173.6011663253333
 21
248.1793790364141
 31
0.0
 11
173.8787241337119
 21
248.2191991155733
 31
0.0
 11
174.1588041325815
 21
248.2325519008714
 31
0.0
  0
SPLINE
  5
10F
330
42
100
AcDbEntity
  8
1
  6
Continuous
 62
     7
100
AcDbSpline
210
0.0
220
0.0
230
1.0
 70
    11
 71
     3
 72
    79
 73
    75
 74
    73
 42
0.0000000001
 43
0.0000000001
 44
0.00000001
 40
0.0
 40
0.0
 40
0.0
 40
0.0
 40
0.3142773867009421
 40
0.6283112411575017
 40
0.9612293766542863
 40
1.29380503803968
 40
1.653399990663198
 40
2.012687710360575
 40
2.402596358667029
 40
2.792277135713487
 40
3.212125602383282
 40
3.631818889113213
 40
4.078023830870243
 40
4.524128916246213
 40
4.990742665932618
 40
5.457297388873154
 40
5.936768753151341
 40
6.416212753073416
 40
6.900062536488069
 40
7.383912319902724
 40
7.863356319824796
 40
8.342827684102991
 40
8.809382407043517
 40
9.275996156729928
 40
9.722101242105845
 40
10.16830618386297
 40
10.58799947059275
 40
11.00784793726265
 40
11.39752871430905
 40
11.78743736261547
 40
12.14672508231289
 40
12.5063200349365
 40
12.83889569632187
 40
13.1718138318186
 40
13.4858476862751
 40
13.80012507297608
 40
14.10756996787587
 40
14.41501486277569
 40
14.72929224947665
 40
15.04332610393314
 40
15.37624423942985
 40
15.70881990081531
 40
16.06841485343889
 40
16.42770257313632
 40
16.81761122144272
 40
17.20729199848915
 40
17.62714046515913
 40
18.04683375188887
 40
18.49303869364602
 40
18.93914377902193
 40
19.40575752870833
 40
19.8723122516488
 40
20.35178361592699
 40
20.83122761584912
 40
21.31507739926377
 40
21.79892718267843
 40
22.27837118260044
 40
22.75784254687863
 40
23.22439726981911
 40
23.69101101950556
 40
24.13711610488148
 40
24.58332104663856
 40
25.00301433336832
 40
25.42286280003821
 40
25.81254357708457
 40
26.2024522253911
 40
26.5617399450885
 40
26.92133489771214
 40
27.25391055909749
 40
27.58682869459433
 40
27.90086254905087
 40
28.21513993575179
 40
28.52258483065159
 40
28.83002972555132
 40
28.83002972555132
 40
28.83002972555132
 40
28.83002972555132
 10
329.9843020546417
 20
245.0392306608716
 30
0.0
 10
330.0028945272404
 20
245.1425022155719
 30
0.0
 10
330.0400650652078
 20
245.3489653002727
 30
0.0
 10
330.1510113284206
 20
245.6510501327641
 30
0.0
 10
330.2980761712037
 20
245.94324502581
 30
0.0
 10
330.4882307234539
 20
246.2280993918078
 30
0.0
 10
330.713365451978
 20
246.4975403145631
 30
0.0
 10
330.9780015220886
 20
246.7563376713206
 30
0.0
 10
331.2730617477689
 20
246.9960153356464
 30
0.0
 10
331.6038277953302
 20
247.2213535773296
 30
0.0
 10
331.9598951172949
 20
247.4249170982604
 30
0.0
 10
332.3466281894779
 20
247.6104093659742
 30
0.0
 10
332.753301647148
 20
247.772179478694
 30
0.0
 10
333.1842778429066
 20
247.9125470393611
 30
0.0
 10
333.6296515272564
 20
248.0277900977465
 30
0.0
 10
334.0918644771459
 20
248.1190434359645
 30
0.0
 10
334.5627830698447
 20
248.184250977696
 30
0.0
 10
335.0423146341283
 20
248.2238414451274
 30
0.0
 10
335.5247598719295
 20
248.2369270480984
 30
0.0
 10
336.0072051097459
 20
248.2238414451286
 30
0.0
 10
336.4867366739845
 20
248.1842509776911
 30
0.0
 10
336.9576552668466
 20
248.1190434359828
 30
0.0
 10
337.4198682161424
 20
248.0277900976806
 30
0.0
 10
337.8652419026629
 20
247.9125470396029
 30
0.0
 10
338.2962180906606
 20
247.7721794778356
 30
0.0
 10
338.7028915764569
 20
247.6104093691025
 30
0.0
 10
339.0896245496091
 20
247.4249170873521
 30
0.0
 10
339.4456922277203
 20
247.2213536169018
 30
0.0
 10
339.7764570367813
 20
246.9960151996725
 30
0.0
 10
340.0715216941189
 20
246.7563381634927
 30
0.0
 10
340.3361424544655
 20
246.4975386367198
 30
0.0
 10
340.5613319542489
 20
246.2281054772772
 30
0.0
 10
340.7512965964698
 20
245.9432241933125
 30
0.0
 10
340.8990458131707
 20
245.6511263038552
 30
0.0
 10
341.0075744098445
 20
245.348698789792
 30
0.0
 10
341.0717859372185
 20
245.0424640978484
 30
0.0
 10
341.0943870403562
 20
244.7325519008714
 30
0.0
 10
341.0717859372184
 20
244.4226397038945
 30
0.0
 10
341.0075744098446
 20
244.1164050119509
 30
0.0
 10
340.8990458131706
 20
243.8139774978877
 30
0.0
 10
340.7512965964698
 20
243.5218796084304
 30
0.0
 10
340.5613319542488
 20
243.2369983244657
 30
0.0
 10
340.3361424544655
 20
242.967565165023
 30
0.0
 10
340.0715216941191
 20
242.7087656382501
 30
0.0
 10
339.7764570367813
 20
242.4690886020702
 30
0.0
 10
339.4456922277204
 20
242.243750184841
 30
0.0
 10
339.0896245496088
 20
242.0401867143908
 30
0.0
 10
338.702891576457
 20
241.8546944326402
 30
0.0
 10
338.2962180906603
 20
241.6929243239071
 30
0.0
 10
337.8652419026629
 20
241.5525567621399
 30
0.0
 10
337.4198682161423
 20
241.4373137040623
 30
0.0
 10
336.9576552668465
 20
241.34606036576
 30
0.0
 10
336.4867366739846
 20
241.2808528240519
 30
0.0
 10
336.0072051097452
 20
241.2412623566141
 30
0.0
 10
335.5247598719317
 20
241.2281767536449
 30
0.0
 10
335.0423146341195
 20
241.2412623566141
 30
0.0
 10
334.5627830698768
 20
241.2808528240522
 30
0.0
 10
334.0918644770268
 20
241.3460603657588
 30
0.0
 10
333.6296515276886
 20
241.437313704067
 30
0.0
 10
333.1842778413222
 20
241.5525567621227
 30
0.0
 10
332.7533016527735
 20
241.692924323968
 30
0.0
 10
332.3466281689742
 20
241.8546944324182
 30
0.0
 10
331.9598951887908
 20
242.0401867151653
 30
0.0
 10
331.6038275359668
 20
242.2437501820313
 30
0.0
 10
331.2730626389687
 20
242.4690886117249
 30
0.0
 10
330.9779982962917
 20
242.7087656033043
 30
0.0
 10
330.7133764489066
 20
242.9675652841549
 30
0.0
 10
330.4881908380447
 20
243.2369978923794
 30
0.0
 10
330.2982127116505
 20
243.5218810875992
 30
0.0
 10
330.1505120875189
 20
243.8139720895152
 30
0.0
 10
330.0418118293815
 20
244.116423934982
 30
0.0
 10
329.9782288714936
 20
244.4225695330926
 30
0.0
 10
329.9533295517373
 20
244.7328074807343
 30
0.0
 10
329.9739778870069
 20
244.9370896008259
 30
0.0
 10
329.9843020546417
 20
245.0392306608716
 30
0.0
 11
329.9843020546417
 21
245.0392306608716
 31
0.0
 11
330.0489238018744
 21
245.3467925336324
 31
0.0
 11
330.1541237693157
 21
245.6426814124285
 31
0.0
 11
330.3040169517885
 21
245.9399464772962
 31
0.0
 11
330.4877913822538
 21
246.2171350940414
 31
0.0
 11
330.7178478911954
 21
246.4935089941223
 31
0.0
 11
330.9742097342763
 21
246.7452355738423
 31
0.0
 11
331.2763750565341
 21
246.991659744834
 31
0.0
 11
331.5981161012826
 21
247.2115092572822
 31
0.0
 11
331.9622740346924
 21
247.4204631624854
 31
0.0
 11
332.3405210806717
 21
247.6023192240673
 31
0.0
 11
332.7549349861837
 21
247.767727703193
 31
0.0
 11
333.1790293793156
 21
247.9061245706157
 31
0.0
 11
333.6306723493433
 21
248.0233722529848
 31
0.0
 11
334.0883657737953
 21
248.1138710856377
 31
0.0
 11
334.5632738950169
 21
248.1798640061715
 31
0.0
 11
335.0410907696299
 21
248.2193302372604
 31
0.0
 11
335.524759871932
 21
248.2325519008714
 31
0.0
 11
336.0084289742342
 21
248.2193302372603
 31
0.0
 11
336.4862458488472
 21
248.1798640061715
 31
0.0
 11
336.9611539700687
 21
248.1138710856376
 31
0.0
 11
337.4188473945207
 21
248.0233722529848
 31
0.0
 11
337.8704903645485
 21
247.9061245706157
 31
0.0
 11
338.2945847576802
 21
247.7677277031929
 31
0.0
 11
338.7089986631924
 21
247.6023192240673
 31
0.0
 11
339.0872457091716
 21
247.4204631624855
 31
0.0
 11
339.4514036425815
 21
247.2115092572822
 31
0.0
 11
339.7731446873298
 21
246.991659744834
 31
0.0
 11
340.0753100095877
 21
246.7452355738423
 31
0.0
 11
340.3316718526687
 21
246.4935089941223
 31
0.0
 11
340.5617283616103
 21
246.2171350940414
 31
0.0
 11
340.7455027920756
 21
245.9399464772963
 31
0.0
 11
340.8953959745484
 21
245.6426814124285
 31
0.0
 11
341.0005959419896
 21
245.3467925336325
 31
0.0
 11
341.0652176892223
 21
245.0392306608716
 31
0.0
 11
341.0869087372536
 21
244.7325519008714
 31
0.0
 11
341.0652176892223
 21
244.4258731408712
 31
0.0
 11
341.0005959419896
 21
244.1183112681104
 31
0.0
 11
340.8953959745484
 21
243.8224223893143
 31
0.0
 11
340.7455027920755
 21
243.5251573244467
 31
0.0
 11
340.5617283616103
 21
243.2479687077014
 31
0.0
 11
340.3316718526687
 21
242.9715948076205
 31
0.0
 11
340.0753100095877
 21
242.7198682279005
 31
0.0
 11
339.7731446873299
 21
242.4734440569088
 31
0.0
 11
339.4514036425815
 21
242.2535945444606
 31
0.0
 11
339.0872457091715
 21
242.0446406392573
 31
0.0
 11
338.7089986631924
 21
241.8627845776755
 31
0.0
 11
338.2945847576802
 21
241.6973760985498
 31
0.0
 11
337.8704903645484
 21
241.5589792311271
 31
0.0
 11
337.4188473945206
 21
241.4417315487581
 31
0.0
 11
336.9611539700687
 21
241.3512327161051
 31
0.0
 11
336.4862458488472
 21
241.2852397955713
 31
0.0
 11
336.0084289742341
 21
241.2457735644825
 31
0.0
 11
335.524759871932
 21
241.2325519008714
 31
0.0
 11
335.0410907696298
 21
241.2457735644825
 31
0.0
 11
334.5632738950169
 21
241.2852397955713
 31
0.0
 11
334.0883657737953
 21
241.3512327161052
 31
0.0
 11
333.6306723493434
 21
241.4417315487581
 31
0.0
 11
333.1790293793156
 21
241.5589792311271
 31
0.0
 11
332.7549349861838
 21
241.6973760985499
 31
0.0
 11
332.3405210806717
 21
241.8627845776755
 31
0.0
 11
331.9622740346925
 21
242.0446406392574
 31
0.0
 11
331.5981161012827
 21
242.2535945444607
 31
0.0
 11
331.2763750565343
 21
242.4734440569089
 31
0.0
 11
330.9742097342763
 21
242.7198682279005
 31
0.0
 11
330.7178478911954
 21
242.9715948076205
 31
0.0
 11
330.4877913822537
 21
243.2479687077014
 31
0.0
 11
330.3040169517885
 21
243.5251573244466
 31
0.0
 11
330.1541237693156
 21
243.8224223893143
 31
0.0
 11
330.0489238018744
 21
244.1183112681104
 31
0.0
 11
329.9843020546417
 21
244.4258731408713
 31
0.0
 11
329.9626110066104
 21
244.7325519008714
 31
0.0
 11
329.9843020546417
 21
245.0392306608716
 31
0.0
  0
SPLINE
  5
110
330
42
100
AcDbEntity
  8
1
  6
Continuous
 62
     7
100
AcDbSpline
210
0.0
220
0.0
230
1.0
 70
    11
 71
     3
 72
    79
 73
    75
 74
    73
 42
0.0000000001
 43
0.0000000001
 44
0.00000001
 40
0.0
 40
0.0
 40
0.0
 40
0.0
 40
0.3142773867009538
 40
0.6283112411574754
 40
0.9612293766542855
 40
1.293805038039648
 40
1.653399990663129
 40
2.012687710360588
 40
2.402596358667041
 40
2.792277135713452
 40
3.212125602383297
 40
3.631818889113074
 40
4.078023830870157
 40
4.524128916246127
 40
4.990742665932586
 40
5.457297388873123
 40
5.936768753151423
 40
6.416212753073384
 40
6.90006253648798
 40
7.383912319902692
 40
7.863356319824764
 40
8.342827684102959
 40
8.809382407043485
 40
9.275996156729841
 40
9.722101242105811
 40
10.16830618386288
 40
10.58799947059271
 40
11.00784793726261
 40
11.39752871430901
 40
11.78743736261544
 40
12.14672508231285
 40
12.50632003493639
 40
12.83889569632176
 40
13.17181383181857
 40
13.4858476862751
 40
13.80012507297607
 40
14.10756996787586
 40
14.41501486277568
 40
14.72929224947661
 40
15.04332610393316
 40
15.3762442394299
 40
15.70881990081535
 40
16.06841485343886
 40
16.42770257313629
 40
16.81761122144274
 40
17.20729199848917
 40
17.62714046515905
 40
18.04683375188889
 40
18.49303869364599
 40
18.93914377902189
 40
19.4057575287084
 40
19.87231225164888
 40
20.35178361592707
 40
20.83122761584903
 40
21.31507739926379
 40
21.79892718267845
 40
22.27837118260046
 40
22.75784254687871
 40
23.22439726981919
 40
23.69101101950558
 40
24.13711610488145
 40
24.58332104663858
 40
25.0030143333684
 40
25.42286280003824
 40
25.81254357708465
 40
26.20245222539113
 40
26.56173994508857
 40
26.92133489771217
 40
27.25391055909753
 40
27.58682869459431
 40
27.90086254905086
 40
28.21513993575178
 40
28.52258483065158
 40
28.83002972555132
 40
28.83002972555132
 40
28.83002972555132
 40
28.83002972555132
 10
328.0652176892223
 20
245.0392306608716
 30
0.0
 10
328.0466252166235
 20
245.1425022155718
 30
0.0
 10
328.009454678656
 20
245.3489653002726
 30
0.0
 10
327.8985084154436
 20
245.6510501327643
 30
0.0
 10
327.7514435726603
 20
245.9432450258099
 30
0.0
 10
327.5612890204102
 20
246.2280993918078
 30
0.0
 10
327.336154291886
 20
246.4975403145632
 30
0.0
 10
327.0715182217756
 20
246.7563376713206
 30
0.0
 10
326.776457996095
 20
246.9960153356464
 30
0.0
 10
326.4456919485338
 20
247.2213535773297
 30
0.0
 10
326.0896246265692
 20
247.4249170982604
 30
0.0
 10
325.7028915543862
 20
247.6104093659743
 30
0.0
 10
325.2962180967161
 20
247.7721794786939
 30
0.0
 10
324.8652419009575
 20
247.9125470393611
 30
0.0
 10
324.4198682166075
 20
248.0277900977464
 30
0.0
 10
323.9576552667181
 20
248.1190434359647
 30
0.0
 10
323.4867366740193
 20
248.1842509776958
 30
0.0
 10
323.0072051097358
 20
248.2238414451275
 30
0.0
 10
322.5247598719346
 20
248.2369270480984
 30
0.0
 10
322.0423146341182
 20
248.2238414451286
 30
0.0
 10
321.5627830698795
 20
248.184250977691
 30
0.0
 10
321.0918644770176
 20
248.1190434359828
 30
0.0
 10
320.6296515277217
 20
248.0277900976806
 30
0.0
 10
320.1842778412013
 20
247.9125470396029
 30
0.0
 10
319.7533016532035
 20
247.7721794778357
 30
0.0
 10
319.3466281674071
 20
247.6104093691026
 30
0.0
 10
318.959895194255
 20
247.4249170873521
 30
0.0
 10
318.6038275161437
 20
247.2213536169018
 30
0.0
 10
318.2730627070827
 20
246.9960151996726
 30
0.0
 10
317.977998049745
 20
246.7563381634927
 30
0.0
 10
317.7133772893985
 20
246.4975386367198
 30
0.0
 10
317.4881877896154
 20
246.2281054772771
 30
0.0
 10
317.2982231473943
 20
245.9432241933126
 30
0.0
 10
317.1504739306934
 20
245.6511263038552
 30
0.0
 10
317.0419453340193
 20
245.3486987897921
 30
0.0
 10
316.9777338066455
 20
245.0424640978482
 30
0.0
 10
316.9551327035078
 20
244.7325519008714
 30
0.0
 10
316.9777338066456
 20
244.4226397038946
 30
0.0
 10
317.0419453340193
 20
244.1164050119508
 30
0.0
 10
317.1504739306935
 20
243.8139774978878
 30
0.0
 10
317.2982231473943
 20
243.5218796084303
 30
0.0
 10
317.4881877896153
 20
243.2369983244658
 30
0.0
 10
317.7133772893985
 20
242.9675651650231
 30
0.0
 10
317.977998049745
 20
242.70876563825
 30
0.0
 10
318.2730627070826
 20
242.4690886020703
 30
0.0
 10
318.6038275161437
 20
242.243750184841
 30
0.0
 10
318.9598951942551
 20
242.0401867143907
 30
0.0
 10
319.346628167407
 20
241.8546944326403
 30
0.0
 10
319.7533016532036
 20
241.6929243239071
 30
0.0
 10
320.1842778412012
 20
241.5525567621399
 30
0.0
 10
320.6296515277217
 20
241.4373137040623
 30
0.0
 10
321.0918644770177
 20
241.3460603657601
 30
0.0
 10
321.5627830698794
 20
241.2808528240519
 30
0.0
 10
322.042314634119
 20
241.2412623566141
 30
0.0
 10
322.5247598719321
 20
241.2281767536449
 30
0.0
 10
323.0072051097446
 20
241.2412623566141
 30
0.0
 10
323.4867366739872
 20
241.2808528240522
 30
0.0
 10
323.9576552668374
 20
241.3460603657588
 30
0.0
 10
324.4198682161755
 20
241.437313704067
 30
0.0
 10
324.8652419025419
 20
241.5525567621227
 30
0.0
 10
325.2962180910905
 20
241.6929243239682
 30
0.0
 10
325.7028915748898
 20
241.854694432418
 30
0.0
 10
326.0896245550734
 20
242.0401867151654
 30
0.0
 10
326.4456922078972
 20
242.2437501820313
 30
0.0
 10
326.7764571048954
 20
242.4690886117248
 30
0.0
 10
327.0715214475724
 20
242.7087656033044
 30
0.0
 10
327.3361432949575
 20
242.9675652841549
 30
0.0
 10
327.5613289058194
 20
243.2369978923794
 30
0.0
 10
327.7513070322134
 20
243.5218810875991
 30
0.0
 10
327.8990076563451
 20
243.8139720895154
 30
0.0
 10
328.0077079144825
 20
244.116423934982
 30
0.0
 10
328.0712908723703
 20
244.4225695330925
 30
0.0
 10
328.0961901921268
 20
244.7328074807344
 30
0.0
 10
328.0755418568572
 20
244.9370896008259
 30
0.0
 10
328.0652176892223
 20
245.0392306608716
 30
0.0
 11
328.0652176892223
 21
245.0392306608716
 31
0.0
 11
328.0005959419896
 21
245.3467925336324
 31
0.0
 11
327.8953959745484
 21
245.6426814124285
 31
0.0
 11
327.7455027920755
 21
245.9399464772962
 31
0.0
 11
327.5617283616102
 21
246.2171350940414
 31
0.0
 11
327.3316718526687
 21
246.4935089941223
 31
0.0
 11
327.0753100095877
 21
246.7452355738423
 31
0.0
 11
326.7731446873299
 21
246.991659744834
 31
0.0
 11
326.4514036425815
 21
247.2115092572822
 31
0.0
 11
326.0872457091716
 21
247.4204631624854
 31
0.0
 11
325.7089986631925
 21
247.6023192240673
 31
0.0
 11
325.2945847576804
 21
247.767727703193
 31
0.0
 11
324.8704903645485
 21
247.9061245706157
 31
0.0
 11
324.4188473945207
 21
248.0233722529848
 31
0.0
 11
323.9611539700687
 21
248.1138710856377
 31
0.0
 11
323.486245848847
 21
248.1798640061715
 31
0.0
 11
323.0084289742342
 21
248.2193302372604
 31
0.0
 11
322.5247598719321
 21
248.2325519008714
 31
0.0
 11
322.0410907696299
 21
248.2193302372603
 31
0.0
 11
321.5632738950169
 21
248.1798640061715
 31
0.0
 11
321.0883657737953
 21
248.1138710856376
 31
0.0
 11
320.6306723493433
 21
248.0233722529848
 31
0.0
 11
320.1790293793156
 21
247.9061245706157
 31
0.0
 11
319.7549349861838
 21
247.7677277031929
 31
0.0
 11
319.3405210806717
 21
247.6023192240673
 31
0.0
 11
318.9622740346924
 21
247.4204631624855
 31
0.0
 11
318.5981161012826
 21
247.2115092572822
 31
0.0
 11
318.2763750565342
 21
246.991659744834
 31
0.0
 11
317.9742097342763
 21
246.7452355738423
 31
0.0
 11
317.7178478911954
 21
246.4935089941223
 31
0.0
 11
317.4877913822538
 21
246.2171350940414
 31
0.0
 11
317.3040169517886
 21
245.9399464772963
 31
0.0
 11
317.1541237693156
 21
245.6426814124285
 31
0.0
 11
317.0489238018743
 21
245.3467925336325
 31
0.0
 11
316.9843020546416
 21
245.0392306608716
 31
0.0
 11
316.9626110066104
 21
244.7325519008714
 31
0.0
 11
316.9843020546417
 21
244.4258731408712
 31
0.0
 11
317.0489238018743
 21
244.1183112681104
 31
0.0
 11
317.1541237693157
 21
243.8224223893143
 31
0.0
 11
317.3040169517886
 21
243.5251573244467
 31
0.0
 11
317.4877913822538
 21
243.2479687077014
 31
0.0
 11
317.7178478911953
 21
242.9715948076205
 31
0.0
 11
317.9742097342763
 21
242.7198682279005
 31
0.0
 11
318.2763750565342
 21
242.4734440569088
 31
0.0
 11
318.5981161012826
 21
242.2535945444606
 31
0.0
 11
318.9622740346924
 21
242.0446406392573
 31
0.0
 11
319.3405210806717
 21
241.8627845776755
 31
0.0
 11
319.7549349861838
 21
241.6973760985498
 31
0.0
 11
320.1790293793156
 21
241.5589792311271
 31
0.0
 11
320.6306723493435
 21
241.4417315487581
 31
0.0
 11
321.0883657737954
 21
241.3512327161051
 31
0.0
 11
321.563273895017
 21
241.2852397955713
 31
0.0
 11
322.0410907696298
 21
241.2457735644825
 31
0.0
 11
322.5247598719321
 21
241.2325519008714
 31
0.0
 11
323.0084289742342
 21
241.2457735644825
 31
0.0
 11
323.4862458488472
 21
241.2852397955713
 31
0.0
 11
323.9611539700688
 21
241.3512327161052
 31
0.0
 11
324.4188473945207
 21
241.4417315487581
 31
0.0
 11
324.8704903645485
 21
241.5589792311271
 31
0.0
 11
325.2945847576802
 21
241.6973760985499
 31
0.0
 11
325.7089986631924
 21
241.8627845776755
 31
0.0
 11
326.0872457091716
 21
242.0446406392574
 31
0.0
 11
326.4514036425813
 21
242.2535945444607
 31
0.0
 11
326.7731446873298
 21
242.4734440569089
 31
0.0
 11
327.0753100095877
 21
242.7198682279005
 31
0.0
 11
327.3316718526687
 21
242.9715948076205
 31
0.0
 11
327.5617283616103
 21
243.2479687077014
 31
0.0
 11
327.7455027920755
 21
243.5251573244466
 31
0.0
 11
327.8953959745484
 21
243.8224223893143
 31
0.0
 11
328.0005959419896
 21
244.1183112681104
 31
0.0
 11
328.0652176892223
 21
244.4258731408713
 31
0.0
 11
328.0869087372537
 21
244.7325519008714
 31
0.0
 11
328.0652176892223
 21
245.0392306608716
 31
0.0
  0
ENDBLK
  5
44
330
42
100
AcDbEntity
  8
0
100
AcDbBlockEnd
  0
BLOCK
  5
4A
330
45
100
AcDbEntity
  8
0
100
AcDbBlockBegin
  2
R10A-13-C
 70
     0
 71
     0
 10
207.9004738833838
 20
221.7325519008714
 30
0.0
  3
R10A-13-C
  1

  0
INSERT
  5
46
330
45
100
AcDbEntity
  8
0
100
AcDbBlockReference
  2
21-1C-M1K
 10
207.9004738833838
 20
222.0325519008714
 30
0.0
  0
INSERT
  5
47
330
45
100
AcDbEntity
  8
0
100
AcDbBlockReference
  2
42-15-M1K
 10
74.79621379678031
 20
68.44290289128662
 30
0.0
  0
INSERT
  5
48
330
45
100
AcDbEntity
  8
0
100
AcDbBlockReference
  2
36-1A-13-M11K
 10
-53.20741606893199
 20
123.4634258914352
 30
0.0
  0
INSERT
  5
49
330
45
100
AcDbEntity
  8
0
100
AcDbBlockReference
  2
37-1-13-M1K
 10
71.09924366661278
 20
104.2368460107269
 30
0.0
  0
LINE
  5
111
330
45
100
AcDbEntity
  8
1
  6
PHANTOM
 62
     4
100
AcDbLine
 10
162.9004738833838
 20
238.7325519008714
 30
0.0
 11
162.9004738833838
 21
276.5325519008714
 31
0.0
  0
ENDBLK
  5
4B
330
45
100
AcDbEntity
  8
0
100
AcDbBlockEnd
  0
BLOCK
  5
4D
330
4C
100
AcDbEntity
  8
0
100
AcDbBlockBegin
  2
B41J-0-M11
 70
     0
 71
     0
 10
38.02475987193202
 20
102.870330843116
 30
0.0
  3
B41J-0-M11
  1

  0
LINE
  5
112
330
4C
100
AcDbEntity
  8
1
  6
Continuous
 62
     7
100
AcDbLine
 10
302.1867598719323
 20
231.7100519008716
 30
0.0
 11
302.1867598719323
 21
210.7550519008715
 31
0.0
  0
LINE
  5
113
330
4C
100
AcDbEntity
  8
1
  6
Continuous
 62
     7
100
AcDbLine
 10
118.9004738833838
 20
225.7319782780145
 30
0.0
 11
118.9004738833838
 21
204.7319782780144
 31
0.0
  0
LINE
  5
114
330
4C
100
AcDbEntity
  8
1
  6
Continuous
 62
     7
100
AcDbLine
 10
171.7673830587555
 20
202.8859487891648
 30
0.0
 11
171.7673830587555
 21
215.2325519008714
 31
0.0
  0
LINE
  5
115
330
4C
100
AcDbEntity
  8
1
  6
Continuous
 62
     7
100
AcDbLine
 10
173.2465033722335
 20
202.0319782780145
 30
0.0
 11
173.2465033722335
 21
219.5779582752774
 31
0.0
  0
LINE
  5
116
330
4C
100
AcDbEntity
  8
1
  6
Continuous
 62
     7
100
AcDbLine
 10
319.6439283522853
 20
213.7325519008714
 30
0.0
 11
338.4055913915789
 21
213.7325519008714
 31
0.0
  0
LINE
  5
117
330
4C
100
AcDbEntity
  8
1
  6
Continuous
 62
     2
100
AcDbLine
 10
349.0247598719321
 20
211.9170519008714
 30
0.0
 11
345.0247598719321
 21
211.9170519008714
 31
0.0
  0
LINE
  5
118
330
4C
100
AcDbEntity
  8
1
  6
Continuous
 62
     7
100
AcDbLine
 10
349.0247598719321
 20
231.7100519008716
 30
0.0
 11
343.0121168335371
 21
231.7100519008716
 31
0.0
  0
LINE
  5
119
330
4C
100
AcDbEntity
  8
1
  6
Continuous
 62
     7
100
AcDbLine
 10
317.0247598719321
 20
241.2325519008714
 30
0.0
 11
317.0247598719321
 21
239.7325519008714
 31
0.0
  0
LINE
  5
11A
330
4C
100
AcDbEntity
  8
1
  6
Continuous
 62
     2
100
AcDbLine
 10
340.2117598719321
 20
241.2325519008714
 30
0.0
 11
340.2117598719321
 21
239.7325519008714
 31
0.0
  0
LINE
  5
11B
330
4C
100
AcDbEntity
  8
1
  6
Continuous
 62
     7
100
AcDbLine
 10
140.5044443945342
 20
227.1819782780145
 30
0.0
 11
140.5044443945342
 21
203.2819782780145
 31
0.0
  0
LINE
  5
11C
330
4C
100
AcDbEntity
  8
1
  6
Continuous
 62
     7
100
AcDbLine
 10
132.9004738833838
 20
225.7319782780145
 30
0.0
 11
118.9004738833838
 21
225.7319782780145
 31
0.0
  0
LINE
  5
11D
330
4C
100
AcDbEntity
  8
1
  6
Continuous
 62
     2
100
AcDbLine
 10
132.9004738833838
 20
224.7319782780145
 30
0.0
 11
117.9004738833838
 21
224.7319782780145
 31
0.0
  0
LINE
  5
11E
330
4C
100
AcDbEntity
  8
1
  6
Continuous
 62
     7
100
AcDbLine
 10
132.9004738833838
 20
204.7319782780144
 30
0.0
 11
118.9004738833838
 21
204.7319782780144
 31
0.0
  0
LINE
  5
11F
330
4C
100
AcDbEntity
  8
1
  6
Continuous
 62
     2
100
AcDbLine
 10
132.9004738833838
 20
205.7319782780145
 30
0.0
 11
117.9004738833838
 21
205.7319782780144
 31
0.0
  0
LINE
  5
120
330
4C
100
AcDbEntity
  8
1
  6
Continuous
 62
     2
100
AcDbLine
 10
174.0874738833838
 20
241.2325519008714
 30
0.0
 11
174.0874738833838
 21
239.7319782780145
 31
0.0
  0
LINE
  5
121
330
4C
100
AcDbEntity
  8
1
  6
Continuous
 62
     7
100
AcDbLine
 10
150.9004738833838
 20
241.2325519008714
 30
0.0
 11
150.9004738833838
 21
239.7319782780145
 31
0.0
  0
LINE
  5
122
330
4C
100
AcDbEntity
  8
1
  6
Continuous
 62
     7
100
AcDbLine
 10
147.9004738833838
 20
202.8859487891648
 30
0.0
 11
171.7673830587555
 21
202.8859487891648
 31
0.0
  0
LINE
  5
123
330
4C
100
AcDbEntity
  8
1
  6
Continuous
 62
     7
100
AcDbLine
 10
147.9004738833838
 20
203.2819782780145
 30
0.0
 11
147.9004738833838
 21
202.8859487891648
 31
0.0
  0
LINE
  5
124
330
4C
100
AcDbEntity
  8
1
  6
Continuous
 62
     7
100
AcDbLine
 10
147.9004738833838
 20
203.2819782780145
 30
0.0
 11
147.9004738833838
 21
228.1625637758879
 31
0.0
  0
LINE
  5
125
330
4C
100
AcDbEntity
  8
1
  6
Continuous
 62
     7
100
AcDbLine
 10
140.5044443945342
 20
203.2819782780145
 30
0.0
 11
147.9004738833838
 21
203.2819782780145
 31
0.0
  0
LINE
  5
126
330
4C
100
AcDbEntity
  8
1
  6
Continuous
 62
     7
100
AcDbLine
 10
140.5044443945342
 20
227.1819782780145
 30
0.0
 11
147.9004738833838
 21
227.1819782780145
 31
0.0
  0
LINE
  5
127
330
4C
100
AcDbEntity
  8
1
  6
Continuous
 62
     7
100
AcDbLine
 10
147.9004738833838
 20
349.0310941834671
 30
0.0
 11
147.9004738833838
 21
333.4340096182758
 31
0.0
  0
LINE
  5
128
330
4C
100
AcDbEntity
  8
1
  6
Continuous
 62
     7
100
AcDbLine
 10
140.5044443945342
 20
329.2825519008714
 30
0.0
 11
146.7880941405933
 21
329.2825519008714
 31
0.0
  0
LINE
  5
129
330
4C
100
AcDbEntity
  8
1
  6
Continuous
 62
     7
100
AcDbLine
 10
140.5044443945342
 20
353.1825519008714
 30
0.0
 11
139.9004738833838
 21
352.5785813897211
 31
0.0
  0
LINE
  5
12A
330
4C
100
AcDbEntity
  8
1
  6
Continuous
 62
     7
100
AcDbLine
 10
140.5044443945342
 20
353.1825519008714
 30
0.0
 11
146.7880941405933
 21
353.1825519008714
 31
0.0
  0
LINE
  5
12B
330
4C
100
AcDbEntity
  8
1
  6
Continuous
 62
     7
100
AcDbLine
 10
191.4004738833838
 20
199.2319782780145
 30
0.0
 11
191.4004738833838
 21
231.2319782780145
 31
0.0
  0
LINE
  5
12C
330
4C
100
AcDbEntity
  8
1
  6
Continuous
 62
     7
100
AcDbLine
 10
345.0247598719321
 20
210.7550519008715
 30
0.0
 11
349.0247598719321
 21
210.7550519008715
 31
0.0
  0
LINE
  5
12D
330
4C
100
AcDbEntity
  8
1
  6
Continuous
 62
     7
100
AcDbLine
 10
313.0247598719321
 20
210.7550519008715
 30
0.0
 11
313.6646284223766
 21
210.7550519008715
 31
0.0
  0
LINE
  5
12E
330
4C
100
AcDbEntity
  8
1
  6
Continuous
 62
     2
100
AcDbLine
 10
345.0247598719321
 20
230.5480519008715
 30
0.0
 11
349.0247598719321
 21
230.5480519008715
 31
0.0
  0
LINE
  5
12F
330
4C
100
AcDbEntity
  8
1
  6
Continuous
 62
     7
100
AcDbLine
 10
343.0121168335371
 20
231.7100519008716
 30
0.0
 11
343.0121168335371
 21
223.0001441678652
 31
0.0
  0
LINE
  5
130
330
4C
100
AcDbEntity
  8
1
  6
Continuous
 62
     7
100
AcDbLine
 10
345.0247598719321
 20
231.7100519008716
 30
0.0
 11
345.0247598719321
 21
210.7550519008715
 31
0.0
  0
LINE
  5
131
330
4C
100
AcDbEntity
  8
1
  6
Continuous
 62
     7
100
AcDbLine
 10
345.0247598719321
 20
211.9170519008714
 30
0.0
 11
345.0247598719321
 21
210.7550519008715
 31
0.0
  0
LINE
  5
132
330
4C
100
AcDbEntity
  8
1
  6
Continuous
 62
     7
100
AcDbLine
 10
344.3848913214875
 20
210.7550519008715
 30
0.0
 11
345.0247598719321
 21
210.7550519008715
 31
0.0
  0
LINE
  5
133
330
4C
100
AcDbEntity
  8
1
  6
Continuous
 62
     2
100
AcDbLine
 10
345.0247598719321
 20
211.9170519008714
 30
0.0
 11
344.6263980754741
 21
211.6870576104516
 31
0.0
  0
LINE
  5
134
330
4C
100
AcDbEntity
  8
1
  6
Continuous
 62
     2
100
AcDbLine
 10
343.0121168335371
 20
231.7100519008716
 30
0.0
 11
345.0247598719321
 21
230.5480519008715
 31
0.0
  0
LINE
  5
135
330
4C
100
AcDbEntity
  8
1
  6
Continuous
 62
     7
100
AcDbLine
 10
343.0121168335371
 20
233.1055617157244
 30
0.0
 11
343.0121168335371
 21
231.7100519008716
 31
0.0
  0
LINE
  5
136
330
4C
100
AcDbEntity
  8
1
  6
Continuous
 62
     7
100
AcDbLine
 10
301.0247598719321
 20
230.5480519008715
 30
0.0
 11
301.0247598719321
 21
211.9170519008714
 31
0.0
  0
LINE
  5
137
330
4C
100
AcDbEntity
  8
1
  6
Continuous
 62
     7
100
AcDbLine
 10
315.0374029103273
 20
231.7100519008716
 30
0.0
 11
302.1867598719323
 21
231.7100519008716
 31
0.0
  0
LINE
  5
138
330
4C
100
AcDbEntity
  8
1
  6
Continuous
 62
     7
100
AcDbLine
 10
301.0247598719321
 20
230.5480519008715
 30
0.0
 11
302.1867598719323
 21
231.7100519008716
 31
0.0
  0
LINE
  5
139
330
4C
100
AcDbEntity
  8
1
  6
Continuous
 62
     7
100
AcDbLine
 10
313.0247598719321
 20
230.5480519008715
 30
0.0
 11
313.0247598719321
 21
231.7100519008716
 31
0.0
  0
LINE
  5
13A
330
4C
100
AcDbEntity
  8
1
  6
Continuous
 62
     7
100
AcDbLine
 10
313.0247598719321
 20
210.7550519008715
 30
0.0
 11
313.0247598719321
 21
230.5480519008715
 31
0.0
  0
LINE
  5
13B
330
4C
100
AcDbEntity
  8
1
  6
Continuous
 62
     7
100
AcDbLine
 10
302.1867598719323
 20
210.7550519008715
 30
0.0
 11
301.0247598719321
 21
211.9170519008714
 31
0.0
  0
LINE
  5
13C
330
4C
100
AcDbEntity
  8
1
  6
Continuous
 62
     7
100
AcDbLine
 10
302.1867598719323
 20
210.7550519008715
 30
0.0
 11
313.0247598719321
 21
210.7550519008715
 31
0.0
  0
LINE
  5
13D
330
4C
100
AcDbEntity
  8
1
  6
Continuous
 62
     2
100
AcDbLine
 10
301.0247598719321
 20
230.5480519008715
 30
0.0
 11
313.0247598719321
 21
230.5480519008715
 31
0.0
  0
LINE
  5
13E
330
4C
100
AcDbEntity
  8
1
  6
Continuous
 62
     2
100
AcDbLine
 10
313.0247598719321
 20
211.9170519008714
 30
0.0
 11
301.0247598719321
 21
211.9170519008714
 31
0.0
  0
LINE
  5
13F
330
4C
100
AcDbEntity
  8
1
  6
Continuous
 62
     2
100
AcDbLine
 10
313.42312166839
 20
211.6870576104516
 30
0.0
 11
313.0247598719321
 21
211.9170519008714
 31
0.0
  0
LINE
  5
140
330
4C
100
AcDbEntity
  8
1
  6
Continuous
 62
     2
100
AcDbLine
 10
313.0247598719321
 20
230.5480519008715
 30
0.0
 11
315.0374029103273
 21
231.7100519008716
 31
0.0
  0
LINE
  5
141
330
4C
100
AcDbEntity
  8
1
  6
Continuous
 62
     7
100
AcDbLine
 10
315.0374029103273
 20
223.0001441678656
 30
0.0
 11
315.0374029103273
 21
233.1055617157244
 31
0.0
  0
LINE
  5
142
330
4C
100
AcDbEntity
  8
1
  6
Continuous
 62
     7
100
AcDbLine
 10
341.0247598719321
 20
239.7325519008714
 30
0.0
 11
341.0247598719321
 21
241.2325519008714
 31
0.0
  0
LINE
  5
143
330
4C
100
AcDbEntity
  8
1
  6
Continuous
 62
     7
100
AcDbLine
 10
317.8377598719322
 20
239.7325519008714
 30
0.0
 11
341.0247598719321
 21
239.7325519008714
 31
0.0
  0
LINE
  5
144
330
4C
100
AcDbEntity
  8
1
  6
Continuous
 62
     7
100
AcDbLine
 10
341.0247598719321
 20
238.3243945943179
 30
0.0
 11
341.0247598719321
 21
239.7325519008714
 31
0.0
  0
LINE
  5
145
330
4C
100
AcDbEntity
  8
1
  6
Continuous
 62
     2
100
AcDbLine
 10
341.0247598719321
 20
238.3243945943179
 30
0.0
 11
340.2117598719321
 21
239.7325519008714
 31
0.0
  0
LINE
  5
146
330
4C
100
AcDbEntity
  8
1
  6
Continuous
 62
     2
100
AcDbLine
 10
317.8377598719322
 20
239.7325519008714
 30
0.0
 11
317.0247598719321
 21
238.3243945943179
 31
0.0
  0
LINE
  5
147
330
4C
100
AcDbEntity
  8
1
  6
Continuous
 62
     7
100
AcDbLine
 10
317.0247598719321
 20
239.7325519008714
 30
0.0
 11
317.0247598719321
 21
238.3243945943179
 31
0.0
  0
LINE
  5
148
330
4C
100
AcDbEntity
  8
1
  6
Continuous
 62
     7
100
AcDbLine
 10
317.0247598719321
 20
239.7325519008714
 30
0.0
 11
317.8377598719322
 21
239.7325519008714
 31
0.0
  0
LINE
  5
149
330
4C
100
AcDbEntity
  8
1
  6
Continuous
 62
     2
100
AcDbLine
 10
317.8377598719322
 20
239.7325519008714
 30
0.0
 11
317.8377598719322
 21
241.2325519008714
 31
0.0
  0
LINE
  5
14A
330
4C
100
AcDbEntity
  8
1
  6
Continuous
 62
     7
100
AcDbLine
 10
316.6747598719322
 20
238.3243945943179
 30
0.0
 11
341.0247598719321
 21
238.3243945943179
 31
0.0
  0
LINE
  5
14B
330
4C
100
AcDbEntity
  8
1
  6
Continuous
 62
     7
100
AcDbLine
 10
341.0247598719321
 20
238.3243945943179
 30
0.0
 11
341.3747598719324
 21
238.3243945943179
 31
0.0
  0
LINE
  5
14C
330
4C
100
AcDbEntity
  8
1
  6
Continuous
 62
     7
100
AcDbLine
 10
316.6747598719322
 20
238.3243945943179
 30
0.0
 11
316.6747598719322
 21
235.7782390157204
 31
0.0
  0
LINE
  5
14D
330
4C
100
AcDbEntity
  8
1
  6
Continuous
 62
     7
100
AcDbLine
 10
341.3747598719324
 20
238.3243945943179
 30
0.0
 11
341.3747598719324
 21
235.7782390157204
 31
0.0
  0
LINE
  5
14E
330
4C
100
AcDbEntity
  8
1
  6
Continuous
 62
     7
100
AcDbLine
 10
153.4156430889739
 20
314.3945519008714
 30
0.0
 11
153.5849738833839
 21
314.3945519008714
 31
0.0
  0
LINE
  5
14F
330
4C
100
AcDbEntity
  8
1
  6
Continuous
 62
     7
100
AcDbLine
 10
174.7346786342575
 20
331.466354115394
 30
0.0
 11
174.5134570558366
 21
327.2451949392664
 31
0.0
  0
LINE
  5
150
330
4C
100
AcDbEntity
  8
1
  6
Continuous
 62
     7
100
AcDbLine
 10
191.4004738833838
 20
346.1059490732759
 30
0.0
 11
191.4004738833838
 21
357.2325519008715
 31
0.0
  0
LINE
  5
151
330
4C
100
AcDbEntity
  8
1
  6
Continuous
 62
     7
100
AcDbLine
 10
186.7763633816984
 20
347.7454134844619
 30
0.0
 11
187.2735632378533
 21
357.2325519008715
 31
0.0
  0
LINE
  5
152
330
4C
100
AcDbEntity
  8
1
  6
Continuous
 62
     7
100
AcDbLine
 10
166.7873956331744
 20
355.2199088624764
 30
0.0
 11
174.5134570558366
 21
355.2199088624764
 31
0.0
  0
LINE
  5
153
330
4C
100
AcDbEntity
  8
1
  6
Continuous
 62
     7
100
AcDbLine
 10
164.5363903522334
 20
357.2325519008714
 30
0.0
 11
172.2159738833839
 21
357.2325519008714
 31
0.0
  0
LINE
  5
154
330
4C
100
AcDbEntity
  8
1
  6
Continuous
 62
     2
100
AcDbLine
 10
172.2159738833839
 20
361.2325519008714
 30
0.0
 11
172.2159738833839
 21
357.2325519008714
 31
0.0
  0
LINE
  5
155
330
4C
100
AcDbEntity
  8
1
  6
Continuous
 62
     7
100
AcDbLine
 10
132.9004738833838
 20
330.7325519008713
 30
0.0
 11
118.9004738833838
 21
330.7325519008713
 31
0.0
  0
LINE
  5
156
330
4C
100
AcDbEntity
  8
1
  6
Continuous
 62
     2
100
AcDbLine
 10
132.9004738833838
 20
331.7325519008713
 30
0.0
 11
117.9004738833838
 21
331.7325519008713
 31
0.0
  0
LINE
  5
157
330
4C
100
AcDbEntity
  8
1
  6
Continuous
 62
     7
100
AcDbLine
 10
175.2465033722335
 20
238.323820971461
 30
0.0
 11
175.2465033722335
 21
233.4319782780145
 31
0.0
  0
LINE
  5
158
330
4C
100
AcDbEntity
  8
1
  6
Continuous
 62
     7
100
AcDbLine
 10
174.9004738833838
 20
238.323820971461
 30
0.0
 11
175.2465033722335
 21
238.323820971461
 31
0.0
  0
LINE
  5
159
330
4C
100
AcDbEntity
  8
1
  6
Continuous
 62
     7
100
AcDbLine
 10
150.5544443945341
 20
238.323820971461
 30
0.0
 11
174.9004738833838
 21
238.323820971461
 31
0.0
  0
LINE
  5
15A
330
4C
100
AcDbEntity
  8
1
  6
Continuous
 62
     7
100
AcDbLine
 10
139.9004738833838
 20
203.8859487891648
 30
0.0
 11
139.9004738833838
 21
226.5780077668641
 31
0.0
  0
LINE
  5
15B
330
4C
100
AcDbEntity
  8
1
  6
Continuous
 62
     7
100
AcDbLine
 10
139.9004738833838
 20
203.8859487891648
 30
0.0
 11
140.5044443945342
 21
203.2819782780145
 31
0.0
  0
LINE
  5
15C
330
4C
100
AcDbEntity
  8
1
  6
Continuous
 62
     7
100
AcDbLine
 10
139.9004738833838
 20
226.5780077668641
 30
0.0
 11
140.5044443945342
 21
227.1819782780145
 31
0.0
  0
LINE
  5
15D
330
4C
100
AcDbEntity
  8
1
  6
Continuous
 62
     7
100
AcDbLine
 10
150.5544443945341
 20
232.5780077668641
 30
0.0
 11
150.5544443945341
 21
238.323820971461
 31
0.0
  0
LINE
  5
15E
330
4C
100
AcDbEntity
  8
1
  6
Continuous
 62
     7
100
AcDbLine
 10
171.7673830587555
 20
202.8859487891648
 30
0.0
 11
173.2465033722335
 21
202.0319782780145
 31
0.0
  0
LINE
  5
15F
330
4C
100
AcDbEntity
  8
1
  6
Continuous
 62
     7
100
AcDbLine
 10
191.4004738833838
 20
231.2319782780145
 30
0.0
 11
186.4350387693246
 21
231.2319782780145
 31
0.0
  0
LINE
  5
160
330
4C
100
AcDbEntity
  8
1
  6
Continuous
 62
     7
100
AcDbLine
 10
186.4350387693246
 20
231.2319782780145
 30
0.0
 11
186.4350387693246
 21
200.0319782780145
 31
0.0
  0
LINE
  5
161
330
4C
100
AcDbEntity
  8
1
  6
Continuous
 62
     2
100
AcDbLine
 10
151.7134738833838
 20
239.7319782780145
 30
0.0
 11
151.7134738833838
 21
241.2325519008714
 31
0.0
  0
LINE
  5
162
330
4C
100
AcDbEntity
  8
1
  6
Continuous
 62
     7
100
AcDbLine
 10
150.9004738833838
 20
239.7319782780145
 30
0.0
 11
174.9004738833838
 21
239.7319782780145
 31
0.0
  0
LINE
  5
163
330
4C
100
AcDbEntity
  8
1
  6
Continuous
 62
     7
100
AcDbLine
 10
150.9004738833838
 20
239.7319782780145
 30
0.0
 11
150.9004738833838
 21
238.323820971461
 31
0.0
  0
LINE
  5
164
330
4C
100
AcDbEntity
  8
1
  6
Continuous
 62
     2
100
AcDbLine
 10
151.7134738833838
 20
239.7319782780145
 30
0.0
 11
150.9004738833838
 21
238.323820971461
 31
0.0
  0
LINE
  5
165
330
4C
100
AcDbEntity
  8
1
  6
Continuous
 62
     2
100
AcDbLine
 10
174.9004738833838
 20
238.323820971461
 30
0.0
 11
174.0874738833838
 21
239.7319782780145
 31
0.0
  0
LINE
  5
166
330
4C
100
AcDbEntity
  8
1
  6
Continuous
 62
     7
100
AcDbLine
 10
174.9004738833838
 20
238.323820971461
 30
0.0
 11
174.9004738833838
 21
239.7319782780145
 31
0.0
  0
LINE
  5
167
330
4C
100
AcDbEntity
  8
1
  6
Continuous
 62
     7
100
AcDbLine
 10
174.0874738833838
 20
239.7319782780145
 30
0.0
 11
174.9004738833838
 21
239.7319782780145
 31
0.0
  0
LINE
  5
168
330
4C
100
AcDbEntity
  8
1
  6
Continuous
 62
     7
100
AcDbLine
 10
174.9004738833838
 20
239.7319782780145
 30
0.0
 11
174.9004738833838
 21
241.2325519008714
 31
0.0
  0
LINE
  5
169
330
4C
100
AcDbEntity
  8
1
  6
Continuous
 62
     7
100
AcDbLine
 10
184.4350387693246
 20
228.4319782780145
 30
0.0
 11
180.2465033722335
 21
228.4319782780145
 31
0.0
  0
LINE
  5
16A
330
4C
100
AcDbEntity
  8
1
  6
Continuous
 62
     7
100
AcDbLine
 10
173.2465033722335
 20
202.0319782780145
 30
0.0
 11
184.4350387693246
 21
202.0319782780145
 31
0.0
  0
LINE
  5
16B
330
4C
100
AcDbEntity
  8
1
  6
Continuous
 62
     7
100
AcDbLine
 10
186.4350387693246
 20
200.0319782780145
 30
0.0
 11
186.4350387693246
 21
199.2319782780145
 31
0.0
  0
LINE
  5
16C
330
4C
100
AcDbEntity
  8
1
  6
Continuous
 62
     7
100
AcDbLine
 10
117.9004738833838
 20
224.7319782780145
 30
0.0
 11
117.9004738833838
 21
205.7319782780144
 31
0.0
  0
LINE
  5
16D
330
4C
100
AcDbEntity
  8
1
  6
Continuous
 62
     7
100
AcDbLine
 10
117.9004738833838
 20
205.7319782780144
 30
0.0
 11
118.9004738833838
 21
204.7319782780144
 31
0.0
  0
LINE
  5
16E
330
4C
100
AcDbEntity
  8
1
  6
Continuous
 62
     7
100
AcDbLine
 10
118.9004738833838
 20
225.7319782780145
 30
0.0
 11
117.9004738833838
 21
224.7319782780145
 31
0.0
  0
LINE
  5
16F
330
4C
100
AcDbEntity
  8
1
  6
Continuous
 62
     7
100
AcDbLine
 10
186.4350387693246
 20
199.2319782780145
 30
0.0
 11
191.4004738833838
 21
199.2319782780145
 31
0.0
  0
LINE
  5
170
330
4C
100
AcDbEntity
  8
1
  6
Continuous
 62
     7
100
AcDbLine
 10
139.9004738833838
 20
329.8865224120217
 30
0.0
 11
139.9004738833838
 21
330.7325519008713
 31
0.0
  0
LINE
  5
171
330
4C
100
AcDbEntity
  8
1
  6
Continuous
 62
     7
100
AcDbLine
 10
139.9004738833838
 20
329.8865224120217
 30
0.0
 11
140.5044443945342
 21
329.2825519008714
 31
0.0
  0
LINE
  5
172
330
4C
100
AcDbEntity
  8
1
  6
Continuous
 62
     7
100
AcDbLine
 10
191.4004738833838
 20
325.2325519008714
 30
0.0
 11
191.4004738833838
 21
336.3591547284669
 31
0.0
  0
LINE
  5
173
330
4C
100
AcDbEntity
  8
1
  6
Continuous
 62
     7
100
AcDbLine
 10
117.9004738833838
 20
331.7325519008713
 30
0.0
 11
118.9004738833838
 21
330.7325519008713
 31
0.0
  0
LINE
  5
174
330
4C
100
AcDbEntity
  8
1
  6
Continuous
 62
     7
100
AcDbLine
 10
117.9004738833838
 20
350.7325519008715
 30
0.0
 11
117.9004738833838
 21
331.7325519008713
 31
0.0
  0
LINE
  5
175
330
4C
100
AcDbEntity
  8
1
  6
Continuous
 62
     7
100
AcDbLine
 10
139.9004738833838
 20
351.7325519008715
 30
0.0
 11
139.9004738833838
 21
352.5785813897211
 31
0.0
  0
LINE
  5
176
330
4C
100
AcDbEntity
  8
1
  6
Continuous
 62
     2
100
AcDbLine
 10
117.9004738833838
 20
350.7325519008715
 30
0.0
 11
132.9004738833838
 21
350.7325519008715
 31
0.0
  0
LINE
  5
177
330
4C
100
AcDbEntity
  8
1
  6
Continuous
 62
     7
100
AcDbLine
 10
118.9004738833838
 20
351.7325519008715
 30
0.0
 11
132.9004738833838
 21
351.7325519008715
 31
0.0
  0
LINE
  5
178
330
4C
100
AcDbEntity
  8
1
  6
Continuous
 62
     7
100
AcDbLine
 10
118.9004738833838
 20
351.7325519008715
 30
0.0
 11
117.9004738833838
 21
350.7325519008715
 31
0.0
  0
LINE
  5
179
330
4C
100
AcDbEntity
  8
1
  6
Continuous
 62
     7
100
AcDbLine
 10
191.4004738833838
 20
357.2325519008715
 30
0.0
 11
187.2735632378533
 21
357.2325519008715
 31
0.0
  0
LINE
  5
17A
330
4C
100
AcDbEntity
  8
1
  6
Continuous
 62
     7
100
AcDbLine
 10
139.9004738833838
 20
351.7325519008715
 30
0.0
 11
139.9004738833838
 21
330.7325519008713
 31
0.0
  0
LINE
  5
17B
330
4C
100
AcDbEntity
  8
1
  6
Continuous
 62
     7
100
AcDbLine
 10
140.5044443945342
 20
329.2825519008714
 30
0.0
 11
140.5044443945342
 21
353.1825519008714
 31
0.0
  0
LINE
  5
17C
330
4C
100
AcDbEntity
  8
1
  6
Continuous
 62
     2
100
AcDbLine
 10
153.5849738833839
 20
313.2325519008714
 30
0.0
 11
153.5849738833839
 21
314.4967462339001
 31
0.0
  0
LINE
  5
17D
330
4C
100
AcDbEntity
  8
1
  6
Continuous
 62
     2
100
AcDbLine
 10
173.3779738833839
 20
327.2451949392664
 30
0.0
 11
172.2159738833839
 21
325.2325519008714
 31
0.0
  0
LINE
  5
17E
330
4C
100
AcDbEntity
  8
1
  6
Continuous
 62
     2
100
AcDbLine
 10
172.2159738833839
 20
325.2325519008714
 30
0.0
 11
172.2159738833839
 21
313.2325519008714
 31
0.0
  0
LINE
  5
17F
330
4C
100
AcDbEntity
  8
1
  6
Continuous
 62
     7
100
AcDbLine
 10
173.3779738833839
 20
314.3945519008714
 30
0.0
 11
173.3779738833839
 21
325.2325519008714
 31
0.0
  0
LINE
  5
180
330
4C
100
AcDbEntity
  8
1
  6
Continuous
 62
     7
100
AcDbLine
 10
173.3779738833839
 20
314.3945519008714
 30
0.0
 11
172.2159738833839
 21
313.2325519008714
 31
0.0
  0
LINE
  5
181
330
4C
100
AcDbEntity
  8
1
  6
Continuous
 62
     7
100
AcDbLine
 10
172.2159738833839
 20
314.3945519008714
 30
0.0
 11
173.3779738833839
 21
314.3945519008714
 31
0.0
  0
LINE
  5
182
330
4C
100
AcDbEntity
  8
1
  6
Continuous
 62
     7
100
AcDbLine
 10
173.3779738833839
 20
325.2325519008714
 30
0.0
 11
172.2159738833839
 21
325.2325519008714
 31
0.0
  0
LINE
  5
183
330
4C
100
AcDbEntity
  8
1
  6
Continuous
 62
     7
100
AcDbLine
 10
153.5849738833839
 20
313.2325519008714
 30
0.0
 11
152.7545255895117
 21
314.0630001947436
 31
0.0
  0
LINE
  5
184
330
4C
100
AcDbEntity
  8
1
  6
Continuous
 62
     7
100
AcDbLine
 10
153.5849738833839
 20
313.2325519008714
 30
0.0
 11
172.2159738833839
 21
313.2325519008714
 31
0.0
  0
LINE
  5
185
330
4C
100
AcDbEntity
  8
1
  6
Continuous
 62
     7
100
AcDbLine
 10
174.5134570558366
 20
327.2451949392664
 30
0.0
 11
166.7873956331746
 21
327.2451949392664
 31
0.0
  0
LINE
  5
186
330
4C
100
AcDbEntity
  8
1
  6
Continuous
 62
     7
100
AcDbLine
 10
174.5547206856974
 20
328.0325519008714
 30
0.0
 11
185.228892322431
 21
328.0325519008714
 31
0.0
  0
LINE
  5
187
330
4C
100
AcDbEntity
  8
1
  6
Continuous
 62
     7
100
AcDbLine
 10
172.2159738833839
 20
325.2325519008714
 30
0.0
 11
164.5363903522333
 21
325.2325519008714
 31
0.0
  0
LINE
  5
188
330
4C
100
AcDbEntity
  8
1
  6
Continuous
 62
     7
100
AcDbLine
 10
153.5849738833839
 20
314.3945519008714
 30
0.0
 11
172.2159738833839
 21
314.3945519008714
 31
0.0
  0
LINE
  5
189
330
4C
100
AcDbEntity
  8
1
  6
Continuous
 62
     2
100
AcDbLine
 10
172.2159738833839
 20
357.2325519008714
 30
0.0
 11
173.3779738833839
 21
355.2199088624764
 31
0.0
  0
LINE
  5
18A
330
4C
100
AcDbEntity
  8
1
  6
Continuous
 62
     7
100
AcDbLine
 10
173.3779738833839
 20
355.2199088624764
 30
0.0
 11
173.3779738833839
 21
357.2325519008714
 31
0.0
  0
LINE
  5
18B
330
4C
100
AcDbEntity
  8
1
  6
Continuous
 62
     7
100
AcDbLine
 10
172.2159738833839
 20
357.2325519008714
 30
0.0
 11
173.3779738833839
 21
357.2325519008714
 31
0.0
  0
LINE
  5
18C
330
4C
100
AcDbEntity
  8
1
  6
Continuous
 62
     7
100
AcDbLine
 10
174.5134570558366
 20
355.2199088624764
 30
0.0
 11
174.7346786342575
 21
350.9987496863488
 31
0.0
  0
LINE
  5
18D
330
4C
100
AcDbEntity
  8
1
  6
Continuous
 62
     7
100
AcDbLine
 10
185.228892322431
 20
354.4325519008715
 30
0.0
 11
174.5547206856974
 21
354.4325519008714
 31
0.0
  0
LINE
  5
18E
330
4C
100
AcDbEntity
  8
1
  6
Continuous
 62
     7
100
AcDbLine
 10
118.9004738833838
 20
330.7325519008713
 30
0.0
 11
118.9004738833838
 21
351.7325519008715
 31
0.0
  0
LINE
  5
18F
330
4C
100
AcDbEntity
  8
1
  6
Continuous
 62
     7
100
AcDbLine
 10
187.2735632378533
 20
325.2325519008714
 30
0.0
 11
186.7763633816984
 21
334.7196903172809
 31
0.0
  0
LINE
  5
190
330
4C
100
AcDbEntity
  8
1
  6
Continuous
 62
     7
100
AcDbLine
 10
187.2735632378533
 20
325.2325519008714
 30
0.0
 11
191.4004738833838
 21
325.2325519008714
 31
0.0
  0
LINE
  5
191
330
4C
100
AcDbEntity
  8
1
  6
Continuous
 62
     7
100
AcDbLine
 10
173.3779738833839
 20
357.2325519008714
 30
0.0
 11
173.3779738833839
 21
361.2325519008714
 31
0.0
  0
LINE
  5
192
330
4C
100
AcDbEntity
  8
1
  6
Continuous
 62
     7
100
AcDbLine
 10
173.3779738833839
 20
325.2325519008714
 30
0.0
 11
173.3779738833839
 21
327.2451949392664
 31
0.0
  0
ARC
  5
193
330
4C
100
AcDbEntity
  8
1
  6
Continuous
 62
     7
100
AcDbCircle
 10
162.9004738833838
 20
221.2325519008714
 30
0.0
 40
10.47750000000018
100
AcDbArc
 50
-9.08611319134715
 51
0.0
  0
ARC
  5
194
330
4C
100
AcDbEntity
  8
1
  6
Continuous
 62
     7
100
AcDbCircle
 10
162.9004738833838
 20
221.2325519008714
 30
0.0
 40
10.47750000000019
100
AcDbArc
 50
0.0
 51
-9.08611319134715
  0
ARC
  5
195
330
4C
100
AcDbEntity
  8
1
  6
Continuous
 62
     7
100
AcDbCircle
 10
329.0247598719321
 20
215.2325519008714
 30
0.0
 40
9.499999999999988
100
AcDbArc
 50
-9.08472028739109
 51
-170.9152797126089
  0
ARC
  5
196
330
4C
100
AcDbEntity
  8
1
  6
Continuous
 62
     7
100
AcDbCircle
 10
329.0247598719321
 20
215.2325519008714
 30
0.0
 40
9.499999999999933
100
AcDbArc
 50
-170.9152797126089
 51
-9.08472028739109
  0
ARC
  5
197
330
4C
100
AcDbEntity
  8
1
  6
Continuous
 62
     7
100
AcDbCircle
 10
329.0247598719321
 20
215.2325519008714
 30
0.0
 40
15.9994263771431
100
AcDbArc
 50
-167.1968953039873
 51
-163.748521772839
  0
ARC
  5
198
330
4C
100
AcDbEntity
  8
1
  6
Continuous
 62
     7
100
AcDbCircle
 10
329.0247598719321
 20
215.2325519008714
 30
0.0
 40
15.9994263771431
100
AcDbArc
 50
150.9552931568248
 51
-167.1968953039873
  0
ARC
  5
199
330
4C
100
AcDbEntity
  8
1
  6
Continuous
 62
     7
100
AcDbCircle
 10
329.0247598719321
 20
215.2325519008714
 30
0.0
 40
15.99942637714309
100
AcDbArc
 50
-163.748521772839
 51
-16.25147822716111
  0
ARC
  5
19A
330
4C
100
AcDbEntity
  8
1
  6
Continuous
 62
     7
100
AcDbCircle
 10
329.0247598719321
 20
215.2325519008714
 30
0.0
 40
15.99942637714304
100
AcDbArc
 50
-16.25147822716111
 51
-12.80310469601275
  0
ARC
  5
19B
330
4C
100
AcDbEntity
  8
1
  6
Continuous
 62
     7
100
AcDbCircle
 10
329.0247598719321
 20
215.2325519008714
 30
0.0
 40
15.99942637714309
100
AcDbArc
 50
29.04470684317349
 51
150.9552931568248
  0
ARC
  5
19C
330
4C
100
AcDbEntity
  8
1
  6
Continuous
 62
     7
100
AcDbCircle
 10
329.0247598719321
 20
215.2325519008714
 30
0.0
 40
15.9994263771431
100
AcDbArc
 50
-12.80310469601275
 51
0.0
  0
ARC
  5
19D
330
4C
100
AcDbEntity
  8
1
  6
Continuous
 62
     7
100
AcDbCircle
 10
329.0247598719321
 20
215.2325519008714
 30
0.0
 40
15.99942637714304
100
AcDbArc
 50
0.0
 51
29.04470684317349
  0
CIRCLE
  5
19E
330
4C
100
AcDbEntity
  8
1
  6
Continuous
 62
     7
100
AcDbCircle
 10
329.0247598719321
 20
215.2325519008714
 30
0.0
 40
13.57735026918965
  0
CIRCLE
  5
19F
330
4C
100
AcDbEntity
  8
1
  6
Continuous
 62
     7
100
AcDbCircle
 10
329.0247598719321
 20
215.2325519008714
 30
0.0
 40
12.42264973081035
  0
CIRCLE
  5
1A0
330
4C
100
AcDbEntity
  8
1
  6
Continuous
 62
     2
100
AcDbCircle
 10
329.0247598719321
 20
215.2325519008714
 30
0.0
 40
10.7999999999999
  0
CIRCLE
  5
1A1
330
4C
100
AcDbEntity
  8
1
  6
Continuous
 62
     2
100
AcDbCircle
 10
162.9004738833838
 20
221.2325519008714
 30
0.0
 40
9.3155000000001
  0
CIRCLE
  5
1A2
330
4C
100
AcDbEntity
  8
1
  6
Continuous
 62
     7
100
AcDbCircle
 10
162.9004738833838
 20
221.2325519008714
 30
0.0
 40
7.0
  0
CIRCLE
  5
1A3
330
4C
100
AcDbEntity
  8
1
  6
Continuous
 62
     7
100
AcDbCircle
 10
162.9004738833838
 20
221.2325519008714
 30
0.0
 40
6.5
  0
ARC
  5
1A4
330
4C
100
AcDbEntity
  8
1
  6
Continuous
 62
     7
100
AcDbCircle
 10
313.6747598719322
 20
235.7782390157204
 30
0.0
 40
3.000000000000064
100
AcDbArc
 50
-62.9856047354352
 51
0.0
  0
ARC
  5
1A5
330
4C
100
AcDbEntity
  8
1
  6
Continuous
 62
     7
100
AcDbCircle
 10
344.3747598719324
 20
235.7782390157204
 30
0.0
 40
3.0
100
AcDbArc
 50
180.0
 51
-117.0143952645687
  0
ARC
  5
1A6
330
4C
100
AcDbEntity
  8
1
  6
Continuous
 62
     7
100
AcDbCircle
 10
180.2465033722335
 20
233.4319782780145
 30
0.0
 40
5.0
100
AcDbArc
 50
180.0
 51
-90.0
  0
ARC
  5
1A7
330
4C
100
AcDbEntity
  8
1
  6
Continuous
 62
     7
100
AcDbCircle
 10
145.5544443945341
 20
232.5780077668641
 30
0.0
 40
5.00000000000002
100
AcDbArc
 50
-62.01723801858298
 51
0.0
  0
ARC
  5
1A8
330
4C
100
AcDbEntity
  8
1
  6
Continuous
 62
     7
100
AcDbCircle
 10
184.4350387693246
 20
230.4319782780145
 30
0.0
 40
2.0
100
AcDbArc
 50
-90.0
 51
0.0
  0
ARC
  5
1A9
330
4C
100
AcDbEntity
  8
1
  6
Continuous
 62
     7
100
AcDbCircle
 10
184.4350387693246
 20
200.0319782780145
 30
0.0
 40
2.0
100
AcDbArc
 50
0.0
 51
90.0
  0
ARC
  5
1AA
330
4C
100
AcDbEntity
  8
1
  6
Continuous
 62
     7
100
AcDbCircle
 10
185.228892322431
 20
326.0325519008714
 30
0.0
 40
1.999999999999961
100
AcDbArc
 50
2.99999999999751
 51
90.0
  0
ARC
  5
1AB
330
4C
100
AcDbEntity
  8
1
  6
Continuous
 62
     7
100
AcDbCircle
 10
185.228892322431
 20
356.4325519008715
 30
0.0
 40
2.0
100
AcDbArc
 50
-90.0
 51
-3.00000000000063
  0
ENDBLK
  5
4E
330
4C
100
AcDbEntity
  8
0
100
AcDbBlockEnd
  0
BLOCK
  5
50
330
4F
100
AcDbEntity
  8
0
100
AcDbBlockBegin
  2
34-188-M2K
 70
     0
 71
     0
 10
204.403753362184
 20
170.2727240982821
 30
0.0
  3
34-188-M2K
  1

  0
LINE
  5
1AC
330
4F
100
AcDbEntity
  8
1
  6
Continuous
 62
     7
100
AcDbLine
 10
173.9004738833838
 20
373.2325519008714
 30
0.0
 11
151.9004738833838
 21
373.2325519008714
 31
0.0
  0
LINE
  5
1AD
330
4F
100
AcDbEntity
  8
0
  6
Continuous
 62
     7
100
AcDbLine
 10
173.9004738833838
 20
361.2325519008714
 30
0.0
 11
160.5363903522333
 21
361.2325519008715
 31
0.0
  0
LINE
  5
1AE
330
4F
100
AcDbEntity
  8
1
  6
Continuous
 62
     7
100
AcDbLine
 10
361.0247598719321
 20
221.2325519008714
 30
0.0
 11
361.0247598719321
 21
210.2325519008714
 31
0.0
  0
LINE
  5
1AF
330
4F
100
AcDbEntity
  8
1
  6
Continuous
 62
     7
100
AcDbLine
 10
349.0247598719321
 20
210.2325519008714
 30
0.0
 11
349.0247598719321
 21
232.2325519008714
 31
0.0
  0
LINE
  5
1B0
330
4F
100
AcDbEntity
  8
1
  6
Continuous
 62
     7
100
AcDbLine
 10
360.5247598719321
 20
209.7325519008714
 30
0.0
 11
349.5247598719321
 21
209.7325519008714
 31
0.0
  0
LINE
  5
1B1
330
4F
100
AcDbEntity
  8
1
  6
Continuous
 62
     7
100
AcDbLine
 10
361.0247598719321
 20
232.2325519008714
 30
0.0
 11
361.0247598719321
 21
221.2325519008714
 31
0.0
  0
LINE
  5
1B2
330
4F
100
AcDbEntity
  8
1
  6
Continuous
 62
     7
100
AcDbLine
 10
349.5247598719321
 20
232.7325519008714
 30
0.0
 11
360.5247598719321
 21
232.7325519008714
 31
0.0
  0
LINE
  5
1B3
330
4F
100
AcDbEntity
  8
0
  6
Continuous
 62
     7
100
AcDbLine
 10
349.0247598719321
 20
210.4170519008713
 30
0.0
 11
349.0247598719321
 21
210.7550519008715
 31
0.0
  0
ARC
  5
1B4
330
4F
100
AcDbEntity
  8
1
  6
Continuous
 62
     7
100
AcDbCircle
 10
164.8903475929794
 20
367.2325519008714
 30
0.0
 40
10.82508086662804
100
AcDbArc
 50
-33.66033716378483
 51
33.66033716378483
  0
ARC
  5
1B5
330
4F
100
AcDbEntity
  8
1
  6
Continuous
 62
     7
100
AcDbCircle
 10
160.9106001737882
 20
367.2325519008714
 30
0.0
 40
10.82508086662804
100
AcDbArc
 50
146.3396628362152
 51
171.2450992809032
  0
SPLINE
  5
1B6
330
4F
100
AcDbEntity
  8
0
  6
Continuous
 62
     7
100
AcDbSpline
210
0.0
220
0.0
230
1.0
 70
    11
 71
     3
 72
    79
 73
    75
 74
    73
 42
0.0000000001
 43
0.0000000001
 44
0.00000001
 40
0.0
 40
0.0
 40
0.0
 40
0.0
 40
0.2446923762576426
 40
0.4895623306138079
 40
0.7541170547770499
 40
1.018876212139694
 40
1.317330740581314
 40
1.615855072700812
 40
1.954663436997257
 40
2.293509837624598
 40
2.673060445632742
 40
3.05263097599315
 40
3.468970543627812
 40
3.885322757417359
 40
4.33152258547219
 40
4.777729979420069
 40
5.244863615146179
 40
5.712001365659288
 40
6.189901396562057
 40
6.667802725487529
 40
7.145704054413057
 40
7.62360408531577
 40
8.090741835828766
 40
8.557875471554933
 40
9.004082865502866
 40
9.450282693557698
 40
9.866634907347253
 40
10.28297447498191
 40
10.66254500534241
 40
11.04209561335066
 40
11.38094201397781
 40
11.71975037827421
 40
12.01827471039379
 40
12.31672923883541
 40
12.58148839619805
 40
12.84604312036135
 40
13.0909130747175
 40
13.33560545097511
 40
13.5802978272328
 40
13.825167781589
 40
14.08972250575222
 40
14.35448166311484
 40
14.65293619155657
 40
14.95146052367618
 40
15.29026888797255
 40
15.62911528859962
 40
16.00866589660792
 40
16.38823642696847
 40
16.80457599460313
 40
17.22092820839267
 40
17.66712803644749
 40
18.11333543039542
 40
18.58046906612159
 40
19.04760681663459
 40
19.52550684753736
 40
20.00340817646283
 40
20.48130950538835
 40
20.95920953629106
 40
21.42634728680417
 40
21.89348092253029
 40
22.33968831647817
 40
22.78588814453298
 40
23.20224035832252
 40
23.61857992595719
 40
23.99815045631762
 40
24.37770106432578
 40
24.71654746495307
 40
25.05535582924951
 40
25.35388016136909
 40
25.65233468981078
 40
25.91709384717334
 40
26.18164857133656
 40
26.42651852569275
 40
26.67121090195048
 40
26.67121090195048
 40
26.67121090195048
 40
26.67121090195048
 10
172.7034586020645
 20
372.7301137127638
 30
0.0
 10
172.6218077310146
 20
372.7258133522973
 30
0.0
 10
172.4584467332623
 20
372.7172095105076
 30
0.0
 10
172.2142927550009
 20
372.6504184616015
 30
0.0
 10
171.9777609308628
 20
372.5452238618556
 30
0.0
 10
171.7441082278595
 20
372.3968065529706
 30
0.0
 10
171.5226858517684
 20
372.2126790904588
 30
0.0
 10
171.3067294977524
 20
371.9868533272796
 30
0.0
 10
171.1056581461385
 20
371.7303735854142
 30
0.0
 10
170.9133458708549
 20
371.4346375271625
 30
0.0
 10
170.7377798771724
 20
371.1131045423001
 30
0.0
 10
170.5745138942911
 20
370.7566274109208
 30
0.0
 10
170.4294410856783
 20
370.3792007849298
 30
0.0
 10
170.2999054764196
 20
369.9728416356831
 30
0.0
 10
170.1896932823609
 20
369.5505275503902
 30
0.0
 10
170.0976328606467
 20
369.1066172940399
 30
0.0
 10
170.0257169256159
 20
368.6519363496121
 30
0.0
 10
169.9737687539554
 20
368.1839286723376
 30
0.0
 10
169.9424662372668
 20
367.7104920139068
 30
0.0
 10
169.9320590947768
 20
367.2325519008703
 30
0.0
 10
169.9424662372668
 20
366.7546117878401
 30
0.0
 10
169.9737687539554
 20
366.2811751293909
 30
0.0
 10
170.0257169256158
 20
365.8131674521819
 30
0.0
 10
170.0976328606467
 20
365.3584865075151
 30
0.0
 10
170.1896932823609
 20
364.9145762520191
 30
0.0
 10
170.2999054764196
 20
364.4922621636385
 30
0.0
 10
170.4294410856783
 20
364.0859030251795
 30
0.0
 10
170.5745138942911
 20
363.7084763606937
 30
0.0
 10
170.7377798771724
 20
363.3519993609012
 30
0.0
 10
170.9133458708547
 20
363.0304659119835
 30
0.0
 10
171.1056581461386
 20
362.7347314092534
 30
0.0
 10
171.3067294977524
 20
362.478246230385
 30
0.0
 10
171.5226858517685
 20
362.2524384714026
 30
0.0
 10
171.7441082278595
 20
362.0682481483968
 30
0.0
 10
171.9777609308628
 20
361.9200403082569
 30
0.0
 10
172.2142927550009
 20
361.8141038089963
 30
0.0
 10
172.4584467332623
 20
361.7498856169472
 30
0.0
 10
172.7034586020645
 20
361.7275450265096
 30
0.0
 10
172.9484704708667
 20
361.7498856169468
 30
0.0
 10
173.1926244491282
 20
361.8141038089965
 30
0.0
 10
173.4291562732662
 20
361.9200403082568
 30
0.0
 10
173.6628089762695
 20
362.0682481483969
 30
0.0
 10
173.8842313523607
 20
362.2524384714026
 30
0.0
 10
174.1001877063767
 20
362.478246230385
 30
0.0
 10
174.3012590579906
 20
362.7347314092532
 30
0.0
 10
174.4935713332741
 20
363.0304659119835
 30
0.0
 10
174.6691373269568
 20
363.3519993609012
 30
0.0
 10
174.832403309838
 20
363.7084763606936
 30
0.0
 10
174.977476118451
 20
364.0859030251796
 30
0.0
 10
175.1070117277096
 20
364.4922621636385
 30
0.0
 10
175.2172239217683
 20
364.9145762520193
 30
0.0
 10
175.3092843434824
 20
365.358486507515
 30
0.0
 10
175.3812002785134
 20
365.8131674521822
 30
0.0
 10
175.4331484501737
 20
366.2811751293908
 30
0.0
 10
175.4644509668624
 20
366.7546117878403
 30
0.0
 10
175.4748581093523
 20
367.2325519008703
 30
0.0
 10
175.4644509668623
 20
367.7104920139067
 30
0.0
 10
175.4331484501738
 20
368.1839286723377
 30
0.0
 10
175.3812002785133
 20
368.651936349612
 30
0.0
 10
175.3092843434824
 20
369.10661729404
 30
0.0
 10
175.2172239217682
 20
369.5505275503901
 30
0.0
 10
175.1070117277097
 20
369.9728416356831
 30
0.0
 10
174.977476118451
 20
370.3792007849298
 30
0.0
 10
174.8324033098381
 20
370.7566274109209
 30
0.0
 10
174.6691373269568
 20
371.1131045423001
 30
0.0
 10
174.4935713332742
 20
371.4346375271625
 30
0.0
 10
174.3012590579907
 20
371.7303735854143
 30
0.0
 10
174.1001877063768
 20
371.9868533272797
 30
0.0
 10
173.8842313523607
 20
372.2126790904588
 30
0.0
 10
173.6628089762696
 20
372.3968065529705
 30
0.0
 10
173.4291562732662
 20
372.5452238618554
 30
0.0
 10
173.1926244491282
 20
372.6504184616017
 30
0.0
 10
172.9484704708668
 20
372.7172095105075
 30
0.0
 10
172.7851094731144
 20
372.7258133522972
 30
0.0
 10
172.7034586020645
 20
372.7301137127638
 30
0.0
 11
172.7034586020645
 21
372.7301137127638
 31
0.0
 11
172.4597200132248
 21
372.708529938556
 31
0.0
 11
172.2228125223585
 21
372.6465933958867
 31
0.0
 11
171.9808984312632
 21
372.5395103691897
 31
0.0
 11
171.7567706305655
 21
372.3985701678211
 31
0.0
 11
171.5266091364236
 21
372.2085680831966
 31
0.0
 11
171.3194933737394
 21
371.9935800888454
 31
0.0
 11
171.1097435938202
 21
371.7275046530361
 31
0.0
 11
170.9242672000557
 21
371.4439285775745
 31
0.0
 11
170.7417692990963
 21
371.1111325737152
 31
0.0
 11
170.5831008568079
 21
370.7663165170417
 31
0.0
 11
170.4332694788659
 21
370.3778719344276
 31
0.0
 11
170.3063605106968
 21
369.9813328068176
 31
0.0
 11
170.1933743332694
 21
369.5496750601403
 31
0.0
 11
170.1024547771017
 21
369.1128287797166
 31
0.0
 11
170.0292927749259
 21
368.651459995484
 31
0.0
 11
169.9775792285567
 21
368.1871934911178
 31
0.0
 11
169.9459882807788
 21
367.7103387422106
 31
0.0
 11
169.9355281454142
 21
367.2325519008714
 31
0.0
 11
169.9459882807788
 21
366.7547650595321
 31
0.0
 11
169.9775792285567
 21
366.277910310625
 31
0.0
 11
170.0292927749259
 21
365.8136438062589
 31
0.0
 11
170.1024547771017
 21
365.3522750220262
 31
0.0
 11
170.1933743332694
 21
364.9154287416025
 31
0.0
 11
170.3063605106968
 21
364.4837709949252
 31
0.0
 11
170.4332694788659
 21
364.0872318673152
 31
0.0
 11
170.5831008568079
 21
363.6987872847011
 31
0.0
 11
170.7417692990963
 21
363.3539712280275
 31
0.0
 11
170.9242672000557
 21
363.021175224168
 31
0.0
 11
171.1097435938202
 21
362.7375991487066
 31
0.0
 11
171.3194933737394
 21
362.4715237128974
 31
0.0
 11
171.5266091364236
 21
362.2565357185462
 31
0.0
 11
171.7567706305655
 21
362.0665336339216
 31
0.0
 11
171.9808984312631
 21
361.925593432553
 31
0.0
 11
172.2228125223585
 21
361.8185104058559
 31
0.0
 11
172.4597200132249
 21
361.7565738631868
 31
0.0
 11
172.7034586020645
 21
361.734990088979
 31
0.0
 11
172.9471971909042
 21
361.7565738631867
 31
0.0
 11
173.1841046817706
 21
361.8185104058559
 31
0.0
 11
173.4260187728659
 21
361.925593432553
 31
0.0
 11
173.6501465735635
 21
362.0665336339216
 31
0.0
 11
173.8803080677055
 21
362.2565357185462
 31
0.0
 11
174.0874238303898
 21
362.4715237128974
 31
0.0
 11
174.2971736103089
 21
362.7375991487066
 31
0.0
 11
174.4826500040733
 21
363.021175224168
 31
0.0
 11
174.6651479050328
 21
363.3539712280275
 31
0.0
 11
174.8238163473213
 21
363.6987872847011
 31
0.0
 11
174.9736477252633
 21
364.0872318673152
 31
0.0
 11
175.1005566934324
 21
364.4837709949252
 31
0.0
 11
175.2135428708598
 21
364.9154287416025
 31
0.0
 11
175.3044624270274
 21
365.3522750220262
 31
0.0
 11
175.3776244292033
 21
365.8136438062589
 31
0.0
 11
175.4293379755725
 21
366.277910310625
 31
0.0
 11
175.4609289233503
 21
366.7547650595322
 31
0.0
 11
175.4713890587149
 21
367.2325519008714
 31
0.0
 11
175.4609289233503
 21
367.7103387422106
 31
0.0
 11
175.4293379755725
 21
368.1871934911178
 31
0.0
 11
175.3776244292033
 21
368.651459995484
 31
0.0
 11
175.3044624270274
 21
369.1128287797166
 31
0.0
 11
175.2135428708597
 21
369.5496750601403
 31
0.0
 11
175.1005566934324
 21
369.9813328068176
 31
0.0
 11
174.9736477252634
 21
370.3778719344276
 31
0.0
 11
174.8238163473213
 21
370.7663165170417
 31
0.0
 11
174.6651479050329
 21
371.1111325737152
 31
0.0
 11
174.4826500040734
 21
371.4439285775745
 31
0.0
 11
174.297173610309
 21
371.7275046530361
 31
0.0
 11
174.0874238303898
 21
371.9935800888454
 31
0.0
 11
173.8803080677055
 21
372.2085680831966
 31
0.0
 11
173.6501465735635
 21
372.3985701678211
 31
0.0
 11
173.4260187728659
 21
372.5395103691896
 31
0.0
 11
173.1841046817706
 21
372.6465933958867
 31
0.0
 11
172.9471971909043
 21
372.708529938556
 31
0.0
 11
172.7034586020645
 21
372.7301137127638
 31
0.0
  0
SPLINE
  5
1B7
330
4F
100
AcDbEntity
  8
1
  6
Continuous
 62
     7
100
AcDbSpline
210
0.0
220
0.0
230
1.0
 70
    11
 71
     3
 72
    79
 73
    75
 74
    73
 42
0.0000000001
 43
0.0000000001
 44
0.00000001
 40
0.0
 40
0.0
 40
0.0
 40
0.0
 40
0.4588664765645906
 40
0.9177218915547047
 40
1.378467889304283
 40
1.839193533949237
 40
2.302800913425716
 40
2.76638173834165
 40
3.233473496662048
 40
3.700536209682448
 40
4.171306711668926
 40
4.64204932769826
 40
5.116249972033879
 40
5.59042700092749
 40
6.067404679502846
 40
6.544365353425124
 40
7.023145275148381
 40
7.501916324412911
 40
7.981317593031068
 40
8.460718861649221
 40
8.939489910913698
 40
9.418269832637011
 40
9.895230506559297
 40
10.37220818513454
 40
10.84638521402816
 40
11.32058585836385
 40
11.79132847439324
 40
12.26209897637972
 40
12.72916168940025
 40
13.19625344772056
 40
13.65983427263656
 40
14.12344165211302
 40
14.58416729675797
 40
15.04491329450757
 40
15.50376870949763
 40
15.96263518606217
 40
16.42084326318839
 40
16.87905134031473
 40
17.33791781687932
 40
17.79677323186941
 40
18.25751922961905
 40
18.71824487426397
 40
19.18185225374045
 40
19.64543307865644
 40
20.11252483697678
 40
20.57958754999725
 40
21.05035805198379
 40
21.52110066801311
 40
21.99530131234878
 40
22.46947834124234
 40
22.94645601981767
 40
23.42341669374002
 40
23.90219661546321
 40
24.38096766472775
 40
24.8603689333459
 40
25.33977020196406
 40
25.81854125122865
 40
26.29732117295185
 40
26.77428184687424
 40
27.25125952544946
 40
27.72543655434316
 40
28.19963719867881
 40
28.67037981470822
 40
29.14115031669463
 40
29.60821302971511
 40
30.07530478803541
 40
30.53888561295143
 40
31.00249299242783
 40
31.46321863707277
 40
31.92396463482243
 40
32.38282004981262
 40
32.84168652637714
 40
33.29989460350342
 40
33.75810268062973
 40
33.75810268062973
 40
33.75810268062973
 40
33.75810268062973
 10
360.5013313367972
 20
215.0248248563763
 30
0.0
 10
360.4833718279614
 20
214.8728186619547
 30
0.0
 10
360.4474532432271
 20
214.5688099374189
 30
0.0
 10
360.3408089669704
 20
214.1208776910115
 30
0.0
 10
360.1970176733922
 20
213.6832991977888
 30
0.0
 10
360.0126072121492
 20
213.2592954957148
 30
0.0
 10
359.7908978545981
 20
212.8525556659079
 30
0.0
 10
359.5323576105503
 20
212.4656033581753
 30
0.0
 10
359.2400927622891
 20
212.1019828033204
 30
0.0
 10
358.9152104724295
 20
211.7638661261745
 30
0.0
 10
358.5613627863573
 20
211.4543459918419
 30
0.0
 10
358.1800712905436
 20
211.175312643883
 30
0.0
 10
357.7754078821819
 20
210.9292183900814
 30
0.0
 10
357.3493397326652
 20
210.7176898751849
 30
0.0
 10
356.9061290242164
 20
210.5424269661834
 30
0.0
 10
356.448244356309
 20
210.4047592830051
 30
0.0
 10
355.9798959543442
 20
210.3056053609091
 30
0.0
 10
355.5040866549644
 20
210.2459129526848
 30
0.0
 10
355.0247598719334
 20
210.2258669809777
 30
0.0
 10
354.5454330888941
 20
210.2459129526843
 30
0.0
 10
354.0696237895394
 20
210.3056053609109
 30
0.0
 10
353.6012753874826
 20
210.4047592829984
 30
0.0
 10
353.1433907199168
 20
210.542426966208
 30
0.0
 10
352.7001800101971
 20
210.717689875093
 30
0.0
 10
352.2741118653968
 20
210.9292183904221
 30
0.0
 10
351.8694484394967
 20
211.1753126426152
 30
0.0
 10
351.4881570086807
 20
211.4543459965346
 30
0.0
 10
351.134309081027
 20
211.7638661087135
 30
0.0
 10
350.8094276859868
 20
212.1019828679177
 30
0.0
 10
350.5171595118885
 20
212.4656031177805
 30
0.0
 10
350.2586315911276
 20
212.8525565556066
 30
0.0
 10
350.0368764075636
 20
213.2592921829894
 30
0.0
 10
349.8526359597298
 20
213.6833114759556
 30
0.0
 10
349.7082118331435
 20
214.1208319359259
 30
0.0
 10
349.6039201239964
 20
214.5689799219028
 30
0.0
 10
349.5412994149432
 20
215.023972641451
 30
0.0
 10
349.5201524440389
 20
215.4825519008712
 30
0.0
 10
349.5412994149435
 20
215.9411311602917
 30
0.0
 10
349.6039201239964
 20
216.3961238798398
 30
0.0
 10
349.7082118331437
 20
216.844271865817
 30
0.0
 10
349.8526359597297
 20
217.2817923257873
 30
0.0
 10
350.0368764075635
 20
217.7058116187533
 30
0.0
 10
350.2586315911276
 20
218.1125472461362
 30
0.0
 10
350.5171595118885
 20
218.4995006839623
 30
0.0
 10
350.8094276859869
 20
218.8631209338249
 30
0.0
 10
351.134309081027
 20
219.2012376930293
 30
0.0
 10
351.4881570086809
 20
219.510757805208
 30
0.0
 10
351.8694484394967
 20
219.7897911591276
 30
0.0
 10
352.2741118653967
 20
220.0358854113207
 30
0.0
 10
352.7001800101969
 20
220.2474139266498
 30
0.0
 10
353.1433907199169
 20
220.4226768355348
 30
0.0
 10
353.6012753874826
 20
220.5603445187444
 30
0.0
 10
354.0696237895393
 20
220.6594984408318
 30
0.0
 10
354.5454330888944
 20
220.7191908490585
 30
0.0
 10
355.0247598719321
 20
220.7392368207649
 30
0.0
 10
355.5040866549693
 20
220.7191908490585
 30
0.0
 10
355.979895954326
 20
220.6594984408316
 30
0.0
 10
356.4482443563765
 20
220.5603445187448
 30
0.0
 10
356.9061290239666
 20
220.422676835533
 30
0.0
 10
357.3493397335952
 20
220.2474139266565
 30
0.0
 10
357.775407878734
 20
220.0358854112963
 30
0.0
 10
358.1800713033756
 20
219.7897911592185
 30
0.0
 10
358.5613627388549
 20
219.5107578048715
 30
0.0
 10
358.9152106491763
 20
219.2012376942819
 30
0.0
 10
359.2400921084152
 20
218.8631209291906
 30
0.0
 10
359.5323600439019
 20
218.4995007012093
 30
0.0
 10
359.7908888487945
 20
218.1125471823051
 30
0.0
 10
360.0126407445808
 20
217.7058118564242
 30
0.0
 10
360.196893389991
 20
217.2817914448928
 30
0.0
 10
360.3412721141064
 20
216.844275148506
 30
0.0
 10
360.4457326076852
 20
216.3961116843389
 30
0.0
 10
360.5077242308406
 20
215.9411766544185
 30
0.0
 10
360.5312158227238
 20
215.4823823841196
 30
0.0
 10
360.5112928321061
 20
215.1773440322907
 30
0.0
 10
360.5013313367972
 20
215.0248248563763
 30
0.0
 11
360.5013313367972
 21
215.0248248563763
 31
0.0
 11
360.4386825049831
 21
214.5702552058417
 31
0.0
 11
360.334817480801
 21
214.1233096290458
 31
0.0
 11
360.1903417649061
 21
213.6858011811743
 31
0.0
 11
360.0068818519565
 21
213.2631777317847
 31
0.0
 11
359.7849392544499
 21
212.8561478978448
 31
0.0
 11
359.5275429429607
 21
212.470590742469
 31
0.0
 11
359.2349143180437
 21
212.1065259150412
 31
0.0
 11
358.9114240366778
 21
211.769625906499
 31
0.0
 11
358.5570908132686
 21
211.4596697284204
 31
0.0
 11
358.1772920333364
 21
211.1815483568789
 31
0.0
 11
357.7721362513184
 21
210.9351441292655
 31
0.0
 11
357.3474759272338
 21
210.7241762078209
 31
0.0
 11
356.9039188804198
 21
210.5487770855858
 31
0.0
 11
356.4471846419591
 21
210.4113532161668
 31
0.0
 11
355.9787828412813
 21
210.3122070283069
 31
0.0
 11
355.5037442255493
 21
210.2525410314805
 31
0.0
 11
355.024759871932
 21
210.2325519008714
 31
0.0
 11
354.5457755183147
 21
210.2525410314804
 31
0.0
 11
354.0707369025828
 21
210.3122070283069
 31
0.0
 11
353.6023351019049
 21
210.4113532161667
 31
0.0
 11
353.1456008634442
 21
210.5487770855857
 31
0.0
 11
352.7020438166304
 21
210.7241762078209
 31
0.0
 11
352.2773834925457
 21
210.9351441292655
 31
0.0
 11
351.8722277105277
 21
211.1815483568788
 31
0.0
 11
351.4924289305953
 21
211.4596697284203
 31
0.0
 11
351.1380957071863
 21
211.769625906499
 31
0.0
 11
350.8146054258202
 21
212.1065259150413
 31
0.0
 11
350.5219768009033
 21
212.470590742469
 31
0.0
 11
350.2645804894141
 21
212.856147897845
 31
0.0
 11
350.0426378919076
 21
213.2631777317848
 31
0.0
 11
349.859177978958
 21
213.6858011811744
 31
0.0
 11
349.714702263063
 21
214.1233096290459
 31
0.0
 11
349.6108372388809
 21
214.5702552058417
 31
0.0
 11
349.5481884070667
 21
215.0248248563763
 31
0.0
 11
349.527198059724
 21
215.4825519008713
 31
0.0
 11
349.5481884070669
 21
215.9402789453664
 31
0.0
 11
349.610837238881
 21
216.394848595901
 31
0.0
 11
349.714702263063
 21
216.8417941726968
 31
0.0
 11
349.8591779789579
 21
217.2793026205684
 31
0.0
 11
350.0426378919076
 21
217.701926069958
 31
0.0
 11
350.2645804894141
 21
218.1089559038979
 31
0.0
 11
350.5219768009033
 21
218.4945130592737
 31
0.0
 11
350.8146054258203
 21
218.8585778867015
 31
0.0
 11
351.1380957071863
 21
219.1954778952438
 31
0.0
 11
351.4924289305955
 21
219.5054340733224
 31
0.0
 11
351.8722277105277
 21
219.7835554448639
 31
0.0
 11
352.2773834925457
 21
220.0299596724773
 31
0.0
 11
352.7020438166303
 21
220.2409275939219
 31
0.0
 11
353.1456008634442
 21
220.416326716157
 31
0.0
 11
353.602335101905
 21
220.553750585576
 31
0.0
 11
354.0707369025827
 21
220.6528967734358
 31
0.0
 11
354.5457755183147
 21
220.7125627702623
 31
0.0
 11
355.024759871932
 21
220.7325519008714
 31
0.0
 11
355.5037442255493
 21
220.7125627702623
 31
0.0
 11
355.9787828412814
 21
220.6528967734358
 31
0.0
 11
356.4471846419591
 21
220.553750585576
 31
0.0
 11
356.90391888042
 21
220.416326716157
 31
0.0
 11
357.3474759272338
 21
220.240927593922
 31
0.0
 11
357.7721362513185
 21
220.0299596724773
 31
0.0
 11
358.1772920333365
 21
219.7835554448639
 31
0.0
 11
358.5570908132688
 21
219.5054340733224
 31
0.0
 11
358.9114240366778
 21
219.1954778952438
 31
0.0
 11
359.2349143180438
 21
218.8585778867015
 31
0.0
 11
359.5275429429607
 21
218.4945130592737
 31
0.0
 11
359.78493925445
 21
218.1089559038979
 31
0.0
 11
360.0068818519565
 21
217.7019260699581
 31
0.0
 11
360.1903417649062
 21
217.2793026205684
 31
0.0
 11
360.3348174808011
 21
216.8417941726969
 31
0.0
 11
360.4386825049833
 21
216.394848595901
 31
0.0
 11
360.5013313367973
 21
215.9402789453664
 31
0.0
 11
360.52232168414
 21
215.4825519008714
 31
0.0
 11
360.5013313367972
 21
215.0248248563763
 31
0.0
  0
SPLINE
  5
1B8
330
4F
100
AcDbEntity
  8
1
  6
Continuous
 62
     7
100
AcDbSpline
210
0.0
220
0.0
230
1.0
 70
    11
 71
     3
 72
    79
 73
    75
 74
    73
 42
0.0000000001
 43
0.0000000001
 44
0.00000001
 40
0.0
 40
0.0
 40
0.0
 40
0.0
 40
0.4588664765645906
 40
0.9177218915547047
 40
1.37846788930431
 40
1.839193533949212
 40
2.302800913425641
 40
2.76638173834167
 40
3.233473496662046
 40
3.700536209682466
 40
4.171306711668962
 40
4.642049327698312
 40
5.116249972033872
 40
5.59042700092752
 40
6.067404679502845
 40
6.544365353425123
 40
7.023145275148374
 40
7.501916324412911
 40
7.981317593031069
 40
8.460718861649227
 40
8.939489910913693
 40
9.418269832637012
 40
9.89523050655929
 40
10.3722081851345
 40
10.84638521402814
 40
11.32058585836382
 40
11.79132847439325
 40
12.26209897637971
 40
12.72916168940025
 40
13.19625344772055
 40
13.65983427263656
 40
14.12344165211301
 40
14.58416729675789
 40
15.04491329450754
 40
15.50376870949765
 40
15.96263518606222
 40
16.42084326318844
 40
16.87905134031472
 40
17.33791781687929
 40
17.79677323186946
 40
18.25751922961904
 40
18.71824487426402
 40
19.18185225374045
 40
19.64543307865643
 40
20.11252483697677
 40
20.57958754999723
 40
21.05035805198375
 40
21.52110066801307
 40
21.99530131234873
 40
22.46947834124234
 40
22.94645601981767
 40
23.42341669374
 40
23.90219661546318
 40
24.38096766472772
 40
24.86036893334588
 40
25.33977020196404
 40
25.81854125122863
 40
26.29732117295182
 40
26.7742818468742
 40
27.25125952544942
 40
27.72543655434311
 40
28.19963719867879
 40
28.67037981470822
 40
29.14115031669461
 40
29.60821302971507
 40
30.07530478803538
 40
30.53888561295137
 40
31.00249299242779
 40
31.46321863707279
 40
31.92396463482245
 40
32.38282004981262
 40
32.8416865263771
 40
33.29989460350335
 40
33.75810268062967
 40
33.75810268062967
 40
33.75810268062967
 40
33.75810268062967
 10
360.5013313367972
 20
227.4402789453665
 30
0.0
 10
360.4833718279614
 20
227.5922851397882
 30
0.0
 10
360.447453243227
 20
227.8962938643238
 30
0.0
 10
360.3408089669705
 20
228.3442261107314
 30
0.0
 10
360.1970176733922
 20
228.7818046039539
 30
0.0
 10
360.0126072121492
 20
229.2058083060281
 30
0.0
 10
359.7908978545982
 20
229.6125481358348
 30
0.0
 10
359.5323576105502
 20
229.9995004435675
 30
0.0
 10
359.2400927622891
 20
230.3631209984224
 30
0.0
 10
358.9152104724296
 20
230.7012376755683
 30
0.0
 10
358.5613627863573
 20
231.010757809901
 30
0.0
 10
358.1800712905437
 20
231.2897911578599
 30
0.0
 10
357.7754078821819
 20
231.5358854116613
 30
0.0
 10
357.3493397326653
 20
231.747413926558
 30
0.0
 10
356.9061290242162
 20
231.9226768355593
 30
0.0
 10
356.4482443563093
 20
232.0603445187377
 30
0.0
 10
355.9798959543441
 20
232.1594984408335
 30
0.0
 10
355.5040866549644
 20
232.219190849058
 30
0.0
 10
355.0247598719335
 20
232.2392368207651
 30
0.0
 10
354.5454330888939
 20
232.2191908490584
 30
0.0
 10
354.0696237895395
 20
232.159498440832
 30
0.0
 10
353.6012753874824
 20
232.0603445187443
 30
0.0
 10
353.1433907199168
 20
231.9226768355348
 30
0.0
 10
352.7001800101971
 20
231.74741392665
 30
0.0
 10
352.2741118653968
 20
231.5358854113208
 30
0.0
 10
351.8694484394966
 20
231.2897911591277
 30
0.0
 10
351.4881570086808
 20
231.0107578052082
 30
0.0
 10
351.1343090810269
 20
230.7012376930293
 30
0.0
 10
350.8094276859868
 20
230.3631209338251
 30
0.0
 10
350.5171595118885
 20
229.9995006839623
 30
0.0
 10
350.2586315911276
 20
229.6125472461363
 30
0.0
 10
350.0368764075636
 20
229.2058116187534
 30
0.0
 10
349.8526359597298
 20
228.7817923257873
 30
0.0
 10
349.7082118331436
 20
228.344271865817
 30
0.0
 10
349.6039201239963
 20
227.8961238798399
 30
0.0
 10
349.5412994149433
 20
227.4411311602918
 30
0.0
 10
349.5201524440388
 20
226.9825519008715
 30
0.0
 10
349.5412994149434
 20
226.5239726414513
 30
0.0
 10
349.6039201239966
 20
226.068979921903
 30
0.0
 10
349.7082118331437
 20
225.6208319359259
 30
0.0
 10
349.8526359597297
 20
225.1833114759555
 30
0.0
 10
350.0368764075635
 20
224.7592921829894
 30
0.0
 10
350.2586315911277
 20
224.3525565556067
 30
0.0
 10
350.5171595118885
 20
223.9656031177805
 30
0.0
 10
350.8094276859868
 20
223.6019828679178
 30
0.0
 10
351.1343090810271
 20
223.2638661087135
 30
0.0
 10
351.4881570086809
 20
222.9543459965349
 30
0.0
 10
351.8694484394966
 20
222.6753126426153
 30
0.0
 10
352.2741118653967
 20
222.4292183904222
 30
0.0
 10
352.700180010197
 20
222.217689875093
 30
0.0
 10
353.1433907199169
 20
222.0424269662081
 30
0.0
 10
353.6012753874826
 20
221.9047592829985
 30
0.0
 10
354.0696237895393
 20
221.8056053609111
 30
0.0
 10
354.5454330888943
 20
221.7459129526843
 30
0.0
 10
355.0247598719321
 20
221.7258669809778
 30
0.0
 10
355.5040866549693
 20
221.7459129526844
 30
0.0
 10
355.9798959543261
 20
221.8056053609112
 30
0.0
 10
356.4482443563763
 20
221.904759282998
 30
0.0
 10
356.9061290239666
 20
222.0424269662098
 30
0.0
 10
357.3493397335952
 20
222.2176898750864
 30
0.0
 10
357.7754078787339
 20
222.4292183904465
 30
0.0
 10
358.1800713033757
 20
222.6753126425244
 30
0.0
 10
358.561362738855
 20
222.9543459968715
 30
0.0
 10
358.9152106491762
 20
223.2638661074608
 30
0.0
 10
359.2400921084151
 20
223.6019828725523
 30
0.0
 10
359.5323600439019
 20
223.9656031005335
 30
0.0
 10
359.7908888487946
 20
224.3525566194378
 30
0.0
 10
360.0126407445808
 20
224.7592919453188
 30
0.0
 10
360.196893389991
 20
225.18331235685
 30
0.0
 10
360.3412721141062
 20
225.6208286532369
 30
0.0
 10
360.4457326076853
 20
226.0689921174039
 30
0.0
 10
360.5077242308406
 20
226.5239271473245
 30
0.0
 10
360.5312158227238
 20
226.9827214176231
 30
0.0
 10
360.5112928321061
 20
227.2877597694521
 30
0.0
 10
360.5013313367972
 20
227.4402789453665
 30
0.0
 11
360.5013313367972
 21
227.4402789453665
 31
0.0
 11
360.4386825049831
 21
227.8948485959011
 31
0.0
 11
360.334817480801
 21
228.341794172697
 31
0.0
 11
360.1903417649061
 21
228.7793026205685
 31
0.0
 11
360.0068818519565
 21
229.2019260699581
 31
0.0
 11
359.7849392544499
 21
229.6089559038979
 31
0.0
 11
359.5275429429607
 21
229.9945130592739
 31
0.0
 11
359.2349143180437
 21
230.3585778867016
 31
0.0
 11
358.9114240366778
 21
230.6954778952439
 31
0.0
 11
358.5570908132686
 21
231.0054340733225
 31
0.0
 11
358.1772920333364
 21
231.283555444864
 31
0.0
 11
357.7721362513184
 21
231.5299596724773
 31
0.0
 11
357.3474759272338
 21
231.740927593922
 31
0.0
 11
356.9039188804198
 21
231.916326716157
 31
0.0
 11
356.4471846419591
 21
232.053750585576
 31
0.0
 11
355.9787828412813
 21
232.1528967734358
 31
0.0
 11
355.5037442255493
 21
232.2125627702623
 31
0.0
 11
355.024759871932
 21
232.2325519008715
 31
0.0
 11
354.5457755183147
 21
232.2125627702623
 31
0.0
 11
354.0707369025828
 21
232.1528967734359
 31
0.0
 11
353.6023351019049
 21
232.053750585576
 31
0.0
 11
353.1456008634442
 21
231.9163267161571
 31
0.0
 11
352.7020438166304
 21
231.740927593922
 31
0.0
 11
352.2773834925457
 21
231.5299596724774
 31
0.0
 11
351.8722277105277
 21
231.283555444864
 31
0.0
 11
351.4924289305953
 21
231.0054340733225
 31
0.0
 11
351.1380957071863
 21
230.6954778952439
 31
0.0
 11
350.8146054258202
 21
230.3585778867015
 31
0.0
 11
350.5219768009033
 21
229.9945130592738
 31
0.0
 11
350.2645804894141
 21
229.6089559038979
 31
0.0
 11
350.0426378919076
 21
229.2019260699581
 31
0.0
 11
349.859177978958
 21
228.7793026205685
 31
0.0
 11
349.714702263063
 21
228.341794172697
 31
0.0
 11
349.6108372388809
 21
227.8948485959011
 31
0.0
 11
349.5481884070667
 21
227.4402789453665
 31
0.0
 11
349.527198059724
 21
226.9825519008715
 31
0.0
 11
349.5481884070669
 21
226.5248248563764
 31
0.0
 11
349.610837238881
 21
226.0702552058419
 31
0.0
 11
349.714702263063
 21
225.6233096290459
 31
0.0
 11
349.8591779789579
 21
225.1858011811744
 31
0.0
 11
350.0426378919076
 21
224.7631777317848
 31
0.0
 11
350.2645804894141
 21
224.356147897845
 31
0.0
 11
350.5219768009033
 21
223.9705907424691
 31
0.0
 11
350.8146054258203
 21
223.6065259150414
 31
0.0
 11
351.1380957071863
 21
223.2696259064991
 31
0.0
 11
351.4924289305955
 21
222.9596697284205
 31
0.0
 11
351.8722277105277
 21
222.681548356879
 31
0.0
 11
352.2773834925457
 21
222.4351441292656
 31
0.0
 11
352.7020438166303
 21
222.2241762078209
 31
0.0
 11
353.1456008634442
 21
222.0487770855858
 31
0.0
 11
353.602335101905
 21
221.9113532161668
 31
0.0
 11
354.0707369025827
 21
221.8122070283071
 31
0.0
 11
354.5457755183147
 21
221.7525410314805
 31
0.0
 11
355.024759871932
 21
221.7325519008714
 31
0.0
 11
355.5037442255493
 21
221.7525410314806
 31
0.0
 11
355.9787828412814
 21
221.8122070283071
 31
0.0
 11
356.4471846419591
 21
221.9113532161668
 31
0.0
 11
356.90391888042
 21
222.0487770855858
 31
0.0
 11
357.3474759272338
 21
222.2241762078209
 31
0.0
 11
357.7721362513185
 21
222.4351441292655
 31
0.0
 11
358.1772920333365
 21
222.681548356879
 31
0.0
 11
358.5570908132688
 21
222.9596697284205
 31
0.0
 11
358.9114240366778
 21
223.2696259064991
 31
0.0
 11
359.2349143180438
 21
223.6065259150414
 31
0.0
 11
359.5275429429607
 21
223.9705907424691
 31
0.0
 11
359.78493925445
 21
224.356147897845
 31
0.0
 11
360.0068818519565
 21
224.7631777317848
 31
0.0
 11
360.1903417649062
 21
225.1858011811744
 31
0.0
 11
360.3348174808011
 21
225.623309629046
 31
0.0
 11
360.4386825049833
 21
226.0702552058419
 31
0.0
 11
360.5013313367973
 21
226.5248248563764
 31
0.0
 11
360.52232168414
 21
226.9825519008714
 31
0.0
 11
360.5013313367972
 21
227.4402789453665
 31
0.0
  0
SPLINE
  5
1B9
330
4F
100
AcDbEntity
  8
0
  6
Continuous
 62
     7
100
AcDbSpline
210
0.0
220
0.0
230
1.0
 70
    11
 71
     3
 72
    79
 73
    75
 74
    73
 42
0.0000000001
 43
0.0000000001
 44
0.00000001
 40
0.0
 40
0.0
 40
0.0
 40
0.0
 40
0.4815192408818337
 40
0.9630116053506785
 40
1.448691283414248
 40
1.934322654071884
 40
2.426300900558974
 40
2.918218276187062
 40
3.417812225581199
 40
3.917342266063856
 40
4.424915325560578
 40
4.932429525522906
 40
5.447388376080082
 40
5.962299204885539
 40
6.48320104808229
 40
7.00406930678996
 40
7.528811402517182
 40
8.053536295880125
 40
8.579599951766939
 40
9.105663607653753
 40
9.63038850101678
 40
10.155130596744
 40
10.67599885545159
 40
11.1969006986484
 40
11.71181152745389
 40
12.22677037801114
 40
12.73428457797345
 40
13.24185763747017
 40
13.74138767795281
 40
14.24098162734694
 40
14.73289900297502
 40
15.22487724946211
 40
15.71050862011982
 40
16.19618829818332
 40
16.67768066265215
 40
17.15919990353399
 40
17.63925644119905
 40
18.11931297886412
 40
18.60083221974589
 40
19.08232458421467
 40
19.56800426227807
 40
20.05363563293573
 40
20.54561387942291
 40
21.03753125505105
 40
21.53712520444535
 40
22.03665524492799
 40
22.5442283044246
 40
23.05174250438697
 40
23.56670135494411
 40
24.08161218374962
 40
24.60251402694639
 40
25.12338228565403
 40
25.64812438138127
 40
26.17284927474429
 40
26.6989129306311
 40
27.22497658651791
 40
27.74970147988082
 40
28.27444357560809
 40
28.79531183431573
 40
29.31621367751247
 40
29.83112450631788
 40
30.34608335687503
 40
30.85359755683739
 40
31.36117061633414
 40
31.86070065681678
 40
32.36029460621104
 40
32.85221198183916
 40
33.34419022832631
 40
33.829821598984
 40
34.3155012770474
 40
34.79699364151614
 40
35.27851288239797
 40
35.75856942006303
 40
36.23862595772804
 40
36.23862595772804
 40
36.23862595772804
 40
36.23862595772804
 10
168.9123249963857
 20
366.7530505074429
 30
0.0
 10
168.8925744138981
 20
366.5936380747496
 30
0.0
 10
168.8530743513187
 20
366.2748221071057
 30
0.0
 10
168.7357130536475
 20
365.8052661289833
 30
0.0
 10
168.5777056307136
 20
365.3469134141511
 30
0.0
 10
168.3748460103269
 20
364.9024980288532
 30
0.0
 10
168.1313247988051
 20
364.4767011136366
 30
0.0
 10
167.8470567019708
 20
364.0712533670771
 30
0.0
 10
167.5262057521821
 20
363.6908130989611
 30
0.0
 10
167.1691799118753
 20
363.3366799198852
 30
0.0
 10
166.7808990464208
 20
363.0129960171065
 30
0.0
 10
166.3620976374932
 20
362.7208667608105
 30
0.0
 10
165.9181987069783
 20
362.4635983515131
 30
0.0
 10
165.4504332052494
 20
362.2422243322318
 30
0.0
 10
164.964331667095
 20
362.0590421728934
 30
0.0
 10
164.4618338310442
 20
361.915005603527
 30
0.0
 10
163.9481743100218
 20
361.8113884413064
 30
0.0
 10
163.4261667859325
 20
361.7489320424742
 30
0.0
 10
162.9004123809588
 20
361.7280102303492
 30
0.0
 10
162.3746579759753
 20
361.7489320424737
 30
0.0
 10
161.8526504519154
 20
361.8113884413086
 30
0.0
 10
161.3389909307853
 20
361.9150056035189
 30
0.0
 10
160.8364930951329
 20
362.0590421729232
 30
0.0
 10
160.3503915554997
 20
362.2422243321198
 30
0.0
 10
159.8826260592292
 20
362.4635983519261
 30
0.0
 10
159.438727108488
 20
362.7208667592771
 30
0.0
 10
159.0199257740045
 20
363.0129960227377
 30
0.0
 10
158.6316446330011
 20
363.3366798989963
 30
0.0
 10
158.2746198055202
 20
363.6908131755525
 30
0.0
 10
157.9537651073096
 20
364.071253082898
 30
0.0
 10
157.6695107950961
 20
364.4767021561722
 30
0.0
 10
157.4259385200615
 20
364.9024941567287
 30
0.0
 10
157.2232671336536
 20
365.3469276587993
 30
0.0
 10
157.0645610676285
 20
365.8052131320094
 30
0.0
 10
156.9497858199796
 20
366.2750180071727
 30
0.0
 10
156.880970585993
 20
366.7518358348752
 30
0.0
 10
156.8576559667265
 20
367.2325519008713
 30
0.0
 10
156.880970585993
 20
367.7132679668677
 30
0.0
 10
156.9497858199795
 20
368.1900857945699
 30
0.0
 10
157.0645610676286
 20
368.6598906697332
 30
0.0
 10
157.2232671336535
 20
369.1181761429434
 30
0.0
 10
157.4259385200616
 20
369.5626096450138
 30
0.0
 10
157.6695107950962
 20
369.9884016455704
 30
0.0
 10
157.9537651073096
 20
370.3938507188449
 30
0.0
 10
158.2746198055201
 20
370.7742906261902
 30
0.0
 10
158.631644633001
 20
371.1284239027467
 30
0.0
 10
159.0199257740047
 20
371.4521077790049
 30
0.0
 10
159.4387271084879
 20
371.7442370424659
 30
0.0
 10
159.8826260592292
 20
372.0015054498164
 30
0.0
 10
160.3503915554997
 20
372.2228794696229
 30
0.0
 10
160.8364930951329
 20
372.4060616288193
 30
0.0
 10
161.3389909307853
 20
372.5500981982237
 30
0.0
 10
161.8526504519153
 20
372.6537153604344
 30
0.0
 10
162.3746579759757
 20
372.7161717592691
 30
0.0
 10
162.9004123809573
 20
372.7370935713934
 30
0.0
 10
163.4261667859381
 20
372.7161717592691
 30
0.0
 10
163.9481743100007
 20
372.6537153604341
 30
0.0
 10
164.4618338311228
 20
372.5500981982243
 30
0.0
 10
164.9643316668038
 20
372.4060616288172
 30
0.0
 10
165.450433206331
 20
372.222879469631
 30
0.0
 10
165.9181987029927
 20
372.0015054497868
 30
0.0
 10
166.362097652284
 20
371.7442370425758
 30
0.0
 10
166.780898992104
 20
371.4521077786012
 30
0.0
 10
167.1691801133544
 20
371.1284239042442
 30
0.0
 10
167.5262050134415
 20
370.7742906206996
 30
0.0
 10
167.8470594429403
 20
370.3938507392167
 30
0.0
 10
168.1313147433268
 20
369.9884015708342
 30
0.0
 10
168.3748833577892
 20
369.5626099225935
 30
0.0
 10
168.5775682380615
 20
369.1181751217921
 30
0.0
 10
168.7362242206997
 20
368.6598944689091
 30
0.0
 10
168.8511848536271
 20
368.1900717511494
 30
0.0
 10
168.9193101333036
 20
367.7133203288082
 30
0.0
 10
168.9451923632878
 20
367.2323571404811
 30
0.0
 10
168.9232807853531
 20
366.9128193851223
 30
0.0
 10
168.9123249963857
 20
366.753050507443
 30
0.0
 11
168.9123249963857
 21
366.7530505074429
 31
0.0
 11
168.8434438664511
 21
366.276483440517
 31
0.0
 11
168.7294008728914
 21
365.8086917211999
 31
0.0
 11
168.5704458427085
 21
365.3497603014175
 31
0.0
 11
168.3691927981111
 21
364.9077930625783
 31
0.0
 11
168.1249414230947
 21
364.4807288275748
 31
0.0
 11
167.8427766561009
 21
364.0777824927955
 31
0.0
 11
167.5207527073027
 21
363.6958208577171
 31
0.0
 11
167.1662799070166
 21
363.3438559515092
 31
0.0
 11
166.7764773576014
 21
363.0187646055828
 31
0.0
 11
166.3603520969593
 21
362.7282298733753
 31
0.0
 11
165.9148638466929
 21
362.469922233841
 31
0.0
 11
165.4495183841274
 21
362.249498183223
 31
0.0
 11
164.96210545411
 21
362.0657391946057
 31
0.0
 11
164.4614348260627
 21
361.9220984443298
 31
0.0
 11
163.9470614857945
 21
361.8182989556529
 31
0.0
 11
163.4260604817342
 21
361.755895690651
 31
0.0
 11
162.9004123809572
 21
361.7349900886633
 31
0.0
 11
162.3747642801801
 21
361.755895690651
 31
0.0
 11
161.8537632761197
 21
361.8182989556529
 31
0.0
 11
161.3393899358516
 21
361.9220984443298
 31
0.0
 11
160.8387193078043
 21
362.0657391946056
 31
0.0
 11
160.3513063777868
 21
362.249498183223
 31
0.0
 11
159.8859609152214
 21
362.469922233841
 31
0.0
 11
159.4404726649549
 21
362.7282298733753
 31
0.0
 11
159.0243474043128
 21
363.0187646055828
 31
0.0
 11
158.6345448548975
 21
363.3438559515092
 31
0.0
 11
158.2800720546115
 21
363.6958208577172
 31
0.0
 11
157.9580481058134
 21
364.0777824927955
 31
0.0
 11
157.6758833388194
 21
364.4807288275748
 31
0.0
 11
157.4316319638031
 21
364.9077930625783
 31
0.0
 11
157.2303789192058
 21
365.3497603014175
 31
0.0
 11
157.0714238890229
 21
365.8086917211999
 31
0.0
 11
156.9573808954632
 21
366.276483440517
 31
0.0
 11
156.8884997655286
 21
366.7530505074429
 31
0.0
 11
156.8654196213534
 21
367.2325519008714
 31
0.0
 11
156.8884997655286
 21
367.7120532942998
 31
0.0
 11
156.9573808954631
 21
368.1886203612257
 31
0.0
 11
157.0714238890229
 21
368.6564120805428
 31
0.0
 11
157.2303789192058
 21
369.115343500325
 31
0.0
 11
157.4316319638031
 21
369.5573107391642
 31
0.0
 11
157.6758833388194
 21
369.9843749741679
 31
0.0
 11
157.9580481058134
 21
370.3873213089472
 31
0.0
 11
158.2800720546115
 21
370.7692829440257
 31
0.0
 11
158.6345448548975
 21
371.1212478502337
 31
0.0
 11
159.0243474043128
 21
371.4463391961599
 31
0.0
 11
159.4404726649549
 21
371.7368739283676
 31
0.0
 11
159.8859609152213
 21
371.9951815679017
 31
0.0
 11
160.3513063777868
 21
372.2156056185197
 31
0.0
 11
160.8387193078042
 21
372.399364607137
 31
0.0
 11
161.3393899358516
 21
372.5430053574129
 31
0.0
 11
161.8537632761197
 21
372.6468048460899
 31
0.0
 11
162.3747642801801
 21
372.7092081110918
 31
0.0
 11
162.9004123809572
 21
372.7301137130795
 31
0.0
 11
163.4260604817342
 21
372.7092081110918
 31
0.0
 11
163.9470614857945
 21
372.6468048460899
 31
0.0
 11
164.4614348260627
 21
372.5430053574129
 31
0.0
 11
164.96210545411
 21
372.399364607137
 31
0.0
 11
165.4495183841274
 21
372.2156056185197
 31
0.0
 11
165.9148638466928
 21
371.9951815679017
 31
0.0
 11
166.3603520969592
 21
371.7368739283676
 31
0.0
 11
166.7764773576014
 21
371.44633919616
 31
0.0
 11
167.1662799070167
 21
371.1212478502336
 31
0.0
 11
167.5207527073027
 21
370.7692829440257
 31
0.0
 11
167.8427766561009
 21
370.3873213089472
 31
0.0
 11
168.1249414230947
 21
369.9843749741678
 31
0.0
 11
168.3691927981111
 21
369.5573107391642
 31
0.0
 11
168.5704458427085
 21
369.115343500325
 31
0.0
 11
168.7294008728914
 21
368.6564120805428
 31
0.0
 11
168.8434438664511
 21
368.1886203612257
 31
0.0
 11
168.9123249963857
 21
367.7120532942998
 31
0.0
 11
168.9354051405609
 21
367.2325519008714
 31
0.0
 11
168.9123249963857
 21
366.753050507443
 31
0.0
  0
SPLINE
  5
1BA
330
4F
100
AcDbEntity
  8
0
  6
Continuous
 62
     7
100
AcDbSpline
210
0.0
220
0.0
230
1.0
 70
     8
 71
     3
 72
    43
 73
    39
 74
    37
 42
0.0000000001
 43
0.0000000001
 44
0.00000001
 40
0.0
 40
0.0
 40
0.0
 40
0.0
 40
0.3421136874154889
 40
0.6844009189472502
 40
1.11648172609835
 40
1.548648645330752
 40
1.947256316586431
 40
2.346011193100092
 40
2.7056638143433
 40
3.065565397096772
 40
3.384442542504389
 40
3.703732739930564
 40
3.985257399892763
 40
4.267387622466084
 40
4.521844154139478
 40
4.776825042406986
 40
5.021430945511762
 40
5.266036848616533
 40
5.521017736884084
 40
5.775474268557503
 40
6.057604491130896
 40
6.339129151093073
 40
6.658419348519248
 40
6.97729649392683
 40
7.337198076680302
 40
7.696850697923523
 40
8.095605574437236
 40
8.494213245692777
 40
8.926380164925007
 40
9.358460972076232
 40
9.816094177969896
 40
10.27367944651719
 40
10.74720368571691
 40
11.22070642967095
 40
11.69962121652376
 40
12.17853600337656
 40
12.56855222694648
 40
12.95847052683876
 40
12.95847052683876
 40
12.95847052683876
 40
12.95847052683876
 10
150.4565705836535
 20
368.8829247531082
 30
0.0
 10
150.4755448402402
 20
368.9953843374218
 30
0.0
 10
150.5135029784905
 20
369.2203605534571
 30
0.0
 10
150.5915647671058
 20
369.5843649828611
 30
0.0
 10
150.6925364474887
 20
369.9738215874306
 30
0.0
 10
150.819751806683
 20
370.3753386597424
 30
0.0
 10
150.9661795136633
 20
370.7583707593006
 30
0.0
 10
151.1259523699538
 20
371.1097245402682
 30
0.0
 10
151.3038884194554
 20
371.4376251217751
 30
0.0
 10
151.4917448519931
 20
371.7288594836954
 30
0.0
 10
151.6962995597953
 20
371.9917811758467
 30
0.0
 10
151.9076148450283
 20
372.214714415448
 30
0.0
 10
152.1334473011952
 20
372.4045072717761
 30
0.0
 10
152.3639219585091
 20
372.5518967544712
 30
0.0
 10
152.6050577206028
 20
372.6615677800032
 30
0.0
 10
152.8492374782985
 20
372.7259498571655
 30
0.0
 10
153.0974891647009
 20
372.7494985700987
 30
0.0
 10
153.3457408511168
 20
372.7259498571668
 30
0.0
 10
153.5899206087701
 20
372.6615677799975
 30
0.0
 10
153.8310563710262
 20
372.5518967544938
 30
0.0
 10
154.0615310276718
 20
372.4045072716814
 30
0.0
 10
154.2873634864927
 20
372.2147144158193
 30
0.0
 10
154.4986787605388
 20
371.9917811742544
 30
0.0
 10
154.7032335129135
 20
371.7288594899263
 30
0.0
 10
154.8910897584375
 20
371.4376250951825
 30
0.0
 10
155.0690265480768
 20
371.1097246435797
 30
0.0
 10
155.2287963525531
 20
370.7583703269772
 30
0.0
 10
155.3752360061473
 20
370.3753403242129
 30
0.0
 10
155.5024031692031
 20
369.9738147928211
 30
0.0
 10
155.6132142163659
 20
369.5471584497079
 30
0.0
 10
155.7039158483309
 20
369.1071220257002
 30
0.0
 10
155.7759535787199
 20
368.6496839319983
 30
0.0
 10
155.8273149985962
 20
368.1841401656346
 30
0.0
 10
155.8585567108141
 20
367.7097057590577
 30
0.0
 10
155.8689289830869
 20
367.232545079759
 30
0.0
 10
155.8589429433665
 20
366.7832545458768
 30
0.0
 10
155.8338879663779
 20
366.3642483892456
 30
0.0
 10
155.806285476429
 20
366.1057095021422
 30
0.0
 10
155.7924859642521
 20
365.9764562888495
 30
0.0
 11
150.4565705836535
 21
368.8829247531082
 31
0.0
 11
150.5159654921684
 21
369.2198431704729
 31
0.0
 11
150.5873699368767
 21
369.5545997299988
 31
0.0
 11
150.6962121383475
 21
369.9727470713598
 31
0.0
 11
150.8272591359776
 21
370.3845661220253
 31
0.0
 11
150.9699476720512
 21
370.7567596970062
 31
0.0
 11
151.1357592523693
 21
371.1194054902753
 31
0.0
 11
151.3077662895587
 21
371.4352592335243
 31
0.0
 11
151.5037550423925
 21
371.7371160837549
 31
0.0
 11
151.700169125277
 21
371.9883214616988
 31
0.0
 11
151.9207045537415
 21
372.2192118143869
 31
0.0
 11
152.1369403854887
 21
372.3994843836686
 31
0.0
 11
152.3751173080263
 21
372.5507100959658
 31
0.0
 11
152.6073378192755
 21
372.6547377877906
 31
0.0
 11
152.8538670677778
 21
372.7198421886756
 31
0.0
 11
153.0974891647031
 21
372.741758432045
 31
0.0
 11
153.3411112616284
 21
372.7198421886757
 31
0.0
 11
153.5876405101307
 21
372.6547377877906
 31
0.0
 11
153.81986102138
 21
372.5507100959658
 31
0.0
 11
154.0580379439176
 21
372.3994843836686
 31
0.0
 11
154.2742737756648
 21
372.2192118143869
 31
0.0
 11
154.4948092041293
 21
371.9883214616988
 31
0.0
 11
154.6912232870138
 21
371.7371160837549
 31
0.0
 11
154.8872120398475
 21
371.4352592335243
 31
0.0
 11
155.059219077037
 21
371.1194054902753
 31
0.0
 11
155.2250306573551
 21
370.7567596970061
 31
0.0
 11
155.3677191934288
 21
370.3845661220254
 31
0.0
 11
155.4987661910588
 21
369.9727470713601
 31
0.0
 11
155.6076083925296
 21
369.5545997299989
 31
0.0
 11
155.7003840292712
 21
369.1064693557062
 31
0.0
 11
155.77168474718
 21
368.6544732433146
 31
0.0
 11
155.8238455465582
 21
368.1838306441824
 31
0.0
 11
155.8549863899978
 21
367.7113530294726
 31
0.0
 11
155.8654196213533
 21
367.2325519008714
 31
0.0
 11
155.8549863899978
 21
366.7537507722702
 31
0.0
 11
155.830865411119
 21
366.3644811574457
 31
0.0
 11
155.7924859642521
 21
365.9764562888495
 31
0.0
  0
ARC
  5
1BB
330
4F
100
AcDbEntity
  8
1
  6
Continuous
 62
     7
100
AcDbCircle
 10
360.5247598719321
 20
210.2325519008714
 30
0.0
 40
0.5
100
AcDbArc
 50
-90.0
 51
0.0
  0
ARC
  5
1BC
330
4F
100
AcDbEntity
  8
1
  6
Continuous
 62
     7
100
AcDbCircle
 10
349.5247598719321
 20
210.2325519008714
 30
0.0
 40
0.5
100
AcDbArc
 50
180.0
 51
-90.0
  0
ARC
  5
1BD
330
4F
100
AcDbEntity
  8
1
  6
Continuous
 62
     7
100
AcDbCircle
 10
360.5247598719321
 20
232.2325519008714
 30
0.0
 40
0.5
100
AcDbArc
 50
0.0
 51
90.0
  0
ARC
  5
1BE
330
4F
100
AcDbEntity
  8
1
  6
Continuous
 62
     7
100
AcDbCircle
 10
349.5247598719321
 20
232.2325519008714
 30
0.0
 40
0.5
100
AcDbArc
 50
90.0
 51
180.0
  0
ENDBLK
  5
51
330
4F
100
AcDbEntity
  8
0
100
AcDbBlockEnd
  0
BLOCK
  5
54
330
52
100
AcDbEntity
  8
0
100
AcDbBlockBegin
  2
B41A-240-13
 70
     0
 71
     0
 10
150.2116477890686
 20
329.7325519008714
 30
0.0
  3
B41A-240-13
  1

  0
INSERT
  5
53
330
52
100
AcDbEntity
  8
1
100
AcDbBlockReference
  2
34-188-M2K
 10
204.403753362184
 20
170.2727240982821
 30
0.0
  0
LINE
  5
1BF
330
52
100
AcDbEntity
  8
1
  6
PHANTOM
 62
     4
100
AcDbLine
 10
364.0247598719321
 20
221.2325519008714
 30
0.0
 11
346.0247598719321
 21
221.2325519008714
 31
0.0
  0
ENDBLK
  5
55
330
52
100
AcDbEntity
  8
0
100
AcDbBlockEnd
  0
BLOCK
  5
57
330
56
100
AcDbEntity
  8
0
100
AcDbBlockBegin
  2
_J__A4
 70
     0
 71
     0
 10
0.0
 20
0.0
 30
0.0
  3
_J__A4
  1

  0
POINT
  5
1C0
330
56
100
AcDbEntity
  8
1
 62
     4
100
AcDbPoint
 10
34.0
 20
34.00000000000001
 30
0.0
  0
POINT
  5
1C1
330
56
100
AcDbEntity
  8
1
 62
     4
100
AcDbPoint
 10
57.0
 20
12.25
 30
0.0
  0
POINT
  5
1C2
330
56
100
AcDbEntity
  8
1
 62
     4
100
AcDbPoint
 10
57.0
 20
20.75000000000001
 30
0.0
  0
POINT
  5
1C3
330
56
100
AcDbEntity
  8
1
 62
     4
100
AcDbPoint
 10
57.0
 20
24.75000000000001
 30
0.0
  0
POINT
  5
1C4
330
56
100
AcDbEntity
  8
1
 62
     4
100
AcDbPoint
 10
57.0
 20
16.25
 30
0.0
  0
POINT
  5
1C5
330
56
100
AcDbEntity
  8
1
 62
     4
100
AcDbPoint
 10
157.5
 20
19.00000000000001
 30
0.0
  0
POINT
  5
1C6
330
56
100
AcDbEntity
  8
1
 62
     4
100
AcDbPoint
 10
47.5
 20
282.0000000000003
 30
0.0
  0
POINT
  5
1C7
330
56
100
AcDbEntity
  8
1
 62
     4
100
AcDbPoint
 10
57.0
 20
22.75000000000001
 30
0.0
  0
POINT
  5
1C8
330
56
100
AcDbEntity
  8
1
 62
     4
100
AcDbPoint
 10
57.0
 20
14.25
 30
0.0
  0
POINT
  5
1C9
330
56
100
AcDbEntity
  8
1
 62
     4
100
AcDbPoint
 10
157.5
 20
12.5
 30
0.0
  0
POINT
  5
1CA
330
56
100
AcDbEntity
  8
1
 62
     4
100
AcDbPoint
 10
163.25
 20
12.5
 30
0.0
  0
POINT
  5
1CB
330
56
100
AcDbEntity
  8
1
 62
     4
100
AcDbPoint
 10
151.75
 20
12.5
 30
0.0
  0
POINT
  5
1CC
330
56
100
AcDbEntity
  8
1
 62
     4
100
AcDbPoint
 10
134.75
 20
12.5
 30
0.0
  0
POINT
  5
1CD
330
56
100
AcDbEntity
  8
1
 62
     4
100
AcDbPoint
 10
146.25
 20
12.5
 30
0.0
  0
POINT
  5
1CE
330
56
100
AcDbEntity
  8
1
 62
     4
100
AcDbPoint
 10
140.5
 20
12.5
 30
0.0
  0
POINT
  5
1CF
330
56
100
AcDbEntity
  8
1
 62
     4
100
AcDbPoint
 10
140.5
 20
19.00000000000001
 30
0.0
  0
POINT
  5
1D0
330
56
100
AcDbEntity
  8
1
 62
     4
100
AcDbPoint
 10
117.75
 20
12.5
 30
0.0
  0
POINT
  5
1D1
330
56
100
AcDbEntity
  8
1
 62
     4
100
AcDbPoint
 10
129.25
 20
12.5
 30
0.0
  0
POINT
  5
1D2
330
56
100
AcDbEntity
  8
1
 62
     4
100
AcDbPoint
 10
123.5
 20
12.5
 30
0.0
  0
POINT
  5
1D3
330
56
100
AcDbEntity
  8
1
 62
     4
100
AcDbPoint
 10
123.5
 20
19.00000000000001
 30
0.0
  0
POINT
  5
1D4
330
56
100
AcDbEntity
  8
1
 62
     4
100
AcDbPoint
 10
100.75
 20
12.5
 30
0.0
  0
POINT
  5
1D5
330
56
100
AcDbEntity
  8
1
 62
     4
100
AcDbPoint
 10
112.25
 20
12.5
 30
0.0
  0
POINT
  5
1D6
330
56
100
AcDbEntity
  8
1
 62
     4
100
AcDbPoint
 10
106.5
 20
12.5
 30
0.0
  0
POINT
  5
1D7
330
56
100
AcDbEntity
  8
1
 62
     4
100
AcDbPoint
 10
106.5
 20
19.00000000000001
 30
0.0
  0
POINT
  5
1D8
330
56
100
AcDbEntity
  8
1
 62
     4
100
AcDbPoint
 10
85.25
 20
17.0
 30
0.0
  0
POINT
  5
1D9
330
56
100
AcDbEntity
  8
1
 62
     4
100
AcDbPoint
 10
93.75
 20
17.0
 30
0.0
  0
LINE
  5
1DA
330
56
100
AcDbEntity
  8
1
  6
Continuous
 62
     2
100
AcDbLine
 10
81.0
 20
27.00000000000001
 30
0.0
 11
81.0
 21
10.0
 31
0.0
  0
LINE
  5
1DB
330
56
100
AcDbEntity
  8
1
  6
DOT_CENTER
 62
     2
100
AcDbLine
 10
187.0
 20
26.50000000000001
 30
0.0
 11
187.0
 21
20.50000000000001
 31
0.0
  0
LINE
  5
1DC
330
56
100
AcDbEntity
  8
1
  6
DOT_CENTER
 62
     2
100
AcDbLine
 10
184.0
 20
23.50000000000001
 30
0.0
 11
197.0
 21
23.50000000000001
 31
0.0
  0
LINE
  5
1DD
330
56
100
AcDbEntity
  8
1
  6
Continuous
 62
     7
100
AcDbLine
 10
196.0
 20
21.50000000000001
 30
0.0
 11
191.0
 21
22.30000000000001
 31
0.0
  0
LINE
  5
1DE
330
56
100
AcDbEntity
  8
1
  6
Continuous
 62
     7
100
AcDbLine
 10
196.0
 20
25.50000000000001
 30
0.0
 11
196.0
 21
21.50000000000001
 31
0.0
  0
LINE
  5
1DF
330
56
100
AcDbEntity
  8
1
  6
Continuous
 62
     7
100
AcDbLine
 10
191.0
 20
24.70000000000001
 30
0.0
 11
196.0
 21
25.50000000000001
 31
0.0
  0
LINE
  5
1E0
330
56
100
AcDbEntity
  8
1
  6
Continuous
 62
     7
100
AcDbLine
 10
191.0
 20
24.70000000000001
 30
0.0
 11
191.0
 21
22.30000000000001
 31
0.0
  0
LINE
  5
1E1
330
56
100
AcDbEntity
  8
1
  6
Continuous
 62
     2
100
AcDbLine
 10
33.0
 20
27.0
 30
0.0
 11
33.0
 21
10.0
 31
0.0
  0
LINE
  5
1E2
330
56
100
AcDbEntity
  8
1
  6
Continuous
 62
     2
100
AcDbLine
 10
25.0
 20
18.50000000000001
 30
0.0
 11
81.0
 21
18.50000000000001
 31
0.0
  0
LINE
  5
1E3
330
56
100
AcDbEntity
  8
1
  6
Continuous
 62
     7
100
AcDbLine
 10
200.0
 20
287.0000000000003
 30
0.0
 11
105.0
 21
287.0000000000003
 31
0.0
  0
LINE
  5
1E4
330
56
100
AcDbEntity
  8
1
  6
Continuous
 62
     7
100
AcDbLine
 10
200.0
 20
10.0
 30
0.0
 11
200.0
 21
148.5
 31
0.0
  0
LINE
  5
1E5
330
56
100
AcDbEntity
  8
1
  6
Continuous
 62
     7
100
AcDbLine
 10
25.0
 20
10.0
 30
0.0
 11
105.0
 21
10.0
 31
0.0
  0
LINE
  5
1E6
330
56
100
AcDbEntity
  8
1
  6
PHANTOM
 62
     4
100
AcDbLine
 10
0.0
 20
297.0
 30
0.0
 11
0.0
 21
0.0
 31
0.0
  0
LINE
  5
1E7
330
56
100
AcDbEntity
  8
1
  6
PHANTOM
 62
     4
100
AcDbLine
 10
210.0
 20
297.0
 30
0.0
 11
0.0
 21
297.0
 31
0.0
  0
LINE
  5
1E8
330
56
100
AcDbEntity
  8
1
  6
PHANTOM
 62
     4
100
AcDbLine
 10
210.0
 20
0.0
 30
0.0
 11
210.0
 21
297.0
 31
0.0
  0
LINE
  5
1E9
330
56
100
AcDbEntity
  8
1
  6
PHANTOM
 62
     4
100
AcDbLine
 10
0.0
 20
0.0
 30
0.0
 11
210.0
 21
0.0
 31
0.0
  0
LINE
  5
1EA
330
56
100
AcDbEntity
  8
1
  6
Continuous
 62
     7
100
AcDbLine
 10
25.0
 20
41.0
 30
0.0
 11
200.0
 21
41.0
 31
0.0
  0
LINE
  5
1EB
330
56
100
AcDbEntity
  8
1
  6
Continuous
 62
     7
100
AcDbLine
 10
200.0
 20
27.00000000000001
 30
0.0
 11
25.0
 21
27.00000000000001
 31
0.0
  0
LINE
  5
1EC
330
56
100
AcDbEntity
  8
1
  6
Continuous
 62
     2
100
AcDbLine
 10
33.0
 20
41.00000000000001
 30
0.0
 11
33.0
 21
27.0
 31
0.0
  0
LINE
  5
1ED
330
56
100
AcDbEntity
  8
1
  6
Continuous
 62
     2
100
AcDbLine
 10
55.0
 20
287.0000000000003
 30
0.0
 11
55.0
 21
277.0000000000003
 31
0.0
  0
LINE
  5
1EE
330
56
100
AcDbEntity
  8
1
  6
Continuous
 62
     2
100
AcDbLine
 10
40.0
 20
287.0000000000003
 30
0.0
 11
40.0
 21
277.0000000000003
 31
0.0
  0
LINE
  5
1EF
330
56
100
AcDbEntity
  8
1
  6
Continuous
 62
     7
100
AcDbLine
 10
25.0
 20
10.0
 30
0.0
 11
25.0
 21
148.5
 31
0.0
  0
LINE
  5
1F0
330
56
100
AcDbEntity
  8
1
  6
Continuous
 62
     2
100
AcDbLine
 10
55.0
 20
277.0000000000003
 30
0.0
 11
25.0
 21
277.0000000000003
 31
0.0
  0
LINE
  5
1F1
330
56
100
AcDbEntity
  8
1
  6
Continuous
 62
     2
100
AcDbLine
 10
166.0
 20
27.00000000000001
 30
0.0
 11
166.0
 21
10.0
 31
0.0
  0
LINE
  5
1F2
330
56
100
AcDbEntity
  8
1
  6
Continuous
 62
     2
100
AcDbLine
 10
132.0
 20
27.00000000000001
 30
0.0
 11
132.0
 21
9.99999999999999
 31
0.0
  0
LINE
  5
1F3
330
56
100
AcDbEntity
  8
1
  6
Continuous
 62
     2
100
AcDbLine
 10
149.0
 20
27.00000000000001
 30
0.0
 11
149.0
 21
10.0
 31
0.0
  0
LINE
  5
1F4
330
56
100
AcDbEntity
  8
1
  6
Continuous
 62
     2
100
AcDbLine
 10
115.0
 20
27.00000000000001
 30
0.0
 11
115.0
 21
9.99999999999999
 31
0.0
  0
LINE
  5
1F5
330
56
100
AcDbEntity
  8
1
  6
Continuous
 62
     2
100
AcDbLine
 10
98.0
 20
27.00000000000001
 30
0.0
 11
98.0
 21
9.99999999999999
 31
0.0
  0
LINE
  5
1F6
330
56
100
AcDbEntity
  8
1
  6
Continuous
 62
     2
100
AcDbLine
 10
166.0
 20
20.00000000000001
 30
0.0
 11
200.0
 21
20.00000000000001
 31
0.0
  0
LINE
  5
1F7
330
56
100
AcDbEntity
  8
1
  6
Continuous
 62
     2
100
AcDbLine
 10
105.0
 20
287.0000000000003
 30
0.0
 11
105.0
 21
292.0000000000003
 31
0.0
  0
LINE
  5
1F8
330
56
100
AcDbEntity
  8
1
  6
Continuous
 62
     7
100
AcDbLine
 10
105.0
 20
287.0000000000003
 30
0.0
 11
25.0
 21
287.0000000000003
 31
0.0
  0
LINE
  5
1F9
330
56
100
AcDbEntity
  8
1
  6
Continuous
 62
     2
100
AcDbLine
 10
25.0
 20
148.5
 30
0.0
 11
20.0
 21
148.5
 31
0.0
  0
LINE
  5
1FA
330
56
100
AcDbEntity
  8
1
  6
Continuous
 62
     7
100
AcDbLine
 10
25.0
 20
148.5
 30
0.0
 11
25.0
 21
287.0000000000003
 31
0.0
  0
LINE
  5
1FB
330
56
100
AcDbEntity
  8
1
  6
Continuous
 62
     2
100
AcDbLine
 10
200.0
 20
148.5
 30
0.0
 11
205.0
 21
148.5
 31
0.0
  0
LINE
  5
1FC
330
56
100
AcDbEntity
  8
1
  6
Continuous
 62
     7
100
AcDbLine
 10
200.0
 20
148.5
 30
0.0
 11
200.0
 21
287.0000000000003
 31
0.0
  0
LINE
  5
1FD
330
56
100
AcDbEntity
  8
1
  6
Continuous
 62
     2
100
AcDbLine
 10
105.0
 20
10.0
 30
0.0
 11
105.0
 21
5.0
 31
0.0
  0
LINE
  5
1FE
330
56
100
AcDbEntity
  8
1
  6
Continuous
 62
     7
100
AcDbLine
 10
105.0
 20
10.0
 30
0.0
 11
200.0
 21
10.0
 31
0.0
  0
CIRCLE
  5
1FF
330
56
100
AcDbEntity
  8
1
  6
DOT_CENTER
 62
     7
100
AcDbCircle
 10
89.5
 20
18.0
 30
0.0
 40
0.1000000000000227
  0
CIRCLE
  5
200
330
56
100
AcDbEntity
  8
1
  6
DOT_CENTER
 62
     7
100
AcDbCircle
 10
89.5
 20
16.0
 30
0.0
 40
0.1000000000000227
  0
CIRCLE
  5
201
330
56
100
AcDbEntity
  8
1
  6
Continuous
 62
     7
100
AcDbCircle
 10
187.0
 20
23.50000000000001
 30
0.0
 40
2.0
  0
CIRCLE
  5
202
330
56
100
AcDbEntity
  8
1
  6
Continuous
 62
     7
100
AcDbCircle
 10
187.0
 20
23.50000000000001
 30
0.0
 40
1.200000000000102
  0
CIRCLE
  5
203
330
56
100
AcDbEntity
  8
1
  6
Continuous
 62
     7
100
AcDbCircle
 10
154.5
 20
12.5
 30
0.0
 40
0.3000000000000114
  0
CIRCLE
  5
204
330
56
100
AcDbEntity
  8
1
  6
Continuous
 62
     7
100
AcDbCircle
 10
160.5
 20
12.5
 30
0.0
 40
0.3000000000000114
  0
CIRCLE
  5
205
330
56
100
AcDbEntity
  8
1
  6
Continuous
 62
     7
100
AcDbCircle
 10
143.5
 20
12.5
 30
0.0
 40
0.3000000000000114
  0
CIRCLE
  5
206
330
56
100
AcDbEntity
  8
1
  6
Continuous
 62
     7
100
AcDbCircle
 10
137.5
 20
12.5
 30
0.0
 40
0.3000000000000114
  0
CIRCLE
  5
207
330
56
100
AcDbEntity
  8
1
  6
Continuous
 62
     7
100
AcDbCircle
 10
126.5
 20
12.5
 30
0.0
 40
0.2999999999999972
  0
CIRCLE
  5
208
330
56
100
AcDbEntity
  8
1
  6
Continuous
 62
     7
100
AcDbCircle
 10
120.5
 20
12.5
 30
0.0
 40
0.2999999999999972
  0
CIRCLE
  5
209
330
56
100
AcDbEntity
  8
1
  6
Continuous
 62
     7
100
AcDbCircle
 10
109.5
 20
12.5
 30
0.0
 40
0.2999999999999972
  0
CIRCLE
  5
20A
330
56
100
AcDbEntity
  8
1
  6
Continuous
 62
     7
100
AcDbCircle
 10
103.5
 20
12.5
 30
0.0
 40
0.2999999999999972
  0
MTEXT
  5
20C
330
56
100
AcDbEntity
  8
1
 62
   250
100
AcDbMText
 10
25.0
 20
5.0
 30
0.0
 40
3.5
 41
0.0
 71
     4
 72
     1
  1
備考欄の文字列 原点位置=4
  7
CONVERTER_1
 73
     1
 44
0.7202881152461
  0
MTEXT
  5
20D
330
56
100
AcDbEntity
  8
1
 62
     2
100
AcDbMText
 10
89.5
 20
24.00000000000001
 30
0.0
 40
3.5
 41
0.0
 71
     5
 72
     1
  1
尺度
  7
CONVERTER_1
 73
     1
 44
0.7202881152461
  0
MTEXT
  5
20E
330
56
100
AcDbEntity
  8
1
 62
     2
100
AcDbMText
 10
135.5
 20
25.00000000000001
 30
0.0
 40
3.0
 41
0.0
 71
     5
 72
     1
  1
製図
  7
CONVERTER_1
 73
     1
 44
0.78031212484994
  0
MTEXT
  5
20F
330
56
100
AcDbEntity
  8
1
 62
     2
100
AcDbMText
 10
152.5
 20
25.00000000000001
 30
0.0
 40
3.0
 41
0.0
 71
     5
 72
     1
  1
設計
  7
CONVERTER_1
 73
     1
 44
0.78031212484994
  0
MTEXT
  5
210
330
56
100
AcDbEntity
  8
1
 62
     2
100
AcDbMText
 10
118.5
 20
25.00000000000001
 30
0.0
 40
3.0
 41
0.0
 71
     5
 72
     1
  1
検図
  7
CONVERTER_1
 73
     1
 44
0.78031212484994
  0
MTEXT
  5
211
330
56
100
AcDbEntity
  8
1
 62
     2
100
AcDbMText
 10
175.0
 20
23.50000000000001
 30
0.0
 40
3.5
 41
0.0
 71
     5
 72
     1
  1
第三角法
  7
CONVERTER_1
 73
     1
 44
0.7202881152461
  0
MTEXT
  5
212
330
56
100
AcDbEntity
  8
1
 62
     2
100
AcDbMText
 10
101.5
 20
25.00000000000001
 30
0.0
 40
3.0
 41
0.0
 71
     5
 72
     1
  1
承認
  7
CONVERTER_1
 73
     1
 44
0.78031212484994
  0
MTEXT
  5
213
330
56
100
AcDbEntity
  8
1
 62
     2
100
AcDbMText
 10
29.0
 20
14.25
 30
0.0
 40
3.5
 41
0.0
 71
     5
 72
     1
  1
品番
  7
CONVERTER_1
 73
     1
 44
0.96038415366146
  0
MTEXT
  5
214
330
56
100
AcDbEntity
  8
1
 62
     2
100
AcDbMText
 10
29.0
 20
22.75
 30
0.0
 40
3.5
 41
0.0
 71
     5
 72
     1
  1
品名
  7
CONVERTER_1
 73
     1
 44
0.96038415366146
  0
MTEXT
  5
215
330
56
100
AcDbEntity
  8
1
 62
     2
100
AcDbMText
 10
29.0
 20
34.00000000000001
 30
0.0
 40
3.5
 41
0.0
 71
     5
 72
     1
  1
備考
  7
CONVERTER_1
 73
     1
 44
0.60024009603842
  0
MTEXT
  5
216
330
56
100
AcDbEntity
  8
1
 62
     2
100
AcDbMText
 10
32.5
 20
282.0000000000003
 30
0.0
 40
5.0
 41
0.0
 71
     5
 72
     1
  1
図番
  7
CONVERTER_1
 73
     1
 44
0.60024009603842
  0
MTEXT
  5
217
330
56
100
AcDbEntity
  8
1
 62
     7
100
AcDbMText
 10
171.5
 20
15.0
 30
0.0
 40
2.5
 41
0.0
 71
     5
 72
     1
  1
株式会社
  7
CONVERTER_1
 73
     1
 44
1.32052821128451
  0
MTEXT
  5
218
330
56
100
AcDbEntity
  8
1
 62
     7
100
AcDbMText
 10
188.5
 20
15.0
 30
0.0
 40
3.0
 41
0.0
 71
     5
 72
     1
  1
三栄水栓製作所
  7
CONVERTER_1
 73
     1
 44
1.32052821128451
  0
ENDBLK
  5
58
330
56
100
AcDbEntity
  8
0
100
AcDbBlockEnd
  0
BLOCK
  5
23E
330
237
100
AcDbEntity
  8
0
100
AcDbBlockBegin
  2
*D011
 70
     1
 71
     0
 10
0.0
 20
0.0
 30
0.0
  3
*D011
  1

  0
LINE
  5
238
330
237
100
AcDbEntity
  8
1
  6
Continuous
 62
     2
100
AcDbLine
 10
97.9004738833838
 20
364.4825519008713
 30
0.0
 11
97.9004738833838
 21
317.9825519008714
 31
0.0
  0
LINE
  5
239
330
237
100
AcDbEntity
  8
1
  6
Continuous
 62
     2
100
AcDbLine
 10
132.9004738833838
 20
364.4825519008713
 30
0.0
 11
95.9004738833838
 21
364.4825519008713
 31
0.0
  0
LINE
  5
23A
330
237
100
AcDbEntity
  8
1
  6
Continuous
 62
     2
100
AcDbLine
 10
132.9004738833838
 20
317.9825519008714
 30
0.0
 11
95.9004738833838
 21
317.9825519008714
 31
0.0
  0
SOLID
  5
23B
330
237
100
AcDbEntity
  8
1
 62
     2
100
AcDbTrace
 10
98.82204136649557
 20
357.4825519008713
 30
0.0
 11
96.97890640027202
 21
357.4825519008713
 31
0.0
 12
97.9004738833838
 22
364.4825519008713
 32
0.0
 13
97.9004738833838
 23
364.4825519008713
 33
0.0
  0
SOLID
  5
23C
330
237
100
AcDbEntity
  8
1
 62
     2
100
AcDbTrace
 10
96.97890640027202
 20
324.9825519008714
 30
0.0
 11
98.82204136649557
 21
324.9825519008714
 31
0.0
 12
97.9004738833838
 22
317.9825519008714
 32
0.0
 13
97.9004738833838
 23
317.9825519008714
 33
0.0
  0
MTEXT
  5
23D
330
237
100
AcDbEntity
  8
1
 62
     7
100
AcDbMText
 10
95.9004738833838
 20
328.7025519008714
 30
0.0
 40
7.0
 41
0.0
 71
     7
 72
     1
  1
\C7;{\Fgdt;n}\C7;47
  7
CONVERTER_2
 11
0.0
 21
1.0
 31
0.0
 73
     1
 44
0.60024009603842
  0
ENDBLK
  5
23F
330
237
100
AcDbEntity
  8
0
100
AcDbBlockEnd
  0
BLOCK
  5
249
330
242
100
AcDbEntity
  8
0
100
AcDbBlockBegin
  2
*D112
 70
     1
 71
     0
 10
0.0
 20
0.0
 30
0.0
  3
*D112
  1

  0
LINE
  5
243
330
242
100
AcDbEntity
  8
1
  6
Continuous
 62
     2
100
AcDbLine
 10
301.0247598719321
 20
155.9819782780145
 30
0.0
 11
329.024759871932
 21
155.9819782780145
 31
0.0
  0
LINE
  5
244
330
242
100
AcDbEntity
  8
1
  6
Continuous
 62
     2
100
AcDbLine
 10
301.0247598719321
 20
211.9170519008714
 30
0.0
 11
301.0247598719321
 21
153.9819782780145
 31
0.0
  0
LINE
  5
245
330
242
100
AcDbEntity
  8
1
  6
Continuous
 62
     2
100
AcDbLine
 10
329.024759871932
 20
188.9819782780146
 30
0.0
 11
329.024759871932
 21
153.9819782780145
 31
0.0
  0
SOLID
  5
246
330
242
100
AcDbEntity
  8
1
 62
     2
100
AcDbTrace
 10
308.0247598719321
 20
156.9035457611263
 30
0.0
 11
308.0247598719321
 21
155.0604107949027
 31
0.0
 12
301.0247598719321
 22
155.9819782780145
 32
0.0
 13
301.0247598719321
 23
155.9819782780145
 33
0.0
  0
SOLID
  5
247
330
242
100
AcDbEntity
  8
1
 62
     2
100
AcDbTrace
 10
322.024759871932
 20
155.0604107949027
 30
0.0
 11
322.024759871932
 21
156.9035457611263
 31
0.0
 12
329.024759871932
 22
155.9819782780145
 32
0.0
 13
329.024759871932
 23
155.9819782780145
 33
0.0
  0
MTEXT
  5
248
330
242
100
AcDbEntity
  8
1
 62
     7
100
AcDbMText
 10
309.774759871932
 20
157.9819782780145
 30
0.0
 40
7.0
 41
0.0
 71
     7
 72
     1
  1
28
  7
CONVERTER_2
 11
0.9999999999970621
 21
2.424068405545307E-6
 31
0.0
 73
     1
 44
0.60024009603842
  0
ENDBLK
  5
24A
330
242
100
AcDbEntity
  8
0
100
AcDbBlockEnd
  0
BLOCK
  5
256
330
24D
100
AcDbEntity
  8
0
100
AcDbBlockBegin
  2
*D213
 70
     1
 71
     0
 10
0.0
 20
0.0
 30
0.0
  3
*D213
  1

  0
LINE
  5
24E
330
24D
100
AcDbEntity
  8
1
  6
Continuous
 62
     2
100
AcDbLine
 10
313.0247598719321
 20
171.9819782780145
 30
0.0
 11
327.0247598719321
 21
171.9819782780145
 31
0.0
  0
LINE
  5
24F
330
24D
100
AcDbEntity
  8
1
  6
Continuous
 62
     2
100
AcDbLine
 10
301.0247598719321
 20
171.9819782780145
 30
0.0
 11
313.0247598719321
 21
171.9819782780145
 31
0.0
  0
LINE
  5
250
330
24D
100
AcDbEntity
  8
1
  6
Continuous
 62
     2
100
AcDbLine
 10
287.0247598719321
 20
171.9819782780145
 30
0.0
 11
301.0247598719321
 21
171.9819782780145
 31
0.0
  0
LINE
  5
251
330
24D
100
AcDbEntity
  8
1
  6
Continuous
 62
     2
100
AcDbLine
 10
301.0247598719321
 20
211.9170519008714
 30
0.0
 11
301.0247598719321
 21
169.9819782780145
 31
0.0
  0
LINE
  5
252
330
24D
100
AcDbEntity
  8
1
  6
Continuous
 62
     2
100
AcDbLine
 10
313.0247598719321
 20
210.7550519008715
 30
0.0
 11
313.0247598719321
 21
169.9819782780145
 31
0.0
  0
SOLID
  5
253
330
24D
100
AcDbEntity
  8
1
 62
     2
100
AcDbTrace
 10
294.0247598719321
 20
171.0604107949027
 30
0.0
 11
294.0247598719321
 21
172.9035457611263
 31
0.0
 12
301.0247598719321
 22
171.9819782780145
 32
0.0
 13
301.0247598719321
 23
171.9819782780145
 33
0.0
  0
SOLID
  5
254
330
24D
100
AcDbEntity
  8
1
 62
     2
100
AcDbTrace
 10
320.0247598719321
 20
172.9035457611263
 30
0.0
 11
320.0247598719321
 21
171.0604107949027
 31
0.0
 12
313.0247598719321
 22
171.9819782780145
 32
0.0
 13
313.0247598719321
 23
171.9819782780145
 33
0.0
  0
MTEXT
  5
255
330
24D
100
AcDbEntity
  8
1
 62
     7
100
AcDbMText
 10
302.8247598719321
 20
173.9819782780145
 30
0.0
 40
7.0
 41
0.0
 71
     7
 72
     1
  1
12
  7
CONVERTER_2
 11
0.9999999999970621
 21
2.424068405545307E-6
 31
0.0
 73
     1
 44
0.60024009603842
  0
ENDBLK
  5
257
330
24D
100
AcDbEntity
  8
0
100
AcDbBlockEnd
  0
BLOCK
  5
261
330
25A
100
AcDbEntity
  8
0
100
AcDbBlockBegin
  2
*D314
 70
     1
 71
     0
 10
0.0
 20
0.0
 30
0.0
  3
*D314
  1

  0
LINE
  5
25B
330
25A
100
AcDbEntity
  8
1
  6
Continuous
 62
     2
100
AcDbLine
 10
301.0247598719321
 20
139.9819782780145
 30
0.0
 11
361.0247598719321
 21
139.9819782780145
 31
0.0
  0
LINE
  5
25C
330
25A
100
AcDbEntity
  8
1
  6
Continuous
 62
     2
100
AcDbLine
 10
301.0247598719321
 20
211.9170519008714
 30
0.0
 11
301.0247598719321
 21
137.9819782780145
 31
0.0
  0
LINE
  5
25D
330
25A
100
AcDbEntity
  8
1
  6
Continuous
 62
     2
100
AcDbLine
 10
361.0247598719321
 20
210.2325519008714
 30
0.0
 11
361.0247598719321
 21
137.9819782780145
 31
0.0
  0
SOLID
  5
25E
330
25A
100
AcDbEntity
  8
1
 62
     2
100
AcDbTrace
 10
308.0247598719321
 20
140.9035457611263
 30
0.0
 11
308.0247598719321
 21
139.0604107949027
 31
0.0
 12
301.0247598719321
 22
139.9819782780145
 32
0.0
 13
301.0247598719321
 23
139.9819782780145
 33
0.0
  0
SOLID
  5
25F
330
25A
100
AcDbEntity
  8
1
 62
     2
100
AcDbTrace
 10
354.0247598719321
 20
139.0604107949027
 30
0.0
 11
354.0247598719321
 21
140.9035457611263
 31
0.0
 12
361.0247598719321
 22
139.9819782780145
 32
0.0
 13
361.0247598719321
 23
139.9819782780145
 33
0.0
  0
MTEXT
  5
260
330
25A
100
AcDbEntity
  8
1
 62
     7
100
AcDbMText
 10
323.774759871932
 20
141.9819782780145
 30
0.0
 40
7.0
 41
0.0
 71
     7
 72
     1
  1
60
  7
CONVERTER_2
 11
0.9999999999970621
 21
2.424068405545307E-6
 31
0.0
 73
     1
 44
0.60024009603842
  0
ENDBLK
  5
262
330
25A
100
AcDbEntity
  8
0
100
AcDbBlockEnd
  0
BLOCK
  5
26C
330
265
100
AcDbEntity
  8
0
100
AcDbBlockBegin
  2
*D415
 70
     1
 71
     0
 10
0.0
 20
0.0
 30
0.0
  3
*D415
  1

  0
LINE
  5
266
330
265
100
AcDbEntity
  8
1
  6
Continuous
 62
     2
100
AcDbLine
 10
213.9004738833838
 20
215.2325519008714
 30
0.0
 11
213.9004738833838
 21
273.5325519008714
 31
0.0
  0
LINE
  5
267
330
265
100
AcDbEntity
  8
1
  6
Continuous
 62
     2
100
AcDbLine
 10
194.4004738833838
 20
215.2325519008714
 30
0.0
 11
215.9004738833838
 21
215.2325519008714
 31
0.0
  0
LINE
  5
268
330
265
100
AcDbEntity
  8
1
  6
Continuous
 62
     2
100
AcDbLine
 10
162.9004738833838
 20
273.5325519008714
 30
0.0
 11
215.9004738833838
 21
273.5325519008714
 31
0.0
  0
SOLID
  5
269
330
265
100
AcDbEntity
  8
1
 62
     2
100
AcDbTrace
 10
212.978906400272
 20
222.2325519008714
 30
0.0
 11
214.8220413664956
 21
222.2325519008714
 31
0.0
 12
213.9004738833838
 22
215.2325519008714
 32
0.0
 13
213.9004738833838
 23
215.2325519008714
 33
0.0
  0
SOLID
  5
26A
330
265
100
AcDbEntity
  8
1
 62
     2
100
AcDbTrace
 10
214.8220413664956
 20
266.5325519008714
 30
0.0
 11
212.978906400272
 21
266.5325519008714
 31
0.0
 12
213.9004738833838
 22
273.5325519008714
 32
0.0
 13
213.9004738833838
 23
273.5325519008714
 33
0.0
  0
MTEXT
  5
26B
330
265
100
AcDbEntity
  8
1
 62
     7
100
AcDbMText
 10
211.9004738833838
 20
225.4825519008714
 30
0.0
 40
7.0
 41
0.0
 71
     7
 72
     1
  1
58リフト6
  7
CONVERTER_1
 11
0.0
 21
1.0
 31
0.0
 73
     1
 44
0.60024009603842
  0
ENDBLK
  5
26D
330
265
100
AcDbEntity
  8
0
100
AcDbBlockEnd
  0
BLOCK
  5
277
330
270
100
AcDbEntity
  8
0
100
AcDbBlockBegin
  2
*D516
 70
     1
 71
     0
 10
0.0
 20
0.0
 30
0.0
  3
*D516
  1

  0
LINE
  5
271
330
270
100
AcDbEntity
  8
1
  6
Continuous
 62
     2
100
AcDbLine
 10
213.9004738833838
 20
357.2325519008715
 30
0.0
 11
213.9004738833838
 21
325.2325519008714
 31
0.0
  0
LINE
  5
272
330
270
100
AcDbEntity
  8
1
  6
Continuous
 62
     2
100
AcDbLine
 10
191.4004738833838
 20
325.2325519008714
 30
0.0
 11
215.9004738833838
 21
325.2325519008714
 31
0.0
  0
LINE
  5
273
330
270
100
AcDbEntity
  8
1
  6
Continuous
 62
     2
100
AcDbLine
 10
191.4004738833838
 20
357.2325519008715
 30
0.0
 11
215.9004738833838
 21
357.2325519008715
 31
0.0
  0
SOLID
  5
274
330
270
100
AcDbEntity
  8
1
 62
     2
100
AcDbTrace
 10
214.8220413664956
 20
350.2325519008715
 30
0.0
 11
212.978906400272
 21
350.2325519008715
 31
0.0
 12
213.9004738833838
 22
357.2325519008715
 32
0.0
 13
213.9004738833838
 23
357.2325519008715
 33
0.0
  0
SOLID
  5
275
330
270
100
AcDbEntity
  8
1
 62
     2
100
AcDbTrace
 10
212.978906400272
 20
332.2325519008714
 30
0.0
 11
214.8220413664956
 21
332.2325519008714
 31
0.0
 12
213.9004738833838
 22
325.2325519008714
 32
0.0
 13
213.9004738833838
 23
325.2325519008714
 33
0.0
  0
MTEXT
  5
276
330
270
100
AcDbEntity
  8
1
 62
     7
100
AcDbMText
 10
211.9004738833838
 20
328.7025519008714
 30
0.0
 40
7.0
 41
0.0
 71
     7
 72
     1
  1
\C7;{\Fgdt;n}\C7;32
  7
CONVERTER_2
 11
0.0
 21
1.0
 31
0.0
 73
     1
 44
0.60024009603842
  0
ENDBLK
  5
278
330
270
100
AcDbEntity
  8
0
100
AcDbBlockEnd
  0
BLOCK
  5
282
330
27B
100
AcDbEntity
  8
0
100
AcDbBlockBegin
  2
*D617
 70
     1
 71
     0
 10
0.0
 20
0.0
 30
0.0
  3
*D617
  1

  0
LINE
  5
27C
330
27B
100
AcDbEntity
  8
1
  6
Continuous
 62
     2
100
AcDbLine
 10
117.9004738833838
 20
393.2325519008714
 30
0.0
 11
162.9004738833838
 21
393.2325519008714
 31
0.0
  0
LINE
  5
27D
330
27B
100
AcDbEntity
  8
1
  6
Continuous
 62
     2
100
AcDbLine
 10
162.9004738833838
 20
376.2325519008714
 30
0.0
 11
162.9004738833838
 21
395.2325519008714
 31
0.0
  0
LINE
  5
27E
330
27B
100
AcDbEntity
  8
1
  6
Continuous
 62
     2
100
AcDbLine
 10
117.9004738833838
 20
350.7325519008715
 30
0.0
 11
117.9004738833838
 21
395.2325519008714
 31
0.0
  0
SOLID
  5
27F
330
27B
100
AcDbEntity
  8
1
 62
     2
100
AcDbTrace
 10
124.9004738833838
 20
394.1541193839831
 30
0.0
 11
124.9004738833838
 21
392.3109844177596
 31
0.0
 12
117.9004738833838
 22
393.2325519008714
 32
0.0
 13
117.9004738833838
 23
393.2325519008714
 33
0.0
  0
SOLID
  5
280
330
27B
100
AcDbEntity
  8
1
 62
     2
100
AcDbTrace
 10
155.9004738833838
 20
392.3109844177596
 30
0.0
 11
155.9004738833838
 21
394.1541193839831
 31
0.0
 12
162.9004738833838
 22
393.2325519008714
 32
0.0
 13
162.9004738833838
 23
393.2325519008714
 33
0.0
  0
MTEXT
  5
281
330
27B
100
AcDbEntity
  8
1
 62
     7
100
AcDbMText
 10
135.1504738833838
 20
395.2325519008714
 30
0.0
 40
7.0
 41
0.0
 71
     7
 72
     1
  1
45
  7
CONVERTER_2
 11
0.9999999999970621
 21
2.424068405545307E-6
 31
0.0
 73
     1
 44
0.60024009603842
  0
ENDBLK
  5
283
330
27B
100
AcDbEntity
  8
0
100
AcDbBlockEnd
  0
BLOCK
  5
28D
330
286
100
AcDbEntity
  8
0
100
AcDbBlockBegin
  2
*D718
 70
     1
 71
     0
 10
0.0
 20
0.0
 30
0.0
  3
*D718
  1

  0
LINE
  5
287
330
286
100
AcDbEntity
  8
1
  6
Continuous
 62
     2
100
AcDbLine
 10
162.9004738833838
 20
393.2325519008714
 30
0.0
 11
191.4004738833838
 21
393.2325519008714
 31
0.0
  0
LINE
  5
288
330
286
100
AcDbEntity
  8
1
  6
Continuous
 62
     2
100
AcDbLine
 10
191.4004738833838
 20
357.2325519008715
 30
0.0
 11
191.4004738833838
 21
395.2325519008714
 31
0.0
  0
LINE
  5
289
330
286
100
AcDbEntity
  8
1
  6
Continuous
 62
     2
100
AcDbLine
 10
162.9004738833838
 20
376.2325519008714
 30
0.0
 11
162.9004738833838
 21
395.2325519008714
 31
0.0
  0
SOLID
  5
28A
330
286
100
AcDbEntity
  8
1
 62
     2
100
AcDbTrace
 10
169.9004738833838
 20
394.1541193839831
 30
0.0
 11
169.9004738833838
 21
392.3109844177596
 31
0.0
 12
162.9004738833838
 22
393.2325519008714
 32
0.0
 13
162.9004738833838
 23
393.2325519008714
 33
0.0
  0
SOLID
  5
28B
330
286
100
AcDbEntity
  8
1
 62
     2
100
AcDbTrace
 10
184.4004738833838
 20
392.3109844177596
 30
0.0
 11
184.4004738833838
 21
394.1541193839831
 31
0.0
 12
191.4004738833838
 22
393.2325519008714
 32
0.0
 13
191.4004738833838
 23
393.2325519008714
 33
0.0
  0
MTEXT
  5
28C
330
286
100
AcDbEntity
  8
1
 62
     7
100
AcDbMText
 10
171.9004738833838
 20
395.2325519008714
 30
0.0
 40
7.0
 41
0.0
 71
     7
 72
     1
  1
29
  7
CONVERTER_2
 11
0.9999999999970621
 21
2.424068405545307E-6
 31
0.0
 73
     1
 44
0.60024009603842
  0
ENDBLK
  5
28E
330
286
100
AcDbEntity
  8
0
100
AcDbBlockEnd
  0
BLOCK
  5
298
330
291
100
AcDbEntity
  8
0
100
AcDbBlockBegin
  2
*D819
 70
     1
 71
     0
 10
0.0
 20
0.0
 30
0.0
  3
*D819
  1

  0
LINE
  5
292
330
291
100
AcDbEntity
  8
1
  6
Continuous
 62
     2
100
AcDbLine
 10
191.4004738833838
 20
409.2325519008714
 30
0.0
 11
117.9004738833838
 21
409.2325519008714
 31
0.0
  0
LINE
  5
293
330
291
100
AcDbEntity
  8
1
  6
Continuous
 62
     2
100
AcDbLine
 10
117.9004738833838
 20
350.7325519008715
 30
0.0
 11
117.9004738833838
 21
411.2325519008714
 31
0.0
  0
LINE
  5
294
330
291
100
AcDbEntity
  8
1
  6
Continuous
 62
     2
100
AcDbLine
 10
191.4004738833838
 20
357.2325519008715
 30
0.0
 11
191.4004738833838
 21
411.2325519008714
 31
0.0
  0
SOLID
  5
295
330
291
100
AcDbEntity
  8
1
 62
     2
100
AcDbTrace
 10
184.4004738833838
 20
408.3109844177596
 30
0.0
 11
184.4004738833838
 21
410.1541193839831
 31
0.0
 12
191.4004738833838
 22
409.2325519008714
 32
0.0
 13
191.4004738833838
 23
409.2325519008714
 33
0.0
  0
SOLID
  5
296
330
291
100
AcDbEntity
  8
1
 62
     2
100
AcDbTrace
 10
124.9004738833838
 20
410.1541193839831
 30
0.0
 11
124.9004738833838
 21
408.3109844177596
 31
0.0
 12
117.9004738833838
 22
409.2325519008714
 32
0.0
 13
117.9004738833838
 23
409.2325519008714
 33
0.0
  0
MTEXT
  5
297
330
291
100
AcDbEntity
  8
1
 62
     7
100
AcDbMText
 10
149.4004738833838
 20
411.2325519008714
 30
0.0
 40
7.0
 41
0.0
 71
     7
 72
     1
  1
74
  7
CONVERTER_2
 11
0.9999999999970621
 21
2.424068405545307E-6
 31
0.0
 73
     1
 44
0.60024009603842
  0
ENDBLK
  5
299
330
291
100
AcDbEntity
  8
0
100
AcDbBlockEnd
  0
ENDSEC
  0
SECTION
  2
ENTITIES
  0
INSERT
  5
59
330
1F
100
AcDbEntity
  8
1
100
AcDbBlockReference
  2
28-1B-28-13-M2
 10
819.1284473539399
 20
705.252446912409
 30
0.0
  0
INSERT
  5
5A
330
1F
100
AcDbEntity
  8
0
100
AcDbBlockReference
  2
R10A-13-C
 10
207.9004738833838
 20
221.7325519008714
 30
0.0
  0
INSERT
  5
5B
330
1F
100
AcDbEntity
  8
1
100
AcDbBlockReference
  2
B41J-0-M11
 10
38.02475987193202
 20
102.870330843116
 30
0.0
  0
INSERT
  5
5C
330
1F
100
AcDbEntity
  8
1
100
AcDbBlockReference
  2
B41A-240-13
 10
150.2116477890686
 20
329.7325519008714
 30
0.0
  0
INSERT
  5
5D
330
1F
100
AcDbEntity
  8
1
100
AcDbBlockReference
  2
_J__A4
 10
0.0
 20
0.0
 30
0.0
 41
2.0
 42
2.0
 43
2.0
  0
LINE
  5
219
330
1F
100
AcDbEntity
  8
1
  6
DASH_CENTER
 62
     2
100
AcDbLine
 10
307.0247598719321
 20
215.2325519008714
 30
0.0
 11
351.0241862490751
 21
215.2325519008714
 31
0.0
  0
LINE
  5
21A
330
1F
100
AcDbEntity
  8
1
  6
DASH_CENTER
 62
     2
100
AcDbLine
 10
146.4229738833836
 20
221.2325519008714
 30
0.0
 11
179.377973883384
 21
221.2325519008714
 31
0.0
  0
LINE
  5
21B
330
1F
100
AcDbEntity
  8
1
  6
DASH_CENTER
 62
     2
100
AcDbLine
 10
298.0247598719321
 20
221.2325519008714
 30
0.0
 11
364.0247598719321
 21
221.2325519008714
 31
0.0
  0
LINE
  5
21C
330
1F
100
AcDbEntity
  8
1
  6
DASH_CENTER
 62
     2
100
AcDbLine
 10
173.9544401098593
 20
322.0865207714654
 30
0.0
 11
144.4011422511524
 21
373.2743341939624
 31
0.0
  0
LINE
  5
21D
330
1F
100
AcDbEntity
  8
1
  6
DASH_CENTER
 62
     2
100
AcDbLine
 10
173.5880106063408
 20
359.743908512791
 30
0.0
 11
144.4011422511524
 21
309.1907696077804
 31
0.0
  0
LINE
  5
21E
330
1F
100
AcDbEntity
  8
1
  6
DASH_CENTER
 62
     2
100
AcDbLine
 10
162.9004738833838
 20
310.2325519008714
 30
0.0
 11
162.9004738833838
 21
376.2325519008714
 31
0.0
  0
LINE
  5
21F
330
1F
100
AcDbEntity
  8
1
  6
DASH_CENTER
 62
     2
100
AcDbLine
 10
114.9004738833838
 20
341.2325519008714
 30
0.0
 11
196.9004738833838
 21
341.2325519008714
 31
0.0
  0
LINE
  5
220
330
1F
100
AcDbEntity
  8
1
  6
DASH_CENTER
 62
     2
100
AcDbLine
 10
329.024759871932
 20
213.7325519008714
 30
0.0
 11
329.024759871932
 21
218.7325519008714
 31
0.0
  0
LINE
  5
221
330
1F
100
AcDbEntity
  8
1
  6
DASH_CENTER
 62
     2
100
AcDbLine
 10
329.024759871932
 20
188.9819782780146
 30
0.0
 11
329.024759871932
 21
213.7325519008714
 31
0.0
  0
LINE
  5
222
330
1F
100
AcDbEntity
  8
1
  6
DASH_CENTER
 62
     2
100
AcDbLine
 10
329.024759871932
 20
228.7325519008714
 30
0.0
 11
329.024759871932
 21
276.5325519008715
 31
0.0
  0
LINE
  5
223
330
1F
100
AcDbEntity
  8
1
  6
DASH_CENTER
 62
     2
100
AcDbLine
 10
329.024759871932
 20
218.7325519008714
 30
0.0
 11
329.024759871932
 21
228.7325519008714
 31
0.0
  0
LINE
  5
224
330
1F
100
AcDbEntity
  8
1
  6
DASH_CENTER
 62
     2
100
AcDbLine
 10
114.9004738833838
 20
215.2325519008714
 30
0.0
 11
194.4004738833838
 21
215.2325519008714
 31
0.0
  0
LINE
  5
225
330
1F
100
AcDbEntity
  8
0
  6
DASH_CENTER
 62
     2
100
AcDbLine
 10
162.9004738833838
 20
276.5325519008714
 30
0.0
 11
162.9004738833838
 21
199.8865224120217
 31
0.0
  0
SOLID
  5
226
330
1F
100
AcDbEntity
  8
1
 62
     2
100
AcDbTrace
 10
195.6985747350603
 20
197.6307275987935
 30
0.0
 11
194.1023730317073
 21
196.7091601156817
 31
0.0
 12
191.4004738833838
 22
203.2321216837287
 32
0.0
 13
191.4004738833838
 23
203.2321216837287
 33
0.0
  0
LEADER
  5
227
330
1F
100
AcDbEntity
  8
1
  6
Continuous
 62
     2
100
AcDbLeader
  3
Standard
 71
     0
 76
     3
 10
191.4004738833838
 20
203.2321216837287
 30
0.0
 10
205.2569631392625
 20
179.2319782780145
 30
0.0
 10
234.8461906073511
 20
179.2319782780145
 30
0.0
  0
SOLID
  5
228
330
1F
100
AcDbEntity
  8
1
 62
     2
100
AcDbTrace
 10
302.7266590202556
 20
237.3114459858068
 30
0.0
 11
304.3228607236086
 21
238.2330134689186
 31
0.0
 12
307.0247598719321
 22
231.7100519008716
 32
0.0
 13
307.0247598719321
 23
231.7100519008716
 33
0.0
  0
LEADER
  5
229
330
1F
100
AcDbEntity
  8
1
  6
Continuous
 62
     2
100
AcDbLeader
  3
Standard
 71
     0
 76
     3
 10
307.0247598719321
 20
231.7100519008716
 30
0.0
 10
298.6387472119528
 20
246.2350519008716
 30
0.0
 10
272.0495197438642
 20
246.2350519008716
 30
0.0
  0
SOLID
  5
22A
330
1F
100
AcDbEntity
  8
1
 62
     2
100
AcDbTrace
 10
363.7266590202556
 20
236.3805134689184
 30
0.0
 11
365.3228607236085
 21
235.4589459858066
 31
0.0
 12
361.0247598719321
 22
229.8575519008714
 32
0.0
 13
361.0247598719321
 23
229.8575519008714
 33
0.0
  0
LEADER
  5
22B
330
1F
100
AcDbEntity
  8
1
  6
Continuous
 62
     2
100
AcDbLeader
  3
Standard
 71
     0
 76
     3
 10
361.0247598719321
 20
229.8575519008714
 30
0.0
 10
369.4107725319114
 20
244.3825519008714
 30
0.0
 10
396.0
 20
244.3825519008714
 30
0.0
  0
SOLID
  5
22C
330
1F
100
AcDbEntity
  8
1
 62
     2
100
AcDbTrace
 10
121.6023730317073
 20
231.3333723629497
 30
0.0
 11
123.1985747350603
 21
232.2549398460615
 31
0.0
 12
125.9004738833838
 22
225.7319782780145
 32
0.0
 13
125.9004738833838
 23
225.7319782780145
 33
0.0
  0
LEADER
  5
22D
330
1F
100
AcDbEntity
  8
1
  6
Continuous
 62
     2
100
AcDbLeader
  3
Standard
 71
     0
 76
     3
 10
125.9004738833838
 20
225.7319782780145
 30
0.0
 10
106.9919213861127
 20
258.4825519008715
 30
0.0
 10
80.40269391802404
 20
258.4825519008715
 30
0.0
  0
MTEXT
  5
22F
330
1F
100
AcDbEntity
  8
1
 62
     7
100
AcDbMText
 10
220.8056073956531
 20
185.2319782780145
 30
0.0
 40
7.0
 41
0.0
 71
     5
 72
     1
  1
Rp1/2
  7
CONVERTER_2
 73
     1
 44
0.7202881152461
  0
MTEXT
  5
230
330
1F
100
AcDbEntity
  8
1
 62
     7
100
AcDbMText
 10
285.0901029555621
 20
252.2350519008716
 30
0.0
 40
7.0
 41
0.0
 71
     5
 72
     1
  1
PJ1/2
  7
CONVERTER_2
 73
     1
 44
0.7202881152461
  0
MTEXT
  5
231
330
1F
100
AcDbEntity
  8
1
 62
     7
100
AcDbMText
 10
382.959416788302
 20
250.3825519008714
 30
0.0
 40
7.0
 41
0.0
 71
     5
 72
     1
  1
PJ1/2
  7
CONVERTER_2
 73
     1
 44
0.7202881152461
  0
MTEXT
  5
232
330
1F
100
AcDbEntity
  8
1
 62
     7
100
AcDbMText
 10
114.0
 20
45.50000000000002
 30
0.0
 40
7.0
 41
0.0
 71
     5
 72
     1
  1
クロス分岐バルブ
  7
CONVERTER_1
 73
     1
 44
0.7202881152461
  0
MTEXT
  5
233
330
1F
100
AcDbEntity
  8
1
 62
     7
100
AcDbMText
 10
114.0
 20
28.5
 30
0.0
 40
7.0
 41
0.0
 71
     5
 72
     1
  1
B41J-13
  7
CONVERTER_2
 73
     1
 44
0.7202881152461
  0
MTEXT
  5
234
330
1F
100
AcDbEntity
  8
1
 62
     7
100
AcDbMText
 10
170.5
 20
34.0
 30
0.0
 40
7.0
 41
0.0
 71
     5
 72
     1
  1
1
  7
CONVERTER_2
 73
     1
 44
0.7202881152461
  0
MTEXT
  5
235
330
1F
100
AcDbEntity
  8
1
 62
     7
100
AcDbMText
 10
187.5
 20
34.0
 30
0.0
 40
7.0
 41
0.0
 71
     5
 72
     1
  1
2
  7
CONVERTER_2
 73
     1
 44
0.7202881152461
  0
MTEXT
  5
236
330
1F
100
AcDbEntity
  8
1
 62
     7
100
AcDbMText
 10
93.44327712972203
 20
264.4825519008715
 30
0.0
 40
7.0
 41
0.0
 71
     5
 72
     1
  1
PJ1/2
  7
CONVERTER_2
 73
     1
 44
0.7202881152461
  0
DIMENSION
  5
241
330
1F
100
AcDbEntity
  8
1
100
AcDbDimension
  2
*D011
 10
97.9004738833838
 20
364.4825519008713
 30
0.0
 11
92.4004738833838
 21
341.2325519008714
 31
0.0
  1
{\Fgdt;n}47
 71
     5
 42
0.0
 53
90.0
  3
ME10_DIM_0
100
AcDbAlignedDimension
 13
132.9004738833838
 23
317.9825519008714
 33
0.0
 14
132.9004738833838
 24
364.4825519008713
 34
0.0
 50
90.0
100
AcDbRotatedDimension
  0
DIMENSION
  5
24C
330
1F
100
AcDbEntity
  8
1
100
AcDbDimension
  2
*D112
 10
301.0247598719321
 20
155.9819782780145
 30
0.0
 11
315.024759871932
 21
161.4819782780145
 31
0.0
  1
<>
 71
     5
 42
0.0
 53
0.00013888888889
  3
ME10_DIM_1
100
AcDbAlignedDimension
 13
329.024759871932
 23
188.9819782780146
 33
0.0
 14
301.0247598719321
 24
211.9170519008714
 34
0.0
100
AcDbRotatedDimension
  0
DIMENSION
  5
259
330
1F
100
AcDbEntity
  8
1
100
AcDbDimension
  2
*D213
 10
301.0247598719321
 20
171.9819782780145
 30
0.0
 11
307.0247598719321
 21
177.4819782780145
 31
0.0
  1
<>
 71
     5
 42
0.0
 53
0.00013888888889
  3
ME10_DIM_2
100
AcDbAlignedDimension
 13
313.0247598719321
 23
210.7550519008715
 33
0.0
 14
301.0247598719321
 24
211.9170519008714
 34
0.0
100
AcDbRotatedDimension
  0
DIMENSION
  5
264
330
1F
100
AcDbEntity
  8
1
100
AcDbDimension
  2
*D314
 10
301.0247598719321
 20
139.9819782780145
 30
0.0
 11
329.024759871932
 21
145.4819782780145
 31
0.0
  1
<>
 71
     5
 42
0.0
 53
0.00013888888889
  3
ME10_DIM_3
100
AcDbAlignedDimension
 13
361.0247598719321
 23
210.2325519008714
 33
0.0
 14
301.0247598719321
 24
211.9170519008714
 34
0.0
100
AcDbRotatedDimension
  0
DIMENSION
  5
26F
330
1F
100
AcDbEntity
  8
1
100
AcDbDimension
  2
*D415
 10
213.9004738833838
 20
215.2325519008714
 30
0.0
 11
208.4004738833838
 21
244.3825519008714
 31
0.0
  1
58リフト6
 71
     5
 42
0.0
 53
90.0
  3
ME10_DIM_4
100
AcDbAlignedDimension
 13
162.9004738833838
 23
273.5325519008714
 33
0.0
 14
194.4004738833838
 24
215.2325519008714
 34
0.0
 50
90.0
100
AcDbRotatedDimension
  0
DIMENSION
  5
27A
330
1F
100
AcDbEntity
  8
1
100
AcDbDimension
  2
*D516
 10
213.9004738833838
 20
357.2325519008715
 30
0.0
 11
208.4004738833838
 21
341.2325519008714
 31
0.0
  1
<>
 71
     5
 42
0.0
 53
90.0
  3
ME10_DIM_5
100
AcDbAlignedDimension
 13
191.4004738833838
 23
325.2325519008714
 33
0.0
 14
191.4004738833838
 24
357.2325519008715
 34
0.0
 50
90.0
100
AcDbRotatedDimension
  0
DIMENSION
  5
285
330
1F
100
AcDbEntity
  8
1
100
AcDbDimension
  2
*D617
 10
117.9004738833838
 20
393.2325519008714
 30
0.0
 11
140.4004738833838
 21
398.7325519008714
 31
0.0
  1
<>
 71
     5
 42
0.0
 53
0.00013888888889
  3
ME10_DIM_6
100
AcDbAlignedDimension
 13
162.9004738833838
 23
376.2325519008714
 33
0.0
 14
117.9004738833838
 24
350.7325519008715
 34
0.0
100
AcDbRotatedDimension
  0
DIMENSION
  5
290
330
1F
100
AcDbEntity
  8
1
100
AcDbDimension
  2
*D718
 10
162.9004738833838
 20
393.2325519008714
 30
0.0
 11
177.1504738833838
 21
398.7325519008714
 31
0.0
  1
29
 71
     5
 42
0.0
 53
0.00013888888889
  3
ME10_DIM_7
100
AcDbAlignedDimension
 13
191.4004738833838
 23
357.2325519008715
 33
0.0
 14
162.9004738833838
 24
376.2325519008714
 34
0.0
100
AcDbRotatedDimension
  0
DIMENSION
  5
29B
330
1F
100
AcDbEntity
  8
1
100
AcDbDimension
  2
*D819
 10
191.4004738833838
 20
409.2325519008714
 30
0.0
 11
154.6504738833838
 21
414.7325519008714
 31
0.0
  1
74
 71
     5
 42
0.0
 53
0.00013888888889
  3
ME10_DIM_8
100
AcDbAlignedDimension
 13
117.9004738833838
 23
350.7325519008715
 33
0.0
 14
191.4004738833838
 24
357.2325519008715
 34
0.0
100
AcDbRotatedDimension
  0
ENDSEC
  0
SECTION
  2
OBJECTS
  0
DICTIONARY
  5
C
330
0
100
AcDbDictionary
281
     1
  3
ACAD_GROUP
350
D
  3
ACAD_LAYOUT
350
1A
  3
ACAD_MLINESTYLE
350
17
  3
ACAD_PLOTSETTINGS
350
19
  3
ACAD_PLOTSTYLENAME
350
E
  3
ACAD_TABLESTYLE
350
2A
  3
AcDbVariableDictionary
350
2C
  0
DICTIONARY
  5
D
102
{ACAD_REACTORS
330
C
102
}
330
C
100
AcDbDictionary
281
     1
  0
DICTIONARY
  5
1A
102
{ACAD_REACTORS
330
C
102
}
330
C
100
AcDbDictionary
281
     1
  3
Layout1
350
1E
  3
Layout2
350
26
  3
Model
350
22
  0
DICTIONARY
  5
17
102
{ACAD_REACTORS
330
C
102
}
330
C
100
AcDbDictionary
281
     1
  3
Standard
350
18
  0
DICTIONARY
  5
19
102
{ACAD_REACTORS
330
C
102
}
330
C
100
AcDbDictionary
281
     1
  0
ACDBDICTIONARYWDFLT
  5
E
102
{ACAD_REACTORS
330
C
102
}
330
C
100
AcDbDictionary
281
     1
  3
Normal
350
F
100
AcDbDictionaryWithDefault
340
F
  0
DICTIONARY
  5
2A
102
{ACAD_REACTORS
330
C
102
}
330
C
100
AcDbDictionary
281
     1
  3
Standard
350
2B
  0
DICTIONARY
  5
2C
102
{ACAD_REACTORS
330
C
102
}
330
C
100
AcDbDictionary
281
     1
  3
CTABLESTYLE
350
2D
  0
LAYOUT
  5
1E
102
{ACAD_REACTORS
330
1A
102
}
330
1A
100
AcDbPlotSettings
  1

  2

  4

  6

 40
0.0
 41
0.0
 42
0.0
 43
0.0
 44
0.0
 45
0.0
 46
0.0
 47
0.0
 48
0.0
 49
0.0
140
0.0
141
0.0
142
1.0
143
1.0
 70
   688
 72
     0
 73
     0
 74
     5
  7

 75
    16
147
1.0
148
0.0
149
0.0
100
AcDbLayout
  1
Layout1
 70
     1
 71
     1
 10
0.0
 20
0.0
 11
12.0
 21
9.0
 12
0.0
 22
0.0
 32
0.0
 14
1.00000000000000E+20
 24
1.00000000000000E+20
 34
1.00000000000000E+20
 15
-1.00000000000000E+20
 25
-1.00000000000000E+20
 35
-1.00000000000000E+20
146
0.0
 13
0.0
 23
0.0
 33
0.0
 16
1.0
 26
0.0
 36
0.0
 17
0.0
 27
1.0
 37
0.0
 76
     0
330
1B
  0
LAYOUT
  5
26
102
{ACAD_REACTORS
330
1A
102
}
330
1A
100
AcDbPlotSettings
  1

  2

  4

  6

 40
0.0
 41
0.0
 42
0.0
 43
0.0
 44
0.0
 45
0.0
 46
0.0
 47
0.0
 48
0.0
 49
0.0
140
0.0
141
0.0
142
1.0
143
1.0
 70
   688
 72
     0
 73
     0
 74
     5
  7

 75
    16
147
1.0
148
0.0
149
0.0
100
AcDbLayout
  1
Layout2
 70
     1
 71
     2
 10
0.0
 20
0.0
 11
0.0
 21
0.0
 12
0.0
 22
0.0
 32
0.0
 14
0.0
 24
0.0
 34
0.0
 15
0.0
 25
0.0
 35
0.0
146
0.0
 13
0.0
 23
0.0
 33
0.0
 16
1.0
 26
0.0
 36
0.0
 17
0.0
 27
1.0
 37
0.0
 76
     0
330
23
  0
LAYOUT
  5
22
102
{ACAD_REACTORS
330
1A
102
}
330
1A
100
AcDbPlotSettings
  1

  2

  4

  6

 40
0.0
 41
0.0
 42
0.0
 43
0.0
 44
0.0
 45
0.0
 46
0.0
 47
0.0
 48
0.0
 49
0.0
140
0.0
141
0.0
142
1.0
143
1.0
 70
  1712
 72
     0
 73
     0
 74
     0
  7

 75
     0
147
1.0
148
0.0
149
0.0
100
AcDbLayout
  1
Model
 70
     1
 71
     0
 10
0.0
 20
0.0
 11
0.0
 21
0.0
 12
0.0
 22
0.0
 32
0.0
 14
0.0
 24
0.0
 34
0.0
 15
420.0
 25
594.0
 35
0.0
146
0.0
 13
0.0
 23
0.0
 33
0.0
 16
1.0
 26
0.0
 36
0.0
 17
0.0
 27
1.0
 37
0.0
 76
     0
330
1F
  0
MLINESTYLE
  5
18
102
{ACAD_REACTORS
330
17
102
}
330
17
100
AcDbMlineStyle
  2
Standard
 70
     0
  3

 62
   256
 51
90.0
 52
90.0
 71
     2
 49
0.5
 62
   256
  6
BYLAYER
 49
-0.5
 62
   256
  6
BYLAYER
  0
ACDBPLACEHOLDER
  5
F
102
{ACAD_REACTORS
330
E
102
}
330
E
  0
TABLESTYLE
  5
2B
102
{ACAD_REACTORS
330
2A
102
}
330
2A
100
AcDbTableStyle
  3
Standard
 70
     0
 71
     0
 40
0.06
 41
0.06
280
     0
281
     0
  7
Standard
140
0.18
170
     2
 62
     0
 63
     7
283
     0
274
    -2
284
     1
 64
     0
275
    -2
285
     1
 65
     0
276
    -2
286
     1
 66
     0
277
    -2
287
     1
 67
     0
278
    -2
288
     1
 68
     0
279
    -2
289
     1
 69
     0
  7
Standard
140
0.25
170
     5
 62
     0
 63
     7
283
     0
274
    -2
284
     1
 64
     0
275
    -2
285
     1
 65
     0
276
    -2
286
     1
 66
     0
277
    -2
287
     1
 67
     0
278
    -2
288
     1
 68
     0
279
    -2
289
     1
 69
     0
  7
Standard
140
0.18
170
     5
 62
     0
 63
     7
283
     0
274
    -2
284
     1
 64
     0
275
    -2
285
     1
 65
     0
276
    -2
286
     1
 66
     0
277
    -2
287
     1
 67
     0
278
    -2
288
     1
 68
     0
279
    -2
289
     1
 69
     0
  0
DICTIONARYVAR
  5
2D
102
{ACAD_REACTORS
330
2C
102
}
330
2C
100
DictionaryVariables
280
     0
  1
Standard
  0
ENDSEC
  0
EOF
