  0
SECTION
  2
HEADER
  9
$ACADVER
  1
AC1015
  9
$ACADMAINTVER
 70
     6
  9
$DWGCODEPAGE
  3
ANSI_932
  9
$INSBASE
 10
0.0
 20
0.0
 30
0.0
  9
$EXTMIN
 10
0.0
 20
0.0
 30
0.0
  9
$EXTMAX
 10
315.0
 20
445.5
 30
0.0
  9
$LIMMIN
 10
0.0
 20
0.0
  9
$LIMMAX
 10
12.0
 20
9.0
  9
$ORTHOMODE
 70
     0
  9
$REGENMODE
 70
     1
  9
$FILLMODE
 70
     1
  9
$QTEXTMODE
 70
     0
  9
$MIRRTEXT
 70
     1
  9
$LTSCALE
 40
1.0
  9
$ATTMODE
 70
     1
  9
$TEXTSIZE
 40
0.2
  9
$TRACEWID
 40
0.05
  9
$TEXTSTYLE
  7
Standard
  9
$CLAYER
  8
0
  9
$CELTYPE
  6
ByLayer
  9
$CECOLOR
 62
   256
  9
$CELTSCALE
 40
1.0
  9
$DISPSILH
 70
     0
  9
$DIMSCALE
 40
1.0
  9
$DIMASZ
 40
0.18
  9
$DIMEXO
 40
0.0625
  9
$DIMDLI
 40
0.38
  9
$DIMRND
 40
0.0
  9
$DIMDLE
 40
0.0
  9
$DIMEXE
 40
0.18
  9
$DIMTP
 40
0.0
  9
$DIMTM
 40
0.0
  9
$DIMTXT
 40
0.18
  9
$DIMCEN
 40
0.09
  9
$DIMTSZ
 40
0.0
  9
$DIMTOL
 70
     0
  9
$DIMLIM
 70
     0
  9
$DIMTIH
 70
     1
  9
$DIMTOH
 70
     1
  9
$DIMSE1
 70
     0
  9
$DIMSE2
 70
     0
  9
$DIMTAD
 70
     0
  9
$DIMZIN
 70
     0
  9
$DIMBLK
  1

  9
$DIMASO
 70
     1
  9
$DIMSHO
 70
     1
  9
$DIMPOST
  1

  9
$DIMAPOST
  1

  9
$DIMALT
 70
     0
  9
$DIMALTD
 70
     2
  9
$DIMALTF
 40
25.4
  9
$DIMLFAC
 40
1.0
  9
$DIMTOFL
 70
     0
  9
$DIMTVP
 40
0.0
  9
$DIMTIX
 70
     0
  9
$DIMSOXD
 70
     0
  9
$DIMSAH
 70
     0
  9
$DIMBLK1
  1

  9
$DIMBLK2
  1

  9
$DIMSTYLE
  2
Standard
  9
$DIMCLRD
 70
     0
  9
$DIMCLRE
 70
     0
  9
$DIMCLRT
 70
     0
  9
$DIMTFAC
 40
1.0
  9
$DIMGAP
 40
0.09
  9
$DIMJUST
 70
     0
  9
$DIMSD1
 70
     0
  9
$DIMSD2
 70
     0
  9
$DIMTOLJ
 70
     1
  9
$DIMTZIN
 70
     0
  9
$DIMALTZ
 70
     0
  9
$DIMALTTZ
 70
     0
  9
$DIMUPT
 70
     0
  9
$DIMDEC
 70
     4
  9
$DIMTDEC
 70
     4
  9
$DIMALTU
 70
     2
  9
$DIMALTTD
 70
     2
  9
$DIMTXSTY
  7
Standard
  9
$DIMAUNIT
 70
     0
  9
$DIMADEC
 70
     0
  9
$DIMALTRND
 40
0.0
  9
$DIMAZIN
 70
     0
  9
$DIMDSEP
 70
    46
  9
$DIMATFIT
 70
     3
  9
$DIMFRAC
 70
     0
  9
$DIMLDRBLK
  1

  9
$DIMLUNIT
 70
     2
  9
$DIMLWD
 70
    -2
  9
$DIMLWE
 70
    -2
  9
$DIMTMOVE
 70
     0
  9
$LUNITS
 70
     2
  9
$LUPREC
 70
     4
  9
$SKETCHINC
 40
0.1
  9
$FILLETRAD
 40
0.5
  9
$AUNITS
 70
     0
  9
$AUPREC
 70
     0
  9
$MENU
  1
.
  9
$ELEVATION
 40
0.0
  9
$PELEVATION
 40
0.0
  9
$THICKNESS
 40
0.0
  9
$LIMCHECK
 70
     0
  9
$CHAMFERA
 40
0.5
  9
$CHAMFERB
 40
0.5
  9
$CHAMFERC
 40
1.0
  9
$CHAMFERD
 40
0.0
  9
$SKPOLY
 70
     0
  9
$TDCREATE
 40
2459313.686811968
  9
$TDUCREATE
 40
2459313.311811968
  9
$TDUPDATE
 40
2459313.686814491
  9
$TDUUPDATE
 40
2459313.311814491
  9
$TDINDWG
 40
0.0000000116
  9
$TDUSRTIMER
 40
0.0000000116
  9
$USRTIMER
 70
     1
  9
$ANGBASE
 50
0.0
  9
$ANGDIR
 70
     0
  9
$PDMODE
 70
     0
  9
$PDSIZE
 40
0.0
  9
$PLINEWID
 40
0.0
  9
$SPLFRAME
 70
     0
  9
$SPLINETYPE
 70
     6
  9
$SPLINESEGS
 70
     8
  9
$HANDSEED
  5
275
  9
$SURFTAB1
 70
     6
  9
$SURFTAB2
 70
     6
  9
$SURFTYPE
 70
     6
  9
$SURFU
 70
     6
  9
$SURFV
 70
     6
  9
$UCSBASE
  2

  9
$UCSNAME
  2

  9
$UCSORG
 10
0.0
 20
0.0
 30
0.0
  9
$UCSXDIR
 10
1.0
 20
0.0
 30
0.0
  9
$UCSYDIR
 10
0.0
 20
1.0
 30
0.0
  9
$UCSORTHOREF
  2

  9
$UCSORTHOVIEW
 70
     0
  9
$UCSORGTOP
 10
0.0
 20
0.0
 30
0.0
  9
$UCSORGBOTTOM
 10
0.0
 20
0.0
 30
0.0
  9
$UCSORGLEFT
 10
0.0
 20
0.0
 30
0.0
  9
$UCSORGRIGHT
 10
0.0
 20
0.0
 30
0.0
  9
$UCSORGFRONT
 10
0.0
 20
0.0
 30
0.0
  9
$UCSORGBACK
 10
0.0
 20
0.0
 30
0.0
  9
$PUCSBASE
  2

  9
$PUCSNAME
  2

  9
$PUCSORG
 10
0.0
 20
0.0
 30
0.0
  9
$PUCSXDIR
 10
1.0
 20
0.0
 30
0.0
  9
$PUCSYDIR
 10
0.0
 20
1.0
 30
0.0
  9
$PUCSORTHOREF
  2

  9
$PUCSORTHOVIEW
 70
     0
  9
$PUCSORGTOP
 10
0.0
 20
0.0
 30
0.0
  9
$PUCSORGBOTTOM
 10
0.0
 20
0.0
 30
0.0
  9
$PUCSORGLEFT
 10
0.0
 20
0.0
 30
0.0
  9
$PUCSORGRIGHT
 10
0.0
 20
0.0
 30
0.0
  9
$PUCSORGFRONT
 10
0.0
 20
0.0
 30
0.0
  9
$PUCSORGBACK
 10
0.0
 20
0.0
 30
0.0
  9
$USERI1
 70
     0
  9
$USERI2
 70
     0
  9
$USERI3
 70
     0
  9
$USERI4
 70
     0
  9
$USERI5
 70
     0
  9
$USERR1
 40
18.1
  9
$USERR2
 40
0.0
  9
$USERR3
 40
0.0
  9
$USERR4
 40
0.0
  9
$USERR5
 40
0.0
  9
$WORLDVIEW
 70
     1
  9
$SHADEDGE
 70
     3
  9
$SHADEDIF
 70
    70
  9
$TILEMODE
 70
     1
  9
$MAXACTVP
 70
    64
  9
$PINSBASE
 10
0.0
 20
0.0
 30
0.0
  9
$PLIMCHECK
 70
     0
  9
$PEXTMIN
 10
1.00000000000000E+20
 20
1.00000000000000E+20
 30
1.00000000000000E+20
  9
$PEXTMAX
 10
-1.00000000000000E+20
 20
-1.00000000000000E+20
 30
-1.00000000000000E+20
  9
$PLIMMIN
 10
0.0
 20
0.0
  9
$PLIMMAX
 10
12.0
 20
9.0
  9
$UNITMODE
 70
     0
  9
$VISRETAIN
 70
     1
  9
$PLINEGEN
 70
     0
  9
$PSLTSCALE
 70
     1
  9
$TREEDEPTH
 70
  3020
  9
$CMLSTYLE
  2
Standard
  9
$CMLJUST
 70
     0
  9
$CMLSCALE
 40
1.0
  9
$PROXYGRAPHICS
 70
     1
  9
$MEASUREMENT
 70
     1
  9
$CELWEIGHT
370
    -1
  9
$ENDCAPS
280
     0
  9
$JOINSTYLE
280
     0
  9
$LWDISPLAY
290
     0
  9
$INSUNITS
 70
     4
  9
$HYPERLINKBASE
  1

  9
$STYLESHEET
  1

  9
$XEDIT
290
     1
  9
$CEPSNTYPE
380
     0
  9
$PSTYLEMODE
290
     1
  9
$FINGERPRINTGUID
  2
{82A5FDA1-A801-49C6-98FE-F71798B26C66}
  9
$VERSIONGUID
  2
{FAEB1C32-E019-11D5-929B-00C0DF256EC4}
  9
$EXTNAMES
290
     1
  9
$PSVPSCALE
 40
0.0
  9
$OLESTARTUP
290
     0
  0
ENDSEC
  0
SECTION
  2
CLASSES
  0
CLASS
  1
ACDBDICTIONARYWDFLT
  2
AcDbDictionaryWithDefault
  3
ObjectDBX Classes
 90
        0
280
     0
281
     0
  0
CLASS
  1
VISUALSTYLE
  2
AcDbVisualStyle
  3
ObjectDBX Classes
 90
     4095
280
     0
281
     0
  0
CLASS
  1
MATERIAL
  2
AcDbMaterial
  3
ObjectDBX Classes
 90
     1153
280
     0
281
     0
  0
CLASS
  1
DICTIONARYVAR
  2
AcDbDictionaryVar
  3
ObjectDBX Classes
 90
        0
280
     0
281
     0
  0
CLASS
  1
ACDBPLACEHOLDER
  2
AcDbPlaceHolder
  3
ObjectDBX Classes
 90
        0
280
     0
281
     0
  0
CLASS
  1
LAYOUT
  2
AcDbLayout
  3
ObjectDBX Classes
 90
        0
280
     0
281
     0
  0
ENDSEC
  0
SECTION
  2
TABLES
  0
TABLE
  2
VPORT
  5
8
330
0
100
AcDbSymbolTable
 70
     1
  0
VPORT
  5
29
330
8
100
AcDbSymbolTableRecord
100
AcDbViewportTableRecord
  2
*Active
 70
     0
 10
0.0
 20
0.0
 11
1.0
 21
1.0
 12
157.5
 22
222.75
 13
0.0
 23
0.0
 14
0.5
 24
0.5
 15
0.5
 25
0.5
 16
0.0
 26
0.0
 36
1.0
 17
0.0
 27
0.0
 37
0.0
 40
490.05
 41
1.60267857142857
 42
50.0
 43
0.0
 44
0.0
 50
0.0
 51
0.0
 71
     0
 72
   100
 73
     1
 74
     3
 75
     0
 76
     0
 77
     0
 78
     0
281
     0
 65
     1
110
0.0
120
0.0
130
0.0
111
1.0
121
0.0
131
0.0
112
0.0
122
1.0
132
0.0
 79
     0
146
0.0
  0
ENDTAB
  0
TABLE
  2
LTYPE
  5
5
330
0
100
AcDbSymbolTable
 70
     9
  0
LTYPE
  5
14
330
5
100
AcDbSymbolTableRecord
100
AcDbLinetypeTableRecord
  2
ByBlock
 70
     0
  3

 72
    65
 73
     0
 40
0.0
  0
LTYPE
  5
15
330
5
100
AcDbSymbolTableRecord
100
AcDbLinetypeTableRecord
  2
ByLayer
 70
     0
  3

 72
    65
 73
     0
 40
0.0
  0
LTYPE
  5
16
330
5
100
AcDbSymbolTableRecord
100
AcDbLinetypeTableRecord
  2
Continuous
 70
     0
  3
Solid line
 72
    65
 73
     0
 40
0.0
  0
LTYPE
  5
3F
330
5
100
AcDbSymbolTableRecord
100
AcDbLinetypeTableRecord
  2
DASHED
 70
     0
  3
Dashed
 72
    65
 73
     2
 40
15.0
 49
7.0
 74
     0
 49
-8.0
 74
     0
  0
LTYPE
  5
40
330
5
100
AcDbSymbolTableRecord
100
AcDbLinetypeTableRecord
  2
DOTTED
 70
     0
  3
Dotted
 72
    65
 73
     2
 40
1.0
 49
0.0
 74
     0
 49
-1.0
 74
     0
  0
LTYPE
  5
41
330
5
100
AcDbSymbolTableRecord
100
AcDbLinetypeTableRecord
  2
DOT_CENTER
 70
     0
  3
Dot_Center
 72
    65
 73
     4
 40
14.0
 49
12.0
 74
     0
 49
-1.0
 74
     0
 49
0.0
 74
     0
 49
-1.0
 74
     0
  0
LTYPE
  5
42
330
5
100
AcDbSymbolTableRecord
100
AcDbLinetypeTableRecord
  2
LONG_DASHED
 70
     0
  3
Long_Dashed
 72
    65
 73
     2
 40
15.0
 49
10.0
 74
     0
 49
-5.0
 74
     0
  0
LTYPE
  5
43
330
5
100
AcDbSymbolTableRecord
100
AcDbLinetypeTableRecord
  2
DASH_CENTER
 70
     0
  3
Dash_Center
 72
    65
 73
     4
 40
14.0
 49
11.0
 74
     0
 49
-1.0
 74
     0
 49
1.0
 74
     0
 49
-1.0
 74
     0
  0
LTYPE
  5
44
330
5
100
AcDbSymbolTableRecord
100
AcDbLinetypeTableRecord
  2
PHANTOM
 70
     0
  3
Phantom
 72
    65
 73
     6
 40
13.0
 49
10.0
 74
     0
 49
-1.0
 74
     0
 49
0.0
 74
     0
 49
-1.0
 74
     0
 49
0.0
 74
     0
 49
-1.0
 74
     0
  0
LTYPE
  5
45
330
5
100
AcDbSymbolTableRecord
100
AcDbLinetypeTableRecord
  2
CENTER_DASH_DASH
 70
     0
  3
Center_Dash_Dash
 72
    65
 73
     6
 40
14.0
 49
9.0
 74
     0
 49
-1.0
 74
     0
 49
1.0
 74
     0
 49
-1.0
 74
     0
 49
1.0
 74
     0
 49
-1.0
 74
     0
  0
LTYPE
  5
46
330
5
100
AcDbSymbolTableRecord
100
AcDbLinetypeTableRecord
  2
DIVIDE
 70
     0
  3
DIVIDE
 72
    65
 73
     6
 40
14.0
 49
5.0
 74
     0
 49
-3.0
 74
     0
 49
0.0
 74
     0
 49
-3.0
 74
     0
 49
0.0
 74
     0
 49
-3.0
 74
     0
  0
ENDTAB
  0
TABLE
  2
LAYER
  5
2
330
0
100
AcDbSymbolTable
 70
     6
  0
LAYER
  5
10
330
2
100
AcDbSymbolTableRecord
100
AcDbLayerTableRecord
  2
0
 70
     0
 62
     7
  6
Continuous
370
    -3
390
F
  0
LAYER
  5
47
330
2
100
AcDbSymbolTableRecord
100
AcDbLayerTableRecord
  2
1
 70
     0
 62
     7
  6
Continuous
370
    -3
390
F
  0
LAYER
  5
48
330
2
100
AcDbSymbolTableRecord
100
AcDbLayerTableRecord
  2
LEVEL001
 70
     0
 62
     7
  6
Continuous
370
    -3
390
F
  0
LAYER
  5
49
330
2
100
AcDbSymbolTableRecord
100
AcDbLayerTableRecord
  2
center
 70
     0
 62
     7
  6
Continuous
370
    -3
390
F
  0
LAYER
  5
4A
330
2
100
AcDbSymbolTableRecord
100
AcDbLayerTableRecord
  2
inline
 70
     0
 62
     7
  6
Continuous
370
    -3
390
F
  0
LAYER
  5
4B
330
2
100
AcDbSymbolTableRecord
100
AcDbLayerTableRecord
  2
outline
 70
     0
 62
     7
  6
Continuous
370
    -3
390
F
  0
ENDTAB
  0
TABLE
  2
STYLE
  5
3
330
0
100
AcDbSymbolTable
 70
     4
  0
STYLE
  5
11
330
3
100
AcDbSymbolTableRecord
100
AcDbTextStyleTableRecord
  2
Standard
 70
     0
 40
0.0
 41
1.0
 50
0.0
 71
     0
 42
0.2
  3
txt
  4

  0
STYLE
  5
A3
330
3
100
AcDbSymbolTableRecord
100
AcDbTextStyleTableRecord
  2
CONVERTER_11
 70
     0
 40
0.0
 41
0.89
 50
0.0
 71
     0
 42
0.2
  3
MS Mincho.ttf
  4

1001
ACAD
1000
MS Mincho
1071
    32785
  0
STYLE
  5
18A
330
3
100
AcDbSymbolTableRecord
100
AcDbTextStyleTableRecord
  2
CONVERTER_12
 70
     0
 40
0.0
 41
0.98888888888889
 50
14.99999999999998
 71
     0
 42
0.2
  3
MS Mincho.ttf
  4

1001
ACAD
1000
MS Mincho
1071
    32785
  0
STYLE
  5
1F2
330
3
100
AcDbSymbolTableRecord
100
AcDbTextStyleTableRecord
  2
CONVERTER_13
 70
     0
 40
0.0
 41
0.9
 50
0.0
 71
     0
 42
0.2
  3
txt.shx
  4

  0
ENDTAB
  0
TABLE
  2
VIEW
  5
6
330
0
100
AcDbSymbolTable
 70
     0
  0
ENDTAB
  0
TABLE
  2
UCS
  5
7
330
0
100
AcDbSymbolTable
 70
     0
  0
ENDTAB
  0
TABLE
  2
APPID
  5
9
330
0
100
AcDbSymbolTable
 70
     1
  0
APPID
  5
12
330
9
100
AcDbSymbolTableRecord
100
AcDbRegAppTableRecord
  2
ACAD
 70
     0
  0
ENDTAB
  0
TABLE
  2
DIMSTYLE
  5
A
330
0
100
AcDbSymbolTable
 70
     7
100
AcDbDimStyleTable
  0
DIMSTYLE
105
27
330
A
100
AcDbSymbolTableRecord
100
AcDbDimStyleTableRecord
  2
Standard
 70
     0
178
     0
340
11
  0
DIMSTYLE
105
211
102
{ACAD_REACTORS
330
212
102
}
330
A
100
AcDbSymbolTableRecord
100
AcDbDimStyleTableRecord
  2
ME10_DIM_10
 70
     0
  3
{\Fgdt;n}<>
 41
5.25
 42
0.0
 44
1.5
 73
     0
 74
     0
 77
     1
 78
     8
140
5.25
147
1.5
172
     1
173
     1
174
     1
175
     1
176
     2
177
     2
271
     2
178
     7
271
     2
340
1F2
  0
DIMSTYLE
105
21C
102
{ACAD_REACTORS
330
21D
102
}
330
A
100
AcDbSymbolTableRecord
100
AcDbDimStyleTableRecord
  2
ME10_DIM_11
 70
     0
 41
5.25
 42
0.0
 44
1.5
 73
     0
 74
     0
 77
     1
 78
     8
140
5.25
147
1.5
172
     1
173
     1
174
     1
175
     1
176
     2
177
     2
271
     2
178
     7
271
     2
340
1F2
  0
DIMSTYLE
105
227
102
{ACAD_REACTORS
330
228
102
}
330
A
100
AcDbSymbolTableRecord
100
AcDbDimStyleTableRecord
  2
ME10_DIM_12
 70
     0
 41
5.25
 42
0.0
 44
1.5
 73
     0
 74
     0
 77
     1
 78
     8
140
5.25
147
1.5
172
     1
173
     1
174
     1
175
     1
176
     2
177
     2
271
     2
178
     7
271
     2
340
1F2
  0
DIMSTYLE
105
232
102
{ACAD_REACTORS
330
233
102
}
330
A
100
AcDbSymbolTableRecord
100
AcDbDimStyleTableRecord
  2
ME10_DIM_13
 70
     0
 41
5.25
 42
0.0
 44
1.5
 73
     0
 74
     0
 77
     1
 78
     8
140
5.25
147
1.5
172
     1
173
     1
174
     1
175
     1
176
     2
177
     2
271
     2
178
     7
271
     2
340
1F2
  0
DIMSTYLE
105
23D
102
{ACAD_REACTORS
330
23E
102
}
330
A
100
AcDbSymbolTableRecord
100
AcDbDimStyleTableRecord
  2
ME10_DIM_14
 70
     0
 41
5.25
 42
0.0
 44
1.5
 73
     0
 74
     0
 77
     1
 78
     8
140
5.25
147
1.5
172
     1
173
     1
174
     1
175
     1
176
     2
177
     2
271
     2
178
     7
271
     2
340
1F2
  0
DIMSTYLE
105
248
102
{ACAD_REACTORS
330
249
102
}
330
A
100
AcDbSymbolTableRecord
100
AcDbDimStyleTableRecord
  2
ME10_DIM_15
 70
     0
 41
5.25
 42
0.0
 44
1.5
 73
     0
 74
     0
 77
     1
 78
     8
140
5.25
147
1.5
172
     1
173
     1
174
     1
175
     1
176
     2
177
     2
271
     2
178
     7
271
     2
340
1F2
  0
ENDTAB
  0
TABLE
  2
BLOCK_RECORD
  5
1
330
0
100
AcDbSymbolTable
 70
    10
  0
BLOCK_RECORD
  5
1F
330
1
100
AcDbSymbolTableRecord
100
AcDbBlockTableRecord
  2
*Model_Space
340
22
  0
BLOCK_RECORD
  5
1B
330
1
100
AcDbSymbolTableRecord
100
AcDbBlockTableRecord
  2
*Paper_Space
340
1E
  0
BLOCK_RECORD
  5
23
330
1
100
AcDbSymbolTableRecord
100
AcDbBlockTableRecord
  2
*Paper_Space0
340
26
  0
BLOCK_RECORD
  5
4C
330
1
100
AcDbSymbolTableRecord
100
AcDbBlockTableRecord
  2
開示A4
340
0
102
{BLKREFS
331
56
102
}
  0
BLOCK_RECORD
  5
4F
330
1
100
AcDbSymbolTableRecord
100
AcDbBlockTableRecord
  2
R37-182FX-S
340
0
102
{BLKREFS
331
53
102
}
  0
BLOCK_RECORD
  5
52
330
1
100
AcDbSymbolTableRecord
100
AcDbBlockTableRecord
  2
分岐コック
340
0
102
{BLKREFS
331
57
102
}
  0
BLOCK_RECORD
  5
208
330
1
100
AcDbSymbolTableRecord
100
AcDbBlockTableRecord
  2
*D4
340
0
  0
BLOCK_RECORD
  5
213
330
1
100
AcDbSymbolTableRecord
100
AcDbBlockTableRecord
  2
*D5
340
0
  0
BLOCK_RECORD
  5
21E
330
1
100
AcDbSymbolTableRecord
100
AcDbBlockTableRecord
  2
*D6
340
0
  0
BLOCK_RECORD
  5
229
330
1
100
AcDbSymbolTableRecord
100
AcDbBlockTableRecord
  2
*D7
340
0
  0
BLOCK_RECORD
  5
234
330
1
100
AcDbSymbolTableRecord
100
AcDbBlockTableRecord
  2
*D8
340
0
  0
BLOCK_RECORD
  5
23F
330
1
100
AcDbSymbolTableRecord
100
AcDbBlockTableRecord
  2
*D9
340
0
  0
ENDTAB
  0
ENDSEC
  0
SECTION
  2
BLOCKS
  0
BLOCK
  5
20
330
1F
100
AcDbEntity
  8
0
100
AcDbBlockBegin
  2
*Model_Space
 70
     0
 10
0.0
 20
0.0
 30
0.0
  3
*Model_Space
  1

  0
ENDBLK
  5
21
330
1F
100
AcDbEntity
  8
0
100
AcDbBlockEnd
  0
BLOCK
  5
1C
330
1B
100
AcDbEntity
 67
     1
  8
0
100
AcDbBlockBegin
  2
*Paper_Space
 70
     0
 10
0.0
 20
0.0
 30
0.0
  3
*Paper_Space
  1

  0
ENDBLK
  5
1D
330
1B
100
AcDbEntity
 67
     1
  8
0
100
AcDbBlockEnd
  0
BLOCK
  5
24
330
23
100
AcDbEntity
  8
0
100
AcDbBlockBegin
  2
*Paper_Space0
 70
     0
 10
0.0
 20
0.0
 30
0.0
  3
*Paper_Space0
  1

  0
ENDBLK
  5
25
330
23
100
AcDbEntity
  8
0
100
AcDbBlockEnd
  0
BLOCK
  5
4D
330
4C
100
AcDbEntity
  8
0
100
AcDbBlockBegin
  2
開示A4
 70
     0
 10
0.0
 20
0.0
 30
0.0
  3
開示A4
  1

  0
POINT
  5
58
330
4C
100
AcDbEntity
  8
1
 62
     4
100
AcDbPoint
 10
34.0
 20
34.00000000000001
 30
0.0
  0
POINT
  5
59
330
4C
100
AcDbEntity
  8
1
 62
     4
100
AcDbPoint
 10
57.0
 20
12.25
 30
0.0
  0
POINT
  5
5A
330
4C
100
AcDbEntity
  8
1
 62
     4
100
AcDbPoint
 10
57.0
 20
20.75000000000001
 30
0.0
  0
POINT
  5
5B
330
4C
100
AcDbEntity
  8
1
 62
     4
100
AcDbPoint
 10
57.0
 20
24.75000000000001
 30
0.0
  0
POINT
  5
5C
330
4C
100
AcDbEntity
  8
1
 62
     4
100
AcDbPoint
 10
57.0
 20
16.25
 30
0.0
  0
POINT
  5
5D
330
4C
100
AcDbEntity
  8
1
 62
     4
100
AcDbPoint
 10
157.5
 20
19.00000000000001
 30
0.0
  0
POINT
  5
5E
330
4C
100
AcDbEntity
  8
1
 62
     4
100
AcDbPoint
 10
47.5
 20
282.0000000000003
 30
0.0
  0
POINT
  5
5F
330
4C
100
AcDbEntity
  8
1
 62
     4
100
AcDbPoint
 10
57.0
 20
22.75000000000001
 30
0.0
  0
POINT
  5
60
330
4C
100
AcDbEntity
  8
1
 62
     4
100
AcDbPoint
 10
57.0
 20
14.25
 30
0.0
  0
POINT
  5
61
330
4C
100
AcDbEntity
  8
1
 62
     4
100
AcDbPoint
 10
157.5
 20
12.5
 30
0.0
  0
POINT
  5
62
330
4C
100
AcDbEntity
  8
1
 62
     4
100
AcDbPoint
 10
163.25
 20
12.5
 30
0.0
  0
POINT
  5
63
330
4C
100
AcDbEntity
  8
1
 62
     4
100
AcDbPoint
 10
151.75
 20
12.5
 30
0.0
  0
POINT
  5
64
330
4C
100
AcDbEntity
  8
1
 62
     4
100
AcDbPoint
 10
134.75
 20
12.5
 30
0.0
  0
POINT
  5
65
330
4C
100
AcDbEntity
  8
1
 62
     4
100
AcDbPoint
 10
146.25
 20
12.5
 30
0.0
  0
POINT
  5
66
330
4C
100
AcDbEntity
  8
1
 62
     4
100
AcDbPoint
 10
140.5
 20
12.5
 30
0.0
  0
POINT
  5
67
330
4C
100
AcDbEntity
  8
1
 62
     4
100
AcDbPoint
 10
140.5
 20
19.00000000000001
 30
0.0
  0
POINT
  5
68
330
4C
100
AcDbEntity
  8
1
 62
     4
100
AcDbPoint
 10
117.75
 20
12.5
 30
0.0
  0
POINT
  5
69
330
4C
100
AcDbEntity
  8
1
 62
     4
100
AcDbPoint
 10
129.25
 20
12.5
 30
0.0
  0
POINT
  5
6A
330
4C
100
AcDbEntity
  8
1
 62
     4
100
AcDbPoint
 10
123.5
 20
12.5
 30
0.0
  0
POINT
  5
6B
330
4C
100
AcDbEntity
  8
1
 62
     4
100
AcDbPoint
 10
123.5
 20
19.00000000000001
 30
0.0
  0
POINT
  5
6C
330
4C
100
AcDbEntity
  8
1
 62
     4
100
AcDbPoint
 10
100.75
 20
12.5
 30
0.0
  0
POINT
  5
6D
330
4C
100
AcDbEntity
  8
1
 62
     4
100
AcDbPoint
 10
112.25
 20
12.5
 30
0.0
  0
POINT
  5
6E
330
4C
100
AcDbEntity
  8
1
 62
     4
100
AcDbPoint
 10
106.5
 20
12.5
 30
0.0
  0
POINT
  5
6F
330
4C
100
AcDbEntity
  8
1
 62
     4
100
AcDbPoint
 10
106.5
 20
19.00000000000001
 30
0.0
  0
POINT
  5
70
330
4C
100
AcDbEntity
  8
1
 62
     4
100
AcDbPoint
 10
85.25
 20
17.0
 30
0.0
  0
POINT
  5
71
330
4C
100
AcDbEntity
  8
1
 62
     4
100
AcDbPoint
 10
93.75
 20
17.0
 30
0.0
  0
LINE
  5
72
330
4C
100
AcDbEntity
  8
1
  6
Continuous
 62
     2
100
AcDbLine
 10
81.0
 20
27.00000000000001
 30
0.0
 11
81.0
 21
10.0
 31
0.0
  0
LINE
  5
73
330
4C
100
AcDbEntity
  8
1
  6
DOT_CENTER
 62
     2
100
AcDbLine
 10
187.0
 20
26.50000000000001
 30
0.0
 11
187.0
 21
20.50000000000001
 31
0.0
  0
LINE
  5
74
330
4C
100
AcDbEntity
  8
1
  6
DOT_CENTER
 62
     2
100
AcDbLine
 10
184.0
 20
23.50000000000001
 30
0.0
 11
197.0
 21
23.50000000000001
 31
0.0
  0
LINE
  5
75
330
4C
100
AcDbEntity
  8
1
  6
Continuous
 62
     7
100
AcDbLine
 10
196.0
 20
21.50000000000001
 30
0.0
 11
191.0
 21
22.30000000000001
 31
0.0
  0
LINE
  5
76
330
4C
100
AcDbEntity
  8
1
  6
Continuous
 62
     7
100
AcDbLine
 10
196.0
 20
25.50000000000001
 30
0.0
 11
196.0
 21
21.50000000000001
 31
0.0
  0
LINE
  5
77
330
4C
100
AcDbEntity
  8
1
  6
Continuous
 62
     7
100
AcDbLine
 10
191.0
 20
24.7
 30
0.0
 11
196.0
 21
25.50000000000001
 31
0.0
  0
LINE
  5
78
330
4C
100
AcDbEntity
  8
1
  6
Continuous
 62
     7
100
AcDbLine
 10
191.0
 20
24.7
 30
0.0
 11
191.0
 21
22.30000000000001
 31
0.0
  0
LINE
  5
79
330
4C
100
AcDbEntity
  8
1
  6
Continuous
 62
     2
100
AcDbLine
 10
33.0
 20
27.0
 30
0.0
 11
33.0
 21
10.0
 31
0.0
  0
LINE
  5
7A
330
4C
100
AcDbEntity
  8
1
  6
Continuous
 62
     2
100
AcDbLine
 10
25.0
 20
18.50000000000001
 30
0.0
 11
81.0
 21
18.50000000000001
 31
0.0
  0
LINE
  5
7B
330
4C
100
AcDbEntity
  8
1
  6
Continuous
 62
     7
100
AcDbLine
 10
200.0
 20
287.0000000000003
 30
0.0
 11
105.0
 21
287.0000000000003
 31
0.0
  0
LINE
  5
7C
330
4C
100
AcDbEntity
  8
1
  6
Continuous
 62
     7
100
AcDbLine
 10
200.0
 20
10.0
 30
0.0
 11
200.0
 21
148.5
 31
0.0
  0
LINE
  5
7D
330
4C
100
AcDbEntity
  8
1
  6
Continuous
 62
     7
100
AcDbLine
 10
25.0
 20
10.0
 30
0.0
 11
105.0
 21
10.0
 31
0.0
  0
LINE
  5
7E
330
4C
100
AcDbEntity
  8
1
  6
PHANTOM
 62
     4
100
AcDbLine
 10
0.0
 20
297.0
 30
0.0
 11
0.0
 21
0.0
 31
0.0
  0
LINE
  5
7F
330
4C
100
AcDbEntity
  8
1
  6
PHANTOM
 62
     4
100
AcDbLine
 10
210.0
 20
297.0
 30
0.0
 11
0.0
 21
297.0
 31
0.0
  0
LINE
  5
80
330
4C
100
AcDbEntity
  8
1
  6
PHANTOM
 62
     4
100
AcDbLine
 10
210.0
 20
0.0
 30
0.0
 11
210.0
 21
297.0
 31
0.0
  0
LINE
  5
81
330
4C
100
AcDbEntity
  8
1
  6
PHANTOM
 62
     4
100
AcDbLine
 10
0.0
 20
0.0
 30
0.0
 11
210.0
 21
0.0
 31
0.0
  0
LINE
  5
82
330
4C
100
AcDbEntity
  8
1
  6
Continuous
 62
     7
100
AcDbLine
 10
25.0
 20
41.0
 30
0.0
 11
200.0
 21
41.0
 31
0.0
  0
LINE
  5
83
330
4C
100
AcDbEntity
  8
1
  6
Continuous
 62
     7
100
AcDbLine
 10
200.0
 20
27.00000000000001
 30
0.0
 11
25.0
 21
27.00000000000001
 31
0.0
  0
LINE
  5
84
330
4C
100
AcDbEntity
  8
1
  6
Continuous
 62
     2
100
AcDbLine
 10
33.0
 20
41.00000000000001
 30
0.0
 11
33.0
 21
27.0
 31
0.0
  0
LINE
  5
85
330
4C
100
AcDbEntity
  8
1
  6
Continuous
 62
     2
100
AcDbLine
 10
55.0
 20
287.0000000000003
 30
0.0
 11
55.0
 21
277.0000000000003
 31
0.0
  0
LINE
  5
86
330
4C
100
AcDbEntity
  8
1
  6
Continuous
 62
     2
100
AcDbLine
 10
40.0
 20
287.0000000000003
 30
0.0
 11
40.0
 21
277.0000000000003
 31
0.0
  0
LINE
  5
87
330
4C
100
AcDbEntity
  8
1
  6
Continuous
 62
     7
100
AcDbLine
 10
25.0
 20
10.0
 30
0.0
 11
25.0
 21
148.5
 31
0.0
  0
LINE
  5
88
330
4C
100
AcDbEntity
  8
1
  6
Continuous
 62
     2
100
AcDbLine
 10
55.0
 20
277.0000000000003
 30
0.0
 11
25.0
 21
277.0000000000003
 31
0.0
  0
LINE
  5
89
330
4C
100
AcDbEntity
  8
1
  6
Continuous
 62
     2
100
AcDbLine
 10
166.0
 20
27.00000000000001
 30
0.0
 11
166.0
 21
10.0
 31
0.0
  0
LINE
  5
8A
330
4C
100
AcDbEntity
  8
1
  6
Continuous
 62
     2
100
AcDbLine
 10
149.0
 20
27.00000000000001
 30
0.0
 11
149.0
 21
10.0
 31
0.0
  0
LINE
  5
8B
330
4C
100
AcDbEntity
  8
1
  6
Continuous
 62
     2
100
AcDbLine
 10
115.0
 20
27.00000000000001
 30
0.0
 11
115.0
 21
9.99999999999999
 31
0.0
  0
LINE
  5
8C
330
4C
100
AcDbEntity
  8
1
  6
Continuous
 62
     2
100
AcDbLine
 10
98.0
 20
27.00000000000001
 30
0.0
 11
98.0
 21
9.99999999999999
 31
0.0
  0
LINE
  5
8D
330
4C
100
AcDbEntity
  8
1
  6
Continuous
 62
     2
100
AcDbLine
 10
166.0
 20
20.00000000000001
 30
0.0
 11
200.0
 21
20.00000000000001
 31
0.0
  0
LINE
  5
8E
330
4C
100
AcDbEntity
  8
1
  6
Continuous
 62
     2
100
AcDbLine
 10
105.0
 20
287.0000000000003
 30
0.0
 11
105.0
 21
292.0000000000003
 31
0.0
  0
LINE
  5
8F
330
4C
100
AcDbEntity
  8
1
  6
Continuous
 62
     7
100
AcDbLine
 10
105.0
 20
287.0000000000003
 30
0.0
 11
25.0
 21
287.0000000000003
 31
0.0
  0
LINE
  5
90
330
4C
100
AcDbEntity
  8
1
  6
Continuous
 62
     2
100
AcDbLine
 10
25.0
 20
148.5
 30
0.0
 11
20.0
 21
148.5
 31
0.0
  0
LINE
  5
91
330
4C
100
AcDbEntity
  8
1
  6
Continuous
 62
     7
100
AcDbLine
 10
25.0
 20
148.5
 30
0.0
 11
25.0
 21
287.0000000000003
 31
0.0
  0
LINE
  5
92
330
4C
100
AcDbEntity
  8
1
  6
Continuous
 62
     2
100
AcDbLine
 10
200.0
 20
148.5
 30
0.0
 11
205.0
 21
148.5
 31
0.0
  0
LINE
  5
93
330
4C
100
AcDbEntity
  8
1
  6
Continuous
 62
     7
100
AcDbLine
 10
200.0
 20
148.5
 30
0.0
 11
200.0
 21
287.0000000000003
 31
0.0
  0
LINE
  5
94
330
4C
100
AcDbEntity
  8
1
  6
Continuous
 62
     2
100
AcDbLine
 10
105.0
 20
10.0
 30
0.0
 11
105.0
 21
5.0
 31
0.0
  0
LINE
  5
95
330
4C
100
AcDbEntity
  8
1
  6
Continuous
 62
     7
100
AcDbLine
 10
105.0
 20
10.0
 30
0.0
 11
200.0
 21
10.0
 31
0.0
  0
LINE
  5
96
330
4C
100
AcDbEntity
  8
1
  6
Continuous
 62
     2
100
AcDbLine
 10
132.0
 20
27.00000000000001
 30
0.0
 11
132.0
 21
9.99999999999999
 31
0.0
  0
CIRCLE
  5
97
330
4C
100
AcDbEntity
  8
1
  6
DOT_CENTER
 62
     7
100
AcDbCircle
 10
89.5
 20
18.0
 30
0.0
 40
0.1000000000000227
  0
CIRCLE
  5
98
330
4C
100
AcDbEntity
  8
1
  6
DOT_CENTER
 62
     7
100
AcDbCircle
 10
89.5
 20
16.0
 30
0.0
 40
0.1000000000000227
  0
CIRCLE
  5
99
330
4C
100
AcDbEntity
  8
1
  6
Continuous
 62
     7
100
AcDbCircle
 10
187.0
 20
23.50000000000001
 30
0.0
 40
2.0
  0
CIRCLE
  5
9A
330
4C
100
AcDbEntity
  8
1
  6
Continuous
 62
     7
100
AcDbCircle
 10
187.0
 20
23.50000000000001
 30
0.0
 40
1.200000000000102
  0
CIRCLE
  5
9B
330
4C
100
AcDbEntity
  8
1
  6
Continuous
 62
     7
100
AcDbCircle
 10
154.5
 20
12.5
 30
0.0
 40
0.3000000000000114
  0
CIRCLE
  5
9C
330
4C
100
AcDbEntity
  8
1
  6
Continuous
 62
     7
100
AcDbCircle
 10
160.5
 20
12.5
 30
0.0
 40
0.3000000000000114
  0
CIRCLE
  5
9D
330
4C
100
AcDbEntity
  8
1
  6
Continuous
 62
     7
100
AcDbCircle
 10
143.5
 20
12.5
 30
0.0
 40
0.3000000000000114
  0
CIRCLE
  5
9E
330
4C
100
AcDbEntity
  8
1
  6
Continuous
 62
     7
100
AcDbCircle
 10
137.5
 20
12.5
 30
0.0
 40
0.3000000000000114
  0
CIRCLE
  5
9F
330
4C
100
AcDbEntity
  8
1
  6
Continuous
 62
     7
100
AcDbCircle
 10
126.5
 20
12.5
 30
0.0
 40
0.2999999999999972
  0
CIRCLE
  5
A0
330
4C
100
AcDbEntity
  8
1
  6
Continuous
 62
     7
100
AcDbCircle
 10
120.5
 20
12.5
 30
0.0
 40
0.2999999999999972
  0
CIRCLE
  5
A1
330
4C
100
AcDbEntity
  8
1
  6
Continuous
 62
     7
100
AcDbCircle
 10
109.5
 20
12.5
 30
0.0
 40
0.2999999999999972
  0
CIRCLE
  5
A2
330
4C
100
AcDbEntity
  8
1
  6
Continuous
 62
     7
100
AcDbCircle
 10
103.5
 20
12.5
 30
0.0
 40
0.2999999999999972
  0
MTEXT
  5
A4
330
4C
100
AcDbEntity
  8
1
 62
   250
100
AcDbMText
 10
25.0
 20
5.0
 30
0.0
 40
3.5
 41
0.0
 71
     4
 72
     1
  1
備考欄の文字列 原点位置=4
  7
CONVERTER_11
 73
     1
 44
0.54545454545455
  0
MTEXT
  5
A5
330
4C
100
AcDbEntity
  8
1
 62
     2
100
AcDbMText
 10
89.5
 20
24.00000000000001
 30
0.0
 40
3.5
 41
0.0
 71
     5
 72
     1
  1
尺度
  7
CONVERTER_11
 73
     1
 44
0.54545454545455
  0
MTEXT
  5
A6
330
4C
100
AcDbEntity
  8
1
 62
     2
100
AcDbMText
 10
135.5
 20
25.00000000000001
 30
0.0
 40
3.0
 41
0.0
 71
     5
 72
     1
  1
製図
  7
CONVERTER_11
 73
     1
 44
0.59090909090909
  0
MTEXT
  5
A7
330
4C
100
AcDbEntity
  8
1
 62
     2
100
AcDbMText
 10
152.5
 20
25.00000000000001
 30
0.0
 40
3.0
 41
0.0
 71
     5
 72
     1
  1
担当
  7
CONVERTER_11
 73
     1
 44
0.59090909090909
  0
MTEXT
  5
A8
330
4C
100
AcDbEntity
  8
1
 62
     2
100
AcDbMText
 10
118.5
 20
25.00000000000001
 30
0.0
 40
3.0
 41
0.0
 71
     5
 72
     1
  1
検図
  7
CONVERTER_11
 73
     1
 44
0.59090909090909
  0
MTEXT
  5
A9
330
4C
100
AcDbEntity
  8
1
 62
     2
100
AcDbMText
 10
175.0
 20
23.50000000000001
 30
0.0
 40
3.5
 41
0.0
 71
     5
 72
     1
  1
第三角法
  7
CONVERTER_11
 73
     1
 44
0.54545454545455
  0
MTEXT
  5
AA
330
4C
100
AcDbEntity
  8
1
 62
     2
100
AcDbMText
 10
101.5
 20
25.00000000000001
 30
0.0
 40
3.0
 41
0.0
 71
     5
 72
     1
  1
承認
  7
CONVERTER_11
 73
     1
 44
0.59090909090909
  0
MTEXT
  5
AB
330
4C
100
AcDbEntity
  8
1
 62
     2
100
AcDbMText
 10
29.0
 20
14.25
 30
0.0
 40
3.5
 41
0.0
 71
     5
 72
     1
  1
品番
  7
CONVERTER_11
 73
     1
 44
0.72727272727273
  0
MTEXT
  5
AC
330
4C
100
AcDbEntity
  8
1
 62
     2
100
AcDbMText
 10
29.0
 20
22.75
 30
0.0
 40
3.5
 41
0.0
 71
     5
 72
     1
  1
品名
  7
CONVERTER_11
 73
     1
 44
0.72727272727273
  0
MTEXT
  5
AD
330
4C
100
AcDbEntity
  8
1
 62
     2
100
AcDbMText
 10
29.0
 20
34.00000000000001
 30
0.0
 40
3.5
 41
0.0
 71
     5
 72
     1
  1
備考
  7
CONVERTER_11
 73
     1
 44
0.45454545454545
  0
MTEXT
  5
AE
330
4C
100
AcDbEntity
  8
1
 62
     2
100
AcDbMText
 10
32.5
 20
282.0000000000003
 30
0.0
 40
5.0
 41
0.0
 71
     5
 72
     1
  1
図番
  7
CONVERTER_11
 73
     1
 44
0.45454545454545
  0
MTEXT
  5
AF
330
4C
100
AcDbEntity
  8
1
 62
     7
100
AcDbMText
 10
171.5
 20
15.0
 30
0.0
 40
2.5
 41
0.0
 71
     5
 72
     1
  1
株式会社
  7
CONVERTER_11
 73
     1
 44
1.0
  0
MTEXT
  5
B0
330
4C
100
AcDbEntity
  8
1
 62
     7
100
AcDbMText
 10
188.5
 20
15.0
 30
0.0
 40
3.0
 41
0.0
 71
     5
 72
     1
  1
三栄水栓製作所
  7
CONVERTER_11
 73
     1
 44
1.0
  0
ENDBLK
  5
4E
330
4C
100
AcDbEntity
  8
0
100
AcDbBlockEnd
  0
BLOCK
  5
50
330
4F
100
AcDbEntity
  8
0
100
AcDbBlockBegin
  2
R37-182FX-S
 70
     0
 10
44.11762128126873
 20
163.0331355748377
 30
0.0
  3
R37-182FX-S
  1

  0
LINE
  5
B1
330
4F
100
AcDbEntity
  8
1
  6
PHANTOM
 62
     4
100
AcDbLine
 10
130.1386702179186
 20
227.1505142117324
 30
0.0
 11
130.1386702179186
 21
175.6505142117324
 31
0.0
  0
ENDBLK
  5
51
330
4F
100
AcDbEntity
  8
0
100
AcDbBlockEnd
  0
BLOCK
  5
54
330
52
100
AcDbEntity
  8
0
100
AcDbBlockBegin
  2
分岐コック
 70
     0
 10
233.5085730637618
 20
883.44455080691
 30
0.0
  3
分岐コック
  1

  0
INSERT
  5
53
330
52
100
AcDbEntity
  8
0
100
AcDbBlockReference
  2
R37-182FX-S
 10
44.11762128126873
 20
163.0331355748377
 30
0.0
  0
POINT
  5
B2
330
52
100
AcDbEntity
  8
LEVEL001
 62
     7
100
AcDbPoint
 10
146.3886702179187
 20
199.6783777520935
 30
0.0
  0
POINT
  5
B3
330
52
100
AcDbEntity
  8
LEVEL001
 62
     7
100
AcDbPoint
 10
113.8886702179187
 20
199.6783777520935
 30
0.0
  0
POINT
  5
B4
330
52
100
AcDbEntity
  8
LEVEL001
 62
     7
100
AcDbPoint
 10
146.3886702179187
 20
199.6783777520935
 30
0.0
  0
POINT
  5
B5
330
52
100
AcDbEntity
  8
LEVEL001
 62
     7
100
AcDbPoint
 10
130.1386702179187
 20
169.9505142117324
 30
0.0
  0
POINT
  5
B6
330
52
100
AcDbEntity
  8
LEVEL001
 62
     7
100
AcDbPoint
 10
113.8886702179187
 20
199.6783777520935
 30
0.0
  0
POINT
  5
B7
330
52
100
AcDbEntity
  8
LEVEL001
 62
     7
100
AcDbPoint
 10
103.8886702179287
 20
193.7005142116835
 30
0.0
  0
POINT
  5
B8
330
52
100
AcDbEntity
  8
LEVEL001
 62
     7
100
AcDbPoint
 10
100.1386702162399
 20
358.5000000006597
 30
0.0
  0
POINT
  5
B9
330
52
100
AcDbEntity
  8
LEVEL001
 62
     7
100
AcDbPoint
 10
130.1386702172597
 20
342.2500000003399
 30
0.0
  0
LINE
  5
BA
330
52
100
AcDbEntity
  8
1
  6
Continuous
 62
     7
100
AcDbLine
 10
148.6386702168897
 20
368.9999999990899
 30
0.0
 11
148.6386702168897
 21
348.0000000009198
 31
0.0
  0
LINE
  5
BB
330
52
100
AcDbEntity
  8
LEVEL001
  6
Continuous
 62
     7
100
AcDbLine
 10
109.6386702186298
 20
348.0000000008499
 30
0.0
 11
109.6386702168698
 21
347.9999999990899
 31
0.0
  0
LINE
  5
BC
330
52
100
AcDbEntity
  8
LEVEL001
  6
Continuous
 62
     7
100
AcDbLine
 10
109.6386702186298
 20
353.927346900128
 30
0.0
 11
107.1386702171517
 21
354.5021118410318
 31
0.0
  0
LINE
  5
BD
330
52
100
AcDbEntity
  8
1
  6
Continuous
 62
     7
100
AcDbLine
 10
109.6386702186298
 20
353.927346900128
 30
0.0
 11
109.6386702186298
 21
348.0000000008499
 31
0.0
  0
LINE
  5
BE
330
52
100
AcDbEntity
  8
LEVEL001
  6
Continuous
 62
     7
100
AcDbLine
 10
109.6386702186298
 20
363.072653101367
 30
0.0
 11
107.1386702170717
 21
362.497888160443
 31
0.0
  0
LINE
  5
BF
330
52
100
AcDbEntity
  8
1
  6
Continuous
 62
     7
100
AcDbLine
 10
109.6386702186298
 20
368.9999999993399
 30
0.0
 11
109.6386702186298
 21
363.072653101367
 31
0.0
  0
LINE
  5
C0
330
52
100
AcDbEntity
  8
LEVEL001
  6
Continuous
 62
     7
100
AcDbLine
 10
109.6386702168698
 20
347.9999999990899
 30
0.0
 11
108.7236067082498
 21
348.00000000001
 31
0.0
  0
LINE
  5
C1
330
52
100
AcDbEntity
  8
LEVEL001
  6
Continuous
 62
     7
100
AcDbLine
 10
110.8886702184597
 20
349.2499999997299
 30
0.0
 11
109.6386702186298
 21
348.0000000008499
 31
0.0
  0
LINE
  5
C2
330
52
100
AcDbEntity
  8
LEVEL001
  6
Continuous
 62
     7
100
AcDbLine
 10
113.8886702179187
 20
175.4505142117002
 30
0.0
 11
113.8886702179187
 21
193.4505142117035
 31
0.0
  0
LINE
  5
C3
330
52
100
AcDbEntity
  8
1
  6
PHANTOM
 62
     4
100
AcDbLine
 10
157.3886702179037
 20
184.4505142116994
 30
0.0
 11
100.8886702179488
 21
184.4505142116994
 31
0.0
  0
LINE
  5
C4
330
52
100
AcDbEntity
  8
1
  6
PHANTOM
 62
     4
100
AcDbLine
 10
130.1386702179187
 20
232.9505142117324
 30
0.0
 11
130.1386702179187
 21
166.9505142117324
 31
0.0
  0
LINE
  5
C5
330
52
100
AcDbEntity
  8
LEVEL001
  6
Continuous
 62
     7
100
AcDbLine
 10
145.6474892630188
 20
200.6443035783835
 30
0.0
 11
143.3798511728157
 21
201.2519153733745
 31
0.0
  0
LINE
  5
C6
330
52
100
AcDbEntity
  8
LEVEL001
  6
Continuous
 62
     7
100
AcDbLine
 10
114.6298511728188
 20
200.6443035783835
 30
0.0
 11
116.8974892630188
 21
201.2519153733734
 31
0.0
  0
LINE
  5
C7
330
52
100
AcDbEntity
  8
LEVEL001
  6
Continuous
 62
     7
100
AcDbLine
 10
146.3886702179187
 20
193.9505142117035
 30
0.0
 11
146.3886702179187
 21
199.6783777520935
 31
0.0
  0
LINE
  5
C8
330
52
100
AcDbEntity
  8
LEVEL001
  6
Continuous
 62
     7
100
AcDbLine
 10
147.3886702179087
 20
193.7005142116935
 30
0.0
 11
148.6386702179087
 21
194.9505142116935
 31
0.0
  0
LINE
  5
C9
330
52
100
AcDbEntity
  8
LEVEL001
  6
Continuous
 62
     7
100
AcDbLine
 10
145.6252345233768
 20
202.4636026858873
 30
0.0
 11
144.9563409567388
 21
228.0076174297332
 31
0.0
  0
LINE
  5
CA
330
52
100
AcDbEntity
  8
LEVEL001
  6
Continuous
 62
     7
100
AcDbLine
 10
114.4226025377888
 20
225.9062542805035
 30
0.0
 11
101.0863342616688
 21
225.2073300762334
 31
0.0
  0
LINE
  5
CB
330
52
100
AcDbEntity
  8
LEVEL001
  6
Continuous
 62
     7
100
AcDbLine
 10
100.1386702179187
 20
208.9505142117335
 30
0.0
 11
100.1386702179187
 21
224.2087005414734
 31
0.0
  0
LINE
  5
CC
330
52
100
AcDbEntity
  8
LEVEL001
  6
Continuous
 62
     7
100
AcDbLine
 10
113.7692570332688
 20
207.9505142117335
 30
0.0
 11
101.1386702179187
 21
207.9505142117335
 31
0.0
  0
LINE
  5
CD
330
52
100
AcDbEntity
  8
LEVEL001
  6
Continuous
 62
     7
100
AcDbLine
 10
114.6521059124607
 20
202.4636026858873
 30
0.0
 11
115.3209994790927
 21
228.0076174297415
 31
0.0
  0
LINE
  5
CE
330
52
100
AcDbEntity
  8
LEVEL001
  6
Continuous
 62
     7
100
AcDbLine
 10
147.3886702179087
 20
175.2005142117074
 30
0.0
 11
148.6386702179087
 21
173.9505142117074
 31
0.0
  0
LINE
  5
CF
330
52
100
AcDbEntity
  8
LEVEL001
  6
Continuous
 62
     7
100
AcDbLine
 10
147.3886702179087
 20
175.2005142117074
 30
0.0
 11
147.3886702179087
 21
193.5505142117034
 31
0.0
  0
LINE
  5
D0
330
52
100
AcDbEntity
  8
LEVEL001
  6
Continuous
 62
     7
100
AcDbLine
 10
147.3886702179087
 20
193.4505142117035
 30
0.0
 11
147.3886702179087
 21
193.7005142116935
 31
0.0
  0
LINE
  5
D1
330
52
100
AcDbEntity
  8
LEVEL001
  6
Continuous
 62
     7
100
AcDbLine
 10
113.8886702179187
 20
173.4460601274555
 30
0.0
 11
113.8886702179187
 21
175.4505142117002
 31
0.0
  0
LINE
  5
D2
330
52
100
AcDbEntity
  8
LEVEL001
  6
Continuous
 62
     7
100
AcDbLine
 10
146.3886702179087
 20
193.4505142117035
 30
0.0
 11
146.3886702179187
 21
193.9505142117035
 31
0.0
  0
LINE
  5
D3
330
52
100
AcDbEntity
  8
LEVEL001
  6
Continuous
 62
     7
100
AcDbLine
 10
122.6386702179187
 20
169.9505142117144
 30
0.0
 11
130.1386702179187
 21
169.9505142117324
 31
0.0
  0
LINE
  5
D4
330
52
100
AcDbEntity
  8
LEVEL001
  6
Continuous
 62
     7
100
AcDbLine
 10
122.6386702179187
 20
169.9505142117144
 30
0.0
 11
115.0004416502648
 21
171.9971713880219
 31
0.0
  0
LINE
  5
D5
330
52
100
AcDbEntity
  8
LEVEL001
  6
Continuous
 62
     7
100
AcDbLine
 10
137.6386702179187
 20
169.9505142117144
 30
0.0
 11
130.1386702179187
 21
169.9505142117324
 31
0.0
  0
LINE
  5
D6
330
52
100
AcDbEntity
  8
LEVEL001
  6
Continuous
 62
     7
100
AcDbLine
 10
137.6386702179187
 20
169.9505142117144
 30
0.0
 11
145.2768987855687
 21
171.9971713880214
 31
0.0
  0
LINE
  5
D7
330
52
100
AcDbEntity
  8
LEVEL001
  6
Continuous
 62
     7
100
AcDbLine
 10
148.6386702179087
 20
194.9505142116935
 30
0.0
 11
148.8886702179048
 21
194.9505142116935
 31
0.0
  0
LINE
  5
D8
330
52
100
AcDbEntity
  8
LEVEL001
  6
Continuous
 62
     7
100
AcDbLine
 10
148.6386702179087
 20
173.9505142117074
 30
0.0
 11
148.8886702179048
 21
173.9505142117073
 31
0.0
  0
LINE
  5
D9
330
52
100
AcDbEntity
  8
LEVEL001
  6
Continuous
 62
     7
100
AcDbLine
 10
110.8886702179287
 20
175.4505142116994
 30
0.0
 11
110.8886702179287
 21
193.7005142117335
 31
0.0
  0
LINE
  5
DA
330
52
100
AcDbEntity
  8
LEVEL001
  6
Continuous
 62
     7
100
AcDbLine
 10
105.1386702179588
 20
194.9505142117135
 30
0.0
 11
103.8886702179287
 21
193.7005142116835
 31
0.0
  0
LINE
  5
DB
330
52
100
AcDbEntity
  8
LEVEL001
  6
Continuous
 62
     2
100
AcDbLine
 10
103.8886702179287
 20
193.7005142116835
 30
0.0
 11
110.8886702179287
 21
193.7005142117335
 31
0.0
  0
LINE
  5
DC
330
52
100
AcDbEntity
  8
LEVEL001
  6
Continuous
 62
     7
100
AcDbLine
 10
109.6386702179488
 20
194.9505142117135
 30
0.0
 11
105.1386702179588
 21
194.9505142117135
 31
0.0
  0
LINE
  5
DD
330
52
100
AcDbEntity
  8
LEVEL001
  6
Continuous
 62
     7
100
AcDbLine
 10
110.8886702179287
 20
193.7005142117335
 30
0.0
 11
109.6386702181487
 21
194.9505142117135
 31
0.0
  0
LINE
  5
DE
330
52
100
AcDbEntity
  8
LEVEL001
  6
Continuous
 62
     7
100
AcDbLine
 10
110.8886702179287
 20
175.2005142117053
 30
0.0
 11
110.8886702179287
 21
175.4505142116994
 31
0.0
  0
LINE
  5
DF
330
52
100
AcDbEntity
  8
LEVEL001
  6
Continuous
 62
     7
100
AcDbLine
 10
105.1386702180886
 20
173.9505142116953
 30
0.0
 11
105.1386702179588
 21
173.9505142116953
 31
0.0
  0
LINE
  5
E0
330
52
100
AcDbEntity
  8
LEVEL001
  6
Continuous
 62
     2
100
AcDbLine
 10
103.8886702179688
 20
175.2005142116953
 30
0.0
 11
103.8886702181569
 21
175.2005142116953
 31
0.0
  0
LINE
  5
E1
330
52
100
AcDbEntity
  8
LEVEL001
  6
Continuous
 62
     7
100
AcDbLine
 10
109.6386702181487
 20
173.9505142117003
 30
0.0
 11
110.8886702179287
 21
175.2005142117053
 31
0.0
  0
LINE
  5
E2
330
52
100
AcDbEntity
  8
LEVEL001
  6
Continuous
 62
     7
100
AcDbLine
 10
103.8886702181569
 20
175.2005142116953
 30
0.0
 11
103.8886702179287
 21
193.7005142116835
 31
0.0
  0
LINE
  5
E3
330
52
100
AcDbEntity
  8
LEVEL001
  6
Continuous
 62
     7
100
AcDbLine
 10
115.1519345749488
 20
201.9505142117335
 30
0.0
 11
145.1254058608888
 21
201.9505142117335
 31
0.0
  0
LINE
  5
E4
330
52
100
AcDbEntity
  8
LEVEL001
  6
Continuous
 62
     7
100
AcDbLine
 10
113.8886702179187
 20
193.4505142117035
 30
0.0
 11
110.8886702179287
 21
193.4505142117035
 31
0.0
  0
LINE
  5
E5
330
52
100
AcDbEntity
  8
LEVEL001
  6
Continuous
 62
     7
100
AcDbLine
 10
113.8886702179187
 20
175.4505142117002
 30
0.0
 11
110.8886702179287
 21
175.4505142116994
 31
0.0
  0
LINE
  5
E6
330
52
100
AcDbEntity
  8
LEVEL001
  6
Continuous
 62
     7
100
AcDbLine
 10
146.3886702179187
 20
173.4460601274555
 30
0.0
 11
146.3886702179187
 21
193.9505142117035
 31
0.0
  0
LINE
  5
E7
330
52
100
AcDbEntity
  8
LEVEL001
  6
Continuous
 62
     2
100
AcDbLine
 10
103.8886702181569
 20
175.2005142116953
 30
0.0
 11
110.8886702179287
 21
175.2005142117053
 31
0.0
  0
LINE
  5
E8
330
52
100
AcDbEntity
  8
LEVEL001
  6
Continuous
 62
     2
100
AcDbLine
 10
148.8886702179048
 20
175.2005142117074
 30
0.0
 11
147.3886702179087
 21
175.2005142117074
 31
0.0
  0
LINE
  5
E9
330
52
100
AcDbEntity
  8
LEVEL001
  6
Continuous
 62
     2
100
AcDbLine
 10
148.8886702179048
 20
193.7005142116935
 30
0.0
 11
147.3886702179087
 21
193.7005142116935
 31
0.0
  0
LINE
  5
EA
330
52
100
AcDbEntity
  8
1
  6
Continuous
 62
     7
100
AcDbLine
 10
148.6386702179087
 20
194.9505142116935
 30
0.0
 11
148.6386702179087
 21
173.9505142117074
 31
0.0
  0
LINE
  5
EB
330
52
100
AcDbEntity
  8
LEVEL001
  6
Continuous
 62
     7
100
AcDbLine
 10
113.8886702179187
 20
193.4505142117035
 30
0.0
 11
113.8886702179187
 21
199.6783777520935
 31
0.0
  0
LINE
  5
EC
330
52
100
AcDbEntity
  8
LEVEL001
  6
Continuous
 62
     7
100
AcDbLine
 10
105.1386702180886
 20
173.9505142116953
 30
0.0
 11
109.6386702181487
 21
173.9505142117003
 31
0.0
  0
LINE
  5
ED
330
52
100
AcDbEntity
  8
1
  6
Continuous
 62
     7
100
AcDbLine
 10
109.6386702181487
 20
173.9505142117003
 30
0.0
 11
109.6386702181487
 21
194.9505142117135
 31
0.0
  0
LINE
  5
EE
330
52
100
AcDbEntity
  8
LEVEL001
  6
Continuous
 62
     7
100
AcDbLine
 10
109.6386702181487
 20
194.9505142117135
 30
0.0
 11
109.6386702179488
 21
194.9505142117135
 31
0.0
  0
LINE
  5
EF
330
52
100
AcDbEntity
  8
1
  6
Continuous
 62
     7
100
AcDbLine
 10
105.1386702179588
 20
194.9505142117135
 30
0.0
 11
105.1386702179588
 21
173.9505142116953
 31
0.0
  0
LINE
  5
F0
330
52
100
AcDbEntity
  8
LEVEL001
  6
Continuous
 62
     7
100
AcDbLine
 10
105.1386702179588
 20
173.9505142116953
 30
0.0
 11
103.8886702179688
 21
175.2005142116953
 31
0.0
  0
LINE
  5
F1
330
52
100
AcDbEntity
  8
LEVEL001
  6
Continuous
 62
     7
100
AcDbLine
 10
103.8886702176946
 20
361.7506937378507
 30
0.0
 11
102.46648822831
 21
361.4237255992099
 31
0.0
  0
LINE
  5
F2
330
52
100
AcDbEntity
  8
LEVEL001
  6
Continuous
 62
     7
100
AcDbLine
 10
110.8886702183316
 20
353.6399644299146
 30
0.0
 11
109.6386702186298
 21
353.927346900128
 31
0.0
  0
LINE
  5
F3
330
52
100
AcDbEntity
  8
LEVEL001
  6
Continuous
 62
     7
100
AcDbLine
 10
105.1386702177668
 20
354.9619237933415
 30
0.0
 11
103.8886702177649
 21
355.2493062636239
 31
0.0
  0
LINE
  5
F4
330
52
100
AcDbEntity
  8
LEVEL001
  6
Continuous
 62
     7
100
AcDbLine
 10
103.8886702177649
 20
355.2493062636239
 30
0.0
 11
102.46648822831
 21
355.57627440228
 31
0.0
  0
LINE
  5
F5
330
52
100
AcDbEntity
  8
LEVEL001
  6
Continuous
 62
     7
100
AcDbLine
 10
105.1386702176961
 20
362.0380762081339
 30
0.0
 11
103.8886702176946
 21
361.7506937378507
 31
0.0
  0
LINE
  5
F6
330
52
100
AcDbEntity
  8
LEVEL001
  6
Continuous
 62
     7
100
AcDbLine
 10
110.8886702182201
 20
363.3600355715557
 30
0.0
 11
109.6386702186298
 21
363.072653101367
 31
0.0
  0
LINE
  5
F7
330
52
100
AcDbEntity
  8
LEVEL001
  6
Continuous
 62
     7
100
AcDbLine
 10
110.8886702179297
 20
367.7499999997283
 30
0.0
 11
110.8886702179297
 21
367.74999999979
 31
0.0
  0
LINE
  5
F8
330
52
100
AcDbEntity
  8
LEVEL001
  6
Continuous
 62
     7
100
AcDbLine
 10
103.8886702176946
 20
361.7506937378507
 30
0.0
 11
103.8886702176298
 21
367.7500000002499
 31
0.0
  0
LINE
  5
F9
330
52
100
AcDbEntity
  8
LEVEL001
  6
Continuous
 62
     7
100
AcDbLine
 10
112.8886702175698
 20
363.8198475238588
 30
0.0
 11
110.8886702182201
 21
363.3600355715557
 31
0.0
  0
LINE
  5
FA
330
52
100
AcDbEntity
  8
LEVEL001
  6
Continuous
 62
     7
100
AcDbLine
 10
107.1386702170717
 20
362.497888160443
 30
0.0
 11
105.1386702176961
 21
362.0380762081339
 31
0.0
  0
LINE
  5
FB
330
52
100
AcDbEntity
  8
LEVEL001
  6
Continuous
 62
     7
100
AcDbLine
 10
105.1386702176961
 20
362.0380762081339
 30
0.0
 11
105.1386702176298
 21
369.0000000002499
 31
0.0
  0
LINE
  5
FC
330
52
100
AcDbEntity
  8
LEVEL001
  6
Continuous
 62
     7
100
AcDbLine
 10
107.1386702171517
 20
354.5021118410318
 30
0.0
 11
105.1386702177668
 21
354.9619237933415
 31
0.0
  0
LINE
  5
FD
330
52
100
AcDbEntity
  8
LEVEL001
  6
Continuous
 62
     7
100
AcDbLine
 10
112.8886702177251
 20
353.180152477603
 30
0.0
 11
110.8886702183316
 21
353.6399644299146
 31
0.0
  0
LINE
  5
FE
330
52
100
AcDbEntity
  8
LEVEL001
  6
Continuous
 62
     7
100
AcDbLine
 10
110.8886702184597
 20
349.2499999997299
 30
0.0
 11
110.8886702183316
 21
353.6399644299146
 31
0.0
  0
LINE
  5
FF
330
52
100
AcDbEntity
  8
LEVEL001
  6
Continuous
 62
     7
100
AcDbLine
 10
103.8886702178299
 20
349.25000000003
 30
0.0
 11
103.8886702177649
 21
355.2493062636239
 31
0.0
  0
LINE
  5
100
330
52
100
AcDbEntity
  8
LEVEL001
  6
Continuous
 62
     7
100
AcDbLine
 10
105.1386702178398
 20
348.00000000002
 30
0.0
 11
105.1386702177668
 21
354.9619237933415
 31
0.0
  0
LINE
  5
101
330
52
100
AcDbEntity
  8
LEVEL001
  6
Continuous
 62
     7
100
AcDbLine
 10
115.8470642882901
 20
364.5000000007499
 30
0.0
 11
112.8886702175698
 21
363.8198475238588
 31
0.0
  0
LINE
  5
102
330
52
100
AcDbEntity
  8
LEVEL001
  6
Continuous
 62
     7
100
AcDbLine
 10
115.8470642882901
 20
352.5000000007499
 30
0.0
 11
112.8886702177251
 21
353.180152477603
 31
0.0
  0
LINE
  5
103
330
52
100
AcDbEntity
  8
LEVEL001
  6
Continuous
 62
     7
100
AcDbLine
 10
117.225498646103
 20
357.0000000006639
 30
0.0
 11
116.2192593091799
 21
357.0000000006498
 31
0.0
  0
LINE
  5
104
330
52
100
AcDbEntity
  8
LEVEL001
  6
Continuous
 62
     7
100
AcDbLine
 10
117.22549864607
 20
360.0000000007799
 30
0.0
 11
116.2192593091399
 21
360.0000000007599
 31
0.0
  0
LINE
  5
105
330
52
100
AcDbEntity
  8
LEVEL001
  6
Continuous
 62
     7
100
AcDbLine
 10
124.1386702160039
 20
371.165959494286
 30
0.0
 11
121.7099512388399
 21
366.9592948285799
 31
0.0
  0
LINE
  5
106
330
52
100
AcDbEntity
  8
LEVEL001
  6
Continuous
 62
     7
100
AcDbLine
 10
124.1386702163279
 20
345.83404050734
 30
0.0
 11
121.70995123905
 21
350.0407051729799
 31
0.0
  0
LINE
  5
107
330
52
100
AcDbEntity
  8
LEVEL001
  6
Continuous
 62
     7
100
AcDbLine
 10
121.70995123905
 20
350.0407051729799
 30
0.0
 11
120.9615826988799
 21
349.2923366327599
 31
0.0
  0
LINE
  5
108
330
52
100
AcDbEntity
  8
LEVEL001
  6
Continuous
 62
     7
100
AcDbLine
 10
147.3886702179097
 20
367.7499999991597
 30
0.0
 11
147.3886702169598
 21
358.4999999999999
 31
0.0
  0
LINE
  5
109
330
52
100
AcDbEntity
  8
LEVEL001
  6
Continuous
 62
     7
100
AcDbLine
 10
146.3886702169168
 20
367.74999999945
 30
0.0
 11
146.3886702169197
 21
358.4999999999999
 31
0.0
  0
LINE
  5
10A
330
52
100
AcDbEntity
  8
LEVEL001
  6
Continuous
 62
     7
100
AcDbLine
 10
143.4990594329098
 20
367.74999999951
 30
0.0
 11
146.3886702169168
 21
367.74999999945
 31
0.0
  0
LINE
  5
10B
330
52
100
AcDbEntity
  8
LEVEL001
  6
Continuous
 62
     7
100
AcDbLine
 10
148.6386702168897
 20
368.9999999990899
 30
0.0
 11
147.3886702179097
 21
367.7499999991597
 31
0.0
  0
LINE
  5
10C
330
52
100
AcDbEntity
  8
LEVEL001
  6
Continuous
 62
     7
100
AcDbLine
 10
148.8886702179047
 20
368.9999999990791
 30
0.0
 11
148.6386702168897
 21
368.9999999990899
 31
0.0
  0
LINE
  5
10D
330
52
100
AcDbEntity
  8
LEVEL001
  6
Continuous
 62
     2
100
AcDbLine
 10
147.3886702179097
 20
367.7499999991597
 30
0.0
 11
148.8886702179047
 21
367.7499999990805
 31
0.0
  0
LINE
  5
10E
330
52
100
AcDbEntity
  8
LEVEL001
  6
Continuous
 62
     7
100
AcDbLine
 10
147.3886702179097
 20
349.2500000008399
 30
0.0
 11
147.3886702169598
 21
358.4999999999999
 31
0.0
  0
LINE
  5
10F
330
52
100
AcDbEntity
  8
LEVEL001
  6
PHANTOM
 62
     4
100
AcDbLine
 10
159.7898557999458
 20
358.4999999999999
 30
0.0
 11
103.7118899940298
 21
358.4999999999999
 31
0.0
  0
LINE
  5
110
330
52
100
AcDbEntity
  8
LEVEL001
  6
Continuous
 62
     7
100
AcDbLine
 10
146.3886702169168
 20
349.25000000056
 30
0.0
 11
146.3886702169197
 21
358.4999999999999
 31
0.0
  0
LINE
  5
111
330
52
100
AcDbEntity
  8
LEVEL001
  6
Continuous
 62
     7
100
AcDbLine
 10
143.4990594329098
 20
349.2500000004999
 30
0.0
 11
146.3886702169168
 21
349.25000000056
 31
0.0
  0
LINE
  5
112
330
52
100
AcDbEntity
  8
LEVEL001
  6
Continuous
 62
     7
100
AcDbLine
 10
121.6793753888701
 20
350.0712810227001
 30
0.0
 11
120.9310068486699
 21
349.3229124824999
 31
0.0
  0
LINE
  5
113
330
52
100
AcDbEntity
  8
LEVEL001
  6
Continuous
 62
     7
100
AcDbLine
 10
109.6386702186298
 20
368.9999999993399
 30
0.0
 11
108.7236067081497
 21
369.0000000002499
 31
0.0
  0
LINE
  5
114
330
52
100
AcDbEntity
  8
LEVEL001
  6
Continuous
 62
     7
100
AcDbLine
 10
110.8886702179297
 20
367.74999999979
 30
0.0
 11
109.6386702186298
 21
368.9999999993399
 31
0.0
  0
LINE
  5
115
330
52
100
AcDbEntity
  8
LEVEL001
  6
Continuous
 62
     7
100
AcDbLine
 10
148.6386702168897
 20
348.0000000009198
 30
0.0
 11
147.3886702179097
 21
349.2500000008399
 31
0.0
  0
LINE
  5
116
330
52
100
AcDbEntity
  8
LEVEL001
  6
Continuous
 62
     7
100
AcDbLine
 10
148.8886702179047
 20
348.0000000009309
 30
0.0
 11
148.6386702168897
 21
348.0000000009198
 31
0.0
  0
LINE
  5
117
330
52
100
AcDbEntity
  8
LEVEL001
  6
Continuous
 62
     2
100
AcDbLine
 10
147.3886702179097
 20
349.2500000008399
 30
0.0
 11
148.8886702179047
 21
349.2500000009213
 31
0.0
  0
LINE
  5
118
330
52
100
AcDbEntity
  8
LEVEL001
  6
Continuous
 62
     2
100
AcDbLine
 10
110.8886702179297
 20
367.74999999979
 30
0.0
 11
103.8886702176298
 21
367.7500000002499
 31
0.0
  0
LINE
  5
119
330
52
100
AcDbEntity
  8
LEVEL001
  6
Continuous
 62
     7
100
AcDbLine
 10
105.1386702176298
 20
369.0000000002499
 30
0.0
 11
103.8886702176298
 21
367.7500000002499
 31
0.0
  0
LINE
  5
11A
330
52
100
AcDbEntity
  8
LEVEL001
  6
Continuous
 62
     7
100
AcDbLine
 10
108.7236067081497
 20
369.0000000002499
 30
0.0
 11
105.1386702176298
 21
369.0000000002499
 31
0.0
  0
LINE
  5
11B
330
52
100
AcDbEntity
  8
LEVEL001
  6
Continuous
 62
     2
100
AcDbLine
 10
110.8886702184597
 20
349.2499999997299
 30
0.0
 11
103.8886702178299
 21
349.25000000003
 31
0.0
  0
LINE
  5
11C
330
52
100
AcDbEntity
  8
LEVEL001
  6
Continuous
 62
     7
100
AcDbLine
 10
105.1386702178398
 20
348.00000000002
 30
0.0
 11
103.8886702178299
 21
349.25000000003
 31
0.0
  0
LINE
  5
11D
330
52
100
AcDbEntity
  8
LEVEL001
  6
Continuous
 62
     7
100
AcDbLine
 10
108.7236067082498
 20
348.00000000001
 30
0.0
 11
105.1386702178398
 21
348.00000000002
 31
0.0
  0
LINE
  5
11E
330
52
100
AcDbEntity
  8
LEVEL001
  6
Continuous
 62
     7
100
AcDbLine
 10
110.8886702182201
 20
363.3600355715557
 30
0.0
 11
110.8886702179297
 21
367.7499999997283
 31
0.0
  0
LINE
  5
11F
330
52
100
AcDbEntity
  8
LEVEL001
  6
Continuous
 62
     7
100
AcDbLine
 10
116.7782810013499
 20
367.74999999991
 30
0.0
 11
110.8886702179297
 21
367.7499999997283
 31
0.0
  0
LINE
  5
120
330
52
100
AcDbEntity
  8
LEVEL001
  6
Continuous
 62
     7
100
AcDbLine
 10
116.7782810020698
 20
349.2499999998399
 30
0.0
 11
110.8886702184597
 21
349.2499999996733
 31
0.0
  0
LINE
  5
121
330
52
100
AcDbEntity
  8
LEVEL001
  6
Continuous
 62
     7
100
AcDbLine
 10
118.4186728235099
 20
350.8469311186899
 30
0.0
 11
122.5324751381799
 21
346.7331288042299
 31
0.0
  0
LINE
  5
122
330
52
100
AcDbEntity
  8
LEVEL001
  6
Continuous
 62
     7
100
AcDbLine
 10
117.2153514119399
 20
356.99999999838
 30
0.0
 11
117.2268381269
 21
356.9885132834199
 31
0.0
  0
LINE
  5
123
330
52
100
AcDbEntity
  8
LEVEL001
  6
Continuous
 62
     7
100
AcDbLine
 10
116.5082446307499
 20
356.9999999983598
 30
0.0
 11
117.3516229379099
 21
356.1566216912498
 31
0.0
  0
LINE
  5
124
330
52
100
AcDbEntity
  8
LEVEL001
  6
Continuous
 62
     7
100
AcDbLine
 10
116.2984271642799
 20
356.50271068365
 30
0.0
 11
117.55159147632
 21
355.2495463716699
 31
0.0
  0
LINE
  5
125
330
52
100
AcDbEntity
  8
LEVEL001
  6
Continuous
 62
     7
100
AcDbLine
 10
116.4473829040999
 20
355.64664816267
 30
0.0
 11
117.8577687413398
 21
354.2362623255
 31
0.0
  0
LINE
  5
126
330
52
100
AcDbEntity
  8
LEVEL001
  6
Continuous
 62
     7
100
AcDbLine
 10
121.5280851759799
 20
349.8588391098899
 30
0.0
 11
122.2068185636099
 21
349.1801057222899
 31
0.0
  0
LINE
  5
127
330
52
100
AcDbEntity
  8
LEVEL001
  6
Continuous
 62
     7
100
AcDbLine
 10
116.6733608471899
 20
354.7135634384199
 30
0.0
 11
118.33564198523
 21
353.0512823004699
 31
0.0
  0
LINE
  5
128
330
52
100
AcDbEntity
  8
LEVEL001
  6
Continuous
 62
     7
100
AcDbLine
 10
121.1745317853899
 20
349.5052857192899
 30
0.0
 11
123.1727443899699
 21
347.5070731148201
 31
0.0
  0
LINE
  5
129
330
52
100
AcDbEntity
  8
LEVEL001
  6
Continuous
 62
     7
100
AcDbLine
 10
117.00831789886
 20
353.6714996056099
 30
0.0
 11
119.1920371314099
 21
351.4877803731699
 31
0.0
  0
LINE
  5
12A
330
52
100
AcDbEntity
  8
LEVEL001
  6
Continuous
 62
     7
100
AcDbLine
 10
117.5195841406501
 20
352.4531270069399
 30
0.0
 11
124.1386696367699
 21
345.83404151116
 31
0.0
  0
LINE
  5
12B
330
52
100
AcDbEntity
  8
LEVEL001
  6
Continuous
 62
     7
100
AcDbLine
 10
124.13866992894
 20
345.8340406442201
 30
0.0
 11
124.1386700610299
 21
345.8340407763101
 31
0.0
  0
LINE
  5
12C
330
52
100
AcDbEntity
  8
LEVEL001
  6
Continuous
 62
     7
100
AcDbLine
 10
119.47281070963
 20
351.0676759372699
 30
0.0
 11
118.75614680083
 21
350.35101202843
 31
0.0
  0
LINE
  5
12D
330
52
100
AcDbEntity
  8
LEVEL001
  6
Continuous
 62
     7
100
AcDbLine
 10
118.2075031618298
 20
353.3379022954299
 30
0.0
 11
117.45665763388
 21
352.5870567674299
 31
0.0
  0
LINE
  5
12E
330
52
100
AcDbEntity
  8
LEVEL001
  6
Continuous
 62
     7
100
AcDbLine
 10
118.42937386219
 20
352.8526662145899
 30
0.0
 11
117.6881003632799
 21
352.1113927156499
 31
0.0
  0
LINE
  5
12F
330
52
100
AcDbEntity
  8
LEVEL001
  6
Continuous
 62
     7
100
AcDbLine
 10
118.66741608651
 20
352.38360165772
 30
0.0
 11
117.9342222438399
 21
351.6504078150099
 31
0.0
  0
LINE
  5
130
330
52
100
AcDbEntity
  8
LEVEL001
  6
Continuous
 62
     7
100
AcDbLine
 10
118.92099971318
 20
351.9300785031899
 30
0.0
 11
118.1945313296999
 21
351.20361011968
 31
0.0
  0
LINE
  5
131
330
52
100
AcDbEntity
  8
LEVEL001
  6
Continuous
 62
     7
100
AcDbLine
 10
119.1896056109899
 20
351.49157761982
 30
0.0
 11
118.4686183337499
 21
350.7705903425399
 31
0.0
  0
LINE
  5
132
330
52
100
AcDbEntity
  8
LEVEL001
  6
Continuous
 62
     7
100
AcDbLine
 10
119.77027661445
 20
350.6580350608999
 30
0.0
 11
119.0568454819299
 21
349.9446039283399
 31
0.0
  0
LINE
  5
133
330
52
100
AcDbEntity
  8
LEVEL001
  6
Continuous
 62
     7
100
AcDbLine
 10
120.08174099658
 20
350.2623926618397
 30
0.0
 11
119.3705024788401
 21
349.5511541440599
 31
0.0
  0
LINE
  5
134
330
52
100
AcDbEntity
  8
LEVEL001
  6
Continuous
 62
     7
100
AcDbLine
 10
120.40701121748
 20
349.8805561015499
 30
0.0
 11
119.6969608494999
 21
349.17050573353
 31
0.0
  0
LINE
  5
135
330
52
100
AcDbEntity
  8
LEVEL001
  6
Continuous
 62
     7
100
AcDbLine
 10
120.74595981179
 20
349.5123979146699
 30
0.0
 11
120.0361154534801
 21
348.8025535563199
 31
0.0
  0
LINE
  5
136
330
52
100
AcDbEntity
  8
LEVEL001
  6
Continuous
 62
     7
100
AcDbLine
 10
121.8092988102799
 20
349.8686301320199
 30
0.0
 11
120.3879108861099
 21
348.4472422077699
 31
0.0
  0
LINE
  5
137
330
52
100
AcDbEntity
  8
LEVEL001
  6
Continuous
 62
     7
100
AcDbLine
 10
122.0681178554
 20
349.4203423959399
 30
0.0
 11
120.7523404051399
 21
348.1045649456199
 31
0.0
  0
LINE
  5
138
330
52
100
AcDbEntity
  8
LEVEL001
  6
Continuous
 62
     7
100
AcDbLine
 10
122.3269369005099
 20
348.9720546598601
 30
0.0
 11
121.1294458007799
 21
347.77456356007
 31
0.0
  0
LINE
  5
139
330
52
100
AcDbEntity
  8
LEVEL001
  6
Continuous
 62
     7
100
AcDbLine
 10
122.5857559456298
 20
348.5237669237899
 30
0.0
 11
121.51931820343
 21
347.4573291815399
 31
0.0
  0
LINE
  5
13A
330
52
100
AcDbEntity
  8
LEVEL001
  6
Continuous
 62
     7
100
AcDbLine
 10
122.84457499075
 20
348.0754791877099
 30
0.0
 11
121.9220998656799
 21
347.1530040626097
 31
0.0
  0
LINE
  5
13B
330
52
100
AcDbEntity
  8
LEVEL001
  6
Continuous
 62
     7
100
AcDbLine
 10
123.1033940358599
 20
347.6271914516399
 30
0.0
 11
122.3379870010999
 21
346.8617844168399
 31
0.0
  0
LINE
  5
13C
330
52
100
AcDbEntity
  8
LEVEL001
  6
Continuous
 62
     7
100
AcDbLine
 10
123.3622130809799
 20
347.1789037155598
 30
0.0
 11
122.7672338147599
 21
346.58392444932
 31
0.0
  0
LINE
  5
13D
330
52
100
AcDbEntity
  8
LEVEL001
  6
Continuous
 62
     7
100
AcDbLine
 10
123.6210321260901
 20
346.7306159794899
 30
0.0
 11
123.2101579251
 21
346.31974177848
 31
0.0
  0
LINE
  5
13E
330
52
100
AcDbEntity
  8
LEVEL001
  6
Continuous
 62
     7
100
AcDbLine
 10
123.87985117121
 20
346.2823282434099
 30
0.0
 11
123.66714745947
 21
346.0696245316599
 31
0.0
  0
LINE
  5
13F
330
52
100
AcDbEntity
  8
LEVEL001
  6
Continuous
 62
     7
100
AcDbLine
 10
118.00256466975
 20
353.8400705845398
 30
0.0
 11
117.2404812851901
 21
353.0779871999399
 31
0.0
  0
LINE
  5
140
330
52
100
AcDbEntity
  8
LEVEL001
  6
Continuous
 62
     7
100
AcDbLine
 10
116.9198533964099
 20
356.99999999837
 30
0.0
 11
116.3142587320899
 21
356.3944053340299
 31
0.0
  0
LINE
  5
141
330
52
100
AcDbEntity
  8
LEVEL001
  6
Continuous
 62
     7
100
AcDbLine
 10
117.27173100356
 20
356.6447708243298
 30
0.0
 11
116.41833935891
 21
355.7913791796399
 31
0.0
  0
LINE
  5
142
330
52
100
AcDbEntity
  8
LEVEL001
  6
Continuous
 62
     7
100
AcDbLine
 10
117.37363005788
 20
356.0395630974499
 30
0.0
 11
116.5445787375299
 21
355.2105117770699
 31
0.0
  0
LINE
  5
143
330
52
100
AcDbEntity
  8
LEVEL001
  6
Continuous
 62
     7
100
AcDbLine
 10
117.4995128472299
 20
355.45833910561
 30
0.0
 11
116.6912288691199
 21
354.6500551274598
 31
0.0
  0
LINE
  5
144
330
52
100
AcDbEntity
  8
LEVEL001
  6
Continuous
 62
     7
100
AcDbLine
 10
117.6473432073101
 20
354.8990626844899
 30
0.0
 11
116.85685542604
 21
354.1085749031798
 31
0.0
  0
LINE
  5
145
330
52
100
AcDbEntity
  8
LEVEL001
  6
Continuous
 62
     7
100
AcDbLine
 10
117.8154754321499
 20
354.36008812814
 30
0.0
 11
117.0402700883101
 21
353.5848827842499
 31
0.0
  0
LINE
  5
146
330
52
100
AcDbEntity
  8
LEVEL001
  6
Continuous
 62
     7
100
AcDbLine
 10
122.53247513788
 20
370.2668711973499
 30
0.0
 11
118.41867282331
 21
366.15306888278
 31
0.0
  0
LINE
  5
147
330
52
100
AcDbEntity
  8
LEVEL001
  6
Continuous
 62
     7
100
AcDbLine
 10
117.22683812686
 20
360.0114867180299
 30
0.0
 11
117.2153514119
 21
360.0000000030699
 31
0.0
  0
LINE
  5
148
330
52
100
AcDbEntity
  8
LEVEL001
  6
Continuous
 62
     7
100
AcDbLine
 10
117.3516229378499
 20
360.8433783101999
 30
0.0
 11
116.5082446307098
 21
360.0000000030699
 31
0.0
  0
LINE
  5
149
330
52
100
AcDbEntity
  8
LEVEL001
  6
Continuous
 62
     7
100
AcDbLine
 10
117.5515914762399
 20
361.7504536297798
 30
0.0
 11
116.2984271642299
 21
360.4972893177699
 31
0.0
  0
LINE
  5
14A
330
52
100
AcDbEntity
  8
LEVEL001
  6
Continuous
 62
     7
100
AcDbLine
 10
117.8577687412301
 20
362.7637376759599
 30
0.0
 11
116.44738290403
 21
361.3533518387499
 31
0.0
  0
LINE
  5
14B
330
52
100
AcDbEntity
  8
LEVEL001
  6
Continuous
 62
     7
100
AcDbLine
 10
118.33564198509
 20
363.9487177009997
 30
0.0
 11
116.6733608470999
 21
362.2864365630101
 31
0.0
  0
LINE
  5
14C
330
52
100
AcDbEntity
  8
LEVEL001
  6
Continuous
 62
     7
100
AcDbLine
 10
122.20681856337
 20
367.8198942792799
 30
0.0
 11
121.5280851757499
 21
367.14116089167
 31
0.0
  0
LINE
  5
14D
330
52
100
AcDbEntity
  8
LEVEL001
  6
Continuous
 62
     7
100
AcDbLine
 10
119.1920371312299
 20
365.5122196283298
 30
0.0
 11
117.0083178987299
 21
363.3285003958299
 31
0.0
  0
LINE
  5
14E
330
52
100
AcDbEntity
  8
LEVEL001
  6
Continuous
 62
     7
100
AcDbLine
 10
123.17274438968
 20
369.49292688678
 30
0.0
 11
121.1745317851601
 21
367.4947142822599
 31
0.0
  0
LINE
  5
14F
330
52
100
AcDbEntity
  8
LEVEL001
  6
Continuous
 62
     7
100
AcDbLine
 10
124.1386694058498
 20
371.1659591083999
 30
0.0
 11
117.5195849122699
 21
364.5468746148199
 31
0.0
  0
LINE
  5
150
330
52
100
AcDbEntity
  8
LEVEL001
  6
Continuous
 62
     7
100
AcDbLine
 10
118.7561468006199
 20
366.6489879730499
 30
0.0
 11
119.4728107094399
 21
365.9323240642299
 31
0.0
  0
LINE
  5
151
330
52
100
AcDbEntity
  8
LEVEL001
  6
Continuous
 62
     7
100
AcDbLine
 10
117.4566576337199
 20
364.4129432340197
 30
0.0
 11
118.2075031617
 21
363.66209770604
 31
0.0
  0
LINE
  5
152
330
52
100
AcDbEntity
  8
LEVEL001
  6
Continuous
 62
     7
100
AcDbLine
 10
117.6881003631199
 20
364.8886072858098
 30
0.0
 11
118.4293738620399
 21
364.1473337868899
 31
0.0
  0
LINE
  5
153
330
52
100
AcDbEntity
  8
LEVEL001
  6
Continuous
 62
     7
100
AcDbLine
 10
117.93422224366
 20
365.3495921864497
 30
0.0
 11
118.6674160863499
 21
364.6163983437599
 31
0.0
  0
LINE
  5
154
330
52
100
AcDbEntity
  8
LEVEL001
  6
Continuous
 62
     7
100
AcDbLine
 10
118.19453132951
 20
365.7963898817899
 30
0.0
 11
118.9209997130099
 21
365.0699214982899
 31
0.0
  0
LINE
  5
155
330
52
100
AcDbEntity
  8
LEVEL001
  6
Continuous
 62
     7
100
AcDbLine
 10
118.46861833355
 20
366.2294096589297
 30
0.0
 11
119.1896056108101
 21
365.5084223816699
 31
0.0
  0
LINE
  5
156
330
52
100
AcDbEntity
  8
LEVEL001
  6
Continuous
 62
     7
100
AcDbLine
 10
119.0568454817101
 20
367.0553960731498
 30
0.0
 11
119.7702766142499
 21
366.3419649406097
 31
0.0
  0
LINE
  5
157
330
52
100
AcDbEntity
  8
LEVEL001
  6
Continuous
 62
     7
100
AcDbLine
 10
119.3705024786
 20
367.4488458574399
 30
0.0
 11
120.0817409963599
 21
366.7376073396799
 31
0.0
  0
LINE
  5
158
330
52
100
AcDbEntity
  8
LEVEL001
  6
Continuous
 62
     7
100
AcDbLine
 10
119.6969608492599
 20
367.8294942679698
 30
0.0
 11
120.4070112172599
 21
367.1194438999698
 31
0.0
  0
LINE
  5
159
330
52
100
AcDbEntity
  8
LEVEL001
  6
Continuous
 62
     7
100
AcDbLine
 10
120.03611545323
 20
368.1974464451899
 30
0.0
 11
120.7459598115599
 21
367.4876020868597
 31
0.0
  0
LINE
  5
15A
330
52
100
AcDbEntity
  8
LEVEL001
  6
Continuous
 62
     7
100
AcDbLine
 10
120.38791088585
 20
368.5527577937498
 30
0.0
 11
121.8092988100599
 21
367.13136986955
 31
0.0
  0
LINE
  5
15B
330
52
100
AcDbEntity
  8
LEVEL001
  6
Continuous
 62
     7
100
AcDbLine
 10
120.75234040487
 20
368.89543505592
 30
0.0
 11
122.0681178551599
 21
367.5796576056299
 31
0.0
  0
LINE
  5
15C
330
52
100
AcDbEntity
  8
LEVEL001
  6
Continuous
 62
     7
100
AcDbLine
 10
121.12944580051
 20
369.22543644147
 30
0.0
 11
122.3269369002701
 21
368.0279453417099
 31
0.0
  0
LINE
  5
15D
330
52
100
AcDbEntity
  8
LEVEL001
  6
Continuous
 62
     7
100
AcDbLine
 10
121.5193182031501
 20
369.5426708200199
 30
0.0
 11
122.58575594537
 21
368.4762330777899
 31
0.0
  0
LINE
  5
15E
330
52
100
AcDbEntity
  8
LEVEL001
  6
Continuous
 62
     7
100
AcDbLine
 10
121.92209986539
 20
369.8469959389599
 30
0.0
 11
122.8445749904799
 21
368.9245208138699
 31
0.0
  0
LINE
  5
15F
330
52
100
AcDbEntity
  8
LEVEL001
  6
Continuous
 62
     7
100
AcDbLine
 10
122.3379870008
 20
370.1382155847299
 30
0.0
 11
123.1033940355799
 21
369.3728085499599
 31
0.0
  0
LINE
  5
160
330
52
100
AcDbEntity
  8
LEVEL001
  6
Continuous
 62
     7
100
AcDbLine
 10
122.76723381446
 20
370.4160755522698
 30
0.0
 11
123.36221308069
 21
369.8210962860397
 31
0.0
  0
LINE
  5
161
330
52
100
AcDbEntity
  8
LEVEL001
  6
Continuous
 62
     7
100
AcDbLine
 10
123.2101579247899
 20
370.6802582231198
 30
0.0
 11
123.6210321257899
 21
370.2693840221199
 31
0.0
  0
LINE
  5
162
330
52
100
AcDbEntity
  8
LEVEL001
  6
Continuous
 62
     7
100
AcDbLine
 10
123.6671474591499
 20
370.9303754699499
 30
0.0
 11
123.8798511708899
 21
370.7176717581999
 31
0.0
  0
LINE
  5
163
330
52
100
AcDbEntity
  8
LEVEL001
  6
Continuous
 62
     7
100
AcDbLine
 10
117.24048128505
 20
363.9220128015099
 30
0.0
 11
118.0025646696299
 21
363.1599294169199
 31
0.0
  0
LINE
  5
164
330
52
100
AcDbEntity
  8
LEVEL001
  6
Continuous
 62
     7
100
AcDbLine
 10
116.3142587320398
 20
360.6055946673899
 30
0.0
 11
116.9198533963699
 21
360.0000000030699
 31
0.0
  0
LINE
  5
165
330
52
100
AcDbEntity
  8
LEVEL001
  6
Continuous
 62
     7
100
AcDbLine
 10
116.41833935884
 20
361.20862082178
 30
0.0
 11
117.27173100351
 21
360.3552291771099
 31
0.0
  0
LINE
  5
166
330
52
100
AcDbEntity
  8
LEVEL001
  6
Continuous
 62
     7
100
AcDbLine
 10
116.5445787374499
 20
361.78948822436
 30
0.0
 11
117.37363005781
 21
360.9604369039901
 31
0.0
  0
LINE
  5
167
330
52
100
AcDbEntity
  8
LEVEL001
  6
Continuous
 62
     7
100
AcDbLine
 10
116.69122886902
 20
362.3499448739699
 30
0.0
 11
117.4995128471501
 21
361.54166089584
 31
0.0
  0
LINE
  5
168
330
52
100
AcDbEntity
  8
LEVEL001
  6
Continuous
 62
     7
100
AcDbLine
 10
116.85685542592
 20
362.8914250982499
 30
0.0
 11
117.64734320722
 21
362.10093731696
 31
0.0
  0
LINE
  5
169
330
52
100
AcDbEntity
  8
LEVEL001
  6
Continuous
 62
     7
100
AcDbLine
 10
117.04027008818
 20
363.4151172171897
 30
0.0
 11
117.8154754320499
 21
362.6399118733199
 31
0.0
  0
ARC
  5
16A
330
52
100
AcDbEntity
  8
1
  6
Continuous
 62
     7
100
AcDbCircle
 10
167.0511702179254
 20
184.4505142117018
 30
0.0
 40
22.53750000000683
100
AcDbArc
 50
156.4634221359615
 51
203.5365778640382
  0
ARC
  5
16B
330
52
100
AcDbEntity
  8
1
  6
Continuous
 62
     7
100
AcDbCircle
 10
93.22617021791194
 20
184.4505142117018
 30
0.0
 40
22.53750000000683
100
AcDbArc
 50
336.4634221359619
 51
23.5365778640384
  0
ARC
  5
16C
330
52
100
AcDbEntity
  8
LEVEL001
  6
Continuous
 62
     7
100
AcDbCircle
 10
143.6386702179187
 20
202.2178411996634
 30
0.0
 40
0.9999999999999167
100
AcDbArc
 50
195.5052687727391
 51
254.9999999999715
  0
ARC
  5
16D
330
52
100
AcDbEntity
  8
LEVEL001
  6
Continuous
 62
     7
100
AcDbCircle
 10
145.3886702179187
 20
199.6783777520935
 30
0.0
 40
1.0
100
AcDbArc
 50
0.0
 51
75.00000000014802
  0
ARC
  5
16E
330
52
100
AcDbEntity
  8
LEVEL001
  6
Continuous
 62
     7
100
AcDbCircle
 10
114.8886702179187
 20
199.6783777520935
 30
0.0
 40
1.000000000000225
100
AcDbArc
 50
104.999999999841
 51
180.0
  0
ARC
  5
16F
330
52
100
AcDbEntity
  8
LEVEL001
  6
Continuous
 62
     7
100
AcDbCircle
 10
116.6386702179187
 20
202.2178411996634
 30
0.0
 40
1.000000000000276
100
AcDbArc
 50
284.999999999852
 51
344.4947312272607
  0
ARC
  5
170
330
52
100
AcDbEntity
  8
LEVEL001
  6
DIVIDE
 62
     7
100
AcDbCircle
 10
115.1519345749488
 20
202.4505142117335
 30
0.0
 40
0.5000000000003171
100
AcDbArc
 50
178.5000000000145
 51
270.0
  0
ARC
  5
171
330
52
100
AcDbEntity
  8
LEVEL001
  6
Continuous
 62
     7
100
AcDbCircle
 10
145.1254058608888
 20
202.4505142117335
 30
0.0
 40
0.5
100
AcDbArc
 50
270.0
 51
1.49999999998578
  0
ARC
  5
172
330
52
100
AcDbEntity
  8
LEVEL001
  6
Continuous
 62
     7
100
AcDbCircle
 10
114.2916727327088
 20
226.9007648861735
 30
0.0
 40
1.003092198480792
100
AcDbArc
 50
268.5000000020889
 51
2.99999999998064
  0
ARC
  5
173
330
52
100
AcDbEntity
  8
LEVEL001
  6
Continuous
 62
     7
100
AcDbCircle
 10
116.3206568040687
 20
227.9814404814335
 30
0.0
 40
1.000000000000277
100
AcDbArc
 50
98.0233057582025
 51
178.4999999999947
  0
ARC
  5
174
330
52
100
AcDbEntity
  8
LEVEL001
  6
Continuous
 62
     7
100
AcDbCircle
 10
130.1386702179187
 20
129.9505142117324
 30
0.0
 40
100.0
100
AcDbArc
 50
90.0
 51
98.02330575822059
  0
ARC
  5
175
330
52
100
AcDbEntity
  8
LEVEL001
  6
Continuous
 62
     7
100
AcDbCircle
 10
143.9566836317588
 20
227.9814404814335
 30
0.0
 40
1.000000000004233
100
AcDbArc
 50
1.49999999952396
 51
81.97669424179348
  0
ARC
  5
176
330
52
100
AcDbEntity
  8
LEVEL001
  6
Continuous
 62
     7
100
AcDbCircle
 10
130.1386702179187
 20
129.9505142117324
 30
0.0
 40
100.0000000000035
100
AcDbArc
 50
81.976694241785
 51
90.0
  0
ARC
  5
177
330
52
100
AcDbEntity
  8
LEVEL001
  6
Continuous
 62
     7
100
AcDbCircle
 10
101.1386702179187
 20
224.2087005414734
 30
0.0
 40
1.000000000005782
100
AcDbArc
 50
93.00000000038204
 51
180.0
  0
ARC
  5
178
330
52
100
AcDbEntity
  8
LEVEL001
  6
Continuous
 62
     7
100
AcDbCircle
 10
101.1386702179187
 20
208.9505142117335
 30
0.0
 40
1.0
100
AcDbArc
 50
180.0
 51
270.0
  0
ARC
  5
179
330
52
100
AcDbEntity
  8
LEVEL001
  6
Continuous
 62
     7
100
AcDbCircle
 10
113.7692570332688
 20
206.9505142117335
 30
0.0
 40
1.000000000000348
100
AcDbArc
 50
358.499999999988
 51
90.0
  0
ARC
  5
17A
330
52
100
AcDbEntity
  8
LEVEL001
  6
Continuous
 62
     7
100
AcDbCircle
 10
115.3886702179187
 20
173.4460601274555
 30
0.0
 40
1.5
100
AcDbArc
 50
180.0
 51
254.9999999999955
  0
ARC
  5
17B
330
52
100
AcDbEntity
  8
LEVEL001
  6
Continuous
 62
     7
100
AcDbCircle
 10
144.8886702179187
 20
173.4460601274555
 30
0.0
 40
1.499999999999499
100
AcDbArc
 50
284.9999999998557
 51
0.0
  0
ARC
  5
17C
330
52
100
AcDbEntity
  8
LEVEL001
  6
Continuous
 62
     7
100
AcDbCircle
 10
146.8886702178785
 20
175.3505142116883
 30
0.0
 40
0.5
100
AcDbArc
 50
180.0
 51
0.0
  0
ARC
  5
17D
330
52
100
AcDbEntity
  8
LEVEL001
  6
Continuous
 62
     7
100
AcDbCircle
 10
146.8886702179087
 20
193.5505142117034
 30
0.0
 40
0.5
100
AcDbArc
 50
0.0
 51
179.9999999988536
  0
ARC
  5
17E
330
52
100
AcDbEntity
  8
LEVEL001
  6
Continuous
 62
     7
100
AcDbCircle
 10
103.1386702162399
 20
358.5000000007499
 30
0.0
 40
2.999999999997956
100
AcDbArc
 50
102.9476479058361
 51
257.0523520942062
  0
ARC
  5
17F
330
52
100
AcDbEntity
  8
LEVEL001
  6
Continuous
 62
     7
100
AcDbCircle
 10
130.1386702166998
 20
358.5000000008894
 30
0.0
 40
16.2500000002016
100
AcDbArc
 50
200.8940888485494
 51
159.1059111526174
  0
ARC
  5
180
330
52
100
AcDbEntity
  8
LEVEL001
  6
Continuous
 62
     7
100
AcDbCircle
 10
130.1386702169705
 20
358.5000000006583
 30
0.0
 40
13.00000000076456
100
AcDbArc
 50
134.9047109453025
 51
173.3741904350289
  0
ARC
  5
181
330
52
100
AcDbEntity
  8
LEVEL001
  6
Continuous
 62
     7
100
AcDbCircle
 10
130.1590215912999
 20
358.5265224293698
 30
0.0
 40
14.00000000000026
100
AcDbArc
 50
115.4691529498173
 51
173.9585219869499
  0
ARC
  5
182
330
52
100
AcDbEntity
  8
LEVEL001
  6
Continuous
 62
     7
100
AcDbCircle
 10
130.1386702163434
 20
358.5000000008351
 30
0.0
 40
13.00000000011458
100
AcDbArc
 50
186.625809565524
 51
225.0952890572626
  0
ARC
  5
183
330
52
100
AcDbEntity
  8
LEVEL001
  6
Continuous
 62
     7
100
AcDbCircle
 10
130.1590215912999
 20
358.4734775724099
 30
0.0
 40
14.00000000000061
100
AcDbArc
 50
186.0414780145304
 51
244.5308470516502
  0
LINE
  5
184
330
52
100
AcDbEntity
  8
LEVEL001
  6
Continuous
 62
     7
100
AcDbLine
 10
120.94628206127
 20
349.30761184468
 30
0.0
 11
120.948150960643
 21
349.3057433256649
 31
0.0
  0
ARC
  5
185
330
52
100
AcDbEntity
  8
LEVEL001
  6
Continuous
 62
     7
100
AcDbCircle
 10
146.8886702174132
 20
367.74999999945
 30
0.0
 40
0.500000000496442
100
AcDbArc
 50
359.9999999667342
 51
180.0
  0
ARC
  5
186
330
52
100
AcDbEntity
  8
LEVEL001
  6
Continuous
 62
     7
100
AcDbCircle
 10
146.8886702174132
 20
349.25000000056
 30
0.0
 40
0.500000000496442
100
AcDbArc
 50
180.0
 51
0.00000003207383
  0
LINE
  5
187
330
52
100
AcDbEntity
  8
LEVEL001
  6
Continuous
 62
     7
100
AcDbLine
 10
120.9444135415729
 20
349.309480744264
 30
0.0
 11
120.94628206127
 21
349.30761184468
 31
0.0
  0
CIRCLE
  5
188
330
52
100
AcDbEntity
  8
LEVEL001
  6
Continuous
 62
     7
100
AcDbCircle
 10
130.1386702166998
 20
358.5000000000999
 30
0.0
 40
15.49999999999811
  0
CIRCLE
  5
189
330
52
100
AcDbEntity
  8
LEVEL001
  6
Continuous
 62
     7
100
AcDbCircle
 10
130.1386702166998
 20
358.5000000000999
 30
0.0
 40
14.795614624226
  0
MTEXT
  5
18B
330
52
100
AcDbEntity
  8
LEVEL001
 62
     7
100
AcDbMText
 10
128.6402275712099
 20
370.3003778659199
 30
0.0
 40
6.0
 41
0.0
 71
     7
 72
     1
  1
と
  7
CONVERTER_12
 11
-0.9396926207859084
 21
-0.3420201433256687
 31
0.0
 73
     1
 44
0.75727272727273
  0
MTEXT
  5
18C
330
52
100
AcDbEntity
  8
LEVEL001
 62
     7
100
AcDbMText
 10
121.9299365680983
 20
366.7087336483115
 30
0.0
 40
5.99999999999999
 41
0.0
 71
     8
 72
     1
  1
じ
  7
CONVERTER_12
 11
-0.3420201433256685
 21
-0.9396926207859083
 31
0.0
 73
     1
 44
0.75727272727273
  0
MTEXT
  5
18D
330
52
100
AcDbEntity
  8
LEVEL001
 62
     7
100
AcDbMText
 10
120.1055947292298
 20
364.6001022389801
 30
0.0
 40
6.0
 41
0.0
 71
     8
 72
     1
  1
る
  7
CONVERTER_12
 11
-0.707106781186548
 21
-0.707106781186547
 31
0.0
 73
     1
 44
0.75727272727273
  0
MTEXT
  5
18E
330
52
100
AcDbEntity
  8
LEVEL001
 62
     7
100
AcDbMText
 10
118.6099631472399
 20
357.0049640346999
 30
0.0
 40
6.0
 41
0.0
 71
     7
 72
     1
  1
ひ
  7
CONVERTER_12
 11
0.3420201433256687
 21
-0.9396926207859084
 31
0.0
 73
     1
 44
0.75727272727273
  0
MTEXT
  5
18F
330
52
100
AcDbEntity
  8
LEVEL001
 62
     7
100
AcDbMText
 10
120.4001255084899
 20
352.3238992585
 30
0.0
 40
6.0
 41
0.0
 71
     7
 72
     1
  1
ら
  7
CONVERTER_12
 11
0.707106781186547
 21
-0.707106781186548
 31
0.0
 73
     1
 44
0.75727272727273
  0
MTEXT
  5
190
330
52
100
AcDbEntity
  8
LEVEL001
 62
     7
100
AcDbMText
 10
123.4703296024099
 20
348.85353913374
 30
0.0
 40
6.0
 41
0.0
 71
     7
 72
     1
  1
く
  7
CONVERTER_12
 11
0.9396926207859084
 21
-0.3420201433256687
 31
0.0
 73
     1
 44
0.75727272727273
  0
ENDBLK
  5
55
330
52
100
AcDbEntity
  8
0
100
AcDbBlockEnd
  0
BLOCK
  5
20F
330
208
100
AcDbEntity
  8
0
100
AcDbBlockBegin
  2
*D4
 70
     1
 10
0.0
 20
0.0
 30
0.0
  3
*D4
  1

  0
LINE
  5
209
330
208
100
AcDbEntity
  8
1
  6
Continuous
 62
     2
100
AcDbLine
 10
161.888670217905
 20
232.9505142116994
 30
0.0
 11
218.888670217905
 21
232.9505142116994
 31
0.0
  0
LINE
  5
20A
330
208
100
AcDbEntity
  8
1
  6
Continuous
 62
     2
100
AcDbLine
 10
161.888670217905
 20
200.9505142116994
 30
0.0
 11
161.888670217905
 21
234.4505142116994
 31
0.0
  0
LINE
  5
20B
330
208
100
AcDbEntity
  8
1
  6
Continuous
 62
     2
100
AcDbLine
 10
218.888670217905
 20
200.9505142116994
 30
0.0
 11
218.888670217905
 21
234.4505142116994
 31
0.0
  0
SOLID
  5
20C
330
208
100
AcDbEntity
  8
1
 62
     2
100
AcDbTrace
 10
167.138670217905
 20
233.6416898240333
 30
0.0
 11
167.138670217905
 21
232.2593385993656
 31
0.0
 12
161.888670217905
 22
232.9505142116994
 32
0.0
 13
161.888670217905
 23
232.9505142116994
 33
0.0
  0
SOLID
  5
20D
330
208
100
AcDbEntity
  8
1
 62
     2
100
AcDbTrace
 10
213.638670217905
 20
232.2593385993656
 30
0.0
 11
213.638670217905
 21
233.6416898240333
 31
0.0
 12
218.888670217905
 22
232.9505142116994
 32
0.0
 13
218.888670217905
 23
232.9505142116994
 33
0.0
  0
MTEXT
  5
20E
330
208
100
AcDbEntity
  8
1
 62
     7
100
AcDbMText
 10
199.5461702179176
 20
234.4505037760849
 30
0.0
 40
5.25
 41
0.0
 71
     7
 72
     1
  1
\C7;{\Fgdt;n}\C7;57
  7
CONVERTER_13
 11
0.9999999999970619
 21
2.424068405545306E-6
 31
0.0
 73
     1
 44
0.60024009603842
  0
ENDBLK
  5
210
330
208
100
AcDbEntity
  8
0
100
AcDbBlockEnd
  0
BLOCK
  5
21A
330
213
100
AcDbEntity
  8
0
100
AcDbBlockBegin
  2
*D5
 70
     1
 10
0.0
 20
0.0
 30
0.0
  3
*D5
  1

  0
LINE
  5
214
330
213
100
AcDbEntity
  8
1
  6
Continuous
 62
     2
100
AcDbLine
 10
148.8886702179047
 20
244.9505142116994
 30
0.0
 11
190.388670217905
 21
244.9505142116994
 31
0.0
  0
LINE
  5
215
330
213
100
AcDbEntity
  8
1
  6
Continuous
 62
     2
100
AcDbLine
 10
190.388670217905
 20
222.4505142116994
 30
0.0
 11
190.388670217905
 21
246.4505142116994
 31
0.0
  0
LINE
  5
216
330
213
100
AcDbEntity
  8
1
  6
Continuous
 62
     2
100
AcDbLine
 10
148.8886702179047
 20
196.5050776629406
 30
0.0
 11
148.8886702179047
 21
246.4505142116994
 31
0.0
  0
SOLID
  5
217
330
213
100
AcDbEntity
  8
1
 62
     2
100
AcDbTrace
 10
154.1386702179047
 20
245.6416898240333
 30
0.0
 11
154.1386702179047
 21
244.2593385993656
 31
0.0
 12
148.8886702179047
 22
244.9505142116994
 32
0.0
 13
148.8886702179047
 23
244.9505142116994
 33
0.0
  0
SOLID
  5
218
330
213
100
AcDbEntity
  8
1
 62
     2
100
AcDbTrace
 10
185.138670217905
 20
244.2593385993656
 30
0.0
 11
185.138670217905
 21
245.6416898240333
 31
0.0
 12
190.388670217905
 22
244.9505142116994
 32
0.0
 13
190.388670217905
 23
244.9505142116994
 33
0.0
  0
MTEXT
  5
219
330
213
100
AcDbEntity
  8
1
 62
     7
100
AcDbMText
 10
165.7011702179049
 20
246.4505142116994
 30
0.0
 40
5.25
 41
0.0
 71
     7
 72
     1
  1
42
  7
CONVERTER_13
 11
0.9999999999970619
 21
2.424068405545306E-6
 31
0.0
 73
     1
 44
0.60024009603842
  0
ENDBLK
  5
21B
330
213
100
AcDbEntity
  8
0
100
AcDbBlockEnd
  0
BLOCK
  5
225
330
21E
100
AcDbEntity
  8
0
100
AcDbBlockBegin
  2
*D6
 70
     1
 10
0.0
 20
0.0
 30
0.0
  3
*D6
  1

  0
LINE
  5
21F
330
21E
100
AcDbEntity
  8
1
  6
Continuous
 62
     2
100
AcDbLine
 10
89.3886702182555
 20
184.4505142116994
 30
0.0
 11
89.3886702182555
 21
149.9505142116994
 31
0.0
  0
LINE
  5
220
330
21E
100
AcDbEntity
  8
1
  6
Continuous
 62
     2
100
AcDbLine
 10
162.888670217905
 20
149.9505142116994
 30
0.0
 11
87.8886702182555
 21
149.9505142116994
 31
0.0
  0
LINE
  5
221
330
21E
100
AcDbEntity
  8
1
  6
Continuous
 62
     2
100
AcDbLine
 10
99.38867021804275
 20
184.4505142116994
 30
0.0
 11
87.8886702182555
 21
184.4505142116994
 31
0.0
  0
SOLID
  5
222
330
21E
100
AcDbEntity
  8
1
 62
     2
100
AcDbTrace
 10
90.07984583058932
 20
179.2005142116994
 30
0.0
 11
88.69749460592168
 21
179.2005142116994
 31
0.0
 12
89.3886702182555
 22
184.4505142116994
 32
0.0
 13
89.3886702182555
 23
184.4505142116994
 33
0.0
  0
SOLID
  5
223
330
21E
100
AcDbEntity
  8
1
 62
     2
100
AcDbTrace
 10
88.69749460592168
 20
155.2005142116994
 30
0.0
 11
90.07984583058932
 21
155.2005142116994
 31
0.0
 12
89.3886702182555
 22
149.9505142116994
 32
0.0
 13
89.3886702182555
 23
149.9505142116994
 33
0.0
  0
MTEXT
  5
224
330
21E
100
AcDbEntity
  8
1
 62
     7
100
AcDbMText
 10
87.8886702182555
 20
163.2630142116994
 30
0.0
 40
5.25
 41
0.0
 71
     7
 72
     1
  1
35
  7
CONVERTER_13
 11
0.0
 21
1.0
 31
0.0
 73
     1
 44
0.60024009603842
  0
ENDBLK
  5
226
330
21E
100
AcDbEntity
  8
0
100
AcDbBlockEnd
  0
BLOCK
  5
230
330
229
100
AcDbEntity
  8
0
100
AcDbBlockBegin
  2
*D7
 70
     1
 10
0.0
 20
0.0
 30
0.0
  3
*D7
  1

  0
LINE
  5
22A
330
229
100
AcDbEntity
  8
1
  6
Continuous
 62
     2
100
AcDbLine
 10
232.388670217905
 20
217.9505142116994
 30
0.0
 11
232.388670217905
 21
149.9505142116994
 31
0.0
  0
LINE
  5
22B
330
229
100
AcDbEntity
  8
1
  6
Continuous
 62
     2
100
AcDbLine
 10
213.0756702179049
 20
217.9505142116994
 30
0.0
 11
233.888670217905
 21
217.9505142116994
 31
0.0
  0
LINE
  5
22C
330
229
100
AcDbEntity
  8
1
  6
Continuous
 62
     2
100
AcDbLine
 10
217.888670217905
 20
149.9505142116994
 30
0.0
 11
233.888670217905
 21
149.9505142116994
 31
0.0
  0
SOLID
  5
22D
330
229
100
AcDbEntity
  8
1
 62
     2
100
AcDbTrace
 10
233.0798458302388
 20
212.7005142116994
 30
0.0
 11
231.6974946055712
 21
212.7005142116994
 31
0.0
 12
232.388670217905
 22
217.9505142116994
 32
0.0
 13
232.388670217905
 23
217.9505142116994
 33
0.0
  0
SOLID
  5
22E
330
229
100
AcDbEntity
  8
1
 62
     2
100
AcDbTrace
 10
231.6974946055712
 20
155.2005142116994
 30
0.0
 11
233.0798458302388
 21
155.2005142116994
 31
0.0
 12
232.388670217905
 22
149.9505142116994
 32
0.0
 13
232.388670217905
 23
149.9505142116994
 33
0.0
  0
MTEXT
  5
22F
330
229
100
AcDbEntity
  8
1
 62
     7
100
AcDbMText
 10
230.888670217905
 20
181.040406287015
 30
0.0
 40
5.25
 41
0.0
 71
     7
 72
     1
  1
68
  7
CONVERTER_13
 11
0.0
 21
1.0
 31
0.0
 73
     1
 44
0.60024009603842
  0
ENDBLK
  5
231
330
229
100
AcDbEntity
  8
0
100
AcDbBlockEnd
  0
BLOCK
  5
23B
330
234
100
AcDbEntity
  8
0
100
AcDbBlockBegin
  2
*D8
 70
     1
 10
0.0
 20
0.0
 30
0.0
  3
*D8
  1

  0
LINE
  5
235
330
234
100
AcDbEntity
  8
1
  6
Continuous
 62
     2
100
AcDbLine
 10
100.1386702179188
 20
256.9505142116994
 30
0.0
 11
190.3886702179051
 21
256.9505142116994
 31
0.0
  0
LINE
  5
236
330
234
100
AcDbEntity
  8
1
  6
Continuous
 62
     2
100
AcDbLine
 10
100.1386702179188
 20
224.2087005414733
 30
0.0
 11
100.1386702179188
 21
258.4505142116994
 31
0.0
  0
LINE
  5
237
330
234
100
AcDbEntity
  8
1
  6
Continuous
 62
     2
100
AcDbLine
 10
190.3886702179051
 20
222.4505142116994
 30
0.0
 11
190.3886702179051
 21
258.4505142116994
 31
0.0
  0
SOLID
  5
238
330
234
100
AcDbEntity
  8
1
 62
     2
100
AcDbTrace
 10
105.3886702179188
 20
257.6416898240332
 30
0.0
 11
105.3886702179188
 21
256.2593385993655
 31
0.0
 12
100.1386702179188
 22
256.9505142116994
 32
0.0
 13
100.1386702179188
 23
256.9505142116994
 33
0.0
  0
SOLID
  5
239
330
234
100
AcDbEntity
  8
1
 62
     2
100
AcDbTrace
 10
185.1386702179051
 20
256.2593385993655
 30
0.0
 11
185.1386702179051
 21
257.6416898240332
 31
0.0
 12
190.3886702179051
 22
256.9505142116994
 32
0.0
 13
190.3886702179051
 23
256.9505142116994
 33
0.0
  0
MTEXT
  5
23A
330
234
100
AcDbEntity
  8
1
 62
     7
100
AcDbMText
 10
142.1136702179119
 20
258.4505142116994
 30
0.0
 40
5.25
 41
0.0
 71
     7
 72
     1
  1
91
  7
CONVERTER_13
 11
0.9999999999970619
 21
2.424068405545306E-6
 31
0.0
 73
     1
 44
0.60024009603842
  0
ENDBLK
  5
23C
330
234
100
AcDbEntity
  8
0
100
AcDbBlockEnd
  0
BLOCK
  5
246
330
23F
100
AcDbEntity
  8
0
100
AcDbBlockBegin
  2
*D9
 70
     1
 10
0.0
 20
0.0
 30
0.0
  3
*D9
  1

  0
LINE
  5
240
330
23F
100
AcDbEntity
  8
1
  6
Continuous
 62
     2
100
AcDbLine
 10
103.888670218157
 20
129.9505142116994
 30
0.0
 11
190.3886702179051
 21
129.9505142116994
 31
0.0
  0
LINE
  5
241
330
23F
100
AcDbEntity
  8
1
  6
Continuous
 62
     2
100
AcDbLine
 10
190.3886702179051
 20
144.9505142116994
 30
0.0
 11
190.3886702179051
 21
128.4505142116994
 31
0.0
  0
LINE
  5
242
330
23F
100
AcDbEntity
  8
1
  6
Continuous
 62
     2
100
AcDbLine
 10
103.888670218157
 20
175.2005142116953
 30
0.0
 11
103.888670218157
 21
128.4505142116994
 31
0.0
  0
SOLID
  5
243
330
23F
100
AcDbEntity
  8
1
 62
     2
100
AcDbTrace
 10
109.138670218157
 20
130.6416898240333
 30
0.0
 11
109.138670218157
 21
129.2593385993656
 31
0.0
 12
103.888670218157
 22
129.9505142116994
 32
0.0
 13
103.888670218157
 23
129.9505142116994
 33
0.0
  0
SOLID
  5
244
330
23F
100
AcDbEntity
  8
1
 62
     2
100
AcDbTrace
 10
185.1386702179051
 20
129.2593385993656
 30
0.0
 11
185.1386702179051
 21
130.6416898240333
 31
0.0
 12
190.3886702179051
 22
129.9505142116994
 32
0.0
 13
190.3886702179051
 23
129.9505142116994
 33
0.0
  0
MTEXT
  5
245
330
23F
100
AcDbEntity
  8
1
 62
     7
100
AcDbMText
 10
143.2011702179169
 20
131.4505142116994
 30
0.0
 40
5.25
 41
0.0
 71
     7
 72
     1
  1
87
  7
CONVERTER_13
 11
0.9999999999970619
 21
2.424068405545306E-6
 31
0.0
 73
     1
 44
0.60024009603842
  0
ENDBLK
  5
247
330
23F
100
AcDbEntity
  8
0
100
AcDbBlockEnd
  0
ENDSEC
  0
SECTION
  2
ENTITIES
  0
INSERT
  5
56
330
1F
100
AcDbEntity
  8
1
100
AcDbBlockReference
  2
開示A4
 10
0.0
 20
0.0
 30
0.0
 41
1.5
 42
1.5
 43
1.5
  0
INSERT
  5
57
330
1F
100
AcDbEntity
  8
0
100
AcDbBlockReference
  2
分岐コック
 10
233.5085730637618
 20
883.44455080691
 30
0.0
  0
LINE
  5
191
330
1F
100
AcDbEntity
  8
1
  6
DASH_CENTER
 62
     2
100
AcDbLine
 10
190.388670217905
 20
325.4999999999998
 30
0.0
 11
190.388670217905
 21
391.5
 31
0.0
  0
LINE
  5
192
330
1F
100
AcDbEntity
  8
outline
  6
Continuous
 62
     7
100
AcDbLine
 10
148.8886702179051
 20
370.15
 30
0.0
 11
148.8886702179051
 21
346.8499999999999
 31
0.0
  0
LINE
  5
193
330
1F
100
AcDbEntity
  8
outline
  6
Continuous
 62
     7
100
AcDbLine
 10
161.888670217905
 20
351.0
 30
0.0
 11
161.888670217905
 21
365.9999999999999
 31
0.0
  0
LINE
  5
194
330
1F
100
AcDbEntity
  8
outline
  6
Continuous
 62
     7
100
AcDbLine
 10
160.8886702179051
 20
370.15
 30
0.0
 11
160.8886702179051
 21
346.8499999999999
 31
0.0
  0
LINE
  5
195
330
1F
100
AcDbEntity
  8
outline
  6
Continuous
 62
     7
100
AcDbLine
 10
162.6397963668817
 20
351.9999999999999
 30
0.0
 11
161.888670217905
 21
351.9999999999999
 31
0.0
  0
LINE
  5
196
330
1F
100
AcDbEntity
  8
outline
  6
Continuous
 62
     7
100
AcDbLine
 10
161.888670217905
 20
351.0
 30
0.0
 11
160.888670217905
 21
351.0
 31
0.0
  0
LINE
  5
197
330
1F
100
AcDbEntity
  8
outline
  6
Continuous
 62
     7
100
AcDbLine
 10
162.6397963668818
 20
364.9999999999999
 30
0.0
 11
161.888670217905
 21
364.9999999999999
 31
0.0
  0
LINE
  5
198
330
1F
100
AcDbEntity
  8
outline
  6
Continuous
 62
     7
100
AcDbLine
 10
161.888670217905
 20
365.9999999999999
 30
0.0
 11
160.888670217905
 21
365.9999999999999
 31
0.0
  0
LINE
  5
199
330
1F
100
AcDbEntity
  8
outline
  6
Continuous
 62
     7
100
AcDbLine
 10
160.8886702179048
 20
172.3959507604582
 30
0.0
 11
148.8886702179048
 21
172.3959507604582
 31
0.0
  0
LINE
  5
19A
330
1F
100
AcDbEntity
  8
outline
  6
Continuous
 62
     7
100
AcDbLine
 10
148.8886702179048
 20
196.5050776629406
 30
0.0
 11
160.8886702179048
 21
196.5050776629406
 31
0.0
  0
LINE
  5
19B
330
1F
100
AcDbEntity
  8
outline
  6
Continuous
 62
     7
100
AcDbLine
 10
148.8886702179048
 20
196.5050776629406
 30
0.0
 11
148.8886702179048
 21
172.3959507604582
 31
0.0
  0
LINE
  5
19C
330
1F
100
AcDbEntity
  8
outline
  6
Continuous
 62
     7
100
AcDbLine
 10
160.8886702179048
 20
196.5050776629406
 30
0.0
 11
160.8886702179048
 21
172.3959507604582
 31
0.0
  0
LINE
  5
19D
330
1F
100
AcDbEntity
  8
outline
  6
Continuous
 62
     7
100
AcDbLine
 10
161.8886702179048
 20
176.9505142116994
 30
0.0
 11
160.8886702179048
 21
176.9505142116995
 31
0.0
  0
LINE
  5
19E
330
1F
100
AcDbEntity
  8
outline
  6
Continuous
 62
     7
100
AcDbLine
 10
161.8886702179048
 20
191.9505142116994
 30
0.0
 11
160.8886702179048
 21
191.9505142116994
 31
0.0
  0
LINE
  5
19F
330
1F
100
AcDbEntity
  8
center
  6
DASH_CENTER
 62
     2
100
AcDbLine
 10
95.63867021623227
 20
358.4999999999999
 30
0.0
 11
223.3886702179051
 21
358.4999999999999
 31
0.0
  0
LINE
  5
1A0
330
1F
100
AcDbEntity
  8
center
  6
DASH_CENTER
 62
     2
100
AcDbLine
 10
197.388670217905
 20
365.4999999999999
 30
0.0
 11
197.388670217905
 21
351.4999999999999
 31
0.0
  0
LINE
  5
1A1
330
1F
100
AcDbEntity
  8
center
  6
DASH_CENTER
 62
     2
100
AcDbLine
 10
174.8886702179051
 20
364.4999999999999
 30
0.0
 11
174.8886702179051
 21
352.4999999999999
 31
0.0
  0
LINE
  5
1A2
330
1F
100
AcDbEntity
  8
center
  6
DASH_CENTER
 62
     2
100
AcDbLine
 10
177.3886702179051
 20
365.4999999999999
 30
0.0
 11
189.3886702179051
 21
365.4999999999999
 31
0.0
  0
LINE
  5
1A3
330
1F
100
AcDbEntity
  8
center
  6
DASH_CENTER
 62
     2
100
AcDbLine
 10
183.3886702179051
 20
371.4999999999999
 30
0.0
 11
183.3886702179051
 21
345.4999999999999
 31
0.0
  0
LINE
  5
1A4
330
1F
100
AcDbEntity
  8
center
  6
DASH_CENTER
 62
     2
100
AcDbLine
 10
177.388670217905
 20
351.4999999999999
 30
0.0
 11
189.3886702179051
 21
351.4999999999999
 31
0.0
  0
LINE
  5
1A5
330
1F
100
AcDbEntity
  8
center
  6
DASH_CENTER
 62
     2
100
AcDbLine
 10
99.38867021804275
 20
184.4505142116994
 30
0.0
 11
223.388670217905
 21
184.4505142116994
 31
0.0
  0
LINE
  5
1A6
330
1F
100
AcDbEntity
  8
outline
  6
Continuous
 62
     7
100
AcDbLine
 10
167.7016702179049
 20
217.9505142116994
 30
0.0
 11
213.0756702179049
 21
217.9505142116994
 31
0.0
  0
LINE
  5
1A7
330
1F
100
AcDbEntity
  8
outline
  6
Continuous
 62
     7
100
AcDbLine
 10
213.8886702179048
 20
217.1375142116993
 30
0.0
 11
213.8886702179048
 21
203.9505142116994
 31
0.0
  0
LINE
  5
1A8
330
1F
100
AcDbEntity
  8
inline
  6
Continuous
 62
     2
100
AcDbLine
 10
213.0756702179049
 20
217.9505142116994
 30
0.0
 11
213.075670217905
 21
203.9505142116994
 31
0.0
  0
LINE
  5
1A9
330
1F
100
AcDbEntity
  8
outline
  6
Continuous
 62
     7
100
AcDbLine
 10
213.0756702179049
 20
217.9505142116994
 30
0.0
 11
213.8886702179048
 21
217.1375142116993
 31
0.0
  0
LINE
  5
1AA
330
1F
100
AcDbEntity
  8
inline
  6
Continuous
 62
     2
100
AcDbLine
 10
167.7016702179049
 20
217.9505142116994
 30
0.0
 11
167.7016702179049
 21
203.9505142116994
 31
0.0
  0
LINE
  5
1AB
330
1F
100
AcDbEntity
  8
outline
  6
Continuous
 62
     7
100
AcDbLine
 10
166.888670217905
 20
217.1375142116993
 30
0.0
 11
166.888670217905
 21
203.9505142116994
 31
0.0
  0
LINE
  5
1AC
330
1F
100
AcDbEntity
  8
outline
  6
Continuous
 62
     7
100
AcDbLine
 10
167.7016702179049
 20
217.9505142116994
 30
0.0
 11
166.888670217905
 21
217.1375142116993
 31
0.0
  0
LINE
  5
1AD
330
1F
100
AcDbEntity
  8
outline
  6
Continuous
 62
     7
100
AcDbLine
 10
166.888670217905
 20
203.9505142116994
 30
0.0
 11
213.8886702179048
 21
203.9505142116994
 31
0.0
  0
LINE
  5
1AE
330
1F
100
AcDbEntity
  8
outline
  6
Continuous
 62
     7
100
AcDbLine
 10
166.888670217905
 20
217.1375142116993
 30
0.0
 11
213.8886702179048
 21
217.1375142116993
 31
0.0
  0
LINE
  5
1AF
330
1F
100
AcDbEntity
  8
outline
  6
Continuous
 62
     7
100
AcDbLine
 10
162.888670217905
 20
201.9505142116994
 30
0.0
 11
217.888670217905
 21
201.9505142116994
 31
0.0
  0
LINE
  5
1B0
330
1F
100
AcDbEntity
  8
outline
  6
Continuous
 62
     7
100
AcDbLine
 10
167.7016702179049
 20
203.9505142116994
 30
0.0
 11
167.7016702179049
 21
201.9505142116994
 31
0.0
  0
LINE
  5
1B1
330
1F
100
AcDbEntity
  8
outline
  6
Continuous
 62
     7
100
AcDbLine
 10
213.075670217905
 20
203.9505142116994
 30
0.0
 11
213.0756702179049
 21
201.9505142116994
 31
0.0
  0
LINE
  5
1B2
330
1F
100
AcDbEntity
  8
outline
  6
Continuous
 62
     7
100
AcDbLine
 10
218.888670217905
 20
200.9505142116994
 30
0.0
 11
218.888670217905
 21
175.9505142116994
 31
0.0
  0
LINE
  5
1B3
330
1F
100
AcDbEntity
  8
outline
  6
Continuous
 62
     7
100
AcDbLine
 10
162.888670217905
 20
174.9505142116994
 30
0.0
 11
217.888670217905
 21
174.9505142116994
 31
0.0
  0
LINE
  5
1B4
330
1F
100
AcDbEntity
  8
outline
  6
Continuous
 62
     7
100
AcDbLine
 10
161.888670217905
 20
200.9505142116994
 30
0.0
 11
161.888670217905
 21
175.9505142116994
 31
0.0
  0
LINE
  5
1B5
330
1F
100
AcDbEntity
  8
outline
  6
Continuous
 62
     7
100
AcDbLine
 10
161.8886702179048
 20
170.9505142116994
 30
0.0
 11
161.8886702179048
 21
150.9505142116994
 31
0.0
  0
LINE
  5
1B6
330
1F
100
AcDbEntity
  8
outline
  6
Continuous
 62
     7
100
AcDbLine
 10
162.888670217905
 20
171.9505142116994
 30
0.0
 11
217.888670217905
 21
171.9505142116994
 31
0.0
  0
LINE
  5
1B7
330
1F
100
AcDbEntity
  8
outline
  6
Continuous
 62
     7
100
AcDbLine
 10
162.888670217905
 20
149.9505142116994
 30
0.0
 11
217.888670217905
 21
149.9505142116994
 31
0.0
  0
LINE
  5
1B8
330
1F
100
AcDbEntity
  8
outline
  6
Continuous
 62
     7
100
AcDbLine
 10
218.888670217905
 20
170.9505142116994
 30
0.0
 11
218.888670217905
 21
150.9505142116994
 31
0.0
  0
LINE
  5
1B9
330
1F
100
AcDbEntity
  8
outline
  6
Continuous
 62
     7
100
AcDbLine
 10
166.388670217905
 20
173.9505142116995
 30
0.0
 11
166.388670217905
 21
171.9505142116994
 31
0.0
  0
LINE
  5
1BA
330
1F
100
AcDbEntity
  8
outline
  6
Continuous
 62
     7
100
AcDbLine
 10
214.3886702179048
 20
173.9505142116995
 30
0.0
 11
214.3886702179048
 21
171.9505142116994
 31
0.0
  0
LINE
  5
1BB
330
1F
100
AcDbEntity
  8
outline
  6
Continuous
 62
     7
100
AcDbLine
 10
177.138670217905
 20
149.4505142116994
 30
0.0
 11
204.888670217905
 21
149.4505142116994
 31
0.0
  0
LINE
  5
1BC
330
1F
100
AcDbEntity
  8
outline
  6
Continuous
 62
     7
100
AcDbLine
 10
190.388670217905
 20
149.9505142116994
 30
0.0
 11
190.388670217905
 21
149.4505142116994
 31
0.0
  0
LINE
  5
1BD
330
1F
100
AcDbEntity
  8
outline
  6
Continuous
 62
     7
100
AcDbLine
 10
204.888670217905
 20
149.9505142116994
 30
0.0
 11
204.888670217905
 21
149.4505142116994
 31
0.0
  0
LINE
  5
1BE
330
1F
100
AcDbEntity
  8
outline
  6
Continuous
 62
     7
100
AcDbLine
 10
161.8886702179048
 20
150.9505142116994
 30
0.0
 11
162.888670217905
 21
149.9505142116994
 31
0.0
  0
LINE
  5
1BF
330
1F
100
AcDbEntity
  8
outline
  6
Continuous
 62
     7
100
AcDbLine
 10
218.888670217905
 20
150.9505142116994
 30
0.0
 11
217.888670217905
 21
149.9505142116994
 31
0.0
  0
LINE
  5
1C0
330
1F
100
AcDbEntity
  8
outline
  6
Continuous
 62
     7
100
AcDbLine
 10
161.8886702179048
 20
150.9505142116994
 30
0.0
 11
218.888670217905
 21
150.9505142116994
 31
0.0
  0
LINE
  5
1C1
330
1F
100
AcDbEntity
  8
center
  6
DASH_CENTER
 62
     2
100
AcDbLine
 10
174.8886702179048
 20
158.9505142116994
 30
0.0
 11
174.888670217905
 21
140.4505142116994
 31
0.0
  0
LINE
  5
1C2
330
1F
100
AcDbEntity
  8
outline
  6
Continuous
 62
     7
100
AcDbLine
 10
171.888670217905
 20
144.9505142116994
 30
0.0
 11
177.8886702179048
 21
144.9505142116994
 31
0.0
  0
LINE
  5
1C3
330
1F
100
AcDbEntity
  8
outline
  6
Continuous
 62
     7
100
AcDbLine
 10
171.3886702179048
 20
149.9505142116994
 30
0.0
 11
171.388670217905
 21
145.4505142116994
 31
0.0
  0
LINE
  5
1C4
330
1F
100
AcDbEntity
  8
outline
  6
Continuous
 62
     7
100
AcDbLine
 10
178.3886702179048
 20
149.4505142116994
 30
0.0
 11
178.3886702179048
 21
145.4505142116994
 31
0.0
  0
LINE
  5
1C5
330
1F
100
AcDbEntity
  8
center
  6
DASH_CENTER
 62
     2
100
AcDbLine
 10
190.388670217905
 20
222.4505142116994
 30
0.0
 11
190.388670217905
 21
144.9505142116994
 31
0.0
  0
LINE
  5
1C6
330
1F
100
AcDbEntity
  8
outline
  6
Continuous
 62
     7
100
AcDbLine
 10
177.138670217905
 20
149.4505142116994
 30
0.0
 11
177.138670217905
 21
149.9505142116994
 31
0.0
  0
LINE
  5
1C7
330
1F
100
AcDbEntity
  8
1
  6
DASH_CENTER
 62
     2
100
AcDbLine
 10
130.1386702179187
 20
165.4505142117324
 30
0.0
 11
130.1386702179187
 21
234.4505142117324
 31
0.0
  0
ARC
  5
1C8
330
1F
100
AcDbEntity
  8
outline
  6
Continuous
 62
     7
100
AcDbCircle
 10
154.8886702179051
 20
357.3
 30
0.0
 40
12.05000000000009
100
AcDbArc
 50
240.1371656437251
 51
299.8628343562749
  0
ARC
  5
1C9
330
1F
100
AcDbEntity
  8
outline
  6
Continuous
 62
     7
100
AcDbCircle
 10
154.8886702179051
 20
359.7000000000001
 30
0.0
 40
12.04999999999989
100
AcDbArc
 50
60.1371656437246
 51
119.8628343562754
  0
ARC
  5
1CA
330
1F
100
AcDbEntity
  8
outline
  6
Continuous
 62
     7
100
AcDbCircle
 10
217.888670217905
 20
200.9505142116994
 30
0.0
 40
1.0
100
AcDbArc
 50
0.0
 51
90.0
  0
ARC
  5
1CB
330
1F
100
AcDbEntity
  8
outline
  6
Continuous
 62
     7
100
AcDbCircle
 10
217.888670217905
 20
175.9505142116994
 30
0.0
 40
1.0
100
AcDbArc
 50
270.0
 51
0.0
  0
ARC
  5
1CC
330
1F
100
AcDbEntity
  8
outline
  6
Continuous
 62
     7
100
AcDbCircle
 10
162.888670217905
 20
200.9505142116994
 30
0.0
 40
1.0
100
AcDbArc
 50
90.0
 51
180.0
  0
ARC
  5
1CD
330
1F
100
AcDbEntity
  8
outline
  6
Continuous
 62
     7
100
AcDbCircle
 10
162.888670217905
 20
175.9505142116994
 30
0.0
 40
1.0
100
AcDbArc
 50
180.0
 51
270.0
  0
ARC
  5
1CE
330
1F
100
AcDbEntity
  8
outline
  6
Continuous
 62
     7
100
AcDbCircle
 10
162.888670217905
 20
170.9505142116994
 30
0.0
 40
1.0
100
AcDbArc
 50
90.0
 51
180.0
  0
ARC
  5
1CF
330
1F
100
AcDbEntity
  8
outline
  6
Continuous
 62
     7
100
AcDbCircle
 10
217.888670217905
 20
170.9505142116994
 30
0.0
 40
1.0
100
AcDbArc
 50
0.0
 51
90.0
  0
ARC
  5
1D0
330
1F
100
AcDbEntity
  8
outline
  6
Continuous
 62
     7
100
AcDbCircle
 10
215.388670217905
 20
173.9505142116994
 30
0.0
 40
1.0
100
AcDbArc
 50
90.0
 51
179.9999999999951
  0
ARC
  5
1D1
330
1F
100
AcDbEntity
  8
outline
  6
Continuous
 62
     7
100
AcDbCircle
 10
165.388670217905
 20
173.9505142116994
 30
0.0
 40
1.0
100
AcDbArc
 50
0.00000000000489
 51
90.0
  0
ARC
  5
1D2
330
1F
100
AcDbEntity
  8
outline
  6
Continuous
 62
     7
100
AcDbCircle
 10
171.888670217905
 20
145.4505142116994
 30
0.0
 40
0.5
100
AcDbArc
 50
180.0
 51
270.0
  0
ARC
  5
1D3
330
1F
100
AcDbEntity
  8
outline
  6
Continuous
 62
     7
100
AcDbCircle
 10
177.8886702179048
 20
145.4505142116994
 30
0.0
 40
0.5
100
AcDbArc
 50
270.0
 51
0.0
  0
CIRCLE
  5
1D4
330
1F
100
AcDbEntity
  8
outline
  6
Continuous
 62
     7
100
AcDbCircle
 10
190.388670217905
 20
358.4999999999999
 30
0.0
 40
28.50000000000009
  0
CIRCLE
  5
1D5
330
1F
100
AcDbEntity
  8
outline
  6
Continuous
 62
     7
100
AcDbCircle
 10
190.388670217905
 20
358.4999999999999
 30
0.0
 40
23.50000000000009
  0
CIRCLE
  5
1D6
330
1F
100
AcDbEntity
  8
inline
  6
Continuous
 62
     2
100
AcDbCircle
 10
190.388670217905
 20
358.4999999999999
 30
0.0
 40
22.6870000000001
  0
CIRCLE
  5
1D7
330
1F
100
AcDbEntity
  8
outline
  6
Continuous
 62
     7
100
AcDbCircle
 10
190.388670217905
 20
358.4999999999999
 30
0.0
 40
21.34999999999999
  0
CIRCLE
  5
1D8
330
1F
100
AcDbEntity
  8
outline
  6
Continuous
 62
     7
100
AcDbCircle
 10
190.388670217905
 20
358.4999999999999
 30
0.0
 40
21.84999999999999
  0
CIRCLE
  5
1D9
330
1F
100
AcDbEntity
  8
outline
  6
Continuous
 62
     7
100
AcDbCircle
 10
190.388670217905
 20
358.4999999999999
 30
0.0
 40
20.34999999999999
  0
CIRCLE
  5
1DA
330
1F
100
AcDbEntity
  8
outline
  6
Continuous
 62
     7
100
AcDbCircle
 10
197.3886702179051
 20
358.4999999999999
 30
0.0
 40
5.0
  0
CIRCLE
  5
1DB
330
1F
100
AcDbEntity
  8
outline
  6
Continuous
 62
     7
100
AcDbCircle
 10
183.388670217905
 20
365.4999999999999
 30
0.0
 40
4.000000000000085
  0
CIRCLE
  5
1DC
330
1F
100
AcDbEntity
  8
outline
  6
Continuous
 62
     7
100
AcDbCircle
 10
183.388670217905
 20
365.4999999999999
 30
0.0
 40
3.500000000000085
  0
CIRCLE
  5
1DD
330
1F
100
AcDbEntity
  8
outline
  6
Continuous
 62
     7
100
AcDbCircle
 10
174.8886702179051
 20
358.4999999999999
 30
0.0
 40
3.5
  0
CIRCLE
  5
1DE
330
1F
100
AcDbEntity
  8
outline
  6
Continuous
 62
     7
100
AcDbCircle
 10
174.8886702179051
 20
358.4999999999999
 30
0.0
 40
4.0
  0
CIRCLE
  5
1DF
330
1F
100
AcDbEntity
  8
outline
  6
Continuous
 62
     7
100
AcDbCircle
 10
183.388670217905
 20
351.4999999999999
 30
0.0
 40
3.500000000000085
  0
CIRCLE
  5
1E0
330
1F
100
AcDbEntity
  8
outline
  6
Continuous
 62
     7
100
AcDbCircle
 10
183.388670217905
 20
351.4999999999999
 30
0.0
 40
3.999999999999804
  0
SPLINE
  5
1E1
330
1F
100
AcDbEntity
  8
1
  6
Continuous
 62
     7
100
AcDbSpline
210
0.0
220
0.0
230
1.0
 70
    11
 71
     3
 72
    79
 73
    75
 74
    73
 42
0.000000001
 43
0.0000000001
 44
0.00000001
 40
0.0
 40
0.0
 40
0.0
 40
0.0
 40
0.3050593144643702
 40
0.609839426730448
 40
0.9349604253341414
 40
1.259699857726003
 40
1.613345503038163
 40
1.966661884081154
 40
2.352521264016831
 40
2.738144552987399
 40
3.155654060797484
 40
3.573006709026645
 40
4.018266557340139
 40
4.463427186325282
 40
4.930114883140848
 40
5.396744577495402
 40
5.87690844946662
 40
6.357045598853218
 40
6.841795289273239
 40
7.326544979693477
 40
7.806682129080383
 40
8.286846001050652
 40
8.753475695401605
 40
9.220163392208207
 40
9.665324021176229
 40
10.11058386945924
 40
10.52793651764136
 40
10.94544602537729
 40
11.33106931424467
 40
11.7169286940281
 40
12.07024507486917
 40
12.42389071988775
 40
12.74863015187009
 40
13.07375114977075
 40
13.3785312599675
 40
13.68359058164131
 40
13.98125591022563
 40
14.27892123880897
 40
14.58398056047971
 40
14.88876067067126
 40
15.21388166856496
 40
15.53862110053938
 40
15.89226674554862
 40
16.24558312638019
 40
16.63144250615352
 40
17.01706579501138
 40
17.43457530273755
 40
17.85192795091038
 40
18.29718779918426
 40
18.74234842814395
 40
19.20903612494271
 40
19.67566581928653
 40
20.15582969125032
 40
20.63596684063163
 40
21.12071653104729
 40
21.60546622146374
 40
22.08560337084798
 40
22.56576724281789
 40
23.03239693717253
 40
23.49908463398932
 40
23.94424526297666
 40
24.38950511129315
 40
24.80685775952542
 40
25.22436726733775
 40
25.60999055630822
 40
25.99584993623825
 40
26.34916631726546
 40
26.70281196253745
 40
27.02755139483257
 40
27.35267239314813
 40
27.65745250388225
 40
27.96251182635621
 40
28.26017715710075
 40
28.55784247874116
 40
28.55784247874116
 40
28.55784247874116
 40
28.55784247874116
 10
160.382033178591
 20
348.7831403594916
 30
0.0
 10
160.3633506849037
 20
348.6830020838235
 30
0.0
 10
160.3260028053092
 20
348.4828171811356
 30
0.0
 10
160.2145105434789
 20
348.190238502235
 30
0.0
 10
160.0669959656013
 20
347.907590867819
 30
0.0
 10
159.8761758499551
 20
347.6318821285191
 30
0.0
 10
159.6505771249844
 20
347.3714887748582
 30
0.0
 10
159.3852434726863
 20
347.1211193936751
 30
0.0
 10
159.0897306849713
 20
346.8895530570098
 30
0.0
 10
158.7582323314568
 20
346.6715999885247
 30
0.0
 10
158.401664141694
 20
346.4749084012947
 30
0.0
 10
158.0141516928304
 20
346.295509899712
 30
0.0
 10
157.6068875017201
 20
346.1391715108101
 30
0.0
 10
157.1750877078875
 20
346.0034195047325
 30
0.0
 10
156.7290259382742
 20
345.8920269946159
 30
0.0
 10
156.2659617976919
 20
345.803775226922
 30
0.0
 10
155.7942727071344
 20
345.7407401496471
 30
0.0
 10
155.3138874345098
 20
345.7024498579871
 30
0.0
 10
154.8306152041218
 20
345.6898046319037
 30
0.0
 10
154.3473429737184
 20
345.7024498580012
 30
0.0
 10
153.8669577011422
 20
345.740740149679
 30
0.0
 10
153.395268610415
 20
345.8037752269301
 30
0.0
 10
152.9322044704577
 20
345.8920269947038
 30
0.0
 10
152.4861426985738
 20
346.0034195044542
 30
0.0
 10
152.0543429128543
 20
346.1391715116708
 30
0.0
 10
151.6470786924032
 20
346.2955098961693
 30
0.0
 10
151.2595663465166
 20
346.4749084127914
 30
0.0
 10
150.9029977872737
 20
346.6715999454718
 30
0.0
 10
150.5715007127325
 20
346.88955320202
 30
0.0
 10
150.2759833624855
 20
347.1211188667885
 30
0.0
 10
150.0106653791492
 20
347.371490554199
 30
0.0
 10
149.7850108000538
 20
347.6318756853626
 30
0.0
 10
149.5943830623628
 20
347.9076127432596
 30
0.0
 10
149.4461776124232
 20
348.1901586758892
 30
0.0
 10
149.3371119183833
 20
348.4830945615338
 30
0.0
 10
149.2726674748656
 20
348.7796853419758
 30
0.0
 10
149.2498684821541
 20
349.0800069608923
 30
0.0
 10
149.2726674748552
 20
349.3803285798088
 30
0.0
 10
149.3371119183624
 20
349.6769193602498
 30
0.0
 10
149.4461776123923
 20
349.9698552458927
 30
0.0
 10
149.5943830623223
 20
350.2524011785199
 30
0.0
 10
149.7850108000042
 20
350.5281382364137
 30
0.0
 10
150.0106653790911
 20
350.7885233675728
 30
0.0
 10
150.2759833624192
 20
351.0388950549779
 30
0.0
 10
150.5715007126589
 20
351.2704607197401
 30
0.0
 10
150.902997787193
 20
351.4884139762814
 30
0.0
 10
151.2595663464294
 20
351.6851055089541
 30
0.0
 10
151.6470786923103
 20
351.8645040255664
 30
0.0
 10
152.054342912756
 20
352.0208424100535
 30
0.0
 10
152.486142698471
 20
352.1565944172573
 30
0.0
 10
152.9322044703503
 20
352.2679869269934
 30
0.0
 10
153.3952686103037
 20
352.3562386947499
 30
0.0
 10
153.8669577010269
 20
352.4192737719817
 30
0.0
 10
154.3473429736002
 20
352.4575640636378
 30
0.0
 10
154.8306152039966
 20
352.4702092897096
 30
0.0
 10
155.3138874343921
 20
352.4575640636006
 30
0.0
 10
155.7942727069687
 20
352.4192737719017
 30
0.0
 10
156.2659617976796
 20
352.3562386946193
 30
0.0
 10
156.7290259376766
 20
352.2679869267894
 30
0.0
 10
157.175087709393
 20
352.1565944169902
 30
0.0
 10
157.6068874956794
 20
352.0208424095905
 30
0.0
 10
158.0141517140374
 20
351.8645040252684
 30
0.0
 10
158.4016640672088
 20
351.6851055074049
 30
0.0
 10
158.7582326002267
 20
351.4884139783754
 30
0.0
 10
159.0897297654264
 20
351.2704607082227
 30
0.0
 10
159.3852467920925
 20
351.0388950907799
 30
0.0
 10
159.6505658864618
 20
350.7885232394486
 30
0.0
 10
159.8762165048037
 20
350.5281386909052
 30
0.0
 10
160.0668578840585
 20
350.252399624375
 30
0.0
 10
160.2150143434866
 20
349.9698609028622
 30
0.0
 10
160.324252107448
 20
349.6768996866974
 30
0.0
 10
160.3880677915528
 20
349.3804014622139
 30
0.0
 10
160.4131602441748
 20
349.0797422328097
 30
0.0
 10
160.3924088638775
 20
348.8820076498568
 30
0.0
 10
160.382033178591
 20
348.7831403594917
 30
0.0
 11
160.382033178591
 21
348.7831403594916
 31
0.0
 11
160.3171340190556
 21
348.4850643810686
 31
0.0
 11
160.2117340899715
 21
348.1990892587341
 31
0.0
 11
160.0611416066241
 21
347.910947683621
 31
0.0
 11
159.8772400398464
 21
347.6432988232029
 31
0.0
 11
159.646236353401
 21
347.3755255251502
 31
0.0
 11
159.3897793389187
 21
347.1324982329746
 31
0.0
 11
159.0865651563768
 21
346.8938591319917
 31
0.0
 11
158.7646511870935
 21
346.6815463501532
 31
0.0
 11
158.399412920841
 21
346.4792712949803
 31
0.0
 11
158.0208422969727
 21
346.3035797592984
 31
0.0
 11
157.6053518202413
 21
346.1435047885646
 31
0.0
 11
157.180760578523
 21
346.0097503006011
 31
0.0
 11
156.7280701359364
 21
345.8963097013943
 31
0.0
 11
156.2697157043174
 21
345.8088197781535
 31
0.0
 11
155.7938142076767
 21
345.7449831942708
 31
0.0
 11
155.3151962391758
 21
345.7068187808843
 31
0.0
 11
154.8306151941577
 21
345.6940331181738
 31
0.0
 11
154.3460341491395
 21
345.7068187808842
 31
0.0
 11
153.8674161806385
 21
345.7449831942707
 31
0.0
 11
153.3915146839979
 21
345.8088197781534
 31
0.0
 11
152.9331602523789
 21
345.8963097013943
 31
0.0
 11
152.4804698097923
 21
346.009750300601
 31
0.0
 11
152.0558785680741
 21
346.1435047885644
 31
0.0
 11
151.6403880913426
 21
346.3035797592982
 31
0.0
 11
151.2618174674742
 21
346.4792712949803
 31
0.0
 11
150.8965792012218
 21
346.6815463501532
 31
0.0
 11
150.5746652319385
 21
346.8938591319919
 31
0.0
 11
150.2714510493964
 21
347.1324982329746
 31
0.0
 11
150.0149940349141
 21
347.3755255251502
 31
0.0
 11
149.7839903484687
 21
347.643298823203
 31
0.0
 11
149.6000887816911
 21
347.910947683621
 31
0.0
 11
149.4494962983436
 21
348.1990892587341
 31
0.0
 11
149.3440963692595
 21
348.4850643810686
 31
0.0
 11
149.2791972097243
 21
348.7831403594917
 31
0.0
 11
149.2574057280333
 21
349.0800069612647
 31
0.0
 11
149.2791972097243
 21
349.3768735630379
 31
0.0
 11
149.3440963692595
 21
349.6749495414612
 31
0.0
 11
149.4494962983436
 21
349.9609246637957
 31
0.0
 11
149.6000887816911
 21
350.2490662389089
 31
0.0
 11
149.7839903484687
 21
350.5167150993269
 31
0.0
 11
150.0149940349141
 21
350.7844883973795
 31
0.0
 11
150.2714510493964
 21
351.0275156895549
 31
0.0
 11
150.5746652319385
 21
351.2661547905375
 31
0.0
 11
150.8965792012218
 21
351.4784675723763
 31
0.0
 11
151.2618174674742
 21
351.6807426275495
 31
0.0
 11
151.6403880913425
 21
351.8564341632315
 31
0.0
 11
152.055878568074
 21
352.0165091339653
 31
0.0
 11
152.4804698097922
 21
352.1502636219286
 31
0.0
 11
152.9331602523788
 21
352.2637042211354
 31
0.0
 11
153.3915146839979
 21
352.3511941443761
 31
0.0
 11
153.8674161806385
 21
352.4150307282588
 31
0.0
 11
154.3460341491395
 21
352.4531951416453
 31
0.0
 11
154.8306151941577
 21
352.4659808043558
 31
0.0
 11
155.3151962391758
 21
352.4531951416453
 31
0.0
 11
155.7938142076767
 21
352.4150307282588
 31
0.0
 11
156.2697157043173
 21
352.3511941443761
 31
0.0
 11
156.7280701359364
 21
352.2637042211354
 31
0.0
 11
157.180760578523
 21
352.1502636219286
 31
0.0
 11
157.6053518202412
 21
352.0165091339653
 31
0.0
 11
158.0208422969727
 21
351.8564341632314
 31
0.0
 11
158.399412920841
 21
351.6807426275493
 31
0.0
 11
158.7646511870935
 21
351.4784675723764
 31
0.0
 11
159.0865651563768
 21
351.2661547905378
 31
0.0
 11
159.3897793389189
 21
351.0275156895551
 31
0.0
 11
159.6462363534013
 21
350.7844883973795
 31
0.0
 11
159.8772400398465
 21
350.5167150993267
 31
0.0
 11
160.0611416066241
 21
350.2490662389087
 31
0.0
 11
160.2117340899715
 21
349.9609246637956
 31
0.0
 11
160.3171340190556
 21
349.6749495414612
 31
0.0
 11
160.382033178591
 21
349.376873563038
 31
0.0
 11
160.4038246602822
 21
349.0800069612647
 31
0.0
 11
160.382033178591
 21
348.7831403594917
 31
0.0
  0
SPLINE
  5
1E2
330
1F
100
AcDbEntity
  8
1
  6
Continuous
 62
     7
100
AcDbSpline
210
0.0
220
0.0
230
1.0
 70
    11
 71
     3
 72
    79
 73
    75
 74
    73
 42
0.000000001
 43
0.0000000001
 44
0.00000001
 40
0.0
 40
0.0
 40
0.0
 40
0.0
 40
0.4775837980874703
 40
0.9551633046593049
 40
1.433518909476306
 40
1.911866496801701
 40
2.391400724651717
 40
2.870924287763716
 40
3.351899523006321
 40
3.832862818167451
 40
4.315366202001413
 40
4.797857840775843
 40
5.281792267924543
 40
5.76571652425896
 40
6.250813809635485
 40
6.735903639490582
 40
7.22175759762323
 40
7.707607620771791
 40
8.193722744716979
 40
8.679837868649406
 40
9.165687891759701
 40
9.651541849828146
 40
10.13663167959368
 40
10.62172896485494
 40
11.10565322104891
 40
11.58958764803138
 40
12.07207928661409
 40
12.55458267022966
 40
13.03554596514528
 40
13.51652120011208
 40
13.99604476291326
 40
14.47557899040504
 40
14.95392657729296
 40
15.43228218149364
 40
15.9098616867915
 40
16.38744549385025
 40
16.86475947232415
 40
17.34207345079709
 40
17.81965725785311
 40
18.29723676314595
 40
18.77559236733989
 40
19.25393995421908
 40
19.73347418170034
 40
20.21299774448946
 40
20.69397297944244
 40
21.17493627434273
 40
21.65743965794134
 40
22.13993129650567
 40
22.62386572346846
 40
23.10778997964158
 40
23.59288726488086
 40
24.07797709462331
 40
24.56383105266779
 40
25.04968107575329
 40
25.53579619966012
 40
26.02191132357929
 40
26.50776134670134
 40
26.99361530480676
 40
27.47870513463413
 40
27.96380241998245
 40
28.44772667628813
 40
28.93166110340752
 40
29.41415274215162
 40
29.89665612595387
 40
30.37761942108055
 40
30.85859465628421
 40
31.33811821934814
 40
31.81765244713149
 40
32.2960000343447
 40
32.77435563891631
 40
33.25193514466287
 40
33.72951895234701
 40
34.20683293210269
 40
34.68414690160937
 40
34.68414690160937
 40
34.68414690160937
 40
34.68414690160937
 10
160.382564346326
 20
358.9768402597355
 30
0.0
 10
160.364375384631
 20
359.1350992531262
 30
0.0
 10
160.3279976295159
 20
359.4516158183857
 30
0.0
 10
160.2200342152343
 20
359.9180763122838
 30
0.0
 10
160.0743458889448
 20
360.3739426439117
 30
0.0
 10
159.8876191766973
 20
360.8155065878662
 30
0.0
 10
159.6629344031947
 20
361.2393781438153
 30
0.0
 10
159.4010846227748
 20
361.6424225295476
 30
0.0
 10
159.1048146767756
 20
362.0214791677686
 30
0.0
 10
158.7756819271427
 20
362.3737370961768
 30
0.0
 10
158.4168911854356
 20
362.6964894039875
 30
0.0
 10
158.0304962639155
 20
362.9872662128022
 30
0.0
 10
157.6200963797882
 20
363.2439398632703
 30
0.0
 10
157.1882007776782
 20
363.4644236467053
 30
0.0
 10
156.7386520291413
 20
363.6472506264757
 30
0.0
 10
156.2743860911776
 20
363.7907727984067
 30
0.0
 10
155.799324371049
 20
363.8942196652055
 30
0.0
 10
155.3167861304908
 20
363.9564496357512
 30
0.0
 10
154.8306152036428
 20
363.9773804251728
 30
0.0
 10
154.3444442767817
 20
363.9564496361607
 30
0.0
 10
153.861906036234
 20
363.8942196660225
 30
0.0
 10
153.3868443159917
 20
363.7907727996418
 30
0.0
 10
152.9225783783289
 20
363.6472506280925
 30
0.0
 10
152.4730296285028
 20
363.4644236488458
 30
0.0
 10
152.0411340309769
 20
363.2439398654127
 30
0.0
 10
151.6307341295
 20
362.9872662169034
 30
0.0
 10
151.2443392722242
 20
362.6964894027764
 30
0.0
 10
150.8855482907726
 20
362.373737116763
 30
0.0
 10
150.556416432706
 20
362.0214791092858
 30
0.0
 10
150.2601431642934
 20
361.6424227677534
 30
0.0
 10
149.9983057469853
 20
361.2393772801074
 30
0.0
 10
149.773574899087
 20
360.8155098329636
 30
0.0
 10
149.5870197327553
 20
360.3739305934359
 30
0.0
 10
149.4406918533363
 20
359.918121289555
 30
0.0
 10
149.3351116036033
 20
359.4514482946904
 30
0.0
 10
149.2716656640766
 20
358.9775547924021
 30
0.0
 10
149.2502777897249
 20
358.5000000006377
 30
0.0
 10
149.2716656640486
 20
358.0224452088727
 30
0.0
 10
149.3351116035473
 20
357.5485517065839
 30
0.0
 10
149.4406918532524
 20
357.0818787117177
 30
0.0
 10
149.5870197326437
 20
356.626069407835
 30
0.0
 10
149.7735748989475
 20
356.184490168305
 30
0.0
 10
149.9983057468185
 20
355.7606227211585
 30
0.0
 10
150.2601431640989
 20
355.3575772335091
 30
0.0
 10
150.5564164324845
 20
354.9785208919727
 30
0.0
 10
150.8855482905236
 20
354.626262884491
 30
0.0
 10
151.2443392719478
 20
354.3035105984725
 30
0.0
 10
151.6307341291967
 20
354.0127337843399
 30
0.0
 10
152.0411340306466
 20
353.7560601358247
 30
0.0
 10
152.4730296281458
 20
353.5355763523851
 30
0.0
 10
152.9225783779453
 20
353.3527493731312
 30
0.0
 10
153.3868443155818
 20
353.2092272015744
 30
0.0
 10
153.8619060357976
 20
353.1057803351855
 30
0.0
 10
154.3444442763196
 20
353.0435503650381
 30
0.0
 10
154.8306152031531
 20
353.0226195760166
 30
0.0
 10
155.3167861299815
 20
353.0435503654269
 30
0.0
 10
155.799324370492
 20
353.1057803359638
 30
0.0
 10
156.2743860906789
 20
353.2092272027415
 30
0.0
 10
156.7386520283075
 20
353.3527493746909
 30
0.0
 10
157.1882007779764
 20
353.5355763543273
 30
0.0
 10
157.6200963757575
 20
353.7560601381884
 30
0.0
 10
158.0304962759054
 20
354.0127337869858
 30
0.0
 10
158.4168911376992
 20
354.3035106019252
 30
0.0
 10
158.7756821018386
 20
354.6262628868066
 30
0.0
 10
159.1048140237822
 20
354.9785209003959
 30
0.0
 10
159.4010870535956
 20
355.3575772210741
 30
0.0
 10
159.6629253581365
 20
355.7606227882624
 30
0.0
 10
159.8876528988217
 20
356.1844899409549
 30
0.0
 10
160.0742203778943
 20
356.6260702788362
 30
0.0
 10
160.2205023523255
 20
357.0818754900249
 30
0.0
 10
160.3262536565992
 20
357.5485637378805
 30
0.0
 10
160.3890615404845
 20
358.0224003477286
 30
0.0
 10
160.4128294052188
 20
358.5001673534584
 30
0.0
 10
160.3926526975969
 20
358.8179492920181
 30
0.0
 10
160.382564346326
 20
358.9768402597355
 30
0.0
 11
160.382564346326
 21
358.9768402597355
 31
0.0
 11
160.3191076323051
 21
359.4501895371368
 31
0.0
 11
160.2138266110997
 21
359.9160200756991
 31
0.0
 11
160.0675439187215
 21
360.3714599270299
 31
0.0
 11
159.8814905592799
 21
360.8121418548602
 31
0.0
 11
159.6568130324147
 21
361.2357844925246
 31
0.0
 11
159.395675203486
 21
361.6379658965782
 31
0.0
 11
159.0994427316174
 21
362.0168900307239
 31
0.0
 11
158.7711655950351
 21
362.3684007884839
 31
0.0
 11
158.4124147704161
 21
362.6910575119462
 31
0.0
 11
158.0269570109427
 21
362.9812651912276
 31
0.0
 11
157.6166364664885
 21
363.2378379500279
 31
0.0
 11
157.1856726316443
 21
363.4579580511532
 31
0.0
 11
156.7362974731948
 21
363.6406636702683
 31
0.0
 11
156.2728736573195
 21
363.7840181607107
 31
0.0
 11
155.7981329218796
 21
363.8873395175638
 31
0.0
 11
155.3162832054712
 21
363.9495576486711
 31
0.0
 11
154.8306151941578
 21
363.9704022301169
 31
0.0
 11
154.3449471828442
 21
363.9495576486711
 31
0.0
 11
153.8630974664357
 21
363.8873395175638
 31
0.0
 11
153.3883567309958
 21
363.7840181607107
 31
0.0
 11
152.9249329151205
 21
363.6406636702682
 31
0.0
 11
152.475557756671
 21
363.4579580511531
 31
0.0
 11
152.0445939218268
 21
363.2378379500278
 31
0.0
 11
151.6342733773725
 21
362.9812651912275
 31
0.0
 11
151.248815617899
 21
362.6910575119459
 31
0.0
 11
150.89006479328
 21
362.3684007884838
 31
0.0
 11
150.5617876566977
 21
362.0168900307237
 31
0.0
 11
150.2655551848291
 21
361.6379658965782
 31
0.0
 11
150.0044173559006
 21
361.2357844925246
 31
0.0
 11
149.7797398290355
 21
360.8121418548602
 31
0.0
 11
149.5936864695937
 21
360.3714599270299
 31
0.0
 11
149.4474037772155
 21
359.9160200756991
 31
0.0
 11
149.34212275601
 21
359.4501895371368
 31
0.0
 11
149.2786660419892
 21
358.9768402597356
 31
0.0
 11
149.2574057280331
 21
358.5
 31
0.0
 11
149.2786660419891
 21
358.0231597402644
 31
0.0
 11
149.34212275601
 21
357.549810462863
 31
0.0
 11
149.4474037772154
 21
357.0839799243008
 31
0.0
 11
149.5936864695937
 21
356.6285400729701
 31
0.0
 11
149.7797398290354
 21
356.1878581451398
 31
0.0
 11
150.0044173559007
 21
355.7642155074755
 31
0.0
 11
150.2655551848293
 21
355.3620341034219
 31
0.0
 11
150.561787656698
 21
354.9831099692764
 31
0.0
 11
150.8900647932802
 21
354.6315992115162
 31
0.0
 11
151.2488156178991
 21
354.3089424880538
 31
0.0
 11
151.6342733773725
 21
354.0187348087724
 31
0.0
 11
152.0445939218268
 21
353.762162049972
 31
0.0
 11
152.475557756671
 21
353.5420419488466
 31
0.0
 11
152.9249329151206
 21
353.3593363297317
 31
0.0
 11
153.3883567309958
 21
353.2159818392893
 31
0.0
 11
153.8630974664356
 21
353.1126604824362
 31
0.0
 11
154.3449471828441
 21
353.0504423513288
 31
0.0
 11
154.8306151941575
 21
353.0295977698831
 31
0.0
 11
155.3162832054711
 21
353.0504423513288
 31
0.0
 11
155.7981329218796
 21
353.1126604824363
 31
0.0
 11
156.2728736573196
 21
353.2159818392894
 31
0.0
 11
156.7362974731948
 21
353.3593363297319
 31
0.0
 11
157.1856726316443
 21
353.5420419488469
 31
0.0
 11
157.6166364664885
 21
353.7621620499721
 31
0.0
 11
158.0269570109427
 21
354.0187348087724
 31
0.0
 11
158.4124147704162
 21
354.3089424880538
 31
0.0
 11
158.7711655950352
 21
354.6315992115161
 31
0.0
 11
159.0994427316175
 21
354.9831099692761
 31
0.0
 11
159.3956752034861
 21
355.3620341034218
 31
0.0
 11
159.6568130324147
 21
355.7642155074755
 31
0.0
 11
159.8814905592799
 21
356.1878581451398
 31
0.0
 11
160.0675439187216
 21
356.6285400729701
 31
0.0
 11
160.2138266110997
 21
357.0839799243008
 31
0.0
 11
160.3191076323051
 21
357.5498104628631
 31
0.0
 11
160.382564346326
 21
358.0231597402644
 31
0.0
 11
160.4038246602821
 21
358.4999999999999
 31
0.0
 11
160.382564346326
 21
358.9768402597355
 31
0.0
  0
SPLINE
  5
1E3
330
1F
100
AcDbEntity
  8
1
  6
Continuous
 62
     7
100
AcDbSpline
210
0.0
220
0.0
230
1.0
 70
    11
 71
     3
 72
    79
 73
    75
 74
    73
 42
0.000000001
 43
0.0000000001
 44
0.00000001
 40
0.0
 40
0.0
 40
0.0
 40
0.0
 40
0.3050593144645368
 40
0.6098394267305614
 40
0.9349604253343051
 40
1.259699857726073
 40
1.61334550303819
 40
1.966661884081181
 40
2.352521264016787
 40
2.738144552987386
 40
3.155654060797499
 40
3.573006709026732
 40
4.018266557340206
 40
4.463427186325297
 40
4.93011488314085
 40
5.396744577495414
 40
5.876908449466624
 40
6.357045598853222
 40
6.841795289273245
 40
7.326544979693482
 40
7.806682129080384
 40
8.28684600105066
 40
8.753475695401614
 40
9.220163392208244
 40
9.665324021176248
 40
10.11058386945922
 40
10.52793651764131
 40
10.9454460253773
 40
11.33106931424462
 40
11.71692869402805
 40
12.07024507486912
 40
12.42389071988761
 40
12.74863015186995
 40
13.07375114977066
 40
13.37853125996736
 40
13.68359058164139
 40
13.98125591022588
 40
14.2789212388091
 40
14.58398056047962
 40
14.88876067067112
 40
15.21388166856487
 40
15.53862110053929
 40
15.89226674554857
 40
16.2455831263803
 40
16.63144250615373
 40
17.01706579501149
 40
17.43457530273756
 40
17.85192795091041
 40
18.29718779918425
 40
18.74234842814394
 40
19.20903612494271
 40
19.67566581928655
 40
20.15582969125037
 40
20.63596684063167
 40
21.12071653104733
 40
21.60546622146377
 40
22.08560337084801
 40
22.56576724281792
 40
23.03239693717255
 40
23.49908463398934
 40
23.94424526297672
 40
24.38950511129316
 40
24.80685775952541
 40
25.22436726733774
 40
25.60999055630821
 40
25.99584993623827
 40
26.34916631726556
 40
26.70281196253747
 40
27.02755139483254
 40
27.3526723931481
 40
27.65745250388228
 40
27.96251182635628
 40
28.26017715710077
 40
28.55784247874124
 40
28.55784247874124
 40
28.55784247874124
 40
28.55784247874124
 10
160.382033178591
 20
368.2168596405085
 30
0.0
 10
160.3633506849037
 20
368.3169979161767
 30
0.0
 10
160.3260028053092
 20
368.5171828188646
 30
0.0
 10
160.2145105434789
 20
368.8097614977651
 30
0.0
 10
160.0669959656013
 20
369.0924091321812
 30
0.0
 10
159.8761758499552
 20
369.368117871481
 30
0.0
 10
159.6505771249843
 20
369.6285112251416
 30
0.0
 10
159.3852434726863
 20
369.878880606325
 30
0.0
 10
159.0897306849712
 20
370.1104469429901
 30
0.0
 10
158.7582323314568
 20
370.3284000114753
 30
0.0
 10
158.4016641416939
 20
370.5250915987053
 30
0.0
 10
158.0141516928304
 20
370.7044901002882
 30
0.0
 10
157.6068875017201
 20
370.86082848919
 30
0.0
 10
157.1750877078875
 20
370.9965804952676
 30
0.0
 10
156.7290259382742
 20
371.1079730053841
 30
0.0
 10
156.2659617976919
 20
371.196224773078
 30
0.0
 10
155.7942727071344
 20
371.2592598503527
 30
0.0
 10
155.3138874345098
 20
371.2975501420127
 30
0.0
 10
154.8306152041219
 20
371.3101953680962
 30
0.0
 10
154.3473429737184
 20
371.2975501419988
 30
0.0
 10
153.8669577011422
 20
371.2592598503212
 30
0.0
 10
153.395268610415
 20
371.1962247730698
 30
0.0
 10
152.9322044704576
 20
371.1079730052963
 30
0.0
 10
152.486142698574
 20
370.9965804955455
 30
0.0
 10
152.0543429128543
 20
370.8608284883292
 30
0.0
 10
151.6470786924032
 20
370.7044901038308
 30
0.0
 10
151.2595663465165
 20
370.5250915872087
 30
0.0
 10
150.9029977872738
 20
370.3284000545282
 30
0.0
 10
150.5715007127324
 20
370.11044679798
 30
0.0
 10
150.2759833624855
 20
369.8788811332117
 30
0.0
 10
150.0106653791493
 20
369.6285094458011
 30
0.0
 10
149.7850108000537
 20
369.3681243146376
 30
0.0
 10
149.5943830623627
 20
369.0923872567405
 30
0.0
 10
149.4461776124233
 20
368.8098413241111
 30
0.0
 10
149.3371119183832
 20
368.5169054384661
 30
0.0
 10
149.2726674748657
 20
368.2203146580243
 30
0.0
 10
149.2498684821541
 20
367.9199930391076
 30
0.0
 10
149.2726674748552
 20
367.6196714201912
 30
0.0
 10
149.3371119183624
 20
367.3230806397503
 30
0.0
 10
149.4461776123924
 20
367.0301447541074
 30
0.0
 10
149.5943830623223
 20
366.7475988214802
 30
0.0
 10
149.7850108000042
 20
366.4718617635866
 30
0.0
 10
150.0106653790911
 20
366.2114766324272
 30
0.0
 10
150.2759833624193
 20
365.9611049450221
 30
0.0
 10
150.5715007126588
 20
365.7295392802596
 30
0.0
 10
150.902997787193
 20
365.5115860237185
 30
0.0
 10
151.2595663464295
 20
365.3148944910462
 30
0.0
 10
151.6470786923103
 20
365.1354959744338
 30
0.0
 10
152.0543429127561
 20
364.9791575899467
 30
0.0
 10
152.486142698471
 20
364.8434055827429
 30
0.0
 10
152.9322044703503
 20
364.7320130730067
 30
0.0
 10
153.3952686103038
 20
364.6437613052502
 30
0.0
 10
153.8669577010269
 20
364.5807262280181
 30
0.0
 10
154.3473429736001
 20
364.5424359363622
 30
0.0
 10
154.8306152039966
 20
364.5297907102902
 30
0.0
 10
155.3138874343921
 20
364.5424359363998
 30
0.0
 10
155.7942727069686
 20
364.5807262280983
 30
0.0
 10
156.2659617976796
 20
364.6437613053808
 30
0.0
 10
156.7290259376766
 20
364.7320130732106
 30
0.0
 10
157.175087709393
 20
364.8434055830097
 30
0.0
 10
157.6068874956793
 20
364.9791575904098
 30
0.0
 10
158.0141517140374
 20
365.1354959747315
 30
0.0
 10
158.4016640672088
 20
365.3148944925951
 30
0.0
 10
158.7582326002267
 20
365.5115860216246
 30
0.0
 10
159.0897297654264
 20
365.7295392917771
 30
0.0
 10
159.3852467920926
 20
365.9611049092202
 30
0.0
 10
159.6505658864618
 20
366.2114767605516
 30
0.0
 10
159.8762165048037
 20
366.4718613090949
 30
0.0
 10
160.0668578840586
 20
366.7476003756249
 30
0.0
 10
160.2150143434866
 20
367.030139097138
 30
0.0
 10
160.3242521074481
 20
367.3231003133025
 30
0.0
 10
160.3880677915528
 20
367.6195985377861
 30
0.0
 10
160.4131602441748
 20
367.9202577671904
 30
0.0
 10
160.3924088638776
 20
368.1179923501434
 30
0.0
 10
160.382033178591
 20
368.2168596405085
 30
0.0
 11
160.382033178591
 21
368.2168596405085
 31
0.0
 11
160.3171340190556
 21
368.5149356189316
 31
0.0
 11
160.2117340899715
 21
368.800910741266
 31
0.0
 11
160.0611416066241
 21
369.0890523163792
 31
0.0
 11
159.8772400398464
 21
369.3567011767972
 31
0.0
 11
159.646236353401
 21
369.6244744748498
 31
0.0
 11
159.3897793389187
 21
369.8675017670254
 31
0.0
 11
159.0865651563768
 21
370.1061408680082
 31
0.0
 11
158.7646511870935
 21
370.3184536498468
 31
0.0
 11
158.399412920841
 21
370.5207287050197
 31
0.0
 11
158.0208422969727
 21
370.6964202407019
 31
0.0
 11
157.6053518202413
 21
370.8564952114356
 31
0.0
 11
157.180760578523
 21
370.9902496993989
 31
0.0
 11
156.7280701359364
 21
371.1036902986057
 31
0.0
 11
156.2697157043174
 21
371.1911802218465
 31
0.0
 11
155.7938142076767
 21
371.2550168057292
 31
0.0
 11
155.3151962391758
 21
371.2931812191156
 31
0.0
 11
154.8306151941577
 21
371.3059668818262
 31
0.0
 11
154.3460341491395
 21
371.2931812191158
 31
0.0
 11
153.8674161806385
 21
371.2550168057293
 31
0.0
 11
153.3915146839979
 21
371.1911802218466
 31
0.0
 11
152.9331602523789
 21
371.1036902986057
 31
0.0
 11
152.4804698097923
 21
370.9902496993989
 31
0.0
 11
152.0558785680741
 21
370.8564952114355
 31
0.0
 11
151.6403880913426
 21
370.6964202407019
 31
0.0
 11
151.2618174674742
 21
370.5207287050198
 31
0.0
 11
150.8965792012218
 21
370.3184536498468
 31
0.0
 11
150.5746652319385
 21
370.1061408680083
 31
0.0
 11
150.2714510493964
 21
369.8675017670255
 31
0.0
 11
150.0149940349141
 21
369.6244744748499
 31
0.0
 11
149.7839903484687
 21
369.3567011767972
 31
0.0
 11
149.6000887816911
 21
369.0890523163792
 31
0.0
 11
149.4494962983436
 21
368.800910741266
 31
0.0
 11
149.3440963692595
 21
368.5149356189316
 31
0.0
 11
149.2791972097243
 21
368.2168596405083
 31
0.0
 11
149.2574057280333
 21
367.9199930387351
 31
0.0
 11
149.2791972097243
 21
367.623126436962
 31
0.0
 11
149.3440963692595
 21
367.325050458539
 31
0.0
 11
149.4494962983436
 21
367.0390753362045
 31
0.0
 11
149.6000887816911
 21
366.7509337610913
 31
0.0
 11
149.7839903484687
 21
366.4832849006733
 31
0.0
 11
150.0149940349141
 21
366.2155116026206
 31
0.0
 11
150.2714510493964
 21
365.972484310445
 31
0.0
 11
150.5746652319385
 21
365.7338452094622
 31
0.0
 11
150.8965792012218
 21
365.5215324276236
 31
0.0
 11
151.2618174674742
 21
365.3192573724506
 31
0.0
 11
151.6403880913425
 21
365.1435658367685
 31
0.0
 11
152.055878568074
 21
364.9834908660349
 31
0.0
 11
152.4804698097922
 21
364.8497363780716
 31
0.0
 11
152.9331602523788
 21
364.7362957788648
 31
0.0
 11
153.3915146839979
 21
364.6488058556239
 31
0.0
 11
153.8674161806385
 21
364.584969271741
 31
0.0
 11
154.3460341491395
 21
364.5468048583546
 31
0.0
 11
154.8306151941577
 21
364.5340191956442
 31
0.0
 11
155.3151962391758
 21
364.5468048583548
 31
0.0
 11
155.7938142076767
 21
364.5849692717413
 31
0.0
 11
156.2697157043173
 21
364.648805855624
 31
0.0
 11
156.7280701359364
 21
364.7362957788647
 31
0.0
 11
157.180760578523
 21
364.8497363780715
 31
0.0
 11
157.6053518202412
 21
364.9834908660349
 31
0.0
 11
158.0208422969727
 21
365.1435658367686
 31
0.0
 11
158.399412920841
 21
365.3192573724507
 31
0.0
 11
158.7646511870935
 21
365.5215324276236
 31
0.0
 11
159.0865651563768
 21
365.7338452094622
 31
0.0
 11
159.3897793389189
 21
365.972484310445
 31
0.0
 11
159.6462363534013
 21
366.2155116026207
 31
0.0
 11
159.8772400398465
 21
366.4832849006733
 31
0.0
 11
160.0611416066241
 21
366.7509337610913
 31
0.0
 11
160.2117340899715
 21
367.0390753362044
 31
0.0
 11
160.3171340190556
 21
367.3250504585388
 31
0.0
 11
160.382033178591
 21
367.6231264369621
 31
0.0
 11
160.4038246602822
 21
367.9199930387354
 31
0.0
 11
160.382033178591
 21
368.2168596405085
 31
0.0
  0
SPLINE
  5
1E4
330
1F
100
AcDbEntity
  8
1
  6
Continuous
 62
     7
100
AcDbSpline
210
0.0
220
0.0
230
1.0
 70
    11
 71
     3
 72
    79
 73
    75
 74
    73
 42
0.000000001
 43
0.0000000001
 44
0.00000001
 40
0.0
 40
0.0
 40
0.0
 40
0.0
 40
0.4315859547805015
 40
0.8631272738382616
 40
1.300920644206822
 40
1.738636092523165
 40
2.185762236870437
 40
2.632794301732941
 40
3.091109027806932
 40
3.549329681473953
 40
4.019262662341481
 40
4.489113047943567
 40
4.969712000523969
 40
5.450246300146525
 40
5.939369933567216
 40
6.428449752857388
 40
6.923056207979905
 40
7.417640655199355
 40
7.914130230267602
 40
8.410619805327231
 40
8.90520425252069
 40
9.399810707599215
 40
9.88889052682721
 40
10.37801416016555
 40
10.85854845968587
 40
11.33914741214015
 40
11.80899779759326
 40
12.2789307782828
 40
12.73715143174397
 40
13.19546615757428
 40
13.6424982221532
 40
14.08962436615563
 40
14.52733981403352
 40
14.96513318374407
 40
15.39667450128416
 40
15.82826046472922
 40
16.25765399691331
 40
16.68704752909622
 40
17.11863349253793
 40
17.55017481007239
 40
17.98796817977528
 40
18.42568362764358
 40
18.87280977163458
 40
19.3198418362006
 40
19.7781565620165
 40
20.23637721546217
 40
20.70631019613504
 40
21.17616058157072
 40
21.65675953400671
 40
22.13729383350825
 40
22.62641746682722
 40
23.11549728603545
 40
23.61010374109373
 40
24.10468818826682
 40
24.60117776330575
 40
25.09766733835306
 40
25.59225178555137
 40
26.08685824065243
 40
26.57593805992095
 40
27.06506169331938
 40
27.54559599291942
 40
28.02619494547618
 40
28.49604533105366
 40
28.9659783118946
 40
29.42419896553224
 40
29.88251369157106
 40
30.32954575638826
 40
30.7766719006685
 40
31.21438734886531
 40
31.65218071895537
 40
32.08372203696889
 40
32.51530800110093
 40
32.94470153483672
 40
33.37409505838561
 40
33.37409505838561
 40
33.37409505838561
 40
33.37409505838561
 10
149.2381060663166
 20
189.9899516347985
 30
0.0
 10
149.2567966508067
 20
189.8471826487461
 30
0.0
 10
149.2941758809774
 20
189.5616594413769
 30
0.0
 10
149.4053277374517
 20
189.1413744141027
 30
0.0
 10
149.5546986096473
 20
188.7315178313006
 30
0.0
 10
149.7467053923714
 20
188.3338251968354
 30
0.0
 10
149.9767751850036
 20
187.9533776954897
 30
0.0
 10
150.2456516497126
 20
187.5907184844146
 30
0.0
 10
150.5485785036546
 20
187.2510317611141
 30
0.0
 10
150.886050146735
 20
186.9344278287386
 30
0.0
 10
151.2524487048003
 20
186.6455636935215
 30
0.0
 10
151.6480808504888
 20
186.3845105532796
 30
0.0
 10
152.0668283664373
 20
186.1549868037742
 30
0.0
 10
152.5085006115231
 20
185.9572348312843
 30
0.0
 10
152.9669983298805
 20
185.7938314616924
 30
0.0
 10
153.4412800685562
 20
185.6651967047922
 30
0.0
 10
153.9257789467305
 20
185.5727772565266
 30
0.0
 10
154.4183251611431
 20
185.516995846027
 30
0.0
 10
154.9142970449212
 20
185.4983591187425
 30
0.0
 10
155.4102689287119
 20
185.5169958457286
 30
0.0
 10
155.902815143102
 20
185.5727772559312
 30
0.0
 10
156.3873140213986
 20
185.6651967038824
 30
0.0
 10
156.8615957596891
 20
185.7938314605142
 30
0.0
 10
157.3200934795664
 20
185.9572348296378
 30
0.0
 10
157.7617657191999
 20
186.1549868023593
 30
0.0
 10
158.1805132554335
 20
186.3845105494665
 30
0.0
 10
158.5761453272332
 20
186.6455636968841
 30
0.0
 10
158.942544157761
 20
186.9344278039989
 30
0.0
 10
159.2800148084493
 20
187.251031837034
 30
0.0
 10
159.5829453172528
 20
187.5907181878048
 30
0.0
 10
159.8518084617533
 20
187.9533787546552
 30
0.0
 10
160.0819273690461
 20
188.3338212548169
 30
0.0
 10
160.273754518912
 20
188.7315321782611
 30
0.0
 10
160.4237897336093
 20
189.1413211189497
 30
0.0
 10
160.5324957888026
 20
189.5618551712452
 30
0.0
 10
160.5975565447204
 20
189.9884970170143
 30
0.0
 10
160.6196908715991
 20
190.418789528412
 30
0.0
 10
160.5975565447418
 20
190.8490820398099
 30
0.0
 10
160.5324957888457
 20
191.2757238855787
 30
0.0
 10
160.4237897336737
 20
191.6962579378743
 30
0.0
 10
160.2737545189976
 20
192.1060468785623
 30
0.0
 10
160.0819273691529
 20
192.5037578020063
 30
0.0
 10
159.8518084618809
 20
192.8842003021673
 30
0.0
 10
159.5829453174011
 20
193.246860869017
 30
0.0
 10
159.280014808618
 20
193.5865472197869
 30
0.0
 10
158.9425441579498
 20
193.9031512528209
 30
0.0
 10
158.5761453274421
 20
194.1920153599344
 30
0.0
 10
158.1805132556622
 20
194.4530685073506
 30
0.0
 10
157.7617657194483
 20
194.6825922544558
 30
0.0
 10
157.3200934798346
 20
194.8803442271754
 30
0.0
 10
156.8615957599768
 20
195.0437475962964
 30
0.0
 10
156.3873140217061
 20
195.1723823529259
 30
0.0
 10
155.9028151434296
 20
195.2648018008743
 30
0.0
 10
155.4102689290592
 20
195.3205832110742
 30
0.0
 10
154.9142970452911
 20
195.3392199380572
 30
0.0
 10
154.4183251615266
 20
195.3205832107707
 30
0.0
 10
153.9257789471629
 20
195.2648018002653
 30
0.0
 10
153.4412800689094
 20
195.1723823520093
 30
0.0
 10
152.9669983306316
 20
195.0437475950634
 30
0.0
 10
152.5085006109101
 20
194.8803442256338
 30
0.0
 10
152.0668283709412
 20
194.6825922525463
 30
0.0
 10
151.6480808362235
 20
194.4530685052524
 30
0.0
 10
151.252448759206
 20
194.192015356949
 30
0.0
 10
150.8860499482744
 20
193.9031512514633
 30
0.0
 10
150.5485792266165
 20
193.5865472108192
 30
0.0
 10
150.245648979659
 20
193.2468608863111
 30
0.0
 10
149.9767848813975
 20
192.8842002219315
 30
0.0
 10
149.7466694914793
 20
192.5037580794557
 30
0.0
 10
149.5548294778433
 20
192.1060458457845
 30
0.0
 10
149.4048418385813
 20
191.6962617485384
 30
0.0
 10
149.2959606336873
 20
191.2757098624183
 30
0.0
 10
149.2315505409661
 20
190.8491342639761
 30
0.0
 10
149.2069994705284
 20
190.4185956895542
 30
0.0
 10
149.2277372031007
 20
190.1328329853823
 30
0.0
 10
149.2381060663166
 20
189.9899516347985
 30
0.0
 11
149.2381060663166
 21
189.9899516347985
 31
0.0
 11
149.3032705498167
 21
189.5633135749676
 31
0.0
 11
149.4109716337715
 21
189.1454279621288
 31
0.0
 11
149.5614696230567
 21
188.7343155809727
 31
0.0
 11
149.7513093222909
 21
188.3399100763792
 31
0.0
 11
149.9826185877059
 21
187.9572642707984
 31
0.0
 11
150.2485635668552
 21
187.5979441698278
 31
0.0
 11
150.5534686333156
 21
187.2557668934197
 31
0.0
 11
150.887425813929
 21
186.9420173613179
 31
0.0
 11
151.2563364355442
 21
186.6509126383867
 31
0.0
 11
151.6483596132641
 21
186.3919199494105
 31
0.0
 11
152.0697114852696
 21
186.160753444152
 31
0.0
 11
152.5082098709613
 21
185.9642022323872
 31
0.0
 11
152.9688986997748
 21
185.79986193978
 31
0.0
 11
153.4408917513123
 21
185.6717150360162
 31
0.0
 11
153.9267214854795
 21
185.5789518166649
 31
0.0
 11
154.4181583678837
 21
185.5232421579916
 31
0.0
 11
154.9142970546074
 21
185.5045793146509
 31
0.0
 11
155.4104357413311
 21
185.5232421579915
 31
0.0
 11
155.9018726237353
 21
185.5789518166649
 31
0.0
 11
156.3877023579024
 21
185.6717150360161
 31
0.0
 11
156.8596954094399
 21
185.79986193978
 31
0.0
 11
157.3203842382534
 21
185.9642022323872
 31
0.0
 11
157.7588826239452
 21
186.160753444152
 31
0.0
 11
158.1802344959506
 21
186.3919199494105
 31
0.0
 11
158.5722576736704
 21
186.6509126383867
 31
0.0
 11
158.9411682952856
 21
186.9420173613178
 31
0.0
 11
159.275125475899
 21
187.2557668934197
 31
0.0
 11
159.5800305423594
 21
187.5979441698277
 31
0.0
 11
159.8459755215087
 21
187.9572642707984
 31
0.0
 11
160.0772847869237
 21
188.3399100763792
 31
0.0
 11
160.2671244861579
 21
188.7343155809726
 31
0.0
 11
160.4176224754431
 21
189.1454279621288
 31
0.0
 11
160.5253235593978
 21
189.5633135749675
 31
0.0
 11
160.5904880428979
 21
189.9899516347985
 31
0.0
 11
160.612325308535
 21
190.4187895289679
 31
0.0
 11
160.5904880428978
 21
190.8476274231373
 31
0.0
 11
160.5253235593977
 21
191.2742654829683
 31
0.0
 11
160.417622475443
 21
191.6921510958069
 31
0.0
 11
160.2671244861579
 21
192.1032634769631
 31
0.0
 11
160.0772847869237
 21
192.4976689815566
 31
0.0
 11
159.8459755215087
 21
192.8803147871374
 31
0.0
 11
159.5800305423594
 21
193.239634888108
 31
0.0
 11
159.275125475899
 21
193.5818121645162
 31
0.0
 11
158.9411682952856
 21
193.895561696618
 31
0.0
 11
158.5722576736704
 21
194.1866664195492
 31
0.0
 11
158.1802344959506
 21
194.4456591085253
 31
0.0
 11
157.7588826239451
 21
194.6768256137838
 31
0.0
 11
157.3203842382534
 21
194.8733768255486
 31
0.0
 11
156.8596954094398
 21
195.0377171181558
 31
0.0
 11
156.3877023579024
 21
195.1658640219196
 31
0.0
 11
155.9018726237353
 21
195.2586272412709
 31
0.0
 11
155.4104357413311
 21
195.3143368999442
 31
0.0
 11
154.9142970546074
 21
195.3329997432849
 31
0.0
 11
154.4181583678837
 21
195.3143368999442
 31
0.0
 11
153.9267214854795
 21
195.2586272412709
 31
0.0
 11
153.4408917513123
 21
195.1658640219196
 31
0.0
 11
152.9688986997748
 21
195.0377171181558
 31
0.0
 11
152.5082098709613
 21
194.8733768255486
 31
0.0
 11
152.0697114852696
 21
194.6768256137838
 31
0.0
 11
151.6483596132641
 21
194.4456591085253
 31
0.0
 11
151.2563364355444
 21
194.1866664195492
 31
0.0
 11
150.8874258139292
 21
193.895561696618
 31
0.0
 11
150.5534686333156
 21
193.5818121645162
 31
0.0
 11
150.2485635668552
 21
193.239634888108
 31
0.0
 11
149.9826185877059
 21
192.8803147871374
 31
0.0
 11
149.7513093222909
 21
192.4976689815566
 31
0.0
 11
149.5614696230568
 21
192.1032634769633
 31
0.0
 11
149.4109716337715
 21
191.692151095807
 31
0.0
 11
149.3032705498168
 21
191.2742654829683
 31
0.0
 11
149.2381060663167
 21
190.8476274231373
 31
0.0
 11
149.2162688006796
 21
190.4187895289679
 31
0.0
 11
149.2381060663166
 21
189.9899516347985
 31
0.0
  0
SPLINE
  5
1E5
330
1F
100
AcDbEntity
  8
1
  6
Continuous
 62
     7
100
AcDbSpline
210
0.0
220
0.0
230
1.0
 70
    11
 71
     3
 72
    79
 73
    75
 74
    73
 42
0.000000001
 43
0.0000000001
 44
0.00000001
 40
0.0
 40
0.0
 40
0.0
 40
0.0
 40
0.4315859547805296
 40
0.8631272738382346
 40
1.300920644206795
 40
1.73863609252319
 40
2.185762236870437
 40
2.632794301732941
 40
3.091109027806932
 40
3.549329681473953
 40
4.019262662341481
 40
4.489113047943552
 40
4.969712000523954
 40
5.450246300146545
 40
5.939369933567235
 40
6.428449752857399
 40
6.923056207979901
 40
7.417640655199354
 40
7.914130230267601
 40
8.410619805327231
 40
8.905204252520686
 40
9.399810707599212
 40
9.888890526827213
 40
10.37801416016554
 40
10.85854845968586
 40
11.33914741214016
 40
11.80899779759327
 40
12.27893077828282
 40
12.73715143174398
 40
13.19546615757431
 40
13.64249822215318
 40
14.08962436615562
 40
14.52733981403353
 40
14.96513318374408
 40
15.39667450128414
 40
15.82826046472923
 40
16.25765399691332
 40
16.6870475290962
 40
17.11863349253792
 40
17.5501748100724
 40
17.98796817977526
 40
18.42568362764356
 40
18.87280977163456
 40
19.31984183620058
 40
19.77815656201646
 40
20.23637721546215
 40
20.70631019613496
 40
21.17616058157068
 40
21.65675953400667
 40
22.13729383350822
 40
22.62641746682721
 40
23.11549728603543
 40
23.61010374109371
 40
24.1046881882668
 40
24.60117776330573
 40
25.09766733835304
 40
25.59225178555135
 40
26.0868582406524
 40
26.57593805992093
 40
27.06506169331936
 40
27.5455959929194
 40
28.02619494547617
 40
28.49604533105366
 40
28.96597831189458
 40
29.42419896553224
 40
29.88251369157105
 40
30.32954575638825
 40
30.77667190066849
 40
31.21438734886537
 40
31.65218071895538
 40
32.08372203696884
 40
32.51530800110088
 40
32.94470153483665
 40
33.37409505838562
 40
33.37409505838562
 40
33.37409505838562
 40
33.37409505838562
 10
149.2381060663166
 20
178.8476274231373
 30
0.0
 10
149.2567966508068
 20
178.9903964091897
 30
0.0
 10
149.2941758809774
 20
179.2759196165588
 30
0.0
 10
149.4053277374517
 20
179.6962046438331
 30
0.0
 10
149.5546986096473
 20
180.1060612266351
 30
0.0
 10
149.7467053923714
 20
180.5037538611004
 30
0.0
 10
149.9767751850036
 20
180.8842013624461
 30
0.0
 10
150.2456516497126
 20
181.2468605735212
 30
0.0
 10
150.5485785036545
 20
181.5865472968217
 30
0.0
 10
150.886050146735
 20
181.9031512291972
 30
0.0
 10
151.2524487048003
 20
182.1920153644143
 30
0.0
 10
151.6480808504888
 20
182.4530685046562
 30
0.0
 10
152.0668283664373
 20
182.6825922541616
 30
0.0
 10
152.5085006115231
 20
182.8803442266515
 30
0.0
 10
152.9669983298805
 20
183.0437475962435
 30
0.0
 10
153.4412800685562
 20
183.1723823531437
 30
0.0
 10
153.9257789467305
 20
183.2648018014092
 30
0.0
 10
154.4183251611431
 20
183.3205832119088
 30
0.0
 10
154.9142970449213
 20
183.3392199391934
 30
0.0
 10
155.4102689287119
 20
183.3205832122072
 30
0.0
 10
155.902815143102
 20
183.2648018020046
 30
0.0
 10
156.3873140213986
 20
183.1723823540534
 30
0.0
 10
156.8615957596892
 20
183.0437475974216
 30
0.0
 10
157.3200934795665
 20
182.880344228298
 30
0.0
 10
157.7617657191999
 20
182.6825922555766
 30
0.0
 10
158.1805132554335
 20
182.4530685084693
 30
0.0
 10
158.5761453272332
 20
182.1920153610518
 30
0.0
 10
158.942544157761
 20
181.9031512539368
 30
0.0
 10
159.2800148084493
 20
181.5865472209018
 30
0.0
 10
159.5829453172528
 20
181.2468608701309
 30
0.0
 10
159.8518084617533
 20
180.8842003032806
 30
0.0
 10
160.0819273690461
 20
180.5037578031189
 30
0.0
 10
160.2737545189119
 20
180.1060468796747
 30
0.0
 10
160.4237897336093
 20
179.6962579389862
 30
0.0
 10
160.5324957888027
 20
179.2757238866905
 30
0.0
 10
160.5975565447203
 20
178.8490820409216
 30
0.0
 10
160.6196908715992
 20
178.4187895295237
 30
0.0
 10
160.5975565447418
 20
177.9884970181259
 30
0.0
 10
160.5324957888457
 20
177.561855172357
 30
0.0
 10
160.4237897336737
 20
177.1413211200616
 30
0.0
 10
160.2737545189977
 20
176.7315321793734
 30
0.0
 10
160.0819273691529
 20
176.3338212559296
 30
0.0
 10
159.851808461881
 20
175.9533787557685
 30
0.0
 10
159.5829453174011
 20
175.5907181889188
 30
0.0
 10
159.280014808618
 20
175.2510318381489
 30
0.0
 10
158.9425441579499
 20
174.9344278051149
 30
0.0
 10
158.576145327442
 20
174.6455636980014
 30
0.0
 10
158.1805132556623
 20
174.3845105505853
 30
0.0
 10
157.7617657194483
 20
174.15498680348
 30
0.0
 10
157.3200934798345
 20
173.9572348307605
 30
0.0
 10
156.8615957599769
 20
173.7938314616392
 30
0.0
 10
156.3873140217061
 20
173.66519670501
 30
0.0
 10
155.9028151434296
 20
173.5727772570614
 30
0.0
 10
155.4102689290592
 20
173.5169958468616
 30
0.0
 10
154.9142970452911
 20
173.4983591198786
 30
0.0
 10
154.4183251615266
 20
173.516995847165
 30
0.0
 10
153.9257789471629
 20
173.5727772576705
 30
0.0
 10
153.4412800689094
 20
173.6651967059265
 30
0.0
 10
152.9669983306315
 20
173.7938314628724
 30
0.0
 10
152.5085006109101
 20
173.957234832302
 30
0.0
 10
152.0668283709412
 20
174.1549868053896
 30
0.0
 10
151.6480808362235
 20
174.3845105526834
 30
0.0
 10
151.2524487592061
 20
174.6455637009868
 30
0.0
 10
150.8860499482743
 20
174.9344278064725
 30
0.0
 10
150.5485792266165
 20
175.2510318471166
 30
0.0
 10
150.245648979659
 20
175.5907181716247
 30
0.0
 10
149.9767848813975
 20
175.9533788360043
 30
0.0
 10
149.7466694914792
 20
176.3338209784801
 30
0.0
 10
149.5548294778434
 20
176.7315332121513
 30
0.0
 10
149.4048418385813
 20
177.1413173093975
 30
0.0
 10
149.2959606336873
 20
177.5618691955174
 30
0.0
 10
149.2315505409661
 20
177.9884447939597
 30
0.0
 10
149.2069994705285
 20
178.4189833683816
 30
0.0
 10
149.2277372031006
 20
178.7047460725533
 30
0.0
 10
149.2381060663166
 20
178.8476274231373
 30
0.0
 11
149.2381060663166
 21
178.8476274231373
 31
0.0
 11
149.3032705498167
 21
179.2742654829683
 31
0.0
 11
149.4109716337715
 21
179.6921510958069
 31
0.0
 11
149.5614696230567
 21
180.1032634769631
 31
0.0
 11
149.7513093222909
 21
180.4976689815566
 31
0.0
 11
149.9826185877059
 21
180.8803147871374
 31
0.0
 11
150.2485635668552
 21
181.239634888108
 31
0.0
 11
150.5534686333156
 21
181.5818121645161
 31
0.0
 11
150.887425813929
 21
181.8955616966179
 31
0.0
 11
151.2563364355442
 21
182.1866664195491
 31
0.0
 11
151.6483596132641
 21
182.4456591085253
 31
0.0
 11
152.0697114852696
 21
182.6768256137838
 31
0.0
 11
152.5082098709613
 21
182.8733768255486
 31
0.0
 11
152.9688986997748
 21
183.0377171181558
 31
0.0
 11
153.4408917513123
 21
183.1658640219196
 31
0.0
 11
153.9267214854795
 21
183.2586272412708
 31
0.0
 11
154.4181583678837
 21
183.3143368999442
 31
0.0
 11
154.9142970546074
 21
183.3329997432849
 31
0.0
 11
155.4104357413311
 21
183.3143368999442
 31
0.0
 11
155.9018726237353
 21
183.2586272412709
 31
0.0
 11
156.3877023579024
 21
183.1658640219197
 31
0.0
 11
156.8596954094399
 21
183.0377171181558
 31
0.0
 11
157.3203842382534
 21
182.8733768255486
 31
0.0
 11
157.7588826239452
 21
182.6768256137838
 31
0.0
 11
158.1802344959506
 21
182.4456591085253
 31
0.0
 11
158.5722576736704
 21
182.1866664195491
 31
0.0
 11
158.9411682952856
 21
181.8955616966179
 31
0.0
 11
159.275125475899
 21
181.5818121645161
 31
0.0
 11
159.5800305423594
 21
181.239634888108
 31
0.0
 11
159.8459755215087
 21
180.8803147871374
 31
0.0
 11
160.0772847869237
 21
180.4976689815566
 31
0.0
 11
160.2671244861579
 21
180.1032634769631
 31
0.0
 11
160.4176224754431
 21
179.6921510958069
 31
0.0
 11
160.5253235593978
 21
179.2742654829683
 31
0.0
 11
160.5904880428979
 21
178.8476274231373
 31
0.0
 11
160.612325308535
 21
178.4187895289679
 31
0.0
 11
160.5904880428978
 21
177.9899516347985
 31
0.0
 11
160.5253235593977
 21
177.5633135749675
 31
0.0
 11
160.417622475443
 21
177.1454279621288
 31
0.0
 11
160.2671244861579
 21
176.7343155809727
 31
0.0
 11
160.0772847869237
 21
176.3399100763792
 31
0.0
 11
159.8459755215087
 21
175.9572642707984
 31
0.0
 11
159.5800305423594
 21
175.5979441698278
 31
0.0
 11
159.275125475899
 21
175.2557668934197
 31
0.0
 11
158.9411682952856
 21
174.9420173613179
 31
0.0
 11
158.5722576736704
 21
174.6509126383867
 31
0.0
 11
158.1802344959506
 21
174.3919199494105
 31
0.0
 11
157.7588826239451
 21
174.160753444152
 31
0.0
 11
157.3203842382534
 21
173.9642022323872
 31
0.0
 11
156.8596954094398
 21
173.79986193978
 31
0.0
 11
156.3877023579024
 21
173.6717150360161
 31
0.0
 11
155.9018726237353
 21
173.5789518166649
 31
0.0
 11
155.4104357413311
 21
173.5232421579916
 31
0.0
 11
154.9142970546074
 21
173.5045793146509
 31
0.0
 11
154.4181583678837
 21
173.5232421579916
 31
0.0
 11
153.9267214854795
 21
173.5789518166649
 31
0.0
 11
153.4408917513123
 21
173.6717150360161
 31
0.0
 11
152.9688986997748
 21
173.79986193978
 31
0.0
 11
152.5082098709613
 21
173.9642022323872
 31
0.0
 11
152.0697114852696
 21
174.160753444152
 31
0.0
 11
151.6483596132641
 21
174.3919199494105
 31
0.0
 11
151.2563364355444
 21
174.6509126383866
 31
0.0
 11
150.8874258139292
 21
174.9420173613178
 31
0.0
 11
150.5534686333156
 21
175.2557668934197
 31
0.0
 11
150.2485635668552
 21
175.5979441698277
 31
0.0
 11
149.9826185877059
 21
175.9572642707984
 31
0.0
 11
149.7513093222909
 21
176.3399100763791
 31
0.0
 11
149.5614696230568
 21
176.7343155809726
 31
0.0
 11
149.4109716337715
 21
177.1454279621288
 31
0.0
 11
149.3032705498168
 21
177.5633135749674
 31
0.0
 11
149.2381060663167
 21
177.9899516347984
 31
0.0
 11
149.2162688006796
 21
178.4187895289679
 31
0.0
 11
149.2381060663166
 21
178.8476274231373
 31
0.0
  0
SOLID
  5
1E6
330
1F
100
AcDbEntity
  8
1
 62
     2
100
AcDbTrace
 10
177.8981442415247
 20
344.6077788239648
 30
0.0
 11
176.70099296401
 21
345.2989544362986
 31
0.0
 12
179.9245686027674
 22
349.5
 32
0.0
 13
179.9245686027674
 23
349.5
 33
0.0
  0
LEADER
  5
1E7
330
1F
100
AcDbEntity
  8
1
  6
Continuous
 62
     2
100
AcDbLeader
  3
Standard
 71
     0
 76
     3
 10
179.9245686027674
 20
349.5
 30
0.0
 10
169.3859319217185
 20
331.2465458259148
 30
0.0
 10
156.2056866034355
 20
331.2465458259148
 30
0.0
  0
SOLID
  5
1E8
330
1F
100
AcDbEntity
  8
1
 62
     2
100
AcDbTrace
 10
176.7009929640099
 20
371.7010455637013
 30
0.0
 11
177.8981442415246
 21
372.3922211760352
 31
0.0
 12
179.9245686027674
 22
367.5
 32
0.0
 13
179.9245686027674
 23
367.5
 33
0.0
  0
LEADER
  5
1E9
330
1F
100
AcDbEntity
  8
1
  6
Continuous
 62
     2
100
AcDbLeader
  3
Standard
 71
     0
 76
     3
 10
179.9245686027674
 20
367.5
 30
0.0
 10
169.3859319217185
 20
385.753454174085
 30
0.0
 10
156.7056866034355
 20
385.753454174085
 30
0.0
  0
SOLID
  5
1EA
330
1F
100
AcDbEntity
  8
1
 62
     2
100
AcDbTrace
 10
215.9150945791474
 20
218.6039805594572
 30
0.0
 11
217.1122458566622
 21
217.9128049471234
 31
0.0
 12
213.8886702179048
 22
213.711759383422
 32
0.0
 13
213.8886702179048
 23
213.711759383422
 33
0.0
  0
LEADER
  5
1EB
330
1F
100
AcDbEntity
  8
1
  6
Continuous
 62
     2
100
AcDbLeader
  3
Standard
 71
     0
 76
     3
 10
213.8886702179048
 20
213.711759383422
 30
0.0
 10
224.9961704968839
 20
232.9505142116994
 30
0.0
 10
258.936730190638
 20
232.9505142116994
 30
0.0
  0
SOLID
  5
1EC
330
1F
100
AcDbEntity
  8
1
 62
     2
100
AcDbTrace
 10
103.6491389454603
 20
199.1515597754149
 30
0.0
 11
104.846290222975
 21
199.8427353877487
 31
0.0
 12
106.8727145842176
 22
194.9505142117135
 32
0.0
 13
106.8727145842176
 23
194.9505142117135
 33
0.0
  0
LEADER
  5
1ED
330
1F
100
AcDbEntity
  8
1
  6
Continuous
 62
     2
100
AcDbLeader
  3
Standard
 71
     0
 76
     3
 10
106.8727145842176
 20
194.9505142117135
 30
0.0
 10
93.84365603252724
 20
217.5175055980309
 30
0.0
 10
75.61862095064225
 20
217.5175055980309
 30
0.0
  0
SOLID
  5
1EE
330
1F
100
AcDbEntity
  8
1
 62
     2
100
AcDbTrace
 10
150.7683075782793
 20
196.6532921840696
 30
0.0
 11
151.9855372927231
 21
195.9981229459218
 31
0.0
 12
148.8886702179048
 22
191.7028187601869
 32
0.0
 13
148.8886702179048
 23
191.7028187601869
 33
0.0
  0
LEADER
  5
1EF
330
1F
100
AcDbEntity
  8
1
  6
Continuous
 62
     2
100
AcDbLeader
  3
Standard
 71
     0
 76
     3
 10
148.8886702179048
 20
191.7028187601869
 30
0.0
 10
166.417728769595
 20
224.2698101465043
 30
0.0
 10
184.6427638514801
 20
224.2698101465043
 30
0.0
  0
MTEXT
  5
1F0
330
1F
100
AcDbEntity
  8
1
 62
     7
100
AcDbMText
 10
162.7056866034354
 20
335.7465458259148
 30
0.0
 40
5.25
 41
0.0
 71
     5
 72
     1
  1
水側
  7
CONVERTER_11
 73
     1
 44
1.0
  0
MTEXT
  5
1F1
330
1F
100
AcDbEntity
  8
1
 62
     7
100
AcDbMText
 10
162.7056866034355
 20
390.253454174085
 30
0.0
 40
5.25
 41
0.0
 71
     5
 72
     1
  1
湯側
  7
CONVERTER_11
 73
     1
 44
1.0
  0
MTEXT
  5
1F3
330
1F
100
AcDbEntity
  8
1
 62
     7
100
AcDbMText
 10
140.625
 20
25.5
 30
0.0
 40
5.25
 41
0.0
 71
     5
 72
     1
  1
1,5
  7
CONVERTER_13
 73
     1
 44
0.7202881152461
  0
MTEXT
  5
1F4
330
1F
100
AcDbEntity
  8
1
 62
     7
100
AcDbMText
 10
127.875
 20
25.5
 30
0.0
 40
5.25
 41
0.0
 71
     5
 72
     1
  1
1
  7
CONVERTER_13
 73
     1
 44
0.7202881152461
  0
MTEXT
  5
1F5
330
1F
100
AcDbEntity
  8
1
 62
     7
100
AcDbMText
 10
210.75
 20
18.75
 30
0.0
 40
3.75
 41
0.0
 71
     5
 72
     1
  1
4
  7
CONVERTER_13
 73
     1
 44
0.7202881152461
  0
MTEXT
  5
1F6
330
1F
100
AcDbEntity
  8
1
 62
     7
100
AcDbMText
 10
219.375
 20
18.75
 30
0.0
 40
3.75
 41
0.0
 71
     5
 72
     1
  1
 8
  7
CONVERTER_13
 73
     1
 44
0.7202881152461
  0
MTEXT
  5
1F7
330
1F
100
AcDbEntity
  8
1
 62
     7
100
AcDbMText
 10
202.125
 20
18.75
 30
0.0
 40
3.75
 41
0.0
 71
     5
 72
     1
  1
09
  7
CONVERTER_13
 73
     1
 44
0.7202881152461
  0
MTEXT
  5
1F8
330
1F
100
AcDbEntity
  8
1
 62
     7
100
AcDbMText
 10
227.625
 20
18.75
 30
0.0
 40
3.75
 41
0.0
 71
     5
 72
     1
  1
09
  7
CONVERTER_13
 73
     1
 44
0.7202881152461
  0
MTEXT
  5
1F9
330
1F
100
AcDbEntity
  8
1
 62
     7
100
AcDbMText
 10
244.875
 20
18.75
 30
0.0
 40
3.75
 41
0.0
 71
     5
 72
     1
  1
 8
  7
CONVERTER_13
 73
     1
 44
0.7202881152461
  0
MTEXT
  5
1FA
330
1F
100
AcDbEntity
  8
1
 62
     7
100
AcDbMText
 10
236.25
 20
18.75
 30
0.0
 40
3.75
 41
0.0
 71
     5
 72
     1
  1
4
  7
CONVERTER_13
 73
     1
 44
0.7202881152461
  0
MTEXT
  5
1FB
330
1F
100
AcDbEntity
  8
0
 62
     7
100
AcDbMText
 10
51.00000000000001
 20
51.0
 30
0.0
 40
5.25
 41
0.0
 71
     4
 72
     1
  1
TOTO用
  7
CONVERTER_11
 73
     1
 44
0.54545454545455
  0
MTEXT
  5
1FC
330
1F
100
AcDbEntity
  8
1
 62
     7
100
AcDbMText
 10
85.50000000000001
 20
21.375
 30
0.0
 40
5.25
 41
0.0
 71
     5
 72
     1
  1
B98-1A
  7
CONVERTER_13
 73
     1
 44
0.7202881152461
  0
MTEXT
  5
1FD
330
1F
100
AcDbEntity
  8
1
 62
     7
100
AcDbMText
 10
241.7816687745045
 20
237.4505142116993
 30
0.0
 40
5.25
 41
0.0
 71
     5
 72
     1
  1
W47山20
  7
CONVERTER_11
 73
     1
 44
1.0
  0
MTEXT
  5
1FE
330
1F
100
AcDbEntity
  8
0
 62
     7
100
AcDbMText
 10
85.5
 20
37.125
 30
0.0
 40
5.25
 41
0.0
 71
     5
 72
     1
  1
シングル混合栓用
  7
CONVERTER_11
 73
     1
 44
0.54545454545455
  0
MTEXT
  5
1FF
330
1F
100
AcDbEntity
  8
0
 62
     7
100
AcDbMText
 10
85.5
 20
31.125
 30
0.0
 40
5.25
 41
0.0
 71
     5
 72
     1
  1
分岐アダプター
  7
CONVERTER_11
 73
     1
 44
0.54545454545455
  0
MTEXT
  5
200
330
1F
100
AcDbEntity
  8
1
 62
     7
100
AcDbMText
 10
84.68704839214826
 20
222.0175055980309
 30
0.0
 40
5.25
 41
0.0
 71
     5
 72
     1
  1
G1/2
  7
CONVERTER_13
 73
     1
 44
1.32052821128451
  0
MTEXT
  5
201
330
1F
100
AcDbEntity
  8
1
 62
     7
100
AcDbMText
 10
175.5743364099745
 20
228.7698101465043
 30
0.0
 40
5.25
 41
0.0
 71
     5
 72
     1
  1
G1/2
  7
CONVERTER_13
 73
     1
 44
1.32052821128451
  0
MTEXT
  5
202
330
1F
100
AcDbEntity
  8
1
 62
     7
100
AcDbMText
 10
151.125
 20
18.75
 30
0.0
 40
3.75
 41
0.0
 71
     5
 72
     1
  1
09
  7
CONVERTER_13
 73
     1
 44
0.7202881152461
  0
MTEXT
  5
203
330
1F
100
AcDbEntity
  8
1
 62
     7
100
AcDbMText
 10
159.75
 20
18.75
 30
0.0
 40
3.75
 41
0.0
 71
     5
 72
     1
  1
4
  7
CONVERTER_13
 73
     1
 44
0.7202881152461
  0
MTEXT
  5
204
330
1F
100
AcDbEntity
  8
1
 62
     7
100
AcDbMText
 10
168.375
 20
18.75
 30
0.0
 40
3.75
 41
0.0
 71
     5
 72
     1
  1
 8
  7
CONVERTER_13
 73
     1
 44
0.7202881152461
  0
MTEXT
  5
205
330
1F
100
AcDbEntity
  8
1
 62
     7
100
AcDbMText
 10
176.625
 20
18.75
 30
0.0
 40
3.75
 41
0.0
 71
     5
 72
     1
  1
09
  7
CONVERTER_13
 73
     1
 44
0.7202881152461
  0
MTEXT
  5
206
330
1F
100
AcDbEntity
  8
1
 62
     7
100
AcDbMText
 10
185.25
 20
18.75
 30
0.0
 40
3.75
 41
0.0
 71
     5
 72
     1
  1
4
  7
CONVERTER_13
 73
     1
 44
0.7202881152461
  0
MTEXT
  5
207
330
1F
100
AcDbEntity
  8
1
 62
     7
100
AcDbMText
 10
193.875
 20
18.75
 30
0.0
 40
3.75
 41
0.0
 71
     5
 72
     1
  1
 8
  7
CONVERTER_13
 73
     1
 44
0.7202881152461
  0
DIMENSION
  5
212
330
1F
100
AcDbEntity
  8
1
100
AcDbDimension
  2
*D4
 10
161.888670217905
 20
232.9505142116994
 30
0.0
 11
204.638670217905
 21
237.0755142116994
 31
0.0
 70
    32
  1
<>
 71
     5
 42
-1.0
 53
0.00013888888889
  3
ME10_DIM_10
100
AcDbAlignedDimension
 13
218.888670217905
 23
200.9505142116994
 33
0.0
 14
161.888670217905
 24
200.9505142116994
 34
0.0
100
AcDbRotatedDimension
  0
DIMENSION
  5
21D
330
1F
100
AcDbEntity
  8
1
100
AcDbDimension
  2
*D5
 10
148.8886702179047
 20
244.9505142116994
 30
0.0
 11
169.6386702179049
 21
249.0755142116994
 31
0.0
 70
    32
  1
42
 71
     5
 42
-1.0
 53
0.00013888888889
  3
ME10_DIM_11
100
AcDbAlignedDimension
 13
190.388670217905
 23
222.4505142116994
 33
0.0
 14
148.8886702179048
 24
196.5050776629406
 34
0.0
100
AcDbRotatedDimension
  0
DIMENSION
  5
228
330
1F
100
AcDbEntity
  8
1
100
AcDbDimension
  2
*D6
 10
89.3886702182555
 20
184.4505142116994
 30
0.0
 11
85.2636702182555
 21
167.2005142116994
 31
0.0
 70
    32
  1
35
 71
     5
 42
-1.0
 53
90.0
  3
ME10_DIM_12
100
AcDbAlignedDimension
 13
162.888670217905
 23
149.9505142116994
 33
0.0
 14
99.38867021804275
 24
184.4505142116994
 34
0.0
 50
90.0
100
AcDbRotatedDimension
  0
DIMENSION
  5
233
330
1F
100
AcDbEntity
  8
1
100
AcDbDimension
  2
*D7
 10
232.388670217905
 20
217.9505142116994
 30
0.0
 11
228.263670217905
 21
184.977906287015
 31
0.0
 70
    32
  1
<>
 71
     5
 42
-1.0
 53
90.0
  3
ME10_DIM_13
100
AcDbAlignedDimension
 13
217.888670217905
 23
149.9505142116994
 33
0.0
 14
213.0756702179049
 24
217.9505142116994
 34
0.0
 50
90.0
100
AcDbRotatedDimension
  0
DIMENSION
  5
23E
330
1F
100
AcDbEntity
  8
1
100
AcDbDimension
  2
*D8
 10
100.1386702179188
 20
256.9505142116994
 30
0.0
 11
145.2636702179119
 21
261.0755142116994
 31
0.0
 70
    32
  1
91
 71
     5
 42
-1.0
 53
0.00013888888889
  3
ME10_DIM_14
100
AcDbAlignedDimension
 13
190.388670217905
 23
222.4505142116994
 33
0.0
 14
100.1386702179187
 24
224.2087005414734
 34
0.0
100
AcDbRotatedDimension
  0
DIMENSION
  5
249
330
1F
100
AcDbEntity
  8
1
100
AcDbDimension
  2
*D9
 10
103.888670218157
 20
129.9505142116994
 30
0.0
 11
147.1386702179169
 21
134.0755142116994
 31
0.0
 70
    32
  1
87
 71
     5
 42
-1.0
 53
0.00013888888889
  3
ME10_DIM_15
100
AcDbAlignedDimension
 13
190.388670217905
 23
144.9505142116994
 33
0.0
 14
103.8886702181569
 24
175.2005142116953
 34
0.0
100
AcDbRotatedDimension
  0
ENDSEC
  0
SECTION
  2
OBJECTS
  0
DICTIONARY
  5
C
330
0
100
AcDbDictionary
281
     1
  3
ACAD_GROUP
350
D
  3
ACAD_LAYOUT
350
1A
  3
ACAD_MATERIAL
350
3B
  3
ACAD_MLEADERSTYLE
350
24C
  3
ACAD_MLINESTYLE
350
17
  3
ACAD_PLOTSETTINGS
350
19
  3
ACAD_PLOTSTYLENAME
350
E
  3
ACAD_VISUALSTYLE
350
2A
  3
AcDbVariableDictionary
350
24A
  0
DICTIONARY
  5
D
102
{ACAD_REACTORS
330
C
102
}
330
C
100
AcDbDictionary
281
     1
  0
DICTIONARY
  5
1A
102
{ACAD_REACTORS
330
C
102
}
330
C
100
AcDbDictionary
281
     1
  3
Layout1
350
1E
  3
Layout2
350
26
  3
Model
350
22
  0
DICTIONARY
  5
3B
102
{ACAD_REACTORS
330
C
102
}
330
C
100
AcDbDictionary
281
     1
  3
ByBlock
350
3D
  3
ByLayer
350
3C
  3
Global
350
3E
  0
DICTIONARY
  5
24C
102
{ACAD_REACTORS
330
C
102
}
330
C
100
AcDbDictionary
281
     1
  0
DICTIONARY
  5
17
102
{ACAD_REACTORS
330
C
102
}
330
C
100
AcDbDictionary
281
     1
  3
Standard
350
18
  0
DICTIONARY
  5
19
102
{ACAD_REACTORS
330
C
102
}
330
C
100
AcDbDictionary
281
     1
  0
ACDBDICTIONARYWDFLT
  5
E
102
{ACAD_REACTORS
330
C
102
}
330
C
100
AcDbDictionary
281
     1
  3
Normal
350
F
100
AcDbDictionaryWithDefault
340
F
  0
DICTIONARY
  5
2A
102
{ACAD_REACTORS
330
C
102
}
330
C
100
AcDbDictionary
281
     1
  3
2dWireframe
350
2F
  3
3D Hidden
350
31
  3
3dWireframe
350
30
  3
Basic
350
32
  3
Brighten
350
36
  3
ColorChange
350
3A
  3
Conceptual
350
34
  3
Dim
350
35
  3
Facepattern
350
39
  3
Flat
350
2B
  3
FlatWithEdges
350
2C
  3
Gouraud
350
2D
  3
GouraudWithEdges
350
2E
  3
Linepattern
350
38
  3
Realistic
350
33
  3
Thicken
350
37
  0
DICTIONARY
  5
24A
102
{ACAD_REACTORS
330
C
102
}
330
C
100
AcDbDictionary
281
     1
  3
DIMASSOC
350
24D
  3
HIDETEXT
350
24E
  0
LAYOUT
  5
1E
102
{ACAD_REACTORS
330
1A
102
}
330
1A
100
AcDbPlotSettings
  1

  2
none_device
  4

  6

 40
0.0
 41
0.0
 42
0.0
 43
0.0
 44
0.0
 45
0.0
 46
0.0
 47
0.0
 48
0.0
 49
0.0
140
0.0
141
0.0
142
1.0
143
1.0
 70
   688
 72
     0
 73
     0
 74
     5
  7

 75
    16
147
1.0
148
0.0
149
0.0
100
AcDbLayout
  1
Layout1
 70
     1
 71
     1
 10
0.0
 20
0.0
 11
12.0
 21
9.0
 12
0.0
 22
0.0
 32
0.0
 14
1.00000000000000E+20
 24
1.00000000000000E+20
 34
1.00000000000000E+20
 15
-1.00000000000000E+20
 25
-1.00000000000000E+20
 35
-1.00000000000000E+20
146
0.0
 13
0.0
 23
0.0
 33
0.0
 16
1.0
 26
0.0
 36
0.0
 17
0.0
 27
1.0
 37
0.0
 76
     0
330
1B
  0
LAYOUT
  5
26
102
{ACAD_REACTORS
330
1A
102
}
330
1A
100
AcDbPlotSettings
  1

  2
none_device
  4

  6

 40
0.0
 41
0.0
 42
0.0
 43
0.0
 44
0.0
 45
0.0
 46
0.0
 47
0.0
 48
0.0
 49
0.0
140
0.0
141
0.0
142
1.0
143
1.0
 70
   688
 72
     0
 73
     0
 74
     5
  7

 75
    16
147
1.0
148
0.0
149
0.0
100
AcDbLayout
  1
Layout2
 70
     1
 71
     2
 10
0.0
 20
0.0
 11
0.0
 21
0.0
 12
0.0
 22
0.0
 32
0.0
 14
0.0
 24
0.0
 34
0.0
 15
0.0
 25
0.0
 35
0.0
146
0.0
 13
0.0
 23
0.0
 33
0.0
 16
1.0
 26
0.0
 36
0.0
 17
0.0
 27
1.0
 37
0.0
 76
     0
330
23
  0
LAYOUT
  5
22
102
{ACAD_REACTORS
330
1A
102
}
330
1A
100
AcDbPlotSettings
  1

  2
none_device
  4

  6

 40
0.0
 41
0.0
 42
0.0
 43
0.0
 44
0.0
 45
0.0
 46
0.0
 47
0.0
 48
0.0
 49
0.0
140
0.0
141
0.0
142
1.0
143
1.0
 70
  1712
 72
     0
 73
     0
 74
     0
  7

 75
     0
147
1.0
148
0.0
149
0.0
100
AcDbLayout
  1
Model
 70
     1
 71
     0
 10
0.0
 20
0.0
 11
12.0
 21
9.0
 12
0.0
 22
0.0
 32
0.0
 14
0.0
 24
0.0
 34
0.0
 15
315.0
 25
445.5
 35
0.0
146
0.0
 13
0.0
 23
0.0
 33
0.0
 16
1.0
 26
0.0
 36
0.0
 17
0.0
 27
1.0
 37
0.0
 76
     0
330
1F
331
29
  0
MATERIAL
  5
3D
102
{ACAD_REACTORS
330
3B
102
}
102
{ACAD_XDICTIONARY
360
271
102
}
330
3B
100
AcDbMaterial
  1
ByBlock
  0
MATERIAL
  5
3C
102
{ACAD_REACTORS
330
3B
102
}
102
{ACAD_XDICTIONARY
360
26F
102
}
330
3B
100
AcDbMaterial
  1
ByLayer
  0
MATERIAL
  5
3E
102
{ACAD_REACTORS
330
3B
102
}
102
{ACAD_XDICTIONARY
360
273
102
}
330
3B
100
AcDbMaterial
  1
Global
  0
MLINESTYLE
  5
18
102
{ACAD_REACTORS
330
17
102
}
330
17
100
AcDbMlineStyle
  2
Standard
 70
     0
  3

 62
   256
 51
90.0
 52
90.0
 71
     2
 49
0.5
 62
   256
  6
BYLAYER
 49
-0.5
 62
   256
  6
BYLAYER
  0
ACDBPLACEHOLDER
  5
F
102
{ACAD_REACTORS
330
E
102
}
330
E
  0
VISUALSTYLE
  5
2F
102
{ACAD_REACTORS
330
2A
102
}
102
{ACAD_XDICTIONARY
360
257
102
}
330
2A
100
AcDbVisualStyle
  2
2dWireframe
 70
     4
 71
     0
 72
     2
 73
     0
 90
        0
 40
-0.6
 41
-30.0
 62
     5
 63
     7
 74
     1
 91
        4
 64
     7
 65
   257
 75
     1
175
     1
 42
1.0
 92
        0
 66
   257
 43
1.0
 76
     1
 77
     6
 78
     2
 67
     7
 79
     5
170
     0
171
     0
290
     0
174
     0
 93
        1
 44
0.0
173
     0
291
     0
 45
0.0
1001
ACAD
1000
AcDbSavedByObjectVersion
1070
     0
  0
VISUALSTYLE
  5
31
102
{ACAD_REACTORS
330
2A
102
}
102
{ACAD_XDICTIONARY
360
25B
102
}
330
2A
100
AcDbVisualStyle
  2
3D Hidden
 70
     6
 71
     1
 72
     2
 73
     2
 90
        0
 40
-0.6
 41
-30.0
 62
     5
 63
     7
 74
     2
 91
        2
 64
     7
 65
   257
 75
     2
175
     1
 42
40.0
 92
        0
 66
   257
 43
1.0
 76
     1
 77
     6
 78
     2
 67
     7
 79
     3
170
     0
171
     0
290
     0
174
     0
 93
        1
 44
0.0
173
     0
291
     0
 45
0.0
1001
ACAD
1000
AcDbSavedByObjectVersion
1070
     0
  0
VISUALSTYLE
  5
30
102
{ACAD_REACTORS
330
2A
102
}
102
{ACAD_XDICTIONARY
360
259
102
}
330
2A
100
AcDbVisualStyle
  2
3dWireframe
 70
     5
 71
     0
 72
     2
 73
     0
 90
        0
 40
-0.6
 41
-30.0
 62
     5
 63
     7
 74
     1
 91
        4
 64
     7
 65
   257
 75
     1
175
     1
 42
1.0
 92
        0
 66
   257
 43
1.0
 76
     1
 77
     6
 78
     2
 67
     7
 79
     5
170
     0
171
     0
290
     0
174
     0
 93
        1
 44
0.0
173
     0
291
     0
 45
0.0
1001
ACAD
1000
AcDbSavedByObjectVersion
1070
     0
  0
VISUALSTYLE
  5
32
102
{ACAD_REACTORS
330
2A
102
}
102
{ACAD_XDICTIONARY
360
25D
102
}
330
2A
100
AcDbVisualStyle
  2
Basic
 70
     7
 71
     1
 72
     0
 73
     1
 90
        0
 40
-0.6
 41
-30.0
 62
     5
 63
     7
 74
     0
 91
        4
 64
     7
 65
   257
 75
     1
175
     1
 42
1.0
 92
        8
 66
     7
 43
1.0
 76
     1
 77
     6
 78
     2
 67
     7
 79
     5
170
     0
171
     0
290
     0
174
     0
 93
        1
 44
0.0
173
     0
291
     1
 45
0.0
1001
ACAD
1000
AcDbSavedByObjectVersion
1070
     0
  0
VISUALSTYLE
  5
36
102
{ACAD_REACTORS
330
2A
102
}
102
{ACAD_XDICTIONARY
360
265
102
}
330
2A
100
AcDbVisualStyle
  2
Brighten
 70
    12
 71
     2
 72
     2
 73
     0
 90
        0
 40
-0.6
 41
-30.0
 62
     5
 63
     7
 74
     1
 91
        4
 64
     7
 65
   257
 75
     1
175
     1
 42
1.0
 92
        8
 66
     7
 43
1.0
 76
     1
 77
     6
 78
     2
 67
     7
 79
     5
170
     0
171
     0
290
     0
174
     0
 93
        1
 44
50.0
173
     0
291
     1
 45
0.0
1001
ACAD
1000
AcDbSavedByObjectVersion
1070
     0
  0
VISUALSTYLE
  5
3A
102
{ACAD_REACTORS
330
2A
102
}
102
{ACAD_XDICTIONARY
360
26D
102
}
330
2A
100
AcDbVisualStyle
  2
ColorChange
 70
    16
 71
     2
 72
     2
 73
     3
 90
        0
 40
-0.6
 41
-30.0
 62
     5
 63
     8
 74
     1
 91
        4
 64
     7
 65
   257
 75
     1
175
     1
 42
1.0
 92
        8
 66
     8
 43
1.0
 76
     1
 77
     6
 78
     2
 67
     7
 79
     5
170
     0
171
     0
290
     0
174
     0
 93
        1
 44
0.0
173
     0
291
     1
 45
0.0
1001
ACAD
1000
AcDbSavedByObjectVersion
1070
     0
  0
VISUALSTYLE
  5
34
102
{ACAD_REACTORS
330
2A
102
}
102
{ACAD_XDICTIONARY
360
261
102
}
330
2A
100
AcDbVisualStyle
  2
Conceptual
 70
     9
 71
     3
 72
     2
 73
     0
 90
        0
 40
-0.6
 41
-30.0
 62
     5
 63
     7
 74
     2
 91
        2
 64
     7
 65
   257
 75
     1
175
     1
 42
40.0
 92
        8
 66
     7
 43
1.0
 76
     1
 77
     6
 78
     2
 67
     7
 79
     3
170
     0
171
     0
290
     0
174
     0
 93
        1
 44
0.0
173
     0
291
     0
 45
0.0
1001
ACAD
1000
AcDbSavedByObjectVersion
1070
     0
  0
VISUALSTYLE
  5
35
102
{ACAD_REACTORS
330
2A
102
}
102
{ACAD_XDICTIONARY
360
263
102
}
330
2A
100
AcDbVisualStyle
  2
Dim
 70
    11
 71
     2
 72
     2
 73
     0
 90
        0
 40
-0.6
 41
-30.0
 62
     5
 63
     7
 74
     1
 91
        4
 64
     7
 65
   257
 75
     1
175
     1
 42
1.0
 92
        8
 66
     7
 43
1.0
 76
     1
 77
     6
 78
     2
 67
     7
 79
     5
170
     0
171
     0
290
     0
174
     0
 93
        1
 44
-50.0
173
     0
291
     1
 45
0.0
1001
ACAD
1000
AcDbSavedByObjectVersion
1070
     0
  0
VISUALSTYLE
  5
39
102
{ACAD_REACTORS
330
2A
102
}
102
{ACAD_XDICTIONARY
360
26B
102
}
330
2A
100
AcDbVisualStyle
  2
Facepattern
 70
    15
 71
     2
 72
     2
 73
     0
 90
        0
 40
-0.6
 41
-30.0
 62
     5
 63
     7
 74
     1
 91
        4
 64
     7
 65
   257
 75
     1
175
     1
 42
1.0
 92
        8
 66
     7
 43
1.0
 76
     1
 77
     6
 78
     2
 67
     7
 79
     5
170
     0
171
     0
290
     0
174
     0
 93
        1
 44
0.0
173
     0
291
     1
 45
0.0
1001
ACAD
1000
AcDbSavedByObjectVersion
1070
     0
  0
VISUALSTYLE
  5
2B
102
{ACAD_REACTORS
330
2A
102
}
102
{ACAD_XDICTIONARY
360
24F
102
}
330
2A
100
AcDbVisualStyle
  2
Flat
 70
     0
 71
     2
 72
     1
 73
     1
 90
        2
 40
-0.6
 41
30.0
 62
     5
 63
     7
 74
     0
 91
        4
 64
     7
 65
   257
 75
     1
175
     1
 42
1.0
 92
        8
 66
     7
 43
1.0
 76
     1
 77
     6
 78
     2
 67
     7
 79
     5
170
     0
171
     0
290
     0
174
     0
 93
       13
 44
0.0
173
     0
291
     1
 45
0.0
1001
ACAD
1000
AcDbSavedByObjectVersion
1070
     0
  0
VISUALSTYLE
  5
2C
102
{ACAD_REACTORS
330
2A
102
}
102
{ACAD_XDICTIONARY
360
251
102
}
330
2A
100
AcDbVisualStyle
  2
FlatWithEdges
 70
     1
 71
     2
 72
     1
 73
     1
 90
        2
 40
-0.6
 41
30.0
 62
     5
 63
     7
 74
     1
 91
        4
 64
     7
 65
   257
 75
     1
175
     1
 42
1.0
 92
        0
 66
   257
 43
1.0
 76
     1
 77
     6
 78
     2
 67
     7
 79
     5
170
     0
171
     0
290
     0
174
     0
 93
       13
 44
0.0
173
     0
291
     1
 45
0.0
1001
ACAD
1000
AcDbSavedByObjectVersion
1070
     0
  0
VISUALSTYLE
  5
2D
102
{ACAD_REACTORS
330
2A
102
}
102
{ACAD_XDICTIONARY
360
253
102
}
330
2A
100
AcDbVisualStyle
  2
Gouraud
 70
     2
 71
     2
 72
     2
 73
     1
 90
        2
 40
-0.6
 41
30.0
 62
     5
 63
     7
 74
     0
 91
        4
 64
     7
 65
   257
 75
     1
175
     1
 42
1.0
 92
        0
 66
     7
 43
1.0
 76
     1
 77
     6
 78
     2
 67
     7
 79
     5
170
     0
171
     0
290
     0
174
     0
 93
       13
 44
0.0
173
     0
291
     1
 45
0.0
1001
ACAD
1000
AcDbSavedByObjectVersion
1070
     0
  0
VISUALSTYLE
  5
2E
102
{ACAD_REACTORS
330
2A
102
}
102
{ACAD_XDICTIONARY
360
255
102
}
330
2A
100
AcDbVisualStyle
  2
GouraudWithEdges
 70
     3
 71
     2
 72
     2
 73
     1
 90
        2
 40
-0.6
 41
30.0
 62
     5
 63
     7
 74
     1
 91
        4
 64
     7
 65
   257
 75
     1
175
     1
 42
1.0
 92
        0
 66
   257
 43
1.0
 76
     1
 77
     6
 78
     2
 67
     7
 79
     5
170
     0
171
     0
290
     0
174
     0
 93
       13
 44
0.0
173
     0
291
     1
 45
0.0
1001
ACAD
1000
AcDbSavedByObjectVersion
1070
     0
  0
VISUALSTYLE
  5
38
102
{ACAD_REACTORS
330
2A
102
}
102
{ACAD_XDICTIONARY
360
269
102
}
330
2A
100
AcDbVisualStyle
  2
Linepattern
 70
    14
 71
     2
 72
     2
 73
     0
 90
        0
 40
-0.6
 41
-30.0
 62
     5
 63
     7
 74
     1
 91
        4
 64
     7
 65
   257
 75
     7
175
     7
 42
1.0
 92
        8
 66
     7
 43
1.0
 76
     1
 77
     6
 78
     2
 67
     7
 79
     5
170
     0
171
     0
290
     0
174
     0
 93
        1
 44
0.0
173
     0
291
     1
 45
0.0
1001
ACAD
1000
AcDbSavedByObjectVersion
1070
     0
  0
VISUALSTYLE
  5
33
102
{ACAD_REACTORS
330
2A
102
}
102
{ACAD_XDICTIONARY
360
25F
102
}
330
2A
100
AcDbVisualStyle
  2
Realistic
 70
     8
 71
     2
 72
     2
 73
     0
 90
        0
 40
-0.6
 41
-30.0
 62
     5
 63
     7
 74
     1
 91
        0
 64
     7
 65
   257
 75
     1
175
     1
 42
1.0
 92
        8
 66
     8
 43
1.0
 76
     1
 77
     6
 78
     2
 67
     7
 79
     5
170
     0
171
     0
290
     0
174
     0
 93
       13
 44
0.0
173
     0
291
     0
 45
0.0
1001
ACAD
1000
AcDbSavedByObjectVersion
1070
     0
  0
VISUALSTYLE
  5
37
102
{ACAD_REACTORS
330
2A
102
}
102
{ACAD_XDICTIONARY
360
267
102
}
330
2A
100
AcDbVisualStyle
  2
Thicken
 70
    13
 71
     2
 72
     2
 73
     0
 90
        0
 40
-0.6
 41
-30.0
 62
     5
 63
     7
 74
     1
 91
        4
 64
     7
 65
   257
 75
     1
175
     1
 42
1.0
 92
       12
 66
     7
 43
1.0
 76
     1
 77
     6
 78
     2
 67
     7
 79
     5
170
     0
171
     0
290
     0
174
     0
 93
        1
 44
0.0
173
     0
291
     1
 45
0.0
1001
ACAD
1000
AcDbSavedByObjectVersion
1070
     0
  0
DICTIONARYVAR
  5
24D
102
{ACAD_REACTORS
330
24A
102
}
330
24A
100
DictionaryVariables
280
     0
  1
2
  0
DICTIONARYVAR
  5
24E
102
{ACAD_REACTORS
330
24A
102
}
330
24A
100
DictionaryVariables
280
     0
  1
1
  0
DICTIONARY
  5
271
330
3D
100
AcDbDictionary
280
     1
281
     1
  3
ACAD_XREC_ROUNDTRIP
360
272
  0
DICTIONARY
  5
26F
330
3C
100
AcDbDictionary
280
     1
281
     1
  3
ACAD_XREC_ROUNDTRIP
360
270
  0
DICTIONARY
  5
273
330
3E
100
AcDbDictionary
280
     1
281
     1
  3
ACAD_XREC_ROUNDTRIP
360
274
  0
DICTIONARY
  5
257
330
2F
100
AcDbDictionary
280
     1
281
     1
  3
ACAD_XREC_ROUNDTRIP
360
258
  0
DICTIONARY
  5
25B
330
31
100
AcDbDictionary
280
     1
281
     1
  3
ACAD_XREC_ROUNDTRIP
360
25C
  0
DICTIONARY
  5
259
330
30
100
AcDbDictionary
280
     1
281
     1
  3
ACAD_XREC_ROUNDTRIP
360
25A
  0
DICTIONARY
  5
25D
330
32
100
AcDbDictionary
280
     1
281
     1
  3
ACAD_XREC_ROUNDTRIP
360
25E
  0
DICTIONARY
  5
265
330
36
100
AcDbDictionary
280
     1
281
     1
  3
ACAD_XREC_ROUNDTRIP
360
266
  0
DICTIONARY
  5
26D
330
3A
100
AcDbDictionary
280
     1
281
     1
  3
ACAD_XREC_ROUNDTRIP
360
26E
  0
DICTIONARY
  5
261
330
34
100
AcDbDictionary
280
     1
281
     1
  3
ACAD_XREC_ROUNDTRIP
360
262
  0
DICTIONARY
  5
263
330
35
100
AcDbDictionary
280
     1
281
     1
  3
ACAD_XREC_ROUNDTRIP
360
264
  0
DICTIONARY
  5
26B
330
39
100
AcDbDictionary
280
     1
281
     1
  3
ACAD_XREC_ROUNDTRIP
360
26C
  0
DICTIONARY
  5
24F
330
2B
100
AcDbDictionary
280
     1
281
     1
  3
ACAD_XREC_ROUNDTRIP
360
250
  0
DICTIONARY
  5
251
330
2C
100
AcDbDictionary
280
     1
281
     1
  3
ACAD_XREC_ROUNDTRIP
360
252
  0
DICTIONARY
  5
253
330
2D
100
AcDbDictionary
280
     1
281
     1
  3
ACAD_XREC_ROUNDTRIP
360
254
  0
DICTIONARY
  5
255
330
2E
100
AcDbDictionary
280
     1
281
     1
  3
ACAD_XREC_ROUNDTRIP
360
256
  0
DICTIONARY
  5
269
330
38
100
AcDbDictionary
280
     1
281
     1
  3
ACAD_XREC_ROUNDTRIP
360
26A
  0
DICTIONARY
  5
25F
330
33
100
AcDbDictionary
280
     1
281
     1
  3
ACAD_XREC_ROUNDTRIP
360
260
  0
DICTIONARY
  5
267
330
37
100
AcDbDictionary
280
     1
281
     1
  3
ACAD_XREC_ROUNDTRIP
360
268
  0
XRECORD
  5
272
102
{ACAD_REACTORS
330
271
102
}
330
271
100
AcDbXrecord
280
     1
102
MATERIAL
148
0.0
149
0.0
149
0.0
 93
        0
 94
      127
282
     0
 72
     1
 77
     1
171
     1
175
     1
179
     1
273
     0
  0
XRECORD
  5
270
102
{ACAD_REACTORS
330
26F
102
}
330
26F
100
AcDbXrecord
280
     1
102
MATERIAL
148
0.0
149
0.0
149
0.0
 93
        0
 94
      127
282
     0
 72
     1
 77
     1
171
     1
175
     1
179
     1
273
     0
  0
XRECORD
  5
274
102
{ACAD_REACTORS
330
273
102
}
330
273
100
AcDbXrecord
280
     1
102
MATERIAL
148
0.0
149
0.0
149
0.0
 93
        0
 94
      127
282
     0
 72
     1
 77
     1
171
     1
175
     1
179
     1
273
     0
  0
XRECORD
  5
258
102
{ACAD_REACTORS
330
257
102
}
330
257
100
AcDbXrecord
280
     1
102
RTVSPropertyOp0
 70
     1
102
RTVSPropertyOp1
 70
     1
102
RTVSPropertyOp2
 70
     1
102
RTVSPropertyOp3
 70
     1
102
RTVSPropertyOp4
 70
     1
102
RTVSPropertyOp5
 70
     1
102
RTVSPropertyOp6
 70
     1
102
RTVSPropertyOp7
 70
     1
102
RTVSPropertyOp8
 70
     1
102
RTVSPropertyOp9
 70
     1
102
RTVSPropertyOp10
 70
     1
102
RTVSPropertyOp11
 70
     1
102
RTVSPropertyOp12
 70
     1
102
RTVSPropertyOp13
 70
     1
102
RTVSPropertyOp14
 70
     1
102
RTVSPropertyOp15
 70
     1
102
RTVSPropertyOp16
 70
     1
102
RTVSPropertyOp17
 70
     1
102
RTVSPropertyOp18
 70
     1
102
RTVSPropertyOp19
 70
     1
102
RTVSPropertyOp20
 70
     1
102
RTVSPropertyOp21
 70
     1
102
RTVSPropertyOp22
 70
     1
102
RTVSPropertyOp23
 70
     1
102
RTVSPropertyOp24
 70
     1
102
RTVSPropertyOp25
 70
     1
102
RTVSPropertyOp26
 70
     1
102
RTVSPropertyOp27
 70
     1
102
RTVSPropertyOp28
 70
     1
102
RTVSPropertyOp29
 70
     1
102
RTVSPropertyOp30
 70
     1
102
RTVSPropertyOp31
 70
     1
102
RTVSPropertyOp32
 70
     1
  0
XRECORD
  5
25C
102
{ACAD_REACTORS
330
25B
102
}
330
25B
100
AcDbXrecord
280
     1
102
RTVSPropertyOp0
 70
     1
102
RTVSPropertyOp1
 70
     1
102
RTVSPropertyOp2
 70
     1
102
RTVSPropertyOp3
 70
     1
102
RTVSPropertyOp4
 70
     1
102
RTVSPropertyOp5
 70
     1
102
RTVSPropertyOp6
 70
     1
102
RTVSPropertyOp7
 70
     1
102
RTVSPropertyOp8
 70
     1
102
RTVSPropertyOp9
 70
     1
102
RTVSPropertyOp10
 70
     1
102
RTVSPropertyOp11
 70
     1
102
RTVSPropertyOp12
 70
     1
102
RTVSPropertyOp13
 70
     1
102
RTVSPropertyOp14
 70
     1
102
RTVSPropertyOp15
 70
     1
102
RTVSPropertyOp16
 70
     1
102
RTVSPropertyOp17
 70
     1
102
RTVSPropertyOp18
 70
     1
102
RTVSPropertyOp19
 70
     1
102
RTVSPropertyOp20
 70
     1
102
RTVSPropertyOp21
 70
     1
102
RTVSPropertyOp22
 70
     1
102
RTVSPropertyOp23
 70
     1
102
RTVSPropertyOp24
 70
     1
102
RTVSPropertyOp25
 70
     1
102
RTVSPropertyOp26
 70
     1
102
RTVSPropertyOp27
 70
     1
102
RTVSPropertyOp28
 70
     1
102
RTVSPropertyOp29
 70
     1
102
RTVSPropertyOp30
 70
     1
102
RTVSPropertyOp31
 70
     1
102
RTVSPropertyOp32
 70
     1
  0
XRECORD
  5
25A
102
{ACAD_REACTORS
330
259
102
}
330
259
100
AcDbXrecord
280
     1
102
RTVSPropertyOp0
 70
     1
102
RTVSPropertyOp1
 70
     1
102
RTVSPropertyOp2
 70
     1
102
RTVSPropertyOp3
 70
     1
102
RTVSPropertyOp4
 70
     1
102
RTVSPropertyOp5
 70
     1
102
RTVSPropertyOp6
 70
     1
102
RTVSPropertyOp7
 70
     1
102
RTVSPropertyOp8
 70
     1
102
RTVSPropertyOp9
 70
     1
102
RTVSPropertyOp10
 70
     1
102
RTVSPropertyOp11
 70
     1
102
RTVSPropertyOp12
 70
     1
102
RTVSPropertyOp13
 70
     1
102
RTVSPropertyOp14
 70
     1
102
RTVSPropertyOp15
 70
     1
102
RTVSPropertyOp16
 70
     1
102
RTVSPropertyOp17
 70
     1
102
RTVSPropertyOp18
 70
     1
102
RTVSPropertyOp19
 70
     1
102
RTVSPropertyOp20
 70
     1
102
RTVSPropertyOp21
 70
     1
102
RTVSPropertyOp22
 70
     1
102
RTVSPropertyOp23
 70
     1
102
RTVSPropertyOp24
 70
     1
102
RTVSPropertyOp25
 70
     1
102
RTVSPropertyOp26
 70
     1
102
RTVSPropertyOp27
 70
     1
102
RTVSPropertyOp28
 70
     1
102
RTVSPropertyOp29
 70
     1
102
RTVSPropertyOp30
 70
     1
102
RTVSPropertyOp31
 70
     1
102
RTVSPropertyOp32
 70
     1
  0
XRECORD
  5
25E
102
{ACAD_REACTORS
330
25D
102
}
330
25D
100
AcDbXrecord
280
     1
102
RTVSPropertyOp0
 70
     1
102
RTVSPropertyOp1
 70
     1
102
RTVSPropertyOp2
 70
     1
102
RTVSPropertyOp3
 70
     1
102
RTVSPropertyOp4
 70
     1
102
RTVSPropertyOp5
 70
     1
102
RTVSPropertyOp6
 70
     1
102
RTVSPropertyOp7
 70
     1
102
RTVSPropertyOp8
 70
     1
102
RTVSPropertyOp9
 70
     1
102
RTVSPropertyOp10
 70
     1
102
RTVSPropertyOp11
 70
     1
102
RTVSPropertyOp12
 70
     1
102
RTVSPropertyOp13
 70
     1
102
RTVSPropertyOp14
 70
     1
102
RTVSPropertyOp15
 70
     1
102
RTVSPropertyOp16
 70
     1
102
RTVSPropertyOp17
 70
     1
102
RTVSPropertyOp18
 70
     1
102
RTVSPropertyOp19
 70
     1
102
RTVSPropertyOp20
 70
     1
102
RTVSPropertyOp21
 70
     1
102
RTVSPropertyOp22
 70
     1
102
RTVSPropertyOp23
 70
     1
102
RTVSPropertyOp24
 70
     1
102
RTVSPropertyOp25
 70
     1
102
RTVSPropertyOp26
 70
     1
102
RTVSPropertyOp27
 70
     1
102
RTVSPropertyOp28
 70
     1
102
RTVSPropertyOp29
 70
     1
102
RTVSPropertyOp30
 70
     1
102
RTVSPropertyOp31
 70
     1
102
RTVSPropertyOp32
 70
     1
  0
XRECORD
  5
266
102
{ACAD_REACTORS
330
265
102
}
330
265
100
AcDbXrecord
280
     1
102
RTVSPropertyOp0
 70
     1
102
RTVSPropertyOp1
 70
     1
102
RTVSPropertyOp2
 70
     1
102
RTVSPropertyOp3
 70
     1
102
RTVSPropertyOp4
 70
     1
102
RTVSPropertyOp5
 70
     1
102
RTVSPropertyOp6
 70
     1
102
RTVSPropertyOp7
 70
     1
102
RTVSPropertyOp8
 70
     1
102
RTVSPropertyOp9
 70
     1
102
RTVSPropertyOp10
 70
     1
102
RTVSPropertyOp11
 70
     1
102
RTVSPropertyOp12
 70
     1
102
RTVSPropertyOp13
 70
     1
102
RTVSPropertyOp14
 70
     1
102
RTVSPropertyOp15
 70
     1
102
RTVSPropertyOp16
 70
     1
102
RTVSPropertyOp17
 70
     1
102
RTVSPropertyOp18
 70
     1
102
RTVSPropertyOp19
 70
     1
102
RTVSPropertyOp20
 70
     1
102
RTVSPropertyOp21
 70
     1
102
RTVSPropertyOp22
 70
     1
102
RTVSPropertyOp23
 70
     1
102
RTVSPropertyOp24
 70
     1
102
RTVSPropertyOp25
 70
     1
102
RTVSPropertyOp26
 70
     1
102
RTVSPropertyOp27
 70
     1
102
RTVSPropertyOp28
 70
     1
102
RTVSPropertyOp29
 70
     1
102
RTVSPropertyOp30
 70
     1
102
RTVSPropertyOp31
 70
     1
102
RTVSPropertyOp32
 70
     1
  0
XRECORD
  5
26E
102
{ACAD_REACTORS
330
26D
102
}
330
26D
100
AcDbXrecord
280
     1
102
RTVSPropertyOp0
 70
     1
102
RTVSPropertyOp1
 70
     1
102
RTVSPropertyOp2
 70
     1
102
RTVSPropertyOp3
 70
     1
102
RTVSPropertyOp4
 70
     1
102
RTVSPropertyOp5
 70
     1
102
RTVSPropertyOp6
 70
     1
102
RTVSPropertyOp7
 70
     1
102
RTVSPropertyOp8
 70
     1
102
RTVSPropertyOp9
 70
     1
102
RTVSPropertyOp10
 70
     1
102
RTVSPropertyOp11
 70
     1
102
RTVSPropertyOp12
 70
     1
102
RTVSPropertyOp13
 70
     1
102
RTVSPropertyOp14
 70
     1
102
RTVSPropertyOp15
 70
     1
102
RTVSPropertyOp16
 70
     1
102
RTVSPropertyOp17
 70
     1
102
RTVSPropertyOp18
 70
     1
102
RTVSPropertyOp19
 70
     1
102
RTVSPropertyOp20
 70
     1
102
RTVSPropertyOp21
 70
     1
102
RTVSPropertyOp22
 70
     1
102
RTVSPropertyOp23
 70
     1
102
RTVSPropertyOp24
 70
     1
102
RTVSPropertyOp25
 70
     1
102
RTVSPropertyOp26
 70
     1
102
RTVSPropertyOp27
 70
     1
102
RTVSPropertyOp28
 70
     1
102
RTVSPropertyOp29
 70
     1
102
RTVSPropertyOp30
 70
     1
102
RTVSPropertyOp31
 70
     1
102
RTVSPropertyOp32
 70
     1
  0
XRECORD
  5
262
102
{ACAD_REACTORS
330
261
102
}
330
261
100
AcDbXrecord
280
     1
102
RTVSPropertyOp0
 70
     1
102
RTVSPropertyOp1
 70
     1
102
RTVSPropertyOp2
 70
     1
102
RTVSPropertyOp3
 70
     1
102
RTVSPropertyOp4
 70
     1
102
RTVSPropertyOp5
 70
     1
102
RTVSPropertyOp6
 70
     1
102
RTVSPropertyOp7
 70
     1
102
RTVSPropertyOp8
 70
     1
102
RTVSPropertyOp9
 70
     1
102
RTVSPropertyOp10
 70
     1
102
RTVSPropertyOp11
 70
     1
102
RTVSPropertyOp12
 70
     1
102
RTVSPropertyOp13
 70
     1
102
RTVSPropertyOp14
 70
     1
102
RTVSPropertyOp15
 70
     1
102
RTVSPropertyOp16
 70
     1
102
RTVSPropertyOp17
 70
     1
102
RTVSPropertyOp18
 70
     1
102
RTVSPropertyOp19
 70
     1
102
RTVSPropertyOp20
 70
     1
102
RTVSPropertyOp21
 70
     1
102
RTVSPropertyOp22
 70
     1
102
RTVSPropertyOp23
 70
     1
102
RTVSPropertyOp24
 70
     1
102
RTVSPropertyOp25
 70
     1
102
RTVSPropertyOp26
 70
     1
102
RTVSPropertyOp27
 70
     1
102
RTVSPropertyOp28
 70
     1
102
RTVSPropertyOp29
 70
     1
102
RTVSPropertyOp30
 70
     1
102
RTVSPropertyOp31
 70
     1
102
RTVSPropertyOp32
 70
     1
  0
XRECORD
  5
264
102
{ACAD_REACTORS
330
263
102
}
330
263
100
AcDbXrecord
280
     1
102
RTVSPropertyOp0
 70
     1
102
RTVSPropertyOp1
 70
     1
102
RTVSPropertyOp2
 70
     1
102
RTVSPropertyOp3
 70
     1
102
RTVSPropertyOp4
 70
     1
102
RTVSPropertyOp5
 70
     1
102
RTVSPropertyOp6
 70
     1
102
RTVSPropertyOp7
 70
     1
102
RTVSPropertyOp8
 70
     1
102
RTVSPropertyOp9
 70
     1
102
RTVSPropertyOp10
 70
     1
102
RTVSPropertyOp11
 70
     1
102
RTVSPropertyOp12
 70
     1
102
RTVSPropertyOp13
 70
     1
102
RTVSPropertyOp14
 70
     1
102
RTVSPropertyOp15
 70
     1
102
RTVSPropertyOp16
 70
     1
102
RTVSPropertyOp17
 70
     1
102
RTVSPropertyOp18
 70
     1
102
RTVSPropertyOp19
 70
     1
102
RTVSPropertyOp20
 70
     1
102
RTVSPropertyOp21
 70
     1
102
RTVSPropertyOp22
 70
     1
102
RTVSPropertyOp23
 70
     1
102
RTVSPropertyOp24
 70
     1
102
RTVSPropertyOp25
 70
     1
102
RTVSPropertyOp26
 70
     1
102
RTVSPropertyOp27
 70
     1
102
RTVSPropertyOp28
 70
     1
102
RTVSPropertyOp29
 70
     1
102
RTVSPropertyOp30
 70
     1
102
RTVSPropertyOp31
 70
     1
102
RTVSPropertyOp32
 70
     1
  0
XRECORD
  5
26C
102
{ACAD_REACTORS
330
26B
102
}
330
26B
100
AcDbXrecord
280
     1
102
RTVSPropertyOp0
 70
     1
102
RTVSPropertyOp1
 70
     1
102
RTVSPropertyOp2
 70
     1
102
RTVSPropertyOp3
 70
     1
102
RTVSPropertyOp4
 70
     1
102
RTVSPropertyOp5
 70
     1
102
RTVSPropertyOp6
 70
     1
102
RTVSPropertyOp7
 70
     1
102
RTVSPropertyOp8
 70
     1
102
RTVSPropertyOp9
 70
     1
102
RTVSPropertyOp10
 70
     1
102
RTVSPropertyOp11
 70
     1
102
RTVSPropertyOp12
 70
     1
102
RTVSPropertyOp13
 70
     1
102
RTVSPropertyOp14
 70
     1
102
RTVSPropertyOp15
 70
     1
102
RTVSPropertyOp16
 70
     1
102
RTVSPropertyOp17
 70
     1
102
RTVSPropertyOp18
 70
     1
102
RTVSPropertyOp19
 70
     1
102
RTVSPropertyOp20
 70
     1
102
RTVSPropertyOp21
 70
     1
102
RTVSPropertyOp22
 70
     1
102
RTVSPropertyOp23
 70
     1
102
RTVSPropertyOp24
 70
     1
102
RTVSPropertyOp25
 70
     1
102
RTVSPropertyOp26
 70
     1
102
RTVSPropertyOp27
 70
     1
102
RTVSPropertyOp28
 70
     1
102
RTVSPropertyOp29
 70
     1
102
RTVSPropertyOp30
 70
     1
102
RTVSPropertyOp31
 70
     1
102
RTVSPropertyOp32
 70
     1
  0
XRECORD
  5
250
102
{ACAD_REACTORS
330
24F
102
}
330
24F
100
AcDbXrecord
280
     1
102
RTVSPropertyOp0
 70
     1
102
RTVSPropertyOp1
 70
     1
102
RTVSPropertyOp2
 70
     1
102
RTVSPropertyOp3
 70
     1
102
RTVSPropertyOp4
 70
     1
102
RTVSPropertyOp5
 70
     1
102
RTVSPropertyOp6
 70
     1
102
RTVSPropertyOp7
 70
     1
102
RTVSPropertyOp8
 70
     1
102
RTVSPropertyOp9
 70
     1
102
RTVSPropertyOp10
 70
     1
102
RTVSPropertyOp11
 70
     1
102
RTVSPropertyOp12
 70
     1
102
RTVSPropertyOp13
 70
     1
102
RTVSPropertyOp14
 70
     1
102
RTVSPropertyOp15
 70
     1
102
RTVSPropertyOp16
 70
     1
102
RTVSPropertyOp17
 70
     1
102
RTVSPropertyOp18
 70
     1
102
RTVSPropertyOp19
 70
     1
102
RTVSPropertyOp20
 70
     1
102
RTVSPropertyOp21
 70
     1
102
RTVSPropertyOp22
 70
     1
102
RTVSPropertyOp23
 70
     1
102
RTVSPropertyOp24
 70
     1
102
RTVSPropertyOp25
 70
     1
102
RTVSPropertyOp26
 70
     1
102
RTVSPropertyOp27
 70
     1
102
RTVSPropertyOp28
 70
     1
102
RTVSPropertyOp29
 70
     1
102
RTVSPropertyOp30
 70
     1
102
RTVSPropertyOp31
 70
     1
102
RTVSPropertyOp32
 70
     1
  0
XRECORD
  5
252
102
{ACAD_REACTORS
330
251
102
}
330
251
100
AcDbXrecord
280
     1
102
RTVSPropertyOp0
 70
     1
102
RTVSPropertyOp1
 70
     1
102
RTVSPropertyOp2
 70
     1
102
RTVSPropertyOp3
 70
     1
102
RTVSPropertyOp4
 70
     1
102
RTVSPropertyOp5
 70
     1
102
RTVSPropertyOp6
 70
     1
102
RTVSPropertyOp7
 70
     1
102
RTVSPropertyOp8
 70
     1
102
RTVSPropertyOp9
 70
     1
102
RTVSPropertyOp10
 70
     1
102
RTVSPropertyOp11
 70
     1
102
RTVSPropertyOp12
 70
     1
102
RTVSPropertyOp13
 70
     1
102
RTVSPropertyOp14
 70
     1
102
RTVSPropertyOp15
 70
     1
102
RTVSPropertyOp16
 70
     1
102
RTVSPropertyOp17
 70
     1
102
RTVSPropertyOp18
 70
     1
102
RTVSPropertyOp19
 70
     1
102
RTVSPropertyOp20
 70
     1
102
RTVSPropertyOp21
 70
     1
102
RTVSPropertyOp22
 70
     1
102
RTVSPropertyOp23
 70
     1
102
RTVSPropertyOp24
 70
     1
102
RTVSPropertyOp25
 70
     1
102
RTVSPropertyOp26
 70
     1
102
RTVSPropertyOp27
 70
     1
102
RTVSPropertyOp28
 70
     1
102
RTVSPropertyOp29
 70
     1
102
RTVSPropertyOp30
 70
     1
102
RTVSPropertyOp31
 70
     1
102
RTVSPropertyOp32
 70
     1
  0
XRECORD
  5
254
102
{ACAD_REACTORS
330
253
102
}
330
253
100
AcDbXrecord
280
     1
102
RTVSPropertyOp0
 70
     1
102
RTVSPropertyOp1
 70
     1
102
RTVSPropertyOp2
 70
     1
102
RTVSPropertyOp3
 70
     1
102
RTVSPropertyOp4
 70
     1
102
RTVSPropertyOp5
 70
     1
102
RTVSPropertyOp6
 70
     1
102
RTVSPropertyOp7
 70
     1
102
RTVSPropertyOp8
 70
     1
102
RTVSPropertyOp9
 70
     1
102
RTVSPropertyOp10
 70
     1
102
RTVSPropertyOp11
 70
     1
102
RTVSPropertyOp12
 70
     1
102
RTVSPropertyOp13
 70
     1
102
RTVSPropertyOp14
 70
     1
102
RTVSPropertyOp15
 70
     1
102
RTVSPropertyOp16
 70
     1
102
RTVSPropertyOp17
 70
     1
102
RTVSPropertyOp18
 70
     1
102
RTVSPropertyOp19
 70
     1
102
RTVSPropertyOp20
 70
     1
102
RTVSPropertyOp21
 70
     1
102
RTVSPropertyOp22
 70
     1
102
RTVSPropertyOp23
 70
     1
102
RTVSPropertyOp24
 70
     1
102
RTVSPropertyOp25
 70
     1
102
RTVSPropertyOp26
 70
     1
102
RTVSPropertyOp27
 70
     1
102
RTVSPropertyOp28
 70
     1
102
RTVSPropertyOp29
 70
     1
102
RTVSPropertyOp30
 70
     1
102
RTVSPropertyOp31
 70
     1
102
RTVSPropertyOp32
 70
     1
  0
XRECORD
  5
256
102
{ACAD_REACTORS
330
255
102
}
330
255
100
AcDbXrecord
280
     1
102
RTVSPropertyOp0
 70
     1
102
RTVSPropertyOp1
 70
     1
102
RTVSPropertyOp2
 70
     1
102
RTVSPropertyOp3
 70
     1
102
RTVSPropertyOp4
 70
     1
102
RTVSPropertyOp5
 70
     1
102
RTVSPropertyOp6
 70
     1
102
RTVSPropertyOp7
 70
     1
102
RTVSPropertyOp8
 70
     1
102
RTVSPropertyOp9
 70
     1
102
RTVSPropertyOp10
 70
     1
102
RTVSPropertyOp11
 70
     1
102
RTVSPropertyOp12
 70
     1
102
RTVSPropertyOp13
 70
     1
102
RTVSPropertyOp14
 70
     1
102
RTVSPropertyOp15
 70
     1
102
RTVSPropertyOp16
 70
     1
102
RTVSPropertyOp17
 70
     1
102
RTVSPropertyOp18
 70
     1
102
RTVSPropertyOp19
 70
     1
102
RTVSPropertyOp20
 70
     1
102
RTVSPropertyOp21
 70
     1
102
RTVSPropertyOp22
 70
     1
102
RTVSPropertyOp23
 70
     1
102
RTVSPropertyOp24
 70
     1
102
RTVSPropertyOp25
 70
     1
102
RTVSPropertyOp26
 70
     1
102
RTVSPropertyOp27
 70
     1
102
RTVSPropertyOp28
 70
     1
102
RTVSPropertyOp29
 70
     1
102
RTVSPropertyOp30
 70
     1
102
RTVSPropertyOp31
 70
     1
102
RTVSPropertyOp32
 70
     1
  0
XRECORD
  5
26A
102
{ACAD_REACTORS
330
269
102
}
330
269
100
AcDbXrecord
280
     1
102
RTVSPropertyOp0
 70
     1
102
RTVSPropertyOp1
 70
     1
102
RTVSPropertyOp2
 70
     1
102
RTVSPropertyOp3
 70
     1
102
RTVSPropertyOp4
 70
     1
102
RTVSPropertyOp5
 70
     1
102
RTVSPropertyOp6
 70
     1
102
RTVSPropertyOp7
 70
     1
102
RTVSPropertyOp8
 70
     1
102
RTVSPropertyOp9
 70
     1
102
RTVSPropertyOp10
 70
     1
102
RTVSPropertyOp11
 70
     1
102
RTVSPropertyOp12
 70
     1
102
RTVSPropertyOp13
 70
     1
102
RTVSPropertyOp14
 70
     1
102
RTVSPropertyOp15
 70
     1
102
RTVSPropertyOp16
 70
     1
102
RTVSPropertyOp17
 70
     1
102
RTVSPropertyOp18
 70
     1
102
RTVSPropertyOp19
 70
     1
102
RTVSPropertyOp20
 70
     1
102
RTVSPropertyOp21
 70
     1
102
RTVSPropertyOp22
 70
     1
102
RTVSPropertyOp23
 70
     1
102
RTVSPropertyOp24
 70
     1
102
RTVSPropertyOp25
 70
     1
102
RTVSPropertyOp26
 70
     1
102
RTVSPropertyOp27
 70
     1
102
RTVSPropertyOp28
 70
     1
102
RTVSPropertyOp29
 70
     1
102
RTVSPropertyOp30
 70
     1
102
RTVSPropertyOp31
 70
     1
102
RTVSPropertyOp32
 70
     1
  0
XRECORD
  5
260
102
{ACAD_REACTORS
330
25F
102
}
330
25F
100
AcDbXrecord
280
     1
102
RTVSPropertyOp0
 70
     1
102
RTVSPropertyOp1
 70
     1
102
RTVSPropertyOp2
 70
     1
102
RTVSPropertyOp3
 70
     1
102
RTVSPropertyOp4
 70
     1
102
RTVSPropertyOp5
 70
     1
102
RTVSPropertyOp6
 70
     1
102
RTVSPropertyOp7
 70
     1
102
RTVSPropertyOp8
 70
     1
102
RTVSPropertyOp9
 70
     1
102
RTVSPropertyOp10
 70
     1
102
RTVSPropertyOp11
 70
     1
102
RTVSPropertyOp12
 70
     1
102
RTVSPropertyOp13
 70
     1
102
RTVSPropertyOp14
 70
     1
102
RTVSPropertyOp15
 70
     1
102
RTVSPropertyOp16
 70
     1
102
RTVSPropertyOp17
 70
     1
102
RTVSPropertyOp18
 70
     1
102
RTVSPropertyOp19
 70
     1
102
RTVSPropertyOp20
 70
     1
102
RTVSPropertyOp21
 70
     1
102
RTVSPropertyOp22
 70
     1
102
RTVSPropertyOp23
 70
     1
102
RTVSPropertyOp24
 70
     1
102
RTVSPropertyOp25
 70
     1
102
RTVSPropertyOp26
 70
     1
102
RTVSPropertyOp27
 70
     1
102
RTVSPropertyOp28
 70
     1
102
RTVSPropertyOp29
 70
     1
102
RTVSPropertyOp30
 70
     1
102
RTVSPropertyOp31
 70
     1
102
RTVSPropertyOp32
 70
     1
  0
XRECORD
  5
268
102
{ACAD_REACTORS
330
267
102
}
330
267
100
AcDbXrecord
280
     1
102
RTVSPropertyOp0
 70
     1
102
RTVSPropertyOp1
 70
     1
102
RTVSPropertyOp2
 70
     1
102
RTVSPropertyOp3
 70
     1
102
RTVSPropertyOp4
 70
     1
102
RTVSPropertyOp5
 70
     1
102
RTVSPropertyOp6
 70
     1
102
RTVSPropertyOp7
 70
     1
102
RTVSPropertyOp8
 70
     1
102
RTVSPropertyOp9
 70
     1
102
RTVSPropertyOp10
 70
     1
102
RTVSPropertyOp11
 70
     1
102
RTVSPropertyOp12
 70
     1
102
RTVSPropertyOp13
 70
     1
102
RTVSPropertyOp14
 70
     1
102
RTVSPropertyOp15
 70
     1
102
RTVSPropertyOp16
 70
     1
102
RTVSPropertyOp17
 70
     1
102
RTVSPropertyOp18
 70
     1
102
RTVSPropertyOp19
 70
     1
102
RTVSPropertyOp20
 70
     1
102
RTVSPropertyOp21
 70
     1
102
RTVSPropertyOp22
 70
     1
102
RTVSPropertyOp23
 70
     1
102
RTVSPropertyOp24
 70
     1
102
RTVSPropertyOp25
 70
     1
102
RTVSPropertyOp26
 70
     1
102
RTVSPropertyOp27
 70
     1
102
RTVSPropertyOp28
 70
     1
102
RTVSPropertyOp29
 70
     1
102
RTVSPropertyOp30
 70
     1
102
RTVSPropertyOp31
 70
     1
102
RTVSPropertyOp32
 70
     1
  0
ENDSEC
  0
EOF
