  0
SECTION
  2
HEADER
  9
$ACADVER
  1
AC1015
  9
$ACADMAINTVER
 70
     6
  9
$DWGCODEPAGE
  3
ANSI_932
  9
$INSBASE
 10
0.0
 20
0.0
 30
0.0
  9
$EXTMIN
 10
0.0
 20
0.0
 30
0.0
  9
$EXTMAX
 10
315.0
 20
445.5
 30
0.0
  9
$LIMMIN
 10
0.0
 20
0.0
  9
$LIMMAX
 10
12.0
 20
9.0
  9
$ORTHOMODE
 70
     0
  9
$REGENMODE
 70
     1
  9
$FILLMODE
 70
     1
  9
$QTEXTMODE
 70
     0
  9
$MIRRTEXT
 70
     1
  9
$LTSCALE
 40
1.0
  9
$ATTMODE
 70
     1
  9
$TEXTSIZE
 40
0.2
  9
$TRACEWID
 40
0.05
  9
$TEXTSTYLE
  7
Standard
  9
$CLAYER
  8
0
  9
$CELTYPE
  6
ByLayer
  9
$CECOLOR
 62
   256
  9
$CELTSCALE
 40
1.0
  9
$DISPSILH
 70
     0
  9
$DIMSCALE
 40
1.0
  9
$DIMASZ
 40
0.18
  9
$DIMEXO
 40
0.0625
  9
$DIMDLI
 40
0.38
  9
$DIMRND
 40
0.0
  9
$DIMDLE
 40
0.0
  9
$DIMEXE
 40
0.18
  9
$DIMTP
 40
0.0
  9
$DIMTM
 40
0.0
  9
$DIMTXT
 40
0.18
  9
$DIMCEN
 40
0.09
  9
$DIMTSZ
 40
0.0
  9
$DIMTOL
 70
     0
  9
$DIMLIM
 70
     0
  9
$DIMTIH
 70
     1
  9
$DIMTOH
 70
     1
  9
$DIMSE1
 70
     0
  9
$DIMSE2
 70
     0
  9
$DIMTAD
 70
     0
  9
$DIMZIN
 70
     0
  9
$DIMBLK
  1

  9
$DIMASO
 70
     1
  9
$DIMSHO
 70
     1
  9
$DIMPOST
  1

  9
$DIMAPOST
  1

  9
$DIMALT
 70
     0
  9
$DIMALTD
 70
     2
  9
$DIMALTF
 40
25.4
  9
$DIMLFAC
 40
1.0
  9
$DIMTOFL
 70
     0
  9
$DIMTVP
 40
0.0
  9
$DIMTIX
 70
     0
  9
$DIMSOXD
 70
     0
  9
$DIMSAH
 70
     0
  9
$DIMBLK1
  1

  9
$DIMBLK2
  1

  9
$DIMSTYLE
  2
Standard
  9
$DIMCLRD
 70
     0
  9
$DIMCLRE
 70
     0
  9
$DIMCLRT
 70
     0
  9
$DIMTFAC
 40
1.0
  9
$DIMGAP
 40
0.09
  9
$DIMJUST
 70
     0
  9
$DIMSD1
 70
     0
  9
$DIMSD2
 70
     0
  9
$DIMTOLJ
 70
     1
  9
$DIMTZIN
 70
     0
  9
$DIMALTZ
 70
     0
  9
$DIMALTTZ
 70
     0
  9
$DIMUPT
 70
     0
  9
$DIMDEC
 70
     4
  9
$DIMTDEC
 70
     4
  9
$DIMALTU
 70
     2
  9
$DIMALTTD
 70
     2
  9
$DIMTXSTY
  7
Standard
  9
$DIMAUNIT
 70
     0
  9
$DIMADEC
 70
     0
  9
$DIMALTRND
 40
0.0
  9
$DIMAZIN
 70
     0
  9
$DIMDSEP
 70
    46
  9
$DIMATFIT
 70
     3
  9
$DIMFRAC
 70
     0
  9
$DIMLDRBLK
  1

  9
$DIMLUNIT
 70
     2
  9
$DIMLWD
 70
    -2
  9
$DIMLWE
 70
    -2
  9
$DIMTMOVE
 70
     0
  9
$LUNITS
 70
     2
  9
$LUPREC
 70
     4
  9
$SKETCHINC
 40
0.1
  9
$FILLETRAD
 40
0.5
  9
$AUNITS
 70
     0
  9
$AUPREC
 70
     0
  9
$MENU
  1
.
  9
$ELEVATION
 40
0.0
  9
$PELEVATION
 40
0.0
  9
$THICKNESS
 40
0.0
  9
$LIMCHECK
 70
     0
  9
$CHAMFERA
 40
0.5
  9
$CHAMFERB
 40
0.5
  9
$CHAMFERC
 40
1.0
  9
$CHAMFERD
 40
0.0
  9
$SKPOLY
 70
     0
  9
$TDCREATE
 40
2459313.687695093
  9
$TDUCREATE
 40
2459313.312695093
  9
$TDUPDATE
 40
2459313.687697616
  9
$TDUUPDATE
 40
2459313.312697616
  9
$TDINDWG
 40
0.0000000116
  9
$TDUSRTIMER
 40
0.0000000116
  9
$USRTIMER
 70
     1
  9
$ANGBASE
 50
0.0
  9
$ANGDIR
 70
     0
  9
$PDMODE
 70
     0
  9
$PDSIZE
 40
0.0
  9
$PLINEWID
 40
0.0
  9
$SPLFRAME
 70
     0
  9
$SPLINETYPE
 70
     6
  9
$SPLINESEGS
 70
     8
  9
$HANDSEED
  5
2B7
  9
$SURFTAB1
 70
     6
  9
$SURFTAB2
 70
     6
  9
$SURFTYPE
 70
     6
  9
$SURFU
 70
     6
  9
$SURFV
 70
     6
  9
$UCSBASE
  2

  9
$UCSNAME
  2

  9
$UCSORG
 10
0.0
 20
0.0
 30
0.0
  9
$UCSXDIR
 10
1.0
 20
0.0
 30
0.0
  9
$UCSYDIR
 10
0.0
 20
1.0
 30
0.0
  9
$UCSORTHOREF
  2

  9
$UCSORTHOVIEW
 70
     0
  9
$UCSORGTOP
 10
0.0
 20
0.0
 30
0.0
  9
$UCSORGBOTTOM
 10
0.0
 20
0.0
 30
0.0
  9
$UCSORGLEFT
 10
0.0
 20
0.0
 30
0.0
  9
$UCSORGRIGHT
 10
0.0
 20
0.0
 30
0.0
  9
$UCSORGFRONT
 10
0.0
 20
0.0
 30
0.0
  9
$UCSORGBACK
 10
0.0
 20
0.0
 30
0.0
  9
$PUCSBASE
  2

  9
$PUCSNAME
  2

  9
$PUCSORG
 10
0.0
 20
0.0
 30
0.0
  9
$PUCSXDIR
 10
1.0
 20
0.0
 30
0.0
  9
$PUCSYDIR
 10
0.0
 20
1.0
 30
0.0
  9
$PUCSORTHOREF
  2

  9
$PUCSORTHOVIEW
 70
     0
  9
$PUCSORGTOP
 10
0.0
 20
0.0
 30
0.0
  9
$PUCSORGBOTTOM
 10
0.0
 20
0.0
 30
0.0
  9
$PUCSORGLEFT
 10
0.0
 20
0.0
 30
0.0
  9
$PUCSORGRIGHT
 10
0.0
 20
0.0
 30
0.0
  9
$PUCSORGFRONT
 10
0.0
 20
0.0
 30
0.0
  9
$PUCSORGBACK
 10
0.0
 20
0.0
 30
0.0
  9
$USERI1
 70
     0
  9
$USERI2
 70
     0
  9
$USERI3
 70
     0
  9
$USERI4
 70
     0
  9
$USERI5
 70
     0
  9
$USERR1
 40
18.1
  9
$USERR2
 40
0.0
  9
$USERR3
 40
0.0
  9
$USERR4
 40
0.0
  9
$USERR5
 40
0.0
  9
$WORLDVIEW
 70
     1
  9
$SHADEDGE
 70
     3
  9
$SHADEDIF
 70
    70
  9
$TILEMODE
 70
     1
  9
$MAXACTVP
 70
    64
  9
$PINSBASE
 10
0.0
 20
0.0
 30
0.0
  9
$PLIMCHECK
 70
     0
  9
$PEXTMIN
 10
1.00000000000000E+20
 20
1.00000000000000E+20
 30
1.00000000000000E+20
  9
$PEXTMAX
 10
-1.00000000000000E+20
 20
-1.00000000000000E+20
 30
-1.00000000000000E+20
  9
$PLIMMIN
 10
0.0
 20
0.0
  9
$PLIMMAX
 10
12.0
 20
9.0
  9
$UNITMODE
 70
     0
  9
$VISRETAIN
 70
     1
  9
$PLINEGEN
 70
     0
  9
$PSLTSCALE
 70
     1
  9
$TREEDEPTH
 70
  3020
  9
$CMLSTYLE
  2
Standard
  9
$CMLJUST
 70
     0
  9
$CMLSCALE
 40
1.0
  9
$PROXYGRAPHICS
 70
     1
  9
$MEASUREMENT
 70
     1
  9
$CELWEIGHT
370
    -1
  9
$ENDCAPS
280
     0
  9
$JOINSTYLE
280
     0
  9
$LWDISPLAY
290
     0
  9
$INSUNITS
 70
     4
  9
$HYPERLINKBASE
  1

  9
$STYLESHEET
  1

  9
$XEDIT
290
     1
  9
$CEPSNTYPE
380
     0
  9
$PSTYLEMODE
290
     1
  9
$FINGERPRINTGUID
  2
{3A00831C-839B-4FE7-8E98-1EB45A1C11F0}
  9
$VERSIONGUID
  2
{FAEB1C32-E019-11D5-929B-00C0DF256EC4}
  9
$EXTNAMES
290
     1
  9
$PSVPSCALE
 40
0.0
  9
$OLESTARTUP
290
     0
  0
ENDSEC
  0
SECTION
  2
CLASSES
  0
CLASS
  1
ACDBDICTIONARYWDFLT
  2
AcDbDictionaryWithDefault
  3
ObjectDBX Classes
 90
        0
280
     0
281
     0
  0
CLASS
  1
VISUALSTYLE
  2
AcDbVisualStyle
  3
ObjectDBX Classes
 90
     4095
280
     0
281
     0
  0
CLASS
  1
MATERIAL
  2
AcDbMaterial
  3
ObjectDBX Classes
 90
     1153
280
     0
281
     0
  0
CLASS
  1
DICTIONARYVAR
  2
AcDbDictionaryVar
  3
ObjectDBX Classes
 90
        0
280
     0
281
     0
  0
CLASS
  1
ACDBPLACEHOLDER
  2
AcDbPlaceHolder
  3
ObjectDBX Classes
 90
        0
280
     0
281
     0
  0
CLASS
  1
LAYOUT
  2
AcDbLayout
  3
ObjectDBX Classes
 90
        0
280
     0
281
     0
  0
ENDSEC
  0
SECTION
  2
TABLES
  0
TABLE
  2
VPORT
  5
8
330
0
100
AcDbSymbolTable
 70
     1
  0
VPORT
  5
29
330
8
100
AcDbSymbolTableRecord
100
AcDbViewportTableRecord
  2
*Active
 70
     0
 10
0.0
 20
0.0
 11
1.0
 21
1.0
 12
157.5
 22
222.75
 13
0.0
 23
0.0
 14
0.5
 24
0.5
 15
0.5
 25
0.5
 16
0.0
 26
0.0
 36
1.0
 17
0.0
 27
0.0
 37
0.0
 40
490.05
 41
1.60267857142857
 42
50.0
 43
0.0
 44
0.0
 50
0.0
 51
0.0
 71
     0
 72
   100
 73
     1
 74
     3
 75
     0
 76
     0
 77
     0
 78
     0
281
     0
 65
     1
110
0.0
120
0.0
130
0.0
111
1.0
121
0.0
131
0.0
112
0.0
122
1.0
132
0.0
 79
     0
146
0.0
  0
ENDTAB
  0
TABLE
  2
LTYPE
  5
5
330
0
100
AcDbSymbolTable
 70
     9
  0
LTYPE
  5
14
330
5
100
AcDbSymbolTableRecord
100
AcDbLinetypeTableRecord
  2
ByBlock
 70
     0
  3

 72
    65
 73
     0
 40
0.0
  0
LTYPE
  5
15
330
5
100
AcDbSymbolTableRecord
100
AcDbLinetypeTableRecord
  2
ByLayer
 70
     0
  3

 72
    65
 73
     0
 40
0.0
  0
LTYPE
  5
16
330
5
100
AcDbSymbolTableRecord
100
AcDbLinetypeTableRecord
  2
Continuous
 70
     0
  3
Solid line
 72
    65
 73
     0
 40
0.0
  0
LTYPE
  5
3F
330
5
100
AcDbSymbolTableRecord
100
AcDbLinetypeTableRecord
  2
DASHED
 70
     0
  3
Dashed
 72
    65
 73
     2
 40
15.0
 49
7.0
 74
     0
 49
-8.0
 74
     0
  0
LTYPE
  5
40
330
5
100
AcDbSymbolTableRecord
100
AcDbLinetypeTableRecord
  2
DOTTED
 70
     0
  3
Dotted
 72
    65
 73
     2
 40
1.0
 49
0.0
 74
     0
 49
-1.0
 74
     0
  0
LTYPE
  5
41
330
5
100
AcDbSymbolTableRecord
100
AcDbLinetypeTableRecord
  2
DOT_CENTER
 70
     0
  3
Dot_Center
 72
    65
 73
     4
 40
14.0
 49
12.0
 74
     0
 49
-1.0
 74
     0
 49
0.0
 74
     0
 49
-1.0
 74
     0
  0
LTYPE
  5
42
330
5
100
AcDbSymbolTableRecord
100
AcDbLinetypeTableRecord
  2
LONG_DASHED
 70
     0
  3
Long_Dashed
 72
    65
 73
     2
 40
15.0
 49
10.0
 74
     0
 49
-5.0
 74
     0
  0
LTYPE
  5
43
330
5
100
AcDbSymbolTableRecord
100
AcDbLinetypeTableRecord
  2
DASH_CENTER
 70
     0
  3
Dash_Center
 72
    65
 73
     4
 40
14.0
 49
11.0
 74
     0
 49
-1.0
 74
     0
 49
1.0
 74
     0
 49
-1.0
 74
     0
  0
LTYPE
  5
44
330
5
100
AcDbSymbolTableRecord
100
AcDbLinetypeTableRecord
  2
PHANTOM
 70
     0
  3
Phantom
 72
    65
 73
     6
 40
13.0
 49
10.0
 74
     0
 49
-1.0
 74
     0
 49
0.0
 74
     0
 49
-1.0
 74
     0
 49
0.0
 74
     0
 49
-1.0
 74
     0
  0
LTYPE
  5
45
330
5
100
AcDbSymbolTableRecord
100
AcDbLinetypeTableRecord
  2
CENTER_DASH_DASH
 70
     0
  3
Center_Dash_Dash
 72
    65
 73
     6
 40
14.0
 49
9.0
 74
     0
 49
-1.0
 74
     0
 49
1.0
 74
     0
 49
-1.0
 74
     0
 49
1.0
 74
     0
 49
-1.0
 74
     0
  0
LTYPE
  5
46
330
5
100
AcDbSymbolTableRecord
100
AcDbLinetypeTableRecord
  2
DIVIDE
 70
     0
  3
DIVIDE
 72
    65
 73
     6
 40
14.0
 49
5.0
 74
     0
 49
-3.0
 74
     0
 49
0.0
 74
     0
 49
-3.0
 74
     0
 49
0.0
 74
     0
 49
-3.0
 74
     0
  0
ENDTAB
  0
TABLE
  2
LAYER
  5
2
330
0
100
AcDbSymbolTable
 70
     6
  0
LAYER
  5
10
330
2
100
AcDbSymbolTableRecord
100
AcDbLayerTableRecord
  2
0
 70
     0
 62
     7
  6
Continuous
370
    -3
390
F
  0
LAYER
  5
47
330
2
100
AcDbSymbolTableRecord
100
AcDbLayerTableRecord
  2
1
 70
     0
 62
     7
  6
Continuous
370
    -3
390
F
  0
LAYER
  5
48
330
2
100
AcDbSymbolTableRecord
100
AcDbLayerTableRecord
  2
LEVEL001
 70
     0
 62
     7
  6
Continuous
370
    -3
390
F
  0
LAYER
  5
49
330
2
100
AcDbSymbolTableRecord
100
AcDbLayerTableRecord
  2
center
 70
     0
 62
     7
  6
Continuous
370
    -3
390
F
  0
LAYER
  5
4A
330
2
100
AcDbSymbolTableRecord
100
AcDbLayerTableRecord
  2
inline
 70
     0
 62
     7
  6
Continuous
370
    -3
390
F
  0
LAYER
  5
4B
330
2
100
AcDbSymbolTableRecord
100
AcDbLayerTableRecord
  2
outline
 70
     0
 62
     7
  6
Continuous
370
    -3
390
F
  0
ENDTAB
  0
TABLE
  2
STYLE
  5
3
330
0
100
AcDbSymbolTable
 70
     4
  0
STYLE
  5
11
330
3
100
AcDbSymbolTableRecord
100
AcDbTextStyleTableRecord
  2
Standard
 70
     0
 40
0.0
 41
1.0
 50
0.0
 71
     0
 42
0.2
  3
txt
  4

  0
STYLE
  5
131
330
3
100
AcDbSymbolTableRecord
100
AcDbTextStyleTableRecord
  2
CONVERTER_11
 70
     0
 40
0.0
 41
0.98888888888889
 50
14.99999999999998
 71
     0
 42
0.2
  3
MS Mincho.ttf
  4

1001
ACAD
1000
MS Mincho
1071
    32785
  0
STYLE
  5
183
330
3
100
AcDbSymbolTableRecord
100
AcDbTextStyleTableRecord
  2
CONVERTER_12
 70
     0
 40
0.0
 41
0.89
 50
0.0
 71
     0
 42
0.2
  3
MS Mincho.ttf
  4

1001
ACAD
1000
MS Mincho
1071
    32785
  0
STYLE
  5
231
330
3
100
AcDbSymbolTableRecord
100
AcDbTextStyleTableRecord
  2
CONVERTER_13
 70
     0
 40
0.0
 41
0.9
 50
0.0
 71
     0
 42
0.2
  3
txt.shx
  4

  0
ENDTAB
  0
TABLE
  2
VIEW
  5
6
330
0
100
AcDbSymbolTable
 70
     0
  0
ENDTAB
  0
TABLE
  2
UCS
  5
7
330
0
100
AcDbSymbolTable
 70
     0
  0
ENDTAB
  0
TABLE
  2
APPID
  5
9
330
0
100
AcDbSymbolTable
 70
     1
  0
APPID
  5
12
330
9
100
AcDbSymbolTableRecord
100
AcDbRegAppTableRecord
  2
ACAD
 70
     0
  0
ENDTAB
  0
TABLE
  2
DIMSTYLE
  5
A
330
0
100
AcDbSymbolTable
 70
     7
100
AcDbDimStyleTable
  0
DIMSTYLE
105
27
330
A
100
AcDbSymbolTableRecord
100
AcDbDimStyleTableRecord
  2
Standard
 70
     0
178
     0
340
11
  0
DIMSTYLE
105
253
102
{ACAD_REACTORS
330
254
102
}
330
A
100
AcDbSymbolTableRecord
100
AcDbDimStyleTableRecord
  2
ME10_DIM_10
 70
     0
 41
5.25
 42
0.0
 44
1.5
 73
     0
 74
     0
 77
     1
 78
     8
140
5.25
147
1.5
172
     1
173
     1
174
     1
175
     1
176
     2
177
     2
271
     2
178
     7
271
     2
340
231
  0
DIMSTYLE
105
25E
102
{ACAD_REACTORS
330
25F
102
}
330
A
100
AcDbSymbolTableRecord
100
AcDbDimStyleTableRecord
  2
ME10_DIM_11
 70
     0
  3
{\Fgdt;n}<>
 41
5.25
 42
0.0
 44
1.5
 73
     0
 74
     0
 77
     1
 78
     8
140
5.25
147
1.5
172
     1
173
     1
174
     1
175
     1
176
     2
177
     2
271
     2
178
     7
271
     2
340
231
  0
DIMSTYLE
105
269
102
{ACAD_REACTORS
330
26A
102
}
330
A
100
AcDbSymbolTableRecord
100
AcDbDimStyleTableRecord
  2
ME10_DIM_12
 70
     0
 41
5.25
 42
0.0
 44
1.5
 73
     0
 74
     0
 77
     1
 78
     8
140
5.25
147
1.5
172
     1
173
     1
174
     1
175
     1
176
     2
177
     2
271
     2
178
     7
271
     2
340
231
  0
DIMSTYLE
105
274
102
{ACAD_REACTORS
330
275
102
}
330
A
100
AcDbSymbolTableRecord
100
AcDbDimStyleTableRecord
  2
ME10_DIM_13
 70
     0
 41
5.25
 42
0.0
 44
1.5
 73
     0
 74
     0
 77
     1
 78
     8
140
5.25
147
1.5
172
     1
173
     1
174
     1
175
     1
176
     2
177
     2
271
     2
178
     7
271
     2
340
231
  0
DIMSTYLE
105
27F
102
{ACAD_REACTORS
330
280
102
}
330
A
100
AcDbSymbolTableRecord
100
AcDbDimStyleTableRecord
  2
ME10_DIM_14
 70
     0
 41
5.25
 42
0.0
 44
1.5
 73
     0
 74
     0
 77
     1
 78
     8
140
5.25
147
1.5
172
     1
173
     1
174
     1
175
     1
176
     2
177
     2
271
     2
178
     7
271
     2
340
231
  0
DIMSTYLE
105
28A
102
{ACAD_REACTORS
330
28B
102
}
330
A
100
AcDbSymbolTableRecord
100
AcDbDimStyleTableRecord
  2
ME10_DIM_15
 70
     0
 41
5.25
 42
0.0
 44
1.5
 73
     0
 74
     0
 77
     1
 78
     8
140
5.25
147
1.5
172
     1
173
     1
174
     1
175
     1
176
     2
177
     2
271
     2
178
     7
271
     2
340
231
  0
ENDTAB
  0
TABLE
  2
BLOCK_RECORD
  5
1
330
0
100
AcDbSymbolTable
 70
    10
  0
BLOCK_RECORD
  5
1F
330
1
100
AcDbSymbolTableRecord
100
AcDbBlockTableRecord
  2
*Model_Space
340
22
  0
BLOCK_RECORD
  5
1B
330
1
100
AcDbSymbolTableRecord
100
AcDbBlockTableRecord
  2
*Paper_Space
340
1E
  0
BLOCK_RECORD
  5
23
330
1
100
AcDbSymbolTableRecord
100
AcDbBlockTableRecord
  2
*Paper_Space0
340
26
  0
BLOCK_RECORD
  5
4C
330
1
100
AcDbSymbolTableRecord
100
AcDbBlockTableRecord
  2
R37-182FX-S
340
0
102
{BLKREFS
331
50
102
}
  0
BLOCK_RECORD
  5
4F
330
1
100
AcDbSymbolTableRecord
100
AcDbBlockTableRecord
  2
分岐コック
340
0
102
{BLKREFS
331
56
102
}
  0
BLOCK_RECORD
  5
53
330
1
100
AcDbSymbolTableRecord
100
AcDbBlockTableRecord
  2
開示A4
340
0
102
{BLKREFS
331
57
102
}
  0
BLOCK_RECORD
  5
24A
330
1
100
AcDbSymbolTableRecord
100
AcDbBlockTableRecord
  2
*D4
340
0
  0
BLOCK_RECORD
  5
255
330
1
100
AcDbSymbolTableRecord
100
AcDbBlockTableRecord
  2
*D5
340
0
  0
BLOCK_RECORD
  5
260
330
1
100
AcDbSymbolTableRecord
100
AcDbBlockTableRecord
  2
*D6
340
0
  0
BLOCK_RECORD
  5
26B
330
1
100
AcDbSymbolTableRecord
100
AcDbBlockTableRecord
  2
*D7
340
0
  0
BLOCK_RECORD
  5
276
330
1
100
AcDbSymbolTableRecord
100
AcDbBlockTableRecord
  2
*D8
340
0
  0
BLOCK_RECORD
  5
281
330
1
100
AcDbSymbolTableRecord
100
AcDbBlockTableRecord
  2
*D9
340
0
  0
ENDTAB
  0
ENDSEC
  0
SECTION
  2
BLOCKS
  0
BLOCK
  5
20
330
1F
100
AcDbEntity
  8
0
100
AcDbBlockBegin
  2
*Model_Space
 70
     0
 10
0.0
 20
0.0
 30
0.0
  3
*Model_Space
  1

  0
ENDBLK
  5
21
330
1F
100
AcDbEntity
  8
0
100
AcDbBlockEnd
  0
BLOCK
  5
1C
330
1B
100
AcDbEntity
 67
     1
  8
0
100
AcDbBlockBegin
  2
*Paper_Space
 70
     0
 10
0.0
 20
0.0
 30
0.0
  3
*Paper_Space
  1

  0
ENDBLK
  5
1D
330
1B
100
AcDbEntity
 67
     1
  8
0
100
AcDbBlockEnd
  0
BLOCK
  5
24
330
23
100
AcDbEntity
  8
0
100
AcDbBlockBegin
  2
*Paper_Space0
 70
     0
 10
0.0
 20
0.0
 30
0.0
  3
*Paper_Space0
  1

  0
ENDBLK
  5
25
330
23
100
AcDbEntity
  8
0
100
AcDbBlockEnd
  0
BLOCK
  5
4D
330
4C
100
AcDbEntity
  8
0
100
AcDbBlockBegin
  2
R37-182FX-S
 70
     0
 10
47.20878156116459
 20
164.433969877837
 30
0.0
  3
R37-182FX-S
  1

  0
LINE
  5
58
330
4C
100
AcDbEntity
  8
1
  6
PHANTOM
 62
     4
100
AcDbLine
 10
133.2298304978145
 20
228.5513485147317
 30
0.0
 11
133.2298304978145
 21
177.0513485147317
 31
0.0
  0
ENDBLK
  5
4E
330
4C
100
AcDbEntity
  8
0
100
AcDbBlockEnd
  0
BLOCK
  5
51
330
4F
100
AcDbEntity
  8
0
100
AcDbBlockBegin
  2
分岐コック
 70
     0
 10
211.0085730637617
 20
867.44455080691
 30
0.0
  3
分岐コック
  1

  0
INSERT
  5
50
330
4F
100
AcDbEntity
  8
0
100
AcDbBlockReference
  2
R37-182FX-S
 10
47.20878156116459
 20
164.433969877837
 30
0.0
  0
POINT
  5
59
330
4F
100
AcDbEntity
  8
LEVEL001
 62
     7
100
AcDbPoint
 10
133.2298304971557
 20
329.6654683323652
 30
0.0
  0
POINT
  5
5A
330
4F
100
AcDbEntity
  8
LEVEL001
 62
     7
100
AcDbPoint
 10
103.2298304961358
 20
345.915468332685
 30
0.0
  0
POINT
  5
5B
330
4F
100
AcDbEntity
  8
LEVEL001
 62
     7
100
AcDbPoint
 10
106.9798304978246
 20
195.1013485146828
 30
0.0
  0
POINT
  5
5C
330
4F
100
AcDbEntity
  8
LEVEL001
 62
     7
100
AcDbPoint
 10
116.9798304978146
 20
201.0792120550928
 30
0.0
  0
POINT
  5
5D
330
4F
100
AcDbEntity
  8
LEVEL001
 62
     7
100
AcDbPoint
 10
133.2298304978146
 20
171.3513485147317
 30
0.0
  0
POINT
  5
5E
330
4F
100
AcDbEntity
  8
LEVEL001
 62
     7
100
AcDbPoint
 10
149.4798304978146
 20
201.0792120550928
 30
0.0
  0
POINT
  5
5F
330
4F
100
AcDbEntity
  8
LEVEL001
 62
     7
100
AcDbPoint
 10
116.9798304978146
 20
201.0792120550928
 30
0.0
  0
POINT
  5
60
330
4F
100
AcDbEntity
  8
LEVEL001
 62
     7
100
AcDbPoint
 10
149.4798304978146
 20
201.0792120550928
 30
0.0
  0
LINE
  5
61
330
4F
100
AcDbEntity
  8
1
  6
Continuous
 62
     7
100
AcDbLine
 10
151.7298304967856
 20
356.4154683311152
 30
0.0
 11
151.7298304967856
 21
335.415468332945
 31
0.0
  0
LINE
  5
62
330
4F
100
AcDbEntity
  8
LEVEL001
  6
Continuous
 62
     7
100
AcDbLine
 10
120.1314303680759
 20
350.830585549215
 30
0.0
 11
120.9066357119458
 21
350.0553802053452
 31
0.0
  0
LINE
  5
63
330
4F
100
AcDbEntity
  8
LEVEL001
  6
Continuous
 62
     7
100
AcDbLine
 10
119.9480157058159
 20
350.3068934302752
 30
0.0
 11
120.7385034871159
 21
349.5164056489853
 31
0.0
  0
LINE
  5
64
330
4F
100
AcDbEntity
  8
LEVEL001
  6
Continuous
 62
     7
100
AcDbLine
 10
119.7823891489159
 20
349.7654132059952
 30
0.0
 11
120.590673127046
 21
348.9571292278653
 31
0.0
  0
LINE
  5
65
330
4F
100
AcDbEntity
  8
LEVEL001
  6
Continuous
 62
     7
100
AcDbLine
 10
119.6357390173458
 20
349.2049565563852
 30
0.0
 11
120.4647903377059
 21
348.3759052360153
 31
0.0
  0
LINE
  5
66
330
4F
100
AcDbEntity
  8
LEVEL001
  6
Continuous
 62
     7
100
AcDbLine
 10
119.5094996387359
 20
348.6240891538052
 30
0.0
 11
120.3628912834059
 21
347.7706975091352
 31
0.0
  0
LINE
  5
67
330
4F
100
AcDbEntity
  8
LEVEL001
  6
Continuous
 62
     7
100
AcDbLine
 10
119.4054190119358
 20
348.0210629994152
 30
0.0
 11
120.0110136762658
 21
347.4154683350952
 31
0.0
  0
LINE
  5
68
330
4F
100
AcDbEntity
  8
LEVEL001
  6
Continuous
 62
     7
100
AcDbLine
 10
120.3316415649459
 20
351.3374811335352
 30
0.0
 11
121.0937249495258
 21
350.5753977489452
 31
0.0
  0
LINE
  5
69
330
4F
100
AcDbEntity
  8
LEVEL001
  6
Continuous
 62
     7
100
AcDbLine
 10
126.7583077390458
 20
358.3458438019752
 30
0.0
 11
126.9710114507858
 21
358.1331400902252
 31
0.0
  0
LINE
  5
6A
330
4F
100
AcDbEntity
  8
LEVEL001
  6
Continuous
 62
     7
100
AcDbLine
 10
126.3013182046858
 20
358.0957265551451
 30
0.0
 11
126.7121924056858
 21
357.6848523541452
 31
0.0
  0
LINE
  5
6B
330
4F
100
AcDbEntity
  8
LEVEL001
  6
Continuous
 62
     7
100
AcDbLine
 10
125.8583940943559
 20
357.8315438842951
 30
0.0
 11
126.4533733605859
 21
357.236564618065
 31
0.0
  0
LINE
  5
6C
330
4F
100
AcDbEntity
  8
LEVEL001
  6
Continuous
 62
     7
100
AcDbLine
 10
125.4291472806959
 20
357.5536839167552
 30
0.0
 11
126.1945543154758
 21
356.7882768819852
 31
0.0
  0
LINE
  5
6D
330
4F
100
AcDbEntity
  8
LEVEL001
  6
Continuous
 62
     7
100
AcDbLine
 10
125.0132601452859
 20
357.2624642709852
 30
0.0
 11
125.9357352703758
 21
356.3399891458952
 31
0.0
  0
LINE
  5
6E
330
4F
100
AcDbEntity
  8
LEVEL001
  6
Continuous
 62
     7
100
AcDbLine
 10
124.610478483046
 20
356.9581391520452
 30
0.0
 11
125.6769162252659
 21
355.8917014098151
 31
0.0
  0
LINE
  5
6F
330
4F
100
AcDbEntity
  8
LEVEL001
  6
Continuous
 62
     7
100
AcDbLine
 10
124.2206060804059
 20
356.6409047734953
 30
0.0
 11
125.418097180166
 21
355.4434136737352
 31
0.0
  0
LINE
  5
70
330
4F
100
AcDbEntity
  8
LEVEL001
  6
Continuous
 62
     7
100
AcDbLine
 10
123.8435006847659
 20
356.3109033879453
 30
0.0
 11
125.1592781350558
 21
354.9951259376552
 31
0.0
  0
LINE
  5
71
330
4F
100
AcDbEntity
  8
LEVEL001
  6
Continuous
 62
     7
100
AcDbLine
 10
123.4790711657459
 20
355.9682261257751
 30
0.0
 11
124.9004590899559
 21
354.5468382015753
 31
0.0
  0
LINE
  5
72
330
4F
100
AcDbEntity
  8
LEVEL001
  6
Continuous
 62
     7
100
AcDbLine
 10
123.1272757331259
 20
355.6129147772151
 30
0.0
 11
123.8371200914558
 21
354.903070418885
 31
0.0
  0
LINE
  5
73
330
4F
100
AcDbEntity
  8
LEVEL001
  6
Continuous
 62
     7
100
AcDbLine
 10
122.7881211291559
 20
355.2449625999951
 30
0.0
 11
123.4981714971558
 21
354.5349122319951
 31
0.0
  0
LINE
  5
74
330
4F
100
AcDbEntity
  8
LEVEL001
  6
Continuous
 62
     7
100
AcDbLine
 10
122.4616627584959
 20
354.8643141894652
 30
0.0
 11
123.1729012762558
 21
354.1530756717052
 31
0.0
  0
LINE
  5
75
330
4F
100
AcDbEntity
  8
LEVEL001
  6
Continuous
 62
     7
100
AcDbLine
 10
122.148005761606
 20
354.4708644051751
 30
0.0
 11
122.8614368941458
 21
353.757433272635
 31
0.0
  0
LINE
  5
76
330
4F
100
AcDbEntity
  8
LEVEL001
  6
Continuous
 62
     7
100
AcDbLine
 10
121.5597786134459
 20
353.6448779909549
 30
0.0
 11
122.280765890706
 21
352.9238907136952
 31
0.0
  0
LINE
  5
77
330
4F
100
AcDbEntity
  8
LEVEL001
  6
Continuous
 62
     7
100
AcDbLine
 10
121.2856916094059
 20
353.2118582138152
 30
0.0
 11
122.0121599929058
 21
352.4853898303152
 31
0.0
  0
LINE
  5
78
330
4F
100
AcDbEntity
  8
LEVEL001
  6
Continuous
 62
     7
100
AcDbLine
 10
121.025382523556
 20
352.7650605184749
 30
0.0
 11
121.7585763662458
 21
352.0318666757852
 31
0.0
  0
LINE
  5
79
330
4F
100
AcDbEntity
  8
LEVEL001
  6
Continuous
 62
     7
100
AcDbLine
 10
120.7792606430158
 20
352.3040756178351
 30
0.0
 11
121.5205341419358
 21
351.5628021189152
 31
0.0
  0
LINE
  5
7A
330
4F
100
AcDbEntity
  8
LEVEL001
  6
Continuous
 62
     7
100
AcDbLine
 10
120.5478179136158
 20
351.828411566045
 30
0.0
 11
121.2986634415959
 21
351.0775660380652
 31
0.0
  0
LINE
  5
7B
330
4F
100
AcDbEntity
  8
LEVEL001
  6
Continuous
 62
     7
100
AcDbLine
 10
121.8473070805158
 20
354.0644563050752
 30
0.0
 11
122.5639709893358
 21
353.3477923962552
 31
0.0
  0
LINE
  5
7C
330
4F
100
AcDbEntity
  8
LEVEL001
  6
Continuous
 62
     7
100
AcDbLine
 10
127.2298296857458
 20
358.5814274404252
 30
0.0
 11
120.6107451921658
 21
351.9623429468452
 31
0.0
  0
LINE
  5
7D
330
4F
100
AcDbEntity
  8
LEVEL001
  6
Continuous
 62
     7
100
AcDbLine
 10
126.2639046695759
 20
356.9083952188053
 30
0.0
 11
124.265692065056
 21
354.9101826142852
 31
0.0
  0
LINE
  5
7E
330
4F
100
AcDbEntity
  8
LEVEL001
  6
Continuous
 62
     7
100
AcDbLine
 10
122.2831974111258
 20
352.9276879603551
 30
0.0
 11
120.0994781786258
 21
350.7439687278552
 31
0.0
  0
LINE
  5
7F
330
4F
100
AcDbEntity
  8
LEVEL001
  6
Continuous
 62
     7
100
AcDbLine
 10
125.2979788432659
 20
355.2353626113052
 30
0.0
 11
124.6192454556459
 21
354.5566292236953
 31
0.0
  0
LINE
  5
80
330
4F
100
AcDbEntity
  8
LEVEL001
  6
Continuous
 62
     7
100
AcDbLine
 10
121.4268022649859
 20
351.364186033025
 30
0.0
 11
119.7645211269958
 21
349.7019048950353
 31
0.0
  0
LINE
  5
81
330
4F
100
AcDbEntity
  8
LEVEL001
  6
Continuous
 62
     7
100
AcDbLine
 10
120.948929021126
 20
350.1792060079852
 30
0.0
 11
119.5385431839259
 21
348.7688201707751
 31
0.0
  0
LINE
  5
82
330
4F
100
AcDbEntity
  8
LEVEL001
  6
Continuous
 62
     7
100
AcDbLine
 10
120.6427517561359
 20
349.1659219618051
 30
0.0
 11
119.3895874441258
 21
347.9127576497951
 31
0.0
  0
LINE
  5
83
330
4F
100
AcDbEntity
  8
LEVEL001
  6
Continuous
 62
     7
100
AcDbLine
 10
120.4427832177458
 20
348.2588466422252
 30
0.0
 11
119.5994049106058
 21
347.4154683350952
 31
0.0
  0
LINE
  5
84
330
4F
100
AcDbEntity
  8
LEVEL001
  6
Continuous
 62
     7
100
AcDbLine
 10
120.3179984067559
 20
347.4269550500552
 30
0.0
 11
120.3065116917959
 21
347.4154683350952
 31
0.0
  0
LINE
  5
85
330
4F
100
AcDbEntity
  8
LEVEL001
  6
Continuous
 62
     7
100
AcDbLine
 10
125.6236354177759
 20
357.6823395293752
 30
0.0
 11
121.509833103206
 21
353.5685372148053
 31
0.0
  0
LINE
  5
86
330
4F
100
AcDbEntity
  8
LEVEL001
  6
Continuous
 62
     7
100
AcDbLine
 10
120.9066357120458
 20
341.7755564601653
 30
0.0
 11
120.131430368206
 21
341.0003511162752
 31
0.0
  0
LINE
  5
87
330
4F
100
AcDbEntity
  8
LEVEL001
  6
Continuous
 62
     7
100
AcDbLine
 10
120.738503487206
 20
342.3145310165152
 30
0.0
 11
119.9480157059359
 21
341.5240432352051
 31
0.0
  0
LINE
  5
88
330
4F
100
AcDbEntity
  8
LEVEL001
  6
Continuous
 62
     7
100
AcDbLine
 10
120.5906731271258
 20
342.8738074376353
 30
0.0
 11
119.7823891490158
 21
342.0655234594851
 31
0.0
  0
LINE
  5
89
330
4F
100
AcDbEntity
  8
LEVEL001
  6
Continuous
 62
     7
100
AcDbLine
 10
120.4647903377759
 20
343.4550314294752
 30
0.0
 11
119.6357390174258
 21
342.6259801090952
 31
0.0
  0
LINE
  5
8A
330
4F
100
AcDbEntity
  8
LEVEL001
  6
Continuous
 62
     7
100
AcDbLine
 10
120.3628912834559
 20
344.060239156355
 30
0.0
 11
119.509499638806
 21
343.2068475116652
 31
0.0
  0
LINE
  5
8B
330
4F
100
AcDbEntity
  8
LEVEL001
  6
Continuous
 62
     7
100
AcDbLine
 10
120.0110136763058
 20
344.4154683303952
 30
0.0
 11
119.4054190119858
 21
343.8098736660552
 31
0.0
  0
LINE
  5
8C
330
4F
100
AcDbEntity
  8
LEVEL001
  6
Continuous
 62
     7
100
AcDbLine
 10
121.0937249496459
 20
341.2555389165651
 30
0.0
 11
120.331641565086
 21
340.4934555319652
 31
0.0
  0
LINE
  5
8D
330
4F
100
AcDbEntity
  8
LEVEL001
  6
Continuous
 62
     7
100
AcDbLine
 10
126.9710114511059
 20
333.6977965754352
 30
0.0
 11
126.7583077393659
 21
333.4850928636852
 31
0.0
  0
LINE
  5
8E
330
4F
100
AcDbEntity
  8
LEVEL001
  6
Continuous
 62
     7
100
AcDbLine
 10
126.712192405986
 20
334.1460843115152
 30
0.0
 11
126.3013182049959
 21
333.7352101105053
 31
0.0
  0
LINE
  5
8F
330
4F
100
AcDbEntity
  8
LEVEL001
  6
Continuous
 62
     7
100
AcDbLine
 10
126.4533733608758
 20
334.594372047585
 30
0.0
 11
125.8583940946558
 21
333.9993927813453
 31
0.0
  0
LINE
  5
90
330
4F
100
AcDbEntity
  8
LEVEL001
  6
Continuous
 62
     7
100
AcDbLine
 10
126.1945543157559
 20
335.0426597836652
 30
0.0
 11
125.4291472809958
 21
334.2772527488652
 31
0.0
  0
LINE
  5
91
330
4F
100
AcDbEntity
  8
LEVEL001
  6
Continuous
 62
     7
100
AcDbLine
 10
125.9357352706459
 20
335.4909475197352
 30
0.0
 11
125.0132601455758
 21
334.5684723946349
 31
0.0
  0
LINE
  5
92
330
4F
100
AcDbEntity
  8
LEVEL001
  6
Continuous
 62
     7
100
AcDbLine
 10
125.6769162255258
 20
335.9392352558152
 30
0.0
 11
124.6104784833259
 21
334.8727975135652
 31
0.0
  0
LINE
  5
93
330
4F
100
AcDbEntity
  8
LEVEL001
  6
Continuous
 62
     7
100
AcDbLine
 10
125.4180971804058
 20
336.3875229918854
 30
0.0
 11
124.2206060806758
 21
335.1900318920953
 31
0.0
  0
LINE
  5
94
330
4F
100
AcDbEntity
  8
LEVEL001
  6
Continuous
 62
     7
100
AcDbLine
 10
125.1592781352959
 20
336.8358107279652
 30
0.0
 11
123.8435006850358
 21
335.5200332776452
 31
0.0
  0
LINE
  5
95
330
4F
100
AcDbEntity
  8
LEVEL001
  6
Continuous
 62
     7
100
AcDbLine
 10
124.9004590901758
 20
337.2840984640452
 30
0.0
 11
123.4790711660058
 21
335.8627105397952
 31
0.0
  0
LINE
  5
96
330
4F
100
AcDbEntity
  8
LEVEL001
  6
Continuous
 62
     7
100
AcDbLine
 10
123.8371200916859
 20
336.9278662466952
 30
0.0
 11
123.127275733376
 21
336.2180218883452
 31
0.0
  0
LINE
  5
97
330
4F
100
AcDbEntity
  8
LEVEL001
  6
Continuous
 62
     7
100
AcDbLine
 10
123.4981714973759
 20
337.2960244335752
 30
0.0
 11
122.7881211293958
 21
336.5859740655553
 31
0.0
  0
LINE
  5
98
330
4F
100
AcDbEntity
  8
LEVEL001
  6
Continuous
 62
     7
100
AcDbLine
 10
123.1729012764759
 20
337.677860993865
 30
0.0
 11
122.461662758736
 21
336.9666224760852
 31
0.0
  0
LINE
  5
99
330
4F
100
AcDbEntity
  8
LEVEL001
  6
Continuous
 62
     7
100
AcDbLine
 10
122.8614368943459
 20
338.0735033929252
 30
0.0
 11
122.1480057618258
 21
337.3600722603652
 31
0.0
  0
LINE
  5
9A
330
4F
100
AcDbEntity
  8
LEVEL001
  6
Continuous
 62
     7
100
AcDbLine
 10
122.2807658908858
 20
338.9070459518453
 30
0.0
 11
121.5597786136458
 21
338.1860586745652
 31
0.0
  0
LINE
  5
9B
330
4F
100
AcDbEntity
  8
LEVEL001
  6
Continuous
 62
     7
100
AcDbLine
 10
122.0121599930759
 20
339.3455468352152
 30
0.0
 11
121.2856916095958
 21
338.6190784517053
 31
0.0
  0
LINE
  5
9C
330
4F
100
AcDbEntity
  8
LEVEL001
  6
Continuous
 62
     7
100
AcDbLine
 10
121.7585763664059
 20
339.7990699897453
 30
0.0
 11
121.0253825237358
 21
339.0658761470352
 31
0.0
  0
LINE
  5
9D
330
4F
100
AcDbEntity
  8
LEVEL001
  6
Continuous
 62
     7
100
AcDbLine
 10
121.5205341420859
 20
340.2681345466152
 30
0.0
 11
120.7792606431759
 21
339.5268610476752
 31
0.0
  0
LINE
  5
9E
330
4F
100
AcDbEntity
  8
LEVEL001
  6
Continuous
 62
     7
100
AcDbLine
 10
121.2986634417258
 20
340.7533706274552
 30
0.0
 11
120.5478179137759
 21
340.0025250994552
 31
0.0
  0
LINE
  5
9F
330
4F
100
AcDbEntity
  8
LEVEL001
  6
Continuous
 62
     7
100
AcDbLine
 10
122.5639709895259
 20
338.4831442692952
 30
0.0
 11
121.8473070807259
 21
337.7664803604553
 31
0.0
  0
LINE
  5
A0
330
4F
100
AcDbEntity
  8
LEVEL001
  6
Continuous
 62
     7
100
AcDbLine
 10
127.229830208836
 20
333.2495089762454
 30
0.0
 11
127.2298303409258
 21
333.2495091083354
 31
0.0
  0
LINE
  5
A1
330
4F
100
AcDbEntity
  8
LEVEL001
  6
Continuous
 62
     7
100
AcDbLine
 10
120.610744420546
 20
339.8685953389652
 30
0.0
 11
127.2298299166658
 21
333.2495098431853
 31
0.0
  0
LINE
  5
A2
330
4F
100
AcDbEntity
  8
LEVEL001
  6
Continuous
 62
     7
100
AcDbLine
 10
120.0994781787559
 20
341.0869679376352
 30
0.0
 11
122.2831974113058
 21
338.9032487051952
 31
0.0
  0
LINE
  5
A3
330
4F
100
AcDbEntity
  8
LEVEL001
  6
Continuous
 62
     7
100
AcDbLine
 10
124.2656920652858
 20
336.9207540513152
 30
0.0
 11
126.2639046698658
 21
334.9225414468453
 31
0.0
  0
LINE
  5
A4
330
4F
100
AcDbEntity
  8
LEVEL001
  6
Continuous
 62
     7
100
AcDbLine
 10
119.7645211270859
 20
342.1290317704452
 30
0.0
 11
121.4268022651259
 21
340.4667506324952
 31
0.0
  0
LINE
  5
A5
330
4F
100
AcDbEntity
  8
LEVEL001
  6
Continuous
 62
     7
100
AcDbLine
 10
124.6192454558758
 20
337.2743074419152
 30
0.0
 11
125.2979788435058
 21
336.5955740543152
 31
0.0
  0
LINE
  5
A6
330
4F
100
AcDbEntity
  8
LEVEL001
  6
Continuous
 62
     7
100
AcDbLine
 10
119.5385431839958
 20
343.0621164946953
 30
0.0
 11
120.9489290212358
 21
341.6517306575253
 31
0.0
  0
LINE
  5
A7
330
4F
100
AcDbEntity
  8
LEVEL001
  6
Continuous
 62
     7
100
AcDbLine
 10
119.3895874441758
 20
343.9181790156753
 30
0.0
 11
120.6427517562159
 21
342.6650147036952
 31
0.0
  0
LINE
  5
A8
330
4F
100
AcDbEntity
  8
LEVEL001
  6
Continuous
 62
     7
100
AcDbLine
 10
119.5994049106458
 20
344.415468330385
 30
0.0
 11
120.4427832178058
 21
343.5720900232751
 31
0.0
  0
LINE
  5
A9
330
4F
100
AcDbEntity
  8
LEVEL001
  6
Continuous
 62
     7
100
AcDbLine
 10
120.3065116918359
 20
344.4154683304053
 30
0.0
 11
120.3179984067959
 21
344.4039816154452
 31
0.0
  0
LINE
  5
AA
330
4F
100
AcDbEntity
  8
LEVEL001
  6
Continuous
 62
     7
100
AcDbLine
 10
121.5098331034058
 20
338.2623994507152
 30
0.0
 11
125.6236354180758
 21
334.1485971362552
 31
0.0
  0
LINE
  5
AB
330
4F
100
AcDbEntity
  8
LEVEL001
  6
Continuous
 62
     7
100
AcDbLine
 10
119.8694412819658
 20
336.6654683318652
 30
0.0
 11
113.9798304983556
 21
336.6654683316986
 31
0.0
  0
LINE
  5
AC
330
4F
100
AcDbEntity
  8
LEVEL001
  6
Continuous
 62
     7
100
AcDbLine
 10
119.8694412812458
 20
355.1654683319352
 30
0.0
 11
113.9798304978256
 21
355.1654683317536
 31
0.0
  0
LINE
  5
AD
330
4F
100
AcDbEntity
  8
LEVEL001
  6
Continuous
 62
     7
100
AcDbLine
 10
113.979830498116
 20
350.775503903581
 30
0.0
 11
113.9798304978256
 21
355.1654683317536
 31
0.0
  0
LINE
  5
AE
330
4F
100
AcDbEntity
  8
LEVEL001
  6
Continuous
 62
     7
100
AcDbLine
 10
111.8147669881457
 20
335.4154683320353
 30
0.0
 11
108.2298304977357
 21
335.4154683320453
 31
0.0
  0
LINE
  5
AF
330
4F
100
AcDbEntity
  8
LEVEL001
  6
Continuous
 62
     7
100
AcDbLine
 10
108.2298304977357
 20
335.4154683320453
 30
0.0
 11
106.9798304977258
 21
336.6654683320553
 31
0.0
  0
LINE
  5
B0
330
4F
100
AcDbEntity
  8
LEVEL001
  6
Continuous
 62
     2
100
AcDbLine
 10
113.9798304983556
 20
336.6654683317552
 30
0.0
 11
106.9798304977258
 21
336.6654683320553
 31
0.0
  0
LINE
  5
B1
330
4F
100
AcDbEntity
  8
LEVEL001
  6
Continuous
 62
     7
100
AcDbLine
 10
111.8147669880456
 20
356.4154683322752
 30
0.0
 11
108.2298304975257
 21
356.4154683322752
 31
0.0
  0
LINE
  5
B2
330
4F
100
AcDbEntity
  8
LEVEL001
  6
Continuous
 62
     7
100
AcDbLine
 10
108.2298304975257
 20
356.4154683322752
 30
0.0
 11
106.9798304975257
 21
355.1654683322752
 31
0.0
  0
LINE
  5
B3
330
4F
100
AcDbEntity
  8
LEVEL001
  6
Continuous
 62
     2
100
AcDbLine
 10
113.9798304978256
 20
355.1654683318153
 30
0.0
 11
106.9798304975257
 21
355.1654683322752
 31
0.0
  0
LINE
  5
B4
330
4F
100
AcDbEntity
  8
LEVEL001
  6
Continuous
 62
     2
100
AcDbLine
 10
150.4798304978056
 20
336.6654683328652
 30
0.0
 11
151.9798304978006
 21
336.6654683329466
 31
0.0
  0
LINE
  5
B5
330
4F
100
AcDbEntity
  8
LEVEL001
  6
Continuous
 62
     7
100
AcDbLine
 10
151.9798304978006
 20
335.4154683329562
 30
0.0
 11
151.7298304967856
 21
335.415468332945
 31
0.0
  0
LINE
  5
B6
330
4F
100
AcDbEntity
  8
LEVEL001
  6
Continuous
 62
     7
100
AcDbLine
 10
151.7298304967856
 20
335.415468332945
 30
0.0
 11
150.4798304978056
 21
336.6654683328652
 31
0.0
  0
LINE
  5
B7
330
4F
100
AcDbEntity
  8
LEVEL001
  6
Continuous
 62
     7
100
AcDbLine
 10
113.9798304978256
 20
355.1654683318153
 30
0.0
 11
112.7298304985257
 21
356.4154683313652
 31
0.0
  0
LINE
  5
B8
330
4F
100
AcDbEntity
  8
LEVEL001
  6
Continuous
 62
     7
100
AcDbLine
 10
112.7298304985257
 20
356.4154683313652
 30
0.0
 11
111.8147669880456
 21
356.4154683322752
 31
0.0
  0
LINE
  5
B9
330
4F
100
AcDbEntity
  8
LEVEL001
  6
Continuous
 62
     7
100
AcDbLine
 10
124.770535668766
 20
337.4867493547254
 30
0.0
 11
124.0221671285659
 21
336.7383808145252
 31
0.0
  0
LINE
  5
BA
330
4F
100
AcDbEntity
  8
LEVEL001
  6
Continuous
 62
     7
100
AcDbLine
 10
146.5902197128057
 20
336.6654683325252
 30
0.0
 11
149.4798304968127
 21
336.6654683325853
 31
0.0
  0
LINE
  5
BB
330
4F
100
AcDbEntity
  8
LEVEL001
  6
Continuous
 62
     7
100
AcDbLine
 10
149.4798304968127
 20
336.6654683325853
 30
0.0
 11
149.4798304968156
 21
345.9154683320252
 31
0.0
  0
LINE
  5
BC
330
4F
100
AcDbEntity
  8
LEVEL001
  6
PHANTOM
 62
     4
100
AcDbLine
 10
162.8810160798417
 20
345.9154683320252
 30
0.0
 11
106.8030502739258
 21
345.9154683320252
 31
0.0
  0
LINE
  5
BD
330
4F
100
AcDbEntity
  8
LEVEL001
  6
Continuous
 62
     7
100
AcDbLine
 10
150.4798304978056
 20
336.6654683328652
 30
0.0
 11
150.4798304968558
 21
345.9154683320252
 31
0.0
  0
LINE
  5
BE
330
4F
100
AcDbEntity
  8
LEVEL001
  6
Continuous
 62
     2
100
AcDbLine
 10
150.4798304978056
 20
355.1654683311849
 30
0.0
 11
151.9798304978006
 21
355.1654683311058
 31
0.0
  0
LINE
  5
BF
330
4F
100
AcDbEntity
  8
LEVEL001
  6
Continuous
 62
     7
100
AcDbLine
 10
151.9798304978006
 20
356.4154683311044
 30
0.0
 11
151.7298304967856
 21
356.4154683311152
 31
0.0
  0
LINE
  5
C0
330
4F
100
AcDbEntity
  8
LEVEL001
  6
Continuous
 62
     7
100
AcDbLine
 10
151.7298304967856
 20
356.4154683311152
 30
0.0
 11
150.4798304978056
 21
355.1654683311849
 31
0.0
  0
LINE
  5
C1
330
4F
100
AcDbEntity
  8
LEVEL001
  6
Continuous
 62
     7
100
AcDbLine
 10
146.5902197128057
 20
355.1654683315353
 30
0.0
 11
149.4798304968127
 21
355.1654683314753
 31
0.0
  0
LINE
  5
C2
330
4F
100
AcDbEntity
  8
LEVEL001
  6
Continuous
 62
     7
100
AcDbLine
 10
149.4798304968127
 20
355.1654683314753
 30
0.0
 11
149.4798304968156
 21
345.9154683320252
 31
0.0
  0
LINE
  5
C3
330
4F
100
AcDbEntity
  8
LEVEL001
  6
Continuous
 62
     7
100
AcDbLine
 10
150.4798304978056
 20
355.1654683311849
 30
0.0
 11
150.4798304968558
 21
345.9154683320252
 31
0.0
  0
LINE
  5
C4
330
4F
100
AcDbEntity
  8
LEVEL001
  6
Continuous
 62
     7
100
AcDbLine
 10
124.8011115189459
 20
337.4561735050052
 30
0.0
 11
124.0527429787758
 21
336.7078049647852
 31
0.0
  0
LINE
  5
C5
330
4F
100
AcDbEntity
  8
LEVEL001
  6
Continuous
 62
     7
100
AcDbLine
 10
127.2298304962238
 20
333.2495088393653
 30
0.0
 11
124.8011115189459
 21
337.4561735050052
 31
0.0
  0
LINE
  5
C6
330
4F
100
AcDbEntity
  8
LEVEL001
  6
Continuous
 62
     7
100
AcDbLine
 10
127.2298304958998
 20
358.5814278263113
 30
0.0
 11
124.8011115187358
 21
354.3747631606052
 31
0.0
  0
LINE
  5
C7
330
4F
100
AcDbEntity
  8
LEVEL001
  6
Continuous
 62
     7
100
AcDbLine
 10
120.3166589259659
 20
347.4154683328052
 30
0.0
 11
119.3104195890358
 21
347.4154683327852
 31
0.0
  0
LINE
  5
C8
330
4F
100
AcDbEntity
  8
LEVEL001
  6
Continuous
 62
     7
100
AcDbLine
 10
120.3166589259989
 20
344.4154683326892
 30
0.0
 11
119.3104195890758
 21
344.4154683326751
 31
0.0
  0
LINE
  5
C9
330
4F
100
AcDbEntity
  8
LEVEL001
  6
Continuous
 62
     7
100
AcDbLine
 10
118.938224568186
 20
339.9154683327752
 30
0.0
 11
115.979830497621
 21
340.5956208096283
 31
0.0
  0
LINE
  5
CA
330
4F
100
AcDbEntity
  8
LEVEL001
  6
Continuous
 62
     7
100
AcDbLine
 10
118.938224568186
 20
351.9154683327752
 30
0.0
 11
115.9798304974657
 21
351.2353158558841
 31
0.0
  0
LINE
  5
CB
330
4F
100
AcDbEntity
  8
LEVEL001
  6
Continuous
 62
     7
100
AcDbLine
 10
108.2298304977357
 20
335.4154683320453
 30
0.0
 11
108.2298304976627
 21
342.3773921253668
 31
0.0
  0
LINE
  5
CC
330
4F
100
AcDbEntity
  8
LEVEL001
  6
Continuous
 62
     7
100
AcDbLine
 10
106.9798304977258
 20
336.6654683320553
 30
0.0
 11
106.9798304976608
 21
342.6647745956492
 31
0.0
  0
LINE
  5
CD
330
4F
100
AcDbEntity
  8
LEVEL001
  6
Continuous
 62
     7
100
AcDbLine
 10
113.9798304983556
 20
336.6654683317552
 30
0.0
 11
113.9798304982275
 21
341.0554327619399
 31
0.0
  0
LINE
  5
CE
330
4F
100
AcDbEntity
  8
LEVEL001
  6
Continuous
 62
     7
100
AcDbLine
 10
115.979830497621
 20
340.5956208096283
 30
0.0
 11
113.9798304982275
 21
341.0554327619399
 31
0.0
  0
LINE
  5
CF
330
4F
100
AcDbEntity
  8
LEVEL001
  6
Continuous
 62
     7
100
AcDbLine
 10
110.2298304970476
 20
341.9175801730571
 30
0.0
 11
108.2298304976627
 21
342.3773921253668
 31
0.0
  0
LINE
  5
D0
330
4F
100
AcDbEntity
  8
LEVEL001
  6
Continuous
 62
     7
100
AcDbLine
 10
108.229830497592
 20
349.4535445401592
 30
0.0
 11
108.2298304975257
 21
356.4154683322752
 31
0.0
  0
LINE
  5
D1
330
4F
100
AcDbEntity
  8
LEVEL001
  6
Continuous
 62
     7
100
AcDbLine
 10
110.2298304969676
 20
349.9133564924682
 30
0.0
 11
108.229830497592
 21
349.4535445401592
 31
0.0
  0
LINE
  5
D2
330
4F
100
AcDbEntity
  8
LEVEL001
  6
Continuous
 62
     7
100
AcDbLine
 10
115.9798304974657
 20
351.2353158558841
 30
0.0
 11
113.979830498116
 21
350.775503903581
 31
0.0
  0
LINE
  5
D3
330
4F
100
AcDbEntity
  8
LEVEL001
  6
Continuous
 62
     7
100
AcDbLine
 10
106.9798304975905
 20
349.166162069876
 30
0.0
 11
106.9798304975257
 21
355.1654683322752
 31
0.0
  0
LINE
  5
D4
330
4F
100
AcDbEntity
  8
LEVEL001
  6
Continuous
 62
     7
100
AcDbLine
 10
113.9798304978256
 20
355.1654683317536
 30
0.0
 11
113.9798304978256
 21
355.1654683318153
 31
0.0
  0
LINE
  5
D5
330
4F
100
AcDbEntity
  8
LEVEL001
  6
Continuous
 62
     7
100
AcDbLine
 10
113.979830498116
 20
350.775503903581
 30
0.0
 11
112.7298304985257
 21
350.4881214333923
 31
0.0
  0
LINE
  5
D6
330
4F
100
AcDbEntity
  8
LEVEL001
  6
Continuous
 62
     7
100
AcDbLine
 10
108.229830497592
 20
349.4535445401592
 30
0.0
 11
106.9798304975905
 21
349.166162069876
 31
0.0
  0
LINE
  5
D7
330
4F
100
AcDbEntity
  8
LEVEL001
  6
Continuous
 62
     7
100
AcDbLine
 10
106.9798304976608
 20
342.6647745956492
 30
0.0
 11
105.5576485082059
 21
342.9917427343053
 31
0.0
  0
LINE
  5
D8
330
4F
100
AcDbEntity
  8
LEVEL001
  6
Continuous
 62
     7
100
AcDbLine
 10
108.2298304976627
 20
342.3773921253668
 30
0.0
 11
106.9798304976608
 21
342.6647745956492
 31
0.0
  0
LINE
  5
D9
330
4F
100
AcDbEntity
  8
LEVEL001
  6
Continuous
 62
     7
100
AcDbLine
 10
113.9798304982275
 20
341.0554327619399
 30
0.0
 11
112.7298304985257
 21
341.3428152321533
 31
0.0
  0
LINE
  5
DA
330
4F
100
AcDbEntity
  8
LEVEL001
  6
Continuous
 62
     7
100
AcDbLine
 10
106.9798304975905
 20
349.166162069876
 30
0.0
 11
105.5576485082059
 21
348.8391939312352
 31
0.0
  0
LINE
  5
DB
330
4F
100
AcDbEntity
  8
LEVEL001
  6
Continuous
 62
     7
100
AcDbLine
 10
108.2298304978547
 20
175.3513485146946
 30
0.0
 11
106.9798304978647
 21
176.6013485146946
 31
0.0
  0
LINE
  5
DC
330
4F
100
AcDbEntity
  8
1
  6
Continuous
 62
     7
100
AcDbLine
 10
108.2298304978547
 20
196.3513485147128
 30
0.0
 11
108.2298304978547
 21
175.3513485146946
 31
0.0
  0
LINE
  5
DD
330
4F
100
AcDbEntity
  8
LEVEL001
  6
Continuous
 62
     7
100
AcDbLine
 10
112.7298304980446
 20
196.3513485147128
 30
0.0
 11
112.7298304978447
 21
196.3513485147128
 31
0.0
  0
LINE
  5
DE
330
4F
100
AcDbEntity
  8
1
  6
Continuous
 62
     7
100
AcDbLine
 10
112.7298304980446
 20
175.3513485146996
 30
0.0
 11
112.7298304980446
 21
196.3513485147128
 31
0.0
  0
LINE
  5
DF
330
4F
100
AcDbEntity
  8
LEVEL001
  6
Continuous
 62
     7
100
AcDbLine
 10
108.2298304979846
 20
175.3513485146946
 30
0.0
 11
112.7298304980446
 21
175.3513485146996
 31
0.0
  0
LINE
  5
E0
330
4F
100
AcDbEntity
  8
LEVEL001
  6
Continuous
 62
     7
100
AcDbLine
 10
116.9798304978146
 20
194.8513485147028
 30
0.0
 11
116.9798304978146
 21
201.0792120550928
 31
0.0
  0
LINE
  5
E1
330
4F
100
AcDbEntity
  8
1
  6
Continuous
 62
     7
100
AcDbLine
 10
151.7298304978046
 20
196.3513485146928
 30
0.0
 11
151.7298304978046
 21
175.3513485147067
 31
0.0
  0
LINE
  5
E2
330
4F
100
AcDbEntity
  8
LEVEL001
  6
Continuous
 62
     2
100
AcDbLine
 10
151.9798304978007
 20
195.1013485146928
 30
0.0
 11
150.4798304978046
 21
195.1013485146928
 31
0.0
  0
LINE
  5
E3
330
4F
100
AcDbEntity
  8
LEVEL001
  6
Continuous
 62
     2
100
AcDbLine
 10
151.9798304978007
 20
176.6013485147067
 30
0.0
 11
150.4798304978046
 21
176.6013485147067
 31
0.0
  0
LINE
  5
E4
330
4F
100
AcDbEntity
  8
LEVEL001
  6
Continuous
 62
     2
100
AcDbLine
 10
106.9798304980528
 20
176.6013485146946
 30
0.0
 11
113.9798304978246
 21
176.6013485147046
 31
0.0
  0
LINE
  5
E5
330
4F
100
AcDbEntity
  8
LEVEL001
  6
Continuous
 62
     7
100
AcDbLine
 10
149.4798304978146
 20
174.8468944304548
 30
0.0
 11
149.4798304978146
 21
195.3513485147028
 31
0.0
  0
LINE
  5
E6
330
4F
100
AcDbEntity
  8
LEVEL001
  6
Continuous
 62
     7
100
AcDbLine
 10
116.9798304978146
 20
176.8513485146995
 30
0.0
 11
113.9798304978246
 21
176.8513485146987
 31
0.0
  0
LINE
  5
E7
330
4F
100
AcDbEntity
  8
LEVEL001
  6
Continuous
 62
     7
100
AcDbLine
 10
116.9798304978146
 20
194.8513485147028
 30
0.0
 11
113.9798304978246
 21
194.8513485147028
 31
0.0
  0
LINE
  5
E8
330
4F
100
AcDbEntity
  8
LEVEL001
  6
Continuous
 62
     7
100
AcDbLine
 10
118.2430948548447
 20
203.3513485147328
 30
0.0
 11
148.2165661407847
 21
203.3513485147328
 31
0.0
  0
LINE
  5
E9
330
4F
100
AcDbEntity
  8
LEVEL001
  6
Continuous
 62
     7
100
AcDbLine
 10
106.9798304980528
 20
176.6013485146946
 30
0.0
 11
106.9798304978246
 21
195.1013485146828
 31
0.0
  0
LINE
  5
EA
330
4F
100
AcDbEntity
  8
LEVEL001
  6
Continuous
 62
     7
100
AcDbLine
 10
112.7298304980446
 20
175.3513485146996
 30
0.0
 11
113.9798304978246
 21
176.6013485147046
 31
0.0
  0
LINE
  5
EB
330
4F
100
AcDbEntity
  8
LEVEL001
  6
Continuous
 62
     2
100
AcDbLine
 10
106.9798304978647
 20
176.6013485146946
 30
0.0
 11
106.9798304980528
 21
176.6013485146946
 31
0.0
  0
LINE
  5
EC
330
4F
100
AcDbEntity
  8
LEVEL001
  6
Continuous
 62
     7
100
AcDbLine
 10
108.2298304979846
 20
175.3513485146946
 30
0.0
 11
108.2298304978547
 21
175.3513485146946
 31
0.0
  0
LINE
  5
ED
330
4F
100
AcDbEntity
  8
LEVEL001
  6
Continuous
 62
     7
100
AcDbLine
 10
113.9798304978246
 20
176.6013485147046
 30
0.0
 11
113.9798304978246
 21
176.8513485146987
 31
0.0
  0
LINE
  5
EE
330
4F
100
AcDbEntity
  8
LEVEL001
  6
Continuous
 62
     7
100
AcDbLine
 10
113.9798304978246
 20
195.1013485147328
 30
0.0
 11
112.7298304980446
 21
196.3513485147128
 31
0.0
  0
LINE
  5
EF
330
4F
100
AcDbEntity
  8
LEVEL001
  6
Continuous
 62
     7
100
AcDbLine
 10
112.7298304978447
 20
196.3513485147128
 30
0.0
 11
108.2298304978547
 21
196.3513485147128
 31
0.0
  0
LINE
  5
F0
330
4F
100
AcDbEntity
  8
LEVEL001
  6
Continuous
 62
     2
100
AcDbLine
 10
106.9798304978246
 20
195.1013485146828
 30
0.0
 11
113.9798304978246
 21
195.1013485147328
 31
0.0
  0
LINE
  5
F1
330
4F
100
AcDbEntity
  8
LEVEL001
  6
Continuous
 62
     7
100
AcDbLine
 10
108.2298304978547
 20
196.3513485147128
 30
0.0
 11
106.9798304978246
 21
195.1013485146828
 31
0.0
  0
LINE
  5
F2
330
4F
100
AcDbEntity
  8
LEVEL001
  6
Continuous
 62
     7
100
AcDbLine
 10
113.9798304978246
 20
176.8513485146987
 30
0.0
 11
113.9798304978246
 21
195.1013485147328
 31
0.0
  0
LINE
  5
F3
330
4F
100
AcDbEntity
  8
LEVEL001
  6
Continuous
 62
     7
100
AcDbLine
 10
151.7298304978046
 20
175.3513485147067
 30
0.0
 11
151.9798304978007
 21
175.3513485147066
 31
0.0
  0
LINE
  5
F4
330
4F
100
AcDbEntity
  8
LEVEL001
  6
Continuous
 62
     7
100
AcDbLine
 10
151.7298304978046
 20
196.3513485146928
 30
0.0
 11
151.9798304978007
 21
196.3513485146928
 31
0.0
  0
LINE
  5
F5
330
4F
100
AcDbEntity
  8
LEVEL001
  6
Continuous
 62
     7
100
AcDbLine
 10
140.7298304978146
 20
171.3513485147137
 30
0.0
 11
148.3680590654646
 21
173.3980056910207
 31
0.0
  0
LINE
  5
F6
330
4F
100
AcDbEntity
  8
LEVEL001
  6
Continuous
 62
     7
100
AcDbLine
 10
140.7298304978146
 20
171.3513485147137
 30
0.0
 11
133.2298304978146
 21
171.3513485147317
 31
0.0
  0
LINE
  5
F7
330
4F
100
AcDbEntity
  8
LEVEL001
  6
Continuous
 62
     7
100
AcDbLine
 10
125.7298304978146
 20
171.3513485147137
 30
0.0
 11
118.0916019301607
 21
173.3980056910212
 31
0.0
  0
LINE
  5
F8
330
4F
100
AcDbEntity
  8
LEVEL001
  6
Continuous
 62
     7
100
AcDbLine
 10
125.7298304978146
 20
171.3513485147137
 30
0.0
 11
133.2298304978146
 21
171.3513485147317
 31
0.0
  0
LINE
  5
F9
330
4F
100
AcDbEntity
  8
LEVEL001
  6
Continuous
 62
     7
100
AcDbLine
 10
149.4798304978046
 20
194.8513485147028
 30
0.0
 11
149.4798304978146
 21
195.3513485147028
 31
0.0
  0
LINE
  5
FA
330
4F
100
AcDbEntity
  8
LEVEL001
  6
Continuous
 62
     7
100
AcDbLine
 10
116.9798304978146
 20
174.8468944304548
 30
0.0
 11
116.9798304978146
 21
176.8513485146995
 31
0.0
  0
LINE
  5
FB
330
4F
100
AcDbEntity
  8
LEVEL001
  6
Continuous
 62
     7
100
AcDbLine
 10
150.4798304978046
 20
194.8513485147028
 30
0.0
 11
150.4798304978046
 21
195.1013485146928
 31
0.0
  0
LINE
  5
FC
330
4F
100
AcDbEntity
  8
LEVEL001
  6
Continuous
 62
     7
100
AcDbLine
 10
150.4798304978046
 20
176.6013485147067
 30
0.0
 11
150.4798304978046
 21
194.9513485147027
 31
0.0
  0
LINE
  5
FD
330
4F
100
AcDbEntity
  8
LEVEL001
  6
Continuous
 62
     7
100
AcDbLine
 10
150.4798304978046
 20
176.6013485147067
 30
0.0
 11
151.7298304978046
 21
175.3513485147067
 31
0.0
  0
LINE
  5
FE
330
4F
100
AcDbEntity
  8
LEVEL001
  6
Continuous
 62
     7
100
AcDbLine
 10
117.7432661923567
 20
203.8644369888866
 30
0.0
 11
118.4121597589886
 21
229.4084517327408
 31
0.0
  0
LINE
  5
FF
330
4F
100
AcDbEntity
  8
LEVEL001
  6
Continuous
 62
     7
100
AcDbLine
 10
116.8604173131647
 20
209.3513485147328
 30
0.0
 11
104.2298304978146
 21
209.3513485147328
 31
0.0
  0
LINE
  5
100
330
4F
100
AcDbEntity
  8
LEVEL001
  6
Continuous
 62
     7
100
AcDbLine
 10
103.2298304978146
 20
210.3513485147328
 30
0.0
 11
103.2298304978146
 21
225.6095348444726
 31
0.0
  0
LINE
  5
101
330
4F
100
AcDbEntity
  8
LEVEL001
  6
Continuous
 62
     7
100
AcDbLine
 10
117.5137628176847
 20
227.3070885835028
 30
0.0
 11
104.1774945415647
 21
226.6081643792327
 31
0.0
  0
LINE
  5
102
330
4F
100
AcDbEntity
  8
LEVEL001
  6
Continuous
 62
     7
100
AcDbLine
 10
148.7163948032727
 20
203.8644369888866
 30
0.0
 11
148.0475012366347
 21
229.4084517327325
 31
0.0
  0
LINE
  5
103
330
4F
100
AcDbEntity
  8
LEVEL001
  6
Continuous
 62
     7
100
AcDbLine
 10
150.4798304978046
 20
195.1013485146928
 30
0.0
 11
151.7298304978046
 21
196.3513485146928
 31
0.0
  0
LINE
  5
104
330
4F
100
AcDbEntity
  8
LEVEL001
  6
Continuous
 62
     7
100
AcDbLine
 10
149.4798304978146
 20
195.3513485147028
 30
0.0
 11
149.4798304978146
 21
201.0792120550928
 31
0.0
  0
LINE
  5
105
330
4F
100
AcDbEntity
  8
LEVEL001
  6
Continuous
 62
     7
100
AcDbLine
 10
117.7210114527147
 20
202.0451378813828
 30
0.0
 11
119.9886495429147
 21
202.6527496763727
 31
0.0
  0
LINE
  5
106
330
4F
100
AcDbEntity
  8
LEVEL001
  6
Continuous
 62
     7
100
AcDbLine
 10
148.7386495429147
 20
202.0451378813828
 30
0.0
 11
146.4710114527116
 21
202.6527496763738
 31
0.0
  0
LINE
  5
107
330
4F
100
AcDbEntity
  8
1
  6
PHANTOM
 62
     4
100
AcDbLine
 10
133.2298304978146
 20
234.3513485147317
 30
0.0
 11
133.2298304978146
 21
168.3513485147317
 31
0.0
  0
LINE
  5
108
330
4F
100
AcDbEntity
  8
1
  6
PHANTOM
 62
     4
100
AcDbLine
 10
160.4798304977996
 20
185.8513485146987
 30
0.0
 11
103.9798304978447
 21
185.8513485146987
 31
0.0
  0
LINE
  5
109
330
4F
100
AcDbEntity
  8
LEVEL001
  6
Continuous
 62
     7
100
AcDbLine
 10
116.9798304978146
 20
176.8513485146995
 30
0.0
 11
116.9798304978146
 21
194.8513485147028
 31
0.0
  0
LINE
  5
10A
330
4F
100
AcDbEntity
  8
LEVEL001
  6
Continuous
 62
     7
100
AcDbLine
 10
113.9798304983556
 20
336.6654683317552
 30
0.0
 11
112.7298304985257
 21
335.4154683328752
 31
0.0
  0
LINE
  5
10B
330
4F
100
AcDbEntity
  8
LEVEL001
  6
Continuous
 62
     7
100
AcDbLine
 10
112.7298304967657
 20
335.4154683311152
 30
0.0
 11
111.8147669881457
 21
335.4154683320353
 31
0.0
  0
LINE
  5
10C
330
4F
100
AcDbEntity
  8
1
  6
Continuous
 62
     7
100
AcDbLine
 10
112.7298304985257
 20
356.4154683313652
 30
0.0
 11
112.7298304985257
 21
350.4881214333923
 31
0.0
  0
LINE
  5
10D
330
4F
100
AcDbEntity
  8
LEVEL001
  6
Continuous
 62
     7
100
AcDbLine
 10
112.7298304985257
 20
350.4881214333923
 30
0.0
 11
110.2298304969676
 21
349.9133564924682
 31
0.0
  0
LINE
  5
10E
330
4F
100
AcDbEntity
  8
1
  6
Continuous
 62
     7
100
AcDbLine
 10
112.7298304985257
 20
341.3428152321533
 30
0.0
 11
112.7298304985257
 21
335.4154683328752
 31
0.0
  0
LINE
  5
10F
330
4F
100
AcDbEntity
  8
LEVEL001
  6
Continuous
 62
     7
100
AcDbLine
 10
112.7298304985257
 20
341.3428152321533
 30
0.0
 11
110.2298304970476
 21
341.9175801730571
 31
0.0
  0
LINE
  5
110
330
4F
100
AcDbEntity
  8
LEVEL001
  6
Continuous
 62
     7
100
AcDbLine
 10
112.7298304985257
 20
335.4154683328752
 30
0.0
 11
112.7298304967657
 21
335.4154683311152
 31
0.0
  0
LINE
  5
111
330
4F
100
AcDbEntity
  8
LEVEL001
  6
Continuous
 62
     7
100
AcDbLine
 10
124.0355738214688
 20
336.7249490762893
 30
0.0
 11
124.0374423411659
 21
336.7230801767053
 31
0.0
  0
ARC
  5
112
330
4F
100
AcDbEntity
  8
LEVEL001
  6
Continuous
 62
     7
100
AcDbCircle
 10
149.9798304973091
 20
336.6654683325853
 30
0.0
 40
0.500000000496442
100
AcDbArc
 50
180.0
 51
0.00000003207383
  0
ARC
  5
113
330
4F
100
AcDbEntity
  8
LEVEL001
  6
Continuous
 62
     7
100
AcDbCircle
 10
149.9798304973091
 20
355.1654683314753
 30
0.0
 40
0.5000000004964704
100
AcDbArc
 50
359.9999999667211
 51
180.0
  0
LINE
  5
114
330
4F
100
AcDbEntity
  8
LEVEL001
  6
Continuous
 62
     7
100
AcDbLine
 10
124.0374423411659
 20
336.7230801767053
 30
0.0
 11
124.0393112405389
 21
336.7212116576902
 31
0.0
  0
ARC
  5
115
330
4F
100
AcDbEntity
  8
LEVEL001
  6
Continuous
 62
     7
100
AcDbCircle
 10
133.2501818711958
 20
345.8889459044352
 30
0.0
 40
14.00000000000049
100
AcDbArc
 50
186.0414780145304
 51
244.5308470516502
  0
ARC
  5
116
330
4F
100
AcDbEntity
  8
LEVEL001
  6
Continuous
 62
     7
100
AcDbCircle
 10
133.2298304962394
 20
345.9154683328605
 30
0.0
 40
13.00000000011468
100
AcDbArc
 50
186.6258095655245
 51
225.0952890572628
  0
ARC
  5
117
330
4F
100
AcDbEntity
  8
LEVEL001
  6
Continuous
 62
     7
100
AcDbCircle
 10
133.2501818711958
 20
345.9419907613951
 30
0.0
 40
14.0000000000002
100
AcDbArc
 50
115.4691529498174
 51
173.9585219869499
  0
ARC
  5
118
330
4F
100
AcDbEntity
  8
LEVEL001
  6
Continuous
 62
     7
100
AcDbCircle
 10
133.2298304968664
 20
345.9154683326834
 30
0.0
 40
13.00000000076452
100
AcDbArc
 50
134.904710945302
 51
173.3741904350282
  0
ARC
  5
119
330
4F
100
AcDbEntity
  8
LEVEL001
  6
Continuous
 62
     7
100
AcDbCircle
 10
133.2298304965958
 20
345.9154683329147
 30
0.0
 40
16.2500000002016
100
AcDbArc
 50
200.8940888485494
 51
159.1059111526172
  0
ARC
  5
11A
330
4F
100
AcDbEntity
  8
LEVEL001
  6
Continuous
 62
     7
100
AcDbCircle
 10
106.2298304961358
 20
345.9154683327752
 30
0.0
 40
2.999999999997901
100
AcDbArc
 50
102.9476479058364
 51
257.0523520942062
  0
ARC
  5
11B
330
4F
100
AcDbEntity
  8
LEVEL001
  6
Continuous
 62
     7
100
AcDbCircle
 10
149.9798304978046
 20
194.9513485147027
 30
0.0
 40
0.5
100
AcDbArc
 50
0.0
 51
179.9999999988536
  0
ARC
  5
11C
330
4F
100
AcDbEntity
  8
LEVEL001
  6
Continuous
 62
     7
100
AcDbCircle
 10
149.9798304977747
 20
176.7513485146876
 30
0.0
 40
0.5000000000002274
100
AcDbArc
 50
180.0
 51
0.0
  0
ARC
  5
11D
330
4F
100
AcDbEntity
  8
LEVEL001
  6
Continuous
 62
     7
100
AcDbCircle
 10
147.9798304978146
 20
174.8468944304548
 30
0.0
 40
1.499999999999499
100
AcDbArc
 50
284.9999999998557
 51
0.0
  0
ARC
  5
11E
330
4F
100
AcDbEntity
  8
LEVEL001
  6
Continuous
 62
     7
100
AcDbCircle
 10
118.4798304978146
 20
174.8468944304548
 30
0.0
 40
1.5
100
AcDbArc
 50
180.0
 51
254.9999999999955
  0
ARC
  5
11F
330
4F
100
AcDbEntity
  8
LEVEL001
  6
Continuous
 62
     7
100
AcDbCircle
 10
116.8604173131647
 20
208.3513485147328
 30
0.0
 40
1.000000000000348
100
AcDbArc
 50
358.499999999988
 51
90.0
  0
ARC
  5
120
330
4F
100
AcDbEntity
  8
LEVEL001
  6
Continuous
 62
     7
100
AcDbCircle
 10
104.2298304978146
 20
210.3513485147328
 30
0.0
 40
1.0
100
AcDbArc
 50
180.0
 51
270.0
  0
ARC
  5
121
330
4F
100
AcDbEntity
  8
LEVEL001
  6
Continuous
 62
     7
100
AcDbCircle
 10
104.2298304978146
 20
225.6095348444726
 30
0.0
 40
1.000000000005896
100
AcDbArc
 50
93.0000000003817
 51
180.0
  0
ARC
  5
122
330
4F
100
AcDbEntity
  8
LEVEL001
  6
Continuous
 62
     7
100
AcDbCircle
 10
133.2298304978146
 20
131.3513485147317
 30
0.0
 40
100.0000000000034
100
AcDbArc
 50
81.97669424178497
 51
90.0
  0
ARC
  5
123
330
4F
100
AcDbEntity
  8
LEVEL001
  6
Continuous
 62
     7
100
AcDbCircle
 10
147.0478439116547
 20
229.3822747844327
 30
0.0
 40
1.000000000004236
100
AcDbArc
 50
1.49999999953047
 51
81.97669424179186
  0
ARC
  5
124
330
4F
100
AcDbEntity
  8
LEVEL001
  6
Continuous
 62
     7
100
AcDbCircle
 10
133.2298304978146
 20
131.3513485147317
 30
0.0
 40
100.0
100
AcDbArc
 50
90.0
 51
98.02330575822059
  0
ARC
  5
125
330
4F
100
AcDbEntity
  8
LEVEL001
  6
Continuous
 62
     7
100
AcDbCircle
 10
119.4118170839647
 20
229.3822747844327
 30
0.0
 40
1.000000000000291
100
AcDbArc
 50
98.02330575820814
 51
178.4999999999883
  0
ARC
  5
126
330
4F
100
AcDbEntity
  8
LEVEL001
  6
Continuous
 62
     7
100
AcDbCircle
 10
117.3828330126047
 20
228.3015991891728
 30
0.0
 40
1.003092198480792
100
AcDbArc
 50
268.5000000020889
 51
2.99999999998064
  0
ARC
  5
127
330
4F
100
AcDbEntity
  8
LEVEL001
  6
Continuous
 62
     7
100
AcDbCircle
 10
148.2165661407847
 20
203.8513485147328
 30
0.0
 40
0.5
100
AcDbArc
 50
270.0
 51
1.49999999998578
  0
ARC
  5
128
330
4F
100
AcDbEntity
  8
LEVEL001
  6
DIVIDE
 62
     7
100
AcDbCircle
 10
118.2430948548447
 20
203.8513485147328
 30
0.0
 40
0.5000000000002177
100
AcDbArc
 50
178.5000000000142
 51
270.0
  0
ARC
  5
129
330
4F
100
AcDbEntity
  8
LEVEL001
  6
Continuous
 62
     7
100
AcDbCircle
 10
119.7298304978146
 20
203.6186755026627
 30
0.0
 40
1.000000000000276
100
AcDbArc
 50
284.999999999852
 51
344.4947312272622
  0
ARC
  5
12A
330
4F
100
AcDbEntity
  8
LEVEL001
  6
Continuous
 62
     7
100
AcDbCircle
 10
117.9798304978146
 20
201.0792120550928
 30
0.0
 40
1.000000000000225
100
AcDbArc
 50
104.999999999841
 51
180.0
  0
ARC
  5
12B
330
4F
100
AcDbEntity
  8
LEVEL001
  6
Continuous
 62
     7
100
AcDbCircle
 10
148.4798304978146
 20
201.0792120550928
 30
0.0
 40
1.0
100
AcDbArc
 50
0.0
 51
75.00000000014802
  0
ARC
  5
12C
330
4F
100
AcDbEntity
  8
LEVEL001
  6
Continuous
 62
     7
100
AcDbCircle
 10
146.7298304978146
 20
203.6186755026627
 30
0.0
 40
0.9999999999998893
100
AcDbArc
 50
195.5052687727395
 51
254.9999999999715
  0
ARC
  5
12D
330
4F
100
AcDbEntity
  8
1
  6
Continuous
 62
     7
100
AcDbCircle
 10
96.31733049780786
 20
185.8513485147011
 30
0.0
 40
22.53750000000682
100
AcDbArc
 50
336.4634221359618
 51
23.53657786403842
  0
ARC
  5
12E
330
4F
100
AcDbEntity
  8
1
  6
Continuous
 62
     7
100
AcDbCircle
 10
170.1423304978213
 20
185.8513485147011
 30
0.0
 40
22.53750000000683
100
AcDbArc
 50
156.4634221359615
 51
203.5365778640382
  0
CIRCLE
  5
12F
330
4F
100
AcDbEntity
  8
LEVEL001
  6
Continuous
 62
     7
100
AcDbCircle
 10
133.2298304965958
 20
345.9154683321252
 30
0.0
 40
14.795614624226
  0
CIRCLE
  5
130
330
4F
100
AcDbEntity
  8
LEVEL001
  6
Continuous
 62
     7
100
AcDbCircle
 10
133.2298304965958
 20
345.9154683321252
 30
0.0
 40
15.49999999999821
  0
MTEXT
  5
132
330
4F
100
AcDbEntity
  8
LEVEL001
 62
     7
100
AcDbMText
 10
126.5614898823058
 20
336.2690074657653
 30
0.0
 40
6.0
 41
0.0
 71
     7
 72
     1
  1
く
  7
CONVERTER_11
 11
0.9396926207859084
 21
-0.3420201433256687
 31
0.0
 73
     1
 44
0.75727272727273
  0
MTEXT
  5
133
330
4F
100
AcDbEntity
  8
LEVEL001
 62
     7
100
AcDbMText
 10
123.4912857883858
 20
339.7393675905253
 30
0.0
 40
6.0
 41
0.0
 71
     7
 72
     1
  1
ら
  7
CONVERTER_11
 11
0.707106781186547
 21
-0.707106781186548
 31
0.0
 73
     1
 44
0.75727272727273
  0
MTEXT
  5
134
330
4F
100
AcDbEntity
  8
LEVEL001
 62
     7
100
AcDbMText
 10
121.7011234271358
 20
344.4204323667252
 30
0.0
 40
6.0
 41
0.0
 71
     7
 72
     1
  1
ひ
  7
CONVERTER_11
 11
0.3420201433256687
 21
-0.9396926207859084
 31
0.0
 73
     1
 44
0.75727272727273
  0
MTEXT
  5
135
330
4F
100
AcDbEntity
  8
LEVEL001
 62
     7
100
AcDbMText
 10
123.1967550091258
 20
352.0155705710054
 30
0.0
 40
6.0
 41
0.0
 71
     8
 72
     1
  1
る
  7
CONVERTER_11
 11
-0.707106781186548
 21
-0.707106781186547
 31
0.0
 73
     1
 44
0.75727272727273
  0
MTEXT
  5
136
330
4F
100
AcDbEntity
  8
LEVEL001
 62
     7
100
AcDbMText
 10
125.0210968479942
 20
354.1242019803368
 30
0.0
 40
5.99999999999999
 41
0.0
 71
     8
 72
     1
  1
じ
  7
CONVERTER_11
 11
-0.3420201433256685
 21
-0.9396926207859083
 31
0.0
 73
     1
 44
0.75727272727273
  0
MTEXT
  5
137
330
4F
100
AcDbEntity
  8
LEVEL001
 62
     7
100
AcDbMText
 10
131.7313878511058
 20
357.7158461979452
 30
0.0
 40
6.0
 41
0.0
 71
     7
 72
     1
  1
と
  7
CONVERTER_11
 11
-0.9396926207859084
 21
-0.3420201433256687
 31
0.0
 73
     1
 44
0.75727272727273
  0
ENDBLK
  5
52
330
4F
100
AcDbEntity
  8
0
100
AcDbBlockEnd
  0
BLOCK
  5
54
330
53
100
AcDbEntity
  8
0
100
AcDbBlockBegin
  2
開示A4
 70
     0
 10
0.0
 20
0.0
 30
0.0
  3
開示A4
  1

  0
POINT
  5
138
330
53
100
AcDbEntity
  8
1
 62
     4
100
AcDbPoint
 10
93.75
 20
17.0
 30
0.0
  0
POINT
  5
139
330
53
100
AcDbEntity
  8
1
 62
     4
100
AcDbPoint
 10
85.25
 20
17.0
 30
0.0
  0
POINT
  5
13A
330
53
100
AcDbEntity
  8
1
 62
     4
100
AcDbPoint
 10
106.5
 20
19.00000000000001
 30
0.0
  0
POINT
  5
13B
330
53
100
AcDbEntity
  8
1
 62
     4
100
AcDbPoint
 10
106.5
 20
12.5
 30
0.0
  0
POINT
  5
13C
330
53
100
AcDbEntity
  8
1
 62
     4
100
AcDbPoint
 10
112.25
 20
12.5
 30
0.0
  0
POINT
  5
13D
330
53
100
AcDbEntity
  8
1
 62
     4
100
AcDbPoint
 10
100.75
 20
12.5
 30
0.0
  0
POINT
  5
13E
330
53
100
AcDbEntity
  8
1
 62
     4
100
AcDbPoint
 10
123.5
 20
19.00000000000001
 30
0.0
  0
POINT
  5
13F
330
53
100
AcDbEntity
  8
1
 62
     4
100
AcDbPoint
 10
123.5
 20
12.5
 30
0.0
  0
POINT
  5
140
330
53
100
AcDbEntity
  8
1
 62
     4
100
AcDbPoint
 10
129.25
 20
12.5
 30
0.0
  0
POINT
  5
141
330
53
100
AcDbEntity
  8
1
 62
     4
100
AcDbPoint
 10
117.75
 20
12.5
 30
0.0
  0
POINT
  5
142
330
53
100
AcDbEntity
  8
1
 62
     4
100
AcDbPoint
 10
140.5
 20
19.00000000000001
 30
0.0
  0
POINT
  5
143
330
53
100
AcDbEntity
  8
1
 62
     4
100
AcDbPoint
 10
140.5
 20
12.5
 30
0.0
  0
POINT
  5
144
330
53
100
AcDbEntity
  8
1
 62
     4
100
AcDbPoint
 10
146.25
 20
12.5
 30
0.0
  0
POINT
  5
145
330
53
100
AcDbEntity
  8
1
 62
     4
100
AcDbPoint
 10
134.75
 20
12.5
 30
0.0
  0
POINT
  5
146
330
53
100
AcDbEntity
  8
1
 62
     4
100
AcDbPoint
 10
151.75
 20
12.5
 30
0.0
  0
POINT
  5
147
330
53
100
AcDbEntity
  8
1
 62
     4
100
AcDbPoint
 10
163.25
 20
12.5
 30
0.0
  0
POINT
  5
148
330
53
100
AcDbEntity
  8
1
 62
     4
100
AcDbPoint
 10
157.5
 20
12.5
 30
0.0
  0
POINT
  5
149
330
53
100
AcDbEntity
  8
1
 62
     4
100
AcDbPoint
 10
57.0
 20
14.25
 30
0.0
  0
POINT
  5
14A
330
53
100
AcDbEntity
  8
1
 62
     4
100
AcDbPoint
 10
57.0
 20
22.75000000000001
 30
0.0
  0
POINT
  5
14B
330
53
100
AcDbEntity
  8
1
 62
     4
100
AcDbPoint
 10
47.5
 20
282.0000000000003
 30
0.0
  0
POINT
  5
14C
330
53
100
AcDbEntity
  8
1
 62
     4
100
AcDbPoint
 10
157.5
 20
19.00000000000001
 30
0.0
  0
POINT
  5
14D
330
53
100
AcDbEntity
  8
1
 62
     4
100
AcDbPoint
 10
57.0
 20
16.25
 30
0.0
  0
POINT
  5
14E
330
53
100
AcDbEntity
  8
1
 62
     4
100
AcDbPoint
 10
57.0
 20
24.75000000000001
 30
0.0
  0
POINT
  5
14F
330
53
100
AcDbEntity
  8
1
 62
     4
100
AcDbPoint
 10
57.0
 20
20.75000000000001
 30
0.0
  0
POINT
  5
150
330
53
100
AcDbEntity
  8
1
 62
     4
100
AcDbPoint
 10
57.0
 20
12.25
 30
0.0
  0
POINT
  5
151
330
53
100
AcDbEntity
  8
1
 62
     4
100
AcDbPoint
 10
34.0
 20
34.00000000000001
 30
0.0
  0
LINE
  5
152
330
53
100
AcDbEntity
  8
1
  6
Continuous
 62
     7
100
AcDbLine
 10
105.0
 20
10.0
 30
0.0
 11
200.0
 21
10.0
 31
0.0
  0
LINE
  5
153
330
53
100
AcDbEntity
  8
1
  6
Continuous
 62
     2
100
AcDbLine
 10
105.0
 20
10.0
 30
0.0
 11
105.0
 21
5.0
 31
0.0
  0
LINE
  5
154
330
53
100
AcDbEntity
  8
1
  6
Continuous
 62
     7
100
AcDbLine
 10
200.0
 20
148.5
 30
0.0
 11
200.0
 21
287.0000000000003
 31
0.0
  0
LINE
  5
155
330
53
100
AcDbEntity
  8
1
  6
Continuous
 62
     2
100
AcDbLine
 10
200.0
 20
148.5
 30
0.0
 11
205.0
 21
148.5
 31
0.0
  0
LINE
  5
156
330
53
100
AcDbEntity
  8
1
  6
Continuous
 62
     7
100
AcDbLine
 10
25.0
 20
148.5
 30
0.0
 11
25.0
 21
287.0000000000003
 31
0.0
  0
LINE
  5
157
330
53
100
AcDbEntity
  8
1
  6
Continuous
 62
     2
100
AcDbLine
 10
25.0
 20
148.5
 30
0.0
 11
20.0
 21
148.5
 31
0.0
  0
LINE
  5
158
330
53
100
AcDbEntity
  8
1
  6
Continuous
 62
     7
100
AcDbLine
 10
105.0
 20
287.0000000000003
 30
0.0
 11
25.0
 21
287.0000000000003
 31
0.0
  0
LINE
  5
159
330
53
100
AcDbEntity
  8
1
  6
Continuous
 62
     2
100
AcDbLine
 10
105.0
 20
287.0000000000003
 30
0.0
 11
105.0
 21
292.0000000000003
 31
0.0
  0
LINE
  5
15A
330
53
100
AcDbEntity
  8
1
  6
Continuous
 62
     2
100
AcDbLine
 10
166.0
 20
20.00000000000001
 30
0.0
 11
200.0
 21
20.00000000000001
 31
0.0
  0
LINE
  5
15B
330
53
100
AcDbEntity
  8
1
  6
Continuous
 62
     2
100
AcDbLine
 10
98.0
 20
27.00000000000001
 30
0.0
 11
98.0
 21
9.99999999999999
 31
0.0
  0
LINE
  5
15C
330
53
100
AcDbEntity
  8
1
  6
Continuous
 62
     2
100
AcDbLine
 10
115.0
 20
27.00000000000001
 30
0.0
 11
115.0
 21
9.99999999999999
 31
0.0
  0
LINE
  5
15D
330
53
100
AcDbEntity
  8
1
  6
Continuous
 62
     2
100
AcDbLine
 10
149.0
 20
27.00000000000001
 30
0.0
 11
149.0
 21
10.0
 31
0.0
  0
LINE
  5
15E
330
53
100
AcDbEntity
  8
1
  6
Continuous
 62
     2
100
AcDbLine
 10
132.0
 20
27.00000000000001
 30
0.0
 11
132.0
 21
9.99999999999999
 31
0.0
  0
LINE
  5
15F
330
53
100
AcDbEntity
  8
1
  6
Continuous
 62
     2
100
AcDbLine
 10
166.0
 20
27.00000000000001
 30
0.0
 11
166.0
 21
10.0
 31
0.0
  0
LINE
  5
160
330
53
100
AcDbEntity
  8
1
  6
Continuous
 62
     2
100
AcDbLine
 10
55.0
 20
277.0000000000003
 30
0.0
 11
25.0
 21
277.0000000000003
 31
0.0
  0
LINE
  5
161
330
53
100
AcDbEntity
  8
1
  6
Continuous
 62
     7
100
AcDbLine
 10
25.0
 20
10.0
 30
0.0
 11
25.0
 21
148.5
 31
0.0
  0
LINE
  5
162
330
53
100
AcDbEntity
  8
1
  6
Continuous
 62
     2
100
AcDbLine
 10
40.0
 20
287.0000000000003
 30
0.0
 11
40.0
 21
277.0000000000003
 31
0.0
  0
LINE
  5
163
330
53
100
AcDbEntity
  8
1
  6
Continuous
 62
     2
100
AcDbLine
 10
55.0
 20
287.0000000000003
 30
0.0
 11
55.0
 21
277.0000000000003
 31
0.0
  0
LINE
  5
164
330
53
100
AcDbEntity
  8
1
  6
Continuous
 62
     2
100
AcDbLine
 10
33.0
 20
41.00000000000001
 30
0.0
 11
33.0
 21
27.0
 31
0.0
  0
LINE
  5
165
330
53
100
AcDbEntity
  8
1
  6
Continuous
 62
     7
100
AcDbLine
 10
200.0
 20
27.00000000000001
 30
0.0
 11
25.0
 21
27.00000000000001
 31
0.0
  0
LINE
  5
166
330
53
100
AcDbEntity
  8
1
  6
Continuous
 62
     7
100
AcDbLine
 10
25.0
 20
41.0
 30
0.0
 11
200.0
 21
41.0
 31
0.0
  0
LINE
  5
167
330
53
100
AcDbEntity
  8
1
  6
PHANTOM
 62
     4
100
AcDbLine
 10
0.0
 20
0.0
 30
0.0
 11
210.0
 21
0.0
 31
0.0
  0
LINE
  5
168
330
53
100
AcDbEntity
  8
1
  6
PHANTOM
 62
     4
100
AcDbLine
 10
210.0
 20
0.0
 30
0.0
 11
210.0
 21
297.0
 31
0.0
  0
LINE
  5
169
330
53
100
AcDbEntity
  8
1
  6
PHANTOM
 62
     4
100
AcDbLine
 10
210.0
 20
297.0
 30
0.0
 11
0.0
 21
297.0
 31
0.0
  0
LINE
  5
16A
330
53
100
AcDbEntity
  8
1
  6
PHANTOM
 62
     4
100
AcDbLine
 10
0.0
 20
297.0
 30
0.0
 11
0.0
 21
0.0
 31
0.0
  0
LINE
  5
16B
330
53
100
AcDbEntity
  8
1
  6
Continuous
 62
     7
100
AcDbLine
 10
25.0
 20
10.0
 30
0.0
 11
105.0
 21
10.0
 31
0.0
  0
LINE
  5
16C
330
53
100
AcDbEntity
  8
1
  6
Continuous
 62
     7
100
AcDbLine
 10
200.0
 20
10.0
 30
0.0
 11
200.0
 21
148.5
 31
0.0
  0
LINE
  5
16D
330
53
100
AcDbEntity
  8
1
  6
Continuous
 62
     7
100
AcDbLine
 10
200.0
 20
287.0000000000003
 30
0.0
 11
105.0
 21
287.0000000000003
 31
0.0
  0
LINE
  5
16E
330
53
100
AcDbEntity
  8
1
  6
Continuous
 62
     2
100
AcDbLine
 10
25.0
 20
18.50000000000001
 30
0.0
 11
81.0
 21
18.50000000000001
 31
0.0
  0
LINE
  5
16F
330
53
100
AcDbEntity
  8
1
  6
Continuous
 62
     2
100
AcDbLine
 10
33.0
 20
27.0
 30
0.0
 11
33.0
 21
10.0
 31
0.0
  0
LINE
  5
170
330
53
100
AcDbEntity
  8
1
  6
Continuous
 62
     7
100
AcDbLine
 10
191.0
 20
24.70000000000001
 30
0.0
 11
191.0
 21
22.30000000000001
 31
0.0
  0
LINE
  5
171
330
53
100
AcDbEntity
  8
1
  6
Continuous
 62
     7
100
AcDbLine
 10
191.0
 20
24.70000000000001
 30
0.0
 11
196.0
 21
25.50000000000001
 31
0.0
  0
LINE
  5
172
330
53
100
AcDbEntity
  8
1
  6
Continuous
 62
     7
100
AcDbLine
 10
196.0
 20
25.50000000000001
 30
0.0
 11
196.0
 21
21.50000000000001
 31
0.0
  0
LINE
  5
173
330
53
100
AcDbEntity
  8
1
  6
Continuous
 62
     7
100
AcDbLine
 10
196.0
 20
21.50000000000001
 30
0.0
 11
191.0
 21
22.30000000000001
 31
0.0
  0
LINE
  5
174
330
53
100
AcDbEntity
  8
1
  6
DOT_CENTER
 62
     2
100
AcDbLine
 10
184.0
 20
23.50000000000001
 30
0.0
 11
197.0
 21
23.50000000000001
 31
0.0
  0
LINE
  5
175
330
53
100
AcDbEntity
  8
1
  6
DOT_CENTER
 62
     2
100
AcDbLine
 10
187.0
 20
26.50000000000001
 30
0.0
 11
187.0
 21
20.50000000000001
 31
0.0
  0
LINE
  5
176
330
53
100
AcDbEntity
  8
1
  6
Continuous
 62
     2
100
AcDbLine
 10
81.0
 20
27.00000000000001
 30
0.0
 11
81.0
 21
10.0
 31
0.0
  0
CIRCLE
  5
177
330
53
100
AcDbEntity
  8
1
  6
Continuous
 62
     7
100
AcDbCircle
 10
103.5
 20
12.5
 30
0.0
 40
0.2999999999999972
  0
CIRCLE
  5
178
330
53
100
AcDbEntity
  8
1
  6
Continuous
 62
     7
100
AcDbCircle
 10
109.5
 20
12.5
 30
0.0
 40
0.2999999999999972
  0
CIRCLE
  5
179
330
53
100
AcDbEntity
  8
1
  6
Continuous
 62
     7
100
AcDbCircle
 10
120.5
 20
12.5
 30
0.0
 40
0.2999999999999972
  0
CIRCLE
  5
17A
330
53
100
AcDbEntity
  8
1
  6
Continuous
 62
     7
100
AcDbCircle
 10
126.5
 20
12.5
 30
0.0
 40
0.2999999999999972
  0
CIRCLE
  5
17B
330
53
100
AcDbEntity
  8
1
  6
Continuous
 62
     7
100
AcDbCircle
 10
137.5
 20
12.5
 30
0.0
 40
0.3000000000000114
  0
CIRCLE
  5
17C
330
53
100
AcDbEntity
  8
1
  6
Continuous
 62
     7
100
AcDbCircle
 10
143.5
 20
12.5
 30
0.0
 40
0.3000000000000114
  0
CIRCLE
  5
17D
330
53
100
AcDbEntity
  8
1
  6
Continuous
 62
     7
100
AcDbCircle
 10
160.5
 20
12.5
 30
0.0
 40
0.3000000000000114
  0
CIRCLE
  5
17E
330
53
100
AcDbEntity
  8
1
  6
Continuous
 62
     7
100
AcDbCircle
 10
154.5
 20
12.5
 30
0.0
 40
0.3000000000000114
  0
CIRCLE
  5
17F
330
53
100
AcDbEntity
  8
1
  6
Continuous
 62
     7
100
AcDbCircle
 10
187.0
 20
23.50000000000001
 30
0.0
 40
1.200000000000102
  0
CIRCLE
  5
180
330
53
100
AcDbEntity
  8
1
  6
Continuous
 62
     7
100
AcDbCircle
 10
187.0
 20
23.50000000000001
 30
0.0
 40
2.0
  0
CIRCLE
  5
181
330
53
100
AcDbEntity
  8
1
  6
DOT_CENTER
 62
     7
100
AcDbCircle
 10
89.5
 20
16.0
 30
0.0
 40
0.1000000000000227
  0
CIRCLE
  5
182
330
53
100
AcDbEntity
  8
1
  6
DOT_CENTER
 62
     7
100
AcDbCircle
 10
89.5
 20
18.0
 30
0.0
 40
0.1000000000000227
  0
MTEXT
  5
184
330
53
100
AcDbEntity
  8
1
 62
     7
100
AcDbMText
 10
188.5
 20
15.0
 30
0.0
 40
3.0
 41
0.0
 71
     5
 72
     1
  1
三栄水栓製作所
  7
CONVERTER_12
 73
     1
 44
1.0
  0
MTEXT
  5
185
330
53
100
AcDbEntity
  8
1
 62
     7
100
AcDbMText
 10
171.5
 20
15.0
 30
0.0
 40
2.5
 41
0.0
 71
     5
 72
     1
  1
株式会社
  7
CONVERTER_12
 73
     1
 44
1.0
  0
MTEXT
  5
186
330
53
100
AcDbEntity
  8
1
 62
     2
100
AcDbMText
 10
32.5
 20
282.0000000000003
 30
0.0
 40
5.0
 41
0.0
 71
     5
 72
     1
  1
図番
  7
CONVERTER_12
 73
     1
 44
0.45454545454545
  0
MTEXT
  5
187
330
53
100
AcDbEntity
  8
1
 62
     2
100
AcDbMText
 10
29.0
 20
34.00000000000001
 30
0.0
 40
3.5
 41
0.0
 71
     5
 72
     1
  1
備考
  7
CONVERTER_12
 73
     1
 44
0.45454545454545
  0
MTEXT
  5
188
330
53
100
AcDbEntity
  8
1
 62
     2
100
AcDbMText
 10
29.0
 20
22.75
 30
0.0
 40
3.5
 41
0.0
 71
     5
 72
     1
  1
品名
  7
CONVERTER_12
 73
     1
 44
0.72727272727273
  0
MTEXT
  5
189
330
53
100
AcDbEntity
  8
1
 62
     2
100
AcDbMText
 10
29.0
 20
14.25
 30
0.0
 40
3.5
 41
0.0
 71
     5
 72
     1
  1
品番
  7
CONVERTER_12
 73
     1
 44
0.72727272727273
  0
MTEXT
  5
18A
330
53
100
AcDbEntity
  8
1
 62
     2
100
AcDbMText
 10
101.5
 20
25.00000000000001
 30
0.0
 40
3.0
 41
0.0
 71
     5
 72
     1
  1
承認
  7
CONVERTER_12
 73
     1
 44
0.59090909090909
  0
MTEXT
  5
18B
330
53
100
AcDbEntity
  8
1
 62
     2
100
AcDbMText
 10
175.0
 20
23.50000000000001
 30
0.0
 40
3.5
 41
0.0
 71
     5
 72
     1
  1
第三角法
  7
CONVERTER_12
 73
     1
 44
0.54545454545455
  0
MTEXT
  5
18C
330
53
100
AcDbEntity
  8
1
 62
     2
100
AcDbMText
 10
118.5
 20
25.00000000000001
 30
0.0
 40
3.0
 41
0.0
 71
     5
 72
     1
  1
検図
  7
CONVERTER_12
 73
     1
 44
0.59090909090909
  0
MTEXT
  5
18D
330
53
100
AcDbEntity
  8
1
 62
     2
100
AcDbMText
 10
152.5
 20
25.00000000000001
 30
0.0
 40
3.0
 41
0.0
 71
     5
 72
     1
  1
担当
  7
CONVERTER_12
 73
     1
 44
0.59090909090909
  0
MTEXT
  5
18E
330
53
100
AcDbEntity
  8
1
 62
     2
100
AcDbMText
 10
135.5
 20
25.00000000000001
 30
0.0
 40
3.0
 41
0.0
 71
     5
 72
     1
  1
製図
  7
CONVERTER_12
 73
     1
 44
0.59090909090909
  0
MTEXT
  5
18F
330
53
100
AcDbEntity
  8
1
 62
     2
100
AcDbMText
 10
89.5
 20
24.00000000000001
 30
0.0
 40
3.5
 41
0.0
 71
     5
 72
     1
  1
尺度
  7
CONVERTER_12
 73
     1
 44
0.54545454545455
  0
MTEXT
  5
190
330
53
100
AcDbEntity
  8
1
 62
   250
100
AcDbMText
 10
25.0
 20
5.0
 30
0.0
 40
3.5
 41
0.0
 71
     4
 72
     1
  1
備考欄の文字列 原点位置=4
  7
CONVERTER_12
 73
     1
 44
0.54545454545455
  0
ENDBLK
  5
55
330
53
100
AcDbEntity
  8
0
100
AcDbBlockEnd
  0
BLOCK
  5
251
330
24A
100
AcDbEntity
  8
0
100
AcDbBlockBegin
  2
*D4
 70
     1
 10
0.0
 20
0.0
 30
0.0
  3
*D4
  1

  0
LINE
  5
24B
330
24A
100
AcDbEntity
  8
1
  6
Continuous
 62
     2
100
AcDbLine
 10
229.4798304978008
 20
252.3513485146988
 30
0.0
 11
229.4798304978008
 21
103.3513485146988
 31
0.0
  0
LINE
  5
24C
330
24A
100
AcDbEntity
  8
1
  6
Continuous
 62
     2
100
AcDbLine
 10
210.2298304978008
 20
252.3513485146988
 30
0.0
 11
230.9798304978008
 21
252.3513485146988
 31
0.0
  0
LINE
  5
24D
330
24A
100
AcDbEntity
  8
1
  6
Continuous
 62
     2
100
AcDbLine
 10
202.1298304978007
 20
103.3513485146988
 30
0.0
 11
230.9798304978008
 21
103.3513485146988
 31
0.0
  0
SOLID
  5
24E
330
24A
100
AcDbEntity
  8
1
 62
     2
100
AcDbTrace
 10
230.1710061101346
 20
247.1013485146988
 30
0.0
 11
228.788654885467
 21
247.1013485146988
 31
0.0
 12
229.4798304978008
 22
252.3513485146988
 32
0.0
 13
229.4798304978008
 23
252.3513485146988
 33
0.0
  0
SOLID
  5
24F
330
24A
100
AcDbEntity
  8
1
 62
     2
100
AcDbTrace
 10
228.788654885467
 20
108.6013485146988
 30
0.0
 11
230.1710061101346
 21
108.6013485146988
 31
0.0
 12
229.4798304978008
 22
103.3513485146988
 32
0.0
 13
229.4798304978008
 23
103.3513485146988
 33
0.0
  0
MTEXT
  5
250
330
24A
100
AcDbEntity
  8
1
 62
     7
100
AcDbMText
 10
227.9798304978008
 20
172.82852987544
 30
0.0
 40
5.25
 41
0.0
 71
     7
 72
     1
  1
149
  7
CONVERTER_13
 11
0.0
 21
1.0
 31
0.0
 73
     1
 44
0.60024009603842
  0
ENDBLK
  5
252
330
24A
100
AcDbEntity
  8
0
100
AcDbBlockEnd
  0
BLOCK
  5
25C
330
255
100
AcDbEntity
  8
0
100
AcDbBlockBegin
  2
*D5
 70
     1
 10
0.0
 20
0.0
 30
0.0
  3
*D5
  1

  0
LINE
  5
256
330
255
100
AcDbEntity
  8
1
  6
Continuous
 62
     2
100
AcDbLine
 10
164.9798304978008
 20
267.3513485146988
 30
0.0
 11
215.9798304978008
 21
267.3513485146988
 31
0.0
  0
LINE
  5
257
330
255
100
AcDbEntity
  8
1
  6
Continuous
 62
     2
100
AcDbLine
 10
215.9798304978008
 20
229.3513485146989
 30
0.0
 11
215.9798304978008
 21
268.8513485146988
 31
0.0
  0
LINE
  5
258
330
255
100
AcDbEntity
  8
1
  6
Continuous
 62
     2
100
AcDbLine
 10
164.9798304978008
 20
229.3513485146988
 30
0.0
 11
164.9798304978008
 21
268.8513485146988
 31
0.0
  0
SOLID
  5
259
330
255
100
AcDbEntity
  8
1
 62
     2
100
AcDbTrace
 10
170.2298304978008
 20
268.0425241270327
 30
0.0
 11
170.2298304978008
 21
266.660172902365
 31
0.0
 12
164.9798304978008
 22
267.3513485146988
 32
0.0
 13
164.9798304978008
 23
267.3513485146988
 33
0.0
  0
SOLID
  5
25A
330
255
100
AcDbEntity
  8
1
 62
     2
100
AcDbTrace
 10
210.7298304978008
 20
266.660172902365
 30
0.0
 11
210.7298304978008
 21
268.0425241270327
 31
0.0
 12
215.9798304978008
 22
267.3513485146988
 32
0.0
 13
215.9798304978008
 23
267.3513485146988
 33
0.0
  0
MTEXT
  5
25B
330
255
100
AcDbEntity
  8
1
 62
     7
100
AcDbMText
 10
198.9248304978134
 20
268.8513380790843
 30
0.0
 40
5.25
 41
0.0
 71
     7
 72
     1
  1
\C7;{\Fgdt;n}\C7;51
  7
CONVERTER_13
 11
0.9999999999970619
 21
2.424068405545306E-6
 31
0.0
 73
     1
 44
0.60024009603842
  0
ENDBLK
  5
25D
330
255
100
AcDbEntity
  8
0
100
AcDbBlockEnd
  0
BLOCK
  5
267
330
260
100
AcDbEntity
  8
0
100
AcDbBlockBegin
  2
*D6
 70
     1
 10
0.0
 20
0.0
 30
0.0
  3
*D6
  1

  0
LINE
  5
261
330
260
100
AcDbEntity
  8
1
  6
Continuous
 62
     2
100
AcDbLine
 10
90.47983049844743
 20
185.8513485146986
 30
0.0
 11
90.47983049844743
 21
103.3513485146988
 31
0.0
  0
LINE
  5
262
330
260
100
AcDbEntity
  8
1
  6
Continuous
 62
     2
100
AcDbLine
 10
102.4798304979387
 20
185.8513485146986
 30
0.0
 11
88.97983049844743
 21
185.8513485146986
 31
0.0
  0
LINE
  5
263
330
260
100
AcDbEntity
  8
1
  6
Continuous
 62
     2
100
AcDbLine
 10
178.8298304978007
 20
103.3513485146988
 30
0.0
 11
88.97983049844743
 21
103.3513485146988
 31
0.0
  0
SOLID
  5
264
330
260
100
AcDbEntity
  8
1
 62
     2
100
AcDbTrace
 10
91.17100611078125
 20
180.6013485146986
 30
0.0
 11
89.7886548861136
 21
180.6013485146986
 31
0.0
 12
90.47983049844743
 22
185.8513485146986
 32
0.0
 13
90.47983049844743
 23
185.8513485146986
 33
0.0
  0
SOLID
  5
265
330
260
100
AcDbEntity
  8
1
 62
     2
100
AcDbTrace
 10
89.7886548861136
 20
108.6013485146988
 30
0.0
 11
91.17100611078125
 21
108.6013485146988
 31
0.0
 12
90.47983049844743
 22
103.3513485146988
 32
0.0
 13
90.47983049844743
 23
103.3513485146988
 33
0.0
  0
MTEXT
  5
266
330
260
100
AcDbEntity
  8
1
 62
     7
100
AcDbMText
 10
88.97983049844743
 20
140.6638485146987
 30
0.0
 40
5.25
 41
0.0
 71
     7
 72
     1
  1
83
  7
CONVERTER_13
 11
0.0
 21
1.0
 31
0.0
 73
     1
 44
0.60024009603842
  0
ENDBLK
  5
268
330
260
100
AcDbEntity
  8
0
100
AcDbBlockEnd
  0
BLOCK
  5
272
330
26B
100
AcDbEntity
  8
0
100
AcDbBlockBegin
  2
*D7
 70
     1
 10
0.0
 20
0.0
 30
0.0
  3
*D7
  1

  0
LINE
  5
26C
330
26B
100
AcDbEntity
  8
1
  6
Continuous
 62
     2
100
AcDbLine
 10
151.9798304978008
 20
279.3513485146988
 30
0.0
 11
190.4798304978008
 21
279.3513485146988
 31
0.0
  0
LINE
  5
26D
330
26B
100
AcDbEntity
  8
1
  6
Continuous
 62
     2
100
AcDbLine
 10
190.4798304978008
 20
256.8513485146989
 30
0.0
 11
190.4798304978008
 21
280.8513485146988
 31
0.0
  0
LINE
  5
26E
330
26B
100
AcDbEntity
  8
1
  6
Continuous
 62
     2
100
AcDbLine
 10
151.9798304978008
 20
197.90591196594
 30
0.0
 11
151.9798304978008
 21
280.8513485146988
 31
0.0
  0
SOLID
  5
26F
330
26B
100
AcDbEntity
  8
1
 62
     2
100
AcDbTrace
 10
157.2298304978008
 20
280.0425241270327
 30
0.0
 11
157.2298304978008
 21
278.660172902365
 31
0.0
 12
151.9798304978008
 22
279.3513485146988
 32
0.0
 13
151.9798304978008
 23
279.3513485146988
 33
0.0
  0
SOLID
  5
270
330
26B
100
AcDbEntity
  8
1
 62
     2
100
AcDbTrace
 10
185.2298304978008
 20
278.660172902365
 30
0.0
 11
185.2298304978008
 21
280.0425241270327
 31
0.0
 12
190.4798304978008
 22
279.3513485146988
 32
0.0
 13
190.4798304978008
 23
279.3513485146988
 33
0.0
  0
MTEXT
  5
271
330
26B
100
AcDbEntity
  8
1
 62
     7
100
AcDbMText
 10
167.2923304978008
 20
280.8513485146988
 30
0.0
 40
5.25
 41
0.0
 71
     7
 72
     1
  1
39
  7
CONVERTER_13
 11
0.9999999999970619
 21
2.424068405545306E-6
 31
0.0
 73
     1
 44
0.60024009603842
  0
ENDBLK
  5
273
330
26B
100
AcDbEntity
  8
0
100
AcDbBlockEnd
  0
BLOCK
  5
27D
330
276
100
AcDbEntity
  8
0
100
AcDbBlockBegin
  2
*D8
 70
     1
 10
0.0
 20
0.0
 30
0.0
  3
*D8
  1

  0
LINE
  5
277
330
276
100
AcDbEntity
  8
1
  6
Continuous
 62
     2
100
AcDbLine
 10
190.4798304978008
 20
291.3513485146988
 30
0.0
 11
103.2298304978146
 21
291.3513485146988
 31
0.0
  0
LINE
  5
278
330
276
100
AcDbEntity
  8
1
  6
Continuous
 62
     2
100
AcDbLine
 10
190.4798304978008
 20
256.8513485146989
 30
0.0
 11
190.4798304978008
 21
292.8513485146988
 31
0.0
  0
LINE
  5
279
330
276
100
AcDbEntity
  8
1
  6
Continuous
 62
     2
100
AcDbLine
 10
103.2298304978146
 20
225.6095348444726
 30
0.0
 11
103.2298304978146
 21
292.8513485146988
 31
0.0
  0
SOLID
  5
27A
330
276
100
AcDbEntity
  8
1
 62
     2
100
AcDbTrace
 10
185.2298304978008
 20
290.660172902365
 30
0.0
 11
185.2298304978008
 21
292.0425241270327
 31
0.0
 12
190.4798304978008
 22
291.3513485146988
 32
0.0
 13
190.4798304978008
 23
291.3513485146988
 33
0.0
  0
SOLID
  5
27B
330
276
100
AcDbEntity
  8
1
 62
     2
100
AcDbTrace
 10
108.4798304978146
 20
292.0425241270327
 30
0.0
 11
108.4798304978146
 21
290.660172902365
 31
0.0
 12
103.2298304978146
 22
291.3513485146988
 32
0.0
 13
103.2298304978146
 23
291.3513485146988
 33
0.0
  0
MTEXT
  5
27C
330
276
100
AcDbEntity
  8
1
 62
     7
100
AcDbMText
 10
142.9173304978077
 20
292.8513485146988
 30
0.0
 40
5.25
 41
0.0
 71
     7
 72
     1
  1
88
  7
CONVERTER_13
 11
0.9999999999970619
 21
2.424068405545306E-6
 31
0.0
 73
     1
 44
0.60024009603842
  0
ENDBLK
  5
27E
330
276
100
AcDbEntity
  8
0
100
AcDbBlockEnd
  0
BLOCK
  5
288
330
281
100
AcDbEntity
  8
0
100
AcDbBlockBegin
  2
*D9
 70
     1
 10
0.0
 20
0.0
 30
0.0
  3
*D9
  1

  0
LINE
  5
282
330
281
100
AcDbEntity
  8
1
  6
Continuous
 62
     2
100
AcDbLine
 10
190.4798304978008
 20
88.35134851469878
 30
0.0
 11
106.9798304980528
 21
88.35134851469878
 31
0.0
  0
LINE
  5
283
330
281
100
AcDbEntity
  8
1
  6
Continuous
 62
     2
100
AcDbLine
 10
106.9798304980528
 20
176.6013485146946
 30
0.0
 11
106.9798304980528
 21
86.85134851469878
 31
0.0
  0
LINE
  5
284
330
281
100
AcDbEntity
  8
1
  6
Continuous
 62
     2
100
AcDbLine
 10
190.4798304978008
 20
144.3513485146988
 30
0.0
 11
190.4798304978008
 21
86.85134851469878
 31
0.0
  0
SOLID
  5
285
330
281
100
AcDbEntity
  8
1
 62
     2
100
AcDbTrace
 10
185.2298304978008
 20
87.66017290236496
 30
0.0
 11
185.2298304978008
 21
89.0425241270326
 31
0.0
 12
190.4798304978008
 22
88.35134851469878
 32
0.0
 13
190.4798304978008
 23
88.35134851469878
 33
0.0
  0
SOLID
  5
286
330
281
100
AcDbEntity
  8
1
 62
     2
100
AcDbTrace
 10
112.2298304980528
 20
89.0425241270326
 30
0.0
 11
112.2298304980528
 21
87.66017290236496
 31
0.0
 12
106.9798304980528
 22
88.35134851469878
 32
0.0
 13
106.9798304980528
 23
88.35134851469878
 33
0.0
  0
MTEXT
  5
287
330
281
100
AcDbEntity
  8
1
 62
     7
100
AcDbMText
 10
144.7923304978697
 20
89.85134851469878
 30
0.0
 40
5.25
 41
0.0
 71
     7
 72
     1
  1
84
  7
CONVERTER_13
 11
0.9999999999970619
 21
2.424068405545306E-6
 31
0.0
 73
     1
 44
0.60024009603842
  0
ENDBLK
  5
289
330
281
100
AcDbEntity
  8
0
100
AcDbBlockEnd
  0
ENDSEC
  0
SECTION
  2
ENTITIES
  0
INSERT
  5
56
330
1F
100
AcDbEntity
  8
0
100
AcDbBlockReference
  2
分岐コック
 10
211.0085730637617
 20
867.44455080691
 30
0.0
  0
INSERT
  5
57
330
1F
100
AcDbEntity
  8
1
100
AcDbBlockReference
  2
開示A4
 10
0.0
 20
0.0
 30
0.0
 41
1.5
 42
1.5
 43
1.5
  0
LINE
  5
191
330
1F
100
AcDbEntity
  8
1
  6
DASH_CENTER
 62
     2
100
AcDbLine
 10
133.2298304978146
 20
166.8513485147317
 30
0.0
 11
133.2298304978146
 21
235.8513485147365
 31
0.0
  0
LINE
  5
192
330
1F
100
AcDbEntity
  8
center
  6
DASH_CENTER
 62
     2
100
AcDbLine
 10
98.72983049612819
 20
345.9154683320252
 30
0.0
 11
220.4798304978008
 21
345.9154683320251
 31
0.0
  0
LINE
  5
193
330
1F
100
AcDbEntity
  8
center
  6
DASH_CENTER
 62
     2
100
AcDbLine
 10
102.4798304979387
 20
185.8513485146986
 30
0.0
 11
220.4798304978008
 21
185.8513485146988
 31
0.0
  0
LINE
  5
194
330
1F
100
AcDbEntity
  8
center
  6
DASH_CENTER
 62
     2
100
AcDbLine
 10
190.4798304978008
 20
256.8513485146988
 30
0.0
 11
190.4798304978008
 21
144.3513485146988
 31
0.0
  0
LINE
  5
195
330
1F
100
AcDbEntity
  8
center
  6
DASH_CENTER
 62
     2
100
AcDbLine
 10
182.9798304978008
 20
337.9154683320251
 30
0.0
 11
197.9798304978008
 21
337.9154683320251
 31
0.0
  0
LINE
  5
196
330
1F
100
AcDbEntity
  8
center
  6
DASH_CENTER
 62
     2
100
AcDbLine
 10
183.6798304978005
 20
358.5654683320249
 30
0.0
 11
183.6798304978005
 21
344.0654683320249
 31
0.0
  0
LINE
  5
197
330
1F
100
AcDbEntity
  8
center
  6
DASH_CENTER
 62
     2
100
AcDbLine
 10
176.4298304978005
 20
351.3154683320249
 30
0.0
 11
204.5298304978005
 21
351.3154683320249
 31
0.0
  0
LINE
  5
198
330
1F
100
AcDbEntity
  8
center
  6
DASH_CENTER
 62
     2
100
AcDbLine
 10
197.2798304978005
 20
358.5654683320249
 30
0.0
 11
197.2798304978005
 21
344.0654683320249
 31
0.0
  0
LINE
  5
199
330
1F
100
AcDbEntity
  8
outline
  6
Continuous
 62
     7
100
AcDbLine
 10
165.9798304978008
 20
146.3513485146988
 30
0.0
 11
214.9798304978008
 21
146.3513485146988
 31
0.0
  0
LINE
  5
19A
330
1F
100
AcDbEntity
  8
outline
  6
Continuous
 62
     7
100
AcDbLine
 10
165.9798304978006
 20
172.3513485146988
 30
0.0
 11
214.9798304978006
 21
172.3513485146988
 31
0.0
  0
LINE
  5
19B
330
1F
100
AcDbEntity
  8
outline
  6
Continuous
 62
     7
100
AcDbLine
 10
164.9798304978006
 20
171.3513485146988
 30
0.0
 11
164.9798304978008
 21
147.3513485146988
 31
0.0
  0
LINE
  5
19C
330
1F
100
AcDbEntity
  8
outline
  6
Continuous
 62
     7
100
AcDbLine
 10
215.9798304978008
 20
171.3513485146988
 30
0.0
 11
215.9798304978008
 21
147.3513485146988
 31
0.0
  0
LINE
  5
19D
330
1F
100
AcDbEntity
  8
outline
  6
Continuous
 62
     7
100
AcDbLine
 10
165.9798304978006
 20
176.3513485146988
 30
0.0
 11
214.9798304978006
 21
176.3513485146988
 31
0.0
  0
LINE
  5
19E
330
1F
100
AcDbEntity
  8
outline
  6
Continuous
 62
     7
100
AcDbLine
 10
164.9798304978008
 20
229.3513485146987
 30
0.0
 11
164.9798304978008
 21
177.3513485146988
 31
0.0
  0
LINE
  5
19F
330
1F
100
AcDbEntity
  8
outline
  6
Continuous
 62
     7
100
AcDbLine
 10
215.9798304978008
 20
229.3513485146988
 30
0.0
 11
215.9798304978008
 21
177.3513485146988
 31
0.0
  0
LINE
  5
1A0
330
1F
100
AcDbEntity
  8
outline
  6
Continuous
 62
     7
100
AcDbLine
 10
178.8298304978007
 20
103.3513485146988
 30
0.0
 11
188.5298304978007
 21
103.3513485146988
 31
0.0
  0
LINE
  5
1A1
330
1F
100
AcDbEntity
  8
outline
  6
Continuous
 62
     7
100
AcDbLine
 10
170.7298304978008
 20
252.3513485146988
 30
0.0
 11
185.4798304978008
 21
252.3513485146988
 31
0.0
  0
LINE
  5
1A2
330
1F
100
AcDbEntity
  8
outline
  6
Continuous
 62
     7
100
AcDbLine
 10
165.9798304978008
 20
230.3513485146987
 30
0.0
 11
214.9798304978008
 21
230.3513485146988
 31
0.0
  0
LINE
  5
1A3
330
1F
100
AcDbEntity
  8
outline
  6
Continuous
 62
     7
100
AcDbLine
 10
212.9798304978006
 20
241.0393485146988
 30
0.0
 11
212.9798304978006
 21
235.8513485146988
 31
0.0
  0
LINE
  5
1A4
330
1F
100
AcDbEntity
  8
outline
  6
Continuous
 62
     7
100
AcDbLine
 10
167.9798304978008
 20
235.8513485146987
 30
0.0
 11
212.9798304978006
 21
235.8513485146988
 31
0.0
  0
LINE
  5
1A5
330
1F
100
AcDbEntity
  8
outline
  6
Continuous
 62
     7
100
AcDbLine
 10
168.7918304978007
 20
241.8513485146988
 30
0.0
 11
212.1678304978007
 21
241.8513485146988
 31
0.0
  0
LINE
  5
1A6
330
1F
100
AcDbEntity
  8
inline
  6
Continuous
 62
     2
100
AcDbLine
 10
212.1678304978007
 20
241.8513485146988
 30
0.0
 11
212.1678304978007
 21
235.8513485146988
 31
0.0
  0
LINE
  5
1A7
330
1F
100
AcDbEntity
  8
outline
  6
Continuous
 62
     7
100
AcDbLine
 10
212.1678304978007
 20
241.8513485146988
 30
0.0
 11
212.9798304978006
 21
241.0393485146988
 31
0.0
  0
LINE
  5
1A8
330
1F
100
AcDbEntity
  8
outline
  6
Continuous
 62
     7
100
AcDbLine
 10
210.7298304978006
 20
251.8513485146988
 30
0.0
 11
210.7298304978006
 21
241.8513485146988
 31
0.0
  0
LINE
  5
1A9
330
1F
100
AcDbEntity
  8
outline
  6
Continuous
 62
     7
100
AcDbLine
 10
212.1678304978007
 20
235.8513485146988
 30
0.0
 11
212.1678304978007
 21
230.3513485146987
 31
0.0
  0
LINE
  5
1AA
330
1F
100
AcDbEntity
  8
outline
  6
Continuous
 62
     7
100
AcDbLine
 10
210.2298304978008
 20
252.3513485146988
 30
0.0
 11
210.7298304978006
 21
251.8513485146988
 31
0.0
  0
LINE
  5
1AB
330
1F
100
AcDbEntity
  8
outline
  6
Continuous
 62
     7
100
AcDbLine
 10
170.2298304978008
 20
251.8513485146988
 30
0.0
 11
170.2298304978008
 21
241.8513485146988
 31
0.0
  0
LINE
  5
1AC
330
1F
100
AcDbEntity
  8
inline
  6
Continuous
 62
     2
100
AcDbLine
 10
168.7918304978007
 20
241.8513485146988
 30
0.0
 11
168.7918304978009
 21
235.8513485146988
 31
0.0
  0
LINE
  5
1AD
330
1F
100
AcDbEntity
  8
outline
  6
Continuous
 62
     7
100
AcDbLine
 10
167.9798304978008
 20
241.0393485146988
 30
0.0
 11
167.9798304978008
 21
235.8513485146987
 31
0.0
  0
LINE
  5
1AE
330
1F
100
AcDbEntity
  8
outline
  6
Continuous
 62
     7
100
AcDbLine
 10
168.7918304978007
 20
241.8513485146988
 30
0.0
 11
167.9798304978008
 21
241.0393485146988
 31
0.0
  0
LINE
  5
1AF
330
1F
100
AcDbEntity
  8
outline
  6
Continuous
 62
     7
100
AcDbLine
 10
170.7298304978008
 20
252.3513485146988
 30
0.0
 11
170.2298304978008
 21
251.8513485146988
 31
0.0
  0
LINE
  5
1B0
330
1F
100
AcDbEntity
  8
outline
  6
Continuous
 62
     7
100
AcDbLine
 10
168.7918304978009
 20
235.8513485146988
 30
0.0
 11
168.7918304978009
 21
230.3513485146987
 31
0.0
  0
LINE
  5
1B1
330
1F
100
AcDbEntity
  8
outline
  6
Continuous
 62
     7
100
AcDbLine
 10
170.2298304978008
 20
251.8513485146988
 30
0.0
 11
185.4798304978008
 21
251.8513485146988
 31
0.0
  0
LINE
  5
1B2
330
1F
100
AcDbEntity
  8
outline
  6
Continuous
 62
     7
100
AcDbLine
 10
167.9798304978008
 20
241.0393485146988
 30
0.0
 11
212.9798304978006
 21
241.0393485146988
 31
0.0
  0
LINE
  5
1B3
330
1F
100
AcDbEntity
  8
outline
  6
Continuous
 62
     7
100
AcDbLine
 10
169.0798304978007
 20
172.3513485146988
 30
0.0
 11
169.0798304978007
 21
176.3513485146988
 31
0.0
  0
LINE
  5
1B4
330
1F
100
AcDbEntity
  8
outline
  6
Continuous
 62
     7
100
AcDbLine
 10
211.8798304978006
 20
172.3513485146988
 30
0.0
 11
211.8798304978006
 21
176.3513485146988
 31
0.0
  0
LINE
  5
1B5
330
1F
100
AcDbEntity
  8
center
  6
DASH_CENTER
 62
     2
100
AcDbLine
 10
183.6798304978007
 20
202.8513485146988
 30
0.0
 11
183.6798304978007
 21
98.85134851469878
 31
0.0
  0
LINE
  5
1B6
330
1F
100
AcDbEntity
  8
outline
  6
Continuous
 62
     7
100
AcDbLine
 10
177.1798304978007
 20
146.3513485146988
 30
0.0
 11
177.1798304978007
 21
110.8513485146988
 31
0.0
  0
LINE
  5
1B7
330
1F
100
AcDbEntity
  8
outline
  6
Continuous
 62
     7
100
AcDbLine
 10
190.1798304978007
 20
146.3513485146988
 30
0.0
 11
190.1798304978007
 21
110.8513485146988
 31
0.0
  0
LINE
  5
1B8
330
1F
100
AcDbEntity
  8
outline
  6
Continuous
 62
     7
100
AcDbLine
 10
177.6798304978007
 20
110.3513485146988
 30
0.0
 11
189.6798304978007
 21
110.3513485146988
 31
0.0
  0
LINE
  5
1B9
330
1F
100
AcDbEntity
  8
outline
  6
Continuous
 62
     7
100
AcDbLine
 10
178.3298304978007
 20
110.3513485146988
 30
0.0
 11
178.3298304978007
 21
109.8513485146988
 31
0.0
  0
LINE
  5
1BA
330
1F
100
AcDbEntity
  8
outline
  6
Continuous
 62
     7
100
AcDbLine
 10
189.0298304978007
 20
110.3513485146988
 30
0.0
 11
189.0298304978007
 21
109.8513485146988
 31
0.0
  0
LINE
  5
1BB
330
1F
100
AcDbEntity
  8
outline
  6
Continuous
 62
     7
100
AcDbLine
 10
187.7298304978006
 20
109.8513485146988
 30
0.0
 11
187.7298304978006
 21
109.1013485146988
 31
0.0
  0
LINE
  5
1BC
330
1F
100
AcDbEntity
  8
outline
  6
Continuous
 62
     7
100
AcDbLine
 10
179.6298304978006
 20
109.8513485146988
 30
0.0
 11
179.6298304978006
 21
109.1013485146988
 31
0.0
  0
LINE
  5
1BD
330
1F
100
AcDbEntity
  8
outline
  6
Continuous
 62
     7
100
AcDbLine
 10
178.3298304978007
 20
104.3513485146988
 30
0.0
 11
189.0298304978007
 21
104.3513485146988
 31
0.0
  0
LINE
  5
1BE
330
1F
100
AcDbEntity
  8
outline
  6
Continuous
 62
     7
100
AcDbLine
 10
178.3298304978007
 20
109.8513485146988
 30
0.0
 11
189.0298304978007
 21
109.8513485146988
 31
0.0
  0
LINE
  5
1BF
330
1F
100
AcDbEntity
  8
outline
  6
Continuous
 62
     7
100
AcDbLine
 10
178.3298304978007
 20
106.6013485146988
 30
0.0
 11
189.0298304978007
 21
106.6013485146988
 31
0.0
  0
LINE
  5
1C0
330
1F
100
AcDbEntity
  8
outline
  6
Continuous
 62
     7
100
AcDbLine
 10
178.3298304978007
 20
107.6013485146988
 30
0.0
 11
189.0298304978007
 21
107.6013485146988
 31
0.0
  0
LINE
  5
1C1
330
1F
100
AcDbEntity
  8
outline
  6
Continuous
 62
     7
100
AcDbLine
 10
178.3298304978007
 20
107.6013485146988
 30
0.0
 11
178.3298304978007
 21
106.6013485146988
 31
0.0
  0
LINE
  5
1C2
330
1F
100
AcDbEntity
  8
outline
  6
Continuous
 62
     7
100
AcDbLine
 10
178.3298304978007
 20
104.3513485146988
 30
0.0
 11
178.3298304978007
 21
103.8513485146988
 31
0.0
  0
LINE
  5
1C3
330
1F
100
AcDbEntity
  8
outline
  6
Continuous
 62
     7
100
AcDbLine
 10
189.0298304978007
 20
107.6013485146988
 30
0.0
 11
189.0298304978007
 21
106.6013485146988
 31
0.0
  0
LINE
  5
1C4
330
1F
100
AcDbEntity
  8
outline
  6
Continuous
 62
     7
100
AcDbLine
 10
189.0298304978007
 20
104.3513485146988
 30
0.0
 11
189.0298304978005
 21
103.8513485146988
 31
0.0
  0
LINE
  5
1C5
330
1F
100
AcDbEntity
  8
outline
  6
Continuous
 62
     7
100
AcDbLine
 10
179.6298304978008
 20
106.6013485146988
 30
0.0
 11
179.6298304978006
 21
105.8513485146988
 31
0.0
  0
LINE
  5
1C6
330
1F
100
AcDbEntity
  8
outline
  6
Continuous
 62
     7
100
AcDbLine
 10
187.7298304978006
 20
106.6013485146988
 30
0.0
 11
187.7298304978006
 21
105.8513485146988
 31
0.0
  0
LINE
  5
1C7
330
1F
100
AcDbEntity
  8
outline
  6
Continuous
 62
     7
100
AcDbLine
 10
178.3298304978007
 20
103.8513485146988
 30
0.0
 11
178.8298304978007
 21
103.3513485146988
 31
0.0
  0
LINE
  5
1C8
330
1F
100
AcDbEntity
  8
outline
  6
Continuous
 62
     7
100
AcDbLine
 10
188.5298304978007
 20
103.3513485146988
 30
0.0
 11
189.0298304978005
 21
103.8513485146988
 31
0.0
  0
LINE
  5
1C9
330
1F
100
AcDbEntity
  8
outline
  6
Continuous
 62
     7
100
AcDbLine
 10
178.3298304978007
 20
103.8513485146988
 30
0.0
 11
189.0298304978005
 21
103.8513485146988
 31
0.0
  0
LINE
  5
1CA
330
1F
100
AcDbEntity
  8
outline
  6
Continuous
 62
     7
100
AcDbLine
 10
178.8798304978006
 20
105.8513485146988
 30
0.0
 11
188.4798304978006
 21
105.8513485146988
 31
0.0
  0
LINE
  5
1CB
330
1F
100
AcDbEntity
  8
outline
  6
Continuous
 62
     7
100
AcDbLine
 10
178.8798304978006
 20
109.1013485146988
 30
0.0
 11
188.4798304978006
 21
109.1013485146988
 31
0.0
  0
LINE
  5
1CC
330
1F
100
AcDbEntity
  8
center
  6
DASH_CENTER
 62
     2
100
AcDbLine
 10
197.2798304978007
 20
202.8513485146988
 30
0.0
 11
197.2798304978007
 21
98.85134851469878
 31
0.0
  0
LINE
  5
1CD
330
1F
100
AcDbEntity
  8
outline
  6
Continuous
 62
     7
100
AcDbLine
 10
203.7798304978007
 20
146.3513485146988
 30
0.0
 11
203.7798304978007
 21
110.8513485146988
 31
0.0
  0
LINE
  5
1CE
330
1F
100
AcDbEntity
  8
outline
  6
Continuous
 62
     7
100
AcDbLine
 10
190.7798304978007
 20
146.3513485146988
 30
0.0
 11
190.7798304978007
 21
110.8513485146988
 31
0.0
  0
LINE
  5
1CF
330
1F
100
AcDbEntity
  8
outline
  6
Continuous
 62
     7
100
AcDbLine
 10
192.4798304978006
 20
109.1013485146988
 30
0.0
 11
202.0798304978007
 21
109.1013485146988
 31
0.0
  0
LINE
  5
1D0
330
1F
100
AcDbEntity
  8
outline
  6
Continuous
 62
     7
100
AcDbLine
 10
192.4798304978006
 20
105.8513485146988
 30
0.0
 11
202.0798304978007
 21
105.8513485146988
 31
0.0
  0
LINE
  5
1D1
330
1F
100
AcDbEntity
  8
outline
  6
Continuous
 62
     7
100
AcDbLine
 10
191.9298304978007
 20
103.8513485146988
 30
0.0
 11
202.6298304978006
 21
103.8513485146988
 31
0.0
  0
LINE
  5
1D2
330
1F
100
AcDbEntity
  8
outline
  6
Continuous
 62
     7
100
AcDbLine
 10
192.4298304978007
 20
103.3513485146988
 30
0.0
 11
202.1298304978006
 21
103.3513485146988
 31
0.0
  0
LINE
  5
1D3
330
1F
100
AcDbEntity
  8
outline
  6
Continuous
 62
     7
100
AcDbLine
 10
191.9298304978007
 20
109.8513485146988
 30
0.0
 11
202.6298304978006
 21
109.8513485146988
 31
0.0
  0
LINE
  5
1D4
330
1F
100
AcDbEntity
  8
outline
  6
Continuous
 62
     7
100
AcDbLine
 10
191.9298304978007
 20
104.3513485146988
 30
0.0
 11
202.6298304978006
 21
104.3513485146988
 31
0.0
  0
LINE
  5
1D5
330
1F
100
AcDbEntity
  8
outline
  6
Continuous
 62
     7
100
AcDbLine
 10
191.9298304978007
 20
106.6013485146988
 30
0.0
 11
202.6298304978006
 21
106.6013485146988
 31
0.0
  0
LINE
  5
1D6
330
1F
100
AcDbEntity
  8
outline
  6
Continuous
 62
     7
100
AcDbLine
 10
191.9298304978007
 20
107.6013485146988
 30
0.0
 11
202.6298304978006
 21
107.6013485146988
 31
0.0
  0
LINE
  5
1D7
330
1F
100
AcDbEntity
  8
outline
  6
Continuous
 62
     7
100
AcDbLine
 10
191.2798304978007
 20
110.3513485146988
 30
0.0
 11
203.2798304978007
 21
110.3513485146988
 31
0.0
  0
LINE
  5
1D8
330
1F
100
AcDbEntity
  8
outline
  6
Continuous
 62
     7
100
AcDbLine
 10
191.9298304978007
 20
104.3513485146988
 30
0.0
 11
191.9298304978007
 21
103.8513485146988
 31
0.0
  0
LINE
  5
1D9
330
1F
100
AcDbEntity
  8
outline
  6
Continuous
 62
     7
100
AcDbLine
 10
191.9298304978007
 20
103.8513485146988
 30
0.0
 11
192.4298304978007
 21
103.3513485146988
 31
0.0
  0
LINE
  5
1DA
330
1F
100
AcDbEntity
  8
outline
  6
Continuous
 62
     7
100
AcDbLine
 10
193.2298304978006
 20
109.8513485146988
 30
0.0
 11
193.2298304978006
 21
109.1013485146988
 31
0.0
  0
LINE
  5
1DB
330
1F
100
AcDbEntity
  8
outline
  6
Continuous
 62
     7
100
AcDbLine
 10
193.2298304978008
 20
106.6013485146988
 30
0.0
 11
193.2298304978006
 21
105.8513485146988
 31
0.0
  0
LINE
  5
1DC
330
1F
100
AcDbEntity
  8
outline
  6
Continuous
 62
     7
100
AcDbLine
 10
191.9298304978007
 20
107.6013485146988
 30
0.0
 11
191.9298304978007
 21
106.6013485146988
 31
0.0
  0
LINE
  5
1DD
330
1F
100
AcDbEntity
  8
outline
  6
Continuous
 62
     7
100
AcDbLine
 10
191.9298304978007
 20
110.3513485146988
 30
0.0
 11
191.9298304978007
 21
109.8513485146988
 31
0.0
  0
LINE
  5
1DE
330
1F
100
AcDbEntity
  8
outline
  6
Continuous
 62
     7
100
AcDbLine
 10
202.1298304978006
 20
103.3513485146988
 30
0.0
 11
202.6298304978006
 21
103.8513485146988
 31
0.0
  0
LINE
  5
1DF
330
1F
100
AcDbEntity
  8
outline
  6
Continuous
 62
     7
100
AcDbLine
 10
202.6298304978006
 20
104.3513485146988
 30
0.0
 11
202.6298304978006
 21
103.8513485146988
 31
0.0
  0
LINE
  5
1E0
330
1F
100
AcDbEntity
  8
outline
  6
Continuous
 62
     7
100
AcDbLine
 10
201.3298304978007
 20
109.8513485146988
 30
0.0
 11
201.3298304978007
 21
109.1013485146988
 31
0.0
  0
LINE
  5
1E1
330
1F
100
AcDbEntity
  8
outline
  6
Continuous
 62
     7
100
AcDbLine
 10
201.3298304978007
 20
106.6013485146988
 30
0.0
 11
201.3298304978007
 21
105.8513485146988
 31
0.0
  0
LINE
  5
1E2
330
1F
100
AcDbEntity
  8
outline
  6
Continuous
 62
     7
100
AcDbLine
 10
202.6298304978006
 20
107.6013485146988
 30
0.0
 11
202.6298304978006
 21
106.6013485146988
 31
0.0
  0
LINE
  5
1E3
330
1F
100
AcDbEntity
  8
outline
  6
Continuous
 62
     7
100
AcDbLine
 10
202.6298304978006
 20
110.3513485146988
 30
0.0
 11
202.6298304978006
 21
109.8513485146988
 31
0.0
  0
LINE
  5
1E4
330
1F
100
AcDbEntity
  8
outline
  6
Continuous
 62
     7
100
AcDbLine
 10
164.9798304978008
 20
338.4154683320251
 30
0.0
 11
164.9798304978008
 21
353.4154683320247
 31
0.0
  0
LINE
  5
1E5
330
1F
100
AcDbEntity
  8
outline
  6
Continuous
 62
     7
100
AcDbLine
 10
163.9798304978006
 20
357.5654683320249
 30
0.0
 11
163.9798304978006
 21
334.2654683320249
 31
0.0
  0
LINE
  5
1E6
330
1F
100
AcDbEntity
  8
outline
  6
Continuous
 62
     7
100
AcDbLine
 10
151.9798304978008
 20
357.5654683320249
 30
0.0
 11
151.9798304978008
 21
334.2654683320249
 31
0.0
  0
LINE
  5
1E7
330
1F
100
AcDbEntity
  8
outline
  6
Continuous
 62
     7
100
AcDbLine
 10
164.9798304978008
 20
338.4154683320251
 30
0.0
 11
163.9798304978006
 21
338.4154683320247
 31
0.0
  0
LINE
  5
1E8
330
1F
100
AcDbEntity
  8
outline
  6
Continuous
 62
     7
100
AcDbLine
 10
165.8221744859249
 20
339.4154683320247
 30
0.0
 11
164.9798304978008
 21
339.4154683320247
 31
0.0
  0
LINE
  5
1E9
330
1F
100
AcDbEntity
  8
outline
  6
Continuous
 62
     7
100
AcDbLine
 10
164.9798304978008
 20
353.4154683320247
 30
0.0
 11
163.9798304978006
 21
353.4154683320247
 31
0.0
  0
LINE
  5
1EA
330
1F
100
AcDbEntity
  8
outline
  6
Continuous
 62
     7
100
AcDbLine
 10
165.8221744859247
 20
352.4154683320247
 30
0.0
 11
164.9798304978006
 21
352.4154683320247
 31
0.0
  0
LINE
  5
1EB
330
1F
100
AcDbEntity
  8
outline
  6
Continuous
 62
     7
100
AcDbLine
 10
163.9798304978008
 20
197.9059119659399
 30
0.0
 11
163.9798304978008
 21
173.7967850634576
 31
0.0
  0
LINE
  5
1EC
330
1F
100
AcDbEntity
  8
outline
  6
Continuous
 62
     7
100
AcDbLine
 10
151.9798304978008
 20
197.9059119659399
 30
0.0
 11
151.9798304978008
 21
173.7967850634576
 31
0.0
  0
LINE
  5
1ED
330
1F
100
AcDbEntity
  8
outline
  6
Continuous
 62
     7
100
AcDbLine
 10
163.9798304978008
 20
173.7967850634576
 30
0.0
 11
151.9798304978008
 21
173.7967850634576
 31
0.0
  0
LINE
  5
1EE
330
1F
100
AcDbEntity
  8
outline
  6
Continuous
 62
     7
100
AcDbLine
 10
164.9798304978008
 20
178.3513485146987
 30
0.0
 11
163.9798304978008
 21
178.3513485146987
 31
0.0
  0
LINE
  5
1EF
330
1F
100
AcDbEntity
  8
outline
  6
Continuous
 62
     7
100
AcDbLine
 10
164.9798304978008
 20
193.3513485146987
 30
0.0
 11
163.9798304978008
 21
193.3513485146987
 31
0.0
  0
LINE
  5
1F0
330
1F
100
AcDbEntity
  8
outline
  6
Continuous
 62
     7
100
AcDbLine
 10
151.9798304978008
 20
197.9059119659399
 30
0.0
 11
163.9798304978008
 21
197.9059119659399
 31
0.0
  0
LINE
  5
1F1
330
1F
100
AcDbEntity
  8
outline
  6
Continuous
 62
     7
100
AcDbLine
 10
185.4798304978008
 20
252.3513485146988
 30
0.0
 11
185.4798304978008
 21
248.3513485146988
 31
0.0
  0
LINE
  5
1F2
330
1F
100
AcDbEntity
  8
outline
  6
Continuous
 62
     7
100
AcDbLine
 10
195.4798304978008
 20
252.3513485146988
 30
0.0
 11
195.4798304978008
 21
248.3513485146988
 31
0.0
  0
LINE
  5
1F3
330
1F
100
AcDbEntity
  8
outline
  6
Continuous
 62
     7
100
AcDbLine
 10
185.4798304978008
 20
248.3513485146988
 30
0.0
 11
195.4798304978008
 21
248.3513485146988
 31
0.0
  0
LINE
  5
1F4
330
1F
100
AcDbEntity
  8
outline
  6
Continuous
 62
     7
100
AcDbLine
 10
195.4798304978008
 20
252.3513485146988
 30
0.0
 11
210.2298304978008
 21
252.3513485146988
 31
0.0
  0
LINE
  5
1F5
330
1F
100
AcDbEntity
  8
outline
  6
Continuous
 62
     7
100
AcDbLine
 10
195.4798304978008
 20
251.8513485146988
 30
0.0
 11
210.7298304978006
 21
251.8513485146988
 31
0.0
  0
LINE
  5
1F6
330
1F
100
AcDbEntity
  8
outline
  6
Continuous
 62
     7
100
AcDbLine
 10
185.4798304978008
 20
326.2924588788345
 30
0.0
 11
185.4798304978008
 21
329.4582510702883
 31
0.0
  0
LINE
  5
1F7
330
1F
100
AcDbEntity
  8
outline
  6
Continuous
 62
     7
100
AcDbLine
 10
195.4798304978008
 20
326.2924588788346
 30
0.0
 11
195.4798304978008
 21
329.4582510702883
 31
0.0
  0
LINE
  5
1F8
330
1F
100
AcDbEntity
  8
outline
  6
Continuous
 62
     7
100
AcDbLine
 10
185.4798304978008
 20
365.5384777852154
 30
0.0
 11
185.4798304978008
 21
362.3726855937616
 31
0.0
  0
LINE
  5
1F9
330
1F
100
AcDbEntity
  8
outline
  6
Continuous
 62
     7
100
AcDbLine
 10
195.4798304978008
 20
365.5384777852153
 30
0.0
 11
195.4798304978008
 21
362.3726855937616
 31
0.0
  0
LINE
  5
1FA
330
1F
100
AcDbEntity
  8
1
  6
DASH_CENTER
 62
     2
100
AcDbLine
 10
190.4798304978008
 20
315.9154683320251
 30
0.0
 11
190.4798304978008
 21
375.9154683320251
 31
0.0
  0
ARC
  5
1FB
330
1F
100
AcDbEntity
  8
outline
  6
Continuous
 62
     7
100
AcDbCircle
 10
190.4798304978008
 20
345.9154683320251
 30
0.0
 40
17.70000000000002
100
AcDbArc
 50
286.4086257210084
 51
73.59137427899148
  0
ARC
  5
1FC
330
1F
100
AcDbEntity
  8
outline
  6
Continuous
 62
     7
100
AcDbCircle
 10
165.9798304978008
 20
147.3513485146988
 30
0.0
 40
1.0
100
AcDbArc
 50
180.0
 51
270.0
  0
ARC
  5
1FD
330
1F
100
AcDbEntity
  8
outline
  6
Continuous
 62
     7
100
AcDbCircle
 10
214.9798304978008
 20
147.3513485146988
 30
0.0
 40
1.0
100
AcDbArc
 50
270.0
 51
0.0
  0
ARC
  5
1FE
330
1F
100
AcDbEntity
  8
outline
  6
Continuous
 62
     7
100
AcDbCircle
 10
165.9798304978006
 20
171.3513485146988
 30
0.0
 40
1.0
100
AcDbArc
 50
90.0
 51
180.0
  0
ARC
  5
1FF
330
1F
100
AcDbEntity
  8
outline
  6
Continuous
 62
     7
100
AcDbCircle
 10
214.9798304978006
 20
171.3513485146988
 30
0.0
 40
1.000000000000199
100
AcDbArc
 50
0.0
 51
90.0
  0
ARC
  5
200
330
1F
100
AcDbEntity
  8
outline
  6
Continuous
 62
     7
100
AcDbCircle
 10
165.9798304978008
 20
229.3513485146987
 30
0.0
 40
1.0
100
AcDbArc
 50
90.0
 51
180.0
  0
ARC
  5
201
330
1F
100
AcDbEntity
  8
outline
  6
Continuous
 62
     7
100
AcDbCircle
 10
214.9798304978008
 20
229.3513485146988
 30
0.0
 40
1.0
100
AcDbArc
 50
0.0
 51
90.0
  0
ARC
  5
202
330
1F
100
AcDbEntity
  8
outline
  6
Continuous
 62
     7
100
AcDbCircle
 10
214.9798304978008
 20
177.3513485146988
 30
0.0
 40
1.0
100
AcDbArc
 50
269.9999999999886
 51
0.0
  0
ARC
  5
203
330
1F
100
AcDbEntity
  8
outline
  6
Continuous
 62
     7
100
AcDbCircle
 10
165.9798304978008
 20
177.3513485146988
 30
0.0
 40
1.0
100
AcDbArc
 50
180.0
 51
269.9999999999886
  0
ARC
  5
204
330
1F
100
AcDbEntity
  8
outline
  6
Continuous
 62
     7
100
AcDbCircle
 10
177.6798304978007
 20
110.8513485146988
 30
0.0
 40
0.5
100
AcDbArc
 50
180.0
 51
270.0
  0
ARC
  5
205
330
1F
100
AcDbEntity
  8
outline
  6
Continuous
 62
     7
100
AcDbCircle
 10
189.6798304978007
 20
110.8513485146988
 30
0.0
 40
0.5
100
AcDbArc
 50
270.0
 51
0.0
  0
ARC
  5
206
330
1F
100
AcDbEntity
  8
outline
  6
Continuous
 62
     7
100
AcDbCircle
 10
188.4798304978006
 20
105.1013485146988
 30
0.0
 40
0.75
100
AcDbArc
 50
270.0
 51
90.0
  0
ARC
  5
207
330
1F
100
AcDbEntity
  8
outline
  6
Continuous
 62
     7
100
AcDbCircle
 10
178.8798304978006
 20
105.1013485146988
 30
0.0
 40
0.75
100
AcDbArc
 50
90.0
 51
270.0
  0
ARC
  5
208
330
1F
100
AcDbEntity
  8
outline
  6
Continuous
 62
     7
100
AcDbCircle
 10
178.8798304978006
 20
108.3513485146988
 30
0.0
 40
0.75
100
AcDbArc
 50
90.0
 51
270.0
  0
ARC
  5
209
330
1F
100
AcDbEntity
  8
outline
  6
Continuous
 62
     7
100
AcDbCircle
 10
188.4798304978006
 20
108.3513485146988
 30
0.0
 40
0.75
100
AcDbArc
 50
270.0
 51
90.0
  0
ARC
  5
20A
330
1F
100
AcDbEntity
  8
outline
  6
Continuous
 62
     7
100
AcDbCircle
 10
203.2798304978007
 20
110.8513485146988
 30
0.0
 40
0.5
100
AcDbArc
 50
270.0
 51
0.0
  0
ARC
  5
20B
330
1F
100
AcDbEntity
  8
outline
  6
Continuous
 62
     7
100
AcDbCircle
 10
191.2798304978007
 20
110.8513485146988
 30
0.0
 40
0.5
100
AcDbArc
 50
180.0
 51
270.0
  0
ARC
  5
20C
330
1F
100
AcDbEntity
  8
outline
  6
Continuous
 62
     7
100
AcDbCircle
 10
192.4798304978006
 20
105.1013485146988
 30
0.0
 40
0.75
100
AcDbArc
 50
90.0
 51
270.0
  0
ARC
  5
20D
330
1F
100
AcDbEntity
  8
outline
  6
Continuous
 62
     7
100
AcDbCircle
 10
192.4798304978006
 20
108.3513485146988
 30
0.0
 40
0.75
100
AcDbArc
 50
90.0
 51
270.0
  0
ARC
  5
20E
330
1F
100
AcDbEntity
  8
outline
  6
Continuous
 62
     7
100
AcDbCircle
 10
202.0798304978007
 20
105.1013485146988
 30
0.0
 40
0.75
100
AcDbArc
 50
270.0
 51
90.0
  0
ARC
  5
20F
330
1F
100
AcDbEntity
  8
outline
  6
Continuous
 62
     7
100
AcDbCircle
 10
202.0798304978007
 20
108.3513485146988
 30
0.0
 40
0.75
100
AcDbArc
 50
270.0
 51
90.0
  0
ARC
  5
210
330
1F
100
AcDbEntity
  8
outline
  6
Continuous
 62
     7
100
AcDbCircle
 10
157.9798304978008
 20
344.7154683320248
 30
0.0
 40
12.04999999999989
100
AcDbArc
 50
240.1371656437246
 51
299.8628343562746
  0
ARC
  5
211
330
1F
100
AcDbEntity
  8
outline
  6
Continuous
 62
     7
100
AcDbCircle
 10
157.9798304978008
 20
347.1154683320249
 30
0.0
 40
12.04999999999994
100
AcDbArc
 50
60.13716564372582
 51
119.862834356275
  0
ARC
  5
212
330
1F
100
AcDbEntity
  8
outline
  6
Continuous
 62
     7
100
AcDbCircle
 10
190.4798304978008
 20
345.9154683320251
 30
0.0
 40
19.74999999999977
100
AcDbArc
 50
104.6648537098415
 51
255.3351462901588
  0
ARC
  5
213
330
1F
100
AcDbEntity
  8
outline
  6
Continuous
 62
     7
100
AcDbCircle
 10
190.4798304978008
 20
345.9154683320251
 30
0.0
 40
17.69999999999991
100
AcDbArc
 50
106.4086257210085
 51
253.5913742789918
  0
CIRCLE
  5
214
330
1F
100
AcDbEntity
  8
outline
  6
Continuous
 62
     7
100
AcDbCircle
 10
190.4798304978008
 20
345.9154683320251
 30
0.0
 40
25.5
  0
CIRCLE
  5
215
330
1F
100
AcDbEntity
  8
outline
  6
Continuous
 62
     7
100
AcDbCircle
 10
190.4798304978008
 20
345.9154683320251
 30
0.0
 40
16.5
  0
CIRCLE
  5
216
330
1F
100
AcDbEntity
  8
outline
  6
Continuous
 62
     7
100
AcDbCircle
 10
190.4798304978008
 20
345.9154683320251
 30
0.0
 40
17.1999999999999
  0
CIRCLE
  5
217
330
1F
100
AcDbEntity
  8
outline
  6
Continuous
 62
     7
100
AcDbCircle
 10
190.4798304978008
 20
345.9154683320251
 30
0.0
 40
20.25
  0
CIRCLE
  5
218
330
1F
100
AcDbEntity
  8
outline
  6
Continuous
 62
     7
100
AcDbCircle
 10
190.4798304978008
 20
345.9154683320251
 30
0.0
 40
22.5
  0
CIRCLE
  5
219
330
1F
100
AcDbEntity
  8
inline
  6
Continuous
 62
     2
100
AcDbCircle
 10
190.4798304978008
 20
345.9154683320251
 30
0.0
 40
21.6879999999999
  0
CIRCLE
  5
21A
330
1F
100
AcDbEntity
  8
outline
  6
Continuous
 62
     7
100
AcDbCircle
 10
190.4798304978008
 20
337.9154683320251
 30
0.0
 40
5.0
  0
CIRCLE
  5
21B
330
1F
100
AcDbEntity
  8
outline
  6
Continuous
 62
     7
100
AcDbCircle
 10
190.4798304978008
 20
337.9154683320251
 30
0.0
 40
5.5
  0
CIRCLE
  5
21C
330
1F
100
AcDbEntity
  8
outline
  6
Continuous
 62
     7
100
AcDbCircle
 10
183.6798304978005
 20
351.3154683320249
 30
0.0
 40
5.25
  0
CIRCLE
  5
21D
330
1F
100
AcDbEntity
  8
outline
  6
Continuous
 62
     7
100
AcDbCircle
 10
183.6798304978005
 20
351.3154683320249
 30
0.0
 40
3.25
  0
CIRCLE
  5
21E
330
1F
100
AcDbEntity
  8
outline
  6
Continuous
 62
     7
100
AcDbCircle
 10
197.2798304978005
 20
351.3154683320249
 30
0.0
 40
3.25
  0
CIRCLE
  5
21F
330
1F
100
AcDbEntity
  8
outline
  6
Continuous
 62
     7
100
AcDbCircle
 10
197.2798304978005
 20
351.3154683320249
 30
0.0
 40
5.25
  0
SPLINE
  5
220
330
1F
100
AcDbEntity
  8
1
  6
Continuous
 62
     7
100
AcDbSpline
210
0.0
220
0.0
230
1.0
 70
    11
 71
     3
 72
    79
 73
    75
 74
    73
 42
0.000000001
 43
0.0000000001
 44
0.00000001
 40
0.0
 40
0.0
 40
0.0
 40
0.0
 40
0.3050593144645863
 40
0.6098394267306544
 40
0.9349604253343609
 40
1.259699857726082
 40
1.613345503038095
 40
1.966661884081065
 40
2.352521264016729
 40
2.738144552987414
 40
3.155654060797576
 40
3.573006709026887
 40
4.018266557340407
 40
4.463427186325418
 40
4.930114883140833
 40
5.396744577495359
 40
5.876908449466549
 40
6.357045598853288
 40
6.841795289273422
 40
7.326544979693634
 40
7.806682129080422
 40
8.286846001050698
 40
8.753475695401674
 40
9.220163392208304
 40
9.665324021176282
 40
10.11058386945925
 40
10.52793651764134
 40
10.94544602537738
 40
11.33106931424474
 40
11.71692869402819
 40
12.07024507486912
 40
12.42389071988754
 40
12.74863015186982
 40
13.07375114977059
 40
13.37853125996731
 40
13.68359058164138
 40
13.98125591022582
 40
14.27892123880911
 40
14.58398056047972
 40
14.88876067067126
 40
15.21388166856498
 40
15.53862110053935
 40
15.89226674554862
 40
16.24558312638031
 40
16.63144250615374
 40
17.01706579501153
 40
17.43457530273762
 40
17.8519279509105
 40
18.29718779918441
 40
18.74234842814408
 40
19.20903612494276
 40
19.67566581928652
 40
20.15582969125026
 40
20.63596684063153
 40
21.12071653104719
 40
21.6054662214638
 40
22.08560337084809
 40
22.56576724281802
 40
23.03239693717252
 40
23.49908463398923
 40
23.94424526297659
 40
24.38950511129306
 40
24.80685775952541
 40
25.22436726733774
 40
25.60999055630824
 40
25.99584993623827
 40
26.34916631726543
 40
26.70281196253742
 40
27.02755139483251
 40
27.35267239314811
 40
27.65745250388228
 40
27.96251182635621
 40
28.26017715710053
 40
28.55784247874116
 40
28.55784247874116
 40
28.55784247874116
 40
28.55784247874116
 10
163.4731934584867
 20
355.6323279725333
 30
0.0
 10
163.4545109647994
 20
355.7324662482016
 30
0.0
 10
163.417163085205
 20
355.9326511508896
 30
0.0
 10
163.3056708233747
 20
356.2252298297901
 30
0.0
 10
163.1581562454971
 20
356.5078774642062
 30
0.0
 10
162.9673361298509
 20
356.7835862035057
 30
0.0
 10
162.7417374048802
 20
357.0439795571667
 30
0.0
 10
162.476403752582
 20
357.2943489383496
 30
0.0
 10
162.1808909648669
 20
357.525915275015
 30
0.0
 10
161.8493926113525
 20
357.7438683435002
 30
0.0
 10
161.4928244215897
 20
357.9405599307303
 30
0.0
 10
161.105311972726
 20
358.1199584323131
 30
0.0
 10
160.6980477816157
 20
358.2762968212152
 30
0.0
 10
160.2662479877832
 20
358.4120488272924
 30
0.0
 10
159.82018621817
 20
358.5234413374091
 30
0.0
 10
159.3571220775877
 20
358.611693105103
 30
0.0
 10
158.8854329870303
 20
358.6747281823777
 30
0.0
 10
158.4050477144056
 20
358.7130184740378
 30
0.0
 10
157.9217754840175
 20
358.7256637001211
 30
0.0
 10
157.438503253614
 20
358.7130184740237
 30
0.0
 10
156.9581179810379
 20
358.6747281823459
 30
0.0
 10
156.4864288903107
 20
358.6116931050947
 30
0.0
 10
156.0233647503533
 20
358.5234413373215
 30
0.0
 10
155.5773029784696
 20
358.4120488275704
 30
0.0
 10
155.14550319275
 20
358.2762968203541
 30
0.0
 10
154.738238972299
 20
358.1199584358558
 30
0.0
 10
154.3507266264122
 20
357.9405599192337
 30
0.0
 10
153.9941580671695
 20
357.7438683865532
 30
0.0
 10
153.6626609926282
 20
357.5259151300048
 30
0.0
 10
153.3671436423813
 20
357.2943494652365
 30
0.0
 10
153.1018256590449
 20
357.0439777778262
 30
0.0
 10
152.8761710799496
 20
356.7835926466626
 30
0.0
 10
152.6855433422586
 20
356.5078555887657
 30
0.0
 10
152.5373378923191
 20
356.2253096561359
 30
0.0
 10
152.428272198279
 20
355.9323737704912
 30
0.0
 10
152.3638277547613
 20
355.6357829900493
 30
0.0
 10
152.3410287620495
 20
355.3354613711326
 30
0.0
 10
152.3638277547508
 20
355.0351397522162
 30
0.0
 10
152.4282721982582
 20
354.7385489717752
 30
0.0
 10
152.5373378922883
 20
354.4456130861324
 30
0.0
 10
152.6855433422182
 20
354.1630671535052
 30
0.0
 10
152.8761710799
 20
353.8873300956116
 30
0.0
 10
153.1018256589869
 20
353.6269449644523
 30
0.0
 10
153.3671436423149
 20
353.3765732770469
 30
0.0
 10
153.6626609925545
 20
353.1450076122846
 30
0.0
 10
153.9941580670887
 20
352.9270543557433
 30
0.0
 10
154.3507266263253
 20
352.7303628230712
 30
0.0
 10
154.7382389722061
 20
352.5509643064588
 30
0.0
 10
155.1455031926519
 20
352.3946259219715
 30
0.0
 10
155.5773029783668
 20
352.2588739147681
 30
0.0
 10
156.0233647502461
 20
352.1474814050317
 30
0.0
 10
156.4864288901994
 20
352.0592296372752
 30
0.0
 10
156.9581179809225
 20
351.996194560043
 30
0.0
 10
157.4385032534957
 20
351.9579042683873
 30
0.0
 10
157.9217754838922
 20
351.9452590423153
 30
0.0
 10
158.4050477142878
 20
351.9579042684247
 30
0.0
 10
158.8854329868645
 20
351.9961945601234
 30
0.0
 10
159.3571220775753
 20
352.0592296374058
 30
0.0
 10
159.8201862175723
 20
352.1474814052357
 30
0.0
 10
160.2662479892886
 20
352.2588739150349
 30
0.0
 10
160.6980477755749
 20
352.3946259224349
 30
0.0
 10
161.1053119939331
 20
352.5509643067567
 30
0.0
 10
161.4928243471044
 20
352.73036282462
 30
0.0
 10
161.8493928801225
 20
352.9270543536497
 30
0.0
 10
162.1808900453222
 20
353.1450076238021
 30
0.0
 10
162.4764070719882
 20
353.3765732412451
 30
0.0
 10
162.7417261663574
 20
353.6269450925766
 30
0.0
 10
162.9673767846994
 20
353.8873296411198
 30
0.0
 10
163.1580181639544
 20
354.1630687076499
 30
0.0
 10
163.3061746233823
 20
354.4456074291629
 30
0.0
 10
163.415412387344
 20
354.7385686453276
 30
0.0
 10
163.4792280714484
 20
355.0350668698111
 30
0.0
 10
163.5043205240705
 20
355.3357260992153
 30
0.0
 10
163.4835691437731
 20
355.5334606821681
 30
0.0
 10
163.4731934584867
 20
355.6323279725334
 30
0.0
 11
163.4731934584867
 21
355.6323279725333
 31
0.0
 11
163.4082942989513
 21
355.9304039509566
 31
0.0
 11
163.3028943698673
 21
356.216379073291
 31
0.0
 11
163.1523018865198
 21
356.5045206484041
 31
0.0
 11
162.9684003197421
 21
356.7721695088221
 31
0.0
 11
162.7373966332968
 21
357.0399428068746
 31
0.0
 11
162.4809396188145
 21
357.2829700990502
 31
0.0
 11
162.1777254362726
 21
357.521609200033
 31
0.0
 11
161.8558114669892
 21
357.7339219818717
 31
0.0
 11
161.4905732007367
 21
357.9361970370447
 31
0.0
 11
161.1120025768683
 21
358.1118885727268
 31
0.0
 11
160.6965121001368
 21
358.2719635434606
 31
0.0
 11
160.2719208584187
 21
358.4057180314239
 31
0.0
 11
159.8192304158322
 21
358.5191586306307
 31
0.0
 11
159.3608759842132
 21
358.6066485538714
 31
0.0
 11
158.8849744875725
 21
358.6704851377542
 31
0.0
 11
158.4063565190715
 21
358.7086495511406
 31
0.0
 11
157.9217754740533
 21
358.7214352138512
 31
0.0
 11
157.4371944290352
 21
358.7086495511406
 31
0.0
 11
156.9585764605342
 21
358.6704851377542
 31
0.0
 11
156.4826749638936
 21
358.6066485538714
 31
0.0
 11
156.0243205322745
 21
358.5191586306307
 31
0.0
 11
155.571630089688
 21
358.4057180314239
 31
0.0
 11
155.1470388479698
 21
358.2719635434605
 31
0.0
 11
154.7315483712384
 21
358.1118885727268
 31
0.0
 11
154.35297774737
 21
357.9361970370447
 31
0.0
 11
153.9877394811175
 21
357.7339219818717
 31
0.0
 11
153.6658255118342
 21
357.5216092000331
 31
0.0
 11
153.3626113292921
 21
357.2829700990503
 31
0.0
 11
153.1061543148098
 21
357.0399428068749
 31
0.0
 11
152.8751506283646
 21
356.7721695088222
 31
0.0
 11
152.6912490615869
 21
356.5045206484043
 31
0.0
 11
152.5406565782394
 21
356.216379073291
 31
0.0
 11
152.4352566491553
 21
355.9304039509566
 31
0.0
 11
152.3703574896198
 21
355.6323279725333
 31
0.0
 11
152.3485660079287
 21
355.3354613707602
 31
0.0
 11
152.3703574896198
 21
355.038594768987
 31
0.0
 11
152.4352566491553
 21
354.7405187905639
 31
0.0
 11
152.5406565782395
 21
354.4545436682295
 31
0.0
 11
152.691249061587
 21
354.1664020931163
 31
0.0
 11
152.8751506283646
 21
353.8987532326983
 31
0.0
 11
153.1061543148098
 21
353.6309799346456
 31
0.0
 11
153.3626113292921
 21
353.3879526424699
 31
0.0
 11
153.6658255118342
 21
353.1493135414872
 31
0.0
 11
153.9877394811175
 21
352.9370007596485
 31
0.0
 11
154.3529777473699
 21
352.7347257044756
 31
0.0
 11
154.7315483712383
 21
352.5590341687936
 31
0.0
 11
155.1470388479698
 21
352.3989591980599
 31
0.0
 11
155.571630089688
 21
352.2652047100966
 31
0.0
 11
156.0243205322746
 21
352.1517641108898
 31
0.0
 11
156.4826749638935
 21
352.0642741876489
 31
0.0
 11
156.9585764605341
 21
352.000437603766
 31
0.0
 11
157.4371944290351
 21
351.9622731903796
 31
0.0
 11
157.9217754740533
 21
351.9494875276692
 31
0.0
 11
158.4063565190716
 21
351.9622731903798
 31
0.0
 11
158.8849744875725
 21
352.0004376037663
 31
0.0
 11
159.3608759842131
 21
352.0642741876491
 31
0.0
 11
159.8192304158321
 21
352.1517641108897
 31
0.0
 11
160.2719208584186
 21
352.2652047100966
 31
0.0
 11
160.6965121001368
 21
352.39895919806
 31
0.0
 11
161.1120025768683
 21
352.5590341687937
 31
0.0
 11
161.4905732007367
 21
352.7347257044757
 31
0.0
 11
161.8558114669892
 21
352.9370007596486
 31
0.0
 11
162.1777254362726
 21
353.1493135414872
 31
0.0
 11
162.4809396188146
 21
353.3879526424701
 31
0.0
 11
162.7373966332969
 21
353.6309799346456
 31
0.0
 11
162.9684003197422
 21
353.8987532326983
 31
0.0
 11
163.1523018865198
 21
354.1664020931163
 31
0.0
 11
163.3028943698673
 21
354.4545436682294
 31
0.0
 11
163.4082942989513
 21
354.7405187905638
 31
0.0
 11
163.4731934584867
 21
355.0385947689871
 31
0.0
 11
163.4949849401778
 21
355.3354613707601
 31
0.0
 11
163.4731934584867
 21
355.6323279725334
 31
0.0
  0
SPLINE
  5
221
330
1F
100
AcDbEntity
  8
1
  6
Continuous
 62
     7
100
AcDbSpline
210
0.0
220
0.0
230
1.0
 70
    11
 71
     3
 72
    79
 73
    75
 74
    73
 42
0.000000001
 43
0.0000000001
 44
0.00000001
 40
0.0
 40
0.0
 40
0.0
 40
0.0
 40
0.4775837980874215
 40
0.9551633046592132
 40
1.433518909476177
 40
1.911866496801562
 40
2.391400724651411
 40
2.870924287763473
 40
3.351899523006095
 40
3.832862818167186
 40
4.315366202001047
 40
4.797857840775477
 40
5.281792267924286
 40
5.765716524258779
 40
6.25081380963533
 40
6.735903639490417
 40
7.221757597623053
 40
7.707607620771705
 40
8.193722744716975
 40
8.679837868649313
 40
9.165687891759504
 40
9.651541849827948
 40
10.13663167959354
 40
10.6217289648549
 40
11.10565322104893
 40
11.58958764803133
 40
12.07207928661399
 40
12.55458267022943
 40
13.0355459651451
 40
13.51652120011203
 40
13.99604476291324
 40
14.47557899040492
 40
14.95392657729277
 40
15.43228218149346
 40
15.90986168679133
 40
16.38744549385002
 40
16.86475947232392
 40
17.34207345079697
 40
17.8196572578531
 40
18.29723676314589
 40
18.77559236733972
 40
19.25393995421897
 40
19.73347418170023
 40
20.21299774448929
 40
20.69397297944234
 40
21.17493627434262
 40
21.65743965794129
 40
22.13993129650565
 40
22.62386572346831
 40
23.10778997964138
 40
23.59288726488064
 40
24.07797709462324
 40
24.56383105266779
 40
25.04968107575333
 40
25.53579619966016
 40
26.02191132357931
 40
26.50776134670131
 40
26.99361530480672
 40
27.4787051346341
 40
27.96380241998243
 40
28.44772667628821
 40
28.93166110340765
 40
29.41415274215174
 40
29.89665612595382
 40
30.37761942108041
 40
30.85859465628404
 40
31.33811821934793
 40
31.8176524471314
 40
32.29600003434468
 40
32.77435563891638
 40
33.25193514466287
 40
33.72951895234707
 40
34.20683293210286
 40
34.68414690160942
 40
34.68414690160942
 40
34.68414690160942
 40
34.68414690160942
 10
163.4737246262218
 20
346.3923085917606
 30
0.0
 10
163.4555356645267
 20
346.5505675851512
 30
0.0
 10
163.4191579094116
 20
346.8670841504108
 30
0.0
 10
163.31119449513
 20
347.3335446443088
 30
0.0
 10
163.1655061688403
 20
347.7894109759364
 30
0.0
 10
162.9787794565929
 20
348.2309749198911
 30
0.0
 10
162.7540946830905
 20
348.6548464758402
 30
0.0
 10
162.4922449026706
 20
349.0578908615724
 30
0.0
 10
162.1959749566714
 20
349.4369474997937
 30
0.0
 10
161.8668422070384
 20
349.7892054282016
 30
0.0
 10
161.5080514653314
 20
350.1119577360123
 30
0.0
 10
161.1216565438112
 20
350.4027345448271
 30
0.0
 10
160.7112566596841
 20
350.6594081952953
 30
0.0
 10
160.2793610575739
 20
350.8798919787302
 30
0.0
 10
159.829812309037
 20
351.0627189585008
 30
0.0
 10
159.3655463710734
 20
351.2062411304319
 30
0.0
 10
158.8904846509447
 20
351.3096879972305
 30
0.0
 10
158.4079464103864
 20
351.3719179677762
 30
0.0
 10
157.9217754835384
 20
351.3928487571977
 30
0.0
 10
157.4356045566774
 20
351.3719179681858
 30
0.0
 10
156.9530663161297
 20
351.3096879980475
 30
0.0
 10
156.4780045958875
 20
351.2062411316667
 30
0.0
 10
156.0137386582247
 20
351.0627189601176
 30
0.0
 10
155.5641899083984
 20
350.8798919808706
 30
0.0
 10
155.1322943108725
 20
350.6594081974378
 30
0.0
 10
154.7218944093957
 20
350.4027345489284
 30
0.0
 10
154.3354995521199
 20
350.1119577348014
 30
0.0
 10
153.9767085706684
 20
349.7892054487878
 30
0.0
 10
153.6475767126019
 20
349.4369474413108
 30
0.0
 10
153.3513034441892
 20
349.0578910997783
 30
0.0
 10
153.089466026881
 20
348.6548456121323
 30
0.0
 10
152.8647351789827
 20
348.2309781649885
 30
0.0
 10
152.678180012651
 20
347.7893989254609
 30
0.0
 10
152.531852133232
 20
347.3335896215801
 30
0.0
 10
152.4262718834989
 20
346.8669166267154
 30
0.0
 10
152.3628259439722
 20
346.3930231244272
 30
0.0
 10
152.3414380696207
 20
345.9154683326626
 30
0.0
 10
152.3628259439443
 20
345.4379135408977
 30
0.0
 10
152.426271883443
 20
344.9640200386086
 30
0.0
 10
152.5318521331482
 20
344.4973470437427
 30
0.0
 10
152.6781800125395
 20
344.04153773986
 30
0.0
 10
152.8647351788432
 20
343.5999585003299
 30
0.0
 10
153.089466026714
 20
343.1760910531832
 30
0.0
 10
153.3513034439946
 20
342.773045565534
 30
0.0
 10
153.6475767123801
 20
342.3939892239975
 30
0.0
 10
153.9767085704194
 20
342.041731216516
 30
0.0
 10
154.3354995518434
 20
341.7189789304973
 30
0.0
 10
154.7218944090923
 20
341.4282021163647
 30
0.0
 10
155.1322943105421
 20
341.1715284678495
 30
0.0
 10
155.5641899080413
 20
340.9510446844099
 30
0.0
 10
156.0137386578409
 20
340.7682177051562
 30
0.0
 10
156.4780045954773
 20
340.6246955335993
 30
0.0
 10
156.9530663156933
 20
340.5212486672106
 30
0.0
 10
157.4356045562154
 20
340.4590186970629
 30
0.0
 10
157.921775483049
 20
340.4380879080414
 30
0.0
 10
158.4079464098772
 20
340.4590186974517
 30
0.0
 10
158.8904846503877
 20
340.5212486679888
 30
0.0
 10
159.3655463705745
 20
340.6246955347665
 30
0.0
 10
159.8298123082032
 20
340.7682177067159
 30
0.0
 10
160.2793610578721
 20
340.9510446863521
 30
0.0
 10
160.7112566556533
 20
341.1715284702137
 30
0.0
 10
161.1216565558013
 20
341.4282021190108
 30
0.0
 10
161.5080514175949
 20
341.7189789339502
 30
0.0
 10
161.8668423817343
 20
342.0417312188317
 30
0.0
 10
162.1959743036778
 20
342.3939892324207
 30
0.0
 10
162.4922473334912
 20
342.7730455530992
 30
0.0
 10
162.7540856380323
 20
343.1760911202872
 30
0.0
 10
162.9788131787175
 20
343.5999582729797
 30
0.0
 10
163.16538065779
 20
344.0415386108613
 30
0.0
 10
163.3116626322213
 20
344.4973438220499
 30
0.0
 10
163.417413936495
 20
344.9640320699057
 30
0.0
 10
163.4802218203802
 20
345.4378686797536
 30
0.0
 10
163.5039896851145
 20
345.9156356854837
 30
0.0
 10
163.4838129774925
 20
346.2334176240429
 30
0.0
 10
163.4737246262218
 20
346.3923085917606
 30
0.0
 11
163.4737246262218
 21
346.3923085917606
 31
0.0
 11
163.4102679122008
 21
346.8656578691619
 31
0.0
 11
163.3049868909954
 21
347.3314884077241
 31
0.0
 11
163.1587041986171
 21
347.7869282590548
 31
0.0
 11
162.9726508391755
 21
348.2276101868852
 31
0.0
 11
162.7479733123104
 21
348.6512528245494
 31
0.0
 11
162.4868354833818
 21
349.0534342286031
 31
0.0
 11
162.1906030115131
 21
349.4323583627487
 31
0.0
 11
161.8623258749309
 21
349.7838691205088
 31
0.0
 11
161.503575050312
 21
350.106525843971
 31
0.0
 11
161.1181172908386
 21
350.3967335232525
 31
0.0
 11
160.7077967463843
 21
350.6533062820529
 31
0.0
 11
160.2768329115401
 21
350.8734263831782
 31
0.0
 11
159.8274577530905
 21
351.0561320022933
 31
0.0
 11
159.3640339372153
 21
351.1994864927358
 31
0.0
 11
158.8892932017753
 21
351.3028078495888
 31
0.0
 11
158.4074434853669
 21
351.3650259806961
 31
0.0
 11
157.9217754740533
 21
351.3858705621419
 31
0.0
 11
157.4361074627398
 21
351.3650259806961
 31
0.0
 11
156.9542577463315
 21
351.3028078495888
 31
0.0
 11
156.4795170108916
 21
351.1994864927357
 31
0.0
 11
156.0160931950163
 21
351.0561320022932
 31
0.0
 11
155.5667180365666
 21
350.8734263831781
 31
0.0
 11
155.1357542017223
 21
350.6533062820528
 31
0.0
 11
154.7254336572681
 21
350.3967335232525
 31
0.0
 11
154.3399758977947
 21
350.1065258439709
 31
0.0
 11
153.9812250731758
 21
349.7838691205088
 31
0.0
 11
153.6529479365936
 21
349.4323583627487
 31
0.0
 11
153.3567154647249
 21
349.053434228603
 31
0.0
 11
153.0955776357963
 21
348.6512528245494
 31
0.0
 11
152.8709001089312
 21
348.2276101868852
 31
0.0
 11
152.6848467494895
 21
347.7869282590549
 31
0.0
 11
152.5385640571112
 21
347.3314884077241
 31
0.0
 11
152.4332830359057
 21
346.8656578691618
 31
0.0
 11
152.3698263218849
 21
346.3923085917606
 31
0.0
 11
152.3485660079289
 21
345.9154683320251
 31
0.0
 11
152.3698263218849
 21
345.4386280722894
 31
0.0
 11
152.4332830359057
 21
344.9652787948878
 31
0.0
 11
152.5385640571112
 21
344.4994482563256
 31
0.0
 11
152.6848467494895
 21
344.0440084049951
 31
0.0
 11
152.8709001089311
 21
343.6033264771647
 31
0.0
 11
153.0955776357962
 21
343.1796838395003
 31
0.0
 11
153.3567154647249
 21
342.7775024354469
 31
0.0
 11
153.6529479365937
 21
342.3985783013013
 31
0.0
 11
153.9812250731759
 21
342.0470675435411
 31
0.0
 11
154.3399758977948
 21
341.7244108200787
 31
0.0
 11
154.7254336572681
 21
341.4342031407971
 31
0.0
 11
155.1357542017223
 21
341.1776303819968
 31
0.0
 11
155.5667180365666
 21
340.9575102808715
 31
0.0
 11
156.0160931950161
 21
340.7748046617567
 31
0.0
 11
156.4795170108915
 21
340.6314501713142
 31
0.0
 11
156.9542577463314
 21
340.5281288144612
 31
0.0
 11
157.4361074627399
 21
340.4659106833537
 31
0.0
 11
157.9217754740533
 21
340.4450661019079
 31
0.0
 11
158.4074434853669
 21
340.4659106833537
 31
0.0
 11
158.8892932017753
 21
340.5281288144613
 31
0.0
 11
159.3640339372153
 21
340.6314501713144
 31
0.0
 11
159.8274577530905
 21
340.7748046617569
 31
0.0
 11
160.2768329115401
 21
340.9575102808718
 31
0.0
 11
160.7077967463843
 21
341.1776303819971
 31
0.0
 11
161.1181172908386
 21
341.4342031407975
 31
0.0
 11
161.503575050312
 21
341.724410820079
 31
0.0
 11
161.8623258749309
 21
342.0470675435411
 31
0.0
 11
162.1906030115131
 21
342.3985783013011
 31
0.0
 11
162.4868354833818
 21
342.7775024354467
 31
0.0
 11
162.7479733123104
 21
343.1796838395002
 31
0.0
 11
162.9726508391756
 21
343.6033264771647
 31
0.0
 11
163.1587041986173
 21
344.0440084049951
 31
0.0
 11
163.3049868909955
 21
344.4994482563259
 31
0.0
 11
163.4102679122009
 21
344.9652787948881
 31
0.0
 11
163.4737246262217
 21
345.4386280722895
 31
0.0
 11
163.4949849401778
 21
345.9154683320251
 31
0.0
 11
163.4737246262218
 21
346.3923085917606
 31
0.0
  0
SPLINE
  5
222
330
1F
100
AcDbEntity
  8
1
  6
Continuous
 62
     7
100
AcDbSpline
210
0.0
220
0.0
230
1.0
 70
    11
 71
     3
 72
    79
 73
    75
 74
    73
 42
0.000000001
 43
0.0000000001
 44
0.00000001
 40
0.0
 40
0.0
 40
0.0
 40
0.0
 40
0.3050593144644753
 40
0.6098394267303833
 40
0.9349604253340897
 40
1.259699857725951
 40
1.613345503038136
 40
1.966661884081106
 40
2.352521264016735
 40
2.738144552987358
 40
3.155654060797576
 40
3.573006709026838
 40
4.018266557340318
 40
4.463427186325345
 40
4.930114883140774
 40
5.396744577495289
 40
5.876908449466471
 40
6.357045598853221
 40
6.841795289273355
 40
7.326544979693564
 40
7.806682129080348
 40
8.28684600105063
 40
8.753475695401638
 40
9.220163392208269
 40
9.665324021176229
 40
10.1105838694592
 40
10.52793651764129
 40
10.94544602537727
 40
11.33106931424466
 40
11.71692869402811
 40
12.07024507486916
 40
12.42389071988766
 40
12.74863015186999
 40
13.07375114977066
 40
13.37853125996738
 40
13.68359058164123
 40
13.98125591022572
 40
14.27892123880907
 40
14.58398056047985
 40
14.88876067067138
 40
15.21388166856501
 40
15.53862110053942
 40
15.89226674554865
 40
16.24558312638026
 40
16.63144250615359
 40
17.01706579501147
 40
17.43457530273769
 40
17.85192795091055
 40
18.29718779918446
 40
18.74234842814413
 40
19.20903612494281
 40
19.67566581928653
 40
20.15582969125023
 40
20.63596684063151
 40
21.12071653104718
 40
21.60546622146379
 40
22.0856033708481
 40
22.565767242818
 40
23.03239693717252
 40
23.4990846339892
 40
23.94424526297654
 40
24.38950511129306
 40
24.80685775952545
 40
25.22436726733778
 40
25.60999055630828
 40
25.99584993623824
 40
26.34916631726541
 40
26.70281196253744
 40
27.02755139483258
 40
27.35267239314818
 40
27.65745250388223
 40
27.96251182635628
 40
28.26017715710082
 40
28.55784247874134
 40
28.55784247874134
 40
28.55784247874134
 40
28.55784247874134
 10
163.4731934584867
 20
336.1986086915165
 30
0.0
 10
163.4545109647994
 20
336.0984704158483
 30
0.0
 10
163.417163085205
 20
335.8982855131603
 30
0.0
 10
163.3056708233746
 20
335.6057068342599
 30
0.0
 10
163.158156245497
 20
335.3230591998439
 30
0.0
 10
162.9673361298508
 20
335.0473504605442
 30
0.0
 10
162.7417374048802
 20
334.7869571068831
 30
0.0
 10
162.4764037525821
 20
334.5365877257001
 30
0.0
 10
162.1808909648669
 20
334.3050213890347
 30
0.0
 10
161.8493926113525
 20
334.0870683205496
 30
0.0
 10
161.4928244215897
 20
333.8903767333195
 30
0.0
 10
161.1053119727261
 20
333.7109782317367
 30
0.0
 10
160.6980477816157
 20
333.5546398428349
 30
0.0
 10
160.2662479877832
 20
333.4188878367575
 30
0.0
 10
159.8201862181701
 20
333.3074953266408
 30
0.0
 10
159.3571220775877
 20
333.219243558947
 30
0.0
 10
158.8854329870302
 20
333.1562084816723
 30
0.0
 10
158.4050477144056
 20
333.1179181900121
 30
0.0
 10
157.9217754840175
 20
333.1052729639288
 30
0.0
 10
157.438503253614
 20
333.117918190026
 30
0.0
 10
156.958117981038
 20
333.1562084817039
 30
0.0
 10
156.4864288903107
 20
333.219243558955
 30
0.0
 10
156.0233647503534
 20
333.3074953267287
 30
0.0
 10
155.5773029784696
 20
333.4188878364794
 30
0.0
 10
155.1455031927499
 20
333.5546398436957
 30
0.0
 10
154.738238972299
 20
333.7109782281941
 30
0.0
 10
154.3507266264123
 20
333.8903767448163
 30
0.0
 10
153.9941580671694
 20
334.0870682774964
 30
0.0
 10
153.6626609926282
 20
334.305021534045
 30
0.0
 10
153.3671436423812
 20
334.5365871988133
 30
0.0
 10
153.1018256590449
 20
334.7869588862238
 30
0.0
 10
152.8761710799496
 20
335.0473440173876
 30
0.0
 10
152.6855433422586
 20
335.3230810752844
 30
0.0
 10
152.5373378923191
 20
335.6056270079142
 30
0.0
 10
152.4282721982791
 20
335.8985628935587
 30
0.0
 10
152.3638277547612
 20
336.1951536740006
 30
0.0
 10
152.3410287620495
 20
336.4954752929173
 30
0.0
 10
152.3638277547507
 20
336.7957969118338
 30
0.0
 10
152.4282721982582
 20
337.0923876922748
 30
0.0
 10
152.5373378922882
 20
337.3853235779177
 30
0.0
 10
152.6855433422183
 20
337.6678695105448
 30
0.0
 10
152.8761710799
 20
337.9436065684385
 30
0.0
 10
153.1018256589869
 20
338.2039916995979
 30
0.0
 10
153.3671436423149
 20
338.454363387003
 30
0.0
 10
153.6626609925546
 20
338.6859290517651
 30
0.0
 10
153.9941580670887
 20
338.9038823083065
 30
0.0
 10
154.3507266263252
 20
339.1005738409791
 30
0.0
 10
154.7382389722061
 20
339.2799723575911
 30
0.0
 10
155.1455031926519
 20
339.4363107420788
 30
0.0
 10
155.5773029783668
 20
339.5720627492821
 30
0.0
 10
156.0233647502461
 20
339.6834552590184
 30
0.0
 10
156.4864288901994
 20
339.7717070267747
 30
0.0
 10
156.9581179809225
 20
339.8347421040065
 30
0.0
 10
157.4385032534957
 20
339.8730323956624
 30
0.0
 10
157.9217754838923
 20
339.8856776217349
 30
0.0
 10
158.4050477142878
 20
339.8730323956254
 30
0.0
 10
158.8854329868644
 20
339.8347421039265
 30
0.0
 10
159.3571220775754
 20
339.7717070266444
 30
0.0
 10
159.8201862175723
 20
339.6834552588143
 30
0.0
 10
160.2662479892886
 20
339.5720627490152
 30
0.0
 10
160.6980477755749
 20
339.4363107416154
 30
0.0
 10
161.105311993933
 20
339.2799723572936
 30
0.0
 10
161.4928243471045
 20
339.1005738394298
 30
0.0
 10
161.8493928801225
 20
338.9038823104002
 30
0.0
 10
162.1808900453221
 20
338.6859290402479
 30
0.0
 10
162.4764070719882
 20
338.4543634228049
 30
0.0
 10
162.7417261663574
 20
338.2039915714735
 30
0.0
 10
162.9673767846994
 20
337.9436070229302
 30
0.0
 10
163.1580181639544
 20
337.6678679564001
 30
0.0
 10
163.3061746233824
 20
337.3853292348871
 30
0.0
 10
163.4154123873439
 20
337.0923680187225
 30
0.0
 10
163.4792280714485
 20
336.7958697942389
 30
0.0
 10
163.5043205240705
 20
336.4952105648347
 30
0.0
 10
163.4835691437731
 20
336.2974759818816
 30
0.0
 10
163.4731934584867
 20
336.1986086915165
 30
0.0
 11
163.4731934584867
 21
336.1986086915165
 31
0.0
 11
163.4082942989513
 21
335.9005327130934
 31
0.0
 11
163.3028943698673
 21
335.6145575907591
 31
0.0
 11
163.1523018865198
 21
335.326416015646
 31
0.0
 11
162.9684003197421
 21
335.0587671552279
 31
0.0
 11
162.7373966332968
 21
334.7909938571751
 31
0.0
 11
162.4809396188145
 21
334.5479665649995
 31
0.0
 11
162.1777254362726
 21
334.3093274640167
 31
0.0
 11
161.8558114669892
 21
334.0970146821782
 31
0.0
 11
161.4905732007367
 21
333.8947396270051
 31
0.0
 11
161.1120025768683
 21
333.7190480913231
 31
0.0
 11
160.6965121001368
 21
333.5589731205894
 31
0.0
 11
160.2719208584187
 21
333.4252186326261
 31
0.0
 11
159.8192304158322
 21
333.3117780334192
 31
0.0
 11
159.3608759842132
 21
333.2242881101785
 31
0.0
 11
158.8849744875725
 21
333.1604515262958
 31
0.0
 11
158.4063565190715
 21
333.1222871129092
 31
0.0
 11
157.9217754740533
 21
333.1095014501987
 31
0.0
 11
157.4371944290352
 21
333.1222871129091
 31
0.0
 11
156.9585764605342
 21
333.1604515262956
 31
0.0
 11
156.4826749638936
 21
333.2242881101783
 31
0.0
 11
156.0243205322745
 21
333.3117780334192
 31
0.0
 11
155.571630089688
 21
333.4252186326261
 31
0.0
 11
155.1470388479698
 21
333.5589731205894
 31
0.0
 11
154.7315483712384
 21
333.7190480913231
 31
0.0
 11
154.35297774737
 21
333.8947396270052
 31
0.0
 11
153.9877394811175
 21
334.097014682178
 31
0.0
 11
153.6658255118342
 21
334.3093274640167
 31
0.0
 11
153.3626113292921
 21
334.5479665649995
 31
0.0
 11
153.1061543148098
 21
334.7909938571751
 31
0.0
 11
152.8751506283646
 21
335.0587671552279
 31
0.0
 11
152.6912490615869
 21
335.3264160156459
 31
0.0
 11
152.5406565782394
 21
335.614557590759
 31
0.0
 11
152.4352566491553
 21
335.9005327130934
 31
0.0
 11
152.3703574896198
 21
336.1986086915165
 31
0.0
 11
152.3485660079287
 21
336.4954752932897
 31
0.0
 11
152.3703574896198
 21
336.7923418950629
 31
0.0
 11
152.4352566491553
 21
337.0904178734862
 31
0.0
 11
152.5406565782395
 21
337.3763929958207
 31
0.0
 11
152.691249061587
 21
337.6645345709337
 31
0.0
 11
152.8751506283646
 21
337.9321834313518
 31
0.0
 11
153.1061543148098
 21
338.1999567294044
 31
0.0
 11
153.3626113292921
 21
338.4429840215799
 31
0.0
 11
153.6658255118342
 21
338.6816231225625
 31
0.0
 11
153.9877394811175
 21
338.8939359044014
 31
0.0
 11
154.3529777473699
 21
339.0962109595745
 31
0.0
 11
154.7315483712383
 21
339.2719024952565
 31
0.0
 11
155.1470388479698
 21
339.4319774659903
 31
0.0
 11
155.571630089688
 21
339.5657319539536
 31
0.0
 11
156.0243205322746
 21
339.6791725531604
 31
0.0
 11
156.4826749638935
 21
339.766662476401
 31
0.0
 11
156.9585764605341
 21
339.8304990602836
 31
0.0
 11
157.4371944290351
 21
339.8686634736702
 31
0.0
 11
157.9217754740533
 21
339.8814491363808
 31
0.0
 11
158.4063565190716
 21
339.8686634736703
 31
0.0
 11
158.8849744875725
 21
339.8304990602837
 31
0.0
 11
159.3608759842131
 21
339.7666624764011
 31
0.0
 11
159.8192304158321
 21
339.6791725531604
 31
0.0
 11
160.2719208584186
 21
339.5657319539536
 31
0.0
 11
160.6965121001368
 21
339.4319774659903
 31
0.0
 11
161.1120025768683
 21
339.2719024952564
 31
0.0
 11
161.4905732007367
 21
339.0962109595743
 31
0.0
 11
161.8558114669892
 21
338.8939359044014
 31
0.0
 11
162.1777254362726
 21
338.6816231225628
 31
0.0
 11
162.4809396188146
 21
338.4429840215801
 31
0.0
 11
162.7373966332969
 21
338.1999567294045
 31
0.0
 11
162.9684003197422
 21
337.9321834313517
 31
0.0
 11
163.1523018865198
 21
337.6645345709337
 31
0.0
 11
163.3028943698673
 21
337.3763929958206
 31
0.0
 11
163.4082942989513
 21
337.0904178734863
 31
0.0
 11
163.4731934584867
 21
336.7923418950629
 31
0.0
 11
163.4949849401778
 21
336.4954752932896
 31
0.0
 11
163.4731934584867
 21
336.1986086915165
 31
0.0
  0
SPLINE
  5
223
330
1F
100
AcDbEntity
  8
1
  6
Continuous
 62
     7
100
AcDbSpline
210
0.0
220
0.0
230
1.0
 70
    11
 71
     3
 72
    79
 73
    75
 74
    73
 42
0.000000001
 43
0.0000000001
 44
0.00000001
 40
0.0
 40
0.0
 40
0.0
 40
0.0
 40
0.4315859547805339
 40
0.8631272738382247
 40
1.300920644206776
 40
1.738636092523169
 40
2.185762236870421
 40
2.632794301732966
 40
3.091109027806938
 40
3.549329681473958
 40
4.019262662341414
 40
4.489113047943445
 40
4.969712000523797
 40
5.450246300146365
 40
5.939369933566993
 40
6.428449752857144
 40
6.923056207979662
 40
7.417640655199087
 40
7.91413023026736
 40
8.41061980532699
 40
8.905204252520477
 40
9.399810707599029
 40
9.888890526827057
 40
10.37801416016548
 40
10.85854845968582
 40
11.33914741214015
 40
11.80899779759322
 40
12.27893077828281
 40
12.73715143174401
 40
13.19546615757426
 40
13.64249822215319
 40
14.08962436615555
 40
14.52733981403344
 40
14.96513318374398
 40
15.39667450128406
 40
15.82826046472916
 40
16.25765399691322
 40
16.68704752909616
 40
17.11863349253788
 40
17.55017481007233
 40
17.98796817977523
 40
18.42568362764353
 40
18.87280977163455
 40
19.31984183620052
 40
19.77815656201638
 40
20.23637721546211
 40
20.70631019613499
 40
21.17616058157072
 40
21.6567595340067
 40
22.13729383350821
 40
22.62641746682721
 40
23.1154972860355
 40
23.61010374109387
 40
24.10468818826699
 40
24.60117776330592
 40
25.09766733835323
 40
25.59225178555155
 40
26.08685824065261
 40
26.57593805992114
 40
27.06506169331952
 40
27.54559599291948
 40
28.0261949454762
 40
28.49604533105364
 40
28.96597831189451
 40
29.42419896553213
 40
29.882513691571
 40
30.32954575638825
 40
30.77667190066848
 40
31.21438734886533
 40
31.65218071895533
 40
32.08372203696887
 40
32.51530800110088
 40
32.94470153483668
 40
33.37409505838562
 40
33.37409505838562
 40
33.37409505838562
 40
33.37409505838562
 10
152.3292663462126
 20
191.4936727263599
 30
0.0
 10
152.3479569307028
 20
191.3509037403075
 30
0.0
 10
152.3853361608735
 20
191.0653805329383
 30
0.0
 10
152.4964880173477
 20
190.6450955056641
 30
0.0
 10
152.6458588895433
 20
190.235238922862
 30
0.0
 10
152.8378656722674
 20
189.8375462883969
 30
0.0
 10
153.0679354648997
 20
189.4570987870511
 30
0.0
 10
153.3368119296087
 20
189.0944395759761
 30
0.0
 10
153.6397387835507
 20
188.7547528526754
 30
0.0
 10
153.9772104266311
 20
188.4381489203001
 30
0.0
 10
154.3436089846963
 20
188.1492847850828
 30
0.0
 10
154.7392411303847
 20
187.888231644841
 30
0.0
 10
155.1579886463332
 20
187.6587078953356
 30
0.0
 10
155.5996608914189
 20
187.4609559228457
 30
0.0
 10
156.0581586097763
 20
187.2975525532538
 30
0.0
 10
156.532440348452
 20
187.1689177963536
 30
0.0
 10
157.0169392266263
 20
187.076498348088
 30
0.0
 10
157.5094854410388
 20
187.0207169375883
 30
0.0
 10
158.005457324817
 20
187.0020802103039
 30
0.0
 10
158.5014292086077
 20
187.0207169372899
 30
0.0
 10
158.9939754229978
 20
187.0764983474926
 30
0.0
 10
159.4784743012945
 20
187.1689177954438
 30
0.0
 10
159.952756039585
 20
187.2975525520756
 30
0.0
 10
160.4112537594624
 20
187.4609559211992
 30
0.0
 10
160.8529259990958
 20
187.6587078939206
 30
0.0
 10
161.2716735353295
 20
187.8882316410279
 30
0.0
 10
161.6673056071292
 20
188.1492847884455
 30
0.0
 10
162.0337044376571
 20
188.4381488955604
 30
0.0
 10
162.3711750883454
 20
188.7547529285954
 30
0.0
 10
162.6741055971488
 20
189.0944392793662
 30
0.0
 10
162.9429687416492
 20
189.4570998462166
 30
0.0
 10
163.1730876489421
 20
189.8375423463783
 30
0.0
 10
163.3649147988077
 20
190.2352532698225
 30
0.0
 10
163.5149500135053
 20
190.645042210511
 30
0.0
 10
163.6236560686986
 20
191.0655762628067
 30
0.0
 10
163.6887168246164
 20
191.4922181085756
 30
0.0
 10
163.7108511514952
 20
191.9225106199735
 30
0.0
 10
163.688716824638
 20
192.3528031313712
 30
0.0
 10
163.6236560687418
 20
192.7794449771402
 30
0.0
 10
163.5149500135697
 20
193.1999790294356
 30
0.0
 10
163.3649147988937
 20
193.6097679701238
 30
0.0
 10
163.1730876490489
 20
194.0074788935676
 30
0.0
 10
162.942968741777
 20
194.3879213937287
 30
0.0
 10
162.6741055972972
 20
194.7505819605783
 30
0.0
 10
162.3711750885141
 20
195.0902683113484
 30
0.0
 10
162.033704437846
 20
195.4068723443822
 30
0.0
 10
161.6673056073381
 20
195.6957364514958
 30
0.0
 10
161.2716735355583
 20
195.956789598912
 30
0.0
 10
160.8529259993443
 20
196.1863133460172
 30
0.0
 10
160.4112537597305
 20
196.3840653187366
 30
0.0
 10
159.9527560398729
 20
196.5474686878578
 30
0.0
 10
159.478474301602
 20
196.6761034444872
 30
0.0
 10
158.9939754233255
 20
196.7685228924357
 30
0.0
 10
158.501429208955
 20
196.8243043026356
 30
0.0
 10
158.0054573251868
 20
196.8429410296187
 30
0.0
 10
157.5094854414224
 20
196.8243043023321
 30
0.0
 10
157.0169392270587
 20
196.7685228918266
 30
0.0
 10
156.5324403488052
 20
196.6761034435707
 30
0.0
 10
156.0581586105274
 20
196.5474686866248
 30
0.0
 10
155.599660890806
 20
196.3840653171951
 30
0.0
 10
155.1579886508371
 20
196.1863133441076
 30
0.0
 10
154.7392411161195
 20
195.9567895968138
 30
0.0
 10
154.343609039102
 20
195.6957364485105
 30
0.0
 10
153.9772102281704
 20
195.4068723430246
 30
0.0
 10
153.6397395065126
 20
195.0902683023806
 30
0.0
 10
153.3368092595551
 20
194.7505819778725
 30
0.0
 10
153.0679451612935
 20
194.3879213134928
 30
0.0
 10
152.8378297713753
 20
194.0074791710171
 30
0.0
 10
152.6459897577392
 20
193.609766937346
 30
0.0
 10
152.4960021184773
 20
193.1999828400998
 30
0.0
 10
152.3871209135833
 20
192.7794309539797
 30
0.0
 10
152.3227108208621
 20
192.3528553555375
 30
0.0
 10
152.2981597504244
 20
191.9223167811156
 30
0.0
 10
152.3188974829967
 20
191.6365540769438
 30
0.0
 10
152.3292663462126
 20
191.4936727263599
 30
0.0
 11
152.3292663462126
 21
191.4936727263599
 31
0.0
 11
152.3944308297128
 21
191.0670346665289
 31
0.0
 11
152.5021319136675
 21
190.6491490536903
 31
0.0
 11
152.6526299029527
 21
190.2380366725341
 31
0.0
 11
152.8424696021869
 21
189.8436311679406
 31
0.0
 11
153.073778867602
 21
189.4609853623598
 31
0.0
 11
153.3397238467513
 21
189.1016652613892
 31
0.0
 11
153.6446289132117
 21
188.7594879849811
 31
0.0
 11
153.9785860938251
 21
188.4457384528793
 31
0.0
 11
154.3474967154402
 21
188.1546337299481
 31
0.0
 11
154.73951989316
 21
187.895641040972
 31
0.0
 11
155.1608717651654
 21
187.6644745357135
 31
0.0
 11
155.5993701508571
 21
187.4679233239486
 31
0.0
 11
156.0600589796707
 21
187.3035830313415
 31
0.0
 11
156.5320520312081
 21
187.1754361275776
 31
0.0
 11
157.0178817653753
 21
187.0826729082263
 31
0.0
 11
157.5093186477795
 21
187.026963249553
 31
0.0
 11
158.0054573345032
 21
187.0083004062123
 31
0.0
 11
158.5015960212269
 21
187.0269632495529
 31
0.0
 11
158.9930329036311
 21
187.0826729082262
 31
0.0
 11
159.4788626377983
 21
187.1754361275775
 31
0.0
 11
159.9508556893358
 21
187.3035830313414
 31
0.0
 11
160.4115445181494
 21
187.4679233239486
 31
0.0
 11
160.8500429038412
 21
187.6644745357135
 31
0.0
 11
161.2713947758466
 21
187.895641040972
 31
0.0
 11
161.6634179535664
 21
188.1546337299481
 31
0.0
 11
162.0323285751817
 21
188.4457384528793
 31
0.0
 11
162.3662857557951
 21
188.7594879849811
 31
0.0
 11
162.6711908222554
 21
189.1016652613891
 31
0.0
 11
162.9371358014047
 21
189.4609853623598
 31
0.0
 11
163.1684450668196
 21
189.8436311679406
 31
0.0
 11
163.3582847660538
 21
190.2380366725341
 31
0.0
 11
163.508782755339
 21
190.6491490536903
 31
0.0
 11
163.6164838392937
 21
191.0670346665289
 31
0.0
 11
163.681648322794
 21
191.4936727263599
 31
0.0
 11
163.7034855884311
 21
191.9225106205293
 31
0.0
 11
163.681648322794
 21
192.3513485146987
 31
0.0
 11
163.6164838392938
 21
192.7779865745297
 31
0.0
 11
163.508782755339
 21
193.1958721873683
 31
0.0
 11
163.3582847660539
 21
193.6069845685245
 31
0.0
 11
163.1684450668197
 21
194.001390073118
 31
0.0
 11
162.9371358014047
 21
194.3840358786988
 31
0.0
 11
162.6711908222555
 21
194.7433559796694
 31
0.0
 11
162.3662857557952
 21
195.0855332560776
 31
0.0
 11
162.0323285751817
 21
195.3992827881794
 31
0.0
 11
161.6634179535664
 21
195.6903875111105
 31
0.0
 11
161.2713947758466
 21
195.9493802000867
 31
0.0
 11
160.8500429038411
 21
196.1805467053452
 31
0.0
 11
160.4115445181494
 21
196.3770979171099
 31
0.0
 11
159.9508556893358
 21
196.5414382097171
 31
0.0
 11
159.4788626377983
 21
196.669585113481
 31
0.0
 11
158.9930329036311
 21
196.7623483328322
 31
0.0
 11
158.5015960212269
 21
196.8180579915056
 31
0.0
 11
158.0054573345032
 21
196.8367208348463
 31
0.0
 11
157.5093186477795
 21
196.8180579915056
 31
0.0
 11
157.0178817653753
 21
196.7623483328322
 31
0.0
 11
156.5320520312081
 21
196.669585113481
 31
0.0
 11
156.0600589796706
 21
196.5414382097171
 31
0.0
 11
155.5993701508571
 21
196.3770979171099
 31
0.0
 11
155.1608717651655
 21
196.1805467053452
 31
0.0
 11
154.7395198931601
 21
195.9493802000867
 31
0.0
 11
154.3474967154404
 21
195.6903875111106
 31
0.0
 11
153.9785860938252
 21
195.3992827881794
 31
0.0
 11
153.6446289132117
 21
195.0855332560776
 31
0.0
 11
153.3397238467513
 21
194.7433559796694
 31
0.0
 11
153.0737788676019
 21
194.3840358786988
 31
0.0
 11
152.8424696021869
 21
194.001390073118
 31
0.0
 11
152.6526299029527
 21
193.6069845685246
 31
0.0
 11
152.5021319136675
 21
193.1958721873685
 31
0.0
 11
152.3944308297128
 21
192.7779865745297
 31
0.0
 11
152.3292663462126
 21
192.3513485146988
 31
0.0
 11
152.3074290805755
 21
191.9225106205293
 31
0.0
 11
152.3292663462126
 21
191.4936727263599
 31
0.0
  0
SPLINE
  5
224
330
1F
100
AcDbEntity
  8
1
  6
Continuous
 62
     7
100
AcDbSpline
210
0.0
220
0.0
230
1.0
 70
    11
 71
     3
 72
    79
 73
    75
 74
    73
 42
0.000000001
 43
0.0000000001
 44
0.00000001
 40
0.0
 40
0.0
 40
0.0
 40
0.0
 40
0.4315859547805058
 40
0.8631272738382241
 40
1.300920644206802
 40
1.738636092523169
 40
2.185762236870495
 40
2.63279430173297
 40
3.091109027806942
 40
3.549329681473963
 40
4.019262662341401
 40
4.489113047943464
 40
4.969712000523816
 40
5.450246300146407
 40
5.939369933567044
 40
6.428449752857182
 40
6.923056207979683
 40
7.417640655199108
 40
7.914130230267381
 40
8.410619805327011
 40
8.905204252520491
 40
9.399810707599043
 40
9.888890526827064
 40
10.37801416016547
 40
10.85854845968583
 40
11.33914741214017
 40
11.80899779759324
 40
12.27893077828283
 40
12.73715143174403
 40
13.19546615757428
 40
13.64249822215316
 40
14.08962436615557
 40
14.52733981403343
 40
14.965133183744
 40
15.39667450128408
 40
15.82826046472919
 40
16.2576539969133
 40
16.68704752909618
 40
17.11863349253785
 40
17.55017481007241
 40
17.98796817977528
 40
18.42568362764355
 40
18.87280977163455
 40
19.31984183620054
 40
19.77815656201638
 40
20.23637721546209
 40
20.70631019613497
 40
21.17616058157068
 40
21.65675953400669
 40
22.13729383350823
 40
22.62641746682725
 40
23.11549728603552
 40
23.61010374109389
 40
24.10468818826701
 40
24.60117776330594
 40
25.09766733835325
 40
25.59225178555156
 40
26.08685824065262
 40
26.57593805992115
 40
27.06506169331952
 40
27.54559599291951
 40
28.02619494547622
 40
28.49604533105368
 40
28.96597831189455
 40
29.4241989655322
 40
29.88251369157104
 40
30.32954575638827
 40
30.77667190066852
 40
31.21438734886542
 40
31.65218071895542
 40
32.08372203696889
 40
32.51530800110093
 40
32.94470153483672
 40
33.37409505838566
 40
33.37409505838566
 40
33.37409505838566
 40
33.37409505838566
 10
152.3292663462126
 20
180.3513485146987
 30
0.0
 10
152.3479569307028
 20
180.4941175007511
 30
0.0
 10
152.3853361608735
 20
180.7796407081203
 30
0.0
 10
152.4964880173477
 20
181.1999257353945
 30
0.0
 10
152.6458588895433
 20
181.6097823181966
 30
0.0
 10
152.8378656722675
 20
182.0074749526618
 30
0.0
 10
153.0679354648996
 20
182.3879224540075
 30
0.0
 10
153.3368119296087
 20
182.7505816650826
 30
0.0
 10
153.6397387835507
 20
183.0902683883831
 30
0.0
 10
153.9772104266311
 20
183.4068723207585
 30
0.0
 10
154.3436089846963
 20
183.6957364559757
 30
0.0
 10
154.7392411303848
 20
183.9567895962177
 30
0.0
 10
155.1579886463332
 20
184.186313345723
 30
0.0
 10
155.5996608914189
 20
184.3840653182129
 30
0.0
 10
156.0581586097764
 20
184.5474686878049
 30
0.0
 10
156.532440348452
 20
184.6761034447051
 30
0.0
 10
157.0169392266263
 20
184.7685228929706
 30
0.0
 10
157.5094854410388
 20
184.8243043034701
 30
0.0
 10
158.005457324817
 20
184.8429410307547
 30
0.0
 10
158.5014292086077
 20
184.8243043037685
 30
0.0
 10
158.9939754229978
 20
184.768522893566
 30
0.0
 10
159.4784743012944
 20
184.6761034456148
 30
0.0
 10
159.9527560395851
 20
184.547468688983
 30
0.0
 10
160.4112537594624
 20
184.3840653198594
 30
0.0
 10
160.8529259990958
 20
184.1863133471379
 30
0.0
 10
161.2716735353295
 20
183.9567896000308
 30
0.0
 10
161.6673056071292
 20
183.6957364526131
 30
0.0
 10
162.0337044376571
 20
183.4068723454983
 30
0.0
 10
162.3711750883454
 20
183.0902683124632
 30
0.0
 10
162.6741055971489
 20
182.7505819616924
 30
0.0
 10
162.9429687416493
 20
182.387921394842
 30
0.0
 10
163.173087648942
 20
182.0074788946803
 30
0.0
 10
163.3649147988078
 20
181.609767971236
 30
0.0
 10
163.5149500135053
 20
181.1999790305476
 30
0.0
 10
163.6236560686986
 20
180.779444978252
 30
0.0
 10
163.6887168246165
 20
180.3528031324829
 30
0.0
 10
163.7108511514952
 20
179.9225106210851
 30
0.0
 10
163.688716824638
 20
179.4922181096873
 30
0.0
 10
163.6236560687418
 20
179.0655762639184
 30
0.0
 10
163.5149500135697
 20
178.6450422116229
 30
0.0
 10
163.3649147988937
 20
178.2352532709348
 30
0.0
 10
163.1730876490489
 20
177.837542347491
 30
0.0
 10
162.9429687417769
 20
177.4570998473299
 30
0.0
 10
162.6741055972973
 20
177.0944392804802
 30
0.0
 10
162.3711750885141
 20
176.7547529297103
 30
0.0
 10
162.033704437846
 20
176.4381488966764
 30
0.0
 10
161.6673056073381
 20
176.1492847895628
 30
0.0
 10
161.2716735355582
 20
175.8882316421467
 30
0.0
 10
160.8529259993443
 20
175.6587078950414
 30
0.0
 10
160.4112537597305
 20
175.460955922322
 30
0.0
 10
159.9527560398728
 20
175.2975525532006
 30
0.0
 10
159.478474301602
 20
175.1689177965713
 30
0.0
 10
158.9939754233255
 20
175.0764983486229
 30
0.0
 10
158.501429208955
 20
175.020716938423
 30
0.0
 10
158.0054573251868
 20
175.0020802114399
 30
0.0
 10
157.5094854414224
 20
175.0207169387265
 30
0.0
 10
157.0169392270587
 20
175.0764983492319
 30
0.0
 10
156.5324403488052
 20
175.1689177974878
 30
0.0
 10
156.0581586105274
 20
175.2975525544338
 30
0.0
 10
155.599660890806
 20
175.4609559238633
 30
0.0
 10
155.157988650837
 20
175.6587078969509
 30
0.0
 10
154.7392411161195
 20
175.8882316442447
 30
0.0
 10
154.343609039102
 20
176.1492847925481
 30
0.0
 10
153.9772102281704
 20
176.4381488980339
 30
0.0
 10
153.6397395065126
 20
176.754752938678
 30
0.0
 10
153.3368092595551
 20
177.0944392631862
 30
0.0
 10
153.0679451612935
 20
177.4570999275657
 30
0.0
 10
152.8378297713752
 20
177.8375420700414
 30
0.0
 10
152.6459897577393
 20
178.2352543037127
 30
0.0
 10
152.4960021184772
 20
178.6450384009588
 30
0.0
 10
152.3871209135833
 20
179.0655902870788
 30
0.0
 10
152.3227108208621
 20
179.4921658855211
 30
0.0
 10
152.2981597504244
 20
179.922704459943
 30
0.0
 10
152.3188974829967
 20
180.2084671641148
 30
0.0
 10
152.3292663462126
 20
180.3513485146987
 30
0.0
 11
152.3292663462126
 21
180.3513485146987
 31
0.0
 11
152.3944308297128
 21
180.7779865745296
 31
0.0
 11
152.5021319136675
 21
181.1958721873683
 31
0.0
 11
152.6526299029527
 21
181.6069845685246
 31
0.0
 11
152.8424696021869
 21
182.001390073118
 31
0.0
 11
153.073778867602
 21
182.3840358786988
 31
0.0
 11
153.3397238467513
 21
182.7433559796694
 31
0.0
 11
153.6446289132117
 21
183.0855332560775
 31
0.0
 11
153.9785860938251
 21
183.3992827881793
 31
0.0
 11
154.3474967154402
 21
183.6903875111105
 31
0.0
 11
154.73951989316
 21
183.9493802000867
 31
0.0
 11
155.1608717651654
 21
184.1805467053452
 31
0.0
 11
155.5993701508571
 21
184.37709791711
 31
0.0
 11
156.0600589796707
 21
184.5414382097172
 31
0.0
 11
156.5320520312081
 21
184.669585113481
 31
0.0
 11
157.0178817653753
 21
184.7623483328322
 31
0.0
 11
157.5093186477795
 21
184.8180579915056
 31
0.0
 11
158.0054573345032
 21
184.8367208348463
 31
0.0
 11
158.5015960212269
 21
184.8180579915056
 31
0.0
 11
158.9930329036311
 21
184.7623483328323
 31
0.0
 11
159.4788626377983
 21
184.6695851134811
 31
0.0
 11
159.9508556893358
 21
184.5414382097173
 31
0.0
 11
160.4115445181494
 21
184.3770979171101
 31
0.0
 11
160.8500429038412
 21
184.1805467053452
 31
0.0
 11
161.2713947758466
 21
183.9493802000866
 31
0.0
 11
161.6634179535664
 21
183.6903875111105
 31
0.0
 11
162.0323285751817
 21
183.3992827881793
 31
0.0
 11
162.3662857557951
 21
183.0855332560775
 31
0.0
 11
162.6711908222554
 21
182.7433559796694
 31
0.0
 11
162.9371358014047
 21
182.3840358786988
 31
0.0
 11
163.1684450668196
 21
182.001390073118
 31
0.0
 11
163.3582847660538
 21
181.6069845685246
 31
0.0
 11
163.508782755339
 21
181.1958721873683
 31
0.0
 11
163.6164838392937
 21
180.7779865745297
 31
0.0
 11
163.681648322794
 21
180.3513485146987
 31
0.0
 11
163.7034855884311
 21
179.9225106205293
 31
0.0
 11
163.681648322794
 21
179.4936727263599
 31
0.0
 11
163.6164838392938
 21
179.067034666529
 31
0.0
 11
163.508782755339
 21
178.6491490536902
 31
0.0
 11
163.3582847660539
 21
178.238036672534
 31
0.0
 11
163.1684450668197
 21
177.8436311679406
 31
0.0
 11
162.9371358014047
 21
177.4609853623598
 31
0.0
 11
162.6711908222555
 21
177.1016652613891
 31
0.0
 11
162.3662857557952
 21
176.7594879849811
 31
0.0
 11
162.0323285751817
 21
176.4457384528793
 31
0.0
 11
161.6634179535664
 21
176.1546337299481
 31
0.0
 11
161.2713947758466
 21
175.895641040972
 31
0.0
 11
160.8500429038411
 21
175.6644745357135
 31
0.0
 11
160.4115445181494
 21
175.4679233239486
 31
0.0
 11
159.9508556893358
 21
175.3035830313414
 31
0.0
 11
159.4788626377983
 21
175.1754361275775
 31
0.0
 11
158.9930329036311
 21
175.0826729082263
 31
0.0
 11
158.5015960212269
 21
175.026963249553
 31
0.0
 11
158.0054573345032
 21
175.0083004062123
 31
0.0
 11
157.5093186477795
 21
175.026963249553
 31
0.0
 11
157.0178817653753
 21
175.0826729082263
 31
0.0
 11
156.5320520312081
 21
175.1754361275775
 31
0.0
 11
156.0600589796706
 21
175.3035830313414
 31
0.0
 11
155.5993701508571
 21
175.4679233239486
 31
0.0
 11
155.1608717651655
 21
175.6644745357134
 31
0.0
 11
154.7395198931601
 21
175.8956410409719
 31
0.0
 11
154.3474967154404
 21
176.154633729948
 31
0.0
 11
153.9785860938252
 21
176.4457384528792
 31
0.0
 11
153.6446289132117
 21
176.759487984981
 31
0.0
 11
153.3397238467513
 21
177.1016652613891
 31
0.0
 11
153.0737788676019
 21
177.4609853623598
 31
0.0
 11
152.8424696021869
 21
177.8436311679405
 31
0.0
 11
152.6526299029527
 21
178.238036672534
 31
0.0
 11
152.5021319136675
 21
178.6491490536902
 31
0.0
 11
152.3944308297128
 21
179.0670346665288
 31
0.0
 11
152.3292663462126
 21
179.4936727263598
 31
0.0
 11
152.3074290805755
 21
179.9225106205293
 31
0.0
 11
152.3292663462126
 21
180.3513485146987
 31
0.0
  0
SOLID
  5
225
330
1F
100
AcDbEntity
  8
1
 62
     2
100
AcDbTrace
 10
154.0062548590433
 20
197.1337106585912
 30
0.0
 11
155.203406136558
 21
196.4425350462574
 31
0.0
 12
151.9798304978007
 22
192.241489482556
 32
0.0
 13
151.9798304978007
 23
192.241489482556
 33
0.0
  0
LEADER
  5
226
330
1F
100
AcDbEntity
  8
1
  6
Continuous
 62
     2
100
AcDbLeader
  3
Standard
 71
     0
 76
     3
 10
151.9798304978007
 20
192.241489482556
 30
0.0
 10
165.008889049491
 20
214.8084808688734
 30
0.0
 10
185.233924131376
 20
214.8084808688734
 30
0.0
  0
SOLID
  5
227
330
1F
100
AcDbEntity
  8
1
 62
     2
100
AcDbTrace
 10
106.7402992253562
 20
200.5523940784142
 30
0.0
 11
107.9374505028709
 21
201.243569690748
 31
0.0
 12
109.9638748641135
 22
196.3513485147128
 32
0.0
 13
109.9638748641135
 23
196.3513485147128
 33
0.0
  0
LEADER
  5
228
330
1F
100
AcDbEntity
  8
1
  6
Continuous
 62
     2
100
AcDbLeader
  3
Standard
 71
     0
 76
     3
 10
109.9638748641135
 20
196.3513485147128
 30
0.0
 10
96.93481631242315
 20
218.9183399010301
 30
0.0
 10
78.70978123053817
 20
218.9183399010301
 30
0.0
  0
SOLID
  5
229
330
1F
100
AcDbEntity
  8
1
 62
     2
100
AcDbTrace
 10
215.0062548590432
 20
243.5791087514762
 30
0.0
 11
216.203406136558
 21
242.8879331391424
 31
0.0
 12
212.9798304978006
 22
238.686887575441
 32
0.0
 13
212.9798304978006
 23
238.686887575441
 33
0.0
  0
LEADER
  5
22A
330
1F
100
AcDbEntity
  8
1
  6
Continuous
 62
     2
100
AcDbLeader
  3
Standard
 71
     0
 76
     3
 10
212.9798304978006
 20
238.686887575441
 30
0.0
 10
227.9887581624687
 20
264.683112857772
 30
0.0
 10
259.9293178562227
 20
264.683112857772
 30
0.0
  0
SOLID
  5
22B
330
1F
100
AcDbEntity
  8
1
 62
     2
100
AcDbTrace
 10
211.2137358728417
 20
141.9858804676134
 30
0.0
 11
210.016584595327
 21
141.2947048552796
 31
0.0
 12
207.9901602340844
 22
146.1869260313148
 32
0.0
 13
207.9901602340844
 23
146.1869260313148
 33
0.0
  0
LEADER
  5
22C
330
1F
100
AcDbEntity
  8
1
  6
Continuous
 62
     2
100
AcDbLeader
  3
Standard
 71
     0
 76
     3
 10
207.9901602340844
 20
146.1869260313148
 30
0.0
 10
225.8385535180391
 20
115.2726020300341
 30
0.0
 10
263.2623169211001
 20
115.2726020300341
 30
0.0
  0
SOLID
  5
22D
330
1F
100
AcDbEntity
  8
1
 62
     2
100
AcDbTrace
 10
203.895773102232
 20
358.7569682875268
 30
0.0
 11
205.0929243797467
 21
358.0657926751929
 31
0.0
 12
201.8693487409892
 22
353.8647471114916
 32
0.0
 13
201.8693487409892
 23
353.8647471114916
 33
0.0
  0
LEADER
  5
22E
330
1F
100
AcDbEntity
  8
1
  6
Continuous
 62
     2
100
AcDbLeader
  3
Standard
 71
     0
 76
     3
 10
201.8693487409892
 20
353.8647471114916
 30
0.0
 10
212.4079854220381
 20
372.1182012855766
 30
0.0
 10
225.0882307403211
 20
372.1182012855766
 30
0.0
  0
SOLID
  5
22F
330
1F
100
AcDbEntity
  8
1
 62
     2
100
AcDbTrace
 10
175.8667366158547
 20
358.0657926751929
 30
0.0
 11
177.0638878933694
 21
358.7569682875268
 31
0.0
 12
179.0903122546122
 22
353.8647471114916
 32
0.0
 13
179.0903122546122
 23
353.8647471114916
 33
0.0
  0
LEADER
  5
230
330
1F
100
AcDbEntity
  8
1
  6
Continuous
 62
     2
100
AcDbLeader
  3
Standard
 71
     0
 76
     3
 10
179.0903122546122
 20
353.8647471114916
 30
0.0
 10
168.5516755735629
 20
372.1182012855767
 30
0.0
 10
155.87143025528
 20
372.1182012855767
 30
0.0
  0
MTEXT
  5
232
330
1F
100
AcDbEntity
  8
1
 62
     7
100
AcDbMText
 10
176.1654966898704
 20
219.3084808688734
 30
0.0
 40
5.25
 41
0.0
 71
     5
 72
     1
  1
G1/2
  7
CONVERTER_13
 73
     1
 44
1.32052821128451
  0
MTEXT
  5
233
330
1F
100
AcDbEntity
  8
1
 62
     7
100
AcDbMText
 10
87.77820867204417
 20
223.4183399010301
 30
0.0
 40
5.25
 41
0.0
 71
     5
 72
     1
  1
G1/2
  7
CONVERTER_13
 73
     1
 44
1.32052821128451
  0
MTEXT
  5
234
330
1F
100
AcDbEntity
  8
1
 62
     7
100
AcDbMText
 10
85.50000000000001
 20
21.375
 30
0.0
 40
5.25
 41
0.0
 71
     5
 72
     1
  1
B98-1B
  7
CONVERTER_13
 73
     1
 44
0.7202881152461
  0
MTEXT
  5
235
330
1F
100
AcDbEntity
  8
0
 62
     7
100
AcDbMText
 10
85.5
 20
31.12500000000001
 30
0.0
 40
5.25
 41
0.0
 71
     5
 72
     1
  1
分岐アダプター
  7
CONVERTER_12
 73
     1
 44
0.54545454545455
  0
MTEXT
  5
236
330
1F
100
AcDbEntity
  8
0
 62
     7
100
AcDbMText
 10
85.5
 20
37.12500000000001
 30
0.0
 40
5.25
 41
0.0
 71
     5
 72
     1
  1
シングル混合栓用
  7
CONVERTER_12
 73
     1
 44
0.54545454545455
  0
MTEXT
  5
237
330
1F
100
AcDbEntity
  8
1
 62
     7
100
AcDbMText
 10
244.7639267038056
 20
269.183112857772
 30
0.0
 40
5.25
 41
0.0
 71
     5
 72
     1
  1
M45X1,5
  7
CONVERTER_13
 73
     1
 44
1.32052821128451
  0
MTEXT
  5
238
330
1F
100
AcDbEntity
  8
1
 62
     7
100
AcDbMText
 10
248.6898593882913
 20
119.7726020300341
 30
0.0
 40
5.25
 41
0.0
 71
     5
 72
     1
  1
M45X1,5
  7
CONVERTER_13
 73
     1
 44
1.32052821128451
  0
MTEXT
  5
239
330
1F
100
AcDbEntity
  8
0
 62
     7
100
AcDbMText
 10
51.0
 20
51.00000000000001
 30
0.0
 40
5.25
 41
0.0
 71
     4
 72
     1
  1
TOTO用
  7
CONVERTER_12
 73
     1
 44
0.54545454545455
  0
MTEXT
  5
23A
330
1F
100
AcDbEntity
  8
1
 62
     7
100
AcDbMText
 10
236.25
 20
18.75
 30
0.0
 40
3.75
 41
0.0
 71
     5
 72
     1
  1
4
  7
CONVERTER_13
 73
     1
 44
0.7202881152461
  0
MTEXT
  5
23B
330
1F
100
AcDbEntity
  8
1
 62
     7
100
AcDbMText
 10
244.875
 20
18.75
 30
0.0
 40
3.75
 41
0.0
 71
     5
 72
     1
  1
 8
  7
CONVERTER_13
 73
     1
 44
0.7202881152461
  0
MTEXT
  5
23C
330
1F
100
AcDbEntity
  8
1
 62
     7
100
AcDbMText
 10
227.625
 20
18.75
 30
0.0
 40
3.75
 41
0.0
 71
     5
 72
     1
  1
09
  7
CONVERTER_13
 73
     1
 44
0.7202881152461
  0
MTEXT
  5
23D
330
1F
100
AcDbEntity
  8
1
 62
     7
100
AcDbMText
 10
202.125
 20
18.75
 30
0.0
 40
3.75
 41
0.0
 71
     5
 72
     1
  1
09
  7
CONVERTER_13
 73
     1
 44
0.7202881152461
  0
MTEXT
  5
23E
330
1F
100
AcDbEntity
  8
1
 62
     7
100
AcDbMText
 10
219.375
 20
18.75
 30
0.0
 40
3.75
 41
0.0
 71
     5
 72
     1
  1
 8
  7
CONVERTER_13
 73
     1
 44
0.7202881152461
  0
MTEXT
  5
23F
330
1F
100
AcDbEntity
  8
1
 62
     7
100
AcDbMText
 10
210.75
 20
18.75
 30
0.0
 40
3.75
 41
0.0
 71
     5
 72
     1
  1
4
  7
CONVERTER_13
 73
     1
 44
0.7202881152461
  0
MTEXT
  5
240
330
1F
100
AcDbEntity
  8
1
 62
     7
100
AcDbMText
 10
127.875
 20
25.5
 30
0.0
 40
5.25
 41
0.0
 71
     5
 72
     1
  1
1
  7
CONVERTER_13
 73
     1
 44
0.7202881152461
  0
MTEXT
  5
241
330
1F
100
AcDbEntity
  8
1
 62
     7
100
AcDbMText
 10
140.625
 20
25.5
 30
0.0
 40
5.25
 41
0.0
 71
     5
 72
     1
  1
1,5
  7
CONVERTER_13
 73
     1
 44
0.7202881152461
  0
MTEXT
  5
242
330
1F
100
AcDbEntity
  8
1
 62
     7
100
AcDbMText
 10
218.4079854220381
 20
376.6182012855766
 30
0.0
 40
5.25
 41
0.0
 71
     5
 72
     1
  1
湯側
  7
CONVERTER_12
 73
     1
 44
1.0
  0
MTEXT
  5
243
330
1F
100
AcDbEntity
  8
1
 62
     7
100
AcDbMText
 10
162.5516755735628
 20
376.6182012855767
 30
0.0
 40
5.25
 41
0.0
 71
     5
 72
     1
  1
水側
  7
CONVERTER_12
 73
     1
 44
1.0
  0
MTEXT
  5
244
330
1F
100
AcDbEntity
  8
1
 62
     7
100
AcDbMText
 10
185.25
 20
18.75
 30
0.0
 40
3.75
 41
0.0
 71
     5
 72
     1
  1
4
  7
CONVERTER_13
 73
     1
 44
0.7202881152461
  0
MTEXT
  5
245
330
1F
100
AcDbEntity
  8
1
 62
     7
100
AcDbMText
 10
193.875
 20
18.75
 30
0.0
 40
3.75
 41
0.0
 71
     5
 72
     1
  1
 8
  7
CONVERTER_13
 73
     1
 44
0.7202881152461
  0
MTEXT
  5
246
330
1F
100
AcDbEntity
  8
1
 62
     7
100
AcDbMText
 10
176.625
 20
18.75
 30
0.0
 40
3.75
 41
0.0
 71
     5
 72
     1
  1
09
  7
CONVERTER_13
 73
     1
 44
0.7202881152461
  0
MTEXT
  5
247
330
1F
100
AcDbEntity
  8
1
 62
     7
100
AcDbMText
 10
151.125
 20
18.75
 30
0.0
 40
3.75
 41
0.0
 71
     5
 72
     1
  1
09
  7
CONVERTER_13
 73
     1
 44
0.7202881152461
  0
MTEXT
  5
248
330
1F
100
AcDbEntity
  8
1
 62
     7
100
AcDbMText
 10
168.375
 20
18.75
 30
0.0
 40
3.75
 41
0.0
 71
     5
 72
     1
  1
 8
  7
CONVERTER_13
 73
     1
 44
0.7202881152461
  0
MTEXT
  5
249
330
1F
100
AcDbEntity
  8
1
 62
     7
100
AcDbMText
 10
159.75
 20
18.75
 30
0.0
 40
3.75
 41
0.0
 71
     5
 72
     1
  1
4
  7
CONVERTER_13
 73
     1
 44
0.7202881152461
  0
DIMENSION
  5
254
330
1F
100
AcDbEntity
  8
1
100
AcDbDimension
  2
*D4
 10
229.4798304978008
 20
252.3513485146988
 30
0.0
 11
225.3548304978008
 21
178.34102987544
 31
0.0
 70
    32
  1
<>
 71
     5
 42
-1.0
 53
90.0
  3
ME10_DIM_10
100
AcDbAlignedDimension
 13
202.1298304978006
 23
103.3513485146988
 33
0.0
 14
210.2298304978008
 24
252.3513485146988
 34
0.0
 50
90.0
100
AcDbRotatedDimension
  0
DIMENSION
  5
25F
330
1F
100
AcDbEntity
  8
1
100
AcDbDimension
  2
*D5
 10
164.9798304978008
 20
267.3513485146988
 30
0.0
 11
203.2298304978008
 21
271.4763485146988
 31
0.0
 70
    32
  1
<>
 71
     5
 42
-1.0
 53
0.00013888888889
  3
ME10_DIM_11
100
AcDbAlignedDimension
 13
215.9798304978008
 23
229.3513485146988
 33
0.0
 14
164.9798304978008
 24
229.3513485146987
 34
0.0
100
AcDbRotatedDimension
  0
DIMENSION
  5
26A
330
1F
100
AcDbEntity
  8
1
100
AcDbDimension
  2
*D6
 10
90.47983049844743
 20
185.8513485146986
 30
0.0
 11
86.35483049844743
 21
144.6013485146987
 31
0.0
 70
    32
  1
83
 71
     5
 42
-1.0
 53
90.0
  3
ME10_DIM_12
100
AcDbAlignedDimension
 13
178.8298304978007
 23
103.3513485146988
 33
0.0
 14
102.4798304979387
 24
185.8513485146986
 34
0.0
 50
90.0
100
AcDbRotatedDimension
  0
DIMENSION
  5
275
330
1F
100
AcDbEntity
  8
1
100
AcDbDimension
  2
*D7
 10
151.9798304978008
 20
279.3513485146988
 30
0.0
 11
171.2298304978008
 21
283.4763485146988
 31
0.0
 70
    32
  1
39
 71
     5
 42
-1.0
 53
0.00013888888889
  3
ME10_DIM_13
100
AcDbAlignedDimension
 13
190.4798304978008
 23
256.8513485146988
 33
0.0
 14
151.9798304978008
 24
197.9059119659399
 34
0.0
100
AcDbRotatedDimension
  0
DIMENSION
  5
280
330
1F
100
AcDbEntity
  8
1
100
AcDbDimension
  2
*D8
 10
190.4798304978008
 20
291.3513485146988
 30
0.0
 11
146.8548304978077
 21
295.4763485146988
 31
0.0
 70
    32
  1
88
 71
     5
 42
-1.0
 53
0.00013888888889
  3
ME10_DIM_14
100
AcDbAlignedDimension
 13
103.2298304978146
 23
225.6095348444726
 33
0.0
 14
190.4798304978008
 24
256.8513485146988
 34
0.0
100
AcDbRotatedDimension
  0
DIMENSION
  5
28B
330
1F
100
AcDbEntity
  8
1
100
AcDbDimension
  2
*D9
 10
190.4798304978008
 20
88.35134851469878
 30
0.0
 11
148.7298304978697
 21
92.47634851469878
 31
0.0
 70
    32
  1
84
 71
     5
 42
-1.0
 53
0.00013888888889
  3
ME10_DIM_15
100
AcDbAlignedDimension
 13
106.9798304980528
 23
176.6013485146946
 33
0.0
 14
190.4798304978008
 24
144.3513485146988
 34
0.0
100
AcDbRotatedDimension
  0
ENDSEC
  0
SECTION
  2
OBJECTS
  0
DICTIONARY
  5
C
330
0
100
AcDbDictionary
281
     1
  3
ACAD_GROUP
350
D
  3
ACAD_LAYOUT
350
1A
  3
ACAD_MATERIAL
350
3B
  3
ACAD_MLEADERSTYLE
350
28E
  3
ACAD_MLINESTYLE
350
17
  3
ACAD_PLOTSETTINGS
350
19
  3
ACAD_PLOTSTYLENAME
350
E
  3
ACAD_VISUALSTYLE
350
2A
  3
AcDbVariableDictionary
350
28C
  0
DICTIONARY
  5
D
102
{ACAD_REACTORS
330
C
102
}
330
C
100
AcDbDictionary
281
     1
  0
DICTIONARY
  5
1A
102
{ACAD_REACTORS
330
C
102
}
330
C
100
AcDbDictionary
281
     1
  3
Layout1
350
1E
  3
Layout2
350
26
  3
Model
350
22
  0
DICTIONARY
  5
3B
102
{ACAD_REACTORS
330
C
102
}
330
C
100
AcDbDictionary
281
     1
  3
ByBlock
350
3D
  3
ByLayer
350
3C
  3
Global
350
3E
  0
DICTIONARY
  5
28E
102
{ACAD_REACTORS
330
C
102
}
330
C
100
AcDbDictionary
281
     1
  0
DICTIONARY
  5
17
102
{ACAD_REACTORS
330
C
102
}
330
C
100
AcDbDictionary
281
     1
  3
Standard
350
18
  0
DICTIONARY
  5
19
102
{ACAD_REACTORS
330
C
102
}
330
C
100
AcDbDictionary
281
     1
  0
ACDBDICTIONARYWDFLT
  5
E
102
{ACAD_REACTORS
330
C
102
}
330
C
100
AcDbDictionary
281
     1
  3
Normal
350
F
100
AcDbDictionaryWithDefault
340
F
  0
DICTIONARY
  5
2A
102
{ACAD_REACTORS
330
C
102
}
330
C
100
AcDbDictionary
281
     1
  3
2dWireframe
350
2F
  3
3D Hidden
350
31
  3
3dWireframe
350
30
  3
Basic
350
32
  3
Brighten
350
36
  3
ColorChange
350
3A
  3
Conceptual
350
34
  3
Dim
350
35
  3
Facepattern
350
39
  3
Flat
350
2B
  3
FlatWithEdges
350
2C
  3
Gouraud
350
2D
  3
GouraudWithEdges
350
2E
  3
Linepattern
350
38
  3
Realistic
350
33
  3
Thicken
350
37
  0
DICTIONARY
  5
28C
102
{ACAD_REACTORS
330
C
102
}
330
C
100
AcDbDictionary
281
     1
  3
DIMASSOC
350
28F
  3
HIDETEXT
350
290
  0
LAYOUT
  5
1E
102
{ACAD_REACTORS
330
1A
102
}
330
1A
100
AcDbPlotSettings
  1

  2
none_device
  4

  6

 40
0.0
 41
0.0
 42
0.0
 43
0.0
 44
0.0
 45
0.0
 46
0.0
 47
0.0
 48
0.0
 49
0.0
140
0.0
141
0.0
142
1.0
143
1.0
 70
   688
 72
     0
 73
     0
 74
     5
  7

 75
    16
147
1.0
148
0.0
149
0.0
100
AcDbLayout
  1
Layout1
 70
     1
 71
     1
 10
0.0
 20
0.0
 11
12.0
 21
9.0
 12
0.0
 22
0.0
 32
0.0
 14
1.00000000000000E+20
 24
1.00000000000000E+20
 34
1.00000000000000E+20
 15
-1.00000000000000E+20
 25
-1.00000000000000E+20
 35
-1.00000000000000E+20
146
0.0
 13
0.0
 23
0.0
 33
0.0
 16
1.0
 26
0.0
 36
0.0
 17
0.0
 27
1.0
 37
0.0
 76
     0
330
1B
  0
LAYOUT
  5
26
102
{ACAD_REACTORS
330
1A
102
}
330
1A
100
AcDbPlotSettings
  1

  2
none_device
  4

  6

 40
0.0
 41
0.0
 42
0.0
 43
0.0
 44
0.0
 45
0.0
 46
0.0
 47
0.0
 48
0.0
 49
0.0
140
0.0
141
0.0
142
1.0
143
1.0
 70
   688
 72
     0
 73
     0
 74
     5
  7

 75
    16
147
1.0
148
0.0
149
0.0
100
AcDbLayout
  1
Layout2
 70
     1
 71
     2
 10
0.0
 20
0.0
 11
0.0
 21
0.0
 12
0.0
 22
0.0
 32
0.0
 14
0.0
 24
0.0
 34
0.0
 15
0.0
 25
0.0
 35
0.0
146
0.0
 13
0.0
 23
0.0
 33
0.0
 16
1.0
 26
0.0
 36
0.0
 17
0.0
 27
1.0
 37
0.0
 76
     0
330
23
  0
LAYOUT
  5
22
102
{ACAD_REACTORS
330
1A
102
}
330
1A
100
AcDbPlotSettings
  1

  2
none_device
  4

  6

 40
0.0
 41
0.0
 42
0.0
 43
0.0
 44
0.0
 45
0.0
 46
0.0
 47
0.0
 48
0.0
 49
0.0
140
0.0
141
0.0
142
1.0
143
1.0
 70
  1712
 72
     0
 73
     0
 74
     0
  7

 75
     0
147
1.0
148
0.0
149
0.0
100
AcDbLayout
  1
Model
 70
     1
 71
     0
 10
0.0
 20
0.0
 11
12.0
 21
9.0
 12
0.0
 22
0.0
 32
0.0
 14
0.0
 24
0.0
 34
0.0
 15
315.0
 25
445.5
 35
0.0
146
0.0
 13
0.0
 23
0.0
 33
0.0
 16
1.0
 26
0.0
 36
0.0
 17
0.0
 27
1.0
 37
0.0
 76
     0
330
1F
331
29
  0
MATERIAL
  5
3D
102
{ACAD_REACTORS
330
3B
102
}
102
{ACAD_XDICTIONARY
360
2B3
102
}
330
3B
100
AcDbMaterial
  1
ByBlock
  0
MATERIAL
  5
3C
102
{ACAD_REACTORS
330
3B
102
}
102
{ACAD_XDICTIONARY
360
2B1
102
}
330
3B
100
AcDbMaterial
  1
ByLayer
  0
MATERIAL
  5
3E
102
{ACAD_REACTORS
330
3B
102
}
102
{ACAD_XDICTIONARY
360
2B5
102
}
330
3B
100
AcDbMaterial
  1
Global
  0
MLINESTYLE
  5
18
102
{ACAD_REACTORS
330
17
102
}
330
17
100
AcDbMlineStyle
  2
Standard
 70
     0
  3

 62
   256
 51
90.0
 52
90.0
 71
     2
 49
0.5
 62
   256
  6
BYLAYER
 49
-0.5
 62
   256
  6
BYLAYER
  0
ACDBPLACEHOLDER
  5
F
102
{ACAD_REACTORS
330
E
102
}
330
E
  0
VISUALSTYLE
  5
2F
102
{ACAD_REACTORS
330
2A
102
}
102
{ACAD_XDICTIONARY
360
299
102
}
330
2A
100
AcDbVisualStyle
  2
2dWireframe
 70
     4
 71
     0
 72
     2
 73
     0
 90
        0
 40
-0.6
 41
-30.0
 62
     5
 63
     7
 74
     1
 91
        4
 64
     7
 65
   257
 75
     1
175
     1
 42
1.0
 92
        0
 66
   257
 43
1.0
 76
     1
 77
     6
 78
     2
 67
     7
 79
     5
170
     0
171
     0
290
     0
174
     0
 93
        1
 44
0.0
173
     0
291
     0
 45
0.0
1001
ACAD
1000
AcDbSavedByObjectVersion
1070
     0
  0
VISUALSTYLE
  5
31
102
{ACAD_REACTORS
330
2A
102
}
102
{ACAD_XDICTIONARY
360
29D
102
}
330
2A
100
AcDbVisualStyle
  2
3D Hidden
 70
     6
 71
     1
 72
     2
 73
     2
 90
        0
 40
-0.6
 41
-30.0
 62
     5
 63
     7
 74
     2
 91
        2
 64
     7
 65
   257
 75
     2
175
     1
 42
40.0
 92
        0
 66
   257
 43
1.0
 76
     1
 77
     6
 78
     2
 67
     7
 79
     3
170
     0
171
     0
290
     0
174
     0
 93
        1
 44
0.0
173
     0
291
     0
 45
0.0
1001
ACAD
1000
AcDbSavedByObjectVersion
1070
     0
  0
VISUALSTYLE
  5
30
102
{ACAD_REACTORS
330
2A
102
}
102
{ACAD_XDICTIONARY
360
29B
102
}
330
2A
100
AcDbVisualStyle
  2
3dWireframe
 70
     5
 71
     0
 72
     2
 73
     0
 90
        0
 40
-0.6
 41
-30.0
 62
     5
 63
     7
 74
     1
 91
        4
 64
     7
 65
   257
 75
     1
175
     1
 42
1.0
 92
        0
 66
   257
 43
1.0
 76
     1
 77
     6
 78
     2
 67
     7
 79
     5
170
     0
171
     0
290
     0
174
     0
 93
        1
 44
0.0
173
     0
291
     0
 45
0.0
1001
ACAD
1000
AcDbSavedByObjectVersion
1070
     0
  0
VISUALSTYLE
  5
32
102
{ACAD_REACTORS
330
2A
102
}
102
{ACAD_XDICTIONARY
360
29F
102
}
330
2A
100
AcDbVisualStyle
  2
Basic
 70
     7
 71
     1
 72
     0
 73
     1
 90
        0
 40
-0.6
 41
-30.0
 62
     5
 63
     7
 74
     0
 91
        4
 64
     7
 65
   257
 75
     1
175
     1
 42
1.0
 92
        8
 66
     7
 43
1.0
 76
     1
 77
     6
 78
     2
 67
     7
 79
     5
170
     0
171
     0
290
     0
174
     0
 93
        1
 44
0.0
173
     0
291
     1
 45
0.0
1001
ACAD
1000
AcDbSavedByObjectVersion
1070
     0
  0
VISUALSTYLE
  5
36
102
{ACAD_REACTORS
330
2A
102
}
102
{ACAD_XDICTIONARY
360
2A7
102
}
330
2A
100
AcDbVisualStyle
  2
Brighten
 70
    12
 71
     2
 72
     2
 73
     0
 90
        0
 40
-0.6
 41
-30.0
 62
     5
 63
     7
 74
     1
 91
        4
 64
     7
 65
   257
 75
     1
175
     1
 42
1.0
 92
        8
 66
     7
 43
1.0
 76
     1
 77
     6
 78
     2
 67
     7
 79
     5
170
     0
171
     0
290
     0
174
     0
 93
        1
 44
50.0
173
     0
291
     1
 45
0.0
1001
ACAD
1000
AcDbSavedByObjectVersion
1070
     0
  0
VISUALSTYLE
  5
3A
102
{ACAD_REACTORS
330
2A
102
}
102
{ACAD_XDICTIONARY
360
2AF
102
}
330
2A
100
AcDbVisualStyle
  2
ColorChange
 70
    16
 71
     2
 72
     2
 73
     3
 90
        0
 40
-0.6
 41
-30.0
 62
     5
 63
     8
 74
     1
 91
        4
 64
     7
 65
   257
 75
     1
175
     1
 42
1.0
 92
        8
 66
     8
 43
1.0
 76
     1
 77
     6
 78
     2
 67
     7
 79
     5
170
     0
171
     0
290
     0
174
     0
 93
        1
 44
0.0
173
     0
291
     1
 45
0.0
1001
ACAD
1000
AcDbSavedByObjectVersion
1070
     0
  0
VISUALSTYLE
  5
34
102
{ACAD_REACTORS
330
2A
102
}
102
{ACAD_XDICTIONARY
360
2A3
102
}
330
2A
100
AcDbVisualStyle
  2
Conceptual
 70
     9
 71
     3
 72
     2
 73
     0
 90
        0
 40
-0.6
 41
-30.0
 62
     5
 63
     7
 74
     2
 91
        2
 64
     7
 65
   257
 75
     1
175
     1
 42
40.0
 92
        8
 66
     7
 43
1.0
 76
     1
 77
     6
 78
     2
 67
     7
 79
     3
170
     0
171
     0
290
     0
174
     0
 93
        1
 44
0.0
173
     0
291
     0
 45
0.0
1001
ACAD
1000
AcDbSavedByObjectVersion
1070
     0
  0
VISUALSTYLE
  5
35
102
{ACAD_REACTORS
330
2A
102
}
102
{ACAD_XDICTIONARY
360
2A5
102
}
330
2A
100
AcDbVisualStyle
  2
Dim
 70
    11
 71
     2
 72
     2
 73
     0
 90
        0
 40
-0.6
 41
-30.0
 62
     5
 63
     7
 74
     1
 91
        4
 64
     7
 65
   257
 75
     1
175
     1
 42
1.0
 92
        8
 66
     7
 43
1.0
 76
     1
 77
     6
 78
     2
 67
     7
 79
     5
170
     0
171
     0
290
     0
174
     0
 93
        1
 44
-50.0
173
     0
291
     1
 45
0.0
1001
ACAD
1000
AcDbSavedByObjectVersion
1070
     0
  0
VISUALSTYLE
  5
39
102
{ACAD_REACTORS
330
2A
102
}
102
{ACAD_XDICTIONARY
360
2AD
102
}
330
2A
100
AcDbVisualStyle
  2
Facepattern
 70
    15
 71
     2
 72
     2
 73
     0
 90
        0
 40
-0.6
 41
-30.0
 62
     5
 63
     7
 74
     1
 91
        4
 64
     7
 65
   257
 75
     1
175
     1
 42
1.0
 92
        8
 66
     7
 43
1.0
 76
     1
 77
     6
 78
     2
 67
     7
 79
     5
170
     0
171
     0
290
     0
174
     0
 93
        1
 44
0.0
173
     0
291
     1
 45
0.0
1001
ACAD
1000
AcDbSavedByObjectVersion
1070
     0
  0
VISUALSTYLE
  5
2B
102
{ACAD_REACTORS
330
2A
102
}
102
{ACAD_XDICTIONARY
360
291
102
}
330
2A
100
AcDbVisualStyle
  2
Flat
 70
     0
 71
     2
 72
     1
 73
     1
 90
        2
 40
-0.6
 41
30.0
 62
     5
 63
     7
 74
     0
 91
        4
 64
     7
 65
   257
 75
     1
175
     1
 42
1.0
 92
        8
 66
     7
 43
1.0
 76
     1
 77
     6
 78
     2
 67
     7
 79
     5
170
     0
171
     0
290
     0
174
     0
 93
       13
 44
0.0
173
     0
291
     1
 45
0.0
1001
ACAD
1000
AcDbSavedByObjectVersion
1070
     0
  0
VISUALSTYLE
  5
2C
102
{ACAD_REACTORS
330
2A
102
}
102
{ACAD_XDICTIONARY
360
293
102
}
330
2A
100
AcDbVisualStyle
  2
FlatWithEdges
 70
     1
 71
     2
 72
     1
 73
     1
 90
        2
 40
-0.6
 41
30.0
 62
     5
 63
     7
 74
     1
 91
        4
 64
     7
 65
   257
 75
     1
175
     1
 42
1.0
 92
        0
 66
   257
 43
1.0
 76
     1
 77
     6
 78
     2
 67
     7
 79
     5
170
     0
171
     0
290
     0
174
     0
 93
       13
 44
0.0
173
     0
291
     1
 45
0.0
1001
ACAD
1000
AcDbSavedByObjectVersion
1070
     0
  0
VISUALSTYLE
  5
2D
102
{ACAD_REACTORS
330
2A
102
}
102
{ACAD_XDICTIONARY
360
295
102
}
330
2A
100
AcDbVisualStyle
  2
Gouraud
 70
     2
 71
     2
 72
     2
 73
     1
 90
        2
 40
-0.6
 41
30.0
 62
     5
 63
     7
 74
     0
 91
        4
 64
     7
 65
   257
 75
     1
175
     1
 42
1.0
 92
        0
 66
     7
 43
1.0
 76
     1
 77
     6
 78
     2
 67
     7
 79
     5
170
     0
171
     0
290
     0
174
     0
 93
       13
 44
0.0
173
     0
291
     1
 45
0.0
1001
ACAD
1000
AcDbSavedByObjectVersion
1070
     0
  0
VISUALSTYLE
  5
2E
102
{ACAD_REACTORS
330
2A
102
}
102
{ACAD_XDICTIONARY
360
297
102
}
330
2A
100
AcDbVisualStyle
  2
GouraudWithEdges
 70
     3
 71
     2
 72
     2
 73
     1
 90
        2
 40
-0.6
 41
30.0
 62
     5
 63
     7
 74
     1
 91
        4
 64
     7
 65
   257
 75
     1
175
     1
 42
1.0
 92
        0
 66
   257
 43
1.0
 76
     1
 77
     6
 78
     2
 67
     7
 79
     5
170
     0
171
     0
290
     0
174
     0
 93
       13
 44
0.0
173
     0
291
     1
 45
0.0
1001
ACAD
1000
AcDbSavedByObjectVersion
1070
     0
  0
VISUALSTYLE
  5
38
102
{ACAD_REACTORS
330
2A
102
}
102
{ACAD_XDICTIONARY
360
2AB
102
}
330
2A
100
AcDbVisualStyle
  2
Linepattern
 70
    14
 71
     2
 72
     2
 73
     0
 90
        0
 40
-0.6
 41
-30.0
 62
     5
 63
     7
 74
     1
 91
        4
 64
     7
 65
   257
 75
     7
175
     7
 42
1.0
 92
        8
 66
     7
 43
1.0
 76
     1
 77
     6
 78
     2
 67
     7
 79
     5
170
     0
171
     0
290
     0
174
     0
 93
        1
 44
0.0
173
     0
291
     1
 45
0.0
1001
ACAD
1000
AcDbSavedByObjectVersion
1070
     0
  0
VISUALSTYLE
  5
33
102
{ACAD_REACTORS
330
2A
102
}
102
{ACAD_XDICTIONARY
360
2A1
102
}
330
2A
100
AcDbVisualStyle
  2
Realistic
 70
     8
 71
     2
 72
     2
 73
     0
 90
        0
 40
-0.6
 41
-30.0
 62
     5
 63
     7
 74
     1
 91
        0
 64
     7
 65
   257
 75
     1
175
     1
 42
1.0
 92
        8
 66
     8
 43
1.0
 76
     1
 77
     6
 78
     2
 67
     7
 79
     5
170
     0
171
     0
290
     0
174
     0
 93
       13
 44
0.0
173
     0
291
     0
 45
0.0
1001
ACAD
1000
AcDbSavedByObjectVersion
1070
     0
  0
VISUALSTYLE
  5
37
102
{ACAD_REACTORS
330
2A
102
}
102
{ACAD_XDICTIONARY
360
2A9
102
}
330
2A
100
AcDbVisualStyle
  2
Thicken
 70
    13
 71
     2
 72
     2
 73
     0
 90
        0
 40
-0.6
 41
-30.0
 62
     5
 63
     7
 74
     1
 91
        4
 64
     7
 65
   257
 75
     1
175
     1
 42
1.0
 92
       12
 66
     7
 43
1.0
 76
     1
 77
     6
 78
     2
 67
     7
 79
     5
170
     0
171
     0
290
     0
174
     0
 93
        1
 44
0.0
173
     0
291
     1
 45
0.0
1001
ACAD
1000
AcDbSavedByObjectVersion
1070
     0
  0
DICTIONARYVAR
  5
28F
102
{ACAD_REACTORS
330
28C
102
}
330
28C
100
DictionaryVariables
280
     0
  1
2
  0
DICTIONARYVAR
  5
290
102
{ACAD_REACTORS
330
28C
102
}
330
28C
100
DictionaryVariables
280
     0
  1
1
  0
DICTIONARY
  5
2B3
330
3D
100
AcDbDictionary
280
     1
281
     1
  3
ACAD_XREC_ROUNDTRIP
360
2B4
  0
DICTIONARY
  5
2B1
330
3C
100
AcDbDictionary
280
     1
281
     1
  3
ACAD_XREC_ROUNDTRIP
360
2B2
  0
DICTIONARY
  5
2B5
330
3E
100
AcDbDictionary
280
     1
281
     1
  3
ACAD_XREC_ROUNDTRIP
360
2B6
  0
DICTIONARY
  5
299
330
2F
100
AcDbDictionary
280
     1
281
     1
  3
ACAD_XREC_ROUNDTRIP
360
29A
  0
DICTIONARY
  5
29D
330
31
100
AcDbDictionary
280
     1
281
     1
  3
ACAD_XREC_ROUNDTRIP
360
29E
  0
DICTIONARY
  5
29B
330
30
100
AcDbDictionary
280
     1
281
     1
  3
ACAD_XREC_ROUNDTRIP
360
29C
  0
DICTIONARY
  5
29F
330
32
100
AcDbDictionary
280
     1
281
     1
  3
ACAD_XREC_ROUNDTRIP
360
2A0
  0
DICTIONARY
  5
2A7
330
36
100
AcDbDictionary
280
     1
281
     1
  3
ACAD_XREC_ROUNDTRIP
360
2A8
  0
DICTIONARY
  5
2AF
330
3A
100
AcDbDictionary
280
     1
281
     1
  3
ACAD_XREC_ROUNDTRIP
360
2B0
  0
DICTIONARY
  5
2A3
330
34
100
AcDbDictionary
280
     1
281
     1
  3
ACAD_XREC_ROUNDTRIP
360
2A4
  0
DICTIONARY
  5
2A5
330
35
100
AcDbDictionary
280
     1
281
     1
  3
ACAD_XREC_ROUNDTRIP
360
2A6
  0
DICTIONARY
  5
2AD
330
39
100
AcDbDictionary
280
     1
281
     1
  3
ACAD_XREC_ROUNDTRIP
360
2AE
  0
DICTIONARY
  5
291
330
2B
100
AcDbDictionary
280
     1
281
     1
  3
ACAD_XREC_ROUNDTRIP
360
292
  0
DICTIONARY
  5
293
330
2C
100
AcDbDictionary
280
     1
281
     1
  3
ACAD_XREC_ROUNDTRIP
360
294
  0
DICTIONARY
  5
295
330
2D
100
AcDbDictionary
280
     1
281
     1
  3
ACAD_XREC_ROUNDTRIP
360
296
  0
DICTIONARY
  5
297
330
2E
100
AcDbDictionary
280
     1
281
     1
  3
ACAD_XREC_ROUNDTRIP
360
298
  0
DICTIONARY
  5
2AB
330
38
100
AcDbDictionary
280
     1
281
     1
  3
ACAD_XREC_ROUNDTRIP
360
2AC
  0
DICTIONARY
  5
2A1
330
33
100
AcDbDictionary
280
     1
281
     1
  3
ACAD_XREC_ROUNDTRIP
360
2A2
  0
DICTIONARY
  5
2A9
330
37
100
AcDbDictionary
280
     1
281
     1
  3
ACAD_XREC_ROUNDTRIP
360
2AA
  0
XRECORD
  5
2B4
102
{ACAD_REACTORS
330
2B3
102
}
330
2B3
100
AcDbXrecord
280
     1
102
MATERIAL
148
0.0
149
0.0
149
0.0
 93
        0
 94
      127
282
     0
 72
     1
 77
     1
171
     1
175
     1
179
     1
273
     0
  0
XRECORD
  5
2B2
102
{ACAD_REACTORS
330
2B1
102
}
330
2B1
100
AcDbXrecord
280
     1
102
MATERIAL
148
0.0
149
0.0
149
0.0
 93
        0
 94
      127
282
     0
 72
     1
 77
     1
171
     1
175
     1
179
     1
273
     0
  0
XRECORD
  5
2B6
102
{ACAD_REACTORS
330
2B5
102
}
330
2B5
100
AcDbXrecord
280
     1
102
MATERIAL
148
0.0
149
0.0
149
0.0
 93
        0
 94
      127
282
     0
 72
     1
 77
     1
171
     1
175
     1
179
     1
273
     0
  0
XRECORD
  5
29A
102
{ACAD_REACTORS
330
299
102
}
330
299
100
AcDbXrecord
280
     1
102
RTVSPropertyOp0
 70
     1
102
RTVSPropertyOp1
 70
     1
102
RTVSPropertyOp2
 70
     1
102
RTVSPropertyOp3
 70
     1
102
RTVSPropertyOp4
 70
     1
102
RTVSPropertyOp5
 70
     1
102
RTVSPropertyOp6
 70
     1
102
RTVSPropertyOp7
 70
     1
102
RTVSPropertyOp8
 70
     1
102
RTVSPropertyOp9
 70
     1
102
RTVSPropertyOp10
 70
     1
102
RTVSPropertyOp11
 70
     1
102
RTVSPropertyOp12
 70
     1
102
RTVSPropertyOp13
 70
     1
102
RTVSPropertyOp14
 70
     1
102
RTVSPropertyOp15
 70
     1
102
RTVSPropertyOp16
 70
     1
102
RTVSPropertyOp17
 70
     1
102
RTVSPropertyOp18
 70
     1
102
RTVSPropertyOp19
 70
     1
102
RTVSPropertyOp20
 70
     1
102
RTVSPropertyOp21
 70
     1
102
RTVSPropertyOp22
 70
     1
102
RTVSPropertyOp23
 70
     1
102
RTVSPropertyOp24
 70
     1
102
RTVSPropertyOp25
 70
     1
102
RTVSPropertyOp26
 70
     1
102
RTVSPropertyOp27
 70
     1
102
RTVSPropertyOp28
 70
     1
102
RTVSPropertyOp29
 70
     1
102
RTVSPropertyOp30
 70
     1
102
RTVSPropertyOp31
 70
     1
102
RTVSPropertyOp32
 70
     1
  0
XRECORD
  5
29E
102
{ACAD_REACTORS
330
29D
102
}
330
29D
100
AcDbXrecord
280
     1
102
RTVSPropertyOp0
 70
     1
102
RTVSPropertyOp1
 70
     1
102
RTVSPropertyOp2
 70
     1
102
RTVSPropertyOp3
 70
     1
102
RTVSPropertyOp4
 70
     1
102
RTVSPropertyOp5
 70
     1
102
RTVSPropertyOp6
 70
     1
102
RTVSPropertyOp7
 70
     1
102
RTVSPropertyOp8
 70
     1
102
RTVSPropertyOp9
 70
     1
102
RTVSPropertyOp10
 70
     1
102
RTVSPropertyOp11
 70
     1
102
RTVSPropertyOp12
 70
     1
102
RTVSPropertyOp13
 70
     1
102
RTVSPropertyOp14
 70
     1
102
RTVSPropertyOp15
 70
     1
102
RTVSPropertyOp16
 70
     1
102
RTVSPropertyOp17
 70
     1
102
RTVSPropertyOp18
 70
     1
102
RTVSPropertyOp19
 70
     1
102
RTVSPropertyOp20
 70
     1
102
RTVSPropertyOp21
 70
     1
102
RTVSPropertyOp22
 70
     1
102
RTVSPropertyOp23
 70
     1
102
RTVSPropertyOp24
 70
     1
102
RTVSPropertyOp25
 70
     1
102
RTVSPropertyOp26
 70
     1
102
RTVSPropertyOp27
 70
     1
102
RTVSPropertyOp28
 70
     1
102
RTVSPropertyOp29
 70
     1
102
RTVSPropertyOp30
 70
     1
102
RTVSPropertyOp31
 70
     1
102
RTVSPropertyOp32
 70
     1
  0
XRECORD
  5
29C
102
{ACAD_REACTORS
330
29B
102
}
330
29B
100
AcDbXrecord
280
     1
102
RTVSPropertyOp0
 70
     1
102
RTVSPropertyOp1
 70
     1
102
RTVSPropertyOp2
 70
     1
102
RTVSPropertyOp3
 70
     1
102
RTVSPropertyOp4
 70
     1
102
RTVSPropertyOp5
 70
     1
102
RTVSPropertyOp6
 70
     1
102
RTVSPropertyOp7
 70
     1
102
RTVSPropertyOp8
 70
     1
102
RTVSPropertyOp9
 70
     1
102
RTVSPropertyOp10
 70
     1
102
RTVSPropertyOp11
 70
     1
102
RTVSPropertyOp12
 70
     1
102
RTVSPropertyOp13
 70
     1
102
RTVSPropertyOp14
 70
     1
102
RTVSPropertyOp15
 70
     1
102
RTVSPropertyOp16
 70
     1
102
RTVSPropertyOp17
 70
     1
102
RTVSPropertyOp18
 70
     1
102
RTVSPropertyOp19
 70
     1
102
RTVSPropertyOp20
 70
     1
102
RTVSPropertyOp21
 70
     1
102
RTVSPropertyOp22
 70
     1
102
RTVSPropertyOp23
 70
     1
102
RTVSPropertyOp24
 70
     1
102
RTVSPropertyOp25
 70
     1
102
RTVSPropertyOp26
 70
     1
102
RTVSPropertyOp27
 70
     1
102
RTVSPropertyOp28
 70
     1
102
RTVSPropertyOp29
 70
     1
102
RTVSPropertyOp30
 70
     1
102
RTVSPropertyOp31
 70
     1
102
RTVSPropertyOp32
 70
     1
  0
XRECORD
  5
2A0
102
{ACAD_REACTORS
330
29F
102
}
330
29F
100
AcDbXrecord
280
     1
102
RTVSPropertyOp0
 70
     1
102
RTVSPropertyOp1
 70
     1
102
RTVSPropertyOp2
 70
     1
102
RTVSPropertyOp3
 70
     1
102
RTVSPropertyOp4
 70
     1
102
RTVSPropertyOp5
 70
     1
102
RTVSPropertyOp6
 70
     1
102
RTVSPropertyOp7
 70
     1
102
RTVSPropertyOp8
 70
     1
102
RTVSPropertyOp9
 70
     1
102
RTVSPropertyOp10
 70
     1
102
RTVSPropertyOp11
 70
     1
102
RTVSPropertyOp12
 70
     1
102
RTVSPropertyOp13
 70
     1
102
RTVSPropertyOp14
 70
     1
102
RTVSPropertyOp15
 70
     1
102
RTVSPropertyOp16
 70
     1
102
RTVSPropertyOp17
 70
     1
102
RTVSPropertyOp18
 70
     1
102
RTVSPropertyOp19
 70
     1
102
RTVSPropertyOp20
 70
     1
102
RTVSPropertyOp21
 70
     1
102
RTVSPropertyOp22
 70
     1
102
RTVSPropertyOp23
 70
     1
102
RTVSPropertyOp24
 70
     1
102
RTVSPropertyOp25
 70
     1
102
RTVSPropertyOp26
 70
     1
102
RTVSPropertyOp27
 70
     1
102
RTVSPropertyOp28
 70
     1
102
RTVSPropertyOp29
 70
     1
102
RTVSPropertyOp30
 70
     1
102
RTVSPropertyOp31
 70
     1
102
RTVSPropertyOp32
 70
     1
  0
XRECORD
  5
2A8
102
{ACAD_REACTORS
330
2A7
102
}
330
2A7
100
AcDbXrecord
280
     1
102
RTVSPropertyOp0
 70
     1
102
RTVSPropertyOp1
 70
     1
102
RTVSPropertyOp2
 70
     1
102
RTVSPropertyOp3
 70
     1
102
RTVSPropertyOp4
 70
     1
102
RTVSPropertyOp5
 70
     1
102
RTVSPropertyOp6
 70
     1
102
RTVSPropertyOp7
 70
     1
102
RTVSPropertyOp8
 70
     1
102
RTVSPropertyOp9
 70
     1
102
RTVSPropertyOp10
 70
     1
102
RTVSPropertyOp11
 70
     1
102
RTVSPropertyOp12
 70
     1
102
RTVSPropertyOp13
 70
     1
102
RTVSPropertyOp14
 70
     1
102
RTVSPropertyOp15
 70
     1
102
RTVSPropertyOp16
 70
     1
102
RTVSPropertyOp17
 70
     1
102
RTVSPropertyOp18
 70
     1
102
RTVSPropertyOp19
 70
     1
102
RTVSPropertyOp20
 70
     1
102
RTVSPropertyOp21
 70
     1
102
RTVSPropertyOp22
 70
     1
102
RTVSPropertyOp23
 70
     1
102
RTVSPropertyOp24
 70
     1
102
RTVSPropertyOp25
 70
     1
102
RTVSPropertyOp26
 70
     1
102
RTVSPropertyOp27
 70
     1
102
RTVSPropertyOp28
 70
     1
102
RTVSPropertyOp29
 70
     1
102
RTVSPropertyOp30
 70
     1
102
RTVSPropertyOp31
 70
     1
102
RTVSPropertyOp32
 70
     1
  0
XRECORD
  5
2B0
102
{ACAD_REACTORS
330
2AF
102
}
330
2AF
100
AcDbXrecord
280
     1
102
RTVSPropertyOp0
 70
     1
102
RTVSPropertyOp1
 70
     1
102
RTVSPropertyOp2
 70
     1
102
RTVSPropertyOp3
 70
     1
102
RTVSPropertyOp4
 70
     1
102
RTVSPropertyOp5
 70
     1
102
RTVSPropertyOp6
 70
     1
102
RTVSPropertyOp7
 70
     1
102
RTVSPropertyOp8
 70
     1
102
RTVSPropertyOp9
 70
     1
102
RTVSPropertyOp10
 70
     1
102
RTVSPropertyOp11
 70
     1
102
RTVSPropertyOp12
 70
     1
102
RTVSPropertyOp13
 70
     1
102
RTVSPropertyOp14
 70
     1
102
RTVSPropertyOp15
 70
     1
102
RTVSPropertyOp16
 70
     1
102
RTVSPropertyOp17
 70
     1
102
RTVSPropertyOp18
 70
     1
102
RTVSPropertyOp19
 70
     1
102
RTVSPropertyOp20
 70
     1
102
RTVSPropertyOp21
 70
     1
102
RTVSPropertyOp22
 70
     1
102
RTVSPropertyOp23
 70
     1
102
RTVSPropertyOp24
 70
     1
102
RTVSPropertyOp25
 70
     1
102
RTVSPropertyOp26
 70
     1
102
RTVSPropertyOp27
 70
     1
102
RTVSPropertyOp28
 70
     1
102
RTVSPropertyOp29
 70
     1
102
RTVSPropertyOp30
 70
     1
102
RTVSPropertyOp31
 70
     1
102
RTVSPropertyOp32
 70
     1
  0
XRECORD
  5
2A4
102
{ACAD_REACTORS
330
2A3
102
}
330
2A3
100
AcDbXrecord
280
     1
102
RTVSPropertyOp0
 70
     1
102
RTVSPropertyOp1
 70
     1
102
RTVSPropertyOp2
 70
     1
102
RTVSPropertyOp3
 70
     1
102
RTVSPropertyOp4
 70
     1
102
RTVSPropertyOp5
 70
     1
102
RTVSPropertyOp6
 70
     1
102
RTVSPropertyOp7
 70
     1
102
RTVSPropertyOp8
 70
     1
102
RTVSPropertyOp9
 70
     1
102
RTVSPropertyOp10
 70
     1
102
RTVSPropertyOp11
 70
     1
102
RTVSPropertyOp12
 70
     1
102
RTVSPropertyOp13
 70
     1
102
RTVSPropertyOp14
 70
     1
102
RTVSPropertyOp15
 70
     1
102
RTVSPropertyOp16
 70
     1
102
RTVSPropertyOp17
 70
     1
102
RTVSPropertyOp18
 70
     1
102
RTVSPropertyOp19
 70
     1
102
RTVSPropertyOp20
 70
     1
102
RTVSPropertyOp21
 70
     1
102
RTVSPropertyOp22
 70
     1
102
RTVSPropertyOp23
 70
     1
102
RTVSPropertyOp24
 70
     1
102
RTVSPropertyOp25
 70
     1
102
RTVSPropertyOp26
 70
     1
102
RTVSPropertyOp27
 70
     1
102
RTVSPropertyOp28
 70
     1
102
RTVSPropertyOp29
 70
     1
102
RTVSPropertyOp30
 70
     1
102
RTVSPropertyOp31
 70
     1
102
RTVSPropertyOp32
 70
     1
  0
XRECORD
  5
2A6
102
{ACAD_REACTORS
330
2A5
102
}
330
2A5
100
AcDbXrecord
280
     1
102
RTVSPropertyOp0
 70
     1
102
RTVSPropertyOp1
 70
     1
102
RTVSPropertyOp2
 70
     1
102
RTVSPropertyOp3
 70
     1
102
RTVSPropertyOp4
 70
     1
102
RTVSPropertyOp5
 70
     1
102
RTVSPropertyOp6
 70
     1
102
RTVSPropertyOp7
 70
     1
102
RTVSPropertyOp8
 70
     1
102
RTVSPropertyOp9
 70
     1
102
RTVSPropertyOp10
 70
     1
102
RTVSPropertyOp11
 70
     1
102
RTVSPropertyOp12
 70
     1
102
RTVSPropertyOp13
 70
     1
102
RTVSPropertyOp14
 70
     1
102
RTVSPropertyOp15
 70
     1
102
RTVSPropertyOp16
 70
     1
102
RTVSPropertyOp17
 70
     1
102
RTVSPropertyOp18
 70
     1
102
RTVSPropertyOp19
 70
     1
102
RTVSPropertyOp20
 70
     1
102
RTVSPropertyOp21
 70
     1
102
RTVSPropertyOp22
 70
     1
102
RTVSPropertyOp23
 70
     1
102
RTVSPropertyOp24
 70
     1
102
RTVSPropertyOp25
 70
     1
102
RTVSPropertyOp26
 70
     1
102
RTVSPropertyOp27
 70
     1
102
RTVSPropertyOp28
 70
     1
102
RTVSPropertyOp29
 70
     1
102
RTVSPropertyOp30
 70
     1
102
RTVSPropertyOp31
 70
     1
102
RTVSPropertyOp32
 70
     1
  0
XRECORD
  5
2AE
102
{ACAD_REACTORS
330
2AD
102
}
330
2AD
100
AcDbXrecord
280
     1
102
RTVSPropertyOp0
 70
     1
102
RTVSPropertyOp1
 70
     1
102
RTVSPropertyOp2
 70
     1
102
RTVSPropertyOp3
 70
     1
102
RTVSPropertyOp4
 70
     1
102
RTVSPropertyOp5
 70
     1
102
RTVSPropertyOp6
 70
     1
102
RTVSPropertyOp7
 70
     1
102
RTVSPropertyOp8
 70
     1
102
RTVSPropertyOp9
 70
     1
102
RTVSPropertyOp10
 70
     1
102
RTVSPropertyOp11
 70
     1
102
RTVSPropertyOp12
 70
     1
102
RTVSPropertyOp13
 70
     1
102
RTVSPropertyOp14
 70
     1
102
RTVSPropertyOp15
 70
     1
102
RTVSPropertyOp16
 70
     1
102
RTVSPropertyOp17
 70
     1
102
RTVSPropertyOp18
 70
     1
102
RTVSPropertyOp19
 70
     1
102
RTVSPropertyOp20
 70
     1
102
RTVSPropertyOp21
 70
     1
102
RTVSPropertyOp22
 70
     1
102
RTVSPropertyOp23
 70
     1
102
RTVSPropertyOp24
 70
     1
102
RTVSPropertyOp25
 70
     1
102
RTVSPropertyOp26
 70
     1
102
RTVSPropertyOp27
 70
     1
102
RTVSPropertyOp28
 70
     1
102
RTVSPropertyOp29
 70
     1
102
RTVSPropertyOp30
 70
     1
102
RTVSPropertyOp31
 70
     1
102
RTVSPropertyOp32
 70
     1
  0
XRECORD
  5
292
102
{ACAD_REACTORS
330
291
102
}
330
291
100
AcDbXrecord
280
     1
102
RTVSPropertyOp0
 70
     1
102
RTVSPropertyOp1
 70
     1
102
RTVSPropertyOp2
 70
     1
102
RTVSPropertyOp3
 70
     1
102
RTVSPropertyOp4
 70
     1
102
RTVSPropertyOp5
 70
     1
102
RTVSPropertyOp6
 70
     1
102
RTVSPropertyOp7
 70
     1
102
RTVSPropertyOp8
 70
     1
102
RTVSPropertyOp9
 70
     1
102
RTVSPropertyOp10
 70
     1
102
RTVSPropertyOp11
 70
     1
102
RTVSPropertyOp12
 70
     1
102
RTVSPropertyOp13
 70
     1
102
RTVSPropertyOp14
 70
     1
102
RTVSPropertyOp15
 70
     1
102
RTVSPropertyOp16
 70
     1
102
RTVSPropertyOp17
 70
     1
102
RTVSPropertyOp18
 70
     1
102
RTVSPropertyOp19
 70
     1
102
RTVSPropertyOp20
 70
     1
102
RTVSPropertyOp21
 70
     1
102
RTVSPropertyOp22
 70
     1
102
RTVSPropertyOp23
 70
     1
102
RTVSPropertyOp24
 70
     1
102
RTVSPropertyOp25
 70
     1
102
RTVSPropertyOp26
 70
     1
102
RTVSPropertyOp27
 70
     1
102
RTVSPropertyOp28
 70
     1
102
RTVSPropertyOp29
 70
     1
102
RTVSPropertyOp30
 70
     1
102
RTVSPropertyOp31
 70
     1
102
RTVSPropertyOp32
 70
     1
  0
XRECORD
  5
294
102
{ACAD_REACTORS
330
293
102
}
330
293
100
AcDbXrecord
280
     1
102
RTVSPropertyOp0
 70
     1
102
RTVSPropertyOp1
 70
     1
102
RTVSPropertyOp2
 70
     1
102
RTVSPropertyOp3
 70
     1
102
RTVSPropertyOp4
 70
     1
102
RTVSPropertyOp5
 70
     1
102
RTVSPropertyOp6
 70
     1
102
RTVSPropertyOp7
 70
     1
102
RTVSPropertyOp8
 70
     1
102
RTVSPropertyOp9
 70
     1
102
RTVSPropertyOp10
 70
     1
102
RTVSPropertyOp11
 70
     1
102
RTVSPropertyOp12
 70
     1
102
RTVSPropertyOp13
 70
     1
102
RTVSPropertyOp14
 70
     1
102
RTVSPropertyOp15
 70
     1
102
RTVSPropertyOp16
 70
     1
102
RTVSPropertyOp17
 70
     1
102
RTVSPropertyOp18
 70
     1
102
RTVSPropertyOp19
 70
     1
102
RTVSPropertyOp20
 70
     1
102
RTVSPropertyOp21
 70
     1
102
RTVSPropertyOp22
 70
     1
102
RTVSPropertyOp23
 70
     1
102
RTVSPropertyOp24
 70
     1
102
RTVSPropertyOp25
 70
     1
102
RTVSPropertyOp26
 70
     1
102
RTVSPropertyOp27
 70
     1
102
RTVSPropertyOp28
 70
     1
102
RTVSPropertyOp29
 70
     1
102
RTVSPropertyOp30
 70
     1
102
RTVSPropertyOp31
 70
     1
102
RTVSPropertyOp32
 70
     1
  0
XRECORD
  5
296
102
{ACAD_REACTORS
330
295
102
}
330
295
100
AcDbXrecord
280
     1
102
RTVSPropertyOp0
 70
     1
102
RTVSPropertyOp1
 70
     1
102
RTVSPropertyOp2
 70
     1
102
RTVSPropertyOp3
 70
     1
102
RTVSPropertyOp4
 70
     1
102
RTVSPropertyOp5
 70
     1
102
RTVSPropertyOp6
 70
     1
102
RTVSPropertyOp7
 70
     1
102
RTVSPropertyOp8
 70
     1
102
RTVSPropertyOp9
 70
     1
102
RTVSPropertyOp10
 70
     1
102
RTVSPropertyOp11
 70
     1
102
RTVSPropertyOp12
 70
     1
102
RTVSPropertyOp13
 70
     1
102
RTVSPropertyOp14
 70
     1
102
RTVSPropertyOp15
 70
     1
102
RTVSPropertyOp16
 70
     1
102
RTVSPropertyOp17
 70
     1
102
RTVSPropertyOp18
 70
     1
102
RTVSPropertyOp19
 70
     1
102
RTVSPropertyOp20
 70
     1
102
RTVSPropertyOp21
 70
     1
102
RTVSPropertyOp22
 70
     1
102
RTVSPropertyOp23
 70
     1
102
RTVSPropertyOp24
 70
     1
102
RTVSPropertyOp25
 70
     1
102
RTVSPropertyOp26
 70
     1
102
RTVSPropertyOp27
 70
     1
102
RTVSPropertyOp28
 70
     1
102
RTVSPropertyOp29
 70
     1
102
RTVSPropertyOp30
 70
     1
102
RTVSPropertyOp31
 70
     1
102
RTVSPropertyOp32
 70
     1
  0
XRECORD
  5
298
102
{ACAD_REACTORS
330
297
102
}
330
297
100
AcDbXrecord
280
     1
102
RTVSPropertyOp0
 70
     1
102
RTVSPropertyOp1
 70
     1
102
RTVSPropertyOp2
 70
     1
102
RTVSPropertyOp3
 70
     1
102
RTVSPropertyOp4
 70
     1
102
RTVSPropertyOp5
 70
     1
102
RTVSPropertyOp6
 70
     1
102
RTVSPropertyOp7
 70
     1
102
RTVSPropertyOp8
 70
     1
102
RTVSPropertyOp9
 70
     1
102
RTVSPropertyOp10
 70
     1
102
RTVSPropertyOp11
 70
     1
102
RTVSPropertyOp12
 70
     1
102
RTVSPropertyOp13
 70
     1
102
RTVSPropertyOp14
 70
     1
102
RTVSPropertyOp15
 70
     1
102
RTVSPropertyOp16
 70
     1
102
RTVSPropertyOp17
 70
     1
102
RTVSPropertyOp18
 70
     1
102
RTVSPropertyOp19
 70
     1
102
RTVSPropertyOp20
 70
     1
102
RTVSPropertyOp21
 70
     1
102
RTVSPropertyOp22
 70
     1
102
RTVSPropertyOp23
 70
     1
102
RTVSPropertyOp24
 70
     1
102
RTVSPropertyOp25
 70
     1
102
RTVSPropertyOp26
 70
     1
102
RTVSPropertyOp27
 70
     1
102
RTVSPropertyOp28
 70
     1
102
RTVSPropertyOp29
 70
     1
102
RTVSPropertyOp30
 70
     1
102
RTVSPropertyOp31
 70
     1
102
RTVSPropertyOp32
 70
     1
  0
XRECORD
  5
2AC
102
{ACAD_REACTORS
330
2AB
102
}
330
2AB
100
AcDbXrecord
280
     1
102
RTVSPropertyOp0
 70
     1
102
RTVSPropertyOp1
 70
     1
102
RTVSPropertyOp2
 70
     1
102
RTVSPropertyOp3
 70
     1
102
RTVSPropertyOp4
 70
     1
102
RTVSPropertyOp5
 70
     1
102
RTVSPropertyOp6
 70
     1
102
RTVSPropertyOp7
 70
     1
102
RTVSPropertyOp8
 70
     1
102
RTVSPropertyOp9
 70
     1
102
RTVSPropertyOp10
 70
     1
102
RTVSPropertyOp11
 70
     1
102
RTVSPropertyOp12
 70
     1
102
RTVSPropertyOp13
 70
     1
102
RTVSPropertyOp14
 70
     1
102
RTVSPropertyOp15
 70
     1
102
RTVSPropertyOp16
 70
     1
102
RTVSPropertyOp17
 70
     1
102
RTVSPropertyOp18
 70
     1
102
RTVSPropertyOp19
 70
     1
102
RTVSPropertyOp20
 70
     1
102
RTVSPropertyOp21
 70
     1
102
RTVSPropertyOp22
 70
     1
102
RTVSPropertyOp23
 70
     1
102
RTVSPropertyOp24
 70
     1
102
RTVSPropertyOp25
 70
     1
102
RTVSPropertyOp26
 70
     1
102
RTVSPropertyOp27
 70
     1
102
RTVSPropertyOp28
 70
     1
102
RTVSPropertyOp29
 70
     1
102
RTVSPropertyOp30
 70
     1
102
RTVSPropertyOp31
 70
     1
102
RTVSPropertyOp32
 70
     1
  0
XRECORD
  5
2A2
102
{ACAD_REACTORS
330
2A1
102
}
330
2A1
100
AcDbXrecord
280
     1
102
RTVSPropertyOp0
 70
     1
102
RTVSPropertyOp1
 70
     1
102
RTVSPropertyOp2
 70
     1
102
RTVSPropertyOp3
 70
     1
102
RTVSPropertyOp4
 70
     1
102
RTVSPropertyOp5
 70
     1
102
RTVSPropertyOp6
 70
     1
102
RTVSPropertyOp7
 70
     1
102
RTVSPropertyOp8
 70
     1
102
RTVSPropertyOp9
 70
     1
102
RTVSPropertyOp10
 70
     1
102
RTVSPropertyOp11
 70
     1
102
RTVSPropertyOp12
 70
     1
102
RTVSPropertyOp13
 70
     1
102
RTVSPropertyOp14
 70
     1
102
RTVSPropertyOp15
 70
     1
102
RTVSPropertyOp16
 70
     1
102
RTVSPropertyOp17
 70
     1
102
RTVSPropertyOp18
 70
     1
102
RTVSPropertyOp19
 70
     1
102
RTVSPropertyOp20
 70
     1
102
RTVSPropertyOp21
 70
     1
102
RTVSPropertyOp22
 70
     1
102
RTVSPropertyOp23
 70
     1
102
RTVSPropertyOp24
 70
     1
102
RTVSPropertyOp25
 70
     1
102
RTVSPropertyOp26
 70
     1
102
RTVSPropertyOp27
 70
     1
102
RTVSPropertyOp28
 70
     1
102
RTVSPropertyOp29
 70
     1
102
RTVSPropertyOp30
 70
     1
102
RTVSPropertyOp31
 70
     1
102
RTVSPropertyOp32
 70
     1
  0
XRECORD
  5
2AA
102
{ACAD_REACTORS
330
2A9
102
}
330
2A9
100
AcDbXrecord
280
     1
102
RTVSPropertyOp0
 70
     1
102
RTVSPropertyOp1
 70
     1
102
RTVSPropertyOp2
 70
     1
102
RTVSPropertyOp3
 70
     1
102
RTVSPropertyOp4
 70
     1
102
RTVSPropertyOp5
 70
     1
102
RTVSPropertyOp6
 70
     1
102
RTVSPropertyOp7
 70
     1
102
RTVSPropertyOp8
 70
     1
102
RTVSPropertyOp9
 70
     1
102
RTVSPropertyOp10
 70
     1
102
RTVSPropertyOp11
 70
     1
102
RTVSPropertyOp12
 70
     1
102
RTVSPropertyOp13
 70
     1
102
RTVSPropertyOp14
 70
     1
102
RTVSPropertyOp15
 70
     1
102
RTVSPropertyOp16
 70
     1
102
RTVSPropertyOp17
 70
     1
102
RTVSPropertyOp18
 70
     1
102
RTVSPropertyOp19
 70
     1
102
RTVSPropertyOp20
 70
     1
102
RTVSPropertyOp21
 70
     1
102
RTVSPropertyOp22
 70
     1
102
RTVSPropertyOp23
 70
     1
102
RTVSPropertyOp24
 70
     1
102
RTVSPropertyOp25
 70
     1
102
RTVSPropertyOp26
 70
     1
102
RTVSPropertyOp27
 70
     1
102
RTVSPropertyOp28
 70
     1
102
RTVSPropertyOp29
 70
     1
102
RTVSPropertyOp30
 70
     1
102
RTVSPropertyOp31
 70
     1
102
RTVSPropertyOp32
 70
     1
  0
ENDSEC
  0
EOF
