  0
SECTION
  2
HEADER
  9
$ACADVER
  1
AC1015
  9
$ACADMAINTVER
 70
     6
  9
$DWGCODEPAGE
  3
ANSI_932
  9
$INSBASE
 10
0.0
 20
0.0
 30
0.0
  9
$EXTMIN
 10
0.0
 20
0.0
 30
0.0
  9
$EXTMAX
 10
315.0
 20
445.5
 30
0.0
  9
$LIMMIN
 10
0.0
 20
0.0
  9
$LIMMAX
 10
12.0
 20
9.0
  9
$ORTHOMODE
 70
     0
  9
$REGENMODE
 70
     1
  9
$FILLMODE
 70
     1
  9
$QTEXTMODE
 70
     0
  9
$MIRRTEXT
 70
     1
  9
$LTSCALE
 40
1.0
  9
$ATTMODE
 70
     1
  9
$TEXTSIZE
 40
0.2
  9
$TRACEWID
 40
0.05
  9
$TEXTSTYLE
  7
Standard
  9
$CLAYER
  8
0
  9
$CELTYPE
  6
ByLayer
  9
$CECOLOR
 62
   256
  9
$CELTSCALE
 40
1.0
  9
$DISPSILH
 70
     0
  9
$DIMSCALE
 40
1.0
  9
$DIMASZ
 40
0.18
  9
$DIMEXO
 40
0.0625
  9
$DIMDLI
 40
0.38
  9
$DIMRND
 40
0.0
  9
$DIMDLE
 40
0.0
  9
$DIMEXE
 40
0.18
  9
$DIMTP
 40
0.0
  9
$DIMTM
 40
0.0
  9
$DIMTXT
 40
0.18
  9
$DIMCEN
 40
0.09
  9
$DIMTSZ
 40
0.0
  9
$DIMTOL
 70
     0
  9
$DIMLIM
 70
     0
  9
$DIMTIH
 70
     1
  9
$DIMTOH
 70
     1
  9
$DIMSE1
 70
     0
  9
$DIMSE2
 70
     0
  9
$DIMTAD
 70
     0
  9
$DIMZIN
 70
     0
  9
$DIMBLK
  1

  9
$DIMASO
 70
     1
  9
$DIMSHO
 70
     1
  9
$DIMPOST
  1

  9
$DIMAPOST
  1

  9
$DIMALT
 70
     0
  9
$DIMALTD
 70
     2
  9
$DIMALTF
 40
25.4
  9
$DIMLFAC
 40
1.0
  9
$DIMTOFL
 70
     0
  9
$DIMTVP
 40
0.0
  9
$DIMTIX
 70
     0
  9
$DIMSOXD
 70
     0
  9
$DIMSAH
 70
     0
  9
$DIMBLK1
  1

  9
$DIMBLK2
  1

  9
$DIMSTYLE
  2
Standard
  9
$DIMCLRD
 70
     0
  9
$DIMCLRE
 70
     0
  9
$DIMCLRT
 70
     0
  9
$DIMTFAC
 40
1.0
  9
$DIMGAP
 40
0.09
  9
$DIMJUST
 70
     0
  9
$DIMSD1
 70
     0
  9
$DIMSD2
 70
     0
  9
$DIMTOLJ
 70
     1
  9
$DIMTZIN
 70
     0
  9
$DIMALTZ
 70
     0
  9
$DIMALTTZ
 70
     0
  9
$DIMUPT
 70
     0
  9
$DIMDEC
 70
     4
  9
$DIMTDEC
 70
     4
  9
$DIMALTU
 70
     2
  9
$DIMALTTD
 70
     2
  9
$DIMTXSTY
  7
Standard
  9
$DIMAUNIT
 70
     0
  9
$DIMADEC
 70
     0
  9
$DIMALTRND
 40
0.0
  9
$DIMAZIN
 70
     0
  9
$DIMDSEP
 70
    46
  9
$DIMATFIT
 70
     3
  9
$DIMFRAC
 70
     0
  9
$DIMLDRBLK
  1

  9
$DIMLUNIT
 70
     2
  9
$DIMLWD
 70
    -2
  9
$DIMLWE
 70
    -2
  9
$DIMTMOVE
 70
     0
  9
$LUNITS
 70
     2
  9
$LUPREC
 70
     4
  9
$SKETCHINC
 40
0.1
  9
$FILLETRAD
 40
0.5
  9
$AUNITS
 70
     0
  9
$AUPREC
 70
     0
  9
$MENU
  1
.
  9
$ELEVATION
 40
0.0
  9
$PELEVATION
 40
0.0
  9
$THICKNESS
 40
0.0
  9
$LIMCHECK
 70
     0
  9
$CHAMFERA
 40
0.5
  9
$CHAMFERB
 40
0.5
  9
$CHAMFERC
 40
1.0
  9
$CHAMFERD
 40
0.0
  9
$SKPOLY
 70
     0
  9
$TDCREATE
 40
2459313.691585741
  9
$TDUCREATE
 40
2459313.316585741
  9
$TDUPDATE
 40
2459313.691588264
  9
$TDUUPDATE
 40
2459313.316588264
  9
$TDINDWG
 40
0.0000000116
  9
$TDUSRTIMER
 40
0.0000000116
  9
$USRTIMER
 70
     1
  9
$ANGBASE
 50
0.0
  9
$ANGDIR
 70
     0
  9
$PDMODE
 70
     0
  9
$PDSIZE
 40
0.0
  9
$PLINEWID
 40
0.0
  9
$SPLFRAME
 70
     0
  9
$SPLINETYPE
 70
     6
  9
$SPLINESEGS
 70
     8
  9
$HANDSEED
  5
282
  9
$SURFTAB1
 70
     6
  9
$SURFTAB2
 70
     6
  9
$SURFTYPE
 70
     6
  9
$SURFU
 70
     6
  9
$SURFV
 70
     6
  9
$UCSBASE
  2

  9
$UCSNAME
  2

  9
$UCSORG
 10
0.0
 20
0.0
 30
0.0
  9
$UCSXDIR
 10
1.0
 20
0.0
 30
0.0
  9
$UCSYDIR
 10
0.0
 20
1.0
 30
0.0
  9
$UCSORTHOREF
  2

  9
$UCSORTHOVIEW
 70
     0
  9
$UCSORGTOP
 10
0.0
 20
0.0
 30
0.0
  9
$UCSORGBOTTOM
 10
0.0
 20
0.0
 30
0.0
  9
$UCSORGLEFT
 10
0.0
 20
0.0
 30
0.0
  9
$UCSORGRIGHT
 10
0.0
 20
0.0
 30
0.0
  9
$UCSORGFRONT
 10
0.0
 20
0.0
 30
0.0
  9
$UCSORGBACK
 10
0.0
 20
0.0
 30
0.0
  9
$PUCSBASE
  2

  9
$PUCSNAME
  2

  9
$PUCSORG
 10
0.0
 20
0.0
 30
0.0
  9
$PUCSXDIR
 10
1.0
 20
0.0
 30
0.0
  9
$PUCSYDIR
 10
0.0
 20
1.0
 30
0.0
  9
$PUCSORTHOREF
  2

  9
$PUCSORTHOVIEW
 70
     0
  9
$PUCSORGTOP
 10
0.0
 20
0.0
 30
0.0
  9
$PUCSORGBOTTOM
 10
0.0
 20
0.0
 30
0.0
  9
$PUCSORGLEFT
 10
0.0
 20
0.0
 30
0.0
  9
$PUCSORGRIGHT
 10
0.0
 20
0.0
 30
0.0
  9
$PUCSORGFRONT
 10
0.0
 20
0.0
 30
0.0
  9
$PUCSORGBACK
 10
0.0
 20
0.0
 30
0.0
  9
$USERI1
 70
     0
  9
$USERI2
 70
     0
  9
$USERI3
 70
     0
  9
$USERI4
 70
     0
  9
$USERI5
 70
     0
  9
$USERR1
 40
18.1
  9
$USERR2
 40
0.0
  9
$USERR3
 40
0.0
  9
$USERR4
 40
0.0
  9
$USERR5
 40
0.0
  9
$WORLDVIEW
 70
     1
  9
$SHADEDGE
 70
     3
  9
$SHADEDIF
 70
    70
  9
$TILEMODE
 70
     1
  9
$MAXACTVP
 70
    64
  9
$PINSBASE
 10
0.0
 20
0.0
 30
0.0
  9
$PLIMCHECK
 70
     0
  9
$PEXTMIN
 10
1.00000000000000E+20
 20
1.00000000000000E+20
 30
1.00000000000000E+20
  9
$PEXTMAX
 10
-1.00000000000000E+20
 20
-1.00000000000000E+20
 30
-1.00000000000000E+20
  9
$PLIMMIN
 10
0.0
 20
0.0
  9
$PLIMMAX
 10
12.0
 20
9.0
  9
$UNITMODE
 70
     0
  9
$VISRETAIN
 70
     1
  9
$PLINEGEN
 70
     0
  9
$PSLTSCALE
 70
     1
  9
$TREEDEPTH
 70
  3020
  9
$CMLSTYLE
  2
Standard
  9
$CMLJUST
 70
     0
  9
$CMLSCALE
 40
1.0
  9
$PROXYGRAPHICS
 70
     1
  9
$MEASUREMENT
 70
     1
  9
$CELWEIGHT
370
    -1
  9
$ENDCAPS
280
     0
  9
$JOINSTYLE
280
     0
  9
$LWDISPLAY
290
     0
  9
$INSUNITS
 70
     4
  9
$HYPERLINKBASE
  1

  9
$STYLESHEET
  1

  9
$XEDIT
290
     1
  9
$CEPSNTYPE
380
     0
  9
$PSTYLEMODE
290
     1
  9
$FINGERPRINTGUID
  2
{444D7DE3-45A4-44DF-B764-2451D8268542}
  9
$VERSIONGUID
  2
{FAEB1C32-E019-11D5-929B-00C0DF256EC4}
  9
$EXTNAMES
290
     1
  9
$PSVPSCALE
 40
0.0
  9
$OLESTARTUP
290
     0
  0
ENDSEC
  0
SECTION
  2
CLASSES
  0
CLASS
  1
ACDBDICTIONARYWDFLT
  2
AcDbDictionaryWithDefault
  3
ObjectDBX Classes
 90
        0
280
     0
281
     0
  0
CLASS
  1
VISUALSTYLE
  2
AcDbVisualStyle
  3
ObjectDBX Classes
 90
     4095
280
     0
281
     0
  0
CLASS
  1
MATERIAL
  2
AcDbMaterial
  3
ObjectDBX Classes
 90
     1153
280
     0
281
     0
  0
CLASS
  1
DICTIONARYVAR
  2
AcDbDictionaryVar
  3
ObjectDBX Classes
 90
        0
280
     0
281
     0
  0
CLASS
  1
ACDBPLACEHOLDER
  2
AcDbPlaceHolder
  3
ObjectDBX Classes
 90
        0
280
     0
281
     0
  0
CLASS
  1
LAYOUT
  2
AcDbLayout
  3
ObjectDBX Classes
 90
        0
280
     0
281
     0
  0
ENDSEC
  0
SECTION
  2
TABLES
  0
TABLE
  2
VPORT
  5
8
330
0
100
AcDbSymbolTable
 70
     1
  0
VPORT
  5
29
330
8
100
AcDbSymbolTableRecord
100
AcDbViewportTableRecord
  2
*Active
 70
     0
 10
0.0
 20
0.0
 11
1.0
 21
1.0
 12
157.5
 22
222.75
 13
0.0
 23
0.0
 14
0.5
 24
0.5
 15
0.5
 25
0.5
 16
0.0
 26
0.0
 36
1.0
 17
0.0
 27
0.0
 37
0.0
 40
490.05
 41
1.60267857142857
 42
50.0
 43
0.0
 44
0.0
 50
0.0
 51
0.0
 71
     0
 72
   100
 73
     1
 74
     3
 75
     0
 76
     0
 77
     0
 78
     0
281
     0
 65
     1
110
0.0
120
0.0
130
0.0
111
1.0
121
0.0
131
0.0
112
0.0
122
1.0
132
0.0
 79
     0
146
0.0
  0
ENDTAB
  0
TABLE
  2
LTYPE
  5
5
330
0
100
AcDbSymbolTable
 70
     9
  0
LTYPE
  5
14
330
5
100
AcDbSymbolTableRecord
100
AcDbLinetypeTableRecord
  2
ByBlock
 70
     0
  3

 72
    65
 73
     0
 40
0.0
  0
LTYPE
  5
15
330
5
100
AcDbSymbolTableRecord
100
AcDbLinetypeTableRecord
  2
ByLayer
 70
     0
  3

 72
    65
 73
     0
 40
0.0
  0
LTYPE
  5
16
330
5
100
AcDbSymbolTableRecord
100
AcDbLinetypeTableRecord
  2
Continuous
 70
     0
  3
Solid line
 72
    65
 73
     0
 40
0.0
  0
LTYPE
  5
3F
330
5
100
AcDbSymbolTableRecord
100
AcDbLinetypeTableRecord
  2
DASHED
 70
     0
  3
Dashed
 72
    65
 73
     2
 40
15.0
 49
7.0
 74
     0
 49
-8.0
 74
     0
  0
LTYPE
  5
40
330
5
100
AcDbSymbolTableRecord
100
AcDbLinetypeTableRecord
  2
DOTTED
 70
     0
  3
Dotted
 72
    65
 73
     2
 40
1.0
 49
0.0
 74
     0
 49
-1.0
 74
     0
  0
LTYPE
  5
41
330
5
100
AcDbSymbolTableRecord
100
AcDbLinetypeTableRecord
  2
DOT_CENTER
 70
     0
  3
Dot_Center
 72
    65
 73
     4
 40
14.0
 49
12.0
 74
     0
 49
-1.0
 74
     0
 49
0.0
 74
     0
 49
-1.0
 74
     0
  0
LTYPE
  5
42
330
5
100
AcDbSymbolTableRecord
100
AcDbLinetypeTableRecord
  2
LONG_DASHED
 70
     0
  3
Long_Dashed
 72
    65
 73
     2
 40
15.0
 49
10.0
 74
     0
 49
-5.0
 74
     0
  0
LTYPE
  5
43
330
5
100
AcDbSymbolTableRecord
100
AcDbLinetypeTableRecord
  2
DASH_CENTER
 70
     0
  3
Dash_Center
 72
    65
 73
     4
 40
14.0
 49
11.0
 74
     0
 49
-1.0
 74
     0
 49
1.0
 74
     0
 49
-1.0
 74
     0
  0
LTYPE
  5
44
330
5
100
AcDbSymbolTableRecord
100
AcDbLinetypeTableRecord
  2
PHANTOM
 70
     0
  3
Phantom
 72
    65
 73
     6
 40
13.0
 49
10.0
 74
     0
 49
-1.0
 74
     0
 49
0.0
 74
     0
 49
-1.0
 74
     0
 49
0.0
 74
     0
 49
-1.0
 74
     0
  0
LTYPE
  5
45
330
5
100
AcDbSymbolTableRecord
100
AcDbLinetypeTableRecord
  2
CENTER_DASH_DASH
 70
     0
  3
Center_Dash_Dash
 72
    65
 73
     6
 40
14.0
 49
9.0
 74
     0
 49
-1.0
 74
     0
 49
1.0
 74
     0
 49
-1.0
 74
     0
 49
1.0
 74
     0
 49
-1.0
 74
     0
  0
LTYPE
  5
46
330
5
100
AcDbSymbolTableRecord
100
AcDbLinetypeTableRecord
  2
DIVIDE
 70
     0
  3
DIVIDE
 72
    65
 73
     6
 40
14.0
 49
5.0
 74
     0
 49
-3.0
 74
     0
 49
0.0
 74
     0
 49
-3.0
 74
     0
 49
0.0
 74
     0
 49
-3.0
 74
     0
  0
ENDTAB
  0
TABLE
  2
LAYER
  5
2
330
0
100
AcDbSymbolTable
 70
     6
  0
LAYER
  5
10
330
2
100
AcDbSymbolTableRecord
100
AcDbLayerTableRecord
  2
0
 70
     0
 62
     7
  6
Continuous
370
    -3
390
F
  0
LAYER
  5
47
330
2
100
AcDbSymbolTableRecord
100
AcDbLayerTableRecord
  2
1
 70
     0
 62
     7
  6
Continuous
370
    -3
390
F
  0
LAYER
  5
48
330
2
100
AcDbSymbolTableRecord
100
AcDbLayerTableRecord
  2
LEVEL001
 70
     0
 62
     7
  6
Continuous
370
    -3
390
F
  0
LAYER
  5
49
330
2
100
AcDbSymbolTableRecord
100
AcDbLayerTableRecord
  2
center
 70
     0
 62
     7
  6
Continuous
370
    -3
390
F
  0
LAYER
  5
4A
330
2
100
AcDbSymbolTableRecord
100
AcDbLayerTableRecord
  2
inline
 70
     0
 62
     7
  6
Continuous
370
    -3
390
F
  0
LAYER
  5
4B
330
2
100
AcDbSymbolTableRecord
100
AcDbLayerTableRecord
  2
outline
 70
     0
 62
     7
  6
Continuous
370
    -3
390
F
  0
ENDTAB
  0
TABLE
  2
STYLE
  5
3
330
0
100
AcDbSymbolTable
 70
     4
  0
STYLE
  5
11
330
3
100
AcDbSymbolTableRecord
100
AcDbTextStyleTableRecord
  2
Standard
 70
     0
 40
0.0
 41
1.0
 50
0.0
 71
     0
 42
0.2
  3
txt
  4

  0
STYLE
  5
131
330
3
100
AcDbSymbolTableRecord
100
AcDbTextStyleTableRecord
  2
CONVERTER_11
 70
     0
 40
0.0
 41
0.98888888888889
 50
14.99999999999998
 71
     0
 42
0.2
  3
MS Mincho.ttf
  4

1001
ACAD
1000
MS Mincho
1071
    32785
  0
STYLE
  5
183
330
3
100
AcDbSymbolTableRecord
100
AcDbTextStyleTableRecord
  2
CONVERTER_12
 70
     0
 40
0.0
 41
0.89
 50
0.0
 71
     0
 42
0.2
  3
MS Mincho.ttf
  4

1001
ACAD
1000
MS Mincho
1071
    32785
  0
STYLE
  5
1F1
330
3
100
AcDbSymbolTableRecord
100
AcDbTextStyleTableRecord
  2
CONVERTER_13
 70
     0
 40
0.0
 41
0.9
 50
0.0
 71
     0
 42
0.2
  3
txt.shx
  4

  0
ENDTAB
  0
TABLE
  2
VIEW
  5
6
330
0
100
AcDbSymbolTable
 70
     0
  0
ENDTAB
  0
TABLE
  2
UCS
  5
7
330
0
100
AcDbSymbolTable
 70
     0
  0
ENDTAB
  0
TABLE
  2
APPID
  5
9
330
0
100
AcDbSymbolTable
 70
     1
  0
APPID
  5
12
330
9
100
AcDbSymbolTableRecord
100
AcDbRegAppTableRecord
  2
ACAD
 70
     0
  0
ENDTAB
  0
TABLE
  2
DIMSTYLE
  5
A
330
0
100
AcDbSymbolTable
 70
     8
100
AcDbDimStyleTable
  0
DIMSTYLE
105
27
330
A
100
AcDbSymbolTableRecord
100
AcDbDimStyleTableRecord
  2
Standard
 70
     0
178
     0
340
11
  0
DIMSTYLE
105
212
102
{ACAD_REACTORS
330
213
102
}
330
A
100
AcDbSymbolTableRecord
100
AcDbDimStyleTableRecord
  2
ME10_DIM_10
 70
     0
 41
5.25
 42
0.0
 44
1.5
 73
     0
 74
     0
 77
     1
 78
     8
140
5.25
147
1.5
172
     1
173
     1
174
     1
175
     1
176
     2
177
     2
271
     2
178
     7
271
     2
340
1F1
  0
DIMSTYLE
105
21D
102
{ACAD_REACTORS
330
21E
102
}
330
A
100
AcDbSymbolTableRecord
100
AcDbDimStyleTableRecord
  2
ME10_DIM_11
 70
     0
 41
5.25
 42
0.0
 44
1.5
 73
     0
 74
     0
 77
     1
 78
     8
140
5.25
147
1.5
172
     1
173
     1
174
     1
175
     1
176
     2
177
     2
271
     2
178
     7
271
     2
340
1F1
  0
DIMSTYLE
105
228
102
{ACAD_REACTORS
330
229
102
}
330
A
100
AcDbSymbolTableRecord
100
AcDbDimStyleTableRecord
  2
ME10_DIM_12
 70
     0
 41
5.25
 42
0.0
 44
1.5
 73
     0
 74
     0
 77
     1
 78
     8
140
5.25
147
1.5
172
     1
173
     1
174
     1
175
     1
176
     2
177
     2
271
     2
178
     7
271
     2
340
1F1
  0
DIMSTYLE
105
233
102
{ACAD_REACTORS
330
234
102
}
330
A
100
AcDbSymbolTableRecord
100
AcDbDimStyleTableRecord
  2
ME10_DIM_13
 70
     0
 41
5.25
 42
0.0
 44
1.5
 73
     0
 74
     0
 77
     1
 78
     8
140
5.25
147
1.5
172
     1
173
     1
174
     1
175
     1
176
     2
177
     2
271
     2
178
     7
271
     2
340
1F1
  0
DIMSTYLE
105
23E
102
{ACAD_REACTORS
330
23F
102
}
330
A
100
AcDbSymbolTableRecord
100
AcDbDimStyleTableRecord
  2
ME10_DIM_14
 70
     0
  3
{\Fgdt;n}<>
 41
5.25
 42
0.0
 44
1.5
 73
     0
 74
     0
 77
     1
 78
     8
140
5.25
147
1.5
172
     1
173
     1
174
     1
175
     1
176
     2
177
     2
271
     2
178
     7
271
     2
340
1F1
  0
DIMSTYLE
105
24A
102
{ACAD_REACTORS
330
24B
102
}
330
A
100
AcDbSymbolTableRecord
100
AcDbDimStyleTableRecord
  2
ME10_DIM_15
 70
     0
  3
{\Fgdt;n}<>
 41
5.25
 42
0.0
 44
1.5
 73
     0
 74
     0
 77
     1
 78
     8
140
5.25
147
1.5
172
     1
173
     1
174
     1
175
     1
176
     2
177
     2
271
     2
178
     7
271
     2
340
1F1
  0
DIMSTYLE
105
255
102
{ACAD_REACTORS
330
256
102
}
330
A
100
AcDbSymbolTableRecord
100
AcDbDimStyleTableRecord
  2
ME10_DIM_16
 70
     0
 41
5.25
 42
0.0
 44
1.5
 73
     0
 74
     0
 77
     1
 78
     8
140
5.25
147
1.5
172
     1
173
     1
174
     1
175
     1
176
     2
177
     2
271
     2
178
     7
271
     2
340
1F1
  0
ENDTAB
  0
TABLE
  2
BLOCK_RECORD
  5
1
330
0
100
AcDbSymbolTable
 70
    11
  0
BLOCK_RECORD
  5
1F
330
1
100
AcDbSymbolTableRecord
100
AcDbBlockTableRecord
  2
*Model_Space
340
22
  0
BLOCK_RECORD
  5
1B
330
1
100
AcDbSymbolTableRecord
100
AcDbBlockTableRecord
  2
*Paper_Space
340
1E
  0
BLOCK_RECORD
  5
23
330
1
100
AcDbSymbolTableRecord
100
AcDbBlockTableRecord
  2
*Paper_Space0
340
26
  0
BLOCK_RECORD
  5
4C
330
1
100
AcDbSymbolTableRecord
100
AcDbBlockTableRecord
  2
R37-182FX-S
340
0
102
{BLKREFS
331
50
102
}
  0
BLOCK_RECORD
  5
4F
330
1
100
AcDbSymbolTableRecord
100
AcDbBlockTableRecord
  2
分岐コック
340
0
102
{BLKREFS
331
56
102
}
  0
BLOCK_RECORD
  5
53
330
1
100
AcDbSymbolTableRecord
100
AcDbBlockTableRecord
  2
開示A4
340
0
102
{BLKREFS
331
57
102
}
  0
BLOCK_RECORD
  5
209
330
1
100
AcDbSymbolTableRecord
100
AcDbBlockTableRecord
  2
*D4
340
0
  0
BLOCK_RECORD
  5
214
330
1
100
AcDbSymbolTableRecord
100
AcDbBlockTableRecord
  2
*D5
340
0
  0
BLOCK_RECORD
  5
21F
330
1
100
AcDbSymbolTableRecord
100
AcDbBlockTableRecord
  2
*D6
340
0
  0
BLOCK_RECORD
  5
22A
330
1
100
AcDbSymbolTableRecord
100
AcDbBlockTableRecord
  2
*D7
340
0
  0
BLOCK_RECORD
  5
235
330
1
100
AcDbSymbolTableRecord
100
AcDbBlockTableRecord
  2
*D8
340
0
  0
BLOCK_RECORD
  5
240
330
1
100
AcDbSymbolTableRecord
100
AcDbBlockTableRecord
  2
*D9
340
0
  0
BLOCK_RECORD
  5
24C
330
1
100
AcDbSymbolTableRecord
100
AcDbBlockTableRecord
  2
*D10
340
0
  0
ENDTAB
  0
ENDSEC
  0
SECTION
  2
BLOCKS
  0
BLOCK
  5
20
330
1F
100
AcDbEntity
  8
0
100
AcDbBlockBegin
  2
*Model_Space
 70
     0
 10
0.0
 20
0.0
 30
0.0
  3
*Model_Space
  1

  0
ENDBLK
  5
21
330
1F
100
AcDbEntity
  8
0
100
AcDbBlockEnd
  0
BLOCK
  5
1C
330
1B
100
AcDbEntity
 67
     1
  8
0
100
AcDbBlockBegin
  2
*Paper_Space
 70
     0
 10
0.0
 20
0.0
 30
0.0
  3
*Paper_Space
  1

  0
ENDBLK
  5
1D
330
1B
100
AcDbEntity
 67
     1
  8
0
100
AcDbBlockEnd
  0
BLOCK
  5
24
330
23
100
AcDbEntity
  8
0
100
AcDbBlockBegin
  2
*Paper_Space0
 70
     0
 10
0.0
 20
0.0
 30
0.0
  3
*Paper_Space0
  1

  0
ENDBLK
  5
25
330
23
100
AcDbEntity
  8
0
100
AcDbBlockEnd
  0
BLOCK
  5
4D
330
4C
100
AcDbEntity
  8
0
100
AcDbBlockBegin
  2
R37-182FX-S
 70
     0
 10
50.4562772544408
 20
157.2109954588536
 30
0.0
  3
R37-182FX-S
  1

  0
LINE
  5
58
330
4C
100
AcDbEntity
  8
1
  6
PHANTOM
 62
     4
100
AcDbLine
 10
136.4773261910907
 20
221.3283740957483
 30
0.0
 11
136.4773261910907
 21
169.8283740957483
 31
0.0
  0
ENDBLK
  5
4E
330
4C
100
AcDbEntity
  8
0
100
AcDbBlockEnd
  0
BLOCK
  5
51
330
4F
100
AcDbEntity
  8
0
100
AcDbBlockBegin
  2
分岐コック
 70
     0
 10
208.5085730637618
 20
886.44455080691
 30
0.0
  3
分岐コック
  1

  0
INSERT
  5
50
330
4F
100
AcDbEntity
  8
0
100
AcDbBlockReference
  2
R37-182FX-S
 10
50.4562772544408
 20
157.2109954588536
 30
0.0
  0
POINT
  5
59
330
4F
100
AcDbEntity
  8
LEVEL001
 62
     7
100
AcDbPoint
 10
136.4773261904319
 20
288.3681274758644
 30
0.0
  0
POINT
  5
5A
330
4F
100
AcDbEntity
  8
LEVEL001
 62
     7
100
AcDbPoint
 10
106.477326189412
 20
304.6181274761842
 30
0.0
  0
POINT
  5
5B
330
4F
100
AcDbEntity
  8
LEVEL001
 62
     7
100
AcDbPoint
 10
110.2273261911008
 20
187.8783740956993
 30
0.0
  0
POINT
  5
5C
330
4F
100
AcDbEntity
  8
LEVEL001
 62
     7
100
AcDbPoint
 10
120.2273261910908
 20
193.8562376361093
 30
0.0
  0
POINT
  5
5D
330
4F
100
AcDbEntity
  8
LEVEL001
 62
     7
100
AcDbPoint
 10
136.4773261910908
 20
164.1283740957483
 30
0.0
  0
POINT
  5
5E
330
4F
100
AcDbEntity
  8
LEVEL001
 62
     7
100
AcDbPoint
 10
152.7273261910908
 20
193.8562376361093
 30
0.0
  0
POINT
  5
5F
330
4F
100
AcDbEntity
  8
LEVEL001
 62
     7
100
AcDbPoint
 10
120.2273261910908
 20
193.8562376361093
 30
0.0
  0
POINT
  5
60
330
4F
100
AcDbEntity
  8
LEVEL001
 62
     7
100
AcDbPoint
 10
152.7273261910908
 20
193.8562376361093
 30
0.0
  0
LINE
  5
61
330
4F
100
AcDbEntity
  8
LEVEL001
  6
Continuous
 62
     7
100
AcDbLine
 10
123.3789260613521
 20
309.5332446927142
 30
0.0
 11
124.154131405222
 21
308.7580393488444
 31
0.0
  0
LINE
  5
62
330
4F
100
AcDbEntity
  8
LEVEL001
  6
Continuous
 62
     7
100
AcDbLine
 10
123.1955113990921
 20
309.0095525737743
 30
0.0
 11
123.9859991803921
 21
308.2190647924845
 31
0.0
  0
LINE
  5
63
330
4F
100
AcDbEntity
  8
LEVEL001
  6
Continuous
 62
     7
100
AcDbLine
 10
123.0298848421921
 20
308.4680723494943
 30
0.0
 11
123.8381688203222
 21
307.6597883713644
 31
0.0
  0
LINE
  5
64
330
4F
100
AcDbEntity
  8
LEVEL001
  6
Continuous
 62
     7
100
AcDbLine
 10
122.883234710622
 20
307.9076156998845
 30
0.0
 11
123.7122860309821
 21
307.0785643795146
 31
0.0
  0
LINE
  5
65
330
4F
100
AcDbEntity
  8
LEVEL001
  6
Continuous
 62
     7
100
AcDbLine
 10
122.7569953320121
 20
307.3267482973045
 30
0.0
 11
123.6103869766821
 21
306.4733566526343
 31
0.0
  0
LINE
  5
66
330
4F
100
AcDbEntity
  8
LEVEL001
  6
Continuous
 62
     7
100
AcDbLine
 10
122.652914705212
 20
306.7237221429144
 30
0.0
 11
123.258509369542
 21
306.1181274785943
 31
0.0
  0
LINE
  5
67
330
4F
100
AcDbEntity
  8
LEVEL001
  6
Continuous
 62
     7
100
AcDbLine
 10
123.5791372582221
 20
310.0401402770344
 30
0.0
 11
124.341220642802
 21
309.2780568924443
 31
0.0
  0
LINE
  5
68
330
4F
100
AcDbEntity
  8
LEVEL001
  6
Continuous
 62
     7
100
AcDbLine
 10
130.005803432322
 20
317.0485029454744
 30
0.0
 11
130.218507144062
 21
316.8357992337243
 31
0.0
  0
LINE
  5
69
330
4F
100
AcDbEntity
  8
LEVEL001
  6
Continuous
 62
     7
100
AcDbLine
 10
129.548813897962
 20
316.7983856986443
 30
0.0
 11
129.959688098962
 21
316.3875114976444
 31
0.0
  0
LINE
  5
6A
330
4F
100
AcDbEntity
  8
LEVEL001
  6
Continuous
 62
     7
100
AcDbLine
 10
129.1058897876321
 20
316.5342030277943
 30
0.0
 11
129.7008690538621
 21
315.9392237615642
 31
0.0
  0
LINE
  5
6B
330
4F
100
AcDbEntity
  8
LEVEL001
  6
Continuous
 62
     7
100
AcDbLine
 10
128.6766429739721
 20
316.2563430602543
 30
0.0
 11
129.442050008752
 21
315.4909360254844
 31
0.0
  0
LINE
  5
6C
330
4F
100
AcDbEntity
  8
LEVEL001
  6
Continuous
 62
     7
100
AcDbLine
 10
128.2607558385621
 20
315.9651234144844
 30
0.0
 11
129.183230963652
 21
315.0426482893943
 31
0.0
  0
LINE
  5
6D
330
4F
100
AcDbEntity
  8
LEVEL001
  6
Continuous
 62
     7
100
AcDbLine
 10
127.8579741763222
 20
315.6607982955443
 30
0.0
 11
128.9244119185421
 21
314.5943605533144
 31
0.0
  0
LINE
  5
6E
330
4F
100
AcDbEntity
  8
LEVEL001
  6
Continuous
 62
     7
100
AcDbLine
 10
127.4681017736821
 20
315.3435639169945
 30
0.0
 11
128.6655928734422
 21
314.1460728172344
 31
0.0
  0
LINE
  5
6F
330
4F
100
AcDbEntity
  8
LEVEL001
  6
Continuous
 62
     7
100
AcDbLine
 10
127.0909963780421
 20
315.0135625314445
 30
0.0
 11
128.406773828332
 21
313.6977850811543
 31
0.0
  0
LINE
  5
70
330
4F
100
AcDbEntity
  8
LEVEL001
  6
Continuous
 62
     7
100
AcDbLine
 10
126.7265668590221
 20
314.6708852692743
 30
0.0
 11
128.1479547832321
 21
313.2494973450744
 31
0.0
  0
LINE
  5
71
330
4F
100
AcDbEntity
  8
LEVEL001
  6
Continuous
 62
     7
100
AcDbLine
 10
126.3747714264021
 20
314.3155739207143
 30
0.0
 11
127.084615784732
 21
313.6057295623842
 31
0.0
  0
LINE
  5
72
330
4F
100
AcDbEntity
  8
LEVEL001
  6
Continuous
 62
     7
100
AcDbLine
 10
126.0356168224321
 20
313.9476217434943
 30
0.0
 11
126.745667190432
 21
313.2375713754943
 31
0.0
  0
LINE
  5
73
330
4F
100
AcDbEntity
  8
LEVEL001
  6
Continuous
 62
     7
100
AcDbLine
 10
125.7091584517721
 20
313.5669733329643
 30
0.0
 11
126.420396969532
 21
312.8557348152044
 31
0.0
  0
LINE
  5
74
330
4F
100
AcDbEntity
  8
LEVEL001
  6
Continuous
 62
     7
100
AcDbLine
 10
125.3955014548822
 20
313.1735235486743
 30
0.0
 11
126.108932587422
 21
312.4600924161342
 31
0.0
  0
LINE
  5
75
330
4F
100
AcDbEntity
  8
LEVEL001
  6
Continuous
 62
     7
100
AcDbLine
 10
124.8072743067221
 20
312.3475371344541
 30
0.0
 11
125.5282615839822
 21
311.6265498571943
 31
0.0
  0
LINE
  5
76
330
4F
100
AcDbEntity
  8
LEVEL001
  6
Continuous
 62
     7
100
AcDbLine
 10
124.5331873026821
 20
311.9145173573144
 30
0.0
 11
125.259655686182
 21
311.1880489738143
 31
0.0
  0
LINE
  5
77
330
4F
100
AcDbEntity
  8
LEVEL001
  6
Continuous
 62
     7
100
AcDbLine
 10
124.2728782168322
 20
311.4677196619741
 30
0.0
 11
125.006072059522
 21
310.7345258192843
 31
0.0
  0
LINE
  5
78
330
4F
100
AcDbEntity
  8
LEVEL001
  6
Continuous
 62
     7
100
AcDbLine
 10
124.026756336292
 20
311.0067347613343
 30
0.0
 11
124.768029835212
 21
310.2654612624144
 31
0.0
  0
LINE
  5
79
330
4F
100
AcDbEntity
  8
LEVEL001
  6
Continuous
 62
     7
100
AcDbLine
 10
123.795313606892
 20
310.5310707095442
 30
0.0
 11
124.5461591348721
 21
309.7802251815645
 31
0.0
  0
LINE
  5
7A
330
4F
100
AcDbEntity
  8
LEVEL001
  6
Continuous
 62
     7
100
AcDbLine
 10
125.094802773792
 20
312.7671154485743
 30
0.0
 11
125.811466682612
 21
312.0504515397544
 31
0.0
  0
LINE
  5
7B
330
4F
100
AcDbEntity
  8
LEVEL001
  6
Continuous
 62
     7
100
AcDbLine
 10
130.477325379022
 20
317.2840865839244
 30
0.0
 11
123.858240885442
 21
310.6650020903443
 31
0.0
  0
LINE
  5
7C
330
4F
100
AcDbEntity
  8
LEVEL001
  6
Continuous
 62
     7
100
AcDbLine
 10
129.5114003628521
 20
315.6110543623045
 30
0.0
 11
127.5131877583322
 21
313.6128417577843
 31
0.0
  0
LINE
  5
7D
330
4F
100
AcDbEntity
  8
LEVEL001
  6
Continuous
 62
     7
100
AcDbLine
 10
125.530693104402
 20
311.6303471038543
 30
0.0
 11
123.346973871902
 21
309.4466278713543
 31
0.0
  0
LINE
  5
7E
330
4F
100
AcDbEntity
  8
LEVEL001
  6
Continuous
 62
     7
100
AcDbLine
 10
128.5454745365421
 20
313.9380217548044
 30
0.0
 11
127.8667411489221
 21
313.2592883671944
 31
0.0
  0
LINE
  5
7F
330
4F
100
AcDbEntity
  8
LEVEL001
  6
Continuous
 62
     7
100
AcDbLine
 10
124.6742979582621
 20
310.0668451765242
 30
0.0
 11
123.012016820272
 21
308.4045640385346
 31
0.0
  0
LINE
  5
80
330
4F
100
AcDbEntity
  8
LEVEL001
  6
Continuous
 62
     7
100
AcDbLine
 10
124.1964247144022
 20
308.8818651514844
 30
0.0
 11
122.7860388772021
 21
307.4714793142744
 31
0.0
  0
LINE
  5
81
330
4F
100
AcDbEntity
  8
LEVEL001
  6
Continuous
 62
     7
100
AcDbLine
 10
123.8902474494121
 20
307.8685811053043
 30
0.0
 11
122.637083137402
 21
306.6154167932943
 31
0.0
  0
LINE
  5
82
330
4F
100
AcDbEntity
  8
LEVEL001
  6
Continuous
 62
     7
100
AcDbLine
 10
123.690278911022
 20
306.9615057857243
 30
0.0
 11
122.846900603882
 21
306.1181274785943
 31
0.0
  0
LINE
  5
83
330
4F
100
AcDbEntity
  8
LEVEL001
  6
Continuous
 62
     7
100
AcDbLine
 10
123.5654941000321
 20
306.1296141935544
 30
0.0
 11
123.5540073850721
 21
306.1181274785943
 31
0.0
  0
LINE
  5
84
330
4F
100
AcDbEntity
  8
LEVEL001
  6
Continuous
 62
     7
100
AcDbLine
 10
128.8711311110521
 20
316.3849986728744
 30
0.0
 11
124.7573287964822
 21
312.2711963583045
 31
0.0
  0
LINE
  5
85
330
4F
100
AcDbEntity
  8
LEVEL001
  6
Continuous
 62
     7
100
AcDbLine
 10
124.154131405322
 20
300.4782156036645
 30
0.0
 11
123.3789260614822
 21
299.7030102597743
 31
0.0
  0
LINE
  5
86
330
4F
100
AcDbEntity
  8
LEVEL001
  6
Continuous
 62
     7
100
AcDbLine
 10
123.9859991804822
 20
301.0171901600144
 30
0.0
 11
123.1955113992121
 21
300.2267023787043
 31
0.0
  0
LINE
  5
87
330
4F
100
AcDbEntity
  8
LEVEL001
  6
Continuous
 62
     7
100
AcDbLine
 10
123.838168820402
 20
301.5764665811345
 30
0.0
 11
123.029884842292
 21
300.7681826029843
 31
0.0
  0
LINE
  5
88
330
4F
100
AcDbEntity
  8
LEVEL001
  6
Continuous
 62
     7
100
AcDbLine
 10
123.7122860310521
 20
302.1576905729743
 30
0.0
 11
122.883234710702
 21
301.3286392525943
 31
0.0
  0
LINE
  5
89
330
4F
100
AcDbEntity
  8
LEVEL001
  6
Continuous
 62
     7
100
AcDbLine
 10
123.6103869767321
 20
302.7628982998542
 30
0.0
 11
122.7569953320822
 21
301.9095066551644
 31
0.0
  0
LINE
  5
8A
330
4F
100
AcDbEntity
  8
LEVEL001
  6
Continuous
 62
     7
100
AcDbLine
 10
123.258509369582
 20
303.1181274738945
 30
0.0
 11
122.652914705262
 21
302.5125328095543
 31
0.0
  0
LINE
  5
8B
330
4F
100
AcDbEntity
  8
LEVEL001
  6
Continuous
 62
     7
100
AcDbLine
 10
124.3412206429221
 20
299.9581980600643
 30
0.0
 11
123.5791372583622
 21
299.1961146754643
 31
0.0
  0
LINE
  5
8C
330
4F
100
AcDbEntity
  8
LEVEL001
  6
Continuous
 62
     7
100
AcDbLine
 10
130.2185071443821
 20
292.4004557189343
 30
0.0
 11
130.0058034326421
 21
292.1877520071843
 31
0.0
  0
LINE
  5
8D
330
4F
100
AcDbEntity
  8
LEVEL001
  6
Continuous
 62
     7
100
AcDbLine
 10
129.9596880992622
 20
292.8487434550144
 30
0.0
 11
129.5488138982721
 21
292.4378692540045
 31
0.0
  0
LINE
  5
8E
330
4F
100
AcDbEntity
  8
LEVEL001
  6
Continuous
 62
     7
100
AcDbLine
 10
129.700869054152
 20
293.2970311910842
 30
0.0
 11
129.105889787932
 21
292.7020519248445
 31
0.0
  0
LINE
  5
8F
330
4F
100
AcDbEntity
  8
LEVEL001
  6
Continuous
 62
     7
100
AcDbLine
 10
129.4420500090321
 20
293.7453189271644
 30
0.0
 11
128.676642974272
 21
292.9799118923643
 31
0.0
  0
LINE
  5
90
330
4F
100
AcDbEntity
  8
LEVEL001
  6
Continuous
 62
     7
100
AcDbLine
 10
129.1832309639221
 20
294.1936066632343
 30
0.0
 11
128.260755838852
 21
293.2711315381341
 31
0.0
  0
LINE
  5
91
330
4F
100
AcDbEntity
  8
LEVEL001
  6
Continuous
 62
     7
100
AcDbLine
 10
128.924411918802
 20
294.6418943993144
 30
0.0
 11
127.8579741766021
 21
293.5754566570644
 31
0.0
  0
LINE
  5
92
330
4F
100
AcDbEntity
  8
LEVEL001
  6
Continuous
 62
     7
100
AcDbLine
 10
128.665592873682
 20
295.0901821353846
 30
0.0
 11
127.468101773952
 21
293.8926910355945
 31
0.0
  0
LINE
  5
93
330
4F
100
AcDbEntity
  8
LEVEL001
  6
Continuous
 62
     7
100
AcDbLine
 10
128.4067738285721
 20
295.5384698714643
 30
0.0
 11
127.090996378312
 21
294.2226924211444
 31
0.0
  0
LINE
  5
94
330
4F
100
AcDbEntity
  8
LEVEL001
  6
Continuous
 62
     7
100
AcDbLine
 10
128.147954783452
 20
295.9867576075444
 30
0.0
 11
126.726566859282
 21
294.5653696832944
 31
0.0
  0
LINE
  5
95
330
4F
100
AcDbEntity
  8
LEVEL001
  6
Continuous
 62
     7
100
AcDbLine
 10
127.0846157849621
 20
295.6305253901944
 30
0.0
 11
126.3747714266522
 21
294.9206810318444
 31
0.0
  0
LINE
  5
96
330
4F
100
AcDbEntity
  8
LEVEL001
  6
Continuous
 62
     7
100
AcDbLine
 10
126.7456671906521
 20
295.9986835770744
 30
0.0
 11
126.035616822672
 21
295.2886332090545
 31
0.0
  0
LINE
  5
97
330
4F
100
AcDbEntity
  8
LEVEL001
  6
Continuous
 62
     7
100
AcDbLine
 10
126.4203969697521
 20
296.3805201373642
 30
0.0
 11
125.7091584520122
 21
295.6692816195844
 31
0.0
  0
LINE
  5
98
330
4F
100
AcDbEntity
  8
LEVEL001
  6
Continuous
 62
     7
100
AcDbLine
 10
126.1089325876221
 20
296.7761625364244
 30
0.0
 11
125.395501455102
 21
296.0627314038644
 31
0.0
  0
LINE
  5
99
330
4F
100
AcDbEntity
  8
LEVEL001
  6
Continuous
 62
     7
100
AcDbLine
 10
125.528261584162
 20
297.6097050953445
 30
0.0
 11
124.807274306922
 21
296.8887178180643
 31
0.0
  0
LINE
  5
9A
330
4F
100
AcDbEntity
  8
LEVEL001
  6
Continuous
 62
     7
100
AcDbLine
 10
125.2596556863521
 20
298.0482059787144
 30
0.0
 11
124.533187302872
 21
297.3217375952045
 31
0.0
  0
LINE
  5
9B
330
4F
100
AcDbEntity
  8
LEVEL001
  6
Continuous
 62
     7
100
AcDbLine
 10
125.0060720596821
 20
298.5017291332445
 30
0.0
 11
124.272878217012
 21
297.7685352905343
 31
0.0
  0
LINE
  5
9C
330
4F
100
AcDbEntity
  8
LEVEL001
  6
Continuous
 62
     7
100
AcDbLine
 10
124.7680298353621
 20
298.9707936901144
 30
0.0
 11
124.0267563364521
 21
298.2295201911743
 31
0.0
  0
LINE
  5
9D
330
4F
100
AcDbEntity
  8
LEVEL001
  6
Continuous
 62
     7
100
AcDbLine
 10
124.546159135002
 20
299.4560297709543
 30
0.0
 11
123.7953136070521
 21
298.7051842429543
 31
0.0
  0
LINE
  5
9E
330
4F
100
AcDbEntity
  8
LEVEL001
  6
Continuous
 62
     7
100
AcDbLine
 10
125.8114666828021
 20
297.1858034127943
 30
0.0
 11
125.0948027740021
 21
296.4691395039545
 31
0.0
  0
LINE
  5
9F
330
4F
100
AcDbEntity
  8
LEVEL001
  6
Continuous
 62
     7
100
AcDbLine
 10
130.4773259021122
 20
291.9521681197446
 30
0.0
 11
130.477326034202
 21
291.9521682518346
 31
0.0
  0
LINE
  5
A0
330
4F
100
AcDbEntity
  8
LEVEL001
  6
Continuous
 62
     7
100
AcDbLine
 10
123.8582401138222
 20
298.5712544824643
 30
0.0
 11
130.477325609942
 21
291.9521689866845
 31
0.0
  0
LINE
  5
A1
330
4F
100
AcDbEntity
  8
LEVEL001
  6
Continuous
 62
     7
100
AcDbLine
 10
123.3469738720321
 20
299.7896270811344
 30
0.0
 11
125.530693104582
 21
297.6059078486944
 31
0.0
  0
LINE
  5
A2
330
4F
100
AcDbEntity
  8
LEVEL001
  6
Continuous
 62
     7
100
AcDbLine
 10
127.513187758562
 20
295.6234131948144
 30
0.0
 11
129.511400363142
 21
293.6252005903446
 31
0.0
  0
LINE
  5
A3
330
4F
100
AcDbEntity
  8
LEVEL001
  6
Continuous
 62
     7
100
AcDbLine
 10
123.0120168203621
 20
300.8316909139443
 30
0.0
 11
124.6742979584021
 21
299.1694097759943
 31
0.0
  0
LINE
  5
A4
330
4F
100
AcDbEntity
  8
LEVEL001
  6
Continuous
 62
     7
100
AcDbLine
 10
127.866741149152
 20
295.9769665854144
 30
0.0
 11
128.545474536782
 21
295.2982331978143
 31
0.0
  0
LINE
  5
A5
330
4F
100
AcDbEntity
  8
LEVEL001
  6
Continuous
 62
     7
100
AcDbLine
 10
122.786038877272
 20
301.7647756381945
 30
0.0
 11
124.196424714512
 21
300.3543898010245
 31
0.0
  0
LINE
  5
A6
330
4F
100
AcDbEntity
  8
LEVEL001
  6
Continuous
 62
     7
100
AcDbLine
 10
122.637083137452
 20
302.6208381591745
 30
0.0
 11
123.8902474494921
 21
301.3676738471943
 31
0.0
  0
LINE
  5
A7
330
4F
100
AcDbEntity
  8
LEVEL001
  6
Continuous
 62
     7
100
AcDbLine
 10
122.846900603922
 20
303.1181274738842
 30
0.0
 11
123.690278911082
 21
302.2747491667743
 31
0.0
  0
LINE
  5
A8
330
4F
100
AcDbEntity
  8
LEVEL001
  6
Continuous
 62
     7
100
AcDbLine
 10
123.5540073851121
 20
303.1181274739045
 30
0.0
 11
123.5654941000721
 21
303.1066407589444
 31
0.0
  0
LINE
  5
A9
330
4F
100
AcDbEntity
  8
LEVEL001
  6
Continuous
 62
     7
100
AcDbLine
 10
124.757328796682
 20
296.9650585942143
 30
0.0
 11
128.871131111352
 21
292.8512562797544
 31
0.0
  0
LINE
  5
AA
330
4F
100
AcDbEntity
  8
LEVEL001
  6
Continuous
 62
     7
100
AcDbLine
 10
123.116936975242
 20
295.3681274753644
 30
0.0
 11
117.2273261916318
 21
295.3681274751978
 31
0.0
  0
LINE
  5
AB
330
4F
100
AcDbEntity
  8
LEVEL001
  6
Continuous
 62
     7
100
AcDbLine
 10
123.116936974522
 20
313.8681274754345
 30
0.0
 11
117.2273261911018
 21
313.8681274752527
 31
0.0
  0
LINE
  5
AC
330
4F
100
AcDbEntity
  8
LEVEL001
  6
Continuous
 62
     7
100
AcDbLine
 10
117.2273261913922
 20
309.4781630470802
 30
0.0
 11
117.2273261911018
 21
313.8681274752527
 31
0.0
  0
LINE
  5
AD
330
4F
100
AcDbEntity
  8
LEVEL001
  6
Continuous
 62
     7
100
AcDbLine
 10
115.0622626814219
 20
294.1181274755344
 30
0.0
 11
111.4773261910119
 21
294.1181274755444
 31
0.0
  0
LINE
  5
AE
330
4F
100
AcDbEntity
  8
LEVEL001
  6
Continuous
 62
     7
100
AcDbLine
 10
111.4773261910119
 20
294.1181274755444
 30
0.0
 11
110.227326191002
 21
295.3681274755545
 31
0.0
  0
LINE
  5
AF
330
4F
100
AcDbEntity
  8
LEVEL001
  6
Continuous
 62
     2
100
AcDbLine
 10
117.2273261916318
 20
295.3681274752544
 30
0.0
 11
110.227326191002
 21
295.3681274755545
 31
0.0
  0
LINE
  5
B0
330
4F
100
AcDbEntity
  8
LEVEL001
  6
Continuous
 62
     7
100
AcDbLine
 10
115.0622626813218
 20
315.1181274757743
 30
0.0
 11
111.4773261908019
 21
315.1181274757743
 31
0.0
  0
LINE
  5
B1
330
4F
100
AcDbEntity
  8
LEVEL001
  6
Continuous
 62
     7
100
AcDbLine
 10
111.4773261908019
 20
315.1181274757743
 30
0.0
 11
110.2273261908019
 21
313.8681274757743
 31
0.0
  0
LINE
  5
B2
330
4F
100
AcDbEntity
  8
LEVEL001
  6
Continuous
 62
     2
100
AcDbLine
 10
117.2273261911018
 20
313.8681274753145
 30
0.0
 11
110.2273261908019
 21
313.8681274757743
 31
0.0
  0
LINE
  5
B3
330
4F
100
AcDbEntity
  8
LEVEL001
  6
Continuous
 62
     2
100
AcDbLine
 10
153.7273261910818
 20
295.3681274763644
 30
0.0
 11
155.2273261910768
 21
295.3681274764458
 31
0.0
  0
LINE
  5
B4
330
4F
100
AcDbEntity
  8
LEVEL001
  6
Continuous
 62
     7
100
AcDbLine
 10
155.2273261910768
 20
294.1181274764554
 30
0.0
 11
154.9773261900618
 21
294.1181274764442
 31
0.0
  0
LINE
  5
B5
330
4F
100
AcDbEntity
  8
LEVEL001
  6
Continuous
 62
     7
100
AcDbLine
 10
154.9773261900618
 20
294.1181274764442
 30
0.0
 11
153.7273261910818
 21
295.3681274763644
 31
0.0
  0
LINE
  5
B6
330
4F
100
AcDbEntity
  8
LEVEL001
  6
Continuous
 62
     7
100
AcDbLine
 10
117.2273261911018
 20
313.8681274753145
 30
0.0
 11
115.9773261918019
 21
315.1181274748644
 31
0.0
  0
LINE
  5
B7
330
4F
100
AcDbEntity
  8
LEVEL001
  6
Continuous
 62
     7
100
AcDbLine
 10
115.9773261918019
 20
315.1181274748644
 30
0.0
 11
115.0622626813218
 21
315.1181274757743
 31
0.0
  0
LINE
  5
B8
330
4F
100
AcDbEntity
  8
LEVEL001
  6
Continuous
 62
     7
100
AcDbLine
 10
128.0180313620422
 20
296.1894084982246
 30
0.0
 11
127.2696628218421
 21
295.4410399580244
 31
0.0
  0
LINE
  5
B9
330
4F
100
AcDbEntity
  8
LEVEL001
  6
Continuous
 62
     7
100
AcDbLine
 10
149.8377154060819
 20
295.3681274760244
 30
0.0
 11
152.7273261900889
 21
295.3681274760845
 31
0.0
  0
LINE
  5
BA
330
4F
100
AcDbEntity
  8
LEVEL001
  6
Continuous
 62
     7
100
AcDbLine
 10
152.7273261900889
 20
295.3681274760845
 30
0.0
 11
152.7273261900918
 21
304.6181274755243
 31
0.0
  0
LINE
  5
BB
330
4F
100
AcDbEntity
  8
LEVEL001
  6
PHANTOM
 62
     4
100
AcDbLine
 10
166.1285117731179
 20
304.6181274755243
 30
0.0
 11
110.050545967202
 21
304.6181274755243
 31
0.0
  0
LINE
  5
BC
330
4F
100
AcDbEntity
  8
LEVEL001
  6
Continuous
 62
     7
100
AcDbLine
 10
153.7273261910818
 20
295.3681274763644
 30
0.0
 11
153.727326190132
 21
304.6181274755243
 31
0.0
  0
LINE
  5
BD
330
4F
100
AcDbEntity
  8
LEVEL001
  6
Continuous
 62
     2
100
AcDbLine
 10
153.7273261910818
 20
313.8681274746841
 30
0.0
 11
155.2273261910768
 21
313.8681274746049
 31
0.0
  0
LINE
  5
BE
330
4F
100
AcDbEntity
  8
LEVEL001
  6
Continuous
 62
     7
100
AcDbLine
 10
155.2273261910768
 20
315.1181274746036
 30
0.0
 11
154.9773261900618
 21
315.1181274746144
 31
0.0
  0
LINE
  5
BF
330
4F
100
AcDbEntity
  8
LEVEL001
  6
Continuous
 62
     7
100
AcDbLine
 10
154.9773261900618
 20
315.1181274746144
 30
0.0
 11
153.7273261910818
 21
313.8681274746841
 31
0.0
  0
LINE
  5
C0
330
4F
100
AcDbEntity
  8
LEVEL001
  6
Continuous
 62
     7
100
AcDbLine
 10
149.8377154060819
 20
313.8681274750344
 30
0.0
 11
152.7273261900889
 21
313.8681274749744
 31
0.0
  0
LINE
  5
C1
330
4F
100
AcDbEntity
  8
LEVEL001
  6
Continuous
 62
     7
100
AcDbLine
 10
152.7273261900889
 20
313.8681274749744
 30
0.0
 11
152.7273261900918
 21
304.6181274755243
 31
0.0
  0
LINE
  5
C2
330
4F
100
AcDbEntity
  8
LEVEL001
  6
Continuous
 62
     7
100
AcDbLine
 10
153.7273261910818
 20
313.8681274746841
 30
0.0
 11
153.727326190132
 21
304.6181274755243
 31
0.0
  0
LINE
  5
C3
330
4F
100
AcDbEntity
  8
LEVEL001
  6
Continuous
 62
     7
100
AcDbLine
 10
128.0486072122221
 20
296.1588326485044
 30
0.0
 11
127.300238672052
 21
295.4104641082843
 31
0.0
  0
LINE
  5
C4
330
4F
100
AcDbEntity
  8
LEVEL001
  6
Continuous
 62
     7
100
AcDbLine
 10
130.4773261895
 20
291.9521679828645
 30
0.0
 11
128.0486072122221
 21
296.1588326485044
 31
0.0
  0
LINE
  5
C5
330
4F
100
AcDbEntity
  8
LEVEL001
  6
Continuous
 62
     7
100
AcDbLine
 10
130.477326189176
 20
317.2840869698105
 30
0.0
 11
128.048607212012
 21
313.0774223041044
 31
0.0
  0
LINE
  5
C6
330
4F
100
AcDbEntity
  8
LEVEL001
  6
Continuous
 62
     7
100
AcDbLine
 10
123.5641546192421
 20
306.1181274763043
 30
0.0
 11
122.557915282312
 21
306.1181274762843
 31
0.0
  0
LINE
  5
C7
330
4F
100
AcDbEntity
  8
LEVEL001
  6
Continuous
 62
     7
100
AcDbLine
 10
123.5641546192751
 20
303.1181274761884
 30
0.0
 11
122.557915282352
 21
303.1181274761743
 31
0.0
  0
LINE
  5
C8
330
4F
100
AcDbEntity
  8
LEVEL001
  6
Continuous
 62
     7
100
AcDbLine
 10
122.1857202614622
 20
298.6181274762744
 30
0.0
 11
119.2273261908972
 21
299.2982799531275
 31
0.0
  0
LINE
  5
C9
330
4F
100
AcDbEntity
  8
LEVEL001
  6
Continuous
 62
     7
100
AcDbLine
 10
122.1857202614622
 20
310.6181274762744
 30
0.0
 11
119.2273261907419
 21
309.9379749993832
 31
0.0
  0
LINE
  5
CA
330
4F
100
AcDbEntity
  8
LEVEL001
  6
Continuous
 62
     7
100
AcDbLine
 10
111.4773261910119
 20
294.1181274755444
 30
0.0
 11
111.4773261909389
 21
301.0800512688659
 31
0.0
  0
LINE
  5
CB
330
4F
100
AcDbEntity
  8
LEVEL001
  6
Continuous
 62
     7
100
AcDbLine
 10
110.227326191002
 20
295.3681274755545
 30
0.0
 11
110.227326190937
 21
301.3674337391483
 31
0.0
  0
LINE
  5
CC
330
4F
100
AcDbEntity
  8
LEVEL001
  6
Continuous
 62
     7
100
AcDbLine
 10
117.2273261916318
 20
295.3681274752544
 30
0.0
 11
117.2273261915037
 21
299.758091905439
 31
0.0
  0
LINE
  5
CD
330
4F
100
AcDbEntity
  8
LEVEL001
  6
Continuous
 62
     7
100
AcDbLine
 10
119.2273261908972
 20
299.2982799531275
 30
0.0
 11
117.2273261915037
 21
299.758091905439
 31
0.0
  0
LINE
  5
CE
330
4F
100
AcDbEntity
  8
LEVEL001
  6
Continuous
 62
     7
100
AcDbLine
 10
113.4773261903238
 20
300.6202393165563
 30
0.0
 11
111.4773261909389
 21
301.0800512688659
 31
0.0
  0
LINE
  5
CF
330
4F
100
AcDbEntity
  8
LEVEL001
  6
Continuous
 62
     7
100
AcDbLine
 10
111.4773261908682
 20
308.1562036836584
 30
0.0
 11
111.4773261908019
 21
315.1181274757743
 31
0.0
  0
LINE
  5
D0
330
4F
100
AcDbEntity
  8
LEVEL001
  6
Continuous
 62
     7
100
AcDbLine
 10
113.4773261902438
 20
308.6160156359674
 30
0.0
 11
111.4773261908682
 21
308.1562036836584
 31
0.0
  0
LINE
  5
D1
330
4F
100
AcDbEntity
  8
LEVEL001
  6
Continuous
 62
     7
100
AcDbLine
 10
119.2273261907419
 20
309.9379749993832
 30
0.0
 11
117.2273261913922
 21
309.4781630470802
 31
0.0
  0
LINE
  5
D2
330
4F
100
AcDbEntity
  8
LEVEL001
  6
Continuous
 62
     7
100
AcDbLine
 10
110.2273261908667
 20
307.8688212133752
 30
0.0
 11
110.2273261908019
 21
313.8681274757743
 31
0.0
  0
LINE
  5
D3
330
4F
100
AcDbEntity
  8
LEVEL001
  6
Continuous
 62
     7
100
AcDbLine
 10
117.2273261911018
 20
313.8681274752527
 30
0.0
 11
117.2273261911018
 21
313.8681274753145
 31
0.0
  0
LINE
  5
D4
330
4F
100
AcDbEntity
  8
LEVEL001
  6
Continuous
 62
     7
100
AcDbLine
 10
117.2273261913922
 20
309.4781630470802
 30
0.0
 11
115.9773261918019
 21
309.1907805768914
 31
0.0
  0
LINE
  5
D5
330
4F
100
AcDbEntity
  8
LEVEL001
  6
Continuous
 62
     7
100
AcDbLine
 10
111.4773261908682
 20
308.1562036836584
 30
0.0
 11
110.2273261908667
 21
307.8688212133752
 31
0.0
  0
LINE
  5
D6
330
4F
100
AcDbEntity
  8
LEVEL001
  6
Continuous
 62
     7
100
AcDbLine
 10
110.227326190937
 20
301.3674337391483
 30
0.0
 11
108.8051442014821
 21
301.6944018778045
 31
0.0
  0
LINE
  5
D7
330
4F
100
AcDbEntity
  8
LEVEL001
  6
Continuous
 62
     7
100
AcDbLine
 10
111.4773261909389
 20
301.0800512688659
 30
0.0
 11
110.227326190937
 21
301.3674337391483
 31
0.0
  0
LINE
  5
D8
330
4F
100
AcDbEntity
  8
LEVEL001
  6
Continuous
 62
     7
100
AcDbLine
 10
117.2273261915037
 20
299.758091905439
 30
0.0
 11
115.9773261918019
 21
300.0454743756524
 31
0.0
  0
LINE
  5
D9
330
4F
100
AcDbEntity
  8
LEVEL001
  6
Continuous
 62
     7
100
AcDbLine
 10
110.2273261908667
 20
307.8688212133752
 30
0.0
 11
108.8051442014821
 21
307.5418530747343
 31
0.0
  0
LINE
  5
DA
330
4F
100
AcDbEntity
  8
LEVEL001
  6
Continuous
 62
     7
100
AcDbLine
 10
111.4773261911309
 20
168.1283740957111
 30
0.0
 11
110.2273261911409
 21
169.3783740957111
 31
0.0
  0
LINE
  5
DB
330
4F
100
AcDbEntity
  8
1
  6
Continuous
 62
     7
100
AcDbLine
 10
111.4773261911309
 20
189.1283740957294
 30
0.0
 11
111.4773261911309
 21
168.1283740957111
 31
0.0
  0
LINE
  5
DC
330
4F
100
AcDbEntity
  8
LEVEL001
  6
Continuous
 62
     7
100
AcDbLine
 10
115.9773261913208
 20
189.1283740957294
 30
0.0
 11
115.9773261911209
 21
189.1283740957294
 31
0.0
  0
LINE
  5
DD
330
4F
100
AcDbEntity
  8
1
  6
Continuous
 62
     7
100
AcDbLine
 10
115.9773261913208
 20
168.1283740957161
 30
0.0
 11
115.9773261913208
 21
189.1283740957294
 31
0.0
  0
LINE
  5
DE
330
4F
100
AcDbEntity
  8
LEVEL001
  6
Continuous
 62
     7
100
AcDbLine
 10
111.4773261912608
 20
168.1283740957111
 30
0.0
 11
115.9773261913208
 21
168.1283740957161
 31
0.0
  0
LINE
  5
DF
330
4F
100
AcDbEntity
  8
LEVEL001
  6
Continuous
 62
     7
100
AcDbLine
 10
120.2273261910908
 20
187.6283740957194
 30
0.0
 11
120.2273261910908
 21
193.8562376361093
 31
0.0
  0
LINE
  5
E0
330
4F
100
AcDbEntity
  8
1
  6
Continuous
 62
     7
100
AcDbLine
 10
154.9773261910808
 20
189.1283740957094
 30
0.0
 11
154.9773261910808
 21
168.1283740957233
 31
0.0
  0
LINE
  5
E1
330
4F
100
AcDbEntity
  8
LEVEL001
  6
Continuous
 62
     2
100
AcDbLine
 10
155.2273261910769
 20
187.8783740957094
 30
0.0
 11
153.7273261910808
 21
187.8783740957094
 31
0.0
  0
LINE
  5
E2
330
4F
100
AcDbEntity
  8
LEVEL001
  6
Continuous
 62
     2
100
AcDbLine
 10
155.2273261910769
 20
169.3783740957233
 30
0.0
 11
153.7273261910808
 21
169.3783740957233
 31
0.0
  0
LINE
  5
E3
330
4F
100
AcDbEntity
  8
LEVEL001
  6
Continuous
 62
     2
100
AcDbLine
 10
110.227326191329
 20
169.3783740957111
 30
0.0
 11
117.2273261911008
 21
169.3783740957211
 31
0.0
  0
LINE
  5
E4
330
4F
100
AcDbEntity
  8
LEVEL001
  6
Continuous
 62
     7
100
AcDbLine
 10
152.7273261910908
 20
167.6239200114713
 30
0.0
 11
152.7273261910908
 21
188.1283740957194
 31
0.0
  0
LINE
  5
E5
330
4F
100
AcDbEntity
  8
LEVEL001
  6
Continuous
 62
     7
100
AcDbLine
 10
120.2273261910908
 20
169.6283740957161
 30
0.0
 11
117.2273261911008
 21
169.6283740957152
 31
0.0
  0
LINE
  5
E6
330
4F
100
AcDbEntity
  8
LEVEL001
  6
Continuous
 62
     7
100
AcDbLine
 10
120.2273261910908
 20
187.6283740957194
 30
0.0
 11
117.2273261911008
 21
187.6283740957194
 31
0.0
  0
LINE
  5
E7
330
4F
100
AcDbEntity
  8
LEVEL001
  6
Continuous
 62
     7
100
AcDbLine
 10
121.4905905481209
 20
196.1283740957493
 30
0.0
 11
151.4640618340609
 21
196.1283740957493
 31
0.0
  0
LINE
  5
E8
330
4F
100
AcDbEntity
  8
LEVEL001
  6
Continuous
 62
     7
100
AcDbLine
 10
110.227326191329
 20
169.3783740957111
 30
0.0
 11
110.2273261911008
 21
187.8783740956993
 31
0.0
  0
LINE
  5
E9
330
4F
100
AcDbEntity
  8
LEVEL001
  6
Continuous
 62
     7
100
AcDbLine
 10
115.9773261913208
 20
168.1283740957161
 30
0.0
 11
117.2273261911008
 21
169.3783740957211
 31
0.0
  0
LINE
  5
EA
330
4F
100
AcDbEntity
  8
LEVEL001
  6
Continuous
 62
     2
100
AcDbLine
 10
110.2273261911409
 20
169.3783740957111
 30
0.0
 11
110.227326191329
 21
169.3783740957111
 31
0.0
  0
LINE
  5
EB
330
4F
100
AcDbEntity
  8
LEVEL001
  6
Continuous
 62
     7
100
AcDbLine
 10
111.4773261912608
 20
168.1283740957111
 30
0.0
 11
111.4773261911309
 21
168.1283740957111
 31
0.0
  0
LINE
  5
EC
330
4F
100
AcDbEntity
  8
LEVEL001
  6
Continuous
 62
     7
100
AcDbLine
 10
117.2273261911008
 20
169.3783740957211
 30
0.0
 11
117.2273261911008
 21
169.6283740957152
 31
0.0
  0
LINE
  5
ED
330
4F
100
AcDbEntity
  8
LEVEL001
  6
Continuous
 62
     7
100
AcDbLine
 10
117.2273261911008
 20
187.8783740957493
 30
0.0
 11
115.9773261913208
 21
189.1283740957294
 31
0.0
  0
LINE
  5
EE
330
4F
100
AcDbEntity
  8
LEVEL001
  6
Continuous
 62
     7
100
AcDbLine
 10
115.9773261911209
 20
189.1283740957294
 30
0.0
 11
111.4773261911309
 21
189.1283740957294
 31
0.0
  0
LINE
  5
EF
330
4F
100
AcDbEntity
  8
LEVEL001
  6
Continuous
 62
     2
100
AcDbLine
 10
110.2273261911008
 20
187.8783740956993
 30
0.0
 11
117.2273261911008
 21
187.8783740957493
 31
0.0
  0
LINE
  5
F0
330
4F
100
AcDbEntity
  8
LEVEL001
  6
Continuous
 62
     7
100
AcDbLine
 10
111.4773261911309
 20
189.1283740957294
 30
0.0
 11
110.2273261911008
 21
187.8783740956993
 31
0.0
  0
LINE
  5
F1
330
4F
100
AcDbEntity
  8
LEVEL001
  6
Continuous
 62
     7
100
AcDbLine
 10
117.2273261911008
 20
169.6283740957152
 30
0.0
 11
117.2273261911008
 21
187.8783740957493
 31
0.0
  0
LINE
  5
F2
330
4F
100
AcDbEntity
  8
LEVEL001
  6
Continuous
 62
     7
100
AcDbLine
 10
154.9773261910808
 20
168.1283740957233
 30
0.0
 11
155.2273261910769
 21
168.1283740957231
 31
0.0
  0
LINE
  5
F3
330
4F
100
AcDbEntity
  8
LEVEL001
  6
Continuous
 62
     7
100
AcDbLine
 10
154.9773261910808
 20
189.1283740957094
 30
0.0
 11
155.2273261910769
 21
189.1283740957094
 31
0.0
  0
LINE
  5
F4
330
4F
100
AcDbEntity
  8
LEVEL001
  6
Continuous
 62
     7
100
AcDbLine
 10
143.9773261910908
 20
164.1283740957302
 30
0.0
 11
151.6155547587408
 21
166.1750312720372
 31
0.0
  0
LINE
  5
F5
330
4F
100
AcDbEntity
  8
LEVEL001
  6
Continuous
 62
     7
100
AcDbLine
 10
143.9773261910908
 20
164.1283740957302
 30
0.0
 11
136.4773261910908
 21
164.1283740957483
 31
0.0
  0
LINE
  5
F6
330
4F
100
AcDbEntity
  8
LEVEL001
  6
Continuous
 62
     7
100
AcDbLine
 10
128.9773261910908
 20
164.1283740957302
 30
0.0
 11
121.3390976234369
 21
166.1750312720378
 31
0.0
  0
LINE
  5
F7
330
4F
100
AcDbEntity
  8
LEVEL001
  6
Continuous
 62
     7
100
AcDbLine
 10
128.9773261910908
 20
164.1283740957302
 30
0.0
 11
136.4773261910908
 21
164.1283740957483
 31
0.0
  0
LINE
  5
F8
330
4F
100
AcDbEntity
  8
LEVEL001
  6
Continuous
 62
     7
100
AcDbLine
 10
152.7273261910808
 20
187.6283740957194
 30
0.0
 11
152.7273261910908
 21
188.1283740957194
 31
0.0
  0
LINE
  5
F9
330
4F
100
AcDbEntity
  8
LEVEL001
  6
Continuous
 62
     7
100
AcDbLine
 10
120.2273261910908
 20
167.6239200114713
 30
0.0
 11
120.2273261910908
 21
169.6283740957161
 31
0.0
  0
LINE
  5
FA
330
4F
100
AcDbEntity
  8
LEVEL001
  6
Continuous
 62
     7
100
AcDbLine
 10
153.7273261910808
 20
187.6283740957194
 30
0.0
 11
153.7273261910808
 21
187.8783740957094
 31
0.0
  0
LINE
  5
FB
330
4F
100
AcDbEntity
  8
LEVEL001
  6
Continuous
 62
     7
100
AcDbLine
 10
153.7273261910808
 20
169.3783740957233
 30
0.0
 11
153.7273261910808
 21
187.7283740957192
 31
0.0
  0
LINE
  5
FC
330
4F
100
AcDbEntity
  8
LEVEL001
  6
Continuous
 62
     7
100
AcDbLine
 10
153.7273261910808
 20
169.3783740957233
 30
0.0
 11
154.9773261910808
 21
168.1283740957233
 31
0.0
  0
LINE
  5
FD
330
4F
100
AcDbEntity
  8
LEVEL001
  6
Continuous
 62
     7
100
AcDbLine
 10
120.9907618856329
 20
196.6414625699032
 30
0.0
 11
121.6596554522648
 21
222.1854773137574
 31
0.0
  0
LINE
  5
FE
330
4F
100
AcDbEntity
  8
LEVEL001
  6
Continuous
 62
     7
100
AcDbLine
 10
120.1079130064409
 20
202.1283740957493
 30
0.0
 11
107.4773261910908
 21
202.1283740957493
 31
0.0
  0
LINE
  5
FF
330
4F
100
AcDbEntity
  8
LEVEL001
  6
Continuous
 62
     7
100
AcDbLine
 10
106.4773261910908
 20
203.1283740957493
 30
0.0
 11
106.4773261910908
 21
218.3865604254892
 31
0.0
  0
LINE
  5
100
330
4F
100
AcDbEntity
  8
LEVEL001
  6
Continuous
 62
     7
100
AcDbLine
 10
120.7612585109609
 20
220.0841141645194
 30
0.0
 11
107.4249902348409
 21
219.3851899602493
 31
0.0
  0
LINE
  5
101
330
4F
100
AcDbEntity
  8
LEVEL001
  6
Continuous
 62
     7
100
AcDbLine
 10
151.9638904965489
 20
196.6414625699032
 30
0.0
 11
151.2949969299109
 21
222.1854773137491
 31
0.0
  0
LINE
  5
102
330
4F
100
AcDbEntity
  8
LEVEL001
  6
Continuous
 62
     7
100
AcDbLine
 10
153.7273261910808
 20
187.8783740957094
 30
0.0
 11
154.9773261910808
 21
189.1283740957094
 31
0.0
  0
LINE
  5
103
330
4F
100
AcDbEntity
  8
LEVEL001
  6
Continuous
 62
     7
100
AcDbLine
 10
152.7273261910908
 20
188.1283740957194
 30
0.0
 11
152.7273261910908
 21
193.8562376361093
 31
0.0
  0
LINE
  5
104
330
4F
100
AcDbEntity
  8
LEVEL001
  6
Continuous
 62
     7
100
AcDbLine
 10
120.9685071459909
 20
194.8221634623994
 30
0.0
 11
123.2361452361909
 21
195.4297752573893
 31
0.0
  0
LINE
  5
105
330
4F
100
AcDbEntity
  8
LEVEL001
  6
Continuous
 62
     7
100
AcDbLine
 10
151.9861452361909
 20
194.8221634623994
 30
0.0
 11
149.7185071459878
 21
195.4297752573903
 31
0.0
  0
LINE
  5
106
330
4F
100
AcDbEntity
  8
1
  6
PHANTOM
 62
     4
100
AcDbLine
 10
136.4773261910908
 20
227.1283740957483
 30
0.0
 11
136.4773261910908
 21
161.1283740957483
 31
0.0
  0
LINE
  5
107
330
4F
100
AcDbEntity
  8
1
  6
PHANTOM
 62
     4
100
AcDbLine
 10
163.7273261910758
 20
178.6283740957152
 30
0.0
 11
107.2273261911209
 21
178.6283740957152
 31
0.0
  0
LINE
  5
108
330
4F
100
AcDbEntity
  8
LEVEL001
  6
Continuous
 62
     7
100
AcDbLine
 10
120.2273261910908
 20
169.6283740957161
 30
0.0
 11
120.2273261910908
 21
187.6283740957194
 31
0.0
  0
LINE
  5
109
330
4F
100
AcDbEntity
  8
LEVEL001
  6
Continuous
 62
     7
100
AcDbLine
 10
117.2273261916318
 20
295.3681274752544
 30
0.0
 11
115.9773261918019
 21
294.1181274763744
 31
0.0
  0
LINE
  5
10A
330
4F
100
AcDbEntity
  8
LEVEL001
  6
Continuous
 62
     7
100
AcDbLine
 10
115.9773261900419
 20
294.1181274746144
 30
0.0
 11
115.0622626814219
 21
294.1181274755344
 31
0.0
  0
LINE
  5
10B
330
4F
100
AcDbEntity
  8
1
  6
Continuous
 62
     7
100
AcDbLine
 10
115.9773261918019
 20
315.1181274748644
 30
0.0
 11
115.9773261918019
 21
309.1907805768914
 31
0.0
  0
LINE
  5
10C
330
4F
100
AcDbEntity
  8
LEVEL001
  6
Continuous
 62
     7
100
AcDbLine
 10
115.9773261918019
 20
309.1907805768914
 30
0.0
 11
113.4773261902438
 21
308.6160156359674
 31
0.0
  0
LINE
  5
10D
330
4F
100
AcDbEntity
  8
1
  6
Continuous
 62
     7
100
AcDbLine
 10
115.9773261918019
 20
300.0454743756524
 30
0.0
 11
115.9773261918019
 21
294.1181274763744
 31
0.0
  0
LINE
  5
10E
330
4F
100
AcDbEntity
  8
LEVEL001
  6
Continuous
 62
     7
100
AcDbLine
 10
115.9773261918019
 20
300.0454743756524
 30
0.0
 11
113.4773261903238
 21
300.6202393165563
 31
0.0
  0
LINE
  5
10F
330
4F
100
AcDbEntity
  8
LEVEL001
  6
Continuous
 62
     7
100
AcDbLine
 10
115.9773261918019
 20
294.1181274763744
 30
0.0
 11
115.9773261900419
 21
294.1181274746144
 31
0.0
  0
LINE
  5
110
330
4F
100
AcDbEntity
  8
1
  6
Continuous
 62
     7
100
AcDbLine
 10
154.9773261900618
 20
294.1181274764442
 30
0.0
 11
154.9773261900618
 21
315.1181274746144
 31
0.0
  0
LINE
  5
111
330
4F
100
AcDbEntity
  8
LEVEL001
  6
Continuous
 62
     7
100
AcDbLine
 10
127.283069514745
 20
295.4276082197885
 30
0.0
 11
127.2849380344421
 21
295.4257393202045
 31
0.0
  0
ARC
  5
112
330
4F
100
AcDbEntity
  8
LEVEL001
  6
Continuous
 62
     7
100
AcDbCircle
 10
153.2273261905854
 20
295.3681274760845
 30
0.0
 40
0.5000000004964704
100
AcDbArc
 50
180.0
 51
0.00000003207383
  0
ARC
  5
113
330
4F
100
AcDbEntity
  8
LEVEL001
  6
Continuous
 62
     7
100
AcDbCircle
 10
153.2273261905854
 20
313.8681274749744
 30
0.0
 40
0.500000000496442
100
AcDbArc
 50
359.9999999667342
 51
180.0
  0
LINE
  5
114
330
4F
100
AcDbEntity
  8
LEVEL001
  6
Continuous
 62
     7
100
AcDbLine
 10
127.2849380344421
 20
295.4257393202045
 30
0.0
 11
127.2868069338151
 21
295.4238708011894
 31
0.0
  0
ARC
  5
115
330
4F
100
AcDbEntity
  8
LEVEL001
  6
Continuous
 62
     7
100
AcDbCircle
 10
136.497677564472
 20
304.5916050479344
 30
0.0
 40
14.00000000000051
100
AcDbArc
 50
186.0414780145304
 51
244.5308470516501
  0
ARC
  5
116
330
4F
100
AcDbEntity
  8
LEVEL001
  6
Continuous
 62
     7
100
AcDbCircle
 10
136.4773261895157
 20
304.6181274763596
 30
0.0
 40
13.0000000001147
100
AcDbArc
 50
186.6258095655237
 51
225.0952890572625
  0
ARC
  5
117
330
4F
100
AcDbEntity
  8
LEVEL001
  6
Continuous
 62
     7
100
AcDbCircle
 10
136.497677564472
 20
304.6446499048943
 30
0.0
 40
14.00000000000021
100
AcDbArc
 50
115.4691529498174
 51
173.9585219869499
  0
ARC
  5
118
330
4F
100
AcDbEntity
  8
LEVEL001
  6
Continuous
 62
     7
100
AcDbCircle
 10
136.4773261901426
 20
304.6181274761827
 30
0.0
 40
13.00000000076455
100
AcDbArc
 50
134.9047109453021
 51
173.374190435029
  0
ARC
  5
119
330
4F
100
AcDbEntity
  8
LEVEL001
  6
Continuous
 62
     7
100
AcDbCircle
 10
136.477326189872
 20
304.6181274764139
 30
0.0
 40
16.25000000020161
100
AcDbArc
 50
200.8940888485496
 51
159.105911152617
  0
ARC
  5
11A
330
4F
100
AcDbEntity
  8
LEVEL001
  6
Continuous
 62
     7
100
AcDbCircle
 10
109.477326189412
 20
304.6181274762744
 30
0.0
 40
2.999999999997846
100
AcDbArc
 50
102.9476479058366
 51
257.0523520942062
  0
ARC
  5
11B
330
4F
100
AcDbEntity
  8
LEVEL001
  6
Continuous
 62
     7
100
AcDbCircle
 10
153.2273261910808
 20
187.7283740957192
 30
0.0
 40
0.5
100
AcDbArc
 50
0.0
 51
179.9999999988536
  0
ARC
  5
11C
330
4F
100
AcDbEntity
  8
LEVEL001
  6
Continuous
 62
     7
100
AcDbCircle
 10
153.2273261910507
 20
169.5283740957042
 30
0.0
 40
0.5
100
AcDbArc
 50
180.0
 51
0.0
  0
ARC
  5
11D
330
4F
100
AcDbEntity
  8
LEVEL001
  6
Continuous
 62
     7
100
AcDbCircle
 10
151.2273261910908
 20
167.6239200114713
 30
0.0
 40
1.499999999999527
100
AcDbArc
 50
284.9999999998554
 51
0.0
  0
ARC
  5
11E
330
4F
100
AcDbEntity
  8
LEVEL001
  6
Continuous
 62
     7
100
AcDbCircle
 10
121.7273261910908
 20
167.6239200114713
 30
0.0
 40
1.5
100
AcDbArc
 50
180.0
 51
254.9999999999947
  0
ARC
  5
11F
330
4F
100
AcDbEntity
  8
LEVEL001
  6
Continuous
 62
     7
100
AcDbCircle
 10
120.1079130064409
 20
201.1283740957493
 30
0.0
 40
1.000000000000346
100
AcDbArc
 50
358.499999999993
 51
90.0
  0
ARC
  5
120
330
4F
100
AcDbEntity
  8
LEVEL001
  6
Continuous
 62
     7
100
AcDbCircle
 10
107.4773261910908
 20
203.1283740957493
 30
0.0
 40
1.0
100
AcDbArc
 50
180.0
 51
270.0
  0
ARC
  5
121
330
4F
100
AcDbEntity
  8
LEVEL001
  6
Continuous
 62
     7
100
AcDbCircle
 10
107.4773261910908
 20
218.3865604254892
 30
0.0
 40
1.000000000005895
100
AcDbArc
 50
93.00000000038091
 51
180.0
  0
ARC
  5
122
330
4F
100
AcDbEntity
  8
LEVEL001
  6
Continuous
 62
     7
100
AcDbCircle
 10
136.4773261910908
 20
124.1283740957483
 30
0.0
 40
100.0000000000034
100
AcDbArc
 50
81.976694241785
 51
90.0
  0
ARC
  5
123
330
4F
100
AcDbEntity
  8
LEVEL001
  6
Continuous
 62
     7
100
AcDbCircle
 10
150.2953396049309
 20
222.1593003654493
 30
0.0
 40
1.000000000004236
100
AcDbArc
 50
1.49999999953047
 51
81.97669424179186
  0
ARC
  5
124
330
4F
100
AcDbEntity
  8
LEVEL001
  6
Continuous
 62
     7
100
AcDbCircle
 10
136.4773261910908
 20
124.1283740957483
 30
0.0
 40
100.0
100
AcDbArc
 50
90.0
 51
98.02330575822059
  0
ARC
  5
125
330
4F
100
AcDbEntity
  8
LEVEL001
  6
Continuous
 62
     7
100
AcDbCircle
 10
122.6593127772409
 20
222.1593003654493
 30
0.0
 40
1.000000000000289
100
AcDbArc
 50
98.02330575820733
 51
178.4999999999883
  0
ARC
  5
126
330
4F
100
AcDbEntity
  8
LEVEL001
  6
Continuous
 62
     7
100
AcDbCircle
 10
120.6303287058809
 20
221.0786247701893
 30
0.0
 40
1.003092198480764
100
AcDbArc
 50
268.5000000020888
 51
2.99999999998713
  0
ARC
  5
127
330
4F
100
AcDbEntity
  8
LEVEL001
  6
Continuous
 62
     7
100
AcDbCircle
 10
151.4640618340609
 20
196.6283740957493
 30
0.0
 40
0.5
100
AcDbArc
 50
270.0
 51
1.49999999999554
  0
ARC
  5
128
330
4F
100
AcDbEntity
  8
LEVEL001
  6
DIVIDE
 62
     7
100
AcDbCircle
 10
121.4905905481209
 20
196.6283740957493
 30
0.0
 40
0.5000000000002199
100
AcDbArc
 50
178.5000000000045
 51
270.0
  0
ARC
  5
129
330
4F
100
AcDbEntity
  8
LEVEL001
  6
Continuous
 62
     7
100
AcDbCircle
 10
122.9773261910908
 20
196.3957010836793
 30
0.0
 40
1.000000000000276
100
AcDbArc
 50
284.999999999852
 51
344.4947312272575
  0
ARC
  5
12A
330
4F
100
AcDbEntity
  8
LEVEL001
  6
Continuous
 62
     7
100
AcDbCircle
 10
121.2273261910908
 20
193.8562376361093
 30
0.0
 40
1.000000000000307
100
AcDbArc
 50
104.9999999998397
 51
180.0
  0
ARC
  5
12B
330
4F
100
AcDbEntity
  8
LEVEL001
  6
Continuous
 62
     7
100
AcDbCircle
 10
151.7273261910908
 20
193.8562376361093
 30
0.0
 40
1.0
100
AcDbArc
 50
0.0
 51
75.00000000014929
  0
ARC
  5
12C
330
4F
100
AcDbEntity
  8
LEVEL001
  6
Continuous
 62
     7
100
AcDbCircle
 10
149.9773261910908
 20
196.3957010836793
 30
0.0
 40
0.9999999999999395
100
AcDbArc
 50
195.5052687727438
 51
254.9999999999713
  0
ARC
  5
12D
330
4F
100
AcDbEntity
  8
1
  6
Continuous
 62
     7
100
AcDbCircle
 10
99.5648261910841
 20
178.6283740957177
 30
0.0
 40
22.53750000000678
100
AcDbArc
 50
336.4634221359618
 51
23.53657786403846
  0
ARC
  5
12E
330
4F
100
AcDbEntity
  8
1
  6
Continuous
 62
     7
100
AcDbCircle
 10
173.3898261910975
 20
178.6283740957177
 30
0.0
 40
22.53750000000683
100
AcDbArc
 50
156.4634221359615
 51
203.5365778640382
  0
CIRCLE
  5
12F
330
4F
100
AcDbEntity
  8
LEVEL001
  6
Continuous
 62
     7
100
AcDbCircle
 10
136.477326189872
 20
304.6181274756244
 30
0.0
 40
14.795614624226
  0
CIRCLE
  5
130
330
4F
100
AcDbEntity
  8
LEVEL001
  6
Continuous
 62
     7
100
AcDbCircle
 10
136.477326189872
 20
304.6181274756244
 30
0.0
 40
15.4999999999982
  0
MTEXT
  5
132
330
4F
100
AcDbEntity
  8
LEVEL001
 62
     7
100
AcDbMText
 10
129.808985575582
 20
294.9716666092645
 30
0.0
 40
6.0
 41
0.0
 71
     7
 72
     1
  1
く
  7
CONVERTER_11
 11
0.9396926207859084
 21
-0.3420201433256687
 31
0.0
 73
     1
 44
0.75727272727273
  0
MTEXT
  5
133
330
4F
100
AcDbEntity
  8
LEVEL001
 62
     7
100
AcDbMText
 10
126.738781481662
 20
298.4420267340245
 30
0.0
 40
6.0
 41
0.0
 71
     7
 72
     1
  1
ら
  7
CONVERTER_11
 11
0.707106781186547
 21
-0.707106781186548
 31
0.0
 73
     1
 44
0.75727272727273
  0
MTEXT
  5
134
330
4F
100
AcDbEntity
  8
LEVEL001
 62
     7
100
AcDbMText
 10
124.948619120412
 20
303.1230915102244
 30
0.0
 40
6.0
 41
0.0
 71
     7
 72
     1
  1
ひ
  7
CONVERTER_11
 11
0.3420201433256687
 21
-0.9396926207859084
 31
0.0
 73
     1
 44
0.75727272727273
  0
MTEXT
  5
135
330
4F
100
AcDbEntity
  8
LEVEL001
 62
     7
100
AcDbMText
 10
126.444250702402
 20
310.7182297145046
 30
0.0
 40
6.0
 41
0.0
 71
     8
 72
     1
  1
る
  7
CONVERTER_11
 11
-0.707106781186548
 21
-0.707106781186547
 31
0.0
 73
     1
 44
0.75727272727273
  0
MTEXT
  5
136
330
4F
100
AcDbEntity
  8
LEVEL001
 62
     7
100
AcDbMText
 10
128.2685925412704
 20
312.826861123836
 30
0.0
 40
5.99999999999999
 41
0.0
 71
     8
 72
     1
  1
じ
  7
CONVERTER_11
 11
-0.3420201433256685
 21
-0.9396926207859083
 31
0.0
 73
     1
 44
0.75727272727273
  0
MTEXT
  5
137
330
4F
100
AcDbEntity
  8
LEVEL001
 62
     7
100
AcDbMText
 10
134.978883544382
 20
316.4185053414444
 30
0.0
 40
6.0
 41
0.0
 71
     7
 72
     1
  1
と
  7
CONVERTER_11
 11
-0.9396926207859084
 21
-0.3420201433256687
 31
0.0
 73
     1
 44
0.75727272727273
  0
ENDBLK
  5
52
330
4F
100
AcDbEntity
  8
0
100
AcDbBlockEnd
  0
BLOCK
  5
54
330
53
100
AcDbEntity
  8
0
100
AcDbBlockBegin
  2
開示A4
 70
     0
 10
0.0
 20
0.0
 30
0.0
  3
開示A4
  1

  0
POINT
  5
138
330
53
100
AcDbEntity
  8
1
 62
     4
100
AcDbPoint
 10
93.75
 20
17.0
 30
0.0
  0
POINT
  5
139
330
53
100
AcDbEntity
  8
1
 62
     4
100
AcDbPoint
 10
85.25
 20
17.0
 30
0.0
  0
POINT
  5
13A
330
53
100
AcDbEntity
  8
1
 62
     4
100
AcDbPoint
 10
106.5
 20
19.00000000000001
 30
0.0
  0
POINT
  5
13B
330
53
100
AcDbEntity
  8
1
 62
     4
100
AcDbPoint
 10
106.5
 20
12.5
 30
0.0
  0
POINT
  5
13C
330
53
100
AcDbEntity
  8
1
 62
     4
100
AcDbPoint
 10
112.25
 20
12.5
 30
0.0
  0
POINT
  5
13D
330
53
100
AcDbEntity
  8
1
 62
     4
100
AcDbPoint
 10
100.75
 20
12.5
 30
0.0
  0
POINT
  5
13E
330
53
100
AcDbEntity
  8
1
 62
     4
100
AcDbPoint
 10
123.5
 20
19.00000000000001
 30
0.0
  0
POINT
  5
13F
330
53
100
AcDbEntity
  8
1
 62
     4
100
AcDbPoint
 10
123.5
 20
12.5
 30
0.0
  0
POINT
  5
140
330
53
100
AcDbEntity
  8
1
 62
     4
100
AcDbPoint
 10
129.25
 20
12.5
 30
0.0
  0
POINT
  5
141
330
53
100
AcDbEntity
  8
1
 62
     4
100
AcDbPoint
 10
117.75
 20
12.5
 30
0.0
  0
POINT
  5
142
330
53
100
AcDbEntity
  8
1
 62
     4
100
AcDbPoint
 10
140.5
 20
19.00000000000001
 30
0.0
  0
POINT
  5
143
330
53
100
AcDbEntity
  8
1
 62
     4
100
AcDbPoint
 10
140.5
 20
12.5
 30
0.0
  0
POINT
  5
144
330
53
100
AcDbEntity
  8
1
 62
     4
100
AcDbPoint
 10
146.25
 20
12.5
 30
0.0
  0
POINT
  5
145
330
53
100
AcDbEntity
  8
1
 62
     4
100
AcDbPoint
 10
134.75
 20
12.5
 30
0.0
  0
POINT
  5
146
330
53
100
AcDbEntity
  8
1
 62
     4
100
AcDbPoint
 10
151.75
 20
12.5
 30
0.0
  0
POINT
  5
147
330
53
100
AcDbEntity
  8
1
 62
     4
100
AcDbPoint
 10
163.25
 20
12.5
 30
0.0
  0
POINT
  5
148
330
53
100
AcDbEntity
  8
1
 62
     4
100
AcDbPoint
 10
157.5
 20
12.5
 30
0.0
  0
POINT
  5
149
330
53
100
AcDbEntity
  8
1
 62
     4
100
AcDbPoint
 10
57.0
 20
14.25
 30
0.0
  0
POINT
  5
14A
330
53
100
AcDbEntity
  8
1
 62
     4
100
AcDbPoint
 10
57.0
 20
22.75000000000001
 30
0.0
  0
POINT
  5
14B
330
53
100
AcDbEntity
  8
1
 62
     4
100
AcDbPoint
 10
47.5
 20
282.0000000000003
 30
0.0
  0
POINT
  5
14C
330
53
100
AcDbEntity
  8
1
 62
     4
100
AcDbPoint
 10
157.5
 20
19.00000000000001
 30
0.0
  0
POINT
  5
14D
330
53
100
AcDbEntity
  8
1
 62
     4
100
AcDbPoint
 10
57.0
 20
16.25
 30
0.0
  0
POINT
  5
14E
330
53
100
AcDbEntity
  8
1
 62
     4
100
AcDbPoint
 10
57.0
 20
24.75000000000001
 30
0.0
  0
POINT
  5
14F
330
53
100
AcDbEntity
  8
1
 62
     4
100
AcDbPoint
 10
57.0
 20
20.75000000000001
 30
0.0
  0
POINT
  5
150
330
53
100
AcDbEntity
  8
1
 62
     4
100
AcDbPoint
 10
57.0
 20
12.25
 30
0.0
  0
POINT
  5
151
330
53
100
AcDbEntity
  8
1
 62
     4
100
AcDbPoint
 10
34.0
 20
34.00000000000001
 30
0.0
  0
LINE
  5
152
330
53
100
AcDbEntity
  8
1
  6
Continuous
 62
     7
100
AcDbLine
 10
105.0
 20
10.0
 30
0.0
 11
200.0
 21
10.0
 31
0.0
  0
LINE
  5
153
330
53
100
AcDbEntity
  8
1
  6
Continuous
 62
     2
100
AcDbLine
 10
105.0
 20
10.0
 30
0.0
 11
105.0
 21
5.0
 31
0.0
  0
LINE
  5
154
330
53
100
AcDbEntity
  8
1
  6
Continuous
 62
     7
100
AcDbLine
 10
200.0
 20
148.5
 30
0.0
 11
200.0
 21
287.0000000000003
 31
0.0
  0
LINE
  5
155
330
53
100
AcDbEntity
  8
1
  6
Continuous
 62
     2
100
AcDbLine
 10
200.0
 20
148.5
 30
0.0
 11
205.0
 21
148.5
 31
0.0
  0
LINE
  5
156
330
53
100
AcDbEntity
  8
1
  6
Continuous
 62
     7
100
AcDbLine
 10
25.0
 20
148.5
 30
0.0
 11
25.0
 21
287.0000000000003
 31
0.0
  0
LINE
  5
157
330
53
100
AcDbEntity
  8
1
  6
Continuous
 62
     2
100
AcDbLine
 10
25.0
 20
148.5
 30
0.0
 11
20.0
 21
148.5
 31
0.0
  0
LINE
  5
158
330
53
100
AcDbEntity
  8
1
  6
Continuous
 62
     7
100
AcDbLine
 10
105.0
 20
287.0000000000003
 30
0.0
 11
25.0
 21
287.0000000000003
 31
0.0
  0
LINE
  5
159
330
53
100
AcDbEntity
  8
1
  6
Continuous
 62
     2
100
AcDbLine
 10
105.0
 20
287.0000000000003
 30
0.0
 11
105.0
 21
292.0000000000003
 31
0.0
  0
LINE
  5
15A
330
53
100
AcDbEntity
  8
1
  6
Continuous
 62
     2
100
AcDbLine
 10
166.0
 20
20.00000000000001
 30
0.0
 11
200.0
 21
20.00000000000001
 31
0.0
  0
LINE
  5
15B
330
53
100
AcDbEntity
  8
1
  6
Continuous
 62
     2
100
AcDbLine
 10
98.0
 20
27.00000000000001
 30
0.0
 11
98.0
 21
9.99999999999999
 31
0.0
  0
LINE
  5
15C
330
53
100
AcDbEntity
  8
1
  6
Continuous
 62
     2
100
AcDbLine
 10
115.0
 20
27.00000000000001
 30
0.0
 11
115.0
 21
9.99999999999999
 31
0.0
  0
LINE
  5
15D
330
53
100
AcDbEntity
  8
1
  6
Continuous
 62
     2
100
AcDbLine
 10
149.0
 20
27.00000000000001
 30
0.0
 11
149.0
 21
10.0
 31
0.0
  0
LINE
  5
15E
330
53
100
AcDbEntity
  8
1
  6
Continuous
 62
     2
100
AcDbLine
 10
132.0
 20
27.00000000000001
 30
0.0
 11
132.0
 21
9.99999999999999
 31
0.0
  0
LINE
  5
15F
330
53
100
AcDbEntity
  8
1
  6
Continuous
 62
     2
100
AcDbLine
 10
166.0
 20
27.00000000000001
 30
0.0
 11
166.0
 21
10.0
 31
0.0
  0
LINE
  5
160
330
53
100
AcDbEntity
  8
1
  6
Continuous
 62
     2
100
AcDbLine
 10
55.0
 20
277.0000000000003
 30
0.0
 11
25.0
 21
277.0000000000003
 31
0.0
  0
LINE
  5
161
330
53
100
AcDbEntity
  8
1
  6
Continuous
 62
     7
100
AcDbLine
 10
25.0
 20
10.0
 30
0.0
 11
25.0
 21
148.5
 31
0.0
  0
LINE
  5
162
330
53
100
AcDbEntity
  8
1
  6
Continuous
 62
     2
100
AcDbLine
 10
40.0
 20
287.0000000000003
 30
0.0
 11
40.0
 21
277.0000000000003
 31
0.0
  0
LINE
  5
163
330
53
100
AcDbEntity
  8
1
  6
Continuous
 62
     2
100
AcDbLine
 10
55.0
 20
287.0000000000003
 30
0.0
 11
55.0
 21
277.0000000000003
 31
0.0
  0
LINE
  5
164
330
53
100
AcDbEntity
  8
1
  6
Continuous
 62
     2
100
AcDbLine
 10
33.0
 20
41.00000000000001
 30
0.0
 11
33.0
 21
27.0
 31
0.0
  0
LINE
  5
165
330
53
100
AcDbEntity
  8
1
  6
Continuous
 62
     7
100
AcDbLine
 10
200.0
 20
27.00000000000001
 30
0.0
 11
25.0
 21
27.00000000000001
 31
0.0
  0
LINE
  5
166
330
53
100
AcDbEntity
  8
1
  6
Continuous
 62
     7
100
AcDbLine
 10
25.0
 20
41.0
 30
0.0
 11
200.0
 21
41.0
 31
0.0
  0
LINE
  5
167
330
53
100
AcDbEntity
  8
1
  6
PHANTOM
 62
     4
100
AcDbLine
 10
0.0
 20
0.0
 30
0.0
 11
210.0
 21
0.0
 31
0.0
  0
LINE
  5
168
330
53
100
AcDbEntity
  8
1
  6
PHANTOM
 62
     4
100
AcDbLine
 10
210.0
 20
0.0
 30
0.0
 11
210.0
 21
297.0
 31
0.0
  0
LINE
  5
169
330
53
100
AcDbEntity
  8
1
  6
PHANTOM
 62
     4
100
AcDbLine
 10
210.0
 20
297.0
 30
0.0
 11
0.0
 21
297.0
 31
0.0
  0
LINE
  5
16A
330
53
100
AcDbEntity
  8
1
  6
PHANTOM
 62
     4
100
AcDbLine
 10
0.0
 20
297.0
 30
0.0
 11
0.0
 21
0.0
 31
0.0
  0
LINE
  5
16B
330
53
100
AcDbEntity
  8
1
  6
Continuous
 62
     7
100
AcDbLine
 10
25.0
 20
10.0
 30
0.0
 11
105.0
 21
10.0
 31
0.0
  0
LINE
  5
16C
330
53
100
AcDbEntity
  8
1
  6
Continuous
 62
     7
100
AcDbLine
 10
200.0
 20
10.0
 30
0.0
 11
200.0
 21
148.5
 31
0.0
  0
LINE
  5
16D
330
53
100
AcDbEntity
  8
1
  6
Continuous
 62
     7
100
AcDbLine
 10
200.0
 20
287.0000000000003
 30
0.0
 11
105.0
 21
287.0000000000003
 31
0.0
  0
LINE
  5
16E
330
53
100
AcDbEntity
  8
1
  6
Continuous
 62
     2
100
AcDbLine
 10
25.0
 20
18.50000000000001
 30
0.0
 11
81.0
 21
18.50000000000001
 31
0.0
  0
LINE
  5
16F
330
53
100
AcDbEntity
  8
1
  6
Continuous
 62
     2
100
AcDbLine
 10
33.0
 20
27.0
 30
0.0
 11
33.0
 21
10.0
 31
0.0
  0
LINE
  5
170
330
53
100
AcDbEntity
  8
1
  6
Continuous
 62
     7
100
AcDbLine
 10
191.0
 20
24.70000000000001
 30
0.0
 11
191.0
 21
22.30000000000001
 31
0.0
  0
LINE
  5
171
330
53
100
AcDbEntity
  8
1
  6
Continuous
 62
     7
100
AcDbLine
 10
191.0
 20
24.70000000000001
 30
0.0
 11
196.0
 21
25.50000000000001
 31
0.0
  0
LINE
  5
172
330
53
100
AcDbEntity
  8
1
  6
Continuous
 62
     7
100
AcDbLine
 10
196.0
 20
25.50000000000001
 30
0.0
 11
196.0
 21
21.50000000000001
 31
0.0
  0
LINE
  5
173
330
53
100
AcDbEntity
  8
1
  6
Continuous
 62
     7
100
AcDbLine
 10
196.0
 20
21.50000000000001
 30
0.0
 11
191.0
 21
22.30000000000001
 31
0.0
  0
LINE
  5
174
330
53
100
AcDbEntity
  8
1
  6
DOT_CENTER
 62
     2
100
AcDbLine
 10
184.0
 20
23.50000000000001
 30
0.0
 11
197.0
 21
23.50000000000001
 31
0.0
  0
LINE
  5
175
330
53
100
AcDbEntity
  8
1
  6
DOT_CENTER
 62
     2
100
AcDbLine
 10
187.0
 20
26.50000000000001
 30
0.0
 11
187.0
 21
20.50000000000001
 31
0.0
  0
LINE
  5
176
330
53
100
AcDbEntity
  8
1
  6
Continuous
 62
     2
100
AcDbLine
 10
81.0
 20
27.00000000000001
 30
0.0
 11
81.0
 21
10.0
 31
0.0
  0
CIRCLE
  5
177
330
53
100
AcDbEntity
  8
1
  6
Continuous
 62
     7
100
AcDbCircle
 10
103.5
 20
12.5
 30
0.0
 40
0.2999999999999972
  0
CIRCLE
  5
178
330
53
100
AcDbEntity
  8
1
  6
Continuous
 62
     7
100
AcDbCircle
 10
109.5
 20
12.5
 30
0.0
 40
0.2999999999999972
  0
CIRCLE
  5
179
330
53
100
AcDbEntity
  8
1
  6
Continuous
 62
     7
100
AcDbCircle
 10
120.5
 20
12.5
 30
0.0
 40
0.2999999999999972
  0
CIRCLE
  5
17A
330
53
100
AcDbEntity
  8
1
  6
Continuous
 62
     7
100
AcDbCircle
 10
126.5
 20
12.5
 30
0.0
 40
0.2999999999999972
  0
CIRCLE
  5
17B
330
53
100
AcDbEntity
  8
1
  6
Continuous
 62
     7
100
AcDbCircle
 10
137.5
 20
12.5
 30
0.0
 40
0.3000000000000114
  0
CIRCLE
  5
17C
330
53
100
AcDbEntity
  8
1
  6
Continuous
 62
     7
100
AcDbCircle
 10
143.5
 20
12.5
 30
0.0
 40
0.3000000000000114
  0
CIRCLE
  5
17D
330
53
100
AcDbEntity
  8
1
  6
Continuous
 62
     7
100
AcDbCircle
 10
160.5
 20
12.5
 30
0.0
 40
0.3000000000000114
  0
CIRCLE
  5
17E
330
53
100
AcDbEntity
  8
1
  6
Continuous
 62
     7
100
AcDbCircle
 10
154.5
 20
12.5
 30
0.0
 40
0.3000000000000114
  0
CIRCLE
  5
17F
330
53
100
AcDbEntity
  8
1
  6
Continuous
 62
     7
100
AcDbCircle
 10
187.0
 20
23.50000000000001
 30
0.0
 40
1.200000000000102
  0
CIRCLE
  5
180
330
53
100
AcDbEntity
  8
1
  6
Continuous
 62
     7
100
AcDbCircle
 10
187.0
 20
23.50000000000001
 30
0.0
 40
2.0
  0
CIRCLE
  5
181
330
53
100
AcDbEntity
  8
1
  6
DOT_CENTER
 62
     7
100
AcDbCircle
 10
89.5
 20
16.0
 30
0.0
 40
0.1000000000000227
  0
CIRCLE
  5
182
330
53
100
AcDbEntity
  8
1
  6
DOT_CENTER
 62
     7
100
AcDbCircle
 10
89.5
 20
18.0
 30
0.0
 40
0.1000000000000227
  0
MTEXT
  5
184
330
53
100
AcDbEntity
  8
1
 62
     7
100
AcDbMText
 10
188.5
 20
15.0
 30
0.0
 40
3.0
 41
0.0
 71
     5
 72
     1
  1
三栄水栓製作所
  7
CONVERTER_12
 73
     1
 44
1.0
  0
MTEXT
  5
185
330
53
100
AcDbEntity
  8
1
 62
     7
100
AcDbMText
 10
171.5
 20
15.0
 30
0.0
 40
2.5
 41
0.0
 71
     5
 72
     1
  1
株式会社
  7
CONVERTER_12
 73
     1
 44
1.0
  0
MTEXT
  5
186
330
53
100
AcDbEntity
  8
1
 62
     2
100
AcDbMText
 10
32.5
 20
282.0000000000003
 30
0.0
 40
5.0
 41
0.0
 71
     5
 72
     1
  1
図番
  7
CONVERTER_12
 73
     1
 44
0.45454545454545
  0
MTEXT
  5
187
330
53
100
AcDbEntity
  8
1
 62
     2
100
AcDbMText
 10
29.0
 20
34.00000000000001
 30
0.0
 40
3.5
 41
0.0
 71
     5
 72
     1
  1
備考
  7
CONVERTER_12
 73
     1
 44
0.45454545454545
  0
MTEXT
  5
188
330
53
100
AcDbEntity
  8
1
 62
     2
100
AcDbMText
 10
29.0
 20
22.75
 30
0.0
 40
3.5
 41
0.0
 71
     5
 72
     1
  1
品名
  7
CONVERTER_12
 73
     1
 44
0.72727272727273
  0
MTEXT
  5
189
330
53
100
AcDbEntity
  8
1
 62
     2
100
AcDbMText
 10
29.0
 20
14.25
 30
0.0
 40
3.5
 41
0.0
 71
     5
 72
     1
  1
品番
  7
CONVERTER_12
 73
     1
 44
0.72727272727273
  0
MTEXT
  5
18A
330
53
100
AcDbEntity
  8
1
 62
     2
100
AcDbMText
 10
101.5
 20
25.00000000000001
 30
0.0
 40
3.0
 41
0.0
 71
     5
 72
     1
  1
承認
  7
CONVERTER_12
 73
     1
 44
0.59090909090909
  0
MTEXT
  5
18B
330
53
100
AcDbEntity
  8
1
 62
     2
100
AcDbMText
 10
175.0
 20
23.50000000000001
 30
0.0
 40
3.5
 41
0.0
 71
     5
 72
     1
  1
第三角法
  7
CONVERTER_12
 73
     1
 44
0.54545454545455
  0
MTEXT
  5
18C
330
53
100
AcDbEntity
  8
1
 62
     2
100
AcDbMText
 10
118.5
 20
25.00000000000001
 30
0.0
 40
3.0
 41
0.0
 71
     5
 72
     1
  1
検図
  7
CONVERTER_12
 73
     1
 44
0.59090909090909
  0
MTEXT
  5
18D
330
53
100
AcDbEntity
  8
1
 62
     2
100
AcDbMText
 10
152.5
 20
25.00000000000001
 30
0.0
 40
3.0
 41
0.0
 71
     5
 72
     1
  1
担当
  7
CONVERTER_12
 73
     1
 44
0.59090909090909
  0
MTEXT
  5
18E
330
53
100
AcDbEntity
  8
1
 62
     2
100
AcDbMText
 10
135.5
 20
25.00000000000001
 30
0.0
 40
3.0
 41
0.0
 71
     5
 72
     1
  1
製図
  7
CONVERTER_12
 73
     1
 44
0.59090909090909
  0
MTEXT
  5
18F
330
53
100
AcDbEntity
  8
1
 62
     2
100
AcDbMText
 10
89.5
 20
24.00000000000001
 30
0.0
 40
3.5
 41
0.0
 71
     5
 72
     1
  1
尺度
  7
CONVERTER_12
 73
     1
 44
0.54545454545455
  0
MTEXT
  5
190
330
53
100
AcDbEntity
  8
1
 62
   250
100
AcDbMText
 10
25.0
 20
5.0
 30
0.0
 40
3.5
 41
0.0
 71
     4
 72
     1
  1
備考欄の文字列 原点位置=4
  7
CONVERTER_12
 73
     1
 44
0.54545454545455
  0
ENDBLK
  5
55
330
53
100
AcDbEntity
  8
0
100
AcDbBlockEnd
  0
BLOCK
  5
210
330
209
100
AcDbEntity
  8
0
100
AcDbBlockBegin
  2
*D4
 70
     1
 10
0.0
 20
0.0
 30
0.0
  3
*D4
  1

  0
LINE
  5
20A
330
209
100
AcDbEntity
  8
1
  6
Continuous
 62
     2
100
AcDbLine
 10
106.4773261910908
 20
253.628374095715
 30
0.0
 11
198.727326191077
 21
253.628374095715
 31
0.0
  0
LINE
  5
20B
330
209
100
AcDbEntity
  8
1
  6
Continuous
 62
     2
100
AcDbLine
 10
198.727326191077
 20
207.1283740957152
 30
0.0
 11
198.727326191077
 21
255.128374095715
 31
0.0
  0
LINE
  5
20C
330
209
100
AcDbEntity
  8
1
  6
Continuous
 62
     2
100
AcDbLine
 10
106.4773261910908
 20
218.3865604254892
 30
0.0
 11
106.4773261910908
 21
255.128374095715
 31
0.0
  0
SOLID
  5
20D
330
209
100
AcDbEntity
  8
1
 62
     2
100
AcDbTrace
 10
111.7273261910908
 20
254.3195497080488
 30
0.0
 11
111.7273261910908
 21
252.9371984833812
 31
0.0
 12
106.4773261910908
 22
253.628374095715
 32
0.0
 13
106.4773261910908
 23
253.628374095715
 33
0.0
  0
SOLID
  5
20E
330
209
100
AcDbEntity
  8
1
 62
     2
100
AcDbTrace
 10
193.477326191077
 20
252.9371984833812
 30
0.0
 11
193.477326191077
 21
254.3195497080488
 31
0.0
 12
198.727326191077
 22
253.628374095715
 32
0.0
 13
198.727326191077
 23
253.628374095715
 33
0.0
  0
MTEXT
  5
20F
330
209
100
AcDbEntity
  8
1
 62
     7
100
AcDbMText
 10
148.6648261910839
 20
255.128374095715
 30
0.0
 40
5.25
 41
0.0
 71
     7
 72
     1
  1
93
  7
CONVERTER_13
 11
0.9999999999970619
 21
2.424068405545306E-6
 31
0.0
 73
     1
 44
0.60024009603842
  0
ENDBLK
  5
211
330
209
100
AcDbEntity
  8
0
100
AcDbBlockEnd
  0
BLOCK
  5
21B
330
214
100
AcDbEntity
  8
0
100
AcDbBlockBegin
  2
*D5
 70
     1
 10
0.0
 20
0.0
 30
0.0
  3
*D5
  1

  0
LINE
  5
215
330
214
100
AcDbEntity
  8
1
  6
Continuous
 62
     2
100
AcDbLine
 10
155.2273261910771
 20
241.628374095715
 30
0.0
 11
198.7273261910771
 21
241.628374095715
 31
0.0
  0
LINE
  5
216
330
214
100
AcDbEntity
  8
1
  6
Continuous
 62
     2
100
AcDbLine
 10
198.7273261910771
 20
207.1283740957152
 30
0.0
 11
198.7273261910771
 21
243.128374095715
 31
0.0
  0
LINE
  5
217
330
214
100
AcDbEntity
  8
1
  6
Continuous
 62
     2
100
AcDbLine
 10
155.2273261910771
 20
190.6829375469564
 30
0.0
 11
155.2273261910771
 21
243.128374095715
 31
0.0
  0
SOLID
  5
218
330
214
100
AcDbEntity
  8
1
 62
     2
100
AcDbTrace
 10
160.4773261910771
 20
242.3195497080488
 30
0.0
 11
160.4773261910771
 21
240.9371984833812
 31
0.0
 12
155.2273261910771
 22
241.628374095715
 32
0.0
 13
155.2273261910771
 23
241.628374095715
 33
0.0
  0
SOLID
  5
219
330
214
100
AcDbEntity
  8
1
 62
     2
100
AcDbTrace
 10
193.4773261910771
 20
240.9371984833812
 30
0.0
 11
193.4773261910771
 21
242.3195497080488
 31
0.0
 12
198.7273261910771
 22
241.628374095715
 32
0.0
 13
198.7273261910771
 23
241.628374095715
 33
0.0
  0
MTEXT
  5
21A
330
214
100
AcDbEntity
  8
1
 62
     7
100
AcDbMText
 10
173.0398261910767
 20
243.128374095715
 30
0.0
 40
5.25
 41
0.0
 71
     7
 72
     1
  1
44
  7
CONVERTER_13
 11
0.9999999999970619
 21
2.424068405545306E-6
 31
0.0
 73
     1
 44
0.60024009603842
  0
ENDBLK
  5
21C
330
214
100
AcDbEntity
  8
0
100
AcDbBlockEnd
  0
BLOCK
  5
226
330
21F
100
AcDbEntity
  8
0
100
AcDbBlockBegin
  2
*D6
 70
     1
 10
0.0
 20
0.0
 30
0.0
  3
*D6
  1

  0
LINE
  5
220
330
21F
100
AcDbEntity
  8
1
  6
Continuous
 62
     2
100
AcDbLine
 10
242.7273261910771
 20
202.6283740957153
 30
0.0
 11
242.7273261910771
 21
151.6283740957153
 31
0.0
  0
LINE
  5
221
330
21F
100
AcDbEntity
  8
1
  6
Continuous
 62
     2
100
AcDbLine
 10
228.227326191077
 20
151.6283740957153
 30
0.0
 11
244.2273261910771
 21
151.6283740957153
 31
0.0
  0
LINE
  5
222
330
21F
100
AcDbEntity
  8
1
  6
Continuous
 62
     2
100
AcDbLine
 10
220.227326191077
 20
202.6283740957153
 30
0.0
 11
244.2273261910771
 21
202.6283740957153
 31
0.0
  0
SOLID
  5
223
330
21F
100
AcDbEntity
  8
1
 62
     2
100
AcDbTrace
 10
243.4185018034109
 20
197.3783740957153
 30
0.0
 11
242.0361505787433
 21
197.3783740957153
 31
0.0
 12
242.7273261910771
 22
202.6283740957153
 32
0.0
 13
242.7273261910771
 23
202.6283740957153
 33
0.0
  0
SOLID
  5
224
330
21F
100
AcDbEntity
  8
1
 62
     2
100
AcDbTrace
 10
242.0361505787433
 20
156.8783740957153
 30
0.0
 11
243.4185018034109
 21
156.8783740957153
 31
0.0
 12
242.7273261910771
 22
151.6283740957153
 32
0.0
 13
242.7273261910771
 23
151.6283740957153
 33
0.0
  0
MTEXT
  5
225
330
21F
100
AcDbEntity
  8
1
 62
     7
100
AcDbMText
 10
241.2273261910771
 20
173.2093465709393
 30
0.0
 40
5.25
 41
0.0
 71
     7
 72
     1
  1
51
  7
CONVERTER_13
 11
0.0
 21
1.0
 31
0.0
 73
     1
 44
0.60024009603842
  0
ENDBLK
  5
227
330
21F
100
AcDbEntity
  8
0
100
AcDbBlockEnd
  0
BLOCK
  5
231
330
22A
100
AcDbEntity
  8
0
100
AcDbBlockBegin
  2
*D7
 70
     1
 10
0.0
 20
0.0
 30
0.0
  3
*D7
  1

  0
LINE
  5
22B
330
22A
100
AcDbEntity
  8
1
  6
Continuous
 62
     2
100
AcDbLine
 10
95.7273261913814
 20
178.6283740957152
 30
0.0
 11
95.7273261913814
 21
151.6283740957153
 31
0.0
  0
LINE
  5
22C
330
22A
100
AcDbEntity
  8
1
  6
Continuous
 62
     2
100
AcDbLine
 10
169.227326191077
 20
151.6283740957153
 30
0.0
 11
94.2273261913814
 21
151.6283740957153
 31
0.0
  0
LINE
  5
22D
330
22A
100
AcDbEntity
  8
1
  6
Continuous
 62
     2
100
AcDbLine
 10
105.7273261912149
 20
178.6283740957152
 30
0.0
 11
94.2273261913814
 21
178.6283740957152
 31
0.0
  0
SOLID
  5
22E
330
22A
100
AcDbEntity
  8
1
 62
     2
100
AcDbTrace
 10
96.41850180371522
 20
173.3783740957152
 30
0.0
 11
95.03615057904757
 21
173.3783740957152
 31
0.0
 12
95.7273261913814
 22
178.6283740957152
 32
0.0
 13
95.7273261913814
 23
178.6283740957152
 33
0.0
  0
SOLID
  5
22F
330
22A
100
AcDbEntity
  8
1
 62
     2
100
AcDbTrace
 10
95.03615057904757
 20
156.8783740957153
 30
0.0
 11
96.41850180371522
 21
156.8783740957153
 31
0.0
 12
95.7273261913814
 22
151.6283740957153
 32
0.0
 13
95.7273261913814
 23
151.6283740957153
 33
0.0
  0
MTEXT
  5
230
330
22A
100
AcDbEntity
  8
1
 62
     7
100
AcDbMText
 10
94.2273261913814
 20
161.1908740957153
 30
0.0
 40
5.25
 41
0.0
 71
     7
 72
     1
  1
27
  7
CONVERTER_13
 11
0.0
 21
1.0
 31
0.0
 73
     1
 44
0.60024009603842
  0
ENDBLK
  5
232
330
22A
100
AcDbEntity
  8
0
100
AcDbBlockEnd
  0
BLOCK
  5
23C
330
235
100
AcDbEntity
  8
0
100
AcDbBlockBegin
  2
*D8
 70
     1
 10
0.0
 20
0.0
 30
0.0
  3
*D8
  1

  0
LINE
  5
236
330
235
100
AcDbEntity
  8
1
  6
Continuous
 62
     2
100
AcDbLine
 10
168.2273261910769
 20
229.6283740957153
 30
0.0
 11
229.2273261910771
 21
229.6283740957153
 31
0.0
  0
LINE
  5
237
330
235
100
AcDbEntity
  8
1
  6
Continuous
 62
     2
100
AcDbLine
 10
168.2273261910769
 20
192.6283740957154
 30
0.0
 11
168.2273261910769
 21
231.1283740957153
 31
0.0
  0
LINE
  5
238
330
235
100
AcDbEntity
  8
1
  6
Continuous
 62
     2
100
AcDbLine
 10
229.2273261910771
 20
192.6283740957154
 30
0.0
 11
229.2273261910771
 21
231.1283740957153
 31
0.0
  0
SOLID
  5
239
330
235
100
AcDbEntity
  8
1
 62
     2
100
AcDbTrace
 10
173.4773261910769
 20
230.3195497080491
 30
0.0
 11
173.4773261910769
 21
228.9371984833815
 31
0.0
 12
168.2273261910769
 22
229.6283740957153
 32
0.0
 13
168.2273261910769
 23
229.6283740957153
 33
0.0
  0
SOLID
  5
23A
330
235
100
AcDbEntity
  8
1
 62
     2
100
AcDbTrace
 10
223.9773261910771
 20
228.9371984833815
 30
0.0
 11
223.9773261910771
 21
230.3195497080491
 31
0.0
 12
229.2273261910771
 22
229.6283740957153
 32
0.0
 13
229.2273261910771
 23
229.6283740957153
 33
0.0
  0
MTEXT
  5
23B
330
235
100
AcDbEntity
  8
1
 62
     7
100
AcDbMText
 10
209.6723261910896
 20
231.1283636601008
 30
0.0
 40
5.25
 41
0.0
 71
     7
 72
     1
  1
\C7;{\Fgdt;n}\C7;61
  7
CONVERTER_13
 11
0.9999999999970619
 21
2.424068405545306E-6
 31
0.0
 73
     1
 44
0.60024009603842
  0
ENDBLK
  5
23D
330
235
100
AcDbEntity
  8
0
100
AcDbBlockEnd
  0
BLOCK
  5
248
330
240
100
AcDbEntity
  8
0
100
AcDbBlockBegin
  2
*D9
 70
     1
 10
0.0
 20
0.0
 30
0.0
  3
*D9
  1

  0
LINE
  5
241
330
240
100
AcDbEntity
  8
1
  6
Continuous
 62
     2
100
AcDbLine
 10
176.727326191077
 20
217.6283740957153
 30
0.0
 11
220.727326191077
 21
217.6283740957153
 31
0.0
  0
LINE
  5
242
330
240
100
AcDbEntity
  8
1
  6
Continuous
 62
     2
100
AcDbLine
 10
176.727326191077
 20
216.0
 30
0.0
 11
176.727326191077
 21
219.1283740957153
 31
0.0
  0
LINE
  5
243
330
240
100
AcDbEntity
  8
1
  6
Continuous
 62
     2
100
AcDbLine
 10
176.727326191077
 20
202.1283740957151
 30
0.0
 11
176.727326191077
 21
205.273875348969
 31
0.0
  0
LINE
  5
244
330
240
100
AcDbEntity
  8
1
  6
Continuous
 62
     2
100
AcDbLine
 10
220.727326191077
 20
202.1283740957154
 30
0.0
 11
220.727326191077
 21
219.1283740957153
 31
0.0
  0
SOLID
  5
245
330
240
100
AcDbEntity
  8
1
 62
     2
100
AcDbTrace
 10
181.977326191077
 20
218.3195497080491
 30
0.0
 11
181.977326191077
 21
216.9371984833815
 31
0.0
 12
176.727326191077
 22
217.6283740957153
 32
0.0
 13
176.727326191077
 23
217.6283740957153
 33
0.0
  0
SOLID
  5
246
330
240
100
AcDbEntity
  8
1
 62
     2
100
AcDbTrace
 10
215.477326191077
 20
216.9371984833815
 30
0.0
 11
215.477326191077
 21
218.3195497080491
 31
0.0
 12
220.727326191077
 22
217.6283740957153
 32
0.0
 13
220.727326191077
 23
217.6283740957153
 33
0.0
  0
MTEXT
  5
247
330
240
100
AcDbEntity
  8
1
 62
     7
100
AcDbMText
 10
204.6348261910896
 20
219.1283636601008
 30
0.0
 40
5.25
 41
0.0
 71
     7
 72
     1
  1
\C7;{\Fgdt;n}\C7;44
  7
CONVERTER_13
 11
0.9999999999970619
 21
2.424068405545306E-6
 31
0.0
 73
     1
 44
0.60024009603842
  0
ENDBLK
  5
249
330
240
100
AcDbEntity
  8
0
100
AcDbBlockEnd
  0
BLOCK
  5
253
330
24C
100
AcDbEntity
  8
0
100
AcDbBlockBegin
  2
*D10
 70
     1
 10
0.0
 20
0.0
 30
0.0
  3
*D10
  1

  0
LINE
  5
24D
330
24C
100
AcDbEntity
  8
1
  6
Continuous
 62
     2
100
AcDbLine
 10
110.2273261911409
 20
136.6283740957152
 30
0.0
 11
198.727326191077
 21
136.6283740957152
 31
0.0
  0
LINE
  5
24E
330
24C
100
AcDbEntity
  8
1
  6
Continuous
 62
     2
100
AcDbLine
 10
198.727326191077
 20
147.1283740957153
 30
0.0
 11
198.727326191077
 21
135.1283740957152
 31
0.0
  0
LINE
  5
24F
330
24C
100
AcDbEntity
  8
1
  6
Continuous
 62
     2
100
AcDbLine
 10
110.2273261911409
 20
169.3783740957111
 30
0.0
 11
110.2273261911409
 21
135.1283740957152
 31
0.0
  0
SOLID
  5
250
330
24C
100
AcDbEntity
  8
1
 62
     2
100
AcDbTrace
 10
115.4773261911409
 20
137.319549708049
 30
0.0
 11
115.4773261911409
 21
135.9371984833814
 31
0.0
 12
110.2273261911409
 22
136.6283740957152
 32
0.0
 13
110.2273261911409
 23
136.6283740957152
 33
0.0
  0
SOLID
  5
251
330
24C
100
AcDbEntity
  8
1
 62
     2
100
AcDbTrace
 10
193.477326191077
 20
135.9371984833814
 30
0.0
 11
193.477326191077
 21
137.319549708049
 31
0.0
 12
198.727326191077
 22
136.6283740957152
 32
0.0
 13
198.727326191077
 23
136.6283740957152
 33
0.0
  0
MTEXT
  5
252
330
24C
100
AcDbEntity
  8
1
 62
     7
100
AcDbMText
 10
150.5398261911459
 20
138.1283740957152
 30
0.0
 40
5.25
 41
0.0
 71
     7
 72
     1
  1
89
  7
CONVERTER_13
 11
0.9999999999970619
 21
2.424068405545306E-6
 31
0.0
 73
     1
 44
0.60024009603842
  0
ENDBLK
  5
254
330
24C
100
AcDbEntity
  8
0
100
AcDbBlockEnd
  0
ENDSEC
  0
SECTION
  2
ENTITIES
  0
INSERT
  5
56
330
1F
100
AcDbEntity
  8
0
100
AcDbBlockReference
  2
分岐コック
 10
208.5085730637618
 20
886.44455080691
 30
0.0
  0
INSERT
  5
57
330
1F
100
AcDbEntity
  8
1
100
AcDbBlockReference
  2
開示A4
 10
0.0
 20
0.0
 30
0.0
 41
1.5
 42
1.5
 43
1.5
  0
LINE
  5
191
330
1F
100
AcDbEntity
  8
1
  6
DASH_CENTER
 62
     2
100
AcDbLine
 10
136.4773261910908
 20
228.628374095753
 30
0.0
 11
136.4773261910908
 21
159.6283740957483
 31
0.0
  0
LINE
  5
192
330
1F
100
AcDbEntity
  8
outline
  6
Continuous
 62
     7
100
AcDbLine
 10
155.2273261910769
 20
316.2681274755244
 30
0.0
 11
155.2273261910769
 21
292.9681274755243
 31
0.0
  0
LINE
  5
193
330
1F
100
AcDbEntity
  8
outline
  6
Continuous
 62
     7
100
AcDbLine
 10
168.2273261910771
 20
297.1181274755243
 30
0.0
 11
168.2273261910771
 21
312.1181274755243
 31
0.0
  0
LINE
  5
194
330
1F
100
AcDbEntity
  8
outline
  6
Continuous
 62
     7
100
AcDbLine
 10
167.2273261910769
 20
316.2681274755244
 30
0.0
 11
167.2273261910769
 21
292.9681274755243
 31
0.0
  0
LINE
  5
195
330
1F
100
AcDbEntity
  8
outline
  6
Continuous
 62
     7
100
AcDbLine
 10
168.9279973395745
 20
298.1181274755243
 30
0.0
 11
168.2273261910771
 21
298.1181274755243
 31
0.0
  0
LINE
  5
196
330
1F
100
AcDbEntity
  8
outline
  6
Continuous
 62
     7
100
AcDbLine
 10
168.2273261910771
 20
297.1181274755243
 30
0.0
 11
167.2273261910769
 21
297.1181274755243
 31
0.0
  0
LINE
  5
197
330
1F
100
AcDbEntity
  8
outline
  6
Continuous
 62
     7
100
AcDbLine
 10
168.9279973395745
 20
311.1181274755243
 30
0.0
 11
168.2273261910769
 21
311.1181274755243
 31
0.0
  0
LINE
  5
198
330
1F
100
AcDbEntity
  8
outline
  6
Continuous
 62
     7
100
AcDbLine
 10
168.2273261910771
 20
312.1181274755243
 30
0.0
 11
167.2273261910769
 21
312.1181274755244
 31
0.0
  0
LINE
  5
199
330
1F
100
AcDbEntity
  8
center
  6
DASH_CENTER
 62
     2
100
AcDbLine
 10
101.9773261894044
 20
304.6181274755243
 30
0.0
 11
233.7273261910771
 21
304.6181274755243
 31
0.0
  0
LINE
  5
19A
330
1F
100
AcDbEntity
  8
center
  6
DASH_CENTER
 62
     2
100
AcDbLine
 10
183.7273261910771
 20
311.8681274755243
 30
0.0
 11
195.7273261910769
 21
311.8681274755243
 31
0.0
  0
LINE
  5
19B
330
1F
100
AcDbEntity
  8
center
  6
DASH_CENTER
 62
     2
100
AcDbLine
 10
206.2273261910769
 20
312.6181274755243
 30
0.0
 11
206.2273261910769
 21
296.6181274755243
 31
0.0
  0
LINE
  5
19C
330
1F
100
AcDbEntity
  8
center
  6
DASH_CENTER
 62
     2
100
AcDbLine
 10
179.2273261910771
 20
310.1181274755243
 30
0.0
 11
179.2273261910771
 21
299.1181274755243
 31
0.0
  0
LINE
  5
19D
330
1F
100
AcDbEntity
  8
outline
  6
Continuous
 62
     7
100
AcDbLine
 10
179.2273261910769
 20
307.6181274755243
 30
0.0
 11
176.9328314733737
 21
307.6181274755243
 31
0.0
  0
LINE
  5
19E
330
1F
100
AcDbEntity
  8
outline
  6
Continuous
 62
     7
100
AcDbLine
 10
179.2273261910769
 20
301.6181274755243
 30
0.0
 11
176.9328314733737
 21
301.6181274755243
 31
0.0
  0
LINE
  5
19F
330
1F
100
AcDbEntity
  8
outline
  6
Continuous
 62
     7
100
AcDbLine
 10
179.2273261910769
 20
308.1181274755243
 30
0.0
 11
177.5141227554806
 21
308.1181274755243
 31
0.0
  0
LINE
  5
1A0
330
1F
100
AcDbEntity
  8
outline
  6
Continuous
 62
     7
100
AcDbLine
 10
179.2273261910769
 20
301.1181274755243
 30
0.0
 11
177.5141227554806
 21
301.1181274755243
 31
0.0
  0
LINE
  5
1A1
330
1F
100
AcDbEntity
  8
outline
  6
Continuous
 62
     7
100
AcDbLine
 10
177.5141227554806
 20
308.1181274755243
 30
0.0
 11
176.9328314733737
 21
307.6181274755243
 31
0.0
  0
LINE
  5
1A2
330
1F
100
AcDbEntity
  8
outline
  6
Continuous
 62
     7
100
AcDbLine
 10
177.5141227554806
 20
301.1181274755243
 30
0.0
 11
176.9328314733737
 21
301.6181274755243
 31
0.0
  0
LINE
  5
1A3
330
1F
100
AcDbEntity
  8
center
  6
DASH_CENTER
 62
     2
100
AcDbLine
 10
189.7273261910771
 20
291.3681274755243
 30
0.0
 11
189.7273261910771
 21
317.8681274755243
 31
0.0
  0
LINE
  5
1A4
330
1F
100
AcDbEntity
  8
center
  6
DASH_CENTER
 62
     2
100
AcDbLine
 10
183.7273261910771
 20
297.3681274755243
 30
0.0
 11
195.7273261910769
 21
297.3681274755243
 31
0.0
  0
LINE
  5
1A5
330
1F
100
AcDbEntity
  8
outline
  6
Continuous
 62
     7
100
AcDbLine
 10
167.227326191077
 20
166.5738106444741
 30
0.0
 11
155.227326191077
 21
166.5738106444741
 31
0.0
  0
LINE
  5
1A6
330
1F
100
AcDbEntity
  8
outline
  6
Continuous
 62
     7
100
AcDbLine
 10
155.227326191077
 20
190.6829375469564
 30
0.0
 11
167.227326191077
 21
190.6829375469564
 31
0.0
  0
LINE
  5
1A7
330
1F
100
AcDbEntity
  8
outline
  6
Continuous
 62
     7
100
AcDbLine
 10
155.227326191077
 20
190.6829375469564
 30
0.0
 11
155.227326191077
 21
166.5738106444741
 31
0.0
  0
LINE
  5
1A8
330
1F
100
AcDbEntity
  8
outline
  6
Continuous
 62
     7
100
AcDbLine
 10
167.227326191077
 20
190.6829375469564
 30
0.0
 11
167.227326191077
 21
166.5738106444741
 31
0.0
  0
LINE
  5
1A9
330
1F
100
AcDbEntity
  8
outline
  6
Continuous
 62
     7
100
AcDbLine
 10
168.2273261910773
 20
171.1283740957152
 30
0.0
 11
167.227326191077
 21
171.1283740957152
 31
0.0
  0
LINE
  5
1AA
330
1F
100
AcDbEntity
  8
outline
  6
Continuous
 62
     7
100
AcDbLine
 10
168.2273261910769
 20
186.1283740957154
 30
0.0
 11
167.2273261910773
 21
186.1283740957154
 31
0.0
  0
LINE
  5
1AB
330
1F
100
AcDbEntity
  8
center
  6
DASH_CENTER
 62
     2
100
AcDbLine
 10
105.7273261912149
 20
178.6283740957152
 30
0.0
 11
233.727326191077
 21
178.6283740957152
 31
0.0
  0
LINE
  5
1AC
330
1F
100
AcDbEntity
  8
center
  6
DASH_CENTER
 62
     2
100
AcDbLine
 10
198.727326191077
 20
207.1283740957152
 30
0.0
 11
198.727326191077
 21
147.1283740957153
 31
0.0
  0
LINE
  5
1AD
330
1F
100
AcDbEntity
  8
outline
  6
Continuous
 62
     7
100
AcDbLine
 10
177.227326191077
 20
202.6283740957151
 30
0.0
 11
176.7273261910769
 21
202.1283740957151
 31
0.0
  0
LINE
  5
1AE
330
1F
100
AcDbEntity
  8
outline
  6
Continuous
 62
     7
100
AcDbLine
 10
220.2273261910769
 20
202.6283740957154
 30
0.0
 11
220.7273261910769
 21
202.1283740957154
 31
0.0
  0
LINE
  5
1AF
330
1F
100
AcDbEntity
  8
outline
  6
Continuous
 62
     7
100
AcDbLine
 10
177.227326191077
 20
202.6283740957151
 30
0.0
 11
220.2273261910769
 21
202.6283740957154
 31
0.0
  0
LINE
  5
1B0
330
1F
100
AcDbEntity
  8
outline
  6
Continuous
 62
     7
100
AcDbLine
 10
176.7273261910769
 20
202.1283740957151
 30
0.0
 11
176.7273261910769
 21
200.1283740957154
 31
0.0
  0
LINE
  5
1B1
330
1F
100
AcDbEntity
  8
outline
  6
Continuous
 62
     7
100
AcDbLine
 10
220.7273261910769
 20
202.1283740957154
 30
0.0
 11
220.727326191077
 21
200.1283740957154
 31
0.0
  0
LINE
  5
1B2
330
1F
100
AcDbEntity
  8
outline
  6
Continuous
 62
     7
100
AcDbLine
 10
169.227326191077
 20
193.6283740957154
 30
0.0
 11
228.227326191077
 21
193.6283740957154
 31
0.0
  0
LINE
  5
1B3
330
1F
100
AcDbEntity
  8
outline
  6
Continuous
 62
     7
100
AcDbLine
 10
175.268826191077
 20
200.1283740957151
 30
0.0
 11
222.185826191077
 21
200.1283740957154
 31
0.0
  0
LINE
  5
1B4
330
1F
100
AcDbEntity
  8
outline
  6
Continuous
 62
     7
100
AcDbLine
 10
222.727326191077
 20
199.586874095715
 30
0.0
 11
222.7273261910769
 21
195.6283740957154
 31
0.0
  0
LINE
  5
1B5
330
1F
100
AcDbEntity
  8
outline
  6
Continuous
 62
     7
100
AcDbLine
 10
174.7273261910769
 20
195.6283740957154
 30
0.0
 11
222.7273261910769
 21
195.6283740957154
 31
0.0
  0
LINE
  5
1B6
330
1F
100
AcDbEntity
  8
inline
  6
Continuous
 62
     2
100
AcDbLine
 10
222.185826191077
 20
200.1283740957154
 30
0.0
 11
222.185826191077
 21
195.6283740957154
 31
0.0
  0
LINE
  5
1B7
330
1F
100
AcDbEntity
  8
outline
  6
Continuous
 62
     7
100
AcDbLine
 10
222.185826191077
 20
195.6283740957154
 30
0.0
 11
222.185826191077
 21
193.6283740957154
 31
0.0
  0
LINE
  5
1B8
330
1F
100
AcDbEntity
  8
outline
  6
Continuous
 62
     7
100
AcDbLine
 10
168.2273261910769
 20
192.6283740957154
 30
0.0
 11
168.2273261910769
 21
169.6283740957152
 31
0.0
  0
LINE
  5
1B9
330
1F
100
AcDbEntity
  8
outline
  6
Continuous
 62
     7
100
AcDbLine
 10
229.227326191077
 20
192.6283740957154
 30
0.0
 11
229.227326191077
 21
169.6283740957152
 31
0.0
  0
LINE
  5
1BA
330
1F
100
AcDbEntity
  8
outline
  6
Continuous
 62
     7
100
AcDbLine
 10
169.227326191077
 20
168.6283740957152
 30
0.0
 11
228.2273261910769
 21
168.6283740957152
 31
0.0
  0
LINE
  5
1BB
330
1F
100
AcDbEntity
  8
outline
  6
Continuous
 62
     7
100
AcDbLine
 10
169.227326191077
 20
166.1283740957154
 30
0.0
 11
228.227326191077
 21
166.1283740957154
 31
0.0
  0
LINE
  5
1BC
330
1F
100
AcDbEntity
  8
outline
  6
Continuous
 62
     7
100
AcDbLine
 10
168.2273261910769
 20
165.1283740957154
 30
0.0
 11
168.2273261910769
 21
152.6283740957153
 31
0.0
  0
LINE
  5
1BD
330
1F
100
AcDbEntity
  8
outline
  6
Continuous
 62
     7
100
AcDbLine
 10
229.227326191077
 20
165.1283740957154
 30
0.0
 11
229.227326191077
 21
152.6283740957154
 31
0.0
  0
LINE
  5
1BE
330
1F
100
AcDbEntity
  8
outline
  6
Continuous
 62
     7
100
AcDbLine
 10
169.227326191077
 20
151.6283740957153
 30
0.0
 11
228.2273261910769
 21
151.6283740957154
 31
0.0
  0
LINE
  5
1BF
330
1F
100
AcDbEntity
  8
outline
  6
Continuous
 62
     7
100
AcDbLine
 10
172.2273261910769
 20
167.6283740957152
 30
0.0
 11
172.2273261910769
 21
166.1283740957152
 31
0.0
  0
LINE
  5
1C0
330
1F
100
AcDbEntity
  8
outline
  6
Continuous
 62
     7
100
AcDbLine
 10
225.227326191077
 20
167.6283740957154
 30
0.0
 11
225.227326191077
 21
166.1283740957154
 31
0.0
  0
LINE
  5
1C1
330
1F
100
AcDbEntity
  8
outline
  6
Continuous
 62
     7
100
AcDbLine
 10
174.727326191077
 20
199.586874095715
 30
0.0
 11
222.727326191077
 21
199.586874095715
 31
0.0
  0
LINE
  5
1C2
330
1F
100
AcDbEntity
  8
outline
  6
Continuous
 62
     7
100
AcDbLine
 10
176.7273261910769
 20
202.1283740957151
 30
0.0
 11
220.7273261910769
 21
202.1283740957154
 31
0.0
  0
LINE
  5
1C3
330
1F
100
AcDbEntity
  8
outline
  6
Continuous
 62
     7
100
AcDbLine
 10
222.185826191077
 20
200.1283740957154
 30
0.0
 11
222.727326191077
 21
199.586874095715
 31
0.0
  0
LINE
  5
1C4
330
1F
100
AcDbEntity
  8
outline
  6
Continuous
 62
     7
100
AcDbLine
 10
175.268826191077
 20
200.1283740957151
 30
0.0
 11
174.727326191077
 21
199.586874095715
 31
0.0
  0
LINE
  5
1C5
330
1F
100
AcDbEntity
  8
inline
  6
Continuous
 62
     2
100
AcDbLine
 10
175.268826191077
 20
200.1283740957151
 30
0.0
 11
175.268826191077
 21
195.6283740957154
 31
0.0
  0
LINE
  5
1C6
330
1F
100
AcDbEntity
  8
outline
  6
Continuous
 62
     7
100
AcDbLine
 10
175.268826191077
 20
195.6283740957154
 30
0.0
 11
175.268826191077
 21
193.6283740957151
 31
0.0
  0
LINE
  5
1C7
330
1F
100
AcDbEntity
  8
outline
  6
Continuous
 62
     7
100
AcDbLine
 10
174.727326191077
 20
199.586874095715
 30
0.0
 11
174.7273261910769
 21
195.6283740957154
 31
0.0
  0
LINE
  5
1C8
330
1F
100
AcDbEntity
  8
1
  6
DASH_CENTER
 62
     2
100
AcDbLine
 10
198.727326191077
 20
269.6181274755243
 30
0.0
 11
198.727326191077
 21
339.6181274755245
 31
0.0
  0
ARC
  5
1C9
330
1F
100
AcDbEntity
  8
outline
  6
Continuous
 62
     7
100
AcDbCircle
 10
161.2273261910769
 20
303.4181274755242
 30
0.0
 40
12.04999999999994
100
AcDbArc
 50
240.1371656437247
 51
299.8628343562753
  0
ARC
  5
1CA
330
1F
100
AcDbEntity
  8
outline
  6
Continuous
 62
     7
100
AcDbCircle
 10
161.2273261910769
 20
305.8181274755243
 30
0.0
 40
12.05000000000009
100
AcDbArc
 50
60.13716564372514
 51
119.8628343562749
  0
ARC
  5
1CB
330
1F
100
AcDbEntity
  8
outline
  6
Continuous
 62
     7
100
AcDbCircle
 10
198.727326191077
 20
304.6181274755244
 30
0.0
 40
21.49999999999998
100
AcDbArc
 50
189.368915578455
 51
170.6310844215453
  0
ARC
  5
1CC
330
1F
100
AcDbEntity
  8
outline
  6
Continuous
 62
     7
100
AcDbCircle
 10
179.2273261910769
 20
304.6181274755243
 30
0.0
 40
3.0
100
AcDbArc
 50
270.0
 51
90.0
  0
ARC
  5
1CD
330
1F
100
AcDbEntity
  8
outline
  6
Continuous
 62
     7
100
AcDbCircle
 10
179.2273261910769
 20
304.6181274755243
 30
0.0
 40
3.5
100
AcDbArc
 50
270.0
 51
90.0
  0
ARC
  5
1CE
330
1F
100
AcDbEntity
  8
outline
  6
Continuous
 62
     7
100
AcDbCircle
 10
169.227326191077
 20
192.6283740957154
 30
0.0
 40
1.0
100
AcDbArc
 50
90.0
 51
180.0
  0
ARC
  5
1CF
330
1F
100
AcDbEntity
  8
outline
  6
Continuous
 62
     7
100
AcDbCircle
 10
228.227326191077
 20
192.6283740957154
 30
0.0
 40
1.0
100
AcDbArc
 50
0.0
 51
90.0
  0
ARC
  5
1D0
330
1F
100
AcDbEntity
  8
outline
  6
Continuous
 62
     7
100
AcDbCircle
 10
169.227326191077
 20
169.6283740957152
 30
0.0
 40
1.000000000000085
100
AcDbArc
 50
180.0
 51
270.0
  0
ARC
  5
1D1
330
1F
100
AcDbEntity
  8
outline
  6
Continuous
 62
     7
100
AcDbCircle
 10
228.2273261910769
 20
169.6283740957152
 30
0.0
 40
1.0
100
AcDbArc
 50
270.0
 51
0.0
  0
ARC
  5
1D2
330
1F
100
AcDbEntity
  8
outline
  6
Continuous
 62
     7
100
AcDbCircle
 10
169.227326191077
 20
165.1283740957154
 30
0.0
 40
1.0
100
AcDbArc
 50
90.0
 51
180.0
  0
ARC
  5
1D3
330
1F
100
AcDbEntity
  8
outline
  6
Continuous
 62
     7
100
AcDbCircle
 10
228.227326191077
 20
165.1283740957154
 30
0.0
 40
1.0
100
AcDbArc
 50
0.0
 51
90.0
  0
ARC
  5
1D4
330
1F
100
AcDbEntity
  8
outline
  6
Continuous
 62
     7
100
AcDbCircle
 10
228.2273261910769
 20
152.6283740957154
 30
0.0
 40
1.0
100
AcDbArc
 50
270.0
 51
0.0
  0
ARC
  5
1D5
330
1F
100
AcDbEntity
  8
outline
  6
Continuous
 62
     7
100
AcDbCircle
 10
169.227326191077
 20
152.6283740957153
 30
0.0
 40
1.000000000000085
100
AcDbArc
 50
180.0
 51
270.0
  0
ARC
  5
1D6
330
1F
100
AcDbEntity
  8
outline
  6
Continuous
 62
     7
100
AcDbCircle
 10
171.2273261910769
 20
167.6283740957152
 30
0.0
 40
1.0
100
AcDbArc
 50
0.0
 51
90.0
  0
ARC
  5
1D7
330
1F
100
AcDbEntity
  8
outline
  6
Continuous
 62
     7
100
AcDbCircle
 10
226.227326191077
 20
167.6283740957154
 30
0.0
 40
1.0
100
AcDbArc
 50
90.0
 51
180.0
  0
CIRCLE
  5
1D8
330
1F
100
AcDbEntity
  8
outline
  6
Continuous
 62
     7
100
AcDbCircle
 10
198.727326191077
 20
304.6181274755244
 30
0.0
 40
30.50000000000011
  0
CIRCLE
  5
1D9
330
1F
100
AcDbEntity
  8
outline
  6
Continuous
 62
     7
100
AcDbCircle
 10
198.727326191077
 20
304.6181274755244
 30
0.0
 40
22.00000000000011
  0
CIRCLE
  5
1DA
330
1F
100
AcDbEntity
  8
outline
  6
Continuous
 62
     7
100
AcDbCircle
 10
198.727326191077
 20
304.6181274755244
 30
0.0
 40
24.00000000000011
  0
CIRCLE
  5
1DB
330
1F
100
AcDbEntity
  8
outline
  6
Continuous
 62
     7
100
AcDbCircle
 10
206.2273261910769
 20
304.6181274755243
 30
0.0
 40
6.0
  0
CIRCLE
  5
1DC
330
1F
100
AcDbEntity
  8
outline
  6
Continuous
 62
     7
100
AcDbCircle
 10
189.7273261910771
 20
311.8681274755243
 30
0.0
 40
4.0
  0
CIRCLE
  5
1DD
330
1F
100
AcDbEntity
  8
outline
  6
Continuous
 62
     7
100
AcDbCircle
 10
189.7273261910771
 20
311.8681274755243
 30
0.0
 40
3.5
  0
CIRCLE
  5
1DE
330
1F
100
AcDbEntity
  8
outline
  6
Continuous
 62
     7
100
AcDbCircle
 10
189.7273261910771
 20
297.3681274755243
 30
0.0
 40
4.000000000000058
  0
CIRCLE
  5
1DF
330
1F
100
AcDbEntity
  8
outline
  6
Continuous
 62
     7
100
AcDbCircle
 10
189.7273261910771
 20
297.3681274755243
 30
0.0
 40
3.5
  0
CIRCLE
  5
1E0
330
1F
100
AcDbEntity
  8
outline
  6
Continuous
 62
     7
100
AcDbCircle
 10
198.727326191077
 20
304.6181274755244
 30
0.0
 40
22.50000000000011
  0
CIRCLE
  5
1E1
330
1F
100
AcDbEntity
  8
inline
  6
Continuous
 62
     2
100
AcDbCircle
 10
198.727326191077
 20
304.6181274755244
 30
0.0
 40
23.45850000000002
  0
SPLINE
  5
1E2
330
1F
100
AcDbEntity
  8
1
  6
Continuous
 62
     7
100
AcDbSpline
210
0.0
220
0.0
230
1.0
 70
    11
 71
     3
 72
    79
 73
    75
 74
    73
 42
0.000000001
 43
0.0000000001
 44
0.00000001
 40
0.0
 40
0.0
 40
0.0
 40
0.0
 40
0.3050593144645308
 40
0.6098394267306283
 40
0.9349604253343984
 40
1.259699857726039
 40
1.613345503038063
 40
1.966661884081093
 40
2.352521264016754
 40
2.73814455298751
 40
3.155654060797747
 40
3.573006709026984
 40
4.018266557340484
 40
4.463427186325501
 40
4.930114883140957
 40
5.396744577495494
 40
5.876908449466733
 40
6.357045598853468
 40
6.841795289273573
 40
7.326544979693753
 40
7.806682129080537
 40
8.286846001050833
 40
8.753475695401804
 40
9.220163392208391
 40
9.665324021176332
 40
10.11058386945935
 40
10.52793651764139
 40
10.94544602537743
 40
11.33106931424481
 40
11.71692869402824
 40
12.07024507486925
 40
12.42389071988771
 40
12.74863015186999
 40
13.07375114977075
 40
13.37853125996751
 40
13.68359058164144
 40
13.98125591022581
 40
14.27892123880915
 40
14.58398056047985
 40
14.88876067067133
 40
15.2138816685651
 40
15.53862110053946
 40
15.89226674554875
 40
16.24558312638036
 40
16.6314425061537
 40
17.01706579501153
 40
17.43457530273769
 40
17.85192795091055
 40
18.29718779918448
 40
18.74234842814415
 40
19.20903612494283
 40
19.67566581928664
 40
20.15582969125032
 40
20.63596684063157
 40
21.12071653104715
 40
21.60546622146373
 40
22.08560337084808
 40
22.56576724281805
 40
23.0323969371726
 40
23.49908463398928
 40
23.9442452629766
 40
24.38950511129314
 40
24.80685775952543
 40
25.22436726733795
 40
25.60999055630843
 40
25.99584993623841
 40
26.34916631726551
 40
26.70281196253739
 40
27.02755139483246
 40
27.35267239314811
 40
27.65745250388224
 40
27.9625118263563
 40
28.26017715710073
 40
28.5578424787412
 40
28.5578424787412
 40
28.5578424787412
 40
28.5578424787412
 10
166.720689151763
 20
314.3349871160327
 30
0.0
 10
166.7020066580756
 20
314.4351253917009
 30
0.0
 10
166.6646587784813
 20
314.635310294389
 30
0.0
 10
166.5531665166509
 20
314.9278889732894
 30
0.0
 10
166.4056519387731
 20
315.2105366077054
 30
0.0
 10
166.2148318231272
 20
315.4862453470053
 30
0.0
 10
165.9892330981565
 20
315.746638700666
 30
0.0
 10
165.7238994458585
 20
315.9970080818493
 30
0.0
 10
165.4283866581432
 20
316.2285744185144
 30
0.0
 10
165.0968883046287
 20
316.4465274869997
 30
0.0
 10
164.7403201148659
 20
316.6432190742298
 30
0.0
 10
164.3528076660022
 20
316.8226175758124
 30
0.0
 10
163.9455434748919
 20
316.9789559647144
 30
0.0
 10
163.5137436810593
 20
317.1147079707918
 30
0.0
 10
163.0676819114462
 20
317.2261004809087
 30
0.0
 10
162.6046177708639
 20
317.3143522486024
 30
0.0
 10
162.1329286803064
 20
317.3773873258772
 30
0.0
 10
161.6525434076816
 20
317.4156776175371
 30
0.0
 10
161.1692711772937
 20
317.4283228436204
 30
0.0
 10
160.6859989468902
 20
317.415677617523
 30
0.0
 10
160.2056136743141
 20
317.3773873258455
 30
0.0
 10
159.7339245835868
 20
317.3143522485942
 30
0.0
 10
159.2708604436295
 20
317.2261004808208
 30
0.0
 10
158.8247986717458
 20
317.1147079710698
 30
0.0
 10
158.3929988860262
 20
316.9789559638534
 30
0.0
 10
157.9857346655752
 20
316.822617579355
 30
0.0
 10
157.5982223196884
 20
316.6432190627331
 30
0.0
 10
157.2416537604457
 20
316.4465275300527
 30
0.0
 10
156.9101566859044
 20
316.2285742735043
 30
0.0
 10
156.6146393356574
 20
315.997008608736
 30
0.0
 10
156.3493213523213
 20
315.7466369213253
 30
0.0
 10
156.1236667732258
 20
315.486251790162
 30
0.0
 10
155.9330390355348
 20
315.2105147322648
 30
0.0
 10
155.7848335855952
 20
314.9279687996354
 30
0.0
 10
155.6757678915552
 20
314.6350329139905
 30
0.0
 10
155.6113234480376
 20
314.3384421335487
 30
0.0
 10
155.5885244553259
 20
314.0381205146319
 30
0.0
 10
155.6113234480271
 20
313.7377988957156
 30
0.0
 10
155.6757678915343
 20
313.4412081152746
 30
0.0
 10
155.7848335855645
 20
313.1482722296316
 30
0.0
 10
155.9330390354943
 20
312.8657262970045
 30
0.0
 10
156.1236667731762
 20
312.5899892391108
 30
0.0
 10
156.3493213522631
 20
312.3296041079516
 30
0.0
 10
156.6146393355911
 20
312.0792324205463
 30
0.0
 10
156.9101566858308
 20
311.8476667557842
 30
0.0
 10
157.2416537603649
 20
311.6297134992427
 30
0.0
 10
157.5982223196015
 20
311.4330219665705
 30
0.0
 10
157.9857346654823
 20
311.2536234499581
 30
0.0
 10
158.3929988859281
 20
311.0972850654708
 30
0.0
 10
158.8247986716431
 20
310.9615330582673
 30
0.0
 10
159.2708604435223
 20
310.8501405485312
 30
0.0
 10
159.7339245834756
 20
310.7618887807744
 30
0.0
 10
160.2056136741988
 20
310.6988537035428
 30
0.0
 10
160.6859989467719
 20
310.6605634118866
 30
0.0
 10
161.1692711771684
 20
310.6479181858146
 30
0.0
 10
161.6525434075639
 20
310.6605634119241
 30
0.0
 10
162.1329286801406
 20
310.6988537036227
 30
0.0
 10
162.6046177708516
 20
310.7618887809052
 30
0.0
 10
163.0676819108485
 20
310.850140548735
 30
0.0
 10
163.5137436825649
 20
310.9615330585342
 30
0.0
 10
163.9455434688511
 20
311.0972850659342
 30
0.0
 10
164.3528076872092
 20
311.2536234502558
 30
0.0
 10
164.7403200403808
 20
311.4330219681192
 30
0.0
 10
165.0968885733987
 20
311.6297134971491
 30
0.0
 10
165.4283857385985
 20
311.8476667673017
 30
0.0
 10
165.7239027652645
 20
312.0792323847445
 30
0.0
 10
165.9892218596337
 20
312.3296042360759
 30
0.0
 10
166.2148724779755
 20
312.5899887846192
 30
0.0
 10
166.4055138572305
 20
312.8657278511492
 30
0.0
 10
166.5536703166584
 20
313.1482665726622
 30
0.0
 10
166.6629080806201
 20
313.4412277888269
 30
0.0
 10
166.7267237647248
 20
313.7377260133105
 30
0.0
 10
166.7518162173467
 20
314.0383852427146
 30
0.0
 10
166.7310648370494
 20
314.2361198256675
 30
0.0
 10
166.720689151763
 20
314.3349871160327
 30
0.0
 11
166.720689151763
 21
314.3349871160327
 31
0.0
 11
166.6557899922276
 21
314.6330630944559
 31
0.0
 11
166.5503900631435
 21
314.9190382167903
 31
0.0
 11
166.399797579796
 21
315.2071797919035
 31
0.0
 11
166.2158960130184
 21
315.4748286523214
 31
0.0
 11
165.9848923265732
 21
315.7426019503741
 31
0.0
 11
165.7284353120909
 21
315.9856292425497
 31
0.0
 11
165.4252211295489
 21
316.2242683435325
 31
0.0
 11
165.1033071602654
 21
316.4365811253712
 31
0.0
 11
164.7380688940129
 21
316.6388561805441
 31
0.0
 11
164.3594982701445
 21
316.8145477162261
 31
0.0
 11
163.944007793413
 21
316.9746226869598
 31
0.0
 11
163.5194165516949
 21
317.1083771749232
 31
0.0
 11
163.0667261091084
 21
317.2218177741301
 31
0.0
 11
162.6083716774894
 21
317.3093076973709
 31
0.0
 11
162.1324701808487
 21
317.3731442812536
 31
0.0
 11
161.6538522123476
 21
317.41130869464
 31
0.0
 11
161.1692711673294
 21
317.4240943573505
 31
0.0
 11
160.6846901223113
 21
317.4113086946401
 31
0.0
 11
160.2060721538104
 21
317.3731442812536
 31
0.0
 11
159.7301706571697
 21
317.309307697371
 31
0.0
 11
159.2718162255507
 21
317.2218177741302
 31
0.0
 11
158.8191257829642
 21
317.1083771749232
 31
0.0
 11
158.3945345412461
 21
316.9746226869598
 31
0.0
 11
157.9790440645146
 21
316.8145477162261
 31
0.0
 11
157.6004734406462
 21
316.6388561805442
 31
0.0
 11
157.2352351743937
 21
316.4365811253712
 31
0.0
 11
156.9133212051104
 21
316.2242683435325
 31
0.0
 11
156.6101070225683
 21
315.9856292425497
 31
0.0
 11
156.3536500080861
 21
315.7426019503741
 31
0.0
 11
156.1226463216408
 21
315.4748286523215
 31
0.0
 11
155.9387447548632
 21
315.2071797919035
 31
0.0
 11
155.7881522715156
 21
314.9190382167903
 31
0.0
 11
155.6827523424315
 21
314.6330630944559
 31
0.0
 11
155.6178531828962
 21
314.3349871160327
 31
0.0
 11
155.5960617012051
 21
314.0381205142596
 31
0.0
 11
155.6178531828961
 21
313.7412539124864
 31
0.0
 11
155.6827523424315
 21
313.4431779340632
 31
0.0
 11
155.7881522715156
 21
313.1572028117288
 31
0.0
 11
155.9387447548631
 21
312.8690612366156
 31
0.0
 11
156.1226463216408
 21
312.6014123761976
 31
0.0
 11
156.3536500080861
 21
312.3336390781449
 31
0.0
 11
156.6101070225684
 21
312.0906117859694
 31
0.0
 11
156.9133212051104
 21
311.8519726849867
 31
0.0
 11
157.2352351743937
 21
311.639659903148
 31
0.0
 11
157.6004734406462
 21
311.437384847975
 31
0.0
 11
157.9790440645145
 21
311.2616933122929
 31
0.0
 11
158.3945345412461
 21
311.1016183415592
 31
0.0
 11
158.8191257829642
 21
310.9678638535959
 31
0.0
 11
159.2718162255508
 21
310.8544232543891
 31
0.0
 11
159.7301706571698
 21
310.7669333311483
 31
0.0
 11
160.2060721538103
 21
310.7030967472656
 31
0.0
 11
160.6846901223113
 21
310.6649323338791
 31
0.0
 11
161.1692711673294
 21
310.6521466711686
 31
0.0
 11
161.6538522123477
 21
310.6649323338792
 31
0.0
 11
162.1324701808487
 21
310.7030967472656
 31
0.0
 11
162.6083716774893
 21
310.7669333311484
 31
0.0
 11
163.0667261091083
 21
310.8544232543891
 31
0.0
 11
163.5194165516948
 21
310.9678638535959
 31
0.0
 11
163.944007793413
 21
311.1016183415593
 31
0.0
 11
164.3594982701446
 21
311.2616933122929
 31
0.0
 11
164.738068894013
 21
311.437384847975
 31
0.0
 11
165.1033071602656
 21
311.6396599031481
 31
0.0
 11
165.4252211295489
 21
311.8519726849867
 31
0.0
 11
165.7284353120909
 21
312.0906117859694
 31
0.0
 11
165.9848923265732
 21
312.3336390781449
 31
0.0
 11
166.2158960130184
 21
312.6014123761976
 31
0.0
 11
166.3997975797959
 21
312.8690612366156
 31
0.0
 11
166.5503900631434
 21
313.1572028117287
 31
0.0
 11
166.6557899922275
 21
313.4431779340631
 31
0.0
 11
166.720689151763
 21
313.7412539124865
 31
0.0
 11
166.7424806334541
 21
314.0381205142596
 31
0.0
 11
166.720689151763
 21
314.3349871160327
 31
0.0
  0
SPLINE
  5
1E3
330
1F
100
AcDbEntity
  8
1
  6
Continuous
 62
     7
100
AcDbSpline
210
0.0
220
0.0
230
1.0
 70
    11
 71
     3
 72
    79
 73
    75
 74
    73
 42
0.000000001
 43
0.0000000001
 44
0.00000001
 40
0.0
 40
0.0
 40
0.0
 40
0.0
 40
0.477583798087474
 40
0.9551633046592971
 40
1.433518909476242
 40
1.911866496801623
 40
2.391400724651546
 40
2.870924287763529
 40
3.351899523006194
 40
3.832862818167384
 40
4.315366202001343
 40
4.797857840775762
 40
5.28179226792451
 40
5.765716524258979
 40
6.250813809635465
 40
6.735903639490616
 40
7.221757597623276
 40
7.707607620771944
 40
8.193722744717219
 40
8.679837868649477
 40
9.165687891759617
 40
9.651541849828046
 40
10.13663167959364
 40
10.62172896485495
 40
11.10565322104895
 40
11.58958764803134
 40
12.07207928661398
 40
12.55458267022954
 40
13.03554596514527
 40
13.51652120011209
 40
13.99604476291323
 40
14.47557899040492
 40
14.95392657729282
 40
15.43228218149346
 40
15.90986168679133
 40
16.3874454938502
 40
16.8647594723241
 40
17.34207345079716
 40
17.81965725785306
 40
18.29723676314586
 40
18.77559236733974
 40
19.25393995421903
 40
19.73347418170031
 40
20.2129977444894
 40
20.69397297944245
 40
21.17493627434271
 40
21.65743965794126
 40
22.1399312965056
 40
22.62386572346831
 40
23.10778997964146
 40
23.59288726488077
 40
24.0779770946233
 40
24.56383105266781
 40
25.0496810757532
 40
25.53579619965997
 40
26.0219113235791
 40
26.50776134670109
 40
26.99361530480654
 40
27.47870513463395
 40
27.96380241998228
 40
28.44772667628806
 40
28.93166110340747
 40
29.41415274215154
 40
29.89665612595376
 40
30.37761942108043
 40
30.85859465628408
 40
31.33811821934802
 40
31.81765244713136
 40
32.29600003434461
 40
32.77435563891623
 40
33.2519351446627
 40
33.72951895234683
 40
34.20683293210268
 40
34.68414690160935
 40
34.68414690160935
 40
34.68414690160935
 40
34.68414690160935
 10
166.7212203194982
 20
305.09496773526
 30
0.0
 10
166.7030313578032
 20
305.2532267286505
 30
0.0
 10
166.6666536026881
 20
305.5697432939101
 30
0.0
 10
166.5586901884063
 20
306.0362037878082
 30
0.0
 10
166.4130018621165
 20
306.4920701194359
 30
0.0
 10
166.2262751498693
 20
306.9336340633905
 30
0.0
 10
166.0015903763669
 20
307.3575056193397
 30
0.0
 10
165.739740595947
 20
307.7605500050719
 30
0.0
 10
165.4434706499475
 20
308.1396066432929
 30
0.0
 10
165.1143379003147
 20
308.4918645717011
 30
0.0
 10
164.7555471586076
 20
308.8146168795117
 30
0.0
 10
164.3691522370875
 20
309.1053936883267
 30
0.0
 10
163.9587523529602
 20
309.3620673387947
 30
0.0
 10
163.5268567508502
 20
309.5825511222297
 30
0.0
 10
163.0773080023131
 20
309.765378102
 30
0.0
 10
162.6130420643495
 20
309.9089002739311
 30
0.0
 10
162.1379803442208
 20
310.0123471407297
 30
0.0
 10
161.6554421036626
 20
310.0745771112757
 30
0.0
 10
161.1692711768145
 20
310.0955079006973
 30
0.0
 10
160.6831002499536
 20
310.0745771116852
 30
0.0
 10
160.2005620094059
 20
310.0123471415467
 30
0.0
 10
159.7255002891637
 20
309.9089002751662
 30
0.0
 10
159.261234351501
 20
309.7653781036169
 30
0.0
 10
158.8116856016747
 20
309.5825511243701
 30
0.0
 10
158.3797900041487
 20
309.3620673409372
 30
0.0
 10
157.969390102672
 20
309.1053936924279
 30
0.0
 10
157.5829952453961
 20
308.8146168783008
 30
0.0
 10
157.2242042639447
 20
308.4918645922874
 30
0.0
 10
156.8950724058782
 20
308.1396065848101
 30
0.0
 10
156.5987991374654
 20
307.7605502432777
 30
0.0
 10
156.3369617201574
 20
307.3575047556319
 30
0.0
 10
156.1122308722589
 20
306.933637308488
 30
0.0
 10
155.9256757059274
 20
306.4920580689604
 30
0.0
 10
155.7793478265083
 20
306.0362487650795
 30
0.0
 10
155.6737675767751
 20
305.5695757702147
 30
0.0
 10
155.6103216372485
 20
305.0956822679266
 30
0.0
 10
155.5889337628969
 20
304.618127476162
 30
0.0
 10
155.6103216372206
 20
304.140572684397
 30
0.0
 10
155.6737675767193
 20
303.6666791821082
 30
0.0
 10
155.7793478264245
 20
303.2000061872421
 30
0.0
 10
155.9256757058158
 20
302.7441968833594
 30
0.0
 10
156.1122308721197
 20
302.3026176438295
 30
0.0
 10
156.3369617199905
 20
301.8787501966826
 30
0.0
 10
156.598799137271
 20
301.4757047090334
 30
0.0
 10
156.8950724056565
 20
301.096648367497
 30
0.0
 10
157.2242042636956
 20
300.7443903600153
 30
0.0
 10
157.5829952451198
 20
300.4216380739969
 30
0.0
 10
157.9693901023686
 20
300.1308612598642
 30
0.0
 10
158.3797900038184
 20
299.8741876113489
 30
0.0
 10
158.8116856013177
 20
299.6537038279094
 30
0.0
 10
159.2612343511174
 20
299.4708768486558
 30
0.0
 10
159.7255002887538
 20
299.3273546770988
 30
0.0
 10
160.2005620089696
 20
299.2239078107099
 30
0.0
 10
160.6831002494916
 20
299.1616778405624
 30
0.0
 10
161.169271176325
 20
299.1407470515408
 30
0.0
 10
161.6554421031534
 20
299.1616778409513
 30
0.0
 10
162.1379803436638
 20
299.2239078114882
 30
0.0
 10
162.6130420638507
 20
299.3273546782659
 30
0.0
 10
163.0773080014793
 20
299.4708768502152
 30
0.0
 10
163.5268567511483
 20
299.6537038298515
 30
0.0
 10
163.9587523489294
 20
299.8741876137128
 30
0.0
 10
164.3691522490774
 20
300.1308612625101
 30
0.0
 10
164.755547110871
 20
300.4216380774496
 30
0.0
 10
165.1143380750104
 20
300.744390362331
 30
0.0
 10
165.443469996954
 20
301.0966483759204
 30
0.0
 10
165.7397430267674
 20
301.4757046965987
 30
0.0
 10
166.0015813313084
 20
301.8787502637868
 30
0.0
 10
166.2263088719936
 20
302.3026174164793
 30
0.0
 10
166.4128763510662
 20
302.7441977543607
 30
0.0
 10
166.5591583254975
 20
303.2000029655491
 30
0.0
 10
166.6649096297714
 20
303.6666912134049
 30
0.0
 10
166.7277175136567
 20
304.1405278232529
 30
0.0
 10
166.7514853783907
 20
304.6182948289829
 30
0.0
 10
166.731308670769
 20
304.9360767675424
 30
0.0
 10
166.7212203194982
 20
305.09496773526
 30
0.0
 11
166.7212203194982
 21
305.09496773526
 31
0.0
 11
166.6577636054772
 21
305.5683170126612
 31
0.0
 11
166.5524825842717
 21
306.0341475512235
 31
0.0
 11
166.4061998918933
 21
306.4895874025542
 31
0.0
 11
166.2201465324518
 21
306.9302693303845
 31
0.0
 11
165.9954690055868
 21
307.3539119680489
 31
0.0
 11
165.7343311766581
 21
307.7560933721024
 31
0.0
 11
165.4380987047893
 21
308.1350175062481
 31
0.0
 11
165.109821568207
 21
308.4865282640082
 31
0.0
 11
164.7510707435881
 21
308.8091849874705
 31
0.0
 11
164.3656129841148
 21
309.099392666752
 31
0.0
 11
163.9552924396605
 21
309.3559654255523
 31
0.0
 11
163.5243286048162
 21
309.5760855266776
 31
0.0
 11
163.0749534463667
 21
309.7587911457925
 31
0.0
 11
162.6115296304914
 21
309.902145636235
 31
0.0
 11
162.1367888950514
 21
310.0054669930881
 31
0.0
 11
161.654939178643
 21
310.0676851241956
 31
0.0
 11
161.1692711673294
 21
310.0885297056414
 31
0.0
 11
160.683603156016
 21
310.0676851241956
 31
0.0
 11
160.2017534396077
 21
310.0054669930881
 31
0.0
 11
159.7270127041679
 21
309.902145636235
 31
0.0
 11
159.2635888882925
 21
309.7587911457925
 31
0.0
 11
158.8142137298429
 21
309.5760855266775
 31
0.0
 11
158.3832498949986
 21
309.3559654255523
 31
0.0
 11
157.9729293505444
 21
309.099392666752
 31
0.0
 11
157.587471591071
 21
308.8091849874704
 31
0.0
 11
157.2287207664521
 21
308.4865282640082
 31
0.0
 11
156.9004436298698
 21
308.135017506248
 31
0.0
 11
156.6042111580012
 21
307.7560933721024
 31
0.0
 11
156.3430733290726
 21
307.3539119680489
 31
0.0
 11
156.1183958022075
 21
306.9302693303846
 31
0.0
 11
155.9323424427658
 21
306.4895874025543
 31
0.0
 11
155.7860597503875
 21
306.0341475512236
 31
0.0
 11
155.680778729182
 21
305.5683170126613
 31
0.0
 11
155.6173220151612
 21
305.09496773526
 31
0.0
 11
155.5960617012051
 21
304.6181274755244
 31
0.0
 11
155.6173220151611
 21
304.1412872157887
 31
0.0
 11
155.680778729182
 21
303.6679379383874
 31
0.0
 11
155.7860597503875
 21
303.2021073998252
 31
0.0
 11
155.9323424427658
 21
302.7466675484945
 31
0.0
 11
156.1183958022075
 21
302.3059856206642
 31
0.0
 11
156.3430733290727
 21
301.8823429829998
 31
0.0
 11
156.6042111580014
 21
301.4801615789463
 31
0.0
 11
156.9004436298701
 21
301.1012374448007
 31
0.0
 11
157.2287207664523
 21
300.7497266870405
 31
0.0
 11
157.5874715910711
 21
300.4270699635782
 31
0.0
 11
157.9729293505444
 21
300.1368622842966
 31
0.0
 11
158.3832498949986
 21
299.8802895254963
 31
0.0
 11
158.8142137298429
 21
299.660169424371
 31
0.0
 11
159.2635888882926
 21
299.4774638052561
 31
0.0
 11
159.7270127041678
 21
299.3341093148136
 31
0.0
 11
160.2017534396077
 21
299.2307879579606
 31
0.0
 11
160.683603156016
 21
299.1685698268532
 31
0.0
 11
161.1692711673294
 21
299.1477252454073
 31
0.0
 11
161.6549391786429
 21
299.1685698268532
 31
0.0
 11
162.1367888950514
 21
299.2307879579607
 31
0.0
 11
162.6115296304914
 21
299.3341093148138
 31
0.0
 11
163.0749534463667
 21
299.4774638052563
 31
0.0
 11
163.5243286048162
 21
299.6601694243711
 31
0.0
 11
163.9552924396605
 21
299.8802895254964
 31
0.0
 11
164.3656129841148
 21
300.1368622842967
 31
0.0
 11
164.7510707435881
 21
300.4270699635782
 31
0.0
 11
165.1098215682071
 21
300.7497266870405
 31
0.0
 11
165.4380987047892
 21
301.1012374448006
 31
0.0
 11
165.7343311766579
 21
301.4801615789463
 31
0.0
 11
165.9954690055866
 21
301.8823429829998
 31
0.0
 11
166.2201465324518
 21
302.3059856206642
 31
0.0
 11
166.4061998918935
 21
302.7466675484945
 31
0.0
 11
166.5524825842718
 21
303.2021073998252
 31
0.0
 11
166.6577636054773
 21
303.6679379383874
 31
0.0
 11
166.7212203194981
 21
304.1412872157887
 31
0.0
 11
166.7424806334542
 21
304.6181274755244
 31
0.0
 11
166.7212203194982
 21
305.09496773526
 31
0.0
  0
SPLINE
  5
1E4
330
1F
100
AcDbEntity
  8
1
  6
Continuous
 62
     7
100
AcDbSpline
210
0.0
220
0.0
230
1.0
 70
    11
 71
     3
 72
    79
 73
    75
 74
    73
 42
0.000000001
 43
0.0000000001
 44
0.00000001
 40
0.0
 40
0.0
 40
0.0
 40
0.0
 40
0.3050593144645308
 40
0.6098394267305216
 40
0.934960425334342
 40
1.259699857726029
 40
1.613345503038097
 40
1.966661884081087
 40
2.352521264016783
 40
2.738144552987508
 40
3.155654060797718
 40
3.573006709026979
 40
4.018266557340478
 40
4.463427186325496
 40
4.93011488314098
 40
5.396744577495506
 40
5.876908449466744
 40
6.357045598853479
 40
6.841795289273582
 40
7.326544979693763
 40
7.806682129080547
 40
8.286846001050858
 40
8.75347569540185
 40
9.220163392208411
 40
9.665324021176334
 40
10.11058386945933
 40
10.52793651764142
 40
10.94544602537741
 40
11.33106931424479
 40
11.71692869402822
 40
12.07024507486923
 40
12.42389071988772
 40
12.74863015187
 40
13.07375114977082
 40
13.37853125996753
 40
13.6835905816414
 40
13.98125591022583
 40
14.27892123880911
 40
14.58398056047986
 40
14.8887606706714
 40
15.21388166856507
 40
15.53862110053947
 40
15.89226674554867
 40
16.24558312638025
 40
16.63144250615362
 40
17.01706579501142
 40
17.43457530273766
 40
17.8519279509105
 40
18.29718779918443
 40
18.7423484281441
 40
19.20903612494278
 40
19.67566581928659
 40
20.15582969125026
 40
20.63596684063151
 40
21.12071653104709
 40
21.60546622146368
 40
22.08560337084803
 40
22.56576724281799
 40
23.03239693717255
 40
23.49908463398923
 40
23.94424526297651
 40
24.38950511129308
 40
24.8068577595254
 40
25.22436726733789
 40
25.6099905563084
 40
25.99584993623834
 40
26.34916631726545
 40
26.70281196253737
 40
27.02755139483239
 40
27.35267239314804
 40
27.65745250388223
 40
27.96251182635623
 40
28.26017715710078
 40
28.55784247874119
 40
28.55784247874119
 40
28.55784247874119
 40
28.55784247874119
 10
166.720689151763
 20
294.901267835016
 30
0.0
 10
166.7020066580756
 20
294.8011295593478
 30
0.0
 10
166.6646587784813
 20
294.6009446566599
 30
0.0
 10
166.5531665166508
 20
294.3083659777594
 30
0.0
 10
166.4056519387732
 20
294.0257183433433
 30
0.0
 10
166.2148318231272
 20
293.7500096040436
 30
0.0
 10
165.9892330981566
 20
293.4896162503826
 30
0.0
 10
165.7238994458585
 20
293.2392468691995
 30
0.0
 10
165.4283866581432
 20
293.0076805325343
 30
0.0
 10
165.0968883046288
 20
292.7897274640491
 30
0.0
 10
164.7403201148658
 20
292.5930358768192
 30
0.0
 10
164.3528076660022
 20
292.4136373752362
 30
0.0
 10
163.9455434748918
 20
292.2572989863343
 30
0.0
 10
163.5137436810594
 20
292.121546980257
 30
0.0
 10
163.0676819114462
 20
292.0101544701399
 30
0.0
 10
162.6046177708639
 20
291.9219027024463
 30
0.0
 10
162.1329286803064
 20
291.8588676251715
 30
0.0
 10
161.6525434076816
 20
291.8205773335114
 30
0.0
 10
161.1692711772937
 20
291.8079321074284
 30
0.0
 10
160.6859989468902
 20
291.8205773335256
 30
0.0
 10
160.2056136743141
 20
291.8588676252033
 30
0.0
 10
159.7339245835869
 20
291.9219027024546
 30
0.0
 10
159.2708604436295
 20
292.0101544702281
 30
0.0
 10
158.8247986717459
 20
292.121546979979
 30
0.0
 10
158.3929988860262
 20
292.2572989871955
 30
0.0
 10
157.9857346655752
 20
292.4136373716937
 30
0.0
 10
157.5982223196885
 20
292.5930358883157
 30
0.0
 10
157.2416537604456
 20
292.7897274209961
 30
0.0
 10
156.9101566859044
 20
293.0076806775444
 30
0.0
 10
156.6146393356574
 20
293.2392463423129
 30
0.0
 10
156.3493213523213
 20
293.4896180297234
 30
0.0
 10
156.1236667732259
 20
293.7500031608869
 30
0.0
 10
155.9330390355348
 20
294.0257402187839
 30
0.0
 10
155.7848335855952
 20
294.3082861514135
 30
0.0
 10
155.6757678915552
 20
294.6012220370582
 30
0.0
 10
155.6113234480376
 20
294.8978128175002
 30
0.0
 10
155.588524455326
 20
295.1981344364169
 30
0.0
 10
155.611323448027
 20
295.4984560553332
 30
0.0
 10
155.6757678915344
 20
295.7950468357743
 30
0.0
 10
155.7848335855643
 20
296.0879827214171
 30
0.0
 10
155.9330390354944
 20
296.3705286540444
 30
0.0
 10
156.1236667731762
 20
296.6462657119379
 30
0.0
 10
156.3493213522631
 20
296.9066508430971
 30
0.0
 10
156.6146393355912
 20
297.1570225305023
 30
0.0
 10
156.9101566858307
 20
297.3885881952646
 30
0.0
 10
157.241653760365
 20
297.6065414518059
 30
0.0
 10
157.5982223196014
 20
297.8032329844783
 30
0.0
 10
157.9857346654823
 20
297.9826315010905
 30
0.0
 10
158.3929988859281
 20
298.1389698855779
 30
0.0
 10
158.824798671643
 20
298.2747218927814
 30
0.0
 10
159.2708604435223
 20
298.3861144025176
 30
0.0
 10
159.7339245834757
 20
298.4743661702744
 30
0.0
 10
160.2056136741988
 20
298.537401247506
 30
0.0
 10
160.6859989467719
 20
298.575691539162
 30
0.0
 10
161.1692711771684
 20
298.5883367652341
 30
0.0
 10
161.6525434075639
 20
298.5756915391248
 30
0.0
 10
162.1329286801406
 20
298.537401247426
 30
0.0
 10
162.6046177708516
 20
298.4743661701439
 30
0.0
 10
163.0676819108485
 20
298.3861144023136
 30
0.0
 10
163.5137436825648
 20
298.2747218925146
 30
0.0
 10
163.9455434688512
 20
298.1389698851148
 30
0.0
 10
164.3528076872093
 20
297.9826315007929
 30
0.0
 10
164.7403200403808
 20
297.8032329829293
 30
0.0
 10
165.0968885733988
 20
297.6065414538998
 30
0.0
 10
165.4283857385984
 20
297.3885881837471
 30
0.0
 10
165.7239027652645
 20
297.1570225663044
 30
0.0
 10
165.9892218596338
 20
296.906650714973
 30
0.0
 10
166.2148724779755
 20
296.6462661664295
 30
0.0
 10
166.4055138572305
 20
296.3705270998997
 30
0.0
 10
166.5536703166585
 20
296.0879883783866
 30
0.0
 10
166.6629080806201
 20
295.795027162222
 30
0.0
 10
166.7267237647247
 20
295.4985289377382
 30
0.0
 10
166.7518162173468
 20
295.1978697083342
 30
0.0
 10
166.7310648370494
 20
295.0001351253812
 30
0.0
 10
166.720689151763
 20
294.901267835016
 30
0.0
 11
166.720689151763
 21
294.901267835016
 31
0.0
 11
166.6557899922276
 21
294.6031918565928
 31
0.0
 11
166.5503900631435
 21
294.3172167342585
 31
0.0
 11
166.399797579796
 21
294.0290751591453
 31
0.0
 11
166.2158960130184
 21
293.7614262987273
 31
0.0
 11
165.9848923265732
 21
293.4936530006746
 31
0.0
 11
165.7284353120909
 21
293.250625708499
 31
0.0
 11
165.4252211295489
 21
293.0119866075162
 31
0.0
 11
165.1033071602654
 21
292.7996738256776
 31
0.0
 11
164.7380688940129
 21
292.5973987705047
 31
0.0
 11
164.3594982701445
 21
292.4217072348226
 31
0.0
 11
163.944007793413
 21
292.2616322640889
 31
0.0
 11
163.5194165516949
 21
292.1278777761255
 31
0.0
 11
163.0667261091084
 21
292.0144371769185
 31
0.0
 11
162.6083716774894
 21
291.9269472536778
 31
0.0
 11
162.1324701808487
 21
291.8631106697951
 31
0.0
 11
161.6538522123476
 21
291.8249462564087
 31
0.0
 11
161.1692711673294
 21
291.8121605936983
 31
0.0
 11
160.6846901223113
 21
291.8249462564087
 31
0.0
 11
160.2060721538104
 21
291.8631106697951
 31
0.0
 11
159.7301706571697
 21
291.9269472536779
 31
0.0
 11
159.2718162255507
 21
292.0144371769188
 31
0.0
 11
158.8191257829642
 21
292.1278777761256
 31
0.0
 11
158.3945345412461
 21
292.261632264089
 31
0.0
 11
157.9790440645146
 21
292.4217072348226
 31
0.0
 11
157.6004734406462
 21
292.5973987705047
 31
0.0
 11
157.2352351743937
 21
292.7996738256776
 31
0.0
 11
156.9133212051104
 21
293.0119866075162
 31
0.0
 11
156.6101070225683
 21
293.250625708499
 31
0.0
 11
156.3536500080861
 21
293.4936530006746
 31
0.0
 11
156.1226463216408
 21
293.7614262987273
 31
0.0
 11
155.9387447548632
 21
294.0290751591453
 31
0.0
 11
155.7881522715156
 21
294.3172167342585
 31
0.0
 11
155.6827523424315
 21
294.6031918565929
 31
0.0
 11
155.6178531828962
 21
294.901267835016
 31
0.0
 11
155.5960617012051
 21
295.1981344367892
 31
0.0
 11
155.6178531828961
 21
295.4950010385624
 31
0.0
 11
155.6827523424315
 21
295.7930770169856
 31
0.0
 11
155.7881522715156
 21
296.0790521393201
 31
0.0
 11
155.9387447548631
 21
296.3671937144332
 31
0.0
 11
156.1226463216408
 21
296.6348425748512
 31
0.0
 11
156.3536500080861
 21
296.9026158729038
 31
0.0
 11
156.6101070225684
 21
297.1456431650793
 31
0.0
 11
156.9133212051104
 21
297.384282266062
 31
0.0
 11
157.2352351743937
 21
297.5965950479007
 31
0.0
 11
157.6004734406462
 21
297.7988701030739
 31
0.0
 11
157.9790440645145
 21
297.9745616387559
 31
0.0
 11
158.3945345412461
 21
298.1346366094896
 31
0.0
 11
158.8191257829642
 21
298.2683910974529
 31
0.0
 11
159.2718162255508
 21
298.3818316966597
 31
0.0
 11
159.7301706571698
 21
298.4693216199005
 31
0.0
 11
160.2060721538103
 21
298.5331582037831
 31
0.0
 11
160.6846901223113
 21
298.5713226171696
 31
0.0
 11
161.1692711673294
 21
298.5841082798802
 31
0.0
 11
161.6538522123477
 21
298.5713226171696
 31
0.0
 11
162.1324701808487
 21
298.5331582037831
 31
0.0
 11
162.6083716774893
 21
298.4693216199005
 31
0.0
 11
163.0667261091083
 21
298.3818316966597
 31
0.0
 11
163.5194165516948
 21
298.2683910974529
 31
0.0
 11
163.944007793413
 21
298.1346366094896
 31
0.0
 11
164.3594982701446
 21
297.9745616387559
 31
0.0
 11
164.738068894013
 21
297.7988701030738
 31
0.0
 11
165.1033071602656
 21
297.5965950479007
 31
0.0
 11
165.4252211295489
 21
297.384282266062
 31
0.0
 11
165.7284353120909
 21
297.1456431650794
 31
0.0
 11
165.9848923265732
 21
296.9026158729039
 31
0.0
 11
166.2158960130184
 21
296.6348425748512
 31
0.0
 11
166.3997975797959
 21
296.3671937144333
 31
0.0
 11
166.5503900631434
 21
296.0790521393201
 31
0.0
 11
166.6557899922275
 21
295.7930770169856
 31
0.0
 11
166.720689151763
 21
295.4950010385624
 31
0.0
 11
166.7424806334541
 21
295.1981344367891
 31
0.0
 11
166.720689151763
 21
294.901267835016
 31
0.0
  0
SPLINE
  5
1E5
330
1F
100
AcDbEntity
  8
1
  6
Continuous
 62
     7
100
AcDbSpline
210
0.0
220
0.0
230
1.0
 70
    11
 71
     3
 72
    79
 73
    75
 74
    73
 42
0.000000001
 43
0.0000000001
 44
0.00000001
 40
0.0
 40
0.0
 40
0.0
 40
0.0
 40
0.4315859547805448
 40
0.8631272738383333
 40
1.30092064420696
 40
1.738636092523277
 40
2.185762236870525
 40
2.63279430173299
 40
3.091109027806981
 40
3.549329681473982
 40
4.019262662341482
 40
4.489113047943498
 40
4.969712000523811
 40
5.450246300146483
 40
5.939369933567254
 40
6.428449752857453
 40
6.923056207979938
 40
7.417640655199426
 40
7.914130230267671
 40
8.410619805327244
 40
8.905204252520736
 40
9.399810707599233
 40
9.88889052682729
 40
10.37801416016557
 40
10.85854845968583
 40
11.33914741214007
 40
11.80899779759311
 40
12.2789307782827
 40
12.73715143174392
 40
13.19546615757419
 40
13.64249822215311
 40
14.08962436615553
 40
14.52733981403346
 40
14.965133183744
 40
15.39667450128413
 40
15.82826046472925
 40
16.25765399691327
 40
16.68704752909616
 40
17.11863349253786
 40
17.55017481007235
 40
17.9879681797752
 40
18.42568362764347
 40
18.87280977163441
 40
19.31984183620045
 40
19.77815656201641
 40
20.23637721546222
 40
20.70631019613511
 40
21.17616058157076
 40
21.65675953400664
 40
22.13729383350809
 40
22.62641746682699
 40
23.1154972860353
 40
23.61010374109366
 40
24.1046881882667
 40
24.6011777633056
 40
25.09766733835291
 40
25.59225178555123
 40
26.08685824065229
 40
26.57593805992084
 40
27.06506169331936
 40
27.5455959929195
 40
28.02619494547624
 40
28.49604533105369
 40
28.96597831189469
 40
29.42419896553238
 40
29.88251369157116
 40
30.32954575638829
 40
30.77667190066855
 40
31.21438734886538
 40
31.65218071895538
 40
32.08372203696886
 40
32.5153080011009
 40
32.94470153483667
 40
33.37409505838557
 40
33.37409505838557
 40
33.37409505838557
 40
33.37409505838557
 10
155.4632611640526
 20
184.2519913534573
 30
0.0
 10
155.4819517485427
 20
184.1092223674048
 30
0.0
 10
155.5193309787132
 20
183.8236991600357
 30
0.0
 10
155.6304828351877
 20
183.4034141327614
 30
0.0
 10
155.7798537073835
 20
182.9935575499594
 30
0.0
 10
155.9718604901075
 20
182.5958649154942
 30
0.0
 10
156.2019302827397
 20
182.2154174141485
 30
0.0
 10
156.4708067474486
 20
181.8527582030734
 30
0.0
 10
156.7737336013906
 20
181.5130714797729
 30
0.0
 10
157.1112052444711
 20
181.1964675473975
 30
0.0
 10
157.4776038025363
 20
180.9076034121803
 30
0.0
 10
157.8732359482247
 20
180.6465502719384
 30
0.0
 10
158.2919834641733
 20
180.4170265224329
 30
0.0
 10
158.733655709259
 20
180.2192745499431
 30
0.0
 10
159.1921534276166
 20
180.0558711803512
 30
0.0
 10
159.6664351662923
 20
179.927236423451
 30
0.0
 10
160.1509340444666
 20
179.8348169751854
 30
0.0
 10
160.6434802588792
 20
179.7790355646857
 30
0.0
 10
161.1394521426573
 20
179.7603988374013
 30
0.0
 10
161.635424026448
 20
179.7790355643873
 30
0.0
 10
162.127970240838
 20
179.83481697459
 30
0.0
 10
162.6124691191347
 20
179.9272364225413
 30
0.0
 10
163.0867508574252
 20
180.055871179173
 30
0.0
 10
163.5452485773025
 20
180.2192745482967
 30
0.0
 10
163.9869208169358
 20
180.417026521018
 30
0.0
 10
164.4056683531694
 20
180.6465502681252
 30
0.0
 10
164.801300424969
 20
180.9076034155429
 30
0.0
 10
165.1676992554969
 20
181.1964675226578
 30
0.0
 10
165.5051699061852
 20
181.5130715556927
 30
0.0
 10
165.8081004149888
 20
181.8527579064636
 30
0.0
 10
166.0769635594892
 20
182.215418473314
 30
0.0
 10
166.3070824667821
 20
182.5958609734756
 30
0.0
 10
166.4989096166479
 20
182.9935718969199
 30
0.0
 10
166.6489448313454
 20
183.4033608376084
 30
0.0
 10
166.7576508865388
 20
183.823894889904
 30
0.0
 10
166.8227116424565
 20
184.250536735673
 30
0.0
 10
166.8448459693352
 20
184.6808292470709
 30
0.0
 10
166.8227116424778
 20
185.1111217584686
 30
0.0
 10
166.7576508865816
 20
185.5377636042375
 30
0.0
 10
166.6489448314096
 20
185.9582976565329
 30
0.0
 10
166.4989096167337
 20
186.3680865972211
 30
0.0
 10
166.3070824668891
 20
186.765797520665
 30
0.0
 10
166.0769635596171
 20
187.146240020826
 30
0.0
 10
165.8081004151372
 20
187.5089005876757
 30
0.0
 10
165.505169906354
 20
187.8485869384457
 30
0.0
 10
165.1676992556858
 20
188.1651909714796
 30
0.0
 10
164.8013004251779
 20
188.4540550785932
 30
0.0
 10
164.4056683533982
 20
188.7151082260093
 30
0.0
 10
163.9869208171843
 20
188.9446319731146
 30
0.0
 10
163.5452485775706
 20
189.142383945834
 30
0.0
 10
163.086750857713
 20
189.3057873149553
 30
0.0
 10
162.6124691194422
 20
189.4344220715845
 30
0.0
 10
162.1279702411657
 20
189.5268415195331
 30
0.0
 10
161.6354240267952
 20
189.5826229297329
 30
0.0
 10
161.1394521430271
 20
189.6012596567161
 30
0.0
 10
160.6434802592627
 20
189.5826229294295
 30
0.0
 10
160.150934044899
 20
189.526841518924
 30
0.0
 10
159.6664351666455
 20
189.4344220706681
 30
0.0
 10
159.1921534283675
 20
189.305787313722
 30
0.0
 10
158.7336557086461
 20
189.1423839442925
 30
0.0
 10
158.291983468677
 20
188.9446319712049
 30
0.0
 10
157.8732359339594
 20
188.7151082239112
 30
0.0
 10
157.4776038569418
 20
188.4540550756078
 30
0.0
 10
157.1112050460101
 20
188.1651909701221
 30
0.0
 10
156.7737343243523
 20
187.8485869294779
 30
0.0
 10
156.4708040773949
 20
187.5089006049698
 30
0.0
 10
156.2019399791335
 20
187.1462399405901
 30
0.0
 10
155.9718245892151
 20
186.7657977981145
 30
0.0
 10
155.7799845755791
 20
186.3680855644434
 30
0.0
 10
155.6299969363172
 20
185.9583014671971
 30
0.0
 10
155.5211157314234
 20
185.5377495810771
 30
0.0
 10
155.4567056387021
 20
185.111173982635
 30
0.0
 10
155.4321545682645
 20
184.6806354082129
 30
0.0
 10
155.4528923008367
 20
184.3948727040411
 30
0.0
 10
155.4632611640526
 20
184.2519913534573
 30
0.0
 11
155.4632611640526
 21
184.2519913534573
 31
0.0
 11
155.5284256475526
 21
183.8253532936263
 31
0.0
 11
155.6361267315075
 21
183.4074676807876
 31
0.0
 11
155.7866247207928
 21
182.9963552996314
 31
0.0
 11
155.976464420027
 21
182.601949795038
 31
0.0
 11
156.207773685442
 21
182.2193039894572
 31
0.0
 11
156.4737186645913
 21
181.8599838884866
 31
0.0
 11
156.7786237310517
 21
181.5178066120785
 31
0.0
 11
157.1125809116651
 21
181.2040570799767
 31
0.0
 11
157.4814915332803
 21
180.9129523570455
 31
0.0
 11
157.873514711
 21
180.6539596680693
 31
0.0
 11
158.2948665830054
 21
180.4227931628108
 31
0.0
 11
158.7333649686972
 21
180.226241951046
 31
0.0
 11
159.1940537975109
 21
180.0619016584388
 31
0.0
 11
159.6660468490484
 21
179.933754754675
 31
0.0
 11
160.1518765832156
 21
179.8409915353238
 31
0.0
 11
160.6433134656198
 21
179.7852818766503
 31
0.0
 11
161.1394521523435
 21
179.7666190333096
 31
0.0
 11
161.6355908390672
 21
179.7852818766503
 31
0.0
 11
162.1270277214713
 21
179.8409915353237
 31
0.0
 11
162.6128574556384
 21
179.9337547546749
 31
0.0
 11
163.084850507176
 21
180.0619016584388
 31
0.0
 11
163.5455393359895
 21
180.226241951046
 31
0.0
 11
163.9840377216811
 21
180.4227931628108
 31
0.0
 11
164.4053895936865
 21
180.6539596680693
 31
0.0
 11
164.7974127714062
 21
180.9129523570455
 31
0.0
 11
165.1663233930215
 21
181.2040570799766
 31
0.0
 11
165.500280573635
 21
181.5178066120785
 31
0.0
 11
165.8051856400953
 21
181.8599838884865
 31
0.0
 11
166.0711306192446
 21
182.2193039894572
 31
0.0
 11
166.3024398846597
 21
182.601949795038
 31
0.0
 11
166.4922795838939
 21
182.9963552996314
 31
0.0
 11
166.6427775731792
 21
183.4074676807876
 31
0.0
 11
166.7504786571339
 21
183.8253532936263
 31
0.0
 11
166.8156431406341
 21
184.2519913534573
 31
0.0
 11
166.8374804062711
 21
184.6808292476267
 31
0.0
 11
166.8156431406339
 21
185.1096671417961
 31
0.0
 11
166.7504786571336
 21
185.536305201627
 31
0.0
 11
166.6427775731789
 21
185.9541908144657
 31
0.0
 11
166.4922795838939
 21
186.3653031956219
 31
0.0
 11
166.3024398846598
 21
186.7597087002154
 31
0.0
 11
166.0711306192448
 21
187.1423545057961
 31
0.0
 11
165.8051856400955
 21
187.5016746067668
 31
0.0
 11
165.5002805736351
 21
187.8438518831749
 31
0.0
 11
165.1663233930215
 21
188.1576014152768
 31
0.0
 11
164.7974127714063
 21
188.4487061382079
 31
0.0
 11
164.4053895936865
 21
188.7076988271841
 31
0.0
 11
163.9840377216811
 21
188.9388653324425
 31
0.0
 11
163.5455393359895
 21
189.1354165442073
 31
0.0
 11
163.084850507176
 21
189.2997568368145
 31
0.0
 11
162.6128574556384
 21
189.4279037405784
 31
0.0
 11
162.1270277214713
 21
189.5206669599296
 31
0.0
 11
161.6355908390672
 21
189.5763766186029
 31
0.0
 11
161.1394521523435
 21
189.5950394619437
 31
0.0
 11
160.6433134656198
 21
189.5763766186029
 31
0.0
 11
160.1518765832156
 21
189.5206669599296
 31
0.0
 11
159.6660468490484
 21
189.4279037405784
 31
0.0
 11
159.1940537975109
 21
189.2997568368145
 31
0.0
 11
158.7333649686972
 21
189.1354165442073
 31
0.0
 11
158.2948665830054
 21
188.9388653324425
 31
0.0
 11
157.873514711
 21
188.7076988271841
 31
0.0
 11
157.4814915332802
 21
188.448706138208
 31
0.0
 11
157.1125809116649
 21
188.1576014152768
 31
0.0
 11
156.7786237310514
 21
187.8438518831749
 31
0.0
 11
156.4737186645911
 21
187.5016746067668
 31
0.0
 11
156.2077736854419
 21
187.1423545057962
 31
0.0
 11
155.9764644200268
 21
186.7597087002154
 31
0.0
 11
155.7866247207926
 21
186.365303195622
 31
0.0
 11
155.6361267315075
 21
185.9541908144658
 31
0.0
 11
155.5284256475529
 21
185.5363052016271
 31
0.0
 11
155.4632611640527
 21
185.1096671417961
 31
0.0
 11
155.4414238984156
 21
184.6808292476267
 31
0.0
 11
155.4632611640526
 21
184.2519913534573
 31
0.0
  0
SPLINE
  5
1E6
330
1F
100
AcDbEntity
  8
1
  6
Continuous
 62
     7
100
AcDbSpline
210
0.0
220
0.0
230
1.0
 70
    11
 71
     3
 72
    79
 73
    75
 74
    73
 42
0.000000001
 43
0.0000000001
 44
0.00000001
 40
0.0
 40
0.0
 40
0.0
 40
0.0
 40
0.4315859547805168
 40
0.86312727383825
 40
1.300920644206903
 40
1.738636092523298
 40
2.185762236870569
 40
2.632794301733034
 40
3.091109027807004
 40
3.549329681474005
 40
4.01926266234147
 40
4.489113047943454
 40
4.969712000523795
 40
5.450246300146501
 40
5.939369933567282
 40
6.428449752857482
 40
6.923056207979956
 40
7.417640655199437
 40
7.914130230267684
 40
8.410619805327258
 40
8.905204252520745
 40
9.399810707599237
 40
9.888890526827293
 40
10.37801416016559
 40
10.85854845968587
 40
11.33914741214013
 40
11.80899779759315
 40
12.27893077828275
 40
12.73715143174397
 40
13.19546615757422
 40
13.64249822215307
 40
14.08962436615552
 40
14.52733981403349
 40
14.96513318374409
 40
15.39667450128416
 40
15.82826046472925
 40
16.25765399691328
 40
16.68704752909617
 40
17.11863349253789
 40
17.55017481007244
 40
17.9879681797753
 40
18.42568362764353
 40
18.87280977163448
 40
19.3198418362005
 40
19.77815656201643
 40
20.23637721546221
 40
20.7063101961351
 40
21.17616058157079
 40
21.6567595340067
 40
22.13729383350818
 40
22.62641746682708
 40
23.11549728603538
 40
23.61010374109374
 40
24.10468818826678
 40
24.60117776330569
 40
25.09766733835299
 40
25.59225178555131
 40
26.08685824065236
 40
26.57593805992091
 40
27.06506169331941
 40
27.54559599291956
 40
28.02619494547632
 40
28.49604533105382
 40
28.96597831189483
 40
29.42419896553251
 40
29.88251369157128
 40
30.32954575638845
 40
30.77667190066871
 40
31.21438734886559
 40
31.65218071895554
 40
32.08372203696896
 40
32.51530800110103
 40
32.9447015348368
 40
33.37409505838573
 40
33.37409505838573
 40
33.37409505838573
 40
33.37409505838573
 10
155.4632611640526
 20
173.1096671417961
 30
0.0
 10
155.4819517485427
 20
173.2524361278485
 30
0.0
 10
155.5193309787132
 20
173.5379593352176
 30
0.0
 10
155.6304828351877
 20
173.9582443624919
 30
0.0
 10
155.7798537073835
 20
174.3681009452939
 30
0.0
 10
155.9718604901075
 20
174.7657935797592
 30
0.0
 10
156.2019302827397
 20
175.146241081105
 30
0.0
 10
156.4708067474486
 20
175.50890029218
 30
0.0
 10
156.7737336013907
 20
175.8485870154805
 30
0.0
 10
157.1112052444711
 20
176.1651909478559
 30
0.0
 10
157.4776038025364
 20
176.454055083073
 30
0.0
 10
157.8732359482247
 20
176.7151082233148
 30
0.0
 10
158.2919834641733
 20
176.9446319728204
 30
0.0
 10
158.733655709259
 20
177.1423839453102
 30
0.0
 10
159.1921534276166
 20
177.3057873149023
 30
0.0
 10
159.6664351662923
 20
177.4344220718024
 30
0.0
 10
160.1509340444665
 20
177.526841520068
 30
0.0
 10
160.6434802588791
 20
177.5826229305676
 30
0.0
 10
161.1394521426573
 20
177.6012596578521
 30
0.0
 10
161.635424026448
 20
177.582622930866
 30
0.0
 10
162.127970240838
 20
177.5268415206634
 30
0.0
 10
162.6124691191347
 20
177.4344220727122
 30
0.0
 10
163.0867508574252
 20
177.3057873160804
 30
0.0
 10
163.5452485773025
 20
177.1423839469568
 30
0.0
 10
163.9869208169359
 20
176.9446319742352
 30
0.0
 10
164.4056683531694
 20
176.715108227128
 30
0.0
 10
164.801300424969
 20
176.4540550797104
 30
0.0
 10
165.1676992554969
 20
176.1651909725955
 30
0.0
 10
165.5051699061853
 20
175.8485869395606
 30
0.0
 10
165.8081004149887
 20
175.5089005887897
 30
0.0
 10
166.0769635594893
 20
175.1462400219395
 30
0.0
 10
166.307082466782
 20
174.7657975217777
 30
0.0
 10
166.498909616648
 20
174.3680865983334
 30
0.0
 10
166.6489448313454
 20
173.9582976576449
 30
0.0
 10
166.7576508865388
 20
173.5377636053493
 30
0.0
 10
166.8227116424564
 20
173.1111217595803
 30
0.0
 10
166.8448459693353
 20
172.6808292481825
 30
0.0
 10
166.8227116424778
 20
172.2505367367847
 30
0.0
 10
166.7576508865816
 20
171.8238948910158
 30
0.0
 10
166.6489448314097
 20
171.4033608387204
 30
0.0
 10
166.4989096167337
 20
170.9935718980321
 30
0.0
 10
166.307082466889
 20
170.5958609745883
 30
0.0
 10
166.0769635596172
 20
170.2154184744273
 30
0.0
 10
165.8081004151372
 20
169.8527579075776
 30
0.0
 10
165.505169906354
 20
169.5130715568077
 30
0.0
 10
165.1676992556858
 20
169.1964675237737
 30
0.0
 10
164.801300425178
 20
168.9076034166602
 30
0.0
 10
164.4056683533982
 20
168.6465502692441
 30
0.0
 10
163.9869208171843
 20
168.4170265221387
 30
0.0
 10
163.5452485775706
 20
168.2192745494192
 30
0.0
 10
163.086750857713
 20
168.0558711802979
 30
0.0
 10
162.6124691194422
 20
167.9272364236686
 30
0.0
 10
162.1279702411657
 20
167.8348169757202
 30
0.0
 10
161.6354240267952
 20
167.7790355655202
 30
0.0
 10
161.1394521430271
 20
167.7603988385372
 30
0.0
 10
160.6434802592626
 20
167.7790355658237
 30
0.0
 10
160.150934044899
 20
167.8348169763293
 30
0.0
 10
159.6664351666455
 20
167.9272364245851
 30
0.0
 10
159.1921534283676
 20
168.0558711815311
 30
0.0
 10
158.7336557086461
 20
168.2192745509607
 30
0.0
 10
158.2919834686771
 20
168.4170265240483
 30
0.0
 10
157.8732359339594
 20
168.6465502713421
 30
0.0
 10
157.4776038569419
 20
168.9076034196455
 30
0.0
 10
157.1112050460101
 20
169.1964675251312
 30
0.0
 10
156.7737343243524
 20
169.5130715657754
 30
0.0
 10
156.4708040773948
 20
169.8527578902835
 30
0.0
 10
156.2019399791335
 20
170.2154185546631
 30
0.0
 10
155.9718245892151
 20
170.5958606971389
 30
0.0
 10
155.7799845755791
 20
170.99357293081
 30
0.0
 10
155.6299969363171
 20
171.4033570280562
 30
0.0
 10
155.5211157314234
 20
171.8239089141762
 30
0.0
 10
155.4567056387022
 20
172.2504845126184
 30
0.0
 10
155.4321545682644
 20
172.6810230870403
 30
0.0
 10
155.4528923008367
 20
172.9667857912122
 30
0.0
 10
155.4632611640526
 20
173.1096671417961
 30
0.0
 11
155.4632611640526
 21
173.1096671417961
 31
0.0
 11
155.5284256475526
 21
173.536305201627
 31
0.0
 11
155.6361267315075
 21
173.9541908144657
 31
0.0
 11
155.7866247207928
 21
174.3653031956219
 31
0.0
 11
155.976464420027
 21
174.7597087002154
 31
0.0
 11
156.207773685442
 21
175.1423545057962
 31
0.0
 11
156.4737186645913
 21
175.5016746067668
 31
0.0
 11
156.7786237310517
 21
175.8438518831749
 31
0.0
 11
157.1125809116651
 21
176.1576014152766
 31
0.0
 11
157.4814915332803
 21
176.4487061382078
 31
0.0
 11
157.873514711
 21
176.7076988271839
 31
0.0
 11
158.2948665830054
 21
176.9388653324425
 31
0.0
 11
158.7333649686972
 21
177.1354165442074
 31
0.0
 11
159.1940537975109
 21
177.2997568368146
 31
0.0
 11
159.6660468490484
 21
177.4279037405784
 31
0.0
 11
160.1518765832156
 21
177.5206669599296
 31
0.0
 11
160.6433134656198
 21
177.576376618603
 31
0.0
 11
161.1394521523435
 21
177.5950394619437
 31
0.0
 11
161.6355908390672
 21
177.576376618603
 31
0.0
 11
162.1270277214713
 21
177.5206669599297
 31
0.0
 11
162.6128574556384
 21
177.4279037405785
 31
0.0
 11
163.084850507176
 21
177.2997568368146
 31
0.0
 11
163.5455393359895
 21
177.1354165442074
 31
0.0
 11
163.9840377216811
 21
176.9388653324425
 31
0.0
 11
164.4053895936865
 21
176.7076988271839
 31
0.0
 11
164.7974127714062
 21
176.4487061382078
 31
0.0
 11
165.1663233930215
 21
176.1576014152766
 31
0.0
 11
165.500280573635
 21
175.8438518831748
 31
0.0
 11
165.8051856400953
 21
175.5016746067668
 31
0.0
 11
166.0711306192446
 21
175.1423545057962
 31
0.0
 11
166.3024398846597
 21
174.7597087002154
 31
0.0
 11
166.4922795838939
 21
174.3653031956219
 31
0.0
 11
166.6427775731792
 21
173.9541908144657
 31
0.0
 11
166.7504786571339
 21
173.536305201627
 31
0.0
 11
166.8156431406341
 21
173.1096671417961
 31
0.0
 11
166.8374804062711
 21
172.6808292476267
 31
0.0
 11
166.8156431406339
 21
172.2519913534573
 31
0.0
 11
166.7504786571336
 21
171.8253532936263
 31
0.0
 11
166.6427775731789
 21
171.4074676807876
 31
0.0
 11
166.4922795838939
 21
170.9963552996314
 31
0.0
 11
166.3024398846598
 21
170.6019497950379
 31
0.0
 11
166.0711306192448
 21
170.2193039894572
 31
0.0
 11
165.8051856400955
 21
169.8599838884866
 31
0.0
 11
165.5002805736351
 21
169.5178066120785
 31
0.0
 11
165.1663233930215
 21
169.2040570799766
 31
0.0
 11
164.7974127714063
 21
168.9129523570455
 31
0.0
 11
164.4053895936865
 21
168.6539596680693
 31
0.0
 11
163.9840377216811
 21
168.4227931628108
 31
0.0
 11
163.5455393359895
 21
168.2262419510459
 31
0.0
 11
163.084850507176
 21
168.0619016584387
 31
0.0
 11
162.6128574556384
 21
167.9337547546749
 31
0.0
 11
162.1270277214713
 21
167.8409915353237
 31
0.0
 11
161.6355908390672
 21
167.7852818766503
 31
0.0
 11
161.1394521523435
 21
167.7666190333096
 31
0.0
 11
160.6433134656198
 21
167.7852818766503
 31
0.0
 11
160.1518765832156
 21
167.8409915353237
 31
0.0
 11
159.6660468490484
 21
167.9337547546749
 31
0.0
 11
159.1940537975109
 21
168.0619016584387
 31
0.0
 11
158.7333649686972
 21
168.2262419510458
 31
0.0
 11
158.2948665830054
 21
168.4227931628107
 31
0.0
 11
157.873514711
 21
168.6539596680691
 31
0.0
 11
157.4814915332802
 21
168.9129523570454
 31
0.0
 11
157.1125809116649
 21
169.2040570799766
 31
0.0
 11
156.7786237310514
 21
169.5178066120784
 31
0.0
 11
156.4737186645911
 21
169.8599838884865
 31
0.0
 11
156.2077736854419
 21
170.2193039894572
 31
0.0
 11
155.9764644200268
 21
170.6019497950379
 31
0.0
 11
155.7866247207926
 21
170.9963552996314
 31
0.0
 11
155.6361267315075
 21
171.4074676807875
 31
0.0
 11
155.5284256475529
 21
171.8253532936262
 31
0.0
 11
155.4632611640527
 21
172.2519913534572
 31
0.0
 11
155.4414238984156
 21
172.6808292476266
 31
0.0
 11
155.4632611640526
 21
173.1096671417961
 31
0.0
  0
SOLID
  5
1E7
330
1F
100
AcDbEntity
  8
1
 62
     2
100
AcDbTrace
 10
109.9877949186324
 20
193.3294196594308
 30
0.0
 11
111.1849461961471
 21
194.0205952717646
 31
0.0
 12
113.2113705573897
 22
189.1283740957294
 32
0.0
 13
113.2113705573897
 23
189.1283740957294
 33
0.0
  0
LEADER
  5
1E8
330
1F
100
AcDbEntity
  8
1
  6
Continuous
 62
     2
100
AcDbLeader
  3
Standard
 71
     0
 76
     3
 10
113.2113705573897
 20
189.1283740957294
 30
0.0
 10
100.1823120056994
 20
211.6953654820467
 30
0.0
 10
81.95727692381439
 20
211.6953654820467
 30
0.0
  0
SOLID
  5
1E9
330
1F
100
AcDbEntity
  8
1
 62
     2
100
AcDbTrace
 10
157.800461939332
 20
191.8850821112645
 30
0.0
 11
158.9106217149128
 21
191.0614073083098
 31
0.0
 12
155.227326191077
 22
187.2569943692119
 32
0.0
 13
155.227326191077
 23
187.2569943692119
 33
0.0
  0
LEADER
  5
1EA
330
1F
100
AcDbEntity
  8
1
  6
Continuous
 62
     2
100
AcDbLeader
  3
Standard
 71
     0
 76
     3
 10
155.227326191077
 20
187.2569943692119
 30
0.0
 10
169.970748841299
 20
207.128374095715
 30
0.0
 10
188.1957839231841
 20
207.128374095715
 30
0.0
  0
SOLID
  5
1EB
330
1F
100
AcDbEntity
  8
1
 62
     2
100
AcDbTrace
 10
224.7537505523195
 20
202.4808686698975
 30
0.0
 11
225.9509018298343
 21
201.7896930575637
 31
0.0
 12
222.7273261910769
 22
197.5886474938623
 32
0.0
 13
222.7273261910769
 23
197.5886474938623
 33
0.0
  0
LEADER
  5
1EC
330
1F
100
AcDbEntity
  8
1
  6
Continuous
 62
     2
100
AcDbLeader
  3
Standard
 71
     0
 76
     3
 10
222.7273261910769
 20
197.5886474938623
 30
0.0
 10
237.7362538557451
 20
223.5848727761935
 30
0.0
 10
263.4296932847351
 20
223.5848727761935
 30
0.0
  0
SOLID
  5
1ED
330
1F
100
AcDbEntity
  8
1
 62
     2
100
AcDbTrace
 10
183.0396489371817
 20
318.0691730392252
 30
0.0
 11
184.2368002146964
 21
318.7603486515591
 31
0.0
 12
186.2632245759392
 22
313.868127475524
 32
0.0
 13
186.2632245759392
 23
313.868127475524
 33
0.0
  0
LEADER
  5
1EE
330
1F
100
AcDbEntity
  8
1
  6
Continuous
 62
     2
100
AcDbLeader
  3
Standard
 71
     0
 76
     3
 10
186.2632245759392
 20
313.868127475524
 30
0.0
 10
175.7245878948902
 20
332.121581649609
 30
0.0
 10
162.5443425766073
 20
332.121581649609
 30
0.0
  0
SOLID
  5
1EF
330
1F
100
AcDbEntity
  8
1
 62
     2
100
AcDbTrace
 10
184.2368002146966
 20
290.4759062994891
 30
0.0
 11
183.0396489371819
 21
291.1670819118229
 31
0.0
 12
186.2632245759393
 22
295.3681274755243
 32
0.0
 13
186.2632245759393
 23
295.3681274755243
 33
0.0
  0
LEADER
  5
1F0
330
1F
100
AcDbEntity
  8
1
  6
Continuous
 62
     2
100
AcDbLeader
  3
Standard
 71
     0
 76
     3
 10
186.2632245759393
 20
295.3681274755243
 30
0.0
 10
175.7245878948903
 20
277.1146733014391
 30
0.0
 10
162.5443425766074
 20
277.1146733014391
 30
0.0
  0
MTEXT
  5
1F2
330
1F
100
AcDbEntity
  8
1
 62
     7
100
AcDbMText
 10
151.125
 20
18.75
 30
0.0
 40
3.75
 41
0.0
 71
     5
 72
     1
  1
09
  7
CONVERTER_13
 73
     1
 44
0.7202881152461
  0
MTEXT
  5
1F3
330
1F
100
AcDbEntity
  8
1
 62
     7
100
AcDbMText
 10
159.75
 20
18.75
 30
0.0
 40
3.75
 41
0.0
 71
     5
 72
     1
  1
4
  7
CONVERTER_13
 73
     1
 44
0.7202881152461
  0
MTEXT
  5
1F4
330
1F
100
AcDbEntity
  8
1
 62
     7
100
AcDbMText
 10
185.25
 20
18.75
 30
0.0
 40
3.75
 41
0.0
 71
     5
 72
     1
  1
4
  7
CONVERTER_13
 73
     1
 44
0.7202881152461
  0
MTEXT
  5
1F5
330
1F
100
AcDbEntity
  8
1
 62
     7
100
AcDbMText
 10
193.875
 20
18.75
 30
0.0
 40
3.75
 41
0.0
 71
     5
 72
     1
  1
 8
  7
CONVERTER_13
 73
     1
 44
0.7202881152461
  0
MTEXT
  5
1F6
330
1F
100
AcDbEntity
  8
1
 62
     7
100
AcDbMText
 10
176.625
 20
18.75
 30
0.0
 40
3.75
 41
0.0
 71
     5
 72
     1
  1
09
  7
CONVERTER_13
 73
     1
 44
0.7202881152461
  0
MTEXT
  5
1F7
330
1F
100
AcDbEntity
  8
1
 62
     7
100
AcDbMText
 10
91.0257043653204
 20
216.1953654820467
 30
0.0
 40
5.25
 41
0.0
 71
     5
 72
     1
  1
G1/2
  7
CONVERTER_13
 73
     1
 44
1.32052821128451
  0
MTEXT
  5
1F8
330
1F
100
AcDbEntity
  8
1
 62
     7
100
AcDbMText
 10
179.1273564816785
 20
211.628374095715
 30
0.0
 40
5.25
 41
0.0
 71
     5
 72
     1
  1
G1/2
  7
CONVERTER_13
 73
     1
 44
1.32052821128451
  0
MTEXT
  5
1F9
330
1F
100
AcDbEntity
  8
1
 62
     7
100
AcDbMText
 10
85.50000000000001
 20
21.37499999999999
 30
0.0
 40
5.25
 41
0.0
 71
     5
 72
     1
  1
B98-2B
  7
CONVERTER_13
 73
     1
 44
0.7202881152461
  0
MTEXT
  5
1FA
330
1F
100
AcDbEntity
  8
0
 62
     7
100
AcDbMText
 10
85.5
 20
31.12500000000001
 30
0.0
 40
5.25
 41
0.0
 71
     5
 72
     1
  1
分岐アダプター
  7
CONVERTER_12
 73
     1
 44
0.54545454545455
  0
MTEXT
  5
1FB
330
1F
100
AcDbEntity
  8
0
 62
     7
100
AcDbMText
 10
85.5
 20
37.12500000000001
 30
0.0
 40
5.25
 41
0.0
 71
     5
 72
     1
  1
シングル混合栓用
  7
CONVERTER_12
 73
     1
 44
0.54545454545455
  0
MTEXT
  5
1FC
330
1F
100
AcDbEntity
  8
1
 62
     7
100
AcDbMText
 10
250.5217521333658
 20
228.0848727761935
 30
0.0
 40
5.25
 41
0.0
 71
     5
 72
     1
  1
M48X1
  7
CONVERTER_13
 73
     1
 44
1.32052821128451
  0
MTEXT
  5
1FD
330
1F
100
AcDbEntity
  8
0
 62
     7
100
AcDbMText
 10
51.00000000000001
 20
51.00000000000001
 30
0.0
 40
5.25
 41
0.0
 71
     4
 72
     1
  1
INAX用
  7
CONVERTER_12
 73
     1
 44
0.54545454545455
  0
MTEXT
  5
1FE
330
1F
100
AcDbEntity
  8
1
 62
     7
100
AcDbMText
 10
236.25
 20
18.75
 30
0.0
 40
3.75
 41
0.0
 71
     5
 72
     1
  1
4
  7
CONVERTER_13
 73
     1
 44
0.7202881152461
  0
MTEXT
  5
1FF
330
1F
100
AcDbEntity
  8
1
 62
     7
100
AcDbMText
 10
244.875
 20
18.75
 30
0.0
 40
3.75
 41
0.0
 71
     5
 72
     1
  1
 8
  7
CONVERTER_13
 73
     1
 44
0.7202881152461
  0
MTEXT
  5
200
330
1F
100
AcDbEntity
  8
1
 62
     7
100
AcDbMText
 10
227.625
 20
18.75
 30
0.0
 40
3.75
 41
0.0
 71
     5
 72
     1
  1
09
  7
CONVERTER_13
 73
     1
 44
0.7202881152461
  0
MTEXT
  5
201
330
1F
100
AcDbEntity
  8
1
 62
     7
100
AcDbMText
 10
202.125
 20
18.75
 30
0.0
 40
3.75
 41
0.0
 71
     5
 72
     1
  1
09
  7
CONVERTER_13
 73
     1
 44
0.7202881152461
  0
MTEXT
  5
202
330
1F
100
AcDbEntity
  8
1
 62
     7
100
AcDbMText
 10
219.375
 20
18.75
 30
0.0
 40
3.75
 41
0.0
 71
     5
 72
     1
  1
 8
  7
CONVERTER_13
 73
     1
 44
0.7202881152461
  0
MTEXT
  5
203
330
1F
100
AcDbEntity
  8
1
 62
     7
100
AcDbMText
 10
210.75
 20
18.75
 30
0.0
 40
3.75
 41
0.0
 71
     5
 72
     1
  1
4
  7
CONVERTER_13
 73
     1
 44
0.7202881152461
  0
MTEXT
  5
204
330
1F
100
AcDbEntity
  8
1
 62
     7
100
AcDbMText
 10
127.875
 20
25.5
 30
0.0
 40
5.25
 41
0.0
 71
     5
 72
     1
  1
1
  7
CONVERTER_13
 73
     1
 44
0.7202881152461
  0
MTEXT
  5
205
330
1F
100
AcDbEntity
  8
1
 62
     7
100
AcDbMText
 10
140.625
 20
25.5
 30
0.0
 40
5.25
 41
0.0
 71
     5
 72
     1
  1
1,5
  7
CONVERTER_13
 73
     1
 44
0.7202881152461
  0
MTEXT
  5
206
330
1F
100
AcDbEntity
  8
1
 62
     7
100
AcDbMText
 10
169.0443425766073
 20
336.621581649609
 30
0.0
 40
5.25
 41
0.0
 71
     5
 72
     1
  1
湯側
  7
CONVERTER_12
 73
     1
 44
1.0
  0
MTEXT
  5
207
330
1F
100
AcDbEntity
  8
1
 62
     7
100
AcDbMText
 10
169.0443425766075
 20
281.6146733014391
 30
0.0
 40
5.25
 41
0.0
 71
     5
 72
     1
  1
水側
  7
CONVERTER_12
 73
     1
 44
1.0
  0
MTEXT
  5
208
330
1F
100
AcDbEntity
  8
1
 62
     7
100
AcDbMText
 10
168.375
 20
18.75
 30
0.0
 40
3.75
 41
0.0
 71
     5
 72
     1
  1
 8
  7
CONVERTER_13
 73
     1
 44
0.7202881152461
  0
DIMENSION
  5
213
330
1F
100
AcDbEntity
  8
1
100
AcDbDimension
  2
*D4
 10
106.4773261910908
 20
253.628374095715
 30
0.0
 11
152.6023261910839
 21
257.753374095715
 31
0.0
 70
    32
  1
93
 71
     5
 42
-1.0
 53
0.00013888888889
  3
ME10_DIM_10
100
AcDbAlignedDimension
 13
198.727326191077
 23
207.1283740957152
 33
0.0
 14
106.4773261910908
 24
218.3865604254892
 34
0.0
100
AcDbRotatedDimension
  0
DIMENSION
  5
21E
330
1F
100
AcDbEntity
  8
1
100
AcDbDimension
  2
*D5
 10
155.2273261910771
 20
241.628374095715
 30
0.0
 11
176.9773261910767
 21
245.753374095715
 31
0.0
 70
    32
  1
44
 71
     5
 42
-1.0
 53
0.00013888888889
  3
ME10_DIM_11
100
AcDbAlignedDimension
 13
198.727326191077
 23
207.1283740957152
 33
0.0
 14
155.227326191077
 24
190.6829375469564
 34
0.0
100
AcDbRotatedDimension
  0
DIMENSION
  5
229
330
1F
100
AcDbEntity
  8
1
100
AcDbDimension
  2
*D6
 10
242.7273261910771
 20
202.6283740957153
 30
0.0
 11
238.6023261910771
 21
176.3593465709393
 31
0.0
 70
    32
  1
<>
 71
     5
 42
-1.0
 53
90.0
  3
ME10_DIM_12
100
AcDbAlignedDimension
 13
228.2273261910769
 23
151.6283740957154
 33
0.0
 14
220.2273261910769
 24
202.6283740957154
 34
0.0
 50
90.0
100
AcDbRotatedDimension
  0
DIMENSION
  5
234
330
1F
100
AcDbEntity
  8
1
100
AcDbDimension
  2
*D7
 10
95.7273261913814
 20
178.6283740957152
 30
0.0
 11
91.6023261913814
 21
165.1283740957153
 31
0.0
 70
    32
  1
<>
 71
     5
 42
-1.0
 53
90.0
  3
ME10_DIM_13
100
AcDbAlignedDimension
 13
169.227326191077
 23
151.6283740957153
 33
0.0
 14
105.7273261912149
 24
178.6283740957152
 34
0.0
 50
90.0
100
AcDbRotatedDimension
  0
DIMENSION
  5
23F
330
1F
100
AcDbEntity
  8
1
100
AcDbDimension
  2
*D8
 10
168.2273261910769
 20
229.6283740957153
 30
0.0
 11
213.977326191077
 21
233.7533740957153
 31
0.0
 70
    32
  1
<>
 71
     5
 42
-1.0
 53
0.00013888888889
  3
ME10_DIM_14
100
AcDbAlignedDimension
 13
229.227326191077
 23
192.6283740957154
 33
0.0
 14
168.2273261910769
 24
192.6283740957154
 34
0.0
100
AcDbRotatedDimension
  0
DIMENSION
  5
24B
330
1F
100
AcDbEntity
  8
1
100
AcDbDimension
  2
*D9
 10
176.727326191077
 20
217.6283740957153
 30
0.0
 11
209.727326191077
 21
221.7533740957153
 31
0.0
 70
    32
  1
<>
 71
     5
 42
-1.0
 53
0.00013888888889
  3
ME10_DIM_15
100
AcDbAlignedDimension
 13
220.7273261910769
 23
202.1283740957154
 33
0.0
 14
176.7273261910769
 24
202.1283740957151
 34
0.0
100
AcDbRotatedDimension
  0
DIMENSION
  5
256
330
1F
100
AcDbEntity
  8
1
100
AcDbDimension
  2
*D10
 10
110.2273261911409
 20
136.6283740957152
 30
0.0
 11
154.4773261911459
 21
140.7533740957152
 31
0.0
 70
    32
  1
89
 71
     5
 42
-1.0
 53
0.00013888888889
  3
ME10_DIM_16
100
AcDbAlignedDimension
 13
198.727326191077
 23
147.1283740957153
 33
0.0
 14
110.2273261911409
 24
169.3783740957111
 34
0.0
100
AcDbRotatedDimension
  0
ENDSEC
  0
SECTION
  2
OBJECTS
  0
DICTIONARY
  5
C
330
0
100
AcDbDictionary
281
     1
  3
ACAD_GROUP
350
D
  3
ACAD_LAYOUT
350
1A
  3
ACAD_MATERIAL
350
3B
  3
ACAD_MLEADERSTYLE
350
259
  3
ACAD_MLINESTYLE
350
17
  3
ACAD_PLOTSETTINGS
350
19
  3
ACAD_PLOTSTYLENAME
350
E
  3
ACAD_VISUALSTYLE
350
2A
  3
AcDbVariableDictionary
350
257
  0
DICTIONARY
  5
D
102
{ACAD_REACTORS
330
C
102
}
330
C
100
AcDbDictionary
281
     1
  0
DICTIONARY
  5
1A
102
{ACAD_REACTORS
330
C
102
}
330
C
100
AcDbDictionary
281
     1
  3
Layout1
350
1E
  3
Layout2
350
26
  3
Model
350
22
  0
DICTIONARY
  5
3B
102
{ACAD_REACTORS
330
C
102
}
330
C
100
AcDbDictionary
281
     1
  3
ByBlock
350
3D
  3
ByLayer
350
3C
  3
Global
350
3E
  0
DICTIONARY
  5
259
102
{ACAD_REACTORS
330
C
102
}
330
C
100
AcDbDictionary
281
     1
  0
DICTIONARY
  5
17
102
{ACAD_REACTORS
330
C
102
}
330
C
100
AcDbDictionary
281
     1
  3
Standard
350
18
  0
DICTIONARY
  5
19
102
{ACAD_REACTORS
330
C
102
}
330
C
100
AcDbDictionary
281
     1
  0
ACDBDICTIONARYWDFLT
  5
E
102
{ACAD_REACTORS
330
C
102
}
330
C
100
AcDbDictionary
281
     1
  3
Normal
350
F
100
AcDbDictionaryWithDefault
340
F
  0
DICTIONARY
  5
2A
102
{ACAD_REACTORS
330
C
102
}
330
C
100
AcDbDictionary
281
     1
  3
2dWireframe
350
2F
  3
3D Hidden
350
31
  3
3dWireframe
350
30
  3
Basic
350
32
  3
Brighten
350
36
  3
ColorChange
350
3A
  3
Conceptual
350
34
  3
Dim
350
35
  3
Facepattern
350
39
  3
Flat
350
2B
  3
FlatWithEdges
350
2C
  3
Gouraud
350
2D
  3
GouraudWithEdges
350
2E
  3
Linepattern
350
38
  3
Realistic
350
33
  3
Thicken
350
37
  0
DICTIONARY
  5
257
102
{ACAD_REACTORS
330
C
102
}
330
C
100
AcDbDictionary
281
     1
  3
DIMASSOC
350
25A
  3
HIDETEXT
350
25B
  0
LAYOUT
  5
1E
102
{ACAD_REACTORS
330
1A
102
}
330
1A
100
AcDbPlotSettings
  1

  2
none_device
  4

  6

 40
0.0
 41
0.0
 42
0.0
 43
0.0
 44
0.0
 45
0.0
 46
0.0
 47
0.0
 48
0.0
 49
0.0
140
0.0
141
0.0
142
1.0
143
1.0
 70
   688
 72
     0
 73
     0
 74
     5
  7

 75
    16
147
1.0
148
0.0
149
0.0
100
AcDbLayout
  1
Layout1
 70
     1
 71
     1
 10
0.0
 20
0.0
 11
12.0
 21
9.0
 12
0.0
 22
0.0
 32
0.0
 14
1.00000000000000E+20
 24
1.00000000000000E+20
 34
1.00000000000000E+20
 15
-1.00000000000000E+20
 25
-1.00000000000000E+20
 35
-1.00000000000000E+20
146
0.0
 13
0.0
 23
0.0
 33
0.0
 16
1.0
 26
0.0
 36
0.0
 17
0.0
 27
1.0
 37
0.0
 76
     0
330
1B
  0
LAYOUT
  5
26
102
{ACAD_REACTORS
330
1A
102
}
330
1A
100
AcDbPlotSettings
  1

  2
none_device
  4

  6

 40
0.0
 41
0.0
 42
0.0
 43
0.0
 44
0.0
 45
0.0
 46
0.0
 47
0.0
 48
0.0
 49
0.0
140
0.0
141
0.0
142
1.0
143
1.0
 70
   688
 72
     0
 73
     0
 74
     5
  7

 75
    16
147
1.0
148
0.0
149
0.0
100
AcDbLayout
  1
Layout2
 70
     1
 71
     2
 10
0.0
 20
0.0
 11
0.0
 21
0.0
 12
0.0
 22
0.0
 32
0.0
 14
0.0
 24
0.0
 34
0.0
 15
0.0
 25
0.0
 35
0.0
146
0.0
 13
0.0
 23
0.0
 33
0.0
 16
1.0
 26
0.0
 36
0.0
 17
0.0
 27
1.0
 37
0.0
 76
     0
330
23
  0
LAYOUT
  5
22
102
{ACAD_REACTORS
330
1A
102
}
330
1A
100
AcDbPlotSettings
  1

  2
none_device
  4

  6

 40
0.0
 41
0.0
 42
0.0
 43
0.0
 44
0.0
 45
0.0
 46
0.0
 47
0.0
 48
0.0
 49
0.0
140
0.0
141
0.0
142
1.0
143
1.0
 70
  1712
 72
     0
 73
     0
 74
     0
  7

 75
     0
147
1.0
148
0.0
149
0.0
100
AcDbLayout
  1
Model
 70
     1
 71
     0
 10
0.0
 20
0.0
 11
12.0
 21
9.0
 12
0.0
 22
0.0
 32
0.0
 14
0.0
 24
0.0
 34
0.0
 15
315.0
 25
445.5
 35
0.0
146
0.0
 13
0.0
 23
0.0
 33
0.0
 16
1.0
 26
0.0
 36
0.0
 17
0.0
 27
1.0
 37
0.0
 76
     0
330
1F
331
29
  0
MATERIAL
  5
3D
102
{ACAD_REACTORS
330
3B
102
}
102
{ACAD_XDICTIONARY
360
27E
102
}
330
3B
100
AcDbMaterial
  1
ByBlock
  0
MATERIAL
  5
3C
102
{ACAD_REACTORS
330
3B
102
}
102
{ACAD_XDICTIONARY
360
27C
102
}
330
3B
100
AcDbMaterial
  1
ByLayer
  0
MATERIAL
  5
3E
102
{ACAD_REACTORS
330
3B
102
}
102
{ACAD_XDICTIONARY
360
280
102
}
330
3B
100
AcDbMaterial
  1
Global
  0
MLINESTYLE
  5
18
102
{ACAD_REACTORS
330
17
102
}
330
17
100
AcDbMlineStyle
  2
Standard
 70
     0
  3

 62
   256
 51
90.0
 52
90.0
 71
     2
 49
0.5
 62
   256
  6
BYLAYER
 49
-0.5
 62
   256
  6
BYLAYER
  0
ACDBPLACEHOLDER
  5
F
102
{ACAD_REACTORS
330
E
102
}
330
E
  0
VISUALSTYLE
  5
2F
102
{ACAD_REACTORS
330
2A
102
}
102
{ACAD_XDICTIONARY
360
264
102
}
330
2A
100
AcDbVisualStyle
  2
2dWireframe
 70
     4
 71
     0
 72
     2
 73
     0
 90
        0
 40
-0.6
 41
-30.0
 62
     5
 63
     7
 74
     1
 91
        4
 64
     7
 65
   257
 75
     1
175
     1
 42
1.0
 92
        0
 66
   257
 43
1.0
 76
     1
 77
     6
 78
     2
 67
     7
 79
     5
170
     0
171
     0
290
     0
174
     0
 93
        1
 44
0.0
173
     0
291
     0
 45
0.0
1001
ACAD
1000
AcDbSavedByObjectVersion
1070
     0
  0
VISUALSTYLE
  5
31
102
{ACAD_REACTORS
330
2A
102
}
102
{ACAD_XDICTIONARY
360
268
102
}
330
2A
100
AcDbVisualStyle
  2
3D Hidden
 70
     6
 71
     1
 72
     2
 73
     2
 90
        0
 40
-0.6
 41
-30.0
 62
     5
 63
     7
 74
     2
 91
        2
 64
     7
 65
   257
 75
     2
175
     1
 42
40.0
 92
        0
 66
   257
 43
1.0
 76
     1
 77
     6
 78
     2
 67
     7
 79
     3
170
     0
171
     0
290
     0
174
     0
 93
        1
 44
0.0
173
     0
291
     0
 45
0.0
1001
ACAD
1000
AcDbSavedByObjectVersion
1070
     0
  0
VISUALSTYLE
  5
30
102
{ACAD_REACTORS
330
2A
102
}
102
{ACAD_XDICTIONARY
360
266
102
}
330
2A
100
AcDbVisualStyle
  2
3dWireframe
 70
     5
 71
     0
 72
     2
 73
     0
 90
        0
 40
-0.6
 41
-30.0
 62
     5
 63
     7
 74
     1
 91
        4
 64
     7
 65
   257
 75
     1
175
     1
 42
1.0
 92
        0
 66
   257
 43
1.0
 76
     1
 77
     6
 78
     2
 67
     7
 79
     5
170
     0
171
     0
290
     0
174
     0
 93
        1
 44
0.0
173
     0
291
     0
 45
0.0
1001
ACAD
1000
AcDbSavedByObjectVersion
1070
     0
  0
VISUALSTYLE
  5
32
102
{ACAD_REACTORS
330
2A
102
}
102
{ACAD_XDICTIONARY
360
26A
102
}
330
2A
100
AcDbVisualStyle
  2
Basic
 70
     7
 71
     1
 72
     0
 73
     1
 90
        0
 40
-0.6
 41
-30.0
 62
     5
 63
     7
 74
     0
 91
        4
 64
     7
 65
   257
 75
     1
175
     1
 42
1.0
 92
        8
 66
     7
 43
1.0
 76
     1
 77
     6
 78
     2
 67
     7
 79
     5
170
     0
171
     0
290
     0
174
     0
 93
        1
 44
0.0
173
     0
291
     1
 45
0.0
1001
ACAD
1000
AcDbSavedByObjectVersion
1070
     0
  0
VISUALSTYLE
  5
36
102
{ACAD_REACTORS
330
2A
102
}
102
{ACAD_XDICTIONARY
360
272
102
}
330
2A
100
AcDbVisualStyle
  2
Brighten
 70
    12
 71
     2
 72
     2
 73
     0
 90
        0
 40
-0.6
 41
-30.0
 62
     5
 63
     7
 74
     1
 91
        4
 64
     7
 65
   257
 75
     1
175
     1
 42
1.0
 92
        8
 66
     7
 43
1.0
 76
     1
 77
     6
 78
     2
 67
     7
 79
     5
170
     0
171
     0
290
     0
174
     0
 93
        1
 44
50.0
173
     0
291
     1
 45
0.0
1001
ACAD
1000
AcDbSavedByObjectVersion
1070
     0
  0
VISUALSTYLE
  5
3A
102
{ACAD_REACTORS
330
2A
102
}
102
{ACAD_XDICTIONARY
360
27A
102
}
330
2A
100
AcDbVisualStyle
  2
ColorChange
 70
    16
 71
     2
 72
     2
 73
     3
 90
        0
 40
-0.6
 41
-30.0
 62
     5
 63
     8
 74
     1
 91
        4
 64
     7
 65
   257
 75
     1
175
     1
 42
1.0
 92
        8
 66
     8
 43
1.0
 76
     1
 77
     6
 78
     2
 67
     7
 79
     5
170
     0
171
     0
290
     0
174
     0
 93
        1
 44
0.0
173
     0
291
     1
 45
0.0
1001
ACAD
1000
AcDbSavedByObjectVersion
1070
     0
  0
VISUALSTYLE
  5
34
102
{ACAD_REACTORS
330
2A
102
}
102
{ACAD_XDICTIONARY
360
26E
102
}
330
2A
100
AcDbVisualStyle
  2
Conceptual
 70
     9
 71
     3
 72
     2
 73
     0
 90
        0
 40
-0.6
 41
-30.0
 62
     5
 63
     7
 74
     2
 91
        2
 64
     7
 65
   257
 75
     1
175
     1
 42
40.0
 92
        8
 66
     7
 43
1.0
 76
     1
 77
     6
 78
     2
 67
     7
 79
     3
170
     0
171
     0
290
     0
174
     0
 93
        1
 44
0.0
173
     0
291
     0
 45
0.0
1001
ACAD
1000
AcDbSavedByObjectVersion
1070
     0
  0
VISUALSTYLE
  5
35
102
{ACAD_REACTORS
330
2A
102
}
102
{ACAD_XDICTIONARY
360
270
102
}
330
2A
100
AcDbVisualStyle
  2
Dim
 70
    11
 71
     2
 72
     2
 73
     0
 90
        0
 40
-0.6
 41
-30.0
 62
     5
 63
     7
 74
     1
 91
        4
 64
     7
 65
   257
 75
     1
175
     1
 42
1.0
 92
        8
 66
     7
 43
1.0
 76
     1
 77
     6
 78
     2
 67
     7
 79
     5
170
     0
171
     0
290
     0
174
     0
 93
        1
 44
-50.0
173
     0
291
     1
 45
0.0
1001
ACAD
1000
AcDbSavedByObjectVersion
1070
     0
  0
VISUALSTYLE
  5
39
102
{ACAD_REACTORS
330
2A
102
}
102
{ACAD_XDICTIONARY
360
278
102
}
330
2A
100
AcDbVisualStyle
  2
Facepattern
 70
    15
 71
     2
 72
     2
 73
     0
 90
        0
 40
-0.6
 41
-30.0
 62
     5
 63
     7
 74
     1
 91
        4
 64
     7
 65
   257
 75
     1
175
     1
 42
1.0
 92
        8
 66
     7
 43
1.0
 76
     1
 77
     6
 78
     2
 67
     7
 79
     5
170
     0
171
     0
290
     0
174
     0
 93
        1
 44
0.0
173
     0
291
     1
 45
0.0
1001
ACAD
1000
AcDbSavedByObjectVersion
1070
     0
  0
VISUALSTYLE
  5
2B
102
{ACAD_REACTORS
330
2A
102
}
102
{ACAD_XDICTIONARY
360
25C
102
}
330
2A
100
AcDbVisualStyle
  2
Flat
 70
     0
 71
     2
 72
     1
 73
     1
 90
        2
 40
-0.6
 41
30.0
 62
     5
 63
     7
 74
     0
 91
        4
 64
     7
 65
   257
 75
     1
175
     1
 42
1.0
 92
        8
 66
     7
 43
1.0
 76
     1
 77
     6
 78
     2
 67
     7
 79
     5
170
     0
171
     0
290
     0
174
     0
 93
       13
 44
0.0
173
     0
291
     1
 45
0.0
1001
ACAD
1000
AcDbSavedByObjectVersion
1070
     0
  0
VISUALSTYLE
  5
2C
102
{ACAD_REACTORS
330
2A
102
}
102
{ACAD_XDICTIONARY
360
25E
102
}
330
2A
100
AcDbVisualStyle
  2
FlatWithEdges
 70
     1
 71
     2
 72
     1
 73
     1
 90
        2
 40
-0.6
 41
30.0
 62
     5
 63
     7
 74
     1
 91
        4
 64
     7
 65
   257
 75
     1
175
     1
 42
1.0
 92
        0
 66
   257
 43
1.0
 76
     1
 77
     6
 78
     2
 67
     7
 79
     5
170
     0
171
     0
290
     0
174
     0
 93
       13
 44
0.0
173
     0
291
     1
 45
0.0
1001
ACAD
1000
AcDbSavedByObjectVersion
1070
     0
  0
VISUALSTYLE
  5
2D
102
{ACAD_REACTORS
330
2A
102
}
102
{ACAD_XDICTIONARY
360
260
102
}
330
2A
100
AcDbVisualStyle
  2
Gouraud
 70
     2
 71
     2
 72
     2
 73
     1
 90
        2
 40
-0.6
 41
30.0
 62
     5
 63
     7
 74
     0
 91
        4
 64
     7
 65
   257
 75
     1
175
     1
 42
1.0
 92
        0
 66
     7
 43
1.0
 76
     1
 77
     6
 78
     2
 67
     7
 79
     5
170
     0
171
     0
290
     0
174
     0
 93
       13
 44
0.0
173
     0
291
     1
 45
0.0
1001
ACAD
1000
AcDbSavedByObjectVersion
1070
     0
  0
VISUALSTYLE
  5
2E
102
{ACAD_REACTORS
330
2A
102
}
102
{ACAD_XDICTIONARY
360
262
102
}
330
2A
100
AcDbVisualStyle
  2
GouraudWithEdges
 70
     3
 71
     2
 72
     2
 73
     1
 90
        2
 40
-0.6
 41
30.0
 62
     5
 63
     7
 74
     1
 91
        4
 64
     7
 65
   257
 75
     1
175
     1
 42
1.0
 92
        0
 66
   257
 43
1.0
 76
     1
 77
     6
 78
     2
 67
     7
 79
     5
170
     0
171
     0
290
     0
174
     0
 93
       13
 44
0.0
173
     0
291
     1
 45
0.0
1001
ACAD
1000
AcDbSavedByObjectVersion
1070
     0
  0
VISUALSTYLE
  5
38
102
{ACAD_REACTORS
330
2A
102
}
102
{ACAD_XDICTIONARY
360
276
102
}
330
2A
100
AcDbVisualStyle
  2
Linepattern
 70
    14
 71
     2
 72
     2
 73
     0
 90
        0
 40
-0.6
 41
-30.0
 62
     5
 63
     7
 74
     1
 91
        4
 64
     7
 65
   257
 75
     7
175
     7
 42
1.0
 92
        8
 66
     7
 43
1.0
 76
     1
 77
     6
 78
     2
 67
     7
 79
     5
170
     0
171
     0
290
     0
174
     0
 93
        1
 44
0.0
173
     0
291
     1
 45
0.0
1001
ACAD
1000
AcDbSavedByObjectVersion
1070
     0
  0
VISUALSTYLE
  5
33
102
{ACAD_REACTORS
330
2A
102
}
102
{ACAD_XDICTIONARY
360
26C
102
}
330
2A
100
AcDbVisualStyle
  2
Realistic
 70
     8
 71
     2
 72
     2
 73
     0
 90
        0
 40
-0.6
 41
-30.0
 62
     5
 63
     7
 74
     1
 91
        0
 64
     7
 65
   257
 75
     1
175
     1
 42
1.0
 92
        8
 66
     8
 43
1.0
 76
     1
 77
     6
 78
     2
 67
     7
 79
     5
170
     0
171
     0
290
     0
174
     0
 93
       13
 44
0.0
173
     0
291
     0
 45
0.0
1001
ACAD
1000
AcDbSavedByObjectVersion
1070
     0
  0
VISUALSTYLE
  5
37
102
{ACAD_REACTORS
330
2A
102
}
102
{ACAD_XDICTIONARY
360
274
102
}
330
2A
100
AcDbVisualStyle
  2
Thicken
 70
    13
 71
     2
 72
     2
 73
     0
 90
        0
 40
-0.6
 41
-30.0
 62
     5
 63
     7
 74
     1
 91
        4
 64
     7
 65
   257
 75
     1
175
     1
 42
1.0
 92
       12
 66
     7
 43
1.0
 76
     1
 77
     6
 78
     2
 67
     7
 79
     5
170
     0
171
     0
290
     0
174
     0
 93
        1
 44
0.0
173
     0
291
     1
 45
0.0
1001
ACAD
1000
AcDbSavedByObjectVersion
1070
     0
  0
DICTIONARYVAR
  5
25A
102
{ACAD_REACTORS
330
257
102
}
330
257
100
DictionaryVariables
280
     0
  1
2
  0
DICTIONARYVAR
  5
25B
102
{ACAD_REACTORS
330
257
102
}
330
257
100
DictionaryVariables
280
     0
  1
1
  0
DICTIONARY
  5
27E
330
3D
100
AcDbDictionary
280
     1
281
     1
  3
ACAD_XREC_ROUNDTRIP
360
27F
  0
DICTIONARY
  5
27C
330
3C
100
AcDbDictionary
280
     1
281
     1
  3
ACAD_XREC_ROUNDTRIP
360
27D
  0
DICTIONARY
  5
280
330
3E
100
AcDbDictionary
280
     1
281
     1
  3
ACAD_XREC_ROUNDTRIP
360
281
  0
DICTIONARY
  5
264
330
2F
100
AcDbDictionary
280
     1
281
     1
  3
ACAD_XREC_ROUNDTRIP
360
265
  0
DICTIONARY
  5
268
330
31
100
AcDbDictionary
280
     1
281
     1
  3
ACAD_XREC_ROUNDTRIP
360
269
  0
DICTIONARY
  5
266
330
30
100
AcDbDictionary
280
     1
281
     1
  3
ACAD_XREC_ROUNDTRIP
360
267
  0
DICTIONARY
  5
26A
330
32
100
AcDbDictionary
280
     1
281
     1
  3
ACAD_XREC_ROUNDTRIP
360
26B
  0
DICTIONARY
  5
272
330
36
100
AcDbDictionary
280
     1
281
     1
  3
ACAD_XREC_ROUNDTRIP
360
273
  0
DICTIONARY
  5
27A
330
3A
100
AcDbDictionary
280
     1
281
     1
  3
ACAD_XREC_ROUNDTRIP
360
27B
  0
DICTIONARY
  5
26E
330
34
100
AcDbDictionary
280
     1
281
     1
  3
ACAD_XREC_ROUNDTRIP
360
26F
  0
DICTIONARY
  5
270
330
35
100
AcDbDictionary
280
     1
281
     1
  3
ACAD_XREC_ROUNDTRIP
360
271
  0
DICTIONARY
  5
278
330
39
100
AcDbDictionary
280
     1
281
     1
  3
ACAD_XREC_ROUNDTRIP
360
279
  0
DICTIONARY
  5
25C
330
2B
100
AcDbDictionary
280
     1
281
     1
  3
ACAD_XREC_ROUNDTRIP
360
25D
  0
DICTIONARY
  5
25E
330
2C
100
AcDbDictionary
280
     1
281
     1
  3
ACAD_XREC_ROUNDTRIP
360
25F
  0
DICTIONARY
  5
260
330
2D
100
AcDbDictionary
280
     1
281
     1
  3
ACAD_XREC_ROUNDTRIP
360
261
  0
DICTIONARY
  5
262
330
2E
100
AcDbDictionary
280
     1
281
     1
  3
ACAD_XREC_ROUNDTRIP
360
263
  0
DICTIONARY
  5
276
330
38
100
AcDbDictionary
280
     1
281
     1
  3
ACAD_XREC_ROUNDTRIP
360
277
  0
DICTIONARY
  5
26C
330
33
100
AcDbDictionary
280
     1
281
     1
  3
ACAD_XREC_ROUNDTRIP
360
26D
  0
DICTIONARY
  5
274
330
37
100
AcDbDictionary
280
     1
281
     1
  3
ACAD_XREC_ROUNDTRIP
360
275
  0
XRECORD
  5
27F
102
{ACAD_REACTORS
330
27E
102
}
330
27E
100
AcDbXrecord
280
     1
102
MATERIAL
148
0.0
149
0.0
149
0.0
 93
        0
 94
      127
282
     0
 72
     1
 77
     1
171
     1
175
     1
179
     1
273
     0
  0
XRECORD
  5
27D
102
{ACAD_REACTORS
330
27C
102
}
330
27C
100
AcDbXrecord
280
     1
102
MATERIAL
148
0.0
149
0.0
149
0.0
 93
        0
 94
      127
282
     0
 72
     1
 77
     1
171
     1
175
     1
179
     1
273
     0
  0
XRECORD
  5
281
102
{ACAD_REACTORS
330
280
102
}
330
280
100
AcDbXrecord
280
     1
102
MATERIAL
148
0.0
149
0.0
149
0.0
 93
        0
 94
      127
282
     0
 72
     1
 77
     1
171
     1
175
     1
179
     1
273
     0
  0
XRECORD
  5
265
102
{ACAD_REACTORS
330
264
102
}
330
264
100
AcDbXrecord
280
     1
102
RTVSPropertyOp0
 70
     1
102
RTVSPropertyOp1
 70
     1
102
RTVSPropertyOp2
 70
     1
102
RTVSPropertyOp3
 70
     1
102
RTVSPropertyOp4
 70
     1
102
RTVSPropertyOp5
 70
     1
102
RTVSPropertyOp6
 70
     1
102
RTVSPropertyOp7
 70
     1
102
RTVSPropertyOp8
 70
     1
102
RTVSPropertyOp9
 70
     1
102
RTVSPropertyOp10
 70
     1
102
RTVSPropertyOp11
 70
     1
102
RTVSPropertyOp12
 70
     1
102
RTVSPropertyOp13
 70
     1
102
RTVSPropertyOp14
 70
     1
102
RTVSPropertyOp15
 70
     1
102
RTVSPropertyOp16
 70
     1
102
RTVSPropertyOp17
 70
     1
102
RTVSPropertyOp18
 70
     1
102
RTVSPropertyOp19
 70
     1
102
RTVSPropertyOp20
 70
     1
102
RTVSPropertyOp21
 70
     1
102
RTVSPropertyOp22
 70
     1
102
RTVSPropertyOp23
 70
     1
102
RTVSPropertyOp24
 70
     1
102
RTVSPropertyOp25
 70
     1
102
RTVSPropertyOp26
 70
     1
102
RTVSPropertyOp27
 70
     1
102
RTVSPropertyOp28
 70
     1
102
RTVSPropertyOp29
 70
     1
102
RTVSPropertyOp30
 70
     1
102
RTVSPropertyOp31
 70
     1
102
RTVSPropertyOp32
 70
     1
  0
XRECORD
  5
269
102
{ACAD_REACTORS
330
268
102
}
330
268
100
AcDbXrecord
280
     1
102
RTVSPropertyOp0
 70
     1
102
RTVSPropertyOp1
 70
     1
102
RTVSPropertyOp2
 70
     1
102
RTVSPropertyOp3
 70
     1
102
RTVSPropertyOp4
 70
     1
102
RTVSPropertyOp5
 70
     1
102
RTVSPropertyOp6
 70
     1
102
RTVSPropertyOp7
 70
     1
102
RTVSPropertyOp8
 70
     1
102
RTVSPropertyOp9
 70
     1
102
RTVSPropertyOp10
 70
     1
102
RTVSPropertyOp11
 70
     1
102
RTVSPropertyOp12
 70
     1
102
RTVSPropertyOp13
 70
     1
102
RTVSPropertyOp14
 70
     1
102
RTVSPropertyOp15
 70
     1
102
RTVSPropertyOp16
 70
     1
102
RTVSPropertyOp17
 70
     1
102
RTVSPropertyOp18
 70
     1
102
RTVSPropertyOp19
 70
     1
102
RTVSPropertyOp20
 70
     1
102
RTVSPropertyOp21
 70
     1
102
RTVSPropertyOp22
 70
     1
102
RTVSPropertyOp23
 70
     1
102
RTVSPropertyOp24
 70
     1
102
RTVSPropertyOp25
 70
     1
102
RTVSPropertyOp26
 70
     1
102
RTVSPropertyOp27
 70
     1
102
RTVSPropertyOp28
 70
     1
102
RTVSPropertyOp29
 70
     1
102
RTVSPropertyOp30
 70
     1
102
RTVSPropertyOp31
 70
     1
102
RTVSPropertyOp32
 70
     1
  0
XRECORD
  5
267
102
{ACAD_REACTORS
330
266
102
}
330
266
100
AcDbXrecord
280
     1
102
RTVSPropertyOp0
 70
     1
102
RTVSPropertyOp1
 70
     1
102
RTVSPropertyOp2
 70
     1
102
RTVSPropertyOp3
 70
     1
102
RTVSPropertyOp4
 70
     1
102
RTVSPropertyOp5
 70
     1
102
RTVSPropertyOp6
 70
     1
102
RTVSPropertyOp7
 70
     1
102
RTVSPropertyOp8
 70
     1
102
RTVSPropertyOp9
 70
     1
102
RTVSPropertyOp10
 70
     1
102
RTVSPropertyOp11
 70
     1
102
RTVSPropertyOp12
 70
     1
102
RTVSPropertyOp13
 70
     1
102
RTVSPropertyOp14
 70
     1
102
RTVSPropertyOp15
 70
     1
102
RTVSPropertyOp16
 70
     1
102
RTVSPropertyOp17
 70
     1
102
RTVSPropertyOp18
 70
     1
102
RTVSPropertyOp19
 70
     1
102
RTVSPropertyOp20
 70
     1
102
RTVSPropertyOp21
 70
     1
102
RTVSPropertyOp22
 70
     1
102
RTVSPropertyOp23
 70
     1
102
RTVSPropertyOp24
 70
     1
102
RTVSPropertyOp25
 70
     1
102
RTVSPropertyOp26
 70
     1
102
RTVSPropertyOp27
 70
     1
102
RTVSPropertyOp28
 70
     1
102
RTVSPropertyOp29
 70
     1
102
RTVSPropertyOp30
 70
     1
102
RTVSPropertyOp31
 70
     1
102
RTVSPropertyOp32
 70
     1
  0
XRECORD
  5
26B
102
{ACAD_REACTORS
330
26A
102
}
330
26A
100
AcDbXrecord
280
     1
102
RTVSPropertyOp0
 70
     1
102
RTVSPropertyOp1
 70
     1
102
RTVSPropertyOp2
 70
     1
102
RTVSPropertyOp3
 70
     1
102
RTVSPropertyOp4
 70
     1
102
RTVSPropertyOp5
 70
     1
102
RTVSPropertyOp6
 70
     1
102
RTVSPropertyOp7
 70
     1
102
RTVSPropertyOp8
 70
     1
102
RTVSPropertyOp9
 70
     1
102
RTVSPropertyOp10
 70
     1
102
RTVSPropertyOp11
 70
     1
102
RTVSPropertyOp12
 70
     1
102
RTVSPropertyOp13
 70
     1
102
RTVSPropertyOp14
 70
     1
102
RTVSPropertyOp15
 70
     1
102
RTVSPropertyOp16
 70
     1
102
RTVSPropertyOp17
 70
     1
102
RTVSPropertyOp18
 70
     1
102
RTVSPropertyOp19
 70
     1
102
RTVSPropertyOp20
 70
     1
102
RTVSPropertyOp21
 70
     1
102
RTVSPropertyOp22
 70
     1
102
RTVSPropertyOp23
 70
     1
102
RTVSPropertyOp24
 70
     1
102
RTVSPropertyOp25
 70
     1
102
RTVSPropertyOp26
 70
     1
102
RTVSPropertyOp27
 70
     1
102
RTVSPropertyOp28
 70
     1
102
RTVSPropertyOp29
 70
     1
102
RTVSPropertyOp30
 70
     1
102
RTVSPropertyOp31
 70
     1
102
RTVSPropertyOp32
 70
     1
  0
XRECORD
  5
273
102
{ACAD_REACTORS
330
272
102
}
330
272
100
AcDbXrecord
280
     1
102
RTVSPropertyOp0
 70
     1
102
RTVSPropertyOp1
 70
     1
102
RTVSPropertyOp2
 70
     1
102
RTVSPropertyOp3
 70
     1
102
RTVSPropertyOp4
 70
     1
102
RTVSPropertyOp5
 70
     1
102
RTVSPropertyOp6
 70
     1
102
RTVSPropertyOp7
 70
     1
102
RTVSPropertyOp8
 70
     1
102
RTVSPropertyOp9
 70
     1
102
RTVSPropertyOp10
 70
     1
102
RTVSPropertyOp11
 70
     1
102
RTVSPropertyOp12
 70
     1
102
RTVSPropertyOp13
 70
     1
102
RTVSPropertyOp14
 70
     1
102
RTVSPropertyOp15
 70
     1
102
RTVSPropertyOp16
 70
     1
102
RTVSPropertyOp17
 70
     1
102
RTVSPropertyOp18
 70
     1
102
RTVSPropertyOp19
 70
     1
102
RTVSPropertyOp20
 70
     1
102
RTVSPropertyOp21
 70
     1
102
RTVSPropertyOp22
 70
     1
102
RTVSPropertyOp23
 70
     1
102
RTVSPropertyOp24
 70
     1
102
RTVSPropertyOp25
 70
     1
102
RTVSPropertyOp26
 70
     1
102
RTVSPropertyOp27
 70
     1
102
RTVSPropertyOp28
 70
     1
102
RTVSPropertyOp29
 70
     1
102
RTVSPropertyOp30
 70
     1
102
RTVSPropertyOp31
 70
     1
102
RTVSPropertyOp32
 70
     1
  0
XRECORD
  5
27B
102
{ACAD_REACTORS
330
27A
102
}
330
27A
100
AcDbXrecord
280
     1
102
RTVSPropertyOp0
 70
     1
102
RTVSPropertyOp1
 70
     1
102
RTVSPropertyOp2
 70
     1
102
RTVSPropertyOp3
 70
     1
102
RTVSPropertyOp4
 70
     1
102
RTVSPropertyOp5
 70
     1
102
RTVSPropertyOp6
 70
     1
102
RTVSPropertyOp7
 70
     1
102
RTVSPropertyOp8
 70
     1
102
RTVSPropertyOp9
 70
     1
102
RTVSPropertyOp10
 70
     1
102
RTVSPropertyOp11
 70
     1
102
RTVSPropertyOp12
 70
     1
102
RTVSPropertyOp13
 70
     1
102
RTVSPropertyOp14
 70
     1
102
RTVSPropertyOp15
 70
     1
102
RTVSPropertyOp16
 70
     1
102
RTVSPropertyOp17
 70
     1
102
RTVSPropertyOp18
 70
     1
102
RTVSPropertyOp19
 70
     1
102
RTVSPropertyOp20
 70
     1
102
RTVSPropertyOp21
 70
     1
102
RTVSPropertyOp22
 70
     1
102
RTVSPropertyOp23
 70
     1
102
RTVSPropertyOp24
 70
     1
102
RTVSPropertyOp25
 70
     1
102
RTVSPropertyOp26
 70
     1
102
RTVSPropertyOp27
 70
     1
102
RTVSPropertyOp28
 70
     1
102
RTVSPropertyOp29
 70
     1
102
RTVSPropertyOp30
 70
     1
102
RTVSPropertyOp31
 70
     1
102
RTVSPropertyOp32
 70
     1
  0
XRECORD
  5
26F
102
{ACAD_REACTORS
330
26E
102
}
330
26E
100
AcDbXrecord
280
     1
102
RTVSPropertyOp0
 70
     1
102
RTVSPropertyOp1
 70
     1
102
RTVSPropertyOp2
 70
     1
102
RTVSPropertyOp3
 70
     1
102
RTVSPropertyOp4
 70
     1
102
RTVSPropertyOp5
 70
     1
102
RTVSPropertyOp6
 70
     1
102
RTVSPropertyOp7
 70
     1
102
RTVSPropertyOp8
 70
     1
102
RTVSPropertyOp9
 70
     1
102
RTVSPropertyOp10
 70
     1
102
RTVSPropertyOp11
 70
     1
102
RTVSPropertyOp12
 70
     1
102
RTVSPropertyOp13
 70
     1
102
RTVSPropertyOp14
 70
     1
102
RTVSPropertyOp15
 70
     1
102
RTVSPropertyOp16
 70
     1
102
RTVSPropertyOp17
 70
     1
102
RTVSPropertyOp18
 70
     1
102
RTVSPropertyOp19
 70
     1
102
RTVSPropertyOp20
 70
     1
102
RTVSPropertyOp21
 70
     1
102
RTVSPropertyOp22
 70
     1
102
RTVSPropertyOp23
 70
     1
102
RTVSPropertyOp24
 70
     1
102
RTVSPropertyOp25
 70
     1
102
RTVSPropertyOp26
 70
     1
102
RTVSPropertyOp27
 70
     1
102
RTVSPropertyOp28
 70
     1
102
RTVSPropertyOp29
 70
     1
102
RTVSPropertyOp30
 70
     1
102
RTVSPropertyOp31
 70
     1
102
RTVSPropertyOp32
 70
     1
  0
XRECORD
  5
271
102
{ACAD_REACTORS
330
270
102
}
330
270
100
AcDbXrecord
280
     1
102
RTVSPropertyOp0
 70
     1
102
RTVSPropertyOp1
 70
     1
102
RTVSPropertyOp2
 70
     1
102
RTVSPropertyOp3
 70
     1
102
RTVSPropertyOp4
 70
     1
102
RTVSPropertyOp5
 70
     1
102
RTVSPropertyOp6
 70
     1
102
RTVSPropertyOp7
 70
     1
102
RTVSPropertyOp8
 70
     1
102
RTVSPropertyOp9
 70
     1
102
RTVSPropertyOp10
 70
     1
102
RTVSPropertyOp11
 70
     1
102
RTVSPropertyOp12
 70
     1
102
RTVSPropertyOp13
 70
     1
102
RTVSPropertyOp14
 70
     1
102
RTVSPropertyOp15
 70
     1
102
RTVSPropertyOp16
 70
     1
102
RTVSPropertyOp17
 70
     1
102
RTVSPropertyOp18
 70
     1
102
RTVSPropertyOp19
 70
     1
102
RTVSPropertyOp20
 70
     1
102
RTVSPropertyOp21
 70
     1
102
RTVSPropertyOp22
 70
     1
102
RTVSPropertyOp23
 70
     1
102
RTVSPropertyOp24
 70
     1
102
RTVSPropertyOp25
 70
     1
102
RTVSPropertyOp26
 70
     1
102
RTVSPropertyOp27
 70
     1
102
RTVSPropertyOp28
 70
     1
102
RTVSPropertyOp29
 70
     1
102
RTVSPropertyOp30
 70
     1
102
RTVSPropertyOp31
 70
     1
102
RTVSPropertyOp32
 70
     1
  0
XRECORD
  5
279
102
{ACAD_REACTORS
330
278
102
}
330
278
100
AcDbXrecord
280
     1
102
RTVSPropertyOp0
 70
     1
102
RTVSPropertyOp1
 70
     1
102
RTVSPropertyOp2
 70
     1
102
RTVSPropertyOp3
 70
     1
102
RTVSPropertyOp4
 70
     1
102
RTVSPropertyOp5
 70
     1
102
RTVSPropertyOp6
 70
     1
102
RTVSPropertyOp7
 70
     1
102
RTVSPropertyOp8
 70
     1
102
RTVSPropertyOp9
 70
     1
102
RTVSPropertyOp10
 70
     1
102
RTVSPropertyOp11
 70
     1
102
RTVSPropertyOp12
 70
     1
102
RTVSPropertyOp13
 70
     1
102
RTVSPropertyOp14
 70
     1
102
RTVSPropertyOp15
 70
     1
102
RTVSPropertyOp16
 70
     1
102
RTVSPropertyOp17
 70
     1
102
RTVSPropertyOp18
 70
     1
102
RTVSPropertyOp19
 70
     1
102
RTVSPropertyOp20
 70
     1
102
RTVSPropertyOp21
 70
     1
102
RTVSPropertyOp22
 70
     1
102
RTVSPropertyOp23
 70
     1
102
RTVSPropertyOp24
 70
     1
102
RTVSPropertyOp25
 70
     1
102
RTVSPropertyOp26
 70
     1
102
RTVSPropertyOp27
 70
     1
102
RTVSPropertyOp28
 70
     1
102
RTVSPropertyOp29
 70
     1
102
RTVSPropertyOp30
 70
     1
102
RTVSPropertyOp31
 70
     1
102
RTVSPropertyOp32
 70
     1
  0
XRECORD
  5
25D
102
{ACAD_REACTORS
330
25C
102
}
330
25C
100
AcDbXrecord
280
     1
102
RTVSPropertyOp0
 70
     1
102
RTVSPropertyOp1
 70
     1
102
RTVSPropertyOp2
 70
     1
102
RTVSPropertyOp3
 70
     1
102
RTVSPropertyOp4
 70
     1
102
RTVSPropertyOp5
 70
     1
102
RTVSPropertyOp6
 70
     1
102
RTVSPropertyOp7
 70
     1
102
RTVSPropertyOp8
 70
     1
102
RTVSPropertyOp9
 70
     1
102
RTVSPropertyOp10
 70
     1
102
RTVSPropertyOp11
 70
     1
102
RTVSPropertyOp12
 70
     1
102
RTVSPropertyOp13
 70
     1
102
RTVSPropertyOp14
 70
     1
102
RTVSPropertyOp15
 70
     1
102
RTVSPropertyOp16
 70
     1
102
RTVSPropertyOp17
 70
     1
102
RTVSPropertyOp18
 70
     1
102
RTVSPropertyOp19
 70
     1
102
RTVSPropertyOp20
 70
     1
102
RTVSPropertyOp21
 70
     1
102
RTVSPropertyOp22
 70
     1
102
RTVSPropertyOp23
 70
     1
102
RTVSPropertyOp24
 70
     1
102
RTVSPropertyOp25
 70
     1
102
RTVSPropertyOp26
 70
     1
102
RTVSPropertyOp27
 70
     1
102
RTVSPropertyOp28
 70
     1
102
RTVSPropertyOp29
 70
     1
102
RTVSPropertyOp30
 70
     1
102
RTVSPropertyOp31
 70
     1
102
RTVSPropertyOp32
 70
     1
  0
XRECORD
  5
25F
102
{ACAD_REACTORS
330
25E
102
}
330
25E
100
AcDbXrecord
280
     1
102
RTVSPropertyOp0
 70
     1
102
RTVSPropertyOp1
 70
     1
102
RTVSPropertyOp2
 70
     1
102
RTVSPropertyOp3
 70
     1
102
RTVSPropertyOp4
 70
     1
102
RTVSPropertyOp5
 70
     1
102
RTVSPropertyOp6
 70
     1
102
RTVSPropertyOp7
 70
     1
102
RTVSPropertyOp8
 70
     1
102
RTVSPropertyOp9
 70
     1
102
RTVSPropertyOp10
 70
     1
102
RTVSPropertyOp11
 70
     1
102
RTVSPropertyOp12
 70
     1
102
RTVSPropertyOp13
 70
     1
102
RTVSPropertyOp14
 70
     1
102
RTVSPropertyOp15
 70
     1
102
RTVSPropertyOp16
 70
     1
102
RTVSPropertyOp17
 70
     1
102
RTVSPropertyOp18
 70
     1
102
RTVSPropertyOp19
 70
     1
102
RTVSPropertyOp20
 70
     1
102
RTVSPropertyOp21
 70
     1
102
RTVSPropertyOp22
 70
     1
102
RTVSPropertyOp23
 70
     1
102
RTVSPropertyOp24
 70
     1
102
RTVSPropertyOp25
 70
     1
102
RTVSPropertyOp26
 70
     1
102
RTVSPropertyOp27
 70
     1
102
RTVSPropertyOp28
 70
     1
102
RTVSPropertyOp29
 70
     1
102
RTVSPropertyOp30
 70
     1
102
RTVSPropertyOp31
 70
     1
102
RTVSPropertyOp32
 70
     1
  0
XRECORD
  5
261
102
{ACAD_REACTORS
330
260
102
}
330
260
100
AcDbXrecord
280
     1
102
RTVSPropertyOp0
 70
     1
102
RTVSPropertyOp1
 70
     1
102
RTVSPropertyOp2
 70
     1
102
RTVSPropertyOp3
 70
     1
102
RTVSPropertyOp4
 70
     1
102
RTVSPropertyOp5
 70
     1
102
RTVSPropertyOp6
 70
     1
102
RTVSPropertyOp7
 70
     1
102
RTVSPropertyOp8
 70
     1
102
RTVSPropertyOp9
 70
     1
102
RTVSPropertyOp10
 70
     1
102
RTVSPropertyOp11
 70
     1
102
RTVSPropertyOp12
 70
     1
102
RTVSPropertyOp13
 70
     1
102
RTVSPropertyOp14
 70
     1
102
RTVSPropertyOp15
 70
     1
102
RTVSPropertyOp16
 70
     1
102
RTVSPropertyOp17
 70
     1
102
RTVSPropertyOp18
 70
     1
102
RTVSPropertyOp19
 70
     1
102
RTVSPropertyOp20
 70
     1
102
RTVSPropertyOp21
 70
     1
102
RTVSPropertyOp22
 70
     1
102
RTVSPropertyOp23
 70
     1
102
RTVSPropertyOp24
 70
     1
102
RTVSPropertyOp25
 70
     1
102
RTVSPropertyOp26
 70
     1
102
RTVSPropertyOp27
 70
     1
102
RTVSPropertyOp28
 70
     1
102
RTVSPropertyOp29
 70
     1
102
RTVSPropertyOp30
 70
     1
102
RTVSPropertyOp31
 70
     1
102
RTVSPropertyOp32
 70
     1
  0
XRECORD
  5
263
102
{ACAD_REACTORS
330
262
102
}
330
262
100
AcDbXrecord
280
     1
102
RTVSPropertyOp0
 70
     1
102
RTVSPropertyOp1
 70
     1
102
RTVSPropertyOp2
 70
     1
102
RTVSPropertyOp3
 70
     1
102
RTVSPropertyOp4
 70
     1
102
RTVSPropertyOp5
 70
     1
102
RTVSPropertyOp6
 70
     1
102
RTVSPropertyOp7
 70
     1
102
RTVSPropertyOp8
 70
     1
102
RTVSPropertyOp9
 70
     1
102
RTVSPropertyOp10
 70
     1
102
RTVSPropertyOp11
 70
     1
102
RTVSPropertyOp12
 70
     1
102
RTVSPropertyOp13
 70
     1
102
RTVSPropertyOp14
 70
     1
102
RTVSPropertyOp15
 70
     1
102
RTVSPropertyOp16
 70
     1
102
RTVSPropertyOp17
 70
     1
102
RTVSPropertyOp18
 70
     1
102
RTVSPropertyOp19
 70
     1
102
RTVSPropertyOp20
 70
     1
102
RTVSPropertyOp21
 70
     1
102
RTVSPropertyOp22
 70
     1
102
RTVSPropertyOp23
 70
     1
102
RTVSPropertyOp24
 70
     1
102
RTVSPropertyOp25
 70
     1
102
RTVSPropertyOp26
 70
     1
102
RTVSPropertyOp27
 70
     1
102
RTVSPropertyOp28
 70
     1
102
RTVSPropertyOp29
 70
     1
102
RTVSPropertyOp30
 70
     1
102
RTVSPropertyOp31
 70
     1
102
RTVSPropertyOp32
 70
     1
  0
XRECORD
  5
277
102
{ACAD_REACTORS
330
276
102
}
330
276
100
AcDbXrecord
280
     1
102
RTVSPropertyOp0
 70
     1
102
RTVSPropertyOp1
 70
     1
102
RTVSPropertyOp2
 70
     1
102
RTVSPropertyOp3
 70
     1
102
RTVSPropertyOp4
 70
     1
102
RTVSPropertyOp5
 70
     1
102
RTVSPropertyOp6
 70
     1
102
RTVSPropertyOp7
 70
     1
102
RTVSPropertyOp8
 70
     1
102
RTVSPropertyOp9
 70
     1
102
RTVSPropertyOp10
 70
     1
102
RTVSPropertyOp11
 70
     1
102
RTVSPropertyOp12
 70
     1
102
RTVSPropertyOp13
 70
     1
102
RTVSPropertyOp14
 70
     1
102
RTVSPropertyOp15
 70
     1
102
RTVSPropertyOp16
 70
     1
102
RTVSPropertyOp17
 70
     1
102
RTVSPropertyOp18
 70
     1
102
RTVSPropertyOp19
 70
     1
102
RTVSPropertyOp20
 70
     1
102
RTVSPropertyOp21
 70
     1
102
RTVSPropertyOp22
 70
     1
102
RTVSPropertyOp23
 70
     1
102
RTVSPropertyOp24
 70
     1
102
RTVSPropertyOp25
 70
     1
102
RTVSPropertyOp26
 70
     1
102
RTVSPropertyOp27
 70
     1
102
RTVSPropertyOp28
 70
     1
102
RTVSPropertyOp29
 70
     1
102
RTVSPropertyOp30
 70
     1
102
RTVSPropertyOp31
 70
     1
102
RTVSPropertyOp32
 70
     1
  0
XRECORD
  5
26D
102
{ACAD_REACTORS
330
26C
102
}
330
26C
100
AcDbXrecord
280
     1
102
RTVSPropertyOp0
 70
     1
102
RTVSPropertyOp1
 70
     1
102
RTVSPropertyOp2
 70
     1
102
RTVSPropertyOp3
 70
     1
102
RTVSPropertyOp4
 70
     1
102
RTVSPropertyOp5
 70
     1
102
RTVSPropertyOp6
 70
     1
102
RTVSPropertyOp7
 70
     1
102
RTVSPropertyOp8
 70
     1
102
RTVSPropertyOp9
 70
     1
102
RTVSPropertyOp10
 70
     1
102
RTVSPropertyOp11
 70
     1
102
RTVSPropertyOp12
 70
     1
102
RTVSPropertyOp13
 70
     1
102
RTVSPropertyOp14
 70
     1
102
RTVSPropertyOp15
 70
     1
102
RTVSPropertyOp16
 70
     1
102
RTVSPropertyOp17
 70
     1
102
RTVSPropertyOp18
 70
     1
102
RTVSPropertyOp19
 70
     1
102
RTVSPropertyOp20
 70
     1
102
RTVSPropertyOp21
 70
     1
102
RTVSPropertyOp22
 70
     1
102
RTVSPropertyOp23
 70
     1
102
RTVSPropertyOp24
 70
     1
102
RTVSPropertyOp25
 70
     1
102
RTVSPropertyOp26
 70
     1
102
RTVSPropertyOp27
 70
     1
102
RTVSPropertyOp28
 70
     1
102
RTVSPropertyOp29
 70
     1
102
RTVSPropertyOp30
 70
     1
102
RTVSPropertyOp31
 70
     1
102
RTVSPropertyOp32
 70
     1
  0
XRECORD
  5
275
102
{ACAD_REACTORS
330
274
102
}
330
274
100
AcDbXrecord
280
     1
102
RTVSPropertyOp0
 70
     1
102
RTVSPropertyOp1
 70
     1
102
RTVSPropertyOp2
 70
     1
102
RTVSPropertyOp3
 70
     1
102
RTVSPropertyOp4
 70
     1
102
RTVSPropertyOp5
 70
     1
102
RTVSPropertyOp6
 70
     1
102
RTVSPropertyOp7
 70
     1
102
RTVSPropertyOp8
 70
     1
102
RTVSPropertyOp9
 70
     1
102
RTVSPropertyOp10
 70
     1
102
RTVSPropertyOp11
 70
     1
102
RTVSPropertyOp12
 70
     1
102
RTVSPropertyOp13
 70
     1
102
RTVSPropertyOp14
 70
     1
102
RTVSPropertyOp15
 70
     1
102
RTVSPropertyOp16
 70
     1
102
RTVSPropertyOp17
 70
     1
102
RTVSPropertyOp18
 70
     1
102
RTVSPropertyOp19
 70
     1
102
RTVSPropertyOp20
 70
     1
102
RTVSPropertyOp21
 70
     1
102
RTVSPropertyOp22
 70
     1
102
RTVSPropertyOp23
 70
     1
102
RTVSPropertyOp24
 70
     1
102
RTVSPropertyOp25
 70
     1
102
RTVSPropertyOp26
 70
     1
102
RTVSPropertyOp27
 70
     1
102
RTVSPropertyOp28
 70
     1
102
RTVSPropertyOp29
 70
     1
102
RTVSPropertyOp30
 70
     1
102
RTVSPropertyOp31
 70
     1
102
RTVSPropertyOp32
 70
     1
  0
ENDSEC
  0
EOF
