  0
SECTION
  2
HEADER
  9
$ACADVER
  1
AC1015
  9
$ACADMAINTVER
 70
     6
  9
$DWGCODEPAGE
  3
DOS932
  9
$INSBASE
 10
0.0
 20
0.0
 30
0.0
  9
$EXTMIN
 10
0.0
 20
0.0
 30
0.0
  9
$EXTMAX
 10
1050.0
 20
1485.0
 30
0.0
  9
$LIMMIN
 10
0.0
 20
0.0
  9
$LIMMAX
 10
12.0
 20
9.0
  9
$ORTHOMODE
 70
     0
  9
$REGENMODE
 70
     1
  9
$FILLMODE
 70
     1
  9
$QTEXTMODE
 70
     0
  9
$MIRRTEXT
 70
     1
  9
$LTSCALE
 40
1.0
  9
$ATTMODE
 70
     1
  9
$TEXTSIZE
 40
0.2
  9
$TRACEWID
 40
0.05
  9
$TEXTSTYLE
  7
Standard
  9
$CLAYER
  8
0
  9
$CELTYPE
  6
ByLayer
  9
$CECOLOR
 62
   256
  9
$CELTSCALE
 40
1.0
  9
$DISPSILH
 70
     0
  9
$DIMSCALE
 40
1.0
  9
$DIMASZ
 40
0.18
  9
$DIMEXO
 40
0.0625
  9
$DIMDLI
 40
0.38
  9
$DIMRND
 40
0.0
  9
$DIMDLE
 40
0.0
  9
$DIMEXE
 40
0.18
  9
$DIMTP
 40
0.0
  9
$DIMTM
 40
0.0
  9
$DIMTXT
 40
0.18
  9
$DIMCEN
 40
0.09
  9
$DIMTSZ
 40
0.0
  9
$DIMTOL
 70
     0
  9
$DIMLIM
 70
     0
  9
$DIMTIH
 70
     1
  9
$DIMTOH
 70
     1
  9
$DIMSE1
 70
     0
  9
$DIMSE2
 70
     0
  9
$DIMTAD
 70
     0
  9
$DIMZIN
 70
     0
  9
$DIMBLK
  1

  9
$DIMASO
 70
     1
  9
$DIMSHO
 70
     1
  9
$DIMPOST
  1

  9
$DIMAPOST
  1

  9
$DIMALT
 70
     0
  9
$DIMALTD
 70
     2
  9
$DIMALTF
 40
25.4
  9
$DIMLFAC
 40
1.0
  9
$DIMTOFL
 70
     0
  9
$DIMTVP
 40
0.0
  9
$DIMTIX
 70
     0
  9
$DIMSOXD
 70
     0
  9
$DIMSAH
 70
     0
  9
$DIMBLK1
  1

  9
$DIMBLK2
  1

  9
$DIMSTYLE
  2
Standard
  9
$DIMCLRD
 70
     0
  9
$DIMCLRE
 70
     0
  9
$DIMCLRT
 70
     0
  9
$DIMTFAC
 40
1.0
  9
$DIMGAP
 40
0.09
  9
$DIMJUST
 70
     0
  9
$DIMSD1
 70
     0
  9
$DIMSD2
 70
     0
  9
$DIMTOLJ
 70
     1
  9
$DIMTZIN
 70
     0
  9
$DIMALTZ
 70
     0
  9
$DIMALTTZ
 70
     0
  9
$DIMUPT
 70
     0
  9
$DIMDEC
 70
     4
  9
$DIMTDEC
 70
     4
  9
$DIMALTU
 70
     2
  9
$DIMALTTD
 70
     2
  9
$DIMTXSTY
  7
Standard
  9
$DIMAUNIT
 70
     0
  9
$DIMADEC
 70
     0
  9
$DIMALTRND
 40
0.0
  9
$DIMAZIN
 70
     0
  9
$DIMDSEP
 70
    46
  9
$DIMATFIT
 70
     3
  9
$DIMFRAC
 70
     0
  9
$DIMLDRBLK
  1

  9
$DIMLUNIT
 70
     2
  9
$DIMLWD
 70
    -2
  9
$DIMLWE
 70
    -2
  9
$DIMTMOVE
 70
     0
  9
$LUNITS
 70
     2
  9
$LUPREC
 70
     4
  9
$SKETCHINC
 40
0.1
  9
$FILLETRAD
 40
0.5
  9
$AUNITS
 70
     0
  9
$AUPREC
 70
     0
  9
$MENU
  1
.
  9
$ELEVATION
 40
0.0
  9
$PELEVATION
 40
0.0
  9
$THICKNESS
 40
0.0
  9
$LIMCHECK
 70
     0
  9
$CHAMFERA
 40
0.5
  9
$CHAMFERB
 40
0.5
  9
$CHAMFERC
 40
1.0
  9
$CHAMFERD
 40
0.0
  9
$SKPOLY
 70
     0
  9
$TDCREATE
 40
2456181.680441435
  9
$TDUCREATE
 40
2456181.305441435
  9
$TDUPDATE
 40
2456181.680441447
  9
$TDUUPDATE
 40
2456181.305441447
  9
$TDINDWG
 40
0.0000000116
  9
$TDUSRTIMER
 40
0.0000000116
  9
$USRTIMER
 70
     1
  9
$ANGBASE
 50
0.0
  9
$ANGDIR
 70
     0
  9
$PDMODE
 70
     0
  9
$PDSIZE
 40
0.0
  9
$PLINEWID
 40
0.0
  9
$SPLFRAME
 70
     0
  9
$SPLINETYPE
 70
     6
  9
$SPLINESEGS
 70
     8
  9
$HANDSEED
  5
4FC
  9
$SURFTAB1
 70
     6
  9
$SURFTAB2
 70
     6
  9
$SURFTYPE
 70
     6
  9
$SURFU
 70
     6
  9
$SURFV
 70
     6
  9
$UCSBASE
  2

  9
$UCSNAME
  2

  9
$UCSORG
 10
0.0
 20
0.0
 30
0.0
  9
$UCSXDIR
 10
1.0
 20
0.0
 30
0.0
  9
$UCSYDIR
 10
0.0
 20
1.0
 30
0.0
  9
$UCSORTHOREF
  2

  9
$UCSORTHOVIEW
 70
     0
  9
$UCSORGTOP
 10
0.0
 20
0.0
 30
0.0
  9
$UCSORGBOTTOM
 10
0.0
 20
0.0
 30
0.0
  9
$UCSORGLEFT
 10
0.0
 20
0.0
 30
0.0
  9
$UCSORGRIGHT
 10
0.0
 20
0.0
 30
0.0
  9
$UCSORGFRONT
 10
0.0
 20
0.0
 30
0.0
  9
$UCSORGBACK
 10
0.0
 20
0.0
 30
0.0
  9
$PUCSBASE
  2

  9
$PUCSNAME
  2

  9
$PUCSORG
 10
0.0
 20
0.0
 30
0.0
  9
$PUCSXDIR
 10
1.0
 20
0.0
 30
0.0
  9
$PUCSYDIR
 10
0.0
 20
1.0
 30
0.0
  9
$PUCSORTHOREF
  2

  9
$PUCSORTHOVIEW
 70
     0
  9
$PUCSORGTOP
 10
0.0
 20
0.0
 30
0.0
  9
$PUCSORGBOTTOM
 10
0.0
 20
0.0
 30
0.0
  9
$PUCSORGLEFT
 10
0.0
 20
0.0
 30
0.0
  9
$PUCSORGRIGHT
 10
0.0
 20
0.0
 30
0.0
  9
$PUCSORGFRONT
 10
0.0
 20
0.0
 30
0.0
  9
$PUCSORGBACK
 10
0.0
 20
0.0
 30
0.0
  9
$USERI1
 70
     0
  9
$USERI2
 70
     0
  9
$USERI3
 70
     0
  9
$USERI4
 70
     0
  9
$USERI5
 70
     0
  9
$USERR1
 40
13.2
  9
$USERR2
 40
0.0
  9
$USERR3
 40
0.0
  9
$USERR4
 40
0.0
  9
$USERR5
 40
0.0
  9
$WORLDVIEW
 70
     1
  9
$SHADEDGE
 70
     3
  9
$SHADEDIF
 70
    70
  9
$TILEMODE
 70
     1
  9
$MAXACTVP
 70
    64
  9
$PINSBASE
 10
0.0
 20
0.0
 30
0.0
  9
$PLIMCHECK
 70
     0
  9
$PEXTMIN
 10
1.00000000000000E+20
 20
1.00000000000000E+20
 30
1.00000000000000E+20
  9
$PEXTMAX
 10
-1.00000000000000E+20
 20
-1.00000000000000E+20
 30
-1.00000000000000E+20
  9
$PLIMMIN
 10
0.0
 20
0.0
  9
$PLIMMAX
 10
12.0
 20
9.0
  9
$UNITMODE
 70
     0
  9
$VISRETAIN
 70
     1
  9
$PLINEGEN
 70
     0
  9
$PSLTSCALE
 70
     1
  9
$TREEDEPTH
 70
  3020
  9
$CMLSTYLE
  2
Standard
  9
$CMLJUST
 70
     0
  9
$CMLSCALE
 40
1.0
  9
$PROXYGRAPHICS
 70
     1
  9
$MEASUREMENT
 70
     1
  9
$CELWEIGHT
370
    -1
  9
$ENDCAPS
280
     0
  9
$JOINSTYLE
280
     0
  9
$LWDISPLAY
290
     0
  9
$INSUNITS
 70
     1
  9
$HYPERLINKBASE
  1

  9
$STYLESHEET
  1

  9
$XEDIT
290
     1
  9
$CEPSNTYPE
380
     0
  9
$PSTYLEMODE
290
     0
  9
$FINGERPRINTGUID
  2
{FAEB1C30-E019-11D5-929B-00C0DF256EC4}
  9
$VERSIONGUID
  2
{FAEB1C32-E019-11D5-929B-00C0DF256EC4}
  9
$EXTNAMES
290
     1
  9
$PSVPSCALE
 40
0.0
  9
$OLESTARTUP
290
     0
  0
ENDSEC
  0
SECTION
  2
CLASSES
  0
CLASS
  1
ACDBDICTIONARYWDFLT
  2
AcDbDictionaryWithDefault
  3
ObjectDBX Classes
 90
        0
280
     0
281
     0
  0
CLASS
  1
TABLESTYLE
  2
AcDbTableStyle
  3
ObjectDBX Classes
 90
     2047
280
     0
281
     0
  0
CLASS
  1
DICTIONARYVAR
  2
AcDbDictionaryVar
  3
ObjectDBX Classes
 90
        0
280
     0
281
     0
  0
CLASS
  1

  2
exOdDbCircle
  3

 90
        0
280
     0
281
     1
  0
CLASS
  1

  2
exOdDbSpline
  3

 90
        0
280
     0
281
     1
  0
CLASS
  1
ACDBPLACEHOLDER
  2
AcDbPlaceHolder
  3
ObjectDBX Classes
 90
        0
280
     0
281
     0
  0
CLASS
  1
LAYOUT
  2
AcDbLayout
  3
ObjectDBX Classes
 90
        0
280
     0
281
     0
  0
ENDSEC
  0
SECTION
  2
TABLES
  0
TABLE
  2
VPORT
  5
8
330
0
100
AcDbSymbolTable
 70
     2
  0
VPORT
  5
29
330
8
100
AcDbSymbolTableRecord
100
AcDbViewportTableRecord
  2
*Active
 70
     0
 10
0.0
 20
0.0
 11
1.0
 21
1.0
 12
525.0
 22
742.5
 13
0.0
 23
0.0
 14
0.5
 24
0.5
 15
0.5
 25
0.5
 16
0.0
 26
0.0
 36
1.0
 17
0.0
 27
0.0
 37
0.0
 40
1633.5
 41
1.60267857142857
 42
50.0
 43
0.0
 44
0.0
 50
0.0
 51
0.0
 71
     0
 72
   100
 73
     1
 74
     3
 75
     0
 76
     0
 77
     0
 78
     0
281
     0
 65
     1
110
0.0
120
0.0
130
0.0
111
1.0
121
0.0
131
0.0
112
0.0
122
1.0
132
0.0
 79
     0
146
0.0
  0
ENDTAB
  0
TABLE
  2
LTYPE
  5
5
330
0
100
AcDbSymbolTable
 70
     8
  0
LTYPE
  5
14
330
5
100
AcDbSymbolTableRecord
100
AcDbLinetypeTableRecord
  2
ByBlock
 70
     0
  3

 72
    65
 73
     0
 40
0.0
  0
LTYPE
  5
15
330
5
100
AcDbSymbolTableRecord
100
AcDbLinetypeTableRecord
  2
ByLayer
 70
     0
  3

 72
    65
 73
     0
 40
0.0
  0
LTYPE
  5
16
330
5
100
AcDbSymbolTableRecord
100
AcDbLinetypeTableRecord
  2
Continuous
 70
     0
  3
Solid line
 72
    65
 73
     0
 40
0.0
  0
LTYPE
  5
2E
330
5
100
AcDbSymbolTableRecord
100
AcDbLinetypeTableRecord
  2
DASHED
 70
     0
  3
Dashed
 72
    65
 73
     2
 40
15.0
 49
7.0
 74
     0
 49
-8.0
 74
     0
  0
LTYPE
  5
2F
330
5
100
AcDbSymbolTableRecord
100
AcDbLinetypeTableRecord
  2
DOTTED
 70
     0
  3
Dotted
 72
    65
 73
     2
 40
1.0
 49
0.0
 74
     0
 49
-1.0
 74
     0
  0
LTYPE
  5
30
330
5
100
AcDbSymbolTableRecord
100
AcDbLinetypeTableRecord
  2
DOT_CENTER
 70
     0
  3
Dot_Center
 72
    65
 73
     4
 40
14.0
 49
12.0
 74
     0
 49
-1.0
 74
     0
 49
0.0
 74
     0
 49
-1.0
 74
     0
  0
LTYPE
  5
31
330
5
100
AcDbSymbolTableRecord
100
AcDbLinetypeTableRecord
  2
LONG_DASHED
 70
     0
  3
Long_Dashed
 72
    65
 73
     2
 40
15.0
 49
10.0
 74
     0
 49
-5.0
 74
     0
  0
LTYPE
  5
32
330
5
100
AcDbSymbolTableRecord
100
AcDbLinetypeTableRecord
  2
DASH_CENTER
 70
     0
  3
Dash_Center
 72
    65
 73
     4
 40
14.0
 49
11.0
 74
     0
 49
-1.0
 74
     0
 49
1.0
 74
     0
 49
-1.0
 74
     0
  0
LTYPE
  5
33
330
5
100
AcDbSymbolTableRecord
100
AcDbLinetypeTableRecord
  2
PHANTOM
 70
     0
  3
Phantom
 72
    65
 73
     6
 40
13.0
 49
10.0
 74
     0
 49
-1.0
 74
     0
 49
0.0
 74
     0
 49
-1.0
 74
     0
 49
0.0
 74
     0
 49
-1.0
 74
     0
  0
LTYPE
  5
34
330
5
100
AcDbSymbolTableRecord
100
AcDbLinetypeTableRecord
  2
CENTER_DASH_DASH
 70
     0
  3
Center_Dash_Dash
 72
    65
 73
     6
 40
14.0
 49
9.0
 74
     0
 49
-1.0
 74
     0
 49
1.0
 74
     0
 49
-1.0
 74
     0
 49
1.0
 74
     0
 49
-1.0
 74
     0
  0
ENDTAB
  0
TABLE
  2
LAYER
  5
2
330
0
100
AcDbSymbolTable
 70
     2
  0
LAYER
  5
10
330
2
100
AcDbSymbolTableRecord
100
AcDbLayerTableRecord
  2
0
 70
     0
 62
     7
  6
Continuous
370
    -3
390
F
  0
LAYER
  5
35
330
2
100
AcDbSymbolTableRecord
100
AcDbLayerTableRecord
  2
1
 70
     0
 62
     7
  6
Continuous
370
    -3
390
F
  0
ENDTAB
  0
TABLE
  2
STYLE
  5
3
330
0
100
AcDbSymbolTable
 70
     3
  0
STYLE
  5
11
330
3
100
AcDbSymbolTableRecord
100
AcDbTextStyleTableRecord
  2
Standard
 70
     0
 40
0.0
 41
1.0
 50
0.0
 71
     0
 42
0.2
  3
txt
  4

  0
STYLE
  5
230
330
3
100
AcDbSymbolTableRecord
100
AcDbTextStyleTableRecord
  2
CONVERTER_1
 70
     0
 40
0.0
 41
0.89
 50
0.0
 71
     0
 42
0.2
  3
msmincho.ttc
  4

1001
ACAD
1000
MS Mincho
1071
    32785
  0
STYLE
  5
467
330
3
100
AcDbSymbolTableRecord
100
AcDbTextStyleTableRecord
  2
CONVERTER_2
 70
     0
 40
0.0
 41
0.9
 50
0.0
 71
     0
 42
0.2
  3
txt.shx
  4

  0
ENDTAB
  0
TABLE
  2
VIEW
  5
6
330
0
100
AcDbSymbolTable
 70
     0
  0
ENDTAB
  0
TABLE
  2
UCS
  5
7
330
0
100
AcDbSymbolTable
 70
     0
  0
ENDTAB
  0
TABLE
  2
APPID
  5
9
330
0
100
AcDbSymbolTable
 70
     1
  0
APPID
  5
12
330
9
100
AcDbSymbolTableRecord
100
AcDbRegAppTableRecord
  2
ACAD
 70
     0
  0
ENDTAB
  0
TABLE
  2
DIMSTYLE
  5
A
330
0
100
AcDbSymbolTable
 70
    13
100
AcDbDimStyleTable
  0
DIMSTYLE
105
27
330
A
100
AcDbSymbolTableRecord
100
AcDbDimStyleTableRecord
  2
Standard
 70
     0
340
11
  0
DIMSTYLE
105
47E
102
{ACAD_REACTORS
330
47F
102
}
330
A
100
AcDbSymbolTableRecord
100
AcDbDimStyleTableRecord
  2
ME10_DIM_0
 70
     0
 41
17.5
 42
0.0
 44
5.0
 73
     0
 74
     0
 77
     1
 78
     8
140
17.5
147
0.625
172
     1
173
     1
176
     2
177
     2
178
     7
271
     2
340
467
  0
DIMSTYLE
105
48A
102
{ACAD_REACTORS
330
48B
102
}
330
A
100
AcDbSymbolTableRecord
100
AcDbDimStyleTableRecord
  2
ME10_DIM_1
 70
     0
  3
{\Fgdt;n}<>
 41
17.5
 42
0.0
 44
5.0
 73
     0
 74
     0
 77
     1
 78
     8
140
17.5
147
0.625
172
     1
173
     1
176
     2
177
     2
178
     7
271
     2
340
467
  0
DIMSTYLE
105
495
102
{ACAD_REACTORS
330
496
102
}
330
A
100
AcDbSymbolTableRecord
100
AcDbDimStyleTableRecord
  2
ME10_DIM_2
 70
     0
 41
17.5
 42
0.0
 44
5.0
 73
     0
 74
     0
 77
     1
 78
     8
140
17.5
147
0.625
172
     1
173
     1
176
     2
177
     2
178
     7
271
     2
340
467
  0
DIMSTYLE
105
4A0
102
{ACAD_REACTORS
330
4A1
102
}
330
A
100
AcDbSymbolTableRecord
100
AcDbDimStyleTableRecord
  2
ME10_DIM_3
 70
     0
 41
17.5
 42
0.0
 44
5.0
 73
     0
 74
     0
 77
     1
 78
     8
140
17.5
147
0.625
172
     1
173
     1
176
     2
177
     2
178
     7
271
     2
340
467
  0
DIMSTYLE
105
4AB
102
{ACAD_REACTORS
330
4AC
102
}
330
A
100
AcDbSymbolTableRecord
100
AcDbDimStyleTableRecord
  2
ME10_DIM_4
 70
     0
 41
17.5
 42
0.0
 44
5.0
 73
     0
 74
     0
 77
     1
 78
     8
140
17.5
147
0.625
172
     1
173
     1
176
     2
177
     2
178
     7
271
     2
340
230
  0
DIMSTYLE
105
4B6
102
{ACAD_REACTORS
330
4B7
102
}
330
A
100
AcDbSymbolTableRecord
100
AcDbDimStyleTableRecord
  2
ME10_DIM_5
 70
     0
 41
17.5
 42
0.0
 44
5.0
 73
     0
 74
     0
 77
     1
 78
     8
140
17.5
147
0.625
172
     1
173
     1
176
     2
177
     2
178
     7
271
     2
340
467
  0
DIMSTYLE
105
4C1
102
{ACAD_REACTORS
330
4C2
102
}
330
A
100
AcDbSymbolTableRecord
100
AcDbDimStyleTableRecord
  2
ME10_DIM_6
 70
     0
 41
17.5
 42
0.0
 44
5.0
 73
     0
 74
     0
 77
     1
 78
     8
140
17.5
147
0.625
172
     1
173
     1
176
     2
177
     2
178
     7
271
     2
340
467
  0
DIMSTYLE
105
4CC
102
{ACAD_REACTORS
330
4CD
102
}
330
A
100
AcDbSymbolTableRecord
100
AcDbDimStyleTableRecord
  2
ME10_DIM_7
 70
     0
 41
17.5
 42
0.0
 44
5.0
 73
     0
 74
     0
 77
     1
 78
     8
140
17.5
147
0.625
172
     1
173
     1
176
     2
177
     2
178
     7
271
     2
340
467
  0
DIMSTYLE
105
4D8
102
{ACAD_REACTORS
330
4D9
102
}
330
A
100
AcDbSymbolTableRecord
100
AcDbDimStyleTableRecord
  2
ME10_DIM_8
 70
     0
  3
最小<>
 41
17.5
 42
0.0
 44
5.0
 73
     0
 74
     0
 77
     1
 78
     8
140
17.5
147
0.625
172
     1
173
     1
176
     2
177
     2
178
     7
271
     2
340
230
  0
DIMSTYLE
105
4E4
102
{ACAD_REACTORS
330
4E5
102
}
330
A
100
AcDbSymbolTableRecord
100
AcDbDimStyleTableRecord
  2
ME10_DIM_9
 70
     0
  3
最大<>
 41
17.5
 42
0.0
 44
5.0
 73
     0
 74
     0
 77
     1
 78
     8
140
17.5
147
0.625
172
     1
173
     1
176
     2
177
     2
178
     7
271
     2
340
230
  0
DIMSTYLE
105
4EF
102
{ACAD_REACTORS
330
4F0
102
}
330
A
100
AcDbSymbolTableRecord
100
AcDbDimStyleTableRecord
  2
ME10_DIM_10
 70
     0
 41
17.5
 42
0.0
 44
5.0
 73
     0
 74
     0
 77
     1
 78
     8
140
17.5
147
0.625
172
     1
173
     1
176
     2
177
     2
178
     7
271
     2
340
467
  0
DIMSTYLE
105
4FA
102
{ACAD_REACTORS
330
4FB
102
}
330
A
100
AcDbSymbolTableRecord
100
AcDbDimStyleTableRecord
  2
ME10_DIM_11
 70
     0
 41
17.5
 42
0.0
 44
5.0
 73
     0
 74
     0
 77
     1
 78
     8
140
17.5
147
0.625
172
     1
173
     1
176
     2
177
     2
178
     7
271
     2
340
467
  0
ENDTAB
  0
TABLE
  2
BLOCK_RECORD
  5
1
330
0
100
AcDbSymbolTable
 70
    42
  0
BLOCK_RECORD
  5
1F
330
1
100
AcDbSymbolTableRecord
100
AcDbBlockTableRecord
  2
*Model_Space
340
22
  0
BLOCK_RECORD
  5
1B
330
1
100
AcDbSymbolTableRecord
100
AcDbBlockTableRecord
  2
*Paper_Space
340
1E
  0
BLOCK_RECORD
  5
23
330
1
100
AcDbSymbolTableRecord
100
AcDbBlockTableRecord
  2
*Paper_Space0
340
26
  0
BLOCK_RECORD
  5
36
330
1
100
AcDbSymbolTableRecord
100
AcDbBlockTableRecord
  2
30-108K__1
340
0
102
{BLKREFS
331
4C
102
}
  0
BLOCK_RECORD
  5
39
330
1
100
AcDbSymbolTableRecord
100
AcDbBlockTableRecord
  2
78-78K__2
340
0
102
{BLKREFS
331
4D
102
}
  0
BLOCK_RECORD
  5
3C
330
1
100
AcDbSymbolTableRecord
100
AcDbBlockTableRecord
  2
36-99K__3
340
0
102
{BLKREFS
331
4E
102
}
  0
BLOCK_RECORD
  5
3F
330
1
100
AcDbSymbolTableRecord
100
AcDbBlockTableRecord
  2
35-6A-8__4
340
0
102
{BLKREFS
331
4F
102
}
  0
BLOCK_RECORD
  5
42
330
1
100
AcDbSymbolTableRecord
100
AcDbBlockTableRecord
  2
78-3A__5
340
0
102
{BLKREFS
331
50
102
}
  0
BLOCK_RECORD
  5
45
330
1
100
AcDbSymbolTableRecord
100
AcDbBlockTableRecord
  2
32-3__6
340
0
102
{BLKREFS
331
51
102
}
  0
BLOCK_RECORD
  5
48
330
1
100
AcDbSymbolTableRecord
100
AcDbBlockTableRecord
  2
03-47-50__7
340
0
102
{BLKREFS
331
52
102
}
  0
BLOCK_RECORD
  5
4B
330
1
100
AcDbSymbolTableRecord
100
AcDbBlockTableRecord
  2
U003-47X-50
340
0
102
{BLKREFS
331
A3
102
}
  0
BLOCK_RECORD
  5
55
330
1
100
AcDbSymbolTableRecord
100
AcDbBlockTableRecord
  2
35-6A-8__8
340
0
102
{BLKREFS
331
6B
102
}
  0
BLOCK_RECORD
  5
58
330
1
100
AcDbSymbolTableRecord
100
AcDbBlockTableRecord
  2
30-108K__9
340
0
102
{BLKREFS
331
6C
102
}
  0
BLOCK_RECORD
  5
5B
330
1
100
AcDbSymbolTableRecord
100
AcDbBlockTableRecord
  2
78-78K__10
340
0
102
{BLKREFS
331
6D
102
}
  0
BLOCK_RECORD
  5
5E
330
1
100
AcDbSymbolTableRecord
100
AcDbBlockTableRecord
  2
36-99K__11
340
0
102
{BLKREFS
331
6E
102
}
  0
BLOCK_RECORD
  5
61
330
1
100
AcDbSymbolTableRecord
100
AcDbBlockTableRecord
  2
03-47-50__12
340
0
102
{BLKREFS
331
6F
102
}
  0
BLOCK_RECORD
  5
64
330
1
100
AcDbSymbolTableRecord
100
AcDbBlockTableRecord
  2
78-3A__13
340
0
102
{BLKREFS
331
70
102
}
  0
BLOCK_RECORD
  5
67
330
1
100
AcDbSymbolTableRecord
100
AcDbBlockTableRecord
  2
32-3__14
340
0
102
{BLKREFS
331
71
102
}
  0
BLOCK_RECORD
  5
6A
330
1
100
AcDbSymbolTableRecord
100
AcDbBlockTableRecord
  2
U3-48F-50
340
0
102
{BLKREFS
331
A4
102
}
  0
BLOCK_RECORD
  5
74
330
1
100
AcDbSymbolTableRecord
100
AcDbBlockTableRecord
  2
_J__A4
340
0
102
{BLKREFS
331
A5
102
}
  0
BLOCK_RECORD
  5
77
330
1
100
AcDbSymbolTableRecord
100
AcDbBlockTableRecord
  2
32-1-16__15
340
0
102
{BLKREFS
331
90
102
}
  0
BLOCK_RECORD
  5
7A
330
1
100
AcDbSymbolTableRecord
100
AcDbBlockTableRecord
  2
60-7-170
340
0
102
{BLKREFS
331
91
102
}
  0
BLOCK_RECORD
  5
7D
330
1
100
AcDbSymbolTableRecord
100
AcDbBlockTableRecord
  2
32-1-16__16
340
0
102
{BLKREFS
331
92
102
}
  0
BLOCK_RECORD
  5
80
330
1
100
AcDbSymbolTableRecord
100
AcDbBlockTableRecord
  2
84-26B
340
0
102
{BLKREFS
331
8B
102
}
  0
BLOCK_RECORD
  5
83
330
1
100
AcDbSymbolTableRecord
100
AcDbBlockTableRecord
  2
30-44
340
0
102
{BLKREFS
331
87
102
}
  0
BLOCK_RECORD
  5
86
330
1
100
AcDbSymbolTableRecord
100
AcDbBlockTableRecord
  2
M280
340
0
102
{BLKREFS
331
8C
102
}
  0
BLOCK_RECORD
  5
8A
330
1
100
AcDbSymbolTableRecord
100
AcDbBlockTableRecord
  2
M50
340
0
102
{BLKREFS
331
93
102
}
  0
BLOCK_RECORD
  5
8F
330
1
100
AcDbSymbolTableRecord
100
AcDbBlockTableRecord
  2
A10JD-60X
340
0
102
{BLKREFS
331
A6
102
}
  0
BLOCK_RECORD
  5
96
330
1
100
AcDbSymbolTableRecord
100
AcDbBlockTableRecord
  2
___o________
340
0
102
{BLKREFS
331
9A
102
}
  0
BLOCK_RECORD
  5
99
330
1
100
AcDbSymbolTableRecord
100
AcDbBlockTableRecord
  2
87-174X-__F_
340
0
102
{BLKREFS
331
A7
102
}
  0
BLOCK_RECORD
  5
9D
330
1
100
AcDbSymbolTableRecord
100
AcDbBlockTableRecord
  2
K1700-0
340
0
102
{BLKREFS
331
A8
102
}
  0
BLOCK_RECORD
  5
A0
330
1
100
AcDbSymbolTableRecord
100
AcDbBlockTableRecord
  2
37-373-M11
340
0
102
{BLKREFS
331
A9
102
}
  0
BLOCK_RECORD
  5
475
330
1
100
AcDbSymbolTableRecord
100
AcDbBlockTableRecord
  2
*D030
340
0
  0
BLOCK_RECORD
  5
480
330
1
100
AcDbSymbolTableRecord
100
AcDbBlockTableRecord
  2
*D131
340
0
  0
BLOCK_RECORD
  5
48C
330
1
100
AcDbSymbolTableRecord
100
AcDbBlockTableRecord
  2
*D232
340
0
  0
BLOCK_RECORD
  5
497
330
1
100
AcDbSymbolTableRecord
100
AcDbBlockTableRecord
  2
*D333
340
0
  0
BLOCK_RECORD
  5
4A2
330
1
100
AcDbSymbolTableRecord
100
AcDbBlockTableRecord
  2
*D434
340
0
  0
BLOCK_RECORD
  5
4AD
330
1
100
AcDbSymbolTableRecord
100
AcDbBlockTableRecord
  2
*D535
340
0
  0
BLOCK_RECORD
  5
4B8
330
1
100
AcDbSymbolTableRecord
100
AcDbBlockTableRecord
  2
*D636
340
0
  0
BLOCK_RECORD
  5
4C3
330
1
100
AcDbSymbolTableRecord
100
AcDbBlockTableRecord
  2
*D737
340
0
  0
BLOCK_RECORD
  5
4CE
330
1
100
AcDbSymbolTableRecord
100
AcDbBlockTableRecord
  2
*D838
340
0
  0
BLOCK_RECORD
  5
4DA
330
1
100
AcDbSymbolTableRecord
100
AcDbBlockTableRecord
  2
*D939
340
0
  0
BLOCK_RECORD
  5
4E6
330
1
100
AcDbSymbolTableRecord
100
AcDbBlockTableRecord
  2
*D1040
340
0
  0
BLOCK_RECORD
  5
4F1
330
1
100
AcDbSymbolTableRecord
100
AcDbBlockTableRecord
  2
*D1141
340
0
  0
ENDTAB
  0
ENDSEC
  0
SECTION
  2
BLOCKS
  0
BLOCK
  5
20
330
1F
100
AcDbEntity
  8
0
100
AcDbBlockBegin
  2
*Model_Space
 70
     0
 71
     0
 10
0.0
 20
0.0
 30
0.0
  3
*Model_Space
  1

  0
ENDBLK
  5
21
330
1F
100
AcDbEntity
  8
0
100
AcDbBlockEnd
  0
BLOCK
  5
1C
330
1B
100
AcDbEntity
 67
     1
  8
0
100
AcDbBlockBegin
  2
*Paper_Space
 70
     0
 71
     0
 10
0.0
 20
0.0
 30
0.0
  3
*Paper_Space
  1

  0
ENDBLK
  5
1D
330
1B
100
AcDbEntity
 67
     1
  8
0
100
AcDbBlockEnd
  0
BLOCK
  5
24
330
23
100
AcDbEntity
  8
0
100
AcDbBlockBegin
  2
*Paper_Space0
 70
     0
 71
     0
 10
0.0
 20
0.0
 30
0.0
  3
*Paper_Space0
  1

  0
ENDBLK
  5
25
330
23
100
AcDbEntity
  8
0
100
AcDbBlockEnd
  0
BLOCK
  5
37
330
36
100
AcDbEntity
  8
0
100
AcDbBlockBegin
  2
30-108K__1
 70
     0
 71
     0
 10
259.0000003105517
 20
1000.500002527693
 30
0.0
  3
30-108K__1
  1

  0
LINE
  5
AA
330
36
100
AcDbEntity
  8
1
  6
Continuous
 62
     7
100
AcDbLine
 10
332.144661620912
 20
1048.5
 30
0.0
 11
333.144661620912
 21
1049.5
 31
0.0
  0
LINE
  5
AB
330
36
100
AcDbEntity
  8
1
  6
Continuous
 62
     7
100
AcDbLine
 10
333.144661620912
 20
1062.0
 30
0.0
 11
333.144661620912
 21
1049.5
 31
0.0
  0
LINE
  5
AC
330
36
100
AcDbEntity
  8
1
  6
Continuous
 62
     7
100
AcDbLine
 10
332.144661620912
 20
1048.5
 30
0.0
 11
315.144661620912
 21
1048.5
 31
0.0
  0
LINE
  5
AD
330
36
100
AcDbEntity
  8
1
  6
Continuous
 62
     7
100
AcDbLine
 10
314.144661620912
 20
1049.5
 30
0.0
 11
315.144661620912
 21
1048.5
 31
0.0
  0
LINE
  5
AE
330
36
100
AcDbEntity
  8
1
  6
Continuous
 62
     7
100
AcDbLine
 10
314.144661620912
 20
1049.5
 30
0.0
 11
314.144661620912
 21
1062.0
 31
0.0
  0
LINE
  5
AF
330
36
100
AcDbEntity
  8
0
  6
Continuous
 62
     7
100
AcDbLine
 10
314.144661620912
 20
1049.5
 30
0.0
 11
333.144661620912
 21
1049.5
 31
0.0
  0
LINE
  5
B0
330
36
100
AcDbEntity
  8
1
  6
Continuous
 62
     2
100
AcDbLine
 10
314.2889879672959
 20
1050.5
 30
0.0
 11
314.2889879672959
 21
1061.0
 31
0.0
  0
LINE
  5
B1
330
36
100
AcDbEntity
  8
1
  6
Continuous
 62
     2
100
AcDbLine
 10
321.9950039330763
 20
1050.5
 30
0.0
 11
321.9950039330763
 21
1061.0
 31
0.0
  0
LINE
  5
B2
330
36
100
AcDbEntity
  8
1
  6
Continuous
 62
     2
100
AcDbLine
 10
320.3954702593182
 20
1050.5
 30
0.0
 11
320.3954702593182
 21
1061.0
 31
0.0
  0
LINE
  5
B3
330
36
100
AcDbEntity
  8
1
  6
Continuous
 62
     2
100
AcDbLine
 10
318.894661620912
 20
1050.5
 30
0.0
 11
318.894661620912
 21
1061.0
 31
0.0
  0
LINE
  5
B4
330
36
100
AcDbEntity
  8
1
  6
Continuous
 62
     2
100
AcDbLine
 10
317.53817932889
 20
1050.5
 30
0.0
 11
317.53817932889
 21
1061.0
 31
0.0
  0
LINE
  5
B5
330
36
100
AcDbEntity
  8
1
  6
Continuous
 62
     2
100
AcDbLine
 10
316.3672394112818
 20
1050.5
 30
0.0
 11
316.3672394112818
 21
1061.0
 31
0.0
  0
LINE
  5
B6
330
36
100
AcDbEntity
  8
1
  6
Continuous
 62
     2
100
AcDbLine
 10
315.4174202849599
 20
1050.5
 30
0.0
 11
315.4174202849599
 21
1061.0
 31
0.0
  0
LINE
  5
B7
330
36
100
AcDbEntity
  8
1
  6
Continuous
 62
     2
100
AcDbLine
 10
314.7175817234458
 20
1050.5
 30
0.0
 11
314.7175817234458
 21
1061.0
 31
0.0
  0
LINE
  5
B8
330
36
100
AcDbEntity
  8
1
  6
Continuous
 62
     2
100
AcDbLine
 10
333.0003352745281
 20
1061.0
 30
0.0
 11
333.0003352745281
 21
1050.5
 31
0.0
  0
LINE
  5
B9
330
36
100
AcDbEntity
  8
1
  6
Continuous
 62
     2
100
AcDbLine
 10
332.5717415183783
 20
1061.0
 30
0.0
 11
332.5717415183783
 21
1050.5
 31
0.0
  0
LINE
  5
BA
330
36
100
AcDbEntity
  8
1
  6
Continuous
 62
     2
100
AcDbLine
 10
331.8719029568642
 20
1061.0
 30
0.0
 11
331.8719029568642
 21
1050.5
 31
0.0
  0
LINE
  5
BB
330
36
100
AcDbEntity
  8
1
  6
Continuous
 62
     2
100
AcDbLine
 10
330.9220838305423
 20
1061.0
 30
0.0
 11
330.9220838305423
 21
1050.5
 31
0.0
  0
LINE
  5
BC
330
36
100
AcDbEntity
  8
1
  6
Continuous
 62
     2
100
AcDbLine
 10
329.7511439129341
 20
1061.0
 30
0.0
 11
329.7511439129341
 21
1050.5
 31
0.0
  0
LINE
  5
BD
330
36
100
AcDbEntity
  8
1
  6
Continuous
 62
     2
100
AcDbLine
 10
328.394661620912
 20
1061.0
 30
0.0
 11
328.394661620912
 21
1050.5
 31
0.0
  0
LINE
  5
BE
330
36
100
AcDbEntity
  8
1
  6
Continuous
 62
     2
100
AcDbLine
 10
326.8938529825059
 20
1061.0
 30
0.0
 11
326.8938529825059
 21
1050.5
 31
0.0
  0
LINE
  5
BF
330
36
100
AcDbEntity
  8
1
  6
Continuous
 62
     2
100
AcDbLine
 10
325.2943193087478
 20
1061.0
 30
0.0
 11
325.2943193087478
 21
1050.5
 31
0.0
  0
CIRCLE
  5
C0
330
36
100
AcDbEntity
  8
1
  6
Continuous
 62
     7
100
AcDbCircle
 10
323.6446613647768
 20
446.6446638901697
 30
0.0
 40
5.500000000000044
  0
CIRCLE
  5
C1
330
36
100
AcDbEntity
  8
1
  6
Continuous
 62
     7
100
AcDbCircle
 10
323.6446613647768
 20
446.6446638901697
 30
0.0
 40
8.499999999999988
  0
CIRCLE
  5
C2
330
36
100
AcDbEntity
  8
1
  6
Continuous
 62
     7
100
AcDbCircle
 10
323.6446613647768
 20
446.6446638901697
 30
0.0
 40
9.499999999999835
  0
ENDBLK
  5
38
330
36
100
AcDbEntity
  8
0
100
AcDbBlockEnd
  0
BLOCK
  5
3A
330
39
100
AcDbEntity
  8
0
100
AcDbBlockBegin
  2
78-78K__2
 70
     0
 71
     0
 10
302.1499996410123
 20
907.2000025276927
 30
0.0
  3
78-78K__2
  1

  0
LINE
  5
C3
330
39
100
AcDbEntity
  8
1
  6
Continuous
 62
     7
100
AcDbLine
 10
321.5399027025636
 20
441.5633197325208
 30
0.0
 11
321.6738418901588
 21
441.8866775745879
 31
0.0
  0
LINE
  5
C4
330
39
100
AcDbEntity
  8
1
  6
Continuous
 62
     7
100
AcDbLine
 10
318.56332402535
 20
444.5398981569152
 30
0.0
 11
318.8866818560405
 21
444.6738373719754
 31
0.0
  0
ARC
  5
C5
330
39
100
AcDbEntity
  8
1
  6
Continuous
 62
     7
100
AcDbCircle
 10
323.6446613647768
 20
446.644657250718
 30
0.0
 40
5.150000000000068
100
AcDbArc
 50
-112.4999975667585
 51
-157.4999975667575
  0
ENDBLK
  5
3B
330
39
100
AcDbEntity
  8
0
100
AcDbBlockEnd
  0
BLOCK
  5
3D
330
3C
100
AcDbEntity
  8
0
100
AcDbBlockBegin
  2
36-99K__3
 70
     0
 71
     0
 10
302.7499996410122
 20
922.5000025276929
 30
0.0
  3
36-99K__3
  1

  0
LINE
  5
C6
330
3C
100
AcDbEntity
  8
1
  6
Continuous
 62
     7
100
AcDbLine
 10
320.3738180866351
 20
450.622608204229
 30
0.0
 11
327.6226113943756
 21
443.3738155060166
 31
0.0
  0
LINE
  5
C7
330
3C
100
AcDbEntity
  8
1
  6
Continuous
 62
     7
100
AcDbLine
 10
319.6667113351778
 20
449.9155013933133
 30
0.0
 11
326.9155046429182
 21
442.666708695101
 31
0.0
  0
ARC
  5
C8
330
3C
100
AcDbEntity
  8
1
  6
Continuous
 62
     7
100
AcDbCircle
 10
323.6446613647768
 20
446.6446584496649
 30
0.0
 40
4.250000000000164
100
AcDbArc
 50
141.7563294394977
 51
-51.75632462167908
  0
ARC
  5
C9
330
3C
100
AcDbEntity
  8
1
  6
Continuous
 62
     7
100
AcDbCircle
 10
323.6446613647768
 20
446.6446584496649
 30
0.0
 40
4.250000000000014
100
AcDbArc
 50
-38.243670560501
 51
128.2436753783221
  0
ENDBLK
  5
3E
330
3C
100
AcDbEntity
  8
0
100
AcDbBlockEnd
  0
BLOCK
  5
40
330
3F
100
AcDbEntity
  8
0
100
AcDbBlockBegin
  2
35-6A-8__4
 70
     0
 71
     0
 10
780.8143861422601
 20
1429.190103358733
 30
0.0
  3
35-6A-8__4
  1

  0
LINE
  5
CA
330
3F
100
AcDbEntity
  8
1
  6
Continuous
 62
     7
100
AcDbLine
 10
367.4248667424521
 20
1062.0
 30
0.0
 11
367.4248667424521
 21
1061.380561136096
 31
0.0
  0
LINE
  5
CB
330
3F
100
AcDbEntity
  8
1
  6
Continuous
 62
     7
100
AcDbLine
 10
350.6248667424524
 20
1061.380561136096
 30
0.0
 11
350.6248667424524
 21
1062.0
 31
0.0
  0
ENDBLK
  5
41
330
3F
100
AcDbEntity
  8
0
100
AcDbBlockEnd
  0
BLOCK
  5
43
330
42
100
AcDbEntity
  8
0
100
AcDbBlockBegin
  2
78-3A__5
 70
     0
 71
     0
 10
1117.361831746406
 20
991.977847814973
 30
0.0
  3
78-3A__5
  1

  0
LINE
  5
CC
330
42
100
AcDbEntity
  8
1
  6
Continuous
 62
     7
100
AcDbLine
 10
348.6446628523347
 20
1092.780624847486
 30
0.0
 11
298.6446628523347
 21
1092.780624847486
 31
0.0
  0
LINE
  5
CD
330
42
100
AcDbEntity
  8
1
  6
Continuous
 62
     7
100
AcDbLine
 10
336.2938817929764
 20
1084.3
 30
0.0
 11
310.9954439116929
 21
1084.3
 31
0.0
  0
LINE
  5
CE
330
42
100
AcDbEntity
  8
0
  6
Continuous
 62
     7
100
AcDbLine
 10
334.1446628523347
 20
1084.3
 30
0.0
 11
335.3946628523347
 21
1084.3
 31
0.0
  0
LINE
  5
CF
330
42
100
AcDbEntity
  8
1
  6
Continuous
 62
     7
100
AcDbLine
 10
348.2693578998892
 20
1091.999756038043
 30
0.0
 11
336.9185768405309
 21
1084.519131190557
 31
0.0
  0
LINE
  5
D0
330
42
100
AcDbEntity
  8
1
  6
Continuous
 62
     7
100
AcDbLine
 10
348.6446628523347
 20
1092.780624847486
 30
0.0
 11
348.6446628523347
 21
1095.0
 31
0.0
  0
LINE
  5
D1
330
42
100
AcDbEntity
  8
1
  6
Continuous
 62
     7
100
AcDbLine
 10
298.6446628523347
 20
1095.0
 30
0.0
 11
348.6446628523347
 21
1095.0
 31
0.0
  0
LINE
  5
D2
330
42
100
AcDbEntity
  8
1
  6
Continuous
 62
     7
100
AcDbLine
 10
298.6446628523347
 20
1095.0
 30
0.0
 11
298.6446628523347
 21
1092.780624847486
 31
0.0
  0
LINE
  5
D3
330
42
100
AcDbEntity
  8
1
  6
Continuous
 62
     7
100
AcDbLine
 10
299.0199678047802
 20
1091.999756038043
 30
0.0
 11
310.3707488641384
 21
1084.519131190557
 31
0.0
  0
ARC
  5
D4
330
42
100
AcDbEntity
  8
1
  6
Continuous
 62
     7
100
AcDbCircle
 10
323.6446613647768
 20
446.6446643269958
 30
0.0
 40
24.99999999999976
100
AcDbArc
 50
72.38710650485221
 51
17.61289149954376
  0
ARC
  5
D5
330
42
100
AcDbEntity
  8
1
  6
Continuous
 62
     7
100
AcDbCircle
 10
299.6446628523347
 20
1092.780624847486
 30
0.0
 40
1.0
100
AcDbArc
 50
180.0
 51
-128.6598082540921
  0
ARC
  5
D6
330
42
100
AcDbEntity
  8
1
  6
Continuous
 62
     7
100
AcDbCircle
 10
347.6446628523347
 20
1092.780624847486
 30
0.0
 40
1.000000000000071
100
AcDbArc
 50
-51.34019174590787
 51
0.0
  0
ARC
  5
D7
330
42
100
AcDbEntity
  8
1
  6
Continuous
 62
     7
100
AcDbCircle
 10
310.9954439116929
 20
1085.3
 30
0.0
 40
1.000000000000071
100
AcDbArc
 50
-128.6598082540921
 51
-90.0
  0
ARC
  5
D8
330
42
100
AcDbEntity
  8
1
  6
Continuous
 62
     7
100
AcDbCircle
 10
336.2938817929764
 20
1085.3
 30
0.0
 40
1.0
100
AcDbArc
 50
-90.0
 51
-51.34019174590787
  0
ENDBLK
  5
44
330
42
100
AcDbEntity
  8
0
100
AcDbBlockEnd
  0
BLOCK
  5
46
330
45
100
AcDbEntity
  8
0
100
AcDbBlockBegin
  2
32-3__6
 70
     0
 71
     0
 10
1088.568166637049
 20
799.8154888264237
 30
0.0
  3
32-3__6
  1

  0
LINE
  5
D9
330
45
100
AcDbEntity
  8
1
  6
Continuous
 62
     7
100
AcDbLine
 10
360.0446243976903
 20
498.7173964513117
 30
0.0
 11
364.7512887585644
 21
496.0000025155758
 31
0.0
  0
LINE
  5
DA
330
45
100
AcDbEntity
  8
1
  6
Continuous
 62
     7
100
AcDbLine
 10
357.9553757313656
 20
465.2826085798407
 30
0.0
 11
345.04462439769
 21
472.7366343377785
 31
0.0
  0
LINE
  5
DB
330
45
100
AcDbEntity
  8
1
  6
Continuous
 62
     7
100
AcDbLine
 10
344.0000000645279
 20
474.5459767576384
 30
0.0
 11
344.0000000645279
 21
489.454028273514
 31
0.0
  0
LINE
  5
DC
330
45
100
AcDbEntity
  8
1
  6
Continuous
 62
     7
100
AcDbLine
 10
345.04462439769
 20
491.2633706933739
 30
0.0
 11
357.9553757313656
 21
498.7173964513117
 31
0.0
  0
LINE
  5
DD
330
45
100
AcDbEntity
  8
1
  6
Continuous
 62
     7
100
AcDbLine
 10
364.7512887585644
 20
468.0000025155767
 30
0.0
 11
360.0446243976903
 21
465.2826085798407
 31
0.0
  0
LINE
  5
DE
330
45
100
AcDbEntity
  8
1
  6
Continuous
 62
     7
100
AcDbLine
 10
344.0000000106979
 20
1060.531888413824
 30
0.0
 11
344.0000000106979
 21
1049.229233858367
 31
0.0
  0
LINE
  5
DF
330
45
100
AcDbEntity
  8
1
  6
Continuous
 62
     7
100
AcDbLine
 10
374.0000000106979
 20
1060.531888413824
 30
0.0
 11
374.0000000106979
 21
1049.229233858367
 31
0.0
  0
LINE
  5
E0
330
45
100
AcDbEntity
  8
1
  6
Continuous
 62
     7
100
AcDbLine
 10
373.2566637170325
 20
1048.380561136096
 30
0.0
 11
344.7433363043635
 21
1048.380561136096
 31
0.0
  0
LINE
  5
E1
330
45
100
AcDbEntity
  8
1
  6
Continuous
 62
     7
100
AcDbLine
 10
373.2566637170325
 20
1061.380561136096
 30
0.0
 11
344.7433363043635
 21
1061.380561136096
 31
0.0
  0
ARC
  5
E2
330
45
100
AcDbEntity
  8
1
  6
Continuous
 62
     7
100
AcDbCircle
 10
359.0000000645279
 20
482.0000025155762
 30
0.0
 40
14.34934207678539
100
AcDbArc
 50
77.33129751129781
 51
90.0
  0
ARC
  5
E3
330
45
100
AcDbEntity
  8
1
  6
Continuous
 62
     7
100
AcDbCircle
 10
359.0000000645279
 20
482.0000025155762
 30
0.0
 40
14.34934207678538
100
AcDbArc
 50
90.0
 51
-77.33129751129781
  0
ARC
  5
E4
330
45
100
AcDbEntity
  8
1
  6
Continuous
 62
     7
100
AcDbCircle
 10
359.0000000645279
 20
482.0000025155762
 30
0.0
 40
16.74999999999999
100
AcDbArc
 50
86.42439207881874
 51
93.57560792118088
  0
ARC
  5
E5
330
45
100
AcDbEntity
  8
1
  6
Continuous
 62
     7
100
AcDbCircle
 10
359.0000000645279
 20
482.0000025155762
 30
0.0
 40
16.75000000000001
100
AcDbArc
 50
-153.5756079211809
 51
-146.4243920788195
  0
ARC
  5
E6
330
45
100
AcDbEntity
  8
1
  6
Continuous
 62
     7
100
AcDbCircle
 10
359.0000000645279
 20
482.0000025155762
 30
0.0
 40
16.75000000000019
100
AcDbArc
 50
146.4243920788196
 51
153.5756079211811
  0
ARC
  5
E7
330
45
100
AcDbEntity
  8
1
  6
Continuous
 62
     7
100
AcDbCircle
 10
359.0000000645279
 20
482.0000025155762
 30
0.0
 40
16.75000000000004
100
AcDbArc
 50
-93.57560792118086
 51
-86.42439207881876
  0
ARC
  5
E8
330
45
100
AcDbEntity
  8
1
  6
Continuous
 62
     7
100
AcDbCircle
 10
352.2500000106979
 20
1054.880561136096
 30
0.0
 40
10.00000000000021
100
AcDbArc
 50
-145.5884913302288
 51
-139.9947991151377
  0
ARC
  5
E9
330
45
100
AcDbEntity
  8
1
  6
Continuous
 62
     7
100
AcDbCircle
 10
365.7500000106981
 20
1054.880561136096
 30
0.0
 40
9.999999999999377
100
AcDbArc
 50
34.41150866976654
 51
40.00520088485843
  0
ARC
  5
EA
330
45
100
AcDbEntity
  8
1
  6
Continuous
 62
     7
100
AcDbCircle
 10
365.7500000106981
 20
1054.880561136096
 30
0.0
 40
10.00000000000025
100
AcDbArc
 50
-40.00520088486341
 51
-34.41150866977192
  0
ARC
  5
EB
330
45
100
AcDbEntity
  8
1
  6
Continuous
 62
     7
100
AcDbCircle
 10
352.2500000106979
 20
1054.880561136096
 30
0.0
 40
9.999999999999734
100
AcDbArc
 50
139.9947991151426
 51
145.5884913302342
  0
CIRCLE
  5
EC
330
45
100
AcDbEntity
  8
1
  6
Continuous
 62
     7
100
AcDbCircle
 10
366.5000000106979
 20
1054.880561136096
 30
0.0
 40
5.651024957036952
  0
CIRCLE
  5
ED
330
45
100
AcDbEntity
  8
1
  6
Continuous
 62
     7
100
AcDbCircle
 10
351.5000000106979
 20
1054.880561136096
 30
0.0
 40
5.651024957036952
  0
ARC
  5
EE
330
45
100
AcDbEntity
  8
1
  6
Continuous
 62
     7
100
AcDbCircle
 10
373.2566637170325
 20
1061.180561136096
 30
0.0
 40
0.1999999999996464
100
AcDbArc
 50
40.00520088475573
 51
90.0
  0
ARC
  5
EF
330
45
100
AcDbEntity
  8
1
  6
Continuous
 62
     7
100
AcDbCircle
 10
373.2566637170325
 20
1048.580561136096
 30
0.0
 40
0.2000000000000455
100
AcDbArc
 50
-90.0
 51
-40.00520088500521
  0
ARC
  5
F0
330
45
100
AcDbEntity
  8
1
  6
Continuous
 62
     7
100
AcDbCircle
 10
344.7433363043635
 20
1061.180561136096
 30
0.0
 40
0.2000000000000455
100
AcDbArc
 50
90.0
 51
139.9947991152966
  0
ARC
  5
F1
330
45
100
AcDbEntity
  8
1
  6
Continuous
 62
     7
100
AcDbCircle
 10
344.7433363043635
 20
1048.580561136096
 30
0.0
 40
0.200000000000595
100
AcDbArc
 50
-139.9947991150471
 51
-90.0
  0
ENDBLK
  5
47
330
45
100
AcDbEntity
  8
0
100
AcDbBlockEnd
  0
BLOCK
  5
49
330
48
100
AcDbEntity
  8
0
100
AcDbBlockBegin
  2
03-47-50__7
 70
     0
 71
     0
 10
754.635045058959
 20
847.5126111285819
 30
0.0
  3
03-47-50__7
  1

  0
LINE
  5
F2
330
48
100
AcDbEntity
  8
1
  6
Continuous
 62
     7
100
AcDbLine
 10
313.1671631640656
 20
1083.499999999999
 30
0.0
 11
313.1671631640656
 21
1084.3
 31
0.0
  0
LINE
  5
F3
330
48
100
AcDbEntity
  8
1
  6
Continuous
 62
     7
100
AcDbLine
 10
334.1221631640657
 20
1083.499999999999
 30
0.0
 11
334.1221631640657
 21
1084.3
 31
0.0
  0
LINE
  5
F4
330
48
100
AcDbEntity
  8
1
  6
Continuous
 62
     7
100
AcDbLine
 10
313.1671631640656
 20
1083.499999999999
 30
0.0
 11
334.1221631640657
 21
1083.499999999999
 31
0.0
  0
LINE
  5
F5
330
48
100
AcDbEntity
  8
1
  6
Continuous
 62
     2
100
AcDbLine
 10
314.3291628523345
 20
1083.500001987759
 30
0.0
 11
314.3291628523345
 21
1084.3
 31
0.0
  0
LINE
  5
F6
330
48
100
AcDbEntity
  8
1
  6
Continuous
 62
     2
100
AcDbLine
 10
332.9601628523346
 20
1083.500003067628
 30
0.0
 11
332.9601628523346
 21
1084.3
 31
0.0
  0
LINE
  5
F7
330
48
100
AcDbEntity
  8
1
  6
Continuous
 62
     2
100
AcDbLine
 10
313.1671631640656
 20
1081.487359489297
 30
0.0
 11
314.3291628523345
 21
1083.500001987759
 31
0.0
  0
LINE
  5
F8
330
48
100
AcDbEntity
  8
1
  6
Continuous
 62
     7
100
AcDbLine
 10
334.1221631640657
 20
1081.487359489298
 30
0.0
 11
334.1446628523349
 21
1081.448388886061
 31
0.0
  0
LINE
  5
F9
330
48
100
AcDbEntity
  8
1
  6
Continuous
 62
     7
100
AcDbLine
 10
313.1446628523349
 20
1081.448387806193
 30
0.0
 11
313.1671631640656
 21
1081.487359489297
 31
0.0
  0
LINE
  5
FA
330
48
100
AcDbEntity
  8
1
  6
Continuous
 62
     7
100
AcDbLine
 10
313.1671631640656
 20
1081.487359489297
 30
0.0
 11
313.1671631640656
 21
1083.499999999999
 31
0.0
  0
LINE
  5
FB
330
48
100
AcDbEntity
  8
1
  6
Continuous
 62
     7
100
AcDbLine
 10
334.1221631640657
 20
1081.487359489298
 30
0.0
 11
334.1221631640657
 21
1083.499999999999
 31
0.0
  0
LINE
  5
FC
330
48
100
AcDbEntity
  8
1
  6
Continuous
 62
     2
100
AcDbLine
 10
332.9601628523346
 20
1083.500003067628
 30
0.0
 11
334.1221631640657
 21
1081.487359489298
 31
0.0
  0
LINE
  5
FD
330
48
100
AcDbEntity
  8
1
  6
Continuous
 62
     7
100
AcDbLine
 10
315.5129335227448
 20
454.7763869110303
 30
0.0
 11
344.0000000645279
 21
483.2634524606125
 31
0.0
  0
LINE
  5
FE
330
48
100
AcDbEntity
  8
1
  6
Continuous
 62
     7
100
AcDbLine
 10
366.5000000106979
 20
1062.0
 30
0.0
 11
366.600000010698
 21
1062.0
 31
0.0
  0
LINE
  5
FF
330
48
100
AcDbEntity
  8
1
  6
Continuous
 62
     7
100
AcDbLine
 10
333.6446628523349
 20
1062.0
 30
0.0
 11
337.1446628523349
 21
1062.0
 31
0.0
  0
LINE
  5
100
330
48
100
AcDbEntity
  8
1
  6
Continuous
 62
     7
100
AcDbLine
 10
312.1446628523349
 20
1062.0
 30
0.0
 11
370.5000000106979
 21
1062.0
 31
0.0
  0
LINE
  5
101
330
48
100
AcDbEntity
  8
1
  6
Continuous
 62
     7
100
AcDbLine
 10
334.1446628523349
 20
1080.5
 30
0.0
 11
334.1446628523349
 21
1081.448388886061
 31
0.0
  0
LINE
  5
102
330
48
100
AcDbEntity
  8
1
  6
Continuous
 62
     7
100
AcDbLine
 10
370.5000000106979
 20
1062.0
 30
0.0
 11
370.5000000106979
 21
1076.5
 31
0.0
  0
LINE
  5
103
330
48
100
AcDbEntity
  8
1
  6
Continuous
 62
     7
100
AcDbLine
 10
370.5000000106979
 20
1076.5
 30
0.0
 11
346.2860912808776
 21
1076.5
 31
0.0
  0
LINE
  5
104
330
48
100
AcDbEntity
  8
1
  6
Continuous
 62
     7
100
AcDbLine
 10
314.3291628523345
 20
1109.0
 30
0.0
 11
313.1671628523347
 21
1107.838
 31
0.0
  0
LINE
  5
105
330
48
100
AcDbEntity
  8
1
  6
Continuous
 62
     7
100
AcDbLine
 10
332.9601628523346
 20
1109.0
 30
0.0
 11
334.1221628523346
 21
1107.838
 31
0.0
  0
LINE
  5
106
330
48
100
AcDbEntity
  8
1
  6
Continuous
 62
     2
100
AcDbLine
 10
332.9601628523346
 20
1109.0
 30
0.0
 11
332.9601628523346
 21
1095.0
 31
0.0
  0
LINE
  5
107
330
48
100
AcDbEntity
  8
1
  6
Continuous
 62
     7
100
AcDbLine
 10
314.3291628523345
 20
1109.0
 30
0.0
 11
332.9601628523346
 21
1109.0
 31
0.0
  0
LINE
  5
108
330
48
100
AcDbEntity
  8
1
  6
Continuous
 62
     7
100
AcDbLine
 10
312.1446628523349
 20
1079.5
 30
0.0
 11
312.1446628523349
 21
1062.0
 31
0.0
  0
LINE
  5
109
330
48
100
AcDbEntity
  8
1
  6
Continuous
 62
     7
100
AcDbLine
 10
312.1446628523349
 20
1079.5
 30
0.0
 11
339.1446628523349
 21
1079.5
 31
0.0
  0
LINE
  5
10A
330
48
100
AcDbEntity
  8
1
  6
Continuous
 62
     7
100
AcDbLine
 10
313.1671628523347
 20
1107.838
 30
0.0
 11
334.1221628523346
 21
1107.838
 31
0.0
  0
LINE
  5
10B
330
48
100
AcDbEntity
  8
1
  6
Continuous
 62
     7
100
AcDbLine
 10
334.1221628523346
 20
1095.0
 30
0.0
 11
334.1221628523346
 21
1107.838
 31
0.0
  0
LINE
  5
10C
330
48
100
AcDbEntity
  8
1
  6
Continuous
 62
     7
100
AcDbLine
 10
313.1671628523347
 20
1095.0
 30
0.0
 11
313.1671628523347
 21
1107.838
 31
0.0
  0
LINE
  5
10D
330
48
100
AcDbEntity
  8
1
  6
Continuous
 62
     2
100
AcDbLine
 10
314.3291628523345
 20
1095.0
 30
0.0
 11
314.3291628523345
 21
1109.0
 31
0.0
  0
LINE
  5
10E
330
48
100
AcDbEntity
  8
1
  6
Continuous
 62
     7
100
AcDbLine
 10
313.1446628523349
 20
1081.448387806193
 30
0.0
 11
313.1446628523349
 21
1080.5
 31
0.0
  0
LINE
  5
10F
330
48
100
AcDbEntity
  8
1
  6
Continuous
 62
     7
100
AcDbLine
 10
359.0248667424523
 20
1072.190905958273
 30
0.0
 11
346.2860912808776
 21
1072.190905958273
 31
0.0
  0
LINE
  5
110
330
48
100
AcDbEntity
  8
1
  6
Continuous
 62
     7
100
AcDbLine
 10
358.5203315188551
 20
465.2568720410714
 30
0.0
 11
331.7763892068085
 21
438.5129306605127
 31
0.0
  0
ARC
  5
111
330
48
100
AcDbEntity
  8
1
  6
Continuous
 62
     7
100
AcDbCircle
 10
323.6446613647768
 20
446.6446587857714
 30
0.0
 40
11.50000000000022
100
AcDbArc
 50
134.9999990021985
 51
-45.00000099780216
  0
ARC
  5
112
330
48
100
AcDbEntity
  8
1
  6
Continuous
 62
     7
100
AcDbCircle
 10
346.2860912808776
 20
1086.5
 30
0.0
 40
9.999999999999911
100
AcDbArc
 50
-135.5729959991938
 51
-90.0
  0
ARC
  5
113
330
48
100
AcDbEntity
  8
1
  6
Continuous
 62
     7
100
AcDbCircle
 10
346.2860912808776
 20
1086.109449289637
 30
0.0
 40
13.91854333136422
100
AcDbArc
 50
-151.6493449074818
 51
-90.0
  0
CIRCLE
  5
114
330
48
100
AcDbEntity
  8
1
  6
Continuous
 62
     7
100
AcDbCircle
 10
323.6446613647768
 20
446.6446587857714
 30
0.0
 40
10.49999999999993
  0
SPLINE
  5
115
330
48
100
AcDbEntity
  8
1
  6
Continuous
 62
     7
100
AcDbSpline
210
0.0
220
0.0
230
1.0
 70
     8
 71
     3
 72
    13
 73
     9
 74
     7
 42
0.0000000001
 43
0.0000000001
 44
0.00000001
 40
0.0
 40
0.0
 40
0.0
 40
0.0
 40
1.242270182277267
 40
2.48455700597885
 40
3.537999185208933
 40
4.59169559198536
 40
8.492417410712346
 40
12.41500543007556
 40
12.41500543007556
 40
12.41500543007556
 40
12.41500543007556
 10
370.5000000106979
 20
1076.5
 30
0.0
 10
370.1523985571744
 20
1076.274900365271
 30
0.0
 10
369.4571909936661
 20
1075.824698080383
 30
0.0
 10
368.4457823616153
 20
1075.217914322451
 30
0.0
 10
367.4722515717614
 20
1074.670274691413
 30
0.0
 10
365.6950838277999
 20
1073.751580958258
 30
0.0
 10
362.9467866176834
 20
1072.551461625263
 30
0.0
 10
360.3346070536812
 20
1072.311314917793
 30
0.0
 10
359.0248667424523
 20
1072.190905958273
 30
0.0
 11
370.5000000106979
 21
1076.5
 31
0.0
 11
369.4534323722695
 21
1075.830723238137
 31
0.0
 11
368.3885800817008
 21
1075.190905958273
 31
0.0
 11
367.4696126317254
 21
1074.675892122666
 31
0.0
 11
366.5341637886555
 21
1074.190905958272
 31
0.0
 11
362.9062956535944
 21
1072.757656677198
 31
0.0
 11
359.0248667424523
 21
1072.190905958273
 31
0.0
  0
ARC
  5
116
330
48
100
AcDbEntity
  8
1
  6
Continuous
 62
     7
100
AcDbCircle
 10
335.1446628523349
 20
1080.5
 30
0.0
 40
1.0
100
AcDbArc
 50
180.0
 51
-90.0
  0
ARC
  5
117
330
48
100
AcDbEntity
  8
1
  6
Continuous
 62
     7
100
AcDbCircle
 10
312.1446628523349
 20
1080.5
 30
0.0
 40
1.0
100
AcDbArc
 50
-90.0
 51
0.0
  0
ENDBLK
  5
4A
330
48
100
AcDbEntity
  8
0
100
AcDbBlockEnd
  0
BLOCK
  5
53
330
4B
100
AcDbEntity
  8
0
100
AcDbBlockBegin
  2
U003-47X-50
 70
     0
 71
     0
 10
623.6510271263152
 20
689.262611128582
 30
0.0
  3
U003-47X-50
  1

  0
INSERT
  5
4C
330
4B
100
AcDbEntity
  8
1
100
AcDbBlockReference
  2
30-108K__1
 10
259.0000003105517
 20
1000.500002527693
 30
0.0
  0
INSERT
  5
4D
330
4B
100
AcDbEntity
  8
1
100
AcDbBlockReference
  2
78-78K__2
 10
302.1499996410123
 20
907.2000025276927
 30
0.0
  0
INSERT
  5
4E
330
4B
100
AcDbEntity
  8
1
100
AcDbBlockReference
  2
36-99K__3
 10
302.7499996410122
 20
922.5000025276929
 30
0.0
  0
INSERT
  5
4F
330
4B
100
AcDbEntity
  8
1
100
AcDbBlockReference
  2
35-6A-8__4
 10
780.8143861422601
 20
1429.190103358733
 30
0.0
  0
INSERT
  5
50
330
4B
100
AcDbEntity
  8
0
100
AcDbBlockReference
  2
78-3A__5
 10
1117.361831746406
 20
991.977847814973
 30
0.0
  0
INSERT
  5
51
330
4B
100
AcDbEntity
  8
0
100
AcDbBlockReference
  2
32-3__6
 10
1088.568166637049
 20
799.8154888264237
 30
0.0
  0
INSERT
  5
52
330
4B
100
AcDbEntity
  8
1
100
AcDbBlockReference
  2
03-47-50__7
 10
754.635045058959
 20
847.5126111285819
 30
0.0
  0
LINE
  5
118
330
4B
100
AcDbEntity
  8
1
  6
PHANTOM
 62
     4
100
AcDbLine
 10
359.0000000106981
 20
1078.5
 30
0.0
 11
359.0000000106979
 21
1050.380561136096
 31
0.0
  0
LINE
  5
119
330
4B
100
AcDbEntity
  8
1
  6
PHANTOM
 62
     4
100
AcDbLine
 10
323.6446628523349
 20
1060.0
 30
0.0
 11
323.6446628523349
 21
1111.0
 31
0.0
  0
LINE
  5
11A
330
4B
100
AcDbEntity
  8
1
  6
PHANTOM
 62
     4
100
AcDbLine
 10
305.9669914217089
 20
464.3223304703364
 30
0.0
 11
341.3223304810362
 21
428.9669914110092
 31
0.0
  0
LINE
  5
11B
330
4B
100
AcDbEntity
  8
1
  6
PHANTOM
 62
     4
100
AcDbLine
 10
347.1559593247546
 20
493.8440385848749
 30
0.0
 11
370.8440364945041
 21
470.1559614151255
 31
0.0
  0
LINE
  5
11C
330
4B
100
AcDbEntity
  8
1
  6
PHANTOM
 62
     4
100
AcDbLine
 10
369.6065996274276
 20
492.6066017177984
 30
0.0
 11
305.9669893206383
 21
428.9669914110091
 31
0.0
  0
ENDBLK
  5
54
330
4B
100
AcDbEntity
  8
0
100
AcDbBlockEnd
  0
BLOCK
  5
56
330
55
100
AcDbEntity
  8
0
100
AcDbBlockBegin
  2
35-6A-8__8
 70
     0
 71
     0
 10
1558.057043569208
 20
1192.039693144835
 30
0.0
  3
35-6A-8__8
  1

  0
LINE
  5
11D
330
55
100
AcDbEntity
  8
1
  6
Continuous
 62
     7
100
AcDbLine
 10
820.3805611360956
 20
490.400001345482
 30
0.0
 11
821.0
 21
490.400001345482
 31
0.0
  0
LINE
  5
11E
330
55
100
AcDbEntity
  8
1
  6
Continuous
 62
     7
100
AcDbLine
 10
821.0
 20
473.6000013454822
 30
0.0
 11
820.3805611360956
 21
473.6000013454822
 31
0.0
  0
LINE
  5
11F
330
55
100
AcDbEntity
  8
1
  6
Continuous
 62
     7
100
AcDbLine
 10
487.3751332575435
 20
1062.0
 30
0.0
 11
487.3751332575435
 21
1061.380561136096
 31
0.0
  0
LINE
  5
120
330
55
100
AcDbEntity
  8
1
  6
Continuous
 62
     7
100
AcDbLine
 10
470.5751332575438
 20
1061.380561136096
 30
0.0
 11
470.5751332575438
 21
1062.0
 31
0.0
  0
ENDBLK
  5
57
330
55
100
AcDbEntity
  8
0
100
AcDbBlockEnd
  0
BLOCK
  5
59
330
58
100
AcDbEntity
  8
0
100
AcDbBlockBegin
  2
30-108K__9
 70
     0
 71
     0
 10
579.0000003105515
 20
1000.500002527693
 30
0.0
  3
30-108K__9
  1

  0
LINE
  5
121
330
58
100
AcDbEntity
  8
1
  6
Continuous
 62
     7
100
AcDbLine
 10
522.8553382421709
 20
1048.5
 30
0.0
 11
523.8553382421708
 21
1049.5
 31
0.0
  0
LINE
  5
122
330
58
100
AcDbEntity
  8
1
  6
Continuous
 62
     7
100
AcDbLine
 10
523.8553382421708
 20
1062.0
 30
0.0
 11
523.8553382421708
 21
1049.5
 31
0.0
  0
LINE
  5
123
330
58
100
AcDbEntity
  8
1
  6
Continuous
 62
     7
100
AcDbLine
 10
522.8553382421709
 20
1048.5
 30
0.0
 11
505.855338242171
 21
1048.5
 31
0.0
  0
LINE
  5
124
330
58
100
AcDbEntity
  8
1
  6
Continuous
 62
     7
100
AcDbLine
 10
504.855338242171
 20
1049.5
 30
0.0
 11
505.855338242171
 21
1048.5
 31
0.0
  0
LINE
  5
125
330
58
100
AcDbEntity
  8
1
  6
Continuous
 62
     7
100
AcDbLine
 10
504.855338242171
 20
1049.5
 30
0.0
 11
504.855338242171
 21
1062.0
 31
0.0
  0
LINE
  5
126
330
58
100
AcDbEntity
  8
0
  6
Continuous
 62
     7
100
AcDbLine
 10
504.855338242171
 20
1049.5
 30
0.0
 11
523.8553382421708
 21
1049.5
 31
0.0
  0
LINE
  5
127
330
58
100
AcDbEntity
  8
1
  6
Continuous
 62
     2
100
AcDbLine
 10
504.9996645885548
 20
1050.5
 30
0.0
 11
504.9996645885548
 21
1061.0
 31
0.0
  0
LINE
  5
128
330
58
100
AcDbEntity
  8
1
  6
Continuous
 62
     2
100
AcDbLine
 10
512.7056805543349
 20
1050.5
 30
0.0
 11
512.7056805543349
 21
1061.0
 31
0.0
  0
LINE
  5
129
330
58
100
AcDbEntity
  8
1
  6
Continuous
 62
     2
100
AcDbLine
 10
511.1061468805771
 20
1050.5
 30
0.0
 11
511.1061468805771
 21
1061.0
 31
0.0
  0
LINE
  5
12A
330
58
100
AcDbEntity
  8
1
  6
Continuous
 62
     2
100
AcDbLine
 10
509.605338242171
 20
1050.5
 30
0.0
 11
509.605338242171
 21
1061.0
 31
0.0
  0
LINE
  5
12B
330
58
100
AcDbEntity
  8
1
  6
Continuous
 62
     2
100
AcDbLine
 10
508.2488559501487
 20
1050.5
 30
0.0
 11
508.2488559501487
 21
1061.0
 31
0.0
  0
LINE
  5
12C
330
58
100
AcDbEntity
  8
1
  6
Continuous
 62
     2
100
AcDbLine
 10
507.0779160325405
 20
1050.5
 30
0.0
 11
507.0779160325405
 21
1061.0
 31
0.0
  0
LINE
  5
12D
330
58
100
AcDbEntity
  8
1
  6
Continuous
 62
     2
100
AcDbLine
 10
506.1280969062188
 20
1050.5
 30
0.0
 11
506.1280969062188
 21
1061.0
 31
0.0
  0
LINE
  5
12E
330
58
100
AcDbEntity
  8
1
  6
Continuous
 62
     2
100
AcDbLine
 10
505.4282583447047
 20
1050.5
 30
0.0
 11
505.4282583447047
 21
1061.0
 31
0.0
  0
LINE
  5
12F
330
58
100
AcDbEntity
  8
1
  6
Continuous
 62
     2
100
AcDbLine
 10
523.7110118957867
 20
1061.0
 30
0.0
 11
523.7110118957867
 21
1050.5
 31
0.0
  0
LINE
  5
130
330
58
100
AcDbEntity
  8
1
  6
Continuous
 62
     2
100
AcDbLine
 10
523.2824181396368
 20
1061.0
 30
0.0
 11
523.2824181396368
 21
1050.5
 31
0.0
  0
LINE
  5
131
330
58
100
AcDbEntity
  8
1
  6
Continuous
 62
     2
100
AcDbLine
 10
522.5825795781229
 20
1061.0
 30
0.0
 11
522.5825795781229
 21
1050.5
 31
0.0
  0
LINE
  5
132
330
58
100
AcDbEntity
  8
1
  6
Continuous
 62
     2
100
AcDbLine
 10
521.6327604518011
 20
1061.0
 30
0.0
 11
521.6327604518011
 21
1050.5
 31
0.0
  0
LINE
  5
133
330
58
100
AcDbEntity
  8
1
  6
Continuous
 62
     2
100
AcDbLine
 10
520.461820534193
 20
1061.0
 30
0.0
 11
520.4618205341928
 21
1050.5
 31
0.0
  0
LINE
  5
134
330
58
100
AcDbEntity
  8
1
  6
Continuous
 62
     2
100
AcDbLine
 10
519.1053382421708
 20
1061.0
 30
0.0
 11
519.1053382421708
 21
1050.5
 31
0.0
  0
LINE
  5
135
330
58
100
AcDbEntity
  8
1
  6
Continuous
 62
     2
100
AcDbLine
 10
517.6045296037647
 20
1061.0
 30
0.0
 11
517.6045296037646
 21
1050.5
 31
0.0
  0
LINE
  5
136
330
58
100
AcDbEntity
  8
1
  6
Continuous
 62
     2
100
AcDbLine
 10
516.0049959300065
 20
1061.0
 30
0.0
 11
516.0049959300065
 21
1050.5
 31
0.0
  0
LINE
  5
137
330
58
100
AcDbEntity
  8
1
  6
Continuous
 62
     2
100
AcDbLine
 10
820.0000006792197
 20
444.9950079203501
 30
0.0
 11
809.5000006792197
 21
444.9950079203501
 31
0.0
  0
LINE
  5
138
330
58
100
AcDbEntity
  8
1
  6
Continuous
 62
     2
100
AcDbLine
 10
820.0000006792197
 20
443.395474246592
 30
0.0
 11
809.5000006792197
 21
443.395474246592
 31
0.0
  0
LINE
  5
139
330
58
100
AcDbEntity
  8
1
  6
Continuous
 62
     2
100
AcDbLine
 10
820.0000006792197
 20
441.8946656081859
 30
0.0
 11
809.5000006792197
 21
441.8946656081859
 31
0.0
  0
LINE
  5
13A
330
58
100
AcDbEntity
  8
1
  6
Continuous
 62
     2
100
AcDbLine
 10
820.0000006792197
 20
440.5381833161638
 30
0.0
 11
809.5000006792197
 21
440.5381833161638
 31
0.0
  0
LINE
  5
13B
330
58
100
AcDbEntity
  8
1
  6
Continuous
 62
     2
100
AcDbLine
 10
820.0000006792197
 20
439.3672433985556
 30
0.0
 11
809.5000006792197
 21
439.3672433985556
 31
0.0
  0
LINE
  5
13C
330
58
100
AcDbEntity
  8
1
  6
Continuous
 62
     2
100
AcDbLine
 10
820.0000006792197
 20
438.4174242722337
 30
0.0
 11
809.5000006792197
 21
438.4174242722337
 31
0.0
  0
LINE
  5
13D
330
58
100
AcDbEntity
  8
1
  6
Continuous
 62
     2
100
AcDbLine
 10
820.0000006792197
 20
437.7175857107199
 30
0.0
 11
809.5000006792197
 21
437.7175857107199
 31
0.0
  0
LINE
  5
13E
330
58
100
AcDbEntity
  8
1
  6
Continuous
 62
     2
100
AcDbLine
 10
820.0000006792197
 20
437.2889919545698
 30
0.0
 11
809.5000006792197
 21
437.2889919545698
 31
0.0
  0
LINE
  5
13F
330
58
100
AcDbEntity
  8
1
  6
Continuous
 62
     2
100
AcDbLine
 10
809.5000006792197
 20
455.5717455056521
 30
0.0
 11
820.0000006792197
 21
455.5717455056521
 31
0.0
  0
LINE
  5
140
330
58
100
AcDbEntity
  8
1
  6
Continuous
 62
     2
100
AcDbLine
 10
809.5000006792197
 20
454.871906944138
 30
0.0
 11
820.0000006792197
 21
454.871906944138
 31
0.0
  0
LINE
  5
141
330
58
100
AcDbEntity
  8
1
  6
Continuous
 62
     2
100
AcDbLine
 10
809.5000006792197
 20
453.9220878178163
 30
0.0
 11
820.0000006792197
 21
453.9220878178163
 31
0.0
  0
LINE
  5
142
330
58
100
AcDbEntity
  8
1
  6
Continuous
 62
     2
100
AcDbLine
 10
809.5000006792197
 20
452.7511479002081
 30
0.0
 11
820.0000006792197
 21
452.7511479002081
 31
0.0
  0
LINE
  5
143
330
58
100
AcDbEntity
  8
1
  6
Continuous
 62
     2
100
AcDbLine
 10
809.5000006792197
 20
451.3946656081859
 30
0.0
 11
820.0000006792197
 21
451.3946656081859
 31
0.0
  0
LINE
  5
144
330
58
100
AcDbEntity
  8
1
  6
Continuous
 62
     2
100
AcDbLine
 10
809.5000006792197
 20
449.8938569697797
 30
0.0
 11
820.0000006792197
 21
449.8938569697797
 31
0.0
  0
LINE
  5
145
330
58
100
AcDbEntity
  8
1
  6
Continuous
 62
     2
100
AcDbLine
 10
809.5000006792197
 20
448.2943232960218
 30
0.0
 11
820.0000006792197
 21
448.2943232960218
 31
0.0
  0
LINE
  5
146
330
58
100
AcDbEntity
  8
1
  6
Continuous
 62
     2
100
AcDbLine
 10
809.5000006792197
 20
456.000339261802
 30
0.0
 11
820.0000006792197
 21
456.000339261802
 31
0.0
  0
LINE
  5
147
330
58
100
AcDbEntity
  8
0
  6
Continuous
 62
     7
100
AcDbLine
 10
808.5000006792197
 20
456.1446656081859
 30
0.0
 11
808.5000006792197
 21
437.1446656081859
 31
0.0
  0
LINE
  5
148
330
58
100
AcDbEntity
  8
1
  6
Continuous
 62
     7
100
AcDbLine
 10
808.5000006792197
 20
456.1446656081859
 30
0.0
 11
821.0000006792197
 21
456.1446656081859
 31
0.0
  0
LINE
  5
149
330
58
100
AcDbEntity
  8
1
  6
Continuous
 62
     7
100
AcDbLine
 10
808.5000006792197
 20
456.1446656081859
 30
0.0
 11
807.5000006792197
 21
455.1446656081859
 31
0.0
  0
LINE
  5
14A
330
58
100
AcDbEntity
  8
1
  6
Continuous
 62
     7
100
AcDbLine
 10
807.5000006792197
 20
438.1446656081859
 30
0.0
 11
807.5000006792197
 21
455.1446656081859
 31
0.0
  0
LINE
  5
14B
330
58
100
AcDbEntity
  8
1
  6
Continuous
 62
     7
100
AcDbLine
 10
821.0000006792197
 20
437.1446656081859
 30
0.0
 11
808.5000006792197
 21
437.1446656081859
 31
0.0
  0
LINE
  5
14C
330
58
100
AcDbEntity
  8
1
  6
Continuous
 62
     7
100
AcDbLine
 10
807.5000006792197
 20
438.1446656081859
 30
0.0
 11
808.5000006792197
 21
437.1446656081859
 31
0.0
  0
CIRCLE
  5
14D
330
58
100
AcDbEntity
  8
1
  6
Continuous
 62
     7
100
AcDbCircle
 10
514.355342001493
 20
446.6446631239485
 30
0.0
 40
9.499999999999796
  0
CIRCLE
  5
14E
330
58
100
AcDbEntity
  8
1
  6
Continuous
 62
     7
100
AcDbCircle
 10
514.355342001493
 20
446.6446631239485
 30
0.0
 40
8.499999999999748
  0
CIRCLE
  5
14F
330
58
100
AcDbEntity
  8
1
  6
Continuous
 62
     7
100
AcDbCircle
 10
514.355342001493
 20
446.6446631239485
 30
0.0
 40
5.499999999999844
  0
ENDBLK
  5
5A
330
58
100
AcDbEntity
  8
0
100
AcDbBlockEnd
  0
BLOCK
  5
5C
330
5B
100
AcDbEntity
  8
0
100
AcDbBlockBegin
  2
78-78K__10
 70
     0
 71
     0
 10
534.8500003105517
 20
705.4373900270853
 30
0.0
  3
78-78K__10
  1

  0
LINE
  5
150
330
5B
100
AcDbEntity
  8
1
  6
Continuous
 62
     7
100
AcDbLine
 10
519.1133217548725
 20
444.6738397326307
 30
0.0
 11
519.436679591829
 21
444.539900532697
 31
0.0
  0
LINE
  5
151
330
5B
100
AcDbEntity
  8
1
  6
Continuous
 62
     7
100
AcDbLine
 10
516.3261618511374
 20
441.8866798048598
 30
0.0
 11
516.4601010538595
 21
441.5633219690583
 31
0.0
  0
ARC
  5
152
330
5B
100
AcDbEntity
  8
1
  6
Continuous
 62
     7
100
AcDbCircle
 10
514.3553421539411
 20
446.6446593887951
 30
0.0
 40
5.150000000000245
100
AcDbArc
 50
-22.49999975294658
 51
-67.49999975294595
  0
ENDBLK
  5
5D
330
5B
100
AcDbEntity
  8
0
100
AcDbBlockEnd
  0
BLOCK
  5
5F
330
5E
100
AcDbEntity
  8
0
100
AcDbBlockBegin
  2
36-99K__11
 70
     0
 71
     0
 10
534.2500003105515
 20
720.7373900270853
 30
0.0
  3
36-99K__11
  1

  0
LINE
  5
153
330
5E
100
AcDbEntity
  8
1
  6
Continuous
 62
     7
100
AcDbLine
 10
511.0844970612304
 20
442.6667093442652
 30
0.0
 11
518.3332900642065
 21
449.9155023472416
 31
0.0
  0
LINE
  5
154
330
5E
100
AcDbEntity
  8
1
  6
Continuous
 62
     7
100
AcDbLine
 10
510.3773902800437
 20
443.3738161254518
 30
0.0
 11
517.6261832830198
 21
450.6226091284281
 31
0.0
  0
ARC
  5
155
330
5E
100
AcDbEntity
  8
1
  6
Continuous
 62
     7
100
AcDbCircle
 10
514.355340172125
 20
446.6446592363467
 30
0.0
 40
4.250000000000025
100
AcDbArc
 50
51.7563270305873
 51
-141.7563270305863
  0
ARC
  5
156
330
5E
100
AcDbEntity
  8
1
  6
Continuous
 62
     7
100
AcDbCircle
 10
514.355340172125
 20
446.6446592363467
 30
0.0
 40
4.249999999999955
100
AcDbArc
 50
-128.2436729694115
 51
38.24367296941008
  0
ENDBLK
  5
60
330
5E
100
AcDbEntity
  8
0
100
AcDbBlockEnd
  0
BLOCK
  5
62
330
61
100
AcDbEntity
  8
0
100
AcDbBlockBegin
  2
03-47-50__12
 70
     0
 71
     0
 10
508.2499999892982
 20
1026.894337567298
 30
0.0
  3
03-47-50__12
  1

  0
LINE
  5
157
330
61
100
AcDbEntity
  8
1
  6
Continuous
 62
     7
100
AcDbLine
 10
503.8778379304404
 20
1083.499999999999
 30
0.0
 11
503.8778379304403
 21
1081.487356961605
 31
0.0
  0
LINE
  5
158
330
61
100
AcDbEntity
  8
1
  6
Continuous
 62
     7
100
AcDbLine
 10
524.8328379304401
 20
1083.499999999999
 30
0.0
 11
524.8328379304401
 21
1081.487356961605
 31
0.0
  0
LINE
  5
159
330
61
100
AcDbEntity
  8
1
  6
Continuous
 62
     7
100
AcDbLine
 10
524.8328379304401
 20
1083.499999999999
 30
0.0
 11
503.8778379304404
 21
1083.499999999999
 31
0.0
  0
LINE
  5
15A
330
61
100
AcDbEntity
  8
1
  6
Continuous
 62
     2
100
AcDbLine
 10
523.6708379304403
 20
1084.3
 30
0.0
 11
523.6708379304403
 21
1083.499999999999
 31
0.0
  0
LINE
  5
15B
330
61
100
AcDbEntity
  8
1
  6
Continuous
 62
     2
100
AcDbLine
 10
505.0398379304404
 20
1095.0
 30
0.0
 11
505.0398379304404
 21
1109.0
 31
0.0
  0
LINE
  5
15C
330
61
100
AcDbEntity
  8
1
  6
Continuous
 62
     7
100
AcDbLine
 10
842.5000030676272
 20
436.1671604716722
 30
0.0
 11
840.4873594892974
 21
436.1671604716721
 31
0.0
  0
LINE
  5
15D
330
61
100
AcDbEntity
  8
1
  6
Continuous
 62
     7
100
AcDbLine
 10
842.5000030676272
 20
457.122160471672
 30
0.0
 11
840.4873594892979
 21
457.1221604716724
 31
0.0
  0
LINE
  5
15E
330
61
100
AcDbEntity
  8
1
  6
Continuous
 62
     7
100
AcDbLine
 10
842.5000030676272
 20
457.122160471672
 30
0.0
 11
842.5000030676272
 21
436.1671604716722
 31
0.0
  0
LINE
  5
15F
330
61
100
AcDbEntity
  8
1
  6
Continuous
 62
     2
100
AcDbLine
 10
854.0
 20
455.9601601599411
 30
0.0
 11
868.0
 21
455.9601601599411
 31
0.0
  0
LINE
  5
160
330
61
100
AcDbEntity
  8
1
  6
Continuous
 62
     2
100
AcDbLine
 10
842.5000030676271
 20
455.9601601599411
 30
0.0
 11
843.3000000000003
 21
455.9601601599411
 31
0.0
  0
LINE
  5
161
330
61
100
AcDbEntity
  8
1
  6
Continuous
 62
     7
100
AcDbLine
 10
843.3000000000003
 20
436.1671604716722
 30
0.0
 11
842.5000030676272
 21
436.1671604716722
 31
0.0
  0
LINE
  5
162
330
61
100
AcDbEntity
  8
1
  6
Continuous
 62
     2
100
AcDbLine
 10
843.3000000000003
 20
437.3291601599411
 30
0.0
 11
842.500001987758
 21
437.329160159941
 31
0.0
  0
LINE
  5
163
330
61
100
AcDbEntity
  8
1
  6
Continuous
 62
     7
100
AcDbLine
 10
843.3000000000003
 20
457.1221604716719
 30
0.0
 11
842.5000030676272
 21
457.122160471672
 31
0.0
  0
LINE
  5
164
330
61
100
AcDbEntity
  8
1
  6
Continuous
 62
     2
100
AcDbLine
 10
505.0398379304404
 20
1083.500000000001
 30
0.0
 11
505.0398379304404
 21
1084.3
 31
0.0
  0
LINE
  5
165
330
61
100
AcDbEntity
  8
1
  6
Continuous
 62
     7
100
AcDbLine
 10
503.8778379304403
 20
1084.3
 30
0.0
 11
503.8778379304404
 21
1083.499999999999
 31
0.0
  0
LINE
  5
166
330
61
100
AcDbEntity
  8
1
  6
Continuous
 62
     2
100
AcDbLine
 10
523.6708379304403
 20
1083.499999999999
 30
0.0
 11
524.8328379304401
 21
1081.487356961605
 31
0.0
  0
LINE
  5
167
330
61
100
AcDbEntity
  8
1
  6
Continuous
 62
     7
100
AcDbLine
 10
524.8328379304401
 20
1084.3
 30
0.0
 11
524.8328379304401
 21
1083.499999999999
 31
0.0
  0
LINE
  5
168
330
61
100
AcDbEntity
  8
1
  6
Continuous
 62
     7
100
AcDbLine
 10
491.7138997112183
 20
1072.190905958273
 30
0.0
 11
478.9751234668647
 21
1072.190905958273
 31
0.0
  0
LINE
  5
169
330
61
100
AcDbEntity
  8
1
  6
Continuous
 62
     7
100
AcDbLine
 10
503.8778379304403
 20
1107.838
 30
0.0
 11
524.8328379304401
 21
1107.838
 31
0.0
  0
LINE
  5
16A
330
61
100
AcDbEntity
  8
1
  6
Continuous
 62
     7
100
AcDbLine
 10
506.2236104144074
 20
438.5129319580948
 30
0.0
 11
479.4796747436389
 21
465.2568683207607
 31
0.0
  0
LINE
  5
16B
330
61
100
AcDbEntity
  8
1
  6
Continuous
 62
     7
100
AcDbLine
 10
494.0000003585983
 20
483.2634546854793
 30
0.0
 11
522.4870665920753
 21
454.7763877150079
 31
0.0
  0
LINE
  5
16C
330
61
100
AcDbEntity
  8
1
  6
Continuous
 62
     7
100
AcDbLine
 10
524.8553379304399
 20
1080.5
 30
0.0
 11
524.8553379304399
 21
1081.448385818435
 31
0.0
  0
LINE
  5
16D
330
61
100
AcDbEntity
  8
1
  6
Continuous
 62
     7
100
AcDbLine
 10
498.8553379304403
 20
1079.5
 30
0.0
 11
525.8553379304399
 21
1079.5
 31
0.0
  0
LINE
  5
16E
330
61
100
AcDbEntity
  8
1
  6
Continuous
 62
     7
100
AcDbLine
 10
525.8553379304399
 20
1062.0
 30
0.0
 11
524.3553379304399
 21
1062.0
 31
0.0
  0
LINE
  5
16F
330
61
100
AcDbEntity
  8
1
  6
Continuous
 62
     7
100
AcDbLine
 10
486.4999999892979
 20
1062.0
 30
0.0
 11
500.8553379304403
 21
1062.0
 31
0.0
  0
LINE
  5
170
330
61
100
AcDbEntity
  8
1
  6
Continuous
 62
     7
100
AcDbLine
 10
525.8553379304399
 20
1062.0
 30
0.0
 11
525.8553379304399
 21
1079.5
 31
0.0
  0
LINE
  5
171
330
61
100
AcDbEntity
  8
1
  6
Continuous
 62
     7
100
AcDbLine
 10
505.0398379304404
 20
1109.0
 30
0.0
 11
523.6708379304403
 21
1109.0
 31
0.0
  0
LINE
  5
172
330
61
100
AcDbEntity
  8
1
  6
Continuous
 62
     7
100
AcDbLine
 10
524.8328379304401
 20
1107.838
 30
0.0
 11
524.8328379304401
 21
1095.0
 31
0.0
  0
LINE
  5
173
330
61
100
AcDbEntity
  8
1
  6
Continuous
 62
     7
100
AcDbLine
 10
503.8778379304403
 20
1107.838
 30
0.0
 11
505.0398379304404
 21
1109.0
 31
0.0
  0
LINE
  5
174
330
61
100
AcDbEntity
  8
1
  6
Continuous
 62
     7
100
AcDbLine
 10
503.8553379304401
 20
1081.448385818435
 30
0.0
 11
503.8778379304403
 21
1081.487356961605
 31
0.0
  0
LINE
  5
175
330
61
100
AcDbEntity
  8
1
  6
Continuous
 62
     7
100
AcDbLine
 10
524.8328379304401
 20
1107.838
 30
0.0
 11
523.6708379304403
 21
1109.0
 31
0.0
  0
LINE
  5
176
330
61
100
AcDbEntity
  8
1
  6
Continuous
 62
     2
100
AcDbLine
 10
523.6708379304403
 20
1109.0
 30
0.0
 11
523.6708379304403
 21
1095.0
 31
0.0
  0
LINE
  5
177
330
61
100
AcDbEntity
  8
1
  6
Continuous
 62
     7
100
AcDbLine
 10
491.7139095018974
 20
1076.5
 30
0.0
 11
467.4999999892982
 21
1076.5
 31
0.0
  0
LINE
  5
178
330
61
100
AcDbEntity
  8
1
  6
Continuous
 62
     7
100
AcDbLine
 10
467.4999999892982
 20
1076.5
 30
0.0
 11
467.4999999892982
 21
1062.0
 31
0.0
  0
LINE
  5
179
330
61
100
AcDbEntity
  8
1
  6
Continuous
 62
     7
100
AcDbLine
 10
503.8553379304401
 20
1081.448385818435
 30
0.0
 11
503.8553379304401
 21
1080.5
 31
0.0
  0
LINE
  5
17A
330
61
100
AcDbEntity
  8
1
  6
Continuous
 62
     7
100
AcDbLine
 10
467.4999999892982
 20
1062.0
 30
0.0
 11
486.4999999892979
 21
1062.0
 31
0.0
  0
LINE
  5
17B
330
61
100
AcDbEntity
  8
1
  6
Continuous
 62
     7
100
AcDbLine
 10
524.8328379304401
 20
1081.487356961605
 30
0.0
 11
524.8553379304399
 21
1081.448385818435
 31
0.0
  0
LINE
  5
17C
330
61
100
AcDbEntity
  8
1
  6
Continuous
 62
     7
100
AcDbLine
 10
503.8778379304403
 20
1107.838
 30
0.0
 11
503.8778379304404
 21
1095.0
 31
0.0
  0
LINE
  5
17D
330
61
100
AcDbEntity
  8
1
  6
Continuous
 62
     2
100
AcDbLine
 10
503.8778379304403
 20
1081.487356961605
 30
0.0
 11
505.0398379304404
 21
1083.500000000001
 31
0.0
  0
LINE
  5
17E
330
61
100
AcDbEntity
  8
1
  6
Continuous
 62
     7
100
AcDbLine
 10
500.8553379304403
 20
1062.0
 30
0.0
 11
524.3553379304399
 21
1062.0
 31
0.0
  0
LINE
  5
17F
330
61
100
AcDbEntity
  8
1
  6
Continuous
 62
     7
100
AcDbLine
 10
471.399999989298
 20
1062.0
 30
0.0
 11
471.4999999892982
 21
1062.0
 31
0.0
  0
LINE
  5
180
330
61
100
AcDbEntity
  8
1
  6
Continuous
 62
     7
100
AcDbLine
 10
831.1909059582727
 20
469.2860885884842
 30
0.0
 11
831.1909059582727
 21
482.0248653597296
 31
0.0
  0
LINE
  5
181
330
61
100
AcDbEntity
  8
1
  6
Continuous
 62
     7
100
AcDbLine
 10
839.5
 20
436.1446601599413
 30
0.0
 11
840.4483878061933
 21
436.1446601599413
 31
0.0
  0
LINE
  5
182
330
61
100
AcDbEntity
  8
1
  6
Continuous
 62
     2
100
AcDbLine
 10
868.0
 20
437.329160159941
 30
0.0
 11
854.0
 21
437.3291601599411
 31
0.0
  0
LINE
  5
183
330
61
100
AcDbEntity
  8
1
  6
Continuous
 62
     7
100
AcDbLine
 10
866.838
 20
457.1221604716669
 30
0.0
 11
866.838
 21
436.1671601599412
 31
0.0
  0
LINE
  5
184
330
61
100
AcDbEntity
  8
1
  6
Continuous
 62
     7
100
AcDbLine
 10
838.5
 20
462.1446601599413
 30
0.0
 11
838.5000000000002
 21
435.1446601599413
 31
0.0
  0
LINE
  5
185
330
61
100
AcDbEntity
  8
1
  6
Continuous
 62
     7
100
AcDbLine
 10
821.0
 20
435.1446601599413
 30
0.0
 11
838.5000000000002
 21
435.1446601599413
 31
0.0
  0
LINE
  5
186
330
61
100
AcDbEntity
  8
1
  6
Continuous
 62
     7
100
AcDbLine
 10
868.0
 20
455.9601601599411
 30
0.0
 11
868.0
 21
437.329160159941
 31
0.0
  0
LINE
  5
187
330
61
100
AcDbEntity
  8
1
  6
Continuous
 62
     7
100
AcDbLine
 10
866.838
 20
457.1221601599413
 30
0.0
 11
868.0
 21
455.9601601599411
 31
0.0
  0
LINE
  5
188
330
61
100
AcDbEntity
  8
1
  6
Continuous
 62
     7
100
AcDbLine
 10
866.8380003117309
 20
436.1671604716721
 30
0.0
 11
868.0
 21
437.329160159941
 31
0.0
  0
LINE
  5
189
330
61
100
AcDbEntity
  8
1
  6
Continuous
 62
     7
100
AcDbLine
 10
835.5
 20
469.286088588484
 30
0.0
 11
835.4999999999998
 21
493.4999986279752
 31
0.0
  0
LINE
  5
18A
330
61
100
AcDbEntity
  8
1
  6
Continuous
 62
     7
100
AcDbLine
 10
835.4999999999998
 20
493.4999986279752
 30
0.0
 11
821.0
 21
493.4999986279752
 31
0.0
  0
LINE
  5
18B
330
61
100
AcDbEntity
  8
1
  6
Continuous
 62
     7
100
AcDbLine
 10
840.4483888860614
 20
457.1446601599413
 30
0.0
 11
839.5
 21
457.1446601599413
 31
0.0
  0
LINE
  5
18C
330
61
100
AcDbEntity
  8
1
  6
Continuous
 62
     7
100
AcDbLine
 10
821.0
 20
493.4999986279752
 30
0.0
 11
821.0
 21
435.1446601599413
 31
0.0
  0
LINE
  5
18D
330
61
100
AcDbEntity
  8
1
  6
Continuous
 62
     7
100
AcDbLine
 10
821.0
 20
460.1446601599413
 30
0.0
 11
821.0
 21
456.6446601599413
 31
0.0
  0
LINE
  5
18E
330
61
100
AcDbEntity
  8
1
  6
Continuous
 62
     7
100
AcDbLine
 10
821.0
 20
489.5999986279753
 30
0.0
 11
821.0
 21
489.4999986279752
 31
0.0
  0
LINE
  5
18F
330
61
100
AcDbEntity
  8
1
  6
Continuous
 62
     2
100
AcDbLine
 10
840.4873594892979
 20
457.1221604716724
 30
0.0
 11
842.5000030676271
 21
455.9601601599411
 31
0.0
  0
LINE
  5
190
330
61
100
AcDbEntity
  8
1
  6
Continuous
 62
     7
100
AcDbLine
 10
866.838
 20
457.1221604716669
 30
0.0
 11
854.0
 21
457.1221604716695
 31
0.0
  0
LINE
  5
191
330
61
100
AcDbEntity
  8
1
  6
Continuous
 62
     7
100
AcDbLine
 10
866.8380003117309
 20
436.1671604716721
 30
0.0
 11
854.0
 21
436.1671604716722
 31
0.0
  0
LINE
  5
192
330
61
100
AcDbEntity
  8
1
  6
Continuous
 62
     7
100
AcDbLine
 10
840.4873594892974
 20
436.1671604716721
 30
0.0
 11
840.4483878061933
 21
436.1446601599413
 31
0.0
  0
LINE
  5
193
330
61
100
AcDbEntity
  8
1
  6
Continuous
 62
     7
100
AcDbLine
 10
840.4483888860614
 20
457.1446601599413
 30
0.0
 11
840.4873594892979
 21
457.1221604716724
 31
0.0
  0
LINE
  5
194
330
61
100
AcDbEntity
  8
1
  6
Continuous
 62
     2
100
AcDbLine
 10
842.500001987758
 20
437.329160159941
 30
0.0
 11
840.4873594892974
 21
436.1671604716721
 31
0.0
  0
ARC
  5
195
330
61
100
AcDbEntity
  8
1
  6
Continuous
 62
     7
100
AcDbCircle
 10
491.7138997112183
 20
1086.109449289637
 30
0.0
 40
13.91854333136394
100
AcDbArc
 50
-90.0
 51
-28.35065509251844
  0
ARC
  5
196
330
61
100
AcDbEntity
  8
1
  6
Continuous
 62
     7
100
AcDbCircle
 10
514.3553385032412
 20
446.6446598365515
 30
0.0
 40
11.49999999999997
100
AcDbArc
 50
-135.0000007411536
 51
44.99999925884436
  0
ARC
  5
197
330
61
100
AcDbEntity
  8
1
  6
Continuous
 62
     7
100
AcDbCircle
 10
491.7139095018972
 20
1086.5
 30
0.0
 40
10.0
100
AcDbArc
 50
-89.99999999999902
 51
-44.42700400080462
  0
ARC
  5
198
330
61
100
AcDbEntity
  8
1
  6
Continuous
 62
     7
100
AcDbCircle
 10
845.1094492896366
 20
469.286088588484
 30
0.0
 40
13.91854333136394
100
AcDbArc
 50
179.9999999999993
 51
-118.3506550925168
  0
ARC
  5
199
330
61
100
AcDbEntity
  8
1
  6
Continuous
 62
     7
100
AcDbCircle
 10
845.5
 20
469.286088588484
 30
0.0
 40
10.0
100
AcDbArc
 50
180.0
 51
-134.4270040008062
  0
CIRCLE
  5
19A
330
61
100
AcDbEntity
  8
1
  6
Continuous
 62
     7
100
AcDbCircle
 10
514.3553385032412
 20
446.6446598365515
 30
0.0
 40
10.50000000000009
  0
SPLINE
  5
19B
330
61
100
AcDbEntity
  8
1
  6
Continuous
 62
     7
100
AcDbSpline
210
0.0
220
0.0
230
1.0
 70
     8
 71
     3
 72
    13
 73
     9
 74
     7
 42
0.0000000001
 43
0.0000000001
 44
0.00000001
 40
0.0
 40
0.0
 40
0.0
 40
0.0
 40
1.242270182277219
 40
2.484557005978754
 40
3.537999185208737
 40
4.591695591985062
 40
8.492417410712205
 40
12.41500543007559
 40
12.41500543007559
 40
12.41500543007559
 40
12.41500543007559
 10
467.4999901986191
 20
1076.5
 30
0.0
 10
467.8475916521427
 20
1076.274900365271
 30
0.0
 10
468.542799215651
 20
1075.824698080383
 30
0.0
 10
469.5542078477014
 20
1075.217914322451
 30
0.0
 10
470.5277386375556
 20
1074.670274691413
 30
0.0
 10
472.3049063815165
 20
1073.751580958259
 30
0.0
 10
475.0532035916336
 20
1072.551461625263
 30
0.0
 10
477.6653831556358
 20
1072.311314917793
 30
0.0
 10
478.9751234668647
 20
1072.190905958273
 30
0.0
 11
467.4999901986191
 21
1076.5
 31
0.0
 11
468.5465578370474
 21
1075.830723238137
 31
0.0
 11
469.6114101276161
 21
1075.190905958273
 31
0.0
 11
470.5303775775914
 21
1074.675892122666
 31
0.0
 11
471.4658264206611
 21
1074.190905958272
 31
0.0
 11
475.0936945557224
 21
1072.757656677198
 31
0.0
 11
478.9751234668647
 21
1072.190905958273
 31
0.0
  0
SPLINE
  5
19C
330
61
100
AcDbEntity
  8
1
  6
Continuous
 62
     7
100
AcDbSpline
210
0.0
220
0.0
230
1.0
 70
     8
 71
     3
 72
    13
 73
     9
 74
     7
 42
0.0000000001
 43
0.0000000001
 44
0.00000001
 40
0.0
 40
0.0
 40
0.0
 40
0.0
 40
1.242270182276947
 40
2.484557005978619
 40
3.537999185208701
 40
4.591695591985076
 40
8.492417410712049
 40
12.4150054300755
 40
12.4150054300755
 40
12.4150054300755
 40
12.4150054300755
 10
835.4999999999998
 20
493.4999986279752
 30
0.0
 10
835.274900365271
 20
493.1523971744517
 30
0.0
 10
834.8246980803834
 20
492.4571896109429
 30
0.0
 10
834.2179143224505
 20
491.445780978893
 30
0.0
 10
833.6702746914129
 20
490.4722501890385
 30
0.0
 10
832.751580958259
 20
488.6950824450778
 30
0.0
 10
831.5514616252626
 20
485.9467852349607
 30
0.0
 10
831.3113149177931
 20
483.3346056709585
 30
0.0
 10
831.1909059582727
 20
482.0248653597296
 30
0.0
 11
835.4999999999998
 21
493.4999986279752
 31
0.0
 11
834.8307232381376
 21
492.4534309895468
 31
0.0
 11
834.1909059582727
 21
491.3885786989782
 31
0.0
 11
833.6758921226656
 21
490.4696112490028
 31
0.0
 11
833.1909059582725
 21
489.5341624059329
 31
0.0
 11
831.7576566771977
 21
485.9062942708719
 31
0.0
 11
831.1909059582727
 21
482.0248653597296
 31
0.0
  0
ARC
  5
19D
330
61
100
AcDbEntity
  8
1
  6
Continuous
 62
     7
100
AcDbCircle
 10
525.8553379304399
 20
1080.5
 30
0.0
 40
1.0
100
AcDbArc
 50
180.0
 51
-90.0
  0
ARC
  5
19E
330
61
100
AcDbEntity
  8
1
  6
Continuous
 62
     7
100
AcDbCircle
 10
502.8553379304401
 20
1080.5
 30
0.0
 40
1.0
100
AcDbArc
 50
-90.0
 51
0.0
  0
ARC
  5
19F
330
61
100
AcDbEntity
  8
1
  6
Continuous
 62
     7
100
AcDbCircle
 10
839.5000000000002
 20
435.1446601599413
 30
0.0
 40
1.0
100
AcDbArc
 50
90.00000000001303
 51
180.0
  0
ARC
  5
1A0
330
61
100
AcDbEntity
  8
1
  6
Continuous
 62
     7
100
AcDbCircle
 10
839.5
 20
458.1446601599413
 30
0.0
 40
1.0
100
AcDbArc
 50
180.0
 51
-90.0
  0
ENDBLK
  5
63
330
61
100
AcDbEntity
  8
0
100
AcDbBlockEnd
  0
BLOCK
  5
65
330
64
100
AcDbEntity
  8
0
100
AcDbBlockBegin
  2
78-3A__13
 70
     0
 71
     0
 10
363.784763302907
 20
1389.621124254744
 30
0.0
  3
78-3A__13
  1

  0
LINE
  5
1A1
330
64
100
AcDbEntity
  8
1
  6
Continuous
 62
     7
100
AcDbLine
 10
489.3553379304403
 20
1092.780624847486
 30
0.0
 11
539.3553379304401
 21
1092.780624847486
 31
0.0
  0
LINE
  5
1A2
330
64
100
AcDbEntity
  8
1
  6
Continuous
 62
     7
100
AcDbLine
 10
843.5191311905569
 20
459.9185780357381
 30
0.0
 11
850.9997560380434
 21
471.2693590950962
 31
0.0
  0
LINE
  5
1A3
330
64
100
AcDbEntity
  8
1
  6
Continuous
 62
     7
100
AcDbLine
 10
854.0
 20
471.6446640475419
 30
0.0
 11
851.7806248474863
 21
471.6446640475419
 31
0.0
  0
LINE
  5
1A4
330
64
100
AcDbEntity
  8
1
  6
Continuous
 62
     7
100
AcDbLine
 10
854.0
 20
471.6446640475419
 30
0.0
 11
854.0
 21
421.6446640475419
 31
0.0
  0
LINE
  5
1A5
330
64
100
AcDbEntity
  8
1
  6
Continuous
 62
     7
100
AcDbLine
 10
843.3000000000002
 20
459.2938829881836
 30
0.0
 11
843.3000000000002
 21
433.9954451069
 31
0.0
  0
LINE
  5
1A6
330
64
100
AcDbEntity
  8
1
  6
Continuous
 62
     7
100
AcDbLine
 10
851.6364373932406
 20
469.0144628037778
 30
0.0
 11
851.6364373932406
 21
424.2748652913062
 31
0.0
  0
LINE
  5
1A7
330
64
100
AcDbEntity
  8
1
  6
Continuous
 62
     7
100
AcDbLine
 10
851.7806248474863
 20
421.6446640475419
 30
0.0
 11
854.0
 21
421.6446640475419
 31
0.0
  0
LINE
  5
1A8
330
64
100
AcDbEntity
  8
1
  6
Continuous
 62
     7
100
AcDbLine
 10
843.5191311905569
 20
433.3707500593456
 30
0.0
 11
850.9997560380434
 21
422.0199689999874
 31
0.0
  0
LINE
  5
1A9
330
64
100
AcDbEntity
  8
1
  6
Continuous
 62
     7
100
AcDbLine
 10
527.6292519186361
 20
1084.519131190557
 30
0.0
 11
538.9800329779944
 21
1091.999756038043
 31
0.0
  0
LINE
  5
1AA
330
64
100
AcDbEntity
  8
1
  6
Continuous
 62
     7
100
AcDbLine
 10
539.3553379304401
 20
1092.780624847486
 30
0.0
 11
539.3553379304401
 21
1095.0
 31
0.0
  0
LINE
  5
1AB
330
64
100
AcDbEntity
  8
1
  6
Continuous
 62
     7
100
AcDbLine
 10
524.8553379304401
 20
1095.0
 30
0.0
 11
539.3553379304401
 21
1095.0
 31
0.0
  0
LINE
  5
1AC
330
64
100
AcDbEntity
  8
1
  6
Continuous
 62
     7
100
AcDbLine
 10
526.1053379304402
 20
1084.3
 30
0.0
 11
527.0045568710818
 21
1084.3
 31
0.0
  0
LINE
  5
1AD
330
64
100
AcDbEntity
  8
1
  6
Continuous
 62
     7
100
AcDbLine
 10
489.3553379304403
 20
1095.0
 30
0.0
 11
524.8553379304401
 21
1095.0
 31
0.0
  0
LINE
  5
1AE
330
64
100
AcDbEntity
  8
1
  6
Continuous
 62
     7
100
AcDbLine
 10
501.7061189897985
 20
1084.3
 30
0.0
 11
502.6053379304403
 21
1084.3
 31
0.0
  0
LINE
  5
1AF
330
64
100
AcDbEntity
  8
1
  6
Continuous
 62
     7
100
AcDbLine
 10
489.3553379304403
 20
1095.0
 30
0.0
 11
489.3553379304403
 21
1092.780624847486
 31
0.0
  0
LINE
  5
1B0
330
64
100
AcDbEntity
  8
1
  6
Continuous
 62
     7
100
AcDbLine
 10
501.0814239422441
 20
1084.519131190557
 30
0.0
 11
489.7306428828858
 21
1091.999756038043
 31
0.0
  0
LINE
  5
1B1
330
64
100
AcDbEntity
  8
0
  6
Continuous
 62
     7
100
AcDbLine
 10
502.6053379304403
 20
1084.3
 30
0.0
 11
524.8553379304401
 21
1084.3
 31
0.0
  0
LINE
  5
1B2
330
64
100
AcDbEntity
  8
0
  6
Continuous
 62
     7
100
AcDbLine
 10
526.1053379304402
 20
1084.3
 30
0.0
 11
524.8553379304401
 21
1084.3
 31
0.0
  0
ARC
  5
1B3
330
64
100
AcDbEntity
  8
1
  6
Continuous
 62
     7
100
AcDbCircle
 10
514.355340388094
 20
446.6446640475429
 30
0.0
 40
25.00000000000006
100
AcDbArc
 50
162.3871080267292
 51
107.6128930214206
  0
ARC
  5
1B4
330
64
100
AcDbEntity
  8
1
  6
Continuous
 62
     7
100
AcDbCircle
 10
851.7806248474863
 20
422.6446640475419
 30
0.0
 40
0.9999999999998934
100
AcDbArc
 50
-141.3401917458997
 51
-90.0
  0
ARC
  5
1B5
330
64
100
AcDbEntity
  8
1
  6
Continuous
 62
     7
100
AcDbCircle
 10
851.7806248474863
 20
470.6446640475417
 30
0.0
 40
1.000000000000171
100
AcDbArc
 50
90.0
 51
141.3401917458997
  0
ARC
  5
1B6
330
64
100
AcDbEntity
  8
1
  6
Continuous
 62
     7
100
AcDbCircle
 10
844.3000000000002
 20
433.9954451069
 30
0.0
 40
1.0
100
AcDbArc
 50
180.0
 51
-141.3401917459211
  0
ARC
  5
1B7
330
64
100
AcDbEntity
  8
1
  6
Continuous
 62
     7
100
AcDbCircle
 10
844.3000000000002
 20
459.2938829881836
 30
0.0
 40
1.000000000000249
100
AcDbArc
 50
141.340191745916
 51
180.0
  0
ARC
  5
1B8
330
64
100
AcDbEntity
  8
1
  6
Continuous
 62
     7
100
AcDbCircle
 10
501.7061189897985
 20
1085.3
 30
0.0
 40
1.0
100
AcDbArc
 50
-128.659808254087
 51
-90.0
  0
ARC
  5
1B9
330
64
100
AcDbEntity
  8
1
  6
Continuous
 62
     7
100
AcDbCircle
 10
527.0045568710818
 20
1085.3
 30
0.0
 40
1.0
100
AcDbArc
 50
-90.0
 51
-51.34019174591806
  0
ARC
  5
1BA
330
64
100
AcDbEntity
  8
1
  6
Continuous
 62
     7
100
AcDbCircle
 10
490.3553379304403
 20
1092.780624847486
 30
0.0
 40
1.0
100
AcDbArc
 50
180.0
 51
-128.6598082540947
  0
ARC
  5
1BB
330
64
100
AcDbEntity
  8
1
  6
Continuous
 62
     7
100
AcDbCircle
 10
538.3553379304401
 20
1092.780624847486
 30
0.0
 40
0.999999999999929
100
AcDbArc
 50
-51.34019174591806
 51
0.0
  0
ENDBLK
  5
66
330
64
100
AcDbEntity
  8
0
100
AcDbBlockEnd
  0
BLOCK
  5
68
330
67
100
AcDbEntity
  8
0
100
AcDbBlockBegin
  2
32-3__14
 70
     0
 71
     0
 10
555.9471222914563
 20
1360.827459145388
 30
0.0
  3
32-3__14
  1

  0
LINE
  5
1BC
330
67
100
AcDbEntity
  8
1
  6
Continuous
 62
     7
100
AcDbLine
 10
820.3805611360949
 20
496.2566623343085
 30
0.0
 11
820.3805611360949
 21
467.7433349216395
 31
0.0
  0
LINE
  5
1BD
330
67
100
AcDbEntity
  8
1
  6
Continuous
 62
     7
100
AcDbLine
 10
807.380561136095
 20
467.6506565511884
 30
0.0
 11
807.380561136095
 21
496.3493407047594
 31
0.0
  0
LINE
  5
1BE
330
67
100
AcDbEntity
  8
1
  6
Continuous
 62
     7
100
AcDbLine
 10
477.955374196066
 20
465.2826046922389
 30
0.0
 11
473.2487098351916
 21
467.999998627975
 31
0.0
  0
LINE
  5
1BF
330
67
100
AcDbEntity
  8
1
  6
Continuous
 62
     7
100
AcDbLine
 10
480.0446228623904
 20
498.71739256371
 30
0.0
 11
492.9553741960662
 21
491.2633668057721
 31
0.0
  0
LINE
  5
1C0
330
67
100
AcDbEntity
  8
1
  6
Continuous
 62
     7
100
AcDbLine
 10
493.9999985292283
 20
489.4540243859123
 30
0.0
 11
493.9999985292283
 21
474.5459728700366
 31
0.0
  0
LINE
  5
1C1
330
67
100
AcDbEntity
  8
1
  6
Continuous
 62
     7
100
AcDbLine
 10
492.9553741960662
 20
472.7366304501767
 30
0.0
 11
480.0446228623904
 21
465.2826046922389
 31
0.0
  0
LINE
  5
1C2
330
67
100
AcDbEntity
  8
1
  6
Continuous
 62
     7
100
AcDbLine
 10
473.2487098351919
 20
495.999998627974
 30
0.0
 11
477.955374196066
 21
498.71739256371
 31
0.0
  0
LINE
  5
1C3
330
67
100
AcDbEntity
  8
1
  6
Continuous
 62
     7
100
AcDbLine
 10
493.2566636956325
 20
1048.380561136096
 30
0.0
 11
492.2209999892979
 21
1048.380561136096
 31
0.0
  0
LINE
  5
1C4
330
67
100
AcDbEntity
  8
1
  6
Continuous
 62
     7
100
AcDbLine
 10
493.2566636956325
 20
1061.380561136096
 30
0.0
 11
487.3999999892976
 21
1061.380561136096
 31
0.0
  0
LINE
  5
1C5
330
67
100
AcDbEntity
  8
1
  6
Continuous
 62
     7
100
AcDbLine
 10
464.7433362829635
 20
1061.380561136096
 30
0.0
 11
487.3999999892976
 21
1061.380561136096
 31
0.0
  0
LINE
  5
1C6
330
67
100
AcDbEntity
  8
1
  6
Continuous
 62
     7
100
AcDbLine
 10
492.2209999892979
 20
1048.380561136096
 30
0.0
 11
464.7433362829635
 21
1048.380561136096
 31
0.0
  0
LINE
  5
1C7
330
67
100
AcDbEntity
  8
1
  6
Continuous
 62
     7
100
AcDbLine
 10
463.9999999892982
 20
1049.229233858367
 30
0.0
 11
463.9999999892982
 21
1060.531888413824
 31
0.0
  0
LINE
  5
1C8
330
67
100
AcDbEntity
  8
1
  6
Continuous
 62
     7
100
AcDbLine
 10
493.9999999892982
 20
1049.229233858367
 30
0.0
 11
493.9999999892982
 21
1060.531888413824
 31
0.0
  0
ARC
  5
1C9
330
67
100
AcDbEntity
  8
1
  6
Continuous
 62
     7
100
AcDbCircle
 10
813.8805611360949
 20
488.749998627974
 30
0.0
 40
10.00000000000013
100
AcDbArc
 50
49.99479911513942
 51
130.5416018735037
  0
ARC
  5
1CA
330
67
100
AcDbEntity
  8
1
  6
Continuous
 62
     7
100
AcDbCircle
 10
813.8805611360949
 20
475.249998627974
 30
0.0
 40
10.00000000000013
100
AcDbArc
 50
-130.541601873503
 51
-49.99479911513942
  0
ARC
  5
1CB
330
67
100
AcDbEntity
  8
1
  6
Continuous
 62
     7
100
AcDbCircle
 10
478.9999985292283
 20
481.9999986279744
 30
0.0
 40
16.74999999999999
100
AcDbArc
 50
-93.57560792118106
 51
-86.42439207881991
  0
ARC
  5
1CC
330
67
100
AcDbEntity
  8
1
  6
Continuous
 62
     7
100
AcDbCircle
 10
478.9999985292283
 20
481.9999986279744
 30
0.0
 40
16.75000000000006
100
AcDbArc
 50
26.42439207881945
 51
33.57560792118064
  0
ARC
  5
1CD
330
67
100
AcDbEntity
  8
1
  6
Continuous
 62
     7
100
AcDbCircle
 10
478.9999985292283
 20
481.9999986279744
 30
0.0
 40
16.75000000000018
100
AcDbArc
 50
-33.57560792118064
 51
-26.42439207881893
  0
ARC
  5
1CE
330
67
100
AcDbEntity
  8
1
  6
Continuous
 62
     7
100
AcDbCircle
 10
478.9999985292283
 20
481.9999986279744
 30
0.0
 40
16.75000000000014
100
AcDbArc
 50
86.42439207881994
 51
93.57560792118105
  0
ARC
  5
1CF
330
67
100
AcDbEntity
  8
1
  6
Continuous
 62
     7
100
AcDbCircle
 10
478.9999985292283
 20
481.9999986279744
 30
0.0
 40
14.34934207678528
100
AcDbArc
 50
-102.6687024887032
 51
90.0
  0
ARC
  5
1D0
330
67
100
AcDbEntity
  8
1
  6
Continuous
 62
     7
100
AcDbCircle
 10
478.9999985292283
 20
481.9999986279744
 30
0.0
 40
14.34934207678543
100
AcDbArc
 50
90.0
 51
102.6687024887017
  0
ARC
  5
1D1
330
67
100
AcDbEntity
  8
1
  6
Continuous
 62
     7
100
AcDbCircle
 10
485.7499999892982
 20
1054.880561136096
 30
0.0
 40
9.999999999999565
100
AcDbArc
 50
34.41150866976581
 51
40.00520088485759
  0
ARC
  5
1D2
330
67
100
AcDbEntity
  8
1
  6
Continuous
 62
     7
100
AcDbCircle
 10
472.2499999892979
 20
1054.880561136096
 30
0.0
 40
9.999999999999973
100
AcDbArc
 50
-145.5884913302279
 51
-139.9947991151374
  0
ARC
  5
1D3
330
67
100
AcDbEntity
  8
1
  6
Continuous
 62
     7
100
AcDbCircle
 10
472.2499999892979
 20
1054.880561136096
 30
0.0
 40
9.999999999999691
100
AcDbArc
 50
139.9947991151424
 51
145.5884913302333
  0
ARC
  5
1D4
330
67
100
AcDbEntity
  8
1
  6
Continuous
 62
     7
100
AcDbCircle
 10
485.7499999892982
 20
1054.880561136096
 30
0.0
 40
10.00000000000042
100
AcDbArc
 50
-40.00520088486258
 51
-34.41150866977118
  0
CIRCLE
  5
1D5
330
67
100
AcDbEntity
  8
1
  6
Continuous
 62
     7
100
AcDbCircle
 10
486.4999999892982
 20
1054.880561136096
 30
0.0
 40
5.651024957036952
  0
CIRCLE
  5
1D6
330
67
100
AcDbEntity
  8
1
  6
Continuous
 62
     7
100
AcDbCircle
 10
471.4999999892982
 20
1054.880561136096
 30
0.0
 40
5.651024957036952
  0
SPLINE
  5
1D7
330
67
100
AcDbEntity
  8
1
  6
Continuous
 62
     7
100
AcDbSpline
210
0.0
220
0.0
230
1.0
 70
    11
 71
     3
 72
    79
 73
    75
 74
    73
 42
0.0000000001
 43
0.0000000001
 44
0.00000001
 40
0.0
 40
0.0
 40
0.0
 40
0.0
 40
0.3332697406002804
 40
0.666335009429651
 40
1.016658914395572
 40
1.366684437097123
 40
1.741620081816572
 40
2.11627431693588
 40
2.51940912458129
 40
2.922325507076133
 40
3.35351164579069
 40
3.784543826900738
 40
4.2405624463176
 40
4.696479548091195
 40
5.171803439840745
 40
5.647066354032915
 40
6.134582892535807
 40
6.622070905416527
 40
7.113743632613428
 40
7.605416359810781
 40
8.092904372691619
 40
8.580420911194624
 40
9.055683825386794
 40
9.53100771713622
 40
9.98692481890976
 40
10.44294343832661
 40
10.87397561943675
 40
11.30516175815131
 40
11.70807814064581
 40
12.11121294829147
 40
12.48586718341102
 40
12.86080282813044
 40
13.21082835083209
 40
13.5611522557978
 40
13.89421752462709
 40
14.22748726522741
 40
14.55454894770916
 40
14.88161063019079
 40
15.21488037079102
 40
15.54794563962047
 40
15.89826954458629
 40
16.24829506728784
 40
16.62323071200708
 40
16.99788494712655
 40
17.40101975477221
 40
17.80393613726683
 40
18.23512227598142
 40
18.66615445709134
 40
19.12217307650837
 40
19.57809017828184
 40
20.05341407003144
 40
20.52867698422359
 40
21.0161935227267
 40
21.50368153560731
 40
21.99535426280456
 40
22.48702699000146
 40
22.97451500288231
 40
23.46203154138533
 40
23.93729445557772
 40
24.41261834732727
 40
24.86853544910072
 40
25.3245540685175
 40
25.75558624962752
 40
26.18677238834214
 40
26.58968877083682
 40
26.99282357848239
 40
27.36747781360174
 40
27.74241345832099
 40
28.09243898102254
 40
28.44276288598831
 40
28.77582815481777
 40
29.1090978954181
 40
29.43615957789991
 40
29.76322126038149
 40
29.76322126038149
 40
29.76322126038149
 40
29.76322126038149
 10
819.50962058198
 20
468.6832943258393
 30
0.0
 10
819.4907978027968
 20
468.5736414218084
 30
0.0
 10
819.4531637928146
 20
468.354402889352
 30
0.0
 10
819.3408707201339
 20
468.033208546354
 30
0.0
 10
819.1916656087226
 20
467.7220491665457
 30
0.0
 10
818.998873345405
 20
467.4189354904821
 30
0.0
 10
818.7701812587743
 20
467.1316617736376
 30
0.0
 10
818.5015737375105
 20
466.8561012052555
 30
0.0
 10
818.2016354878691
 20
466.6004489969886
 30
0.0
 10
817.8657064998271
 20
466.3604376285056
 30
0.0
 10
817.5036735686442
 20
466.1433153111317
 30
0.0
 10
817.1107865148651
 20
465.9457170056649
 30
0.0
 10
816.6973112618414
 20
465.7732074829732
 30
0.0
 10
816.2594053982847
 20
465.6236696764674
 30
0.0
 10
815.8066321079439
 20
465.5008016333544
 30
0.0
 10
815.3369359558891
 20
465.4035841563496
 30
0.0
 10
814.8582506298042
 20
465.3340709124149
 30
0.0
 10
814.370910048081
 20
465.2918960091578
 30
0.0
 10
813.8805611360979
 20
465.2779391792727
 30
0.0
 10
813.3902122240995
 20
465.2918960091564
 30
0.0
 10
812.902871642419
 20
465.3340709124194
 30
0.0
 10
812.4241863161783
 20
465.4035841563332
 30
0.0
 10
811.9544901646912
 20
465.5008016334142
 30
0.0
 10
811.5017168722713
 20
465.6236696762474
 30
0.0
 10
811.0638110161696
 20
465.7732074837575
 30
0.0
 10
810.6503357360685
 20
465.9457170027997
 30
0.0
 10
810.257448778071
 20
466.1433153211771
 30
0.0
 10
809.8954155013154
 20
466.3604375919704
 30
0.0
 10
809.5594877226693
 20
466.6004491234706
 30
0.0
 10
809.2595451274577
 20
466.8561007459879
 30
0.0
 10
808.9909527388326
 20
467.1316633541349
 30
0.0
 10
808.7622062549581
 20
467.4189297386439
 30
0.0
 10
808.5696042594055
 20
467.7220690613582
 30
0.0
 10
808.4197104234302
 20
468.0331356063217
 30
0.0
 10
808.3098683125788
 20
468.3546603203746
 30
0.0
 10
808.2447639809925
 20
468.6802962876118
 30
0.0
 10
808.221993859629
 20
469.0096175712073
 30
0.0
 10
808.2447639809925
 20
469.3389388548029
 30
0.0
 10
808.3098683125792
 20
469.6645748220401
 30
0.0
 10
808.4197104234301
 20
469.986099536093
 30
0.0
 10
808.5696042594057
 20
470.2971660810565
 30
0.0
 10
808.7622062549577
 20
470.600305403771
 30
0.0
 10
808.9909527388323
 20
470.8875717882797
 30
0.0
 10
809.2595451274577
 20
471.1631343964266
 30
0.0
 10
809.5594877226691
 20
471.4187860189438
 30
0.0
 10
809.8954155013153
 20
471.6587975504441
 30
0.0
 10
810.2574487780712
 20
471.8759198212376
 30
0.0
 10
810.6503357360682
 20
472.073518139615
 30
0.0
 10
811.0638110161692
 20
472.2460276586569
 30
0.0
 10
811.5017168722713
 20
472.3955654661674
 30
0.0
 10
811.9544901646914
 20
472.5184335090007
 30
0.0
 10
812.4241863161781
 20
472.6156509860819
 30
0.0
 10
812.902871642419
 20
472.6851642299953
 30
0.0
 10
813.3902122241004
 20
472.7273391332584
 30
0.0
 10
813.8805611360949
 20
472.7412959631421
 30
0.0
 10
814.3709100480889
 20
472.7273391332585
 30
0.0
 10
814.8582506297734
 20
472.6851642299949
 30
0.0
 10
815.3369359560027
 20
472.6156509860825
 30
0.0
 10
815.8066321075305
 20
472.5184335089961
 30
0.0
 10
816.2594053998025
 20
472.3955654661829
 30
0.0
 10
816.6973112564343
 20
472.2460276586011
 30
0.0
 10
817.11078653461
 20
472.0735181398187
 30
0.0
 10
817.5036734994188
 20
471.8759198205231
 30
0.0
 10
817.8657067515986
 20
471.6587975530425
 30
0.0
 10
818.2016346162537
 20
471.4187860099489
 30
0.0
 10
818.5015769024192
 20
471.1631344290885
 30
0.0
 10
818.7701703672394
 20
470.8875716758788
 30
0.0
 10
818.9989129825206
 20
470.6003058128271
 30
0.0
 10
819.1915285094303
 20
470.2971646661883
 30
0.0
 10
819.3413733650741
 20
469.9861047234019
 30
0.0
 10
819.4513897820696
 20
469.6645565142035
 30
0.0
 10
819.5158541869322
 20
469.3390068042323
 30
0.0
 10
819.5409709681497
 20
469.0093692086966
 30
0.0
 10
819.5200707107032
 20
468.7919859534584
 30
0.0
 10
819.50962058198
 20
468.6832943258393
 30
0.0
 11
819.50962058198
 21
468.6832943258393
 31
0.0
 11
819.4441555453342
 21
468.3565175687455
 31
0.0
 11
819.3372696206727
 21
468.0410688844723
 31
0.0
 11
819.1855044198732
 21
467.7253250607531
 31
0.0
 11
818.9984925982959
 21
467.4294459551494
 31
0.0
 11
818.7654258284017
 21
467.1357511842523
 31
0.0
 11
818.5044180264192
 21
466.8669748400606
 31
0.0
 11
818.1980551822982
 21
466.604945298067
 31
0.0
 11
817.8705315859506
 21
466.3702755191897
 31
0.0
 11
817.5010681935708
 21
466.1479732746875
 31
0.0
 11
817.1161721214576
 21
465.9539532890563
 31
0.0
 11
816.6955057118878
 21
465.7779057014144
 31
0.0
 11
816.264136015466
 21
465.6303232204128
 31
0.0
 11
815.8054968045349
 21
465.5054918290706
 31
0.0
 11
815.3401266152248
 21
465.4090272007971
 31
0.0
 11
814.8577028980561
 21
465.3387439707419
 31
0.0
 11
814.3720319990837
 21
465.2966923287562
 31
0.0
 11
813.8805611360953
 21
465.2826046922385
 31
0.0
 11
813.3890902731064
 21
465.2966923287561
 31
0.0
 11
812.9034193741338
 21
465.3387439707419
 31
0.0
 11
812.420995656965
 21
465.4090272007971
 31
0.0
 11
811.955625467655
 21
465.5054918290706
 31
0.0
 11
811.496986256724
 21
465.6303232204128
 31
0.0
 11
811.0656165603022
 21
465.7779057014142
 31
0.0
 11
810.6449501507325
 21
465.9539532890563
 31
0.0
 11
810.2600540786192
 21
466.1479732746875
 31
0.0
 11
809.8905906862393
 21
466.3702755191897
 31
0.0
 11
809.5630670898921
 21
466.6049452980669
 31
0.0
 11
809.2567042457708
 21
466.8669748400606
 31
0.0
 11
808.9956964437881
 21
467.1357511842525
 31
0.0
 11
808.762629673894
 21
467.4294459551496
 31
0.0
 11
808.5756178523168
 21
467.7253250607534
 31
0.0
 11
808.4238526515172
 21
468.0410688844724
 31
0.0
 11
808.3169667268555
 21
468.3565175687454
 31
0.0
 11
808.25150169021
 21
468.6832943258393
 31
0.0
 11
808.2295361790575
 21
469.0096175712074
 31
0.0
 11
808.25150169021
 21
469.3359408165754
 31
0.0
 11
808.3169667268556
 21
469.6627175736692
 31
0.0
 11
808.4238526515173
 21
469.9781662579424
 31
0.0
 11
808.5756178523168
 21
470.2939100816615
 31
0.0
 11
808.762629673894
 21
470.5897891872652
 31
0.0
 11
808.9956964437881
 21
470.8834839581621
 31
0.0
 11
809.2567042457707
 21
471.152260302354
 31
0.0
 11
809.563067089892
 21
471.4142898443477
 31
0.0
 11
809.8905906862393
 21
471.6489596232249
 31
0.0
 11
810.2600540786192
 21
471.8712618677272
 31
0.0
 11
810.6449501507323
 21
472.0652818533583
 31
0.0
 11
811.0656165603022
 21
472.2413294410004
 31
0.0
 11
811.4969862567239
 21
472.3889119220019
 31
0.0
 11
811.955625467655
 21
472.5137433133443
 31
0.0
 11
812.420995656965
 21
472.6102079416177
 31
0.0
 11
812.9034193741339
 21
472.6804911716729
 31
0.0
 11
813.3890902731063
 21
472.7225428136587
 31
0.0
 11
813.880561136095
 21
472.7366304501764
 31
0.0
 11
814.3720319990835
 21
472.7225428136587
 31
0.0
 11
814.857702898056
 21
472.6804911716728
 31
0.0
 11
815.3401266152248
 21
472.6102079416174
 31
0.0
 11
815.8054968045351
 21
472.513743313344
 31
0.0
 11
816.2641360154662
 21
472.3889119220017
 31
0.0
 11
816.6955057118879
 21
472.2413294410003
 31
0.0
 11
817.1161721214576
 21
472.0652818533583
 31
0.0
 11
817.5010681935708
 21
471.8712618677272
 31
0.0
 11
817.8705315859506
 21
471.6489596232249
 31
0.0
 11
818.1980551822981
 21
471.4142898443477
 31
0.0
 11
818.5044180264192
 21
471.152260302354
 31
0.0
 11
818.7654258284017
 21
470.8834839581622
 31
0.0
 11
818.9984925982958
 21
470.5897891872653
 31
0.0
 11
819.185504419873
 21
470.2939100816616
 31
0.0
 11
819.3372696206725
 21
469.9781662579425
 31
0.0
 11
819.4441555453341
 21
469.6627175736693
 31
0.0
 11
819.5096205819799
 21
469.3359408165754
 31
0.0
 11
819.5315860931326
 21
469.0096175712072
 31
0.0
 11
819.50962058198
 21
468.6832943258393
 31
0.0
  0
SPLINE
  5
1D8
330
67
100
AcDbEntity
  8
1
  6
Continuous
 62
     7
100
AcDbSpline
210
0.0
220
0.0
230
1.0
 70
    11
 71
     3
 72
    79
 73
    75
 74
    73
 42
0.0000000001
 43
0.0000000001
 44
0.00000001
 40
0.0
 40
0.0
 40
0.0
 40
0.0
 40
0.3332697406002804
 40
0.6663350094297047
 40
1.016658914395625
 40
1.366684437097225
 40
1.741620081816541
 40
2.116274316935931
 40
2.519409124581414
 40
2.922325507076158
 40
3.353511645790745
 40
3.784543826900793
 40
4.240562446317698
 40
4.696479548091238
 40
5.171803439840819
 40
5.647066354032988
 40
6.134582892535769
 40
6.622070905416488
 40
7.113743632613502
 40
7.605416359810858
 40
8.092904372691695
 40
8.58042091119458
 40
9.055683825386861
 40
9.531007717136207
 40
9.986924818909854
 40
10.44294343832666
 40
10.87397561943683
 40
11.30516175815142
 40
11.70807814064595
 40
12.11121294829153
 40
12.48586718341108
 40
12.8608028281305
 40
13.21082835083223
 40
13.5611522557979
 40
13.89421752462718
 40
14.22748726522739
 40
14.55454894770914
 40
14.88161063019077
 40
15.21488037079103
 40
15.54794563962043
 40
15.89826954458635
 40
16.24829506728784
 40
16.62323071200709
 40
16.99788494712663
 40
17.40101975477229
 40
17.80393613726688
 40
18.23512227598134
 40
18.66615445709129
 40
19.12217307650829
 40
19.5780901782818
 40
20.05341407003136
 40
20.52867698422353
 40
21.01619352272664
 40
21.50368153560726
 40
21.9953542628045
 40
22.4870269900014
 40
22.97451500288224
 40
23.46203154138524
 40
23.93729445557763
 40
24.41261834732721
 40
24.86853544910075
 40
25.32455406851747
 40
25.75558624962752
 40
26.1867723883421
 40
26.58968877083679
 40
26.99282357848228
 40
27.36747781360167
 40
27.74241345832092
 40
28.09243898102252
 40
28.44276288598834
 40
28.77582815481775
 40
29.10909789541808
 40
29.43615957789966
 40
29.76322126038141
 40
29.76322126038141
 40
29.76322126038141
 40
29.76322126038141
 10
819.50962058198
 20
495.3167029301086
 30
0.0
 10
819.4907978027968
 20
495.4263558341394
 30
0.0
 10
819.4531637928146
 20
495.6455943665959
 30
0.0
 10
819.3408707201337
 20
495.966788709594
 30
0.0
 10
819.1916656087228
 20
496.2779480894023
 30
0.0
 10
818.9988733454048
 20
496.5810617654658
 30
0.0
 10
818.7701812587742
 20
496.8683354823102
 30
0.0
 10
818.5015737375107
 20
497.1438960506924
 30
0.0
 10
818.201635487869
 20
497.3995482589595
 30
0.0
 10
817.8657064998271
 20
497.6395596274423
 30
0.0
 10
817.5036735686446
 20
497.8566819448163
 30
0.0
 10
817.1107865148649
 20
498.0542802502829
 30
0.0
 10
816.6973112618416
 20
498.2267897729749
 30
0.0
 10
816.2594053982845
 20
498.3763275794802
 30
0.0
 10
815.8066321079436
 20
498.4991956225936
 30
0.0
 10
815.336935955889
 20
498.5964130995984
 30
0.0
 10
814.8582506298045
 20
498.6659263435329
 30
0.0
 10
814.3709100480808
 20
498.7081012467903
 30
0.0
 10
813.8805611360976
 20
498.7220580766756
 30
0.0
 10
813.3902122240995
 20
498.7081012467913
 30
0.0
 10
812.9028716424191
 20
498.6659263435286
 30
0.0
 10
812.4241863161783
 20
498.5964130996148
 30
0.0
 10
811.9544901646914
 20
498.4991956225338
 30
0.0
 10
811.5017168722718
 20
498.3763275797004
 30
0.0
 10
811.0638110161694
 20
498.2267897721904
 30
0.0
 10
810.6503357360684
 20
498.0542802531483
 30
0.0
 10
810.2574487780712
 20
497.8566819347707
 30
0.0
 10
809.8954155013151
 20
497.6395596639774
 30
0.0
 10
809.5594877226693
 20
497.399548132477
 30
0.0
 10
809.2595451274577
 20
497.1438965099599
 30
0.0
 10
808.9909527388321
 20
496.868333901813
 30
0.0
 10
808.7622062549576
 20
496.5810675173041
 30
0.0
 10
808.569604259406
 20
496.2779281945894
 30
0.0
 10
808.4197104234301
 20
495.9668616496262
 30
0.0
 10
808.3098683125791
 20
495.6453369355734
 30
0.0
 10
808.2447639809924
 20
495.3197009683362
 30
0.0
 10
808.2219938596293
 20
494.9903796847406
 30
0.0
 10
808.2447639809924
 20
494.6610584011452
 30
0.0
 10
808.3098683125792
 20
494.3354224339078
 30
0.0
 10
808.4197104234302
 20
494.0138977198549
 30
0.0
 10
808.5696042594059
 20
493.7028311748913
 30
0.0
 10
808.7622062549575
 20
493.3996918521768
 30
0.0
 10
808.9909527388325
 20
493.1124254676681
 30
0.0
 10
809.2595451274576
 20
492.8368628595213
 30
0.0
 10
809.5594877226693
 20
492.581211237004
 30
0.0
 10
809.8954155013155
 20
492.3411997055038
 30
0.0
 10
810.2574487780712
 20
492.1240774347106
 30
0.0
 10
810.650335736068
 20
491.9264791163329
 30
0.0
 10
811.0638110161696
 20
491.7539695972912
 30
0.0
 10
811.5017168722712
 20
491.6044317897804
 30
0.0
 10
811.9544901646914
 20
491.4815637469475
 30
0.0
 10
812.4241863161781
 20
491.3843462698661
 30
0.0
 10
812.9028716424189
 20
491.3148330259528
 30
0.0
 10
813.3902122241002
 20
491.2726581226895
 30
0.0
 10
813.880561136095
 20
491.258701292806
 30
0.0
 10
814.3709100480891
 20
491.2726581226895
 30
0.0
 10
814.858250629773
 20
491.314833025953
 30
0.0
 10
815.3369359560033
 20
491.3843462698652
 30
0.0
 10
815.8066321075304
 20
491.4815637469518
 30
0.0
 10
816.2594053998025
 20
491.6044317897652
 30
0.0
 10
816.6973112564342
 20
491.7539695973465
 30
0.0
 10
817.1107865346104
 20
491.9264791161294
 30
0.0
 10
817.5036734994187
 20
492.1240774354248
 30
0.0
 10
817.8657067515985
 20
492.3411997029057
 30
0.0
 10
818.2016346162534
 20
492.5812112459989
 30
0.0
 10
818.5015769024194
 20
492.8368628268594
 30
0.0
 10
818.7701703672394
 20
493.112425580069
 30
0.0
 10
818.9989129825203
 20
493.3996914431208
 30
0.0
 10
819.1915285094306
 20
493.7028325897597
 30
0.0
 10
819.3413733650741
 20
494.013892532546
 30
0.0
 10
819.4513897820691
 20
494.3354407417446
 30
0.0
 10
819.5158541869323
 20
494.6609904517155
 30
0.0
 10
819.5409709681499
 20
494.9906280472513
 30
0.0
 10
819.5200707107033
 20
495.2080113024895
 30
0.0
 10
819.50962058198
 20
495.3167029301087
 30
0.0
 11
819.50962058198
 21
495.3167029301086
 31
0.0
 11
819.4441555453342
 21
495.6434796872024
 31
0.0
 11
819.3372696206727
 21
495.9589283714756
 31
0.0
 11
819.1855044198732
 21
496.2746721951948
 31
0.0
 11
818.9984925982959
 21
496.5705513007986
 31
0.0
 11
818.7654258284017
 21
496.8642460716955
 31
0.0
 11
818.5044180264192
 21
497.1330224158874
 31
0.0
 11
818.1980551822982
 21
497.395051957881
 31
0.0
 11
817.8705315859506
 21
497.6297217367581
 31
0.0
 11
817.5010681935708
 21
497.8520239812604
 31
0.0
 11
817.1161721214576
 21
498.0460439668916
 31
0.0
 11
816.6955057118878
 21
498.2220915545336
 31
0.0
 11
816.264136015466
 21
498.369674035535
 31
0.0
 11
815.8054968045349
 21
498.4945054268774
 31
0.0
 11
815.3401266152248
 21
498.5909700551508
 31
0.0
 11
814.8577028980562
 21
498.6612532852061
 31
0.0
 11
814.3720319990838
 21
498.7033049271918
 31
0.0
 11
813.8805611360953
 21
498.7173925637094
 31
0.0
 11
813.3890902731064
 21
498.7033049271918
 31
0.0
 11
812.9034193741338
 21
498.661253285206
 31
0.0
 11
812.4209956569652
 21
498.5909700551508
 31
0.0
 11
811.955625467655
 21
498.4945054268774
 31
0.0
 11
811.4969862567241
 21
498.3696740355351
 31
0.0
 11
811.0656165603022
 21
498.2220915545337
 31
0.0
 11
810.6449501507325
 21
498.0460439668917
 31
0.0
 11
810.2600540786192
 21
497.8520239812604
 31
0.0
 11
809.8905906862393
 21
497.6297217367581
 31
0.0
 11
809.5630670898921
 21
497.3950519578809
 31
0.0
 11
809.2567042457708
 21
497.1330224158874
 31
0.0
 11
808.9956964437881
 21
496.8642460716955
 31
0.0
 11
808.762629673894
 21
496.5705513007983
 31
0.0
 11
808.5756178523169
 21
496.2746721951943
 31
0.0
 11
808.4238526515172
 21
495.9589283714755
 31
0.0
 11
808.3169667268555
 21
495.6434796872025
 31
0.0
 11
808.25150169021
 21
495.3167029301087
 31
0.0
 11
808.2295361790575
 21
494.9903796847406
 31
0.0
 11
808.25150169021
 21
494.6640564393725
 31
0.0
 11
808.3169667268558
 21
494.3372796822787
 31
0.0
 11
808.4238526515173
 21
494.0218309980056
 31
0.0
 11
808.5756178523169
 21
493.7060871742864
 31
0.0
 11
808.762629673894
 21
493.4102080686827
 31
0.0
 11
808.9956964437881
 21
493.1165132977858
 31
0.0
 11
809.2567042457708
 21
492.8477369535939
 31
0.0
 11
809.5630670898921
 21
492.5857074116002
 31
0.0
 11
809.8905906862394
 21
492.351037632723
 31
0.0
 11
810.2600540786192
 21
492.1287353882208
 31
0.0
 11
810.6449501507323
 21
491.9347154025896
 31
0.0
 11
811.0656165603022
 21
491.7586678149476
 31
0.0
 11
811.4969862567239
 21
491.611085333946
 31
0.0
 11
811.955625467655
 21
491.4862539426037
 31
0.0
 11
812.420995656965
 21
491.3897893143302
 31
0.0
 11
812.9034193741339
 21
491.3195060842751
 31
0.0
 11
813.3890902731063
 21
491.2774544422892
 31
0.0
 11
813.880561136095
 21
491.2633668057716
 31
0.0
 11
814.3720319990835
 21
491.2774544422893
 31
0.0
 11
814.857702898056
 21
491.3195060842751
 31
0.0
 11
815.3401266152248
 21
491.3897893143304
 31
0.0
 11
815.8054968045351
 21
491.4862539426038
 31
0.0
 11
816.2641360154662
 21
491.6110853339462
 31
0.0
 11
816.695505711888
 21
491.7586678149476
 31
0.0
 11
817.1161721214576
 21
491.9347154025896
 31
0.0
 11
817.5010681935708
 21
492.1287353882208
 31
0.0
 11
817.8705315859506
 21
492.3510376327231
 31
0.0
 11
818.1980551822981
 21
492.5857074116003
 31
0.0
 11
818.5044180264192
 21
492.8477369535938
 31
0.0
 11
818.7654258284017
 21
493.1165132977857
 31
0.0
 11
818.9984925982958
 21
493.4102080686826
 31
0.0
 11
819.185504419873
 21
493.7060871742864
 31
0.0
 11
819.3372696206725
 21
494.0218309980056
 31
0.0
 11
819.4441555453341
 21
494.3372796822787
 31
0.0
 11
819.5096205819799
 21
494.6640564393725
 31
0.0
 11
819.5315860931326
 21
494.9903796847405
 31
0.0
 11
819.50962058198
 21
495.3167029301087
 31
0.0
  0
SPLINE
  5
1D9
330
67
100
AcDbEntity
  8
1
  6
Continuous
 62
     7
100
AcDbSpline
210
0.0
220
0.0
230
1.0
 70
     8
 71
     3
 72
    45
 73
    41
 74
    39
 42
0.0000000001
 43
0.0000000001
 44
0.00000001
 40
0.0
 40
0.0
 40
0.0
 40
0.0
 40
0.2470201782659468
 40
0.4948746926795311
 40
0.9949333429581755
 40
1.494852877148607
 40
2.009983906016286
 40
2.524890553774037
 40
3.062273911529248
 40
3.599414783617533
 40
4.162915910164609
 40
4.726201878340928
 40
5.316261264929377
 40
5.906151343949556
 40
6.520147985569041
 40
7.1340234126798
 40
7.766878152717004
 40
8.399655889007502
 40
9.044522993211551
 40
9.689352890729204
 40
10.33832915112632
 40
10.98730541152337
 40
11.63213530904111
 40
12.27700241324514
 40
12.90978014953556
 40
13.54263488957269
 40
14.15651031668351
 40
14.77050695830305
 40
15.36039703732328
 40
15.95045642391168
 40
16.51374239208791
 40
17.07724351863507
 40
17.61438439072339
 40
18.15176774847878
 40
18.66667439623675
 40
19.18180542510483
 40
19.68172495929504
 40
20.18178360957323
 40
20.42963812398672
 40
20.6766583022528
 40
20.6766583022528
 40
20.6766583022528
 40
20.6766583022528
 10
813.8805611360799
 20
489.4540243859117
 30
0.0
 10
813.7982070620487
 20
489.4526380096817
 30
0.0
 10
813.6332207546011
 20
489.4498605745923
 30
0.0
 10
813.3027022558467
 20
489.4198677494867
 30
0.0
 10
812.8918902898115
 20
489.3490923742957
 30
0.0
 10
812.4065827946902
 20
489.2055242838243
 30
0.0
 10
811.9350462255244
 20
489.0086496588688
 30
0.0
 10
811.4765485073211
 20
488.7561960596895
 30
0.0
 10
811.0397602455436
 20
488.4547643986749
 30
0.0
 10
810.6222283776292
 20
488.1016855585509
 30
0.0
 10
810.2328822468804
 20
487.7055840197799
 30
0.0
 10
809.8688032934958
 20
487.2631641197022
 30
0.0
 10
809.5380110434421
 20
486.7846185102304
 30
0.0
 10
809.2380786755456
 20
486.2666096181119
 30
0.0
 10
808.9753225602117
 20
485.7199749172124
 30
0.0
 10
808.7482603167812
 20
485.1422193493681
 30
0.0
 10
808.5611954084721
 20
484.5437441827112
 30
0.0
 10
808.4135509070695
 20
483.9237579428823
 30
0.0
 10
808.3077470697909
 20
483.2912318899773
 30
0.0
 10
808.2437102313398
 20
482.6477142439427
 30
0.0
 10
808.2224264405629
 20
481.9999986279739
 30
0.0
 10
808.2437102313398
 20
481.3522830120053
 30
0.0
 10
808.3077470697907
 20
480.7087653659703
 30
0.0
 10
808.4135509070698
 20
480.0762393130656
 30
0.0
 10
808.5611954084718
 20
479.4562530732366
 30
0.0
 10
808.7482603167813
 20
478.8577779065797
 30
0.0
 10
808.9753225602115
 20
478.2800223387357
 30
0.0
 10
809.2380786755451
 20
477.7333876378359
 30
0.0
 10
809.5380110434425
 20
477.2153787457174
 30
0.0
 10
809.8688032934952
 20
476.7368331362457
 30
0.0
 10
810.2328822468804
 20
476.2944132361679
 30
0.0
 10
810.6222283776293
 20
475.8983116973971
 30
0.0
 10
811.0397602455438
 20
475.5452328572727
 30
0.0
 10
811.4765485073212
 20
475.2438011962589
 30
0.0
 10
811.9350462255259
 20
474.9913475970802
 30
0.0
 10
812.4065827946916
 20
474.7944729721248
 30
0.0
 10
812.8918902898128
 20
474.6509048816535
 30
0.0
 10
813.3027022558475
 20
474.5801295064618
 30
0.0
 10
813.633220754602
 20
474.5501366813559
 30
0.0
 10
813.7982070620492
 20
474.5473592462664
 30
0.0
 10
813.8805611360807
 20
474.5459728700361
 30
0.0
 11
813.8805611360799
 21
489.4540243859117
 31
0.0
 11
813.6336454480608
 21
489.4468402728442
 31
0.0
 11
813.3867297600413
 21
489.4252879336428
 31
0.0
 11
812.8940721858164
 21
489.339572309178
 31
0.0
 11
812.4144367280967
 21
489.1986135621519
 31
0.0
 11
811.9390179142517
 21
489.0002781685769
 31
0.0
 11
811.4875852662844
 21
488.7526142425514
 31
0.0
 11
811.0450440501768
 21
488.4477566606575
 31
0.0
 11
810.6344282050209
 21
488.1014692884149
 31
0.0
 11
810.239011748501
 21
487.6999978130483
 31
0.0
 11
809.880617143456
 21
487.265435517147
 31
0.0
 11
809.5446375824795
 21
486.7803707644519
 31
0.0
 11
809.2486535591091
 21
486.2701122385693
 31
0.0
 11
808.9822194575461
 21
485.7169352818508
 31
0.0
 11
808.7573773433837
 21
485.1457181044923
 31
0.0
 11
808.5682280773996
 21
484.5417912238476
 31
0.0
 11
808.4214567625718
 21
483.9262704324127
 31
0.0
 11
808.3148400416749
 21
483.2902779348864
 31
0.0
 11
808.2509419986538
 21
482.6486217677449
 31
0.0
 11
808.2295361790572
 21
481.9999986279739
 31
0.0
 11
808.2509419986538
 21
481.351375488203
 31
0.0
 11
808.3148400416746
 21
480.7097193210614
 31
0.0
 11
808.4214567625718
 21
480.0737268235351
 31
0.0
 11
808.5682280773995
 21
479.4582060321003
 31
0.0
 11
808.7573773433837
 21
478.8542791514557
 31
0.0
 11
808.982219457546
 21
478.2830619740971
 31
0.0
 11
809.248653559109
 21
477.7298850173786
 31
0.0
 11
809.5446375824794
 21
477.2196264914959
 31
0.0
 11
809.8806171434559
 21
476.7345617388008
 31
0.0
 11
810.2390117485008
 21
476.2999994428997
 31
0.0
 11
810.6344282050209
 21
475.898527967533
 31
0.0
 11
811.0450440501768
 21
475.5522405952904
 31
0.0
 11
811.487585266285
 21
475.247383013397
 31
0.0
 11
811.9390179142529
 21
474.9997190873721
 31
0.0
 11
812.4144367280983
 21
474.8013836937972
 31
0.0
 11
812.8940721858178
 21
474.6604249467711
 31
0.0
 11
813.386729760042
 21
474.5747093223056
 31
0.0
 11
813.6336454480614
 21
474.553156983104
 31
0.0
 11
813.8805611360807
 21
474.5459728700361
 31
0.0
  0
SPLINE
  5
1DA
330
67
100
AcDbEntity
  8
1
  6
Continuous
 62
     7
100
AcDbSpline
210
0.0
220
0.0
230
1.0
 70
     8
 71
     3
 72
    45
 73
    41
 74
    39
 42
0.0000000001
 43
0.0000000001
 44
0.00000001
 40
0.0
 40
0.0
 40
0.0
 40
0.0
 40
0.2470201782659468
 40
0.4948746926795311
 40
0.9949333429579516
 40
1.494852877148492
 40
2.009983906016381
 40
2.524890553774132
 40
3.062273911529437
 40
3.599414783617548
 40
4.162915910164784
 40
4.726201878340886
 40
5.3162612649294
 40
5.906151343949637
 40
6.520147985569122
 40
7.134023412679881
 40
7.766878152717085
 40
8.399655889007583
 40
9.044522993211615
 40
9.689352890729245
 40
10.33832915112635
 40
10.9873054115234
 40
11.63213530904113
 40
12.27700241324511
 40
12.90978014953552
 40
13.54263488957265
 40
14.15651031668352
 40
14.770506958303
 40
15.36039703732329
 40
15.95045642391169
 40
16.51374239208785
 40
17.077243518635
 40
17.61438439072341
 40
18.1517677484788
 40
18.66667439623688
 40
19.18180542510485
 40
19.68172495929485
 40
20.18178360957338
 40
20.42963812398664
 40
20.67665830225249
 40
20.67665830225249
 40
20.67665830225249
 40
20.67665830225249
 10
813.8805611360812
 20
489.4540243859117
 30
0.0
 10
813.9629152101126
 20
489.4526380096817
 30
0.0
 10
814.1279015175597
 20
489.4498605745923
 30
0.0
 10
814.4584200163145
 20
489.4198677494868
 30
0.0
 10
814.8692319823492
 20
489.3490923742958
 30
0.0
 10
815.3545394774711
 20
489.2055242838245
 30
0.0
 10
815.8260760466366
 20
489.0086496588688
 30
0.0
 10
816.2845737648404
 20
488.7561960596893
 30
0.0
 10
816.7213620266176
 20
488.4547643986751
 30
0.0
 10
817.1388938945319
 20
488.1016855585508
 30
0.0
 10
817.5282400252808
 20
487.70558401978
 30
0.0
 10
817.8923189786651
 20
487.263164119702
 30
0.0
 10
818.2231112287193
 20
486.7846185102306
 30
0.0
 10
818.5230435966153
 20
486.2666096181118
 30
0.0
 10
818.7857997119501
 20
485.7199749172125
 30
0.0
 10
819.0128619553798
 20
485.142219349368
 30
0.0
 10
819.1999268636895
 20
484.5437441827114
 30
0.0
 10
819.3475713650915
 20
483.9237579428823
 30
0.0
 10
819.45337520237
 20
483.2912318899777
 30
0.0
 10
819.5174120408212
 20
482.6477142439426
 30
0.0
 10
819.5386958315975
 20
481.9999986279739
 30
0.0
 10
819.517412040821
 20
481.3522830120053
 30
0.0
 10
819.4533752023698
 20
480.7087653659703
 30
0.0
 10
819.3475713650918
 20
480.0762393130657
 30
0.0
 10
819.199926863689
 20
479.4562530732366
 30
0.0
 10
819.0128619553798
 20
478.8577779065798
 30
0.0
 10
818.7857997119497
 20
478.2800223387358
 30
0.0
 10
818.5230435966158
 20
477.7333876378358
 30
0.0
 10
818.2231112287191
 20
477.2153787457175
 30
0.0
 10
817.8923189786653
 20
476.7368331362457
 30
0.0
 10
817.5282400252809
 20
476.2944132361681
 30
0.0
 10
817.138893894532
 20
475.8983116973969
 30
0.0
 10
816.7213620266176
 20
475.5452328572729
 30
0.0
 10
816.2845737648397
 20
475.2438011962587
 30
0.0
 10
815.8260760466352
 20
474.9913475970805
 30
0.0
 10
815.3545394774695
 20
474.7944729721246
 30
0.0
 10
814.8692319823482
 20
474.6509048816535
 30
0.0
 10
814.4584200163133
 20
474.5801295064617
 30
0.0
 10
814.1279015175592
 20
474.5501366813559
 30
0.0
 10
813.9629152101119
 20
474.5473592462664
 30
0.0
 10
813.8805611360807
 20
474.5459728700361
 30
0.0
 11
813.8805611360812
 21
489.4540243859117
 31
0.0
 11
814.1274768241003
 21
489.4468402728442
 31
0.0
 11
814.3743925121198
 21
489.4252879336428
 31
0.0
 11
814.8670500863444
 21
489.339572309178
 31
0.0
 11
815.3466855440643
 21
489.1986135621519
 31
0.0
 11
815.8221043579094
 21
489.0002781685769
 31
0.0
 11
816.2735370058767
 21
488.7526142425514
 31
0.0
 11
816.7160782219845
 21
488.4477566606575
 31
0.0
 11
817.1266940671402
 21
488.1014692884149
 31
0.0
 11
817.5221105236603
 21
487.6999978130483
 31
0.0
 11
817.880505128705
 21
487.265435517147
 31
0.0
 11
818.2164846896816
 21
486.7803707644519
 31
0.0
 11
818.512468713052
 21
486.2701122385693
 31
0.0
 11
818.7789028146151
 21
485.7169352818508
 31
0.0
 11
819.0037449287775
 21
485.1457181044923
 31
0.0
 11
819.1928941947616
 21
484.5417912238476
 31
0.0
 11
819.3396655095894
 21
483.9262704324127
 31
0.0
 11
819.4462822304862
 21
483.2902779348864
 31
0.0
 11
819.510180273507
 21
482.6486217677449
 31
0.0
 11
819.5315860931034
 21
481.9999986279739
 31
0.0
 11
819.5101802735069
 21
481.351375488203
 31
0.0
 11
819.4462822304862
 21
480.7097193210614
 31
0.0
 11
819.3396655095894
 21
480.0737268235351
 31
0.0
 11
819.1928941947617
 21
479.4582060321003
 31
0.0
 11
819.0037449287775
 21
478.8542791514557
 31
0.0
 11
818.7789028146151
 21
478.2830619740971
 31
0.0
 11
818.5124687130522
 21
477.7298850173786
 31
0.0
 11
818.2164846896817
 21
477.2196264914959
 31
0.0
 11
817.8805051287052
 21
476.7345617388008
 31
0.0
 11
817.5221105236603
 21
476.2999994428997
 31
0.0
 11
817.1266940671403
 21
475.898527967533
 31
0.0
 11
816.7160782219843
 21
475.5522405952904
 31
0.0
 11
816.2735370058761
 21
475.247383013397
 31
0.0
 11
815.8221043579081
 21
474.9997190873721
 31
0.0
 11
815.3466855440628
 21
474.8013836937972
 31
0.0
 11
814.8670500863435
 21
474.6604249467711
 31
0.0
 11
814.3743925121189
 21
474.5747093223056
 31
0.0
 11
814.1274768240997
 21
474.553156983104
 31
0.0
 11
813.8805611360807
 21
474.5459728700361
 31
0.0
  0
ARC
  5
1DB
330
67
100
AcDbEntity
  8
1
  6
Continuous
 62
     7
100
AcDbCircle
 10
820.1805611360951
 20
467.7433349216395
 30
0.0
 40
0.2000000000000258
100
AcDbArc
 50
-49.99479911516543
 51
0.0
  0
ARC
  5
1DC
330
67
100
AcDbEntity
  8
1
  6
Continuous
 62
     7
100
AcDbCircle
 10
493.2566636956325
 20
1048.580561136096
 30
0.0
 40
0.2000000000000455
100
AcDbArc
 50
-90.0
 51
-40.00520088494239
  0
ARC
  5
1DD
330
67
100
AcDbEntity
  8
1
  6
Continuous
 62
     7
100
AcDbCircle
 10
493.2566636956325
 20
1061.180561136096
 30
0.0
 40
0.1999999999999077
100
AcDbArc
 50
40.00520088469292
 51
90.0
  0
ARC
  5
1DE
330
67
100
AcDbEntity
  8
1
  6
Continuous
 62
     7
100
AcDbCircle
 10
464.7433362829635
 20
1048.580561136096
 30
0.0
 40
0.2000000000005514
100
AcDbArc
 50
-139.9947991150367
 51
-90.0
  0
ARC
  5
1DF
330
67
100
AcDbEntity
  8
1
  6
Continuous
 62
     7
100
AcDbCircle
 10
464.7433362829635
 20
1061.180561136096
 30
0.0
 40
0.2000000000000455
100
AcDbArc
 50
90.0
 51
139.9947991152861
  0
ENDBLK
  5
69
330
67
100
AcDbEntity
  8
0
100
AcDbBlockEnd
  0
BLOCK
  5
72
330
6A
100
AcDbEntity
  8
0
100
AcDbBlockBegin
  2
U3-48F-50
 70
     0
 71
     0
 10
666.4999999892978
 20
906.0
 30
0.0
  3
U3-48F-50
  1

  0
INSERT
  5
6B
330
6A
100
AcDbEntity
  8
1
100
AcDbBlockReference
  2
35-6A-8__8
 10
1558.057043569208
 20
1192.039693144835
 30
0.0
  0
INSERT
  5
6C
330
6A
100
AcDbEntity
  8
1
100
AcDbBlockReference
  2
30-108K__9
 10
579.0000003105515
 20
1000.500002527693
 30
0.0
  0
INSERT
  5
6D
330
6A
100
AcDbEntity
  8
1
100
AcDbBlockReference
  2
78-78K__10
 10
534.8500003105517
 20
705.4373900270853
 30
0.0
  0
INSERT
  5
6E
330
6A
100
AcDbEntity
  8
1
100
AcDbBlockReference
  2
36-99K__11
 10
534.2500003105515
 20
720.7373900270853
 30
0.0
  0
INSERT
  5
6F
330
6A
100
AcDbEntity
  8
1
100
AcDbBlockReference
  2
03-47-50__12
 10
508.2499999892982
 20
1026.894337567298
 30
0.0
  0
INSERT
  5
70
330
6A
100
AcDbEntity
  8
0
100
AcDbBlockReference
  2
78-3A__13
 10
363.784763302907
 20
1389.621124254744
 30
0.0
  0
INSERT
  5
71
330
6A
100
AcDbEntity
  8
0
100
AcDbBlockReference
  2
32-3__14
 10
555.9471222914563
 20
1360.827459145388
 30
0.0
  0
LINE
  5
1E0
330
6A
100
AcDbEntity
  8
1
  6
PHANTOM
 62
     4
100
AcDbLine
 10
467.1559619631607
 20
470.1559605004416
 30
0.0
 11
490.8440391329099
 21
493.8440376701909
 31
0.0
  0
LINE
  5
1E1
330
6A
100
AcDbEntity
  8
1
  6
PHANTOM
 62
     4
100
AcDbLine
 10
496.1776677909893
 20
428.4669909536672
 30
0.0
 11
531.5330068503163
 21
463.8223300129944
 31
0.0
  0
LINE
  5
1E2
330
6A
100
AcDbEntity
  8
1
  6
PHANTOM
 62
     4
100
AcDbLine
 10
532.0330091370261
 20
428.9669904963253
 30
0.0
 11
468.393398830237
 21
492.6066008031145
 31
0.0
  0
LINE
  5
1E3
330
6A
100
AcDbEntity
  8
1
  6
PHANTOM
 62
     4
100
AcDbLine
 10
514.3553379304399
 20
1111.0
 30
0.0
 11
514.3553379304399
 21
1060.0
 31
0.0
  0
LINE
  5
1E4
330
6A
100
AcDbEntity
  8
1
  6
PHANTOM
 62
     4
100
AcDbLine
 10
478.9999999892982
 20
1050.380561136096
 30
0.0
 11
478.9999999892979
 21
1078.5
 31
0.0
  0
ENDBLK
  5
73
330
6A
100
AcDbEntity
  8
0
100
AcDbBlockEnd
  0
BLOCK
  5
75
330
74
100
AcDbEntity
  8
0
100
AcDbBlockBegin
  2
_J__A4
 70
     0
 71
     0
 10
0.0
 20
0.0
 30
0.0
  3
_J__A4
  1

  0
POINT
  5
1E5
330
74
100
AcDbEntity
  8
1
 62
     4
100
AcDbPoint
 10
34.0
 20
34.00000000000001
 30
0.0
  0
POINT
  5
1E6
330
74
100
AcDbEntity
  8
1
 62
     4
100
AcDbPoint
 10
57.0
 20
12.25
 30
0.0
  0
POINT
  5
1E7
330
74
100
AcDbEntity
  8
1
 62
     4
100
AcDbPoint
 10
57.0
 20
20.75000000000001
 30
0.0
  0
POINT
  5
1E8
330
74
100
AcDbEntity
  8
1
 62
     4
100
AcDbPoint
 10
57.0
 20
24.75000000000001
 30
0.0
  0
POINT
  5
1E9
330
74
100
AcDbEntity
  8
1
 62
     4
100
AcDbPoint
 10
57.0
 20
16.25
 30
0.0
  0
POINT
  5
1EA
330
74
100
AcDbEntity
  8
1
 62
     4
100
AcDbPoint
 10
157.5
 20
19.00000000000001
 30
0.0
  0
POINT
  5
1EB
330
74
100
AcDbEntity
  8
1
 62
     4
100
AcDbPoint
 10
47.5
 20
282.0000000000003
 30
0.0
  0
POINT
  5
1EC
330
74
100
AcDbEntity
  8
1
 62
     4
100
AcDbPoint
 10
57.0
 20
22.75000000000001
 30
0.0
  0
POINT
  5
1ED
330
74
100
AcDbEntity
  8
1
 62
     4
100
AcDbPoint
 10
57.0
 20
14.25
 30
0.0
  0
POINT
  5
1EE
330
74
100
AcDbEntity
  8
1
 62
     4
100
AcDbPoint
 10
157.5
 20
12.5
 30
0.0
  0
POINT
  5
1EF
330
74
100
AcDbEntity
  8
1
 62
     4
100
AcDbPoint
 10
163.25
 20
12.5
 30
0.0
  0
POINT
  5
1F0
330
74
100
AcDbEntity
  8
1
 62
     4
100
AcDbPoint
 10
151.75
 20
12.5
 30
0.0
  0
POINT
  5
1F1
330
74
100
AcDbEntity
  8
1
 62
     4
100
AcDbPoint
 10
134.75
 20
12.5
 30
0.0
  0
POINT
  5
1F2
330
74
100
AcDbEntity
  8
1
 62
     4
100
AcDbPoint
 10
146.25
 20
12.5
 30
0.0
  0
POINT
  5
1F3
330
74
100
AcDbEntity
  8
1
 62
     4
100
AcDbPoint
 10
140.5
 20
12.5
 30
0.0
  0
POINT
  5
1F4
330
74
100
AcDbEntity
  8
1
 62
     4
100
AcDbPoint
 10
140.5
 20
19.00000000000001
 30
0.0
  0
POINT
  5
1F5
330
74
100
AcDbEntity
  8
1
 62
     4
100
AcDbPoint
 10
117.75
 20
12.5
 30
0.0
  0
POINT
  5
1F6
330
74
100
AcDbEntity
  8
1
 62
     4
100
AcDbPoint
 10
129.25
 20
12.5
 30
0.0
  0
POINT
  5
1F7
330
74
100
AcDbEntity
  8
1
 62
     4
100
AcDbPoint
 10
123.5
 20
12.5
 30
0.0
  0
POINT
  5
1F8
330
74
100
AcDbEntity
  8
1
 62
     4
100
AcDbPoint
 10
123.5
 20
19.00000000000001
 30
0.0
  0
POINT
  5
1F9
330
74
100
AcDbEntity
  8
1
 62
     4
100
AcDbPoint
 10
100.75
 20
12.5
 30
0.0
  0
POINT
  5
1FA
330
74
100
AcDbEntity
  8
1
 62
     4
100
AcDbPoint
 10
112.25
 20
12.5
 30
0.0
  0
POINT
  5
1FB
330
74
100
AcDbEntity
  8
1
 62
     4
100
AcDbPoint
 10
106.5
 20
12.5
 30
0.0
  0
POINT
  5
1FC
330
74
100
AcDbEntity
  8
1
 62
     4
100
AcDbPoint
 10
106.5
 20
19.00000000000001
 30
0.0
  0
POINT
  5
1FD
330
74
100
AcDbEntity
  8
1
 62
     4
100
AcDbPoint
 10
85.25
 20
17.0
 30
0.0
  0
POINT
  5
1FE
330
74
100
AcDbEntity
  8
1
 62
     4
100
AcDbPoint
 10
93.75
 20
17.0
 30
0.0
  0
LINE
  5
1FF
330
74
100
AcDbEntity
  8
1
  6
Continuous
 62
     2
100
AcDbLine
 10
81.0
 20
27.00000000000001
 30
0.0
 11
81.0
 21
10.0
 31
0.0
  0
LINE
  5
200
330
74
100
AcDbEntity
  8
1
  6
DOT_CENTER
 62
     2
100
AcDbLine
 10
187.0
 20
26.50000000000001
 30
0.0
 11
187.0
 21
20.50000000000001
 31
0.0
  0
LINE
  5
201
330
74
100
AcDbEntity
  8
1
  6
DOT_CENTER
 62
     2
100
AcDbLine
 10
184.0
 20
23.50000000000001
 30
0.0
 11
197.0
 21
23.50000000000001
 31
0.0
  0
LINE
  5
202
330
74
100
AcDbEntity
  8
1
  6
Continuous
 62
     7
100
AcDbLine
 10
196.0
 20
21.50000000000001
 30
0.0
 11
191.0
 21
22.30000000000001
 31
0.0
  0
LINE
  5
203
330
74
100
AcDbEntity
  8
1
  6
Continuous
 62
     7
100
AcDbLine
 10
196.0
 20
25.50000000000001
 30
0.0
 11
196.0
 21
21.50000000000001
 31
0.0
  0
LINE
  5
204
330
74
100
AcDbEntity
  8
1
  6
Continuous
 62
     7
100
AcDbLine
 10
191.0
 20
24.70000000000001
 30
0.0
 11
196.0
 21
25.50000000000001
 31
0.0
  0
LINE
  5
205
330
74
100
AcDbEntity
  8
1
  6
Continuous
 62
     7
100
AcDbLine
 10
191.0
 20
24.70000000000001
 30
0.0
 11
191.0
 21
22.30000000000001
 31
0.0
  0
LINE
  5
206
330
74
100
AcDbEntity
  8
1
  6
Continuous
 62
     2
100
AcDbLine
 10
33.0
 20
27.0
 30
0.0
 11
33.0
 21
10.0
 31
0.0
  0
LINE
  5
207
330
74
100
AcDbEntity
  8
1
  6
Continuous
 62
     2
100
AcDbLine
 10
25.0
 20
18.50000000000001
 30
0.0
 11
81.0
 21
18.50000000000001
 31
0.0
  0
LINE
  5
208
330
74
100
AcDbEntity
  8
1
  6
Continuous
 62
     7
100
AcDbLine
 10
200.0
 20
287.0000000000003
 30
0.0
 11
105.0
 21
287.0000000000003
 31
0.0
  0
LINE
  5
209
330
74
100
AcDbEntity
  8
1
  6
Continuous
 62
     7
100
AcDbLine
 10
200.0
 20
10.0
 30
0.0
 11
200.0
 21
148.5
 31
0.0
  0
LINE
  5
20A
330
74
100
AcDbEntity
  8
1
  6
Continuous
 62
     7
100
AcDbLine
 10
25.0
 20
10.0
 30
0.0
 11
105.0
 21
10.0
 31
0.0
  0
LINE
  5
20B
330
74
100
AcDbEntity
  8
1
  6
PHANTOM
 62
     4
100
AcDbLine
 10
0.0
 20
297.0
 30
0.0
 11
0.0
 21
0.0
 31
0.0
  0
LINE
  5
20C
330
74
100
AcDbEntity
  8
1
  6
PHANTOM
 62
     4
100
AcDbLine
 10
210.0
 20
297.0
 30
0.0
 11
0.0
 21
297.0
 31
0.0
  0
LINE
  5
20D
330
74
100
AcDbEntity
  8
1
  6
PHANTOM
 62
     4
100
AcDbLine
 10
210.0
 20
0.0
 30
0.0
 11
210.0
 21
297.0
 31
0.0
  0
LINE
  5
20E
330
74
100
AcDbEntity
  8
1
  6
PHANTOM
 62
     4
100
AcDbLine
 10
0.0
 20
0.0
 30
0.0
 11
210.0
 21
0.0
 31
0.0
  0
LINE
  5
20F
330
74
100
AcDbEntity
  8
1
  6
Continuous
 62
     7
100
AcDbLine
 10
25.0
 20
41.0
 30
0.0
 11
200.0
 21
41.0
 31
0.0
  0
LINE
  5
210
330
74
100
AcDbEntity
  8
1
  6
Continuous
 62
     7
100
AcDbLine
 10
200.0
 20
27.00000000000001
 30
0.0
 11
25.0
 21
27.00000000000001
 31
0.0
  0
LINE
  5
211
330
74
100
AcDbEntity
  8
1
  6
Continuous
 62
     2
100
AcDbLine
 10
33.0
 20
41.00000000000001
 30
0.0
 11
33.0
 21
27.0
 31
0.0
  0
LINE
  5
212
330
74
100
AcDbEntity
  8
1
  6
Continuous
 62
     2
100
AcDbLine
 10
55.0
 20
287.0000000000003
 30
0.0
 11
55.0
 21
277.0000000000003
 31
0.0
  0
LINE
  5
213
330
74
100
AcDbEntity
  8
1
  6
Continuous
 62
     2
100
AcDbLine
 10
40.0
 20
287.0000000000003
 30
0.0
 11
40.0
 21
277.0000000000003
 31
0.0
  0
LINE
  5
214
330
74
100
AcDbEntity
  8
1
  6
Continuous
 62
     7
100
AcDbLine
 10
25.0
 20
10.0
 30
0.0
 11
25.0
 21
148.5
 31
0.0
  0
LINE
  5
215
330
74
100
AcDbEntity
  8
1
  6
Continuous
 62
     2
100
AcDbLine
 10
55.0
 20
277.0000000000003
 30
0.0
 11
25.0
 21
277.0000000000003
 31
0.0
  0
LINE
  5
216
330
74
100
AcDbEntity
  8
1
  6
Continuous
 62
     2
100
AcDbLine
 10
166.0
 20
27.00000000000001
 30
0.0
 11
166.0
 21
10.0
 31
0.0
  0
LINE
  5
217
330
74
100
AcDbEntity
  8
1
  6
Continuous
 62
     2
100
AcDbLine
 10
132.0
 20
27.00000000000001
 30
0.0
 11
132.0
 21
9.99999999999999
 31
0.0
  0
LINE
  5
218
330
74
100
AcDbEntity
  8
1
  6
Continuous
 62
     2
100
AcDbLine
 10
149.0
 20
27.00000000000001
 30
0.0
 11
149.0
 21
10.0
 31
0.0
  0
LINE
  5
219
330
74
100
AcDbEntity
  8
1
  6
Continuous
 62
     2
100
AcDbLine
 10
115.0
 20
27.00000000000001
 30
0.0
 11
115.0
 21
9.99999999999999
 31
0.0
  0
LINE
  5
21A
330
74
100
AcDbEntity
  8
1
  6
Continuous
 62
     2
100
AcDbLine
 10
98.0
 20
27.00000000000001
 30
0.0
 11
98.0
 21
9.99999999999999
 31
0.0
  0
LINE
  5
21B
330
74
100
AcDbEntity
  8
1
  6
Continuous
 62
     2
100
AcDbLine
 10
166.0
 20
20.00000000000001
 30
0.0
 11
200.0
 21
20.00000000000001
 31
0.0
  0
LINE
  5
21C
330
74
100
AcDbEntity
  8
1
  6
Continuous
 62
     2
100
AcDbLine
 10
105.0
 20
287.0000000000003
 30
0.0
 11
105.0
 21
292.0000000000003
 31
0.0
  0
LINE
  5
21D
330
74
100
AcDbEntity
  8
1
  6
Continuous
 62
     7
100
AcDbLine
 10
105.0
 20
287.0000000000003
 30
0.0
 11
25.0
 21
287.0000000000003
 31
0.0
  0
LINE
  5
21E
330
74
100
AcDbEntity
  8
1
  6
Continuous
 62
     2
100
AcDbLine
 10
25.0
 20
148.5
 30
0.0
 11
20.0
 21
148.5
 31
0.0
  0
LINE
  5
21F
330
74
100
AcDbEntity
  8
1
  6
Continuous
 62
     7
100
AcDbLine
 10
25.0
 20
148.5
 30
0.0
 11
25.0
 21
287.0000000000003
 31
0.0
  0
LINE
  5
220
330
74
100
AcDbEntity
  8
1
  6
Continuous
 62
     2
100
AcDbLine
 10
200.0
 20
148.5
 30
0.0
 11
205.0
 21
148.5
 31
0.0
  0
LINE
  5
221
330
74
100
AcDbEntity
  8
1
  6
Continuous
 62
     7
100
AcDbLine
 10
200.0
 20
148.5
 30
0.0
 11
200.0
 21
287.0000000000003
 31
0.0
  0
LINE
  5
222
330
74
100
AcDbEntity
  8
1
  6
Continuous
 62
     2
100
AcDbLine
 10
105.0
 20
10.0
 30
0.0
 11
105.0
 21
5.0
 31
0.0
  0
LINE
  5
223
330
74
100
AcDbEntity
  8
1
  6
Continuous
 62
     7
100
AcDbLine
 10
105.0
 20
10.0
 30
0.0
 11
200.0
 21
10.0
 31
0.0
  0
CIRCLE
  5
224
330
74
100
AcDbEntity
  8
1
  6
DOT_CENTER
 62
     7
100
AcDbCircle
 10
89.5
 20
18.0
 30
0.0
 40
0.1000000000000227
  0
CIRCLE
  5
225
330
74
100
AcDbEntity
  8
1
  6
DOT_CENTER
 62
     7
100
AcDbCircle
 10
89.5
 20
16.0
 30
0.0
 40
0.1000000000000227
  0
CIRCLE
  5
226
330
74
100
AcDbEntity
  8
1
  6
Continuous
 62
     7
100
AcDbCircle
 10
187.0
 20
23.50000000000001
 30
0.0
 40
2.0
  0
CIRCLE
  5
227
330
74
100
AcDbEntity
  8
1
  6
Continuous
 62
     7
100
AcDbCircle
 10
187.0
 20
23.50000000000001
 30
0.0
 40
1.200000000000102
  0
CIRCLE
  5
228
330
74
100
AcDbEntity
  8
1
  6
Continuous
 62
     7
100
AcDbCircle
 10
154.5
 20
12.5
 30
0.0
 40
0.3000000000000114
  0
CIRCLE
  5
229
330
74
100
AcDbEntity
  8
1
  6
Continuous
 62
     7
100
AcDbCircle
 10
160.5
 20
12.5
 30
0.0
 40
0.3000000000000114
  0
CIRCLE
  5
22A
330
74
100
AcDbEntity
  8
1
  6
Continuous
 62
     7
100
AcDbCircle
 10
143.5
 20
12.5
 30
0.0
 40
0.3000000000000114
  0
CIRCLE
  5
22B
330
74
100
AcDbEntity
  8
1
  6
Continuous
 62
     7
100
AcDbCircle
 10
137.5
 20
12.5
 30
0.0
 40
0.3000000000000114
  0
CIRCLE
  5
22C
330
74
100
AcDbEntity
  8
1
  6
Continuous
 62
     7
100
AcDbCircle
 10
126.5
 20
12.5
 30
0.0
 40
0.2999999999999972
  0
CIRCLE
  5
22D
330
74
100
AcDbEntity
  8
1
  6
Continuous
 62
     7
100
AcDbCircle
 10
120.5
 20
12.5
 30
0.0
 40
0.2999999999999972
  0
CIRCLE
  5
22E
330
74
100
AcDbEntity
  8
1
  6
Continuous
 62
     7
100
AcDbCircle
 10
109.5
 20
12.5
 30
0.0
 40
0.2999999999999972
  0
CIRCLE
  5
22F
330
74
100
AcDbEntity
  8
1
  6
Continuous
 62
     7
100
AcDbCircle
 10
103.5
 20
12.5
 30
0.0
 40
0.2999999999999972
  0
MTEXT
  5
231
330
74
100
AcDbEntity
  8
1
 62
   250
100
AcDbMText
 10
25.0
 20
5.0
 30
0.0
 40
3.5
 41
0.0
 71
     4
 72
     1
  1
備考欄の文字列 原点位置=4
  7
CONVERTER_1
 73
     1
 44
0.7202881152461
  0
MTEXT
  5
232
330
74
100
AcDbEntity
  8
1
 62
     2
100
AcDbMText
 10
89.5
 20
24.00000000000001
 30
0.0
 40
3.5
 41
0.0
 71
     5
 72
     1
  1
尺度
  7
CONVERTER_1
 73
     1
 44
0.7202881152461
  0
MTEXT
  5
233
330
74
100
AcDbEntity
  8
1
 62
     2
100
AcDbMText
 10
135.5
 20
25.00000000000001
 30
0.0
 40
3.0
 41
0.0
 71
     5
 72
     1
  1
製図
  7
CONVERTER_1
 73
     1
 44
0.78031212484994
  0
MTEXT
  5
234
330
74
100
AcDbEntity
  8
1
 62
     2
100
AcDbMText
 10
152.5
 20
25.00000000000001
 30
0.0
 40
3.0
 41
0.0
 71
     5
 72
     1
  1
設計
  7
CONVERTER_1
 73
     1
 44
0.78031212484994
  0
MTEXT
  5
235
330
74
100
AcDbEntity
  8
1
 62
     2
100
AcDbMText
 10
118.5
 20
25.00000000000001
 30
0.0
 40
3.0
 41
0.0
 71
     5
 72
     1
  1
検図
  7
CONVERTER_1
 73
     1
 44
0.78031212484994
  0
MTEXT
  5
236
330
74
100
AcDbEntity
  8
1
 62
     2
100
AcDbMText
 10
175.0
 20
23.50000000000001
 30
0.0
 40
3.5
 41
0.0
 71
     5
 72
     1
  1
第三角法
  7
CONVERTER_1
 73
     1
 44
0.7202881152461
  0
MTEXT
  5
237
330
74
100
AcDbEntity
  8
1
 62
     2
100
AcDbMText
 10
101.5
 20
25.00000000000001
 30
0.0
 40
3.0
 41
0.0
 71
     5
 72
     1
  1
承認
  7
CONVERTER_1
 73
     1
 44
0.78031212484994
  0
MTEXT
  5
238
330
74
100
AcDbEntity
  8
1
 62
     2
100
AcDbMText
 10
29.0
 20
14.25
 30
0.0
 40
3.5
 41
0.0
 71
     5
 72
     1
  1
品番
  7
CONVERTER_1
 73
     1
 44
0.96038415366146
  0
MTEXT
  5
239
330
74
100
AcDbEntity
  8
1
 62
     2
100
AcDbMText
 10
29.0
 20
22.75
 30
0.0
 40
3.5
 41
0.0
 71
     5
 72
     1
  1
品名
  7
CONVERTER_1
 73
     1
 44
0.96038415366146
  0
MTEXT
  5
23A
330
74
100
AcDbEntity
  8
1
 62
     2
100
AcDbMText
 10
29.0
 20
34.00000000000001
 30
0.0
 40
3.5
 41
0.0
 71
     5
 72
     1
  1
備考
  7
CONVERTER_1
 73
     1
 44
0.60024009603842
  0
MTEXT
  5
23B
330
74
100
AcDbEntity
  8
1
 62
     2
100
AcDbMText
 10
32.5
 20
282.0000000000003
 30
0.0
 40
5.0
 41
0.0
 71
     5
 72
     1
  1
図番
  7
CONVERTER_1
 73
     1
 44
0.60024009603842
  0
MTEXT
  5
23C
330
74
100
AcDbEntity
  8
1
 62
     7
100
AcDbMText
 10
171.5
 20
15.0
 30
0.0
 40
2.5
 41
0.0
 71
     5
 72
     1
  1
株式会社
  7
CONVERTER_1
 73
     1
 44
1.32052821128451
  0
MTEXT
  5
23D
330
74
100
AcDbEntity
  8
1
 62
     7
100
AcDbMText
 10
188.5
 20
15.0
 30
0.0
 40
3.0
 41
0.0
 71
     5
 72
     1
  1
三栄水栓製作所
  7
CONVERTER_1
 73
     1
 44
1.32052821128451
  0
ENDBLK
  5
76
330
74
100
AcDbEntity
  8
0
100
AcDbBlockEnd
  0
BLOCK
  5
78
330
77
100
AcDbEntity
  8
0
100
AcDbBlockBegin
  2
32-1-16__15
 70
     0
 71
     0
 10
795.6080779129959
 20
1080.430453034525
 30
0.0
  3
32-1-16__15
  1

  0
LINE
  5
23E
330
77
100
AcDbEntity
  8
1
  6
Continuous
 62
     7
100
AcDbLine
 10
791.5
 20
463.4999999999999
 30
0.0
 11
778.2000000000001
 21
463.4999999999999
 31
0.0
  0
LINE
  5
23F
330
77
100
AcDbEntity
  8
1
  6
Continuous
 62
     7
100
AcDbLine
 10
791.5
 20
454.4999999999999
 30
0.0
 11
782.7016780209301
 21
454.4999999999999
 31
0.0
  0
LINE
  5
240
330
77
100
AcDbEntity
  8
1
  6
Continuous
 62
     7
100
AcDbLine
 10
783.3
 20
453.4999999999999
 30
0.0
 11
791.5
 21
453.4999999999999
 31
0.0
  0
LINE
  5
241
330
77
100
AcDbEntity
  8
1
  6
Continuous
 62
     7
100
AcDbLine
 10
781.7320508075691
 20
453.4999999999999
 30
0.0
 11
783.3
 21
453.4999999999999
 31
0.0
  0
LINE
  5
242
330
77
100
AcDbEntity
  8
1
  6
Continuous
 62
     7
100
AcDbLine
 10
778.2000000000001
 20
463.4999999999999
 30
0.0
 11
778.3130000000001
 21
463.4999999999999
 31
0.0
  0
LINE
  5
243
330
77
100
AcDbEntity
  8
1
  6
Continuous
 62
     7
100
AcDbLine
 10
780.0
 20
454.4999999999999
 30
0.0
 11
779.94197893827
 21
454.4999999999999
 31
0.0
  0
LINE
  5
244
330
77
100
AcDbEntity
  8
1
  6
Continuous
 62
     7
100
AcDbLine
 10
799.7000000000001
 20
453.4999999999999
 30
0.0
 11
801.2679491924309
 21
453.5
 31
0.0
  0
LINE
  5
245
330
77
100
AcDbEntity
  8
1
  6
Continuous
 62
     7
100
AcDbLine
 10
804.8
 20
463.5
 30
0.0
 11
791.5
 21
463.4999999999999
 31
0.0
  0
LINE
  5
246
330
77
100
AcDbEntity
  8
1
  6
Continuous
 62
     7
100
AcDbLine
 10
804.6869999999999
 20
463.5
 30
0.0
 11
804.8
 21
463.5
 31
0.0
  0
LINE
  5
247
330
77
100
AcDbEntity
  8
1
  6
Continuous
 62
     7
100
AcDbLine
 10
803.05802106173
 20
454.5
 30
0.0
 11
803.0
 21
454.5
 31
0.0
  0
LINE
  5
248
330
77
100
AcDbEntity
  8
1
  6
Continuous
 62
     7
100
AcDbLine
 10
791.5
 20
453.4999999999999
 30
0.0
 11
799.7000000000001
 21
453.4999999999999
 31
0.0
  0
LINE
  5
249
330
77
100
AcDbEntity
  8
1
  6
Continuous
 62
     7
100
AcDbLine
 10
800.2983219790699
 20
454.4999999999999
 30
0.0
 11
791.5
 21
454.4999999999999
 31
0.0
  0
ARC
  5
24A
330
77
100
AcDbEntity
  8
1
  6
Continuous
 62
     7
100
AcDbCircle
 10
791.490727656505
 20
467.9038996516887
 30
0.0
 40
12.11718326374989
100
AcDbArc
 50
-96.49677318268702
 51
-89.95615596556193
  0
ARC
  5
24B
330
77
100
AcDbEntity
  8
1
  6
Continuous
 62
     7
100
AcDbCircle
 10
791.4455385429751
 20
467.5070811993777
 30
0.0
 40
11.71780006420839
100
AcDbArc
 50
-98.71080143097066
 51
-96.49677318268944
  0
ARC
  5
24C
330
77
100
AcDbEntity
  8
1
  6
Continuous
 62
     7
100
AcDbCircle
 10
791.345230698571
 20
466.8523919796313
 30
0.0
 40
11.05547111413819
100
AcDbArc
 50
-101.0574916643684
 51
-98.71080143097197
  0
ARC
  5
24D
330
77
100
AcDbEntity
  8
1
  6
Continuous
 62
     7
100
AcDbCircle
 10
791.314192526884
 20
466.6935654585219
 30
0.0
 40
10.89364023973708
100
AcDbArc
 50
-102.1975878865712
 51
-101.0574916643678
  0
ARC
  5
24E
330
77
100
AcDbEntity
  8
1
  6
Continuous
 62
     7
100
AcDbCircle
 10
791.1885010057699
 20
466.1121006364201
 30
0.0
 40
10.29874554500407
100
AcDbArc
 50
-103.4035534297117
 51
-102.1975878865707
  0
ARC
  5
24F
330
77
100
AcDbEntity
  8
1
  6
Continuous
 62
     7
100
AcDbCircle
 10
791.163539449873
 20
466.0073518090819
 30
0.0
 40
10.19106362404443
100
AcDbArc
 50
-104.6222356444779
 51
-103.4035534297132
  0
ARC
  5
250
330
77
100
AcDbEntity
  8
1
  6
Continuous
 62
     7
100
AcDbCircle
 10
791.029415313739
 20
465.4932593088883
 30
0.0
 40
9.659762972201047
100
AcDbArc
 50
-105.9079391252791
 51
-104.6222356444783
  0
ARC
  5
251
330
77
100
AcDbEntity
  8
1
  6
Continuous
 62
     7
100
AcDbCircle
 10
790.983871780702
 20
465.3334615354304
 30
0.0
 40
9.493601779970392
100
AcDbArc
 50
-107.8289763758434
 51
-105.9079391252761
  0
ARC
  5
252
330
77
100
AcDbEntity
  8
1
  6
Continuous
 62
     7
100
AcDbCircle
 10
790.733781049245
 20
464.5558714303519
 30
0.0
 40
8.67678371854119
100
AcDbArc
 50
-109.1699312060547
 51
-107.8289763758465
  0
ARC
  5
253
330
77
100
AcDbEntity
  8
1
  6
Continuous
 62
     7
100
AcDbCircle
 10
790.730486852432
 20
464.5463957768783
 30
0.0
 40
8.666751782467408
100
AcDbArc
 50
-110.5124119700304
 51
-109.1699312060555
  0
ARC
  5
254
330
77
100
AcDbEntity
  8
1
  6
Continuous
 62
     7
100
AcDbCircle
 10
790.4720370976199
 20
463.8555967462019
 30
0.0
 40
7.929188512946858
100
AcDbArc
 50
-111.9797207566732
 51
-110.5124119700302
  0
ARC
  5
255
330
77
100
AcDbEntity
  8
1
  6
Continuous
 62
     7
100
AcDbCircle
 10
790.4660046369961
 20
463.8406506538493
 30
0.0
 40
7.913070936894944
100
AcDbArc
 50
-113.4500581114168
 51
-111.9797207566704
  0
ARC
  5
256
330
77
100
AcDbEntity
  8
1
  6
Continuous
 62
     7
100
AcDbCircle
 10
790.2138628326541
 20
463.2593791735301
 30
0.0
 40
7.279468519499087
100
AcDbArc
 50
-114.9823606023639
 51
-113.4500581114168
  0
ARC
  5
257
330
77
100
AcDbEntity
  8
1
  6
Continuous
 62
     7
100
AcDbCircle
 10
790.1493453676169
 20
463.1209097402883
 30
0.0
 40
7.126706327720363
100
AcDbArc
 50
-116.480002135622
 51
-114.9823606023622
  0
ARC
  5
258
330
77
100
AcDbEntity
  8
1
  6
Continuous
 62
     7
100
AcDbCircle
 10
789.849635891813
 20
462.5192597411219
 30
0.0
 40
6.454539316194465
100
AcDbArc
 50
-118.1335589234632
 51
-116.480002135625
  0
ARC
  5
259
330
77
100
AcDbEntity
  8
1
  6
Continuous
 62
     7
100
AcDbCircle
 10
789.7867948805631
 20
462.4017347105527
 30
0.0
 40
6.321268443513316
100
AcDbArc
 50
-119.8218682100308
 51
-118.1335589234633
  0
ARC
  5
25A
330
77
100
AcDbEntity
  8
1
  6
Continuous
 62
     7
100
AcDbCircle
 10
789.5173699289519
 20
461.9317083006011
 30
0.0
 40
5.779498537923426
100
AcDbArc
 50
-121.6685426704619
 51
-119.821868210033
  0
ARC
  5
25B
330
77
100
AcDbEntity
  8
1
  6
Continuous
 62
     7
100
AcDbCircle
 10
789.4605672162099
 20
461.8396238246361
 30
0.0
 40
5.671303811210067
100
AcDbArc
 50
-123.457388705065
 51
-121.6685426704554
  0
ARC
  5
25C
330
77
100
AcDbEntity
  8
1
  6
Continuous
 62
     7
100
AcDbCircle
 10
789.1014520190249
 20
461.29618224793
 30
0.0
 40
5.019926445820637
100
AcDbArc
 50
-124.4152098167172
 51
-123.4573887050641
  0
ARC
  5
25D
330
77
100
AcDbEntity
  8
1
  6
Continuous
 62
     7
100
AcDbCircle
 10
789.188314684302
 20
461.422969757264
 30
0.0
 40
5.17361507631132
100
AcDbArc
 50
-126.2739527965288
 51
-124.4152098167269
  0
ARC
  5
25E
330
77
100
AcDbEntity
  8
1
  6
Continuous
 62
     7
100
AcDbCircle
 10
788.8063157797531
 20
460.9024454644431
 30
0.0
 40
4.527961374631106
100
AcDbArc
 50
-128.3975050043355
 51
-126.2739527965246
  0
ARC
  5
25F
330
77
100
AcDbEntity
  8
1
  6
Continuous
 62
     7
100
AcDbCircle
 10
788.7900704430931
 20
460.8819471170176
 30
0.0
 40
4.501806199036894
100
AcDbArc
 50
-130.5332751770295
 51
-128.3975050043338
  0
ARC
  5
260
330
77
100
AcDbEntity
  8
1
  6
Continuous
 62
     7
100
AcDbCircle
 10
788.464522252586
 20
460.5012271088878
 30
0.0
 40
4.000877712191469
100
AcDbArc
 50
-132.9371670760276
 51
-130.5332751770351
  0
ARC
  5
261
330
77
100
AcDbEntity
  8
1
  6
Continuous
 62
     7
100
AcDbCircle
 10
788.439609000033
 20
460.4744521079516
 30
0.0
 40
3.964304896769651
100
AcDbArc
 50
-135.1016581317781
 51
-132.9371670760219
  0
ARC
  5
262
330
77
100
AcDbEntity
  8
1
  6
Continuous
 62
     7
100
AcDbCircle
 10
788.0876921875411
 20
460.1237818752599
 30
0.0
 40
3.46750005076788
100
AcDbArc
 50
-137.5766003475853
 51
-135.1016581317767
  0
ARC
  5
263
330
77
100
AcDbEntity
  8
1
  6
Continuous
 62
     7
100
AcDbCircle
 10
788.041928254042
 20
460.0819593749635
 30
0.0
 40
3.405504412692718
100
AcDbArc
 50
-140.0960707231184
 51
-137.5766003475855
  0
ARC
  5
264
330
77
100
AcDbEntity
  8
1
  6
Continuous
 62
     7
100
AcDbCircle
 10
787.74566405979
 20
459.8342095350248
 30
0.0
 40
3.019301802673541
100
AcDbArc
 50
-142.9375036232018
 51
-140.0960707231171
  0
ARC
  5
265
330
77
100
AcDbEntity
  8
1
  6
Continuous
 62
     7
100
AcDbCircle
 10
787.703852261013
 20
459.8026305212893
 30
0.0
 40
2.966904659379025
100
AcDbArc
 50
-145.8303028980672
 51
-142.9375036232094
  0
ARC
  5
266
330
77
100
AcDbEntity
  8
1
  6
Continuous
 62
     7
100
AcDbCircle
 10
787.4540844933711
 20
459.6330815612116
 30
0.0
 40
2.665025896269623
100
AcDbArc
 50
-148.7291301953128
 51
-145.8303028980673
  0
ARC
  5
267
330
77
100
AcDbEntity
  8
1
  6
Continuous
 62
     7
100
AcDbCircle
 10
787.433855681069
 20
459.6207963328826
 30
0.0
 40
2.641358795005347
100
AcDbArc
 50
-151.6546868768845
 51
-148.7291301953099
  0
ARC
  5
268
330
77
100
AcDbEntity
  8
1
  6
Continuous
 62
     7
100
AcDbCircle
 10
787.196519422175
 20
459.4927617017459
 30
0.0
 40
2.371689800577678
100
AcDbArc
 50
-154.911959552814
 51
-151.6546868768872
  0
ARC
  5
269
330
77
100
AcDbEntity
  8
1
  6
Continuous
 62
     7
100
AcDbCircle
 10
787.1628301372641
 20
459.4769890618233
 30
0.0
 40
2.334491089740709
100
AcDbArc
 50
-158.2199681822784
 51
-154.9119595528097
  0
ARC
  5
26A
330
77
100
AcDbEntity
  8
1
  6
Continuous
 62
     7
100
AcDbCircle
 10
786.956493836225
 20
459.3945438321732
 30
0.0
 40
2.112293238674476
100
AcDbArc
 50
-161.8767361300761
 51
-158.2199681822838
  0
ARC
  5
26B
330
77
100
AcDbEntity
  8
1
  6
Continuous
 62
     7
100
AcDbCircle
 10
786.934635235189
 20
459.3873895153498
 30
0.0
 40
2.089293615014984
100
AcDbArc
 50
-168.7976217525989
 51
-161.8767361300829
  0
ARC
  5
26C
330
77
100
AcDbEntity
  8
1
  6
Continuous
 62
     7
100
AcDbCircle
 10
786.8072122328849
 20
459.3621535849576
 30
0.0
 40
1.959395679315518
100
AcDbArc
 50
-174.3329218835786
 51
-168.7976217525865
  0
ARC
  5
26D
330
77
100
AcDbEntity
  8
1
  6
Continuous
 62
     7
100
AcDbCircle
 10
786.802217003408
 20
459.3616578934363
 30
0.0
 40
1.954375915614516
100
AcDbArc
 50
-178.030670520922
 51
-174.3329218835776
  0
ARC
  5
26E
330
77
100
AcDbEntity
  8
1
  6
Continuous
 62
     7
100
AcDbCircle
 10
786.647940141411
 20
459.3563531105184
 30
0.0
 40
1.800007878542902
100
AcDbArc
 50
179.9623169177571
 51
-178.0306705209259
  0
ARC
  5
26F
330
77
100
AcDbEntity
  8
1
  6
Continuous
 62
     7
100
AcDbCircle
 10
786.7331714201539
 20
459.3573677222313
 30
0.0
 40
1.885238775575967
100
AcDbArc
 50
176.1620820103319
 51
179.9948564228678
  0
ARC
  5
270
330
77
100
AcDbEntity
  8
1
  6
Continuous
 62
     7
100
AcDbCircle
 10
786.8069884003339
 20
459.3524157345219
 30
0.0
 40
1.959221670525619
100
AcDbArc
 50
170.6273989136035
 51
176.1620820103306
  0
ARC
  5
271
330
77
100
AcDbEntity
  8
1
  6
Continuous
 62
     7
100
AcDbCircle
 10
786.8912218377479
 20
459.338512360594
 30
0.0
 40
2.044594826640787
100
AcDbArc
 50
165.3219284287139
 51
170.627398913607
  0
ARC
  5
272
330
77
100
AcDbEntity
  8
1
  6
Continuous
 62
     7
100
AcDbCircle
 10
786.9339279455539
 20
459.3273260907318
 30
0.0
 40
2.088741675649297
100
AcDbArc
 50
160.0120569265425
 51
165.3219284287146
  0
ARC
  5
273
330
77
100
AcDbEntity
  8
1
  6
Continuous
 62
     7
100
AcDbCircle
 10
787.0682207214661
 20
459.2784795184897
 30
0.0
 40
2.231642121001812
100
AcDbArc
 50
156.5516000346935
 51
160.0120569265398
  0
ARC
  5
274
330
77
100
AcDbEntity
  8
1
  6
Continuous
 62
     7
100
AcDbCircle
 10
787.1661573591971
 20
459.2360002916269
 30
0.0
 40
2.338394496736619
100
AcDbArc
 50
153.2486225522299
 51
156.551600034691
  0
ARC
  5
275
330
77
100
AcDbEntity
  8
1
  6
Continuous
 62
     7
100
AcDbCircle
 10
787.3266168324169
 20
459.1551172212467
 30
0.0
 40
2.518086771528635
100
AcDbArc
 50
150.1801685742229
 51
153.2486225522241
  0
ARC
  5
276
330
77
100
AcDbEntity
  8
1
  6
Continuous
 62
     7
100
AcDbCircle
 10
787.428618483076
 20
459.0966534308278
 30
0.0
 40
2.63565526870154
100
AcDbArc
 50
147.2483586702434
 51
150.1801685742313
  0
ARC
  5
277
330
77
100
AcDbEntity
  8
1
  6
Continuous
 62
     7
100
AcDbCircle
 10
787.596154968347
 20
458.9888835572332
 30
0.0
 40
2.834860739387593
100
AcDbArc
 50
144.371932996839
 51
147.2483586702461
  0
ARC
  5
278
330
77
100
AcDbEntity
  8
1
  6
Continuous
 62
     7
100
AcDbCircle
 10
787.705061908847
 20
458.9108331237088
 30
0.0
 40
2.968848021852725
100
AcDbArc
 50
141.4818947159513
 51
144.3719329968393
  0
ARC
  5
279
330
77
100
AcDbEntity
  8
1
  6
Continuous
 62
     7
100
AcDbCircle
 10
787.9085191989259
 20
458.7488908907866
 30
0.0
 40
3.228886779906412
100
AcDbArc
 50
138.8248594653798
 51
141.4818947159476
  0
ARC
  5
27A
330
77
100
AcDbEntity
  8
1
  6
Continuous
 62
     7
100
AcDbCircle
 10
788.0418083867751
 20
458.6323071413015
 30
0.0
 40
3.405968055713928
100
AcDbArc
 50
136.3054237398509
 51
138.8248594653757
  0
ARC
  5
27B
330
77
100
AcDbEntity
  8
1
  6
Continuous
 62
     7
100
AcDbCircle
 10
788.281893188188
 20
458.4029205991841
 30
0.0
 40
3.738020608141721
100
AcDbArc
 50
134.0096025338475
 51
136.3054237398575
  0
ARC
  5
27C
330
77
100
AcDbEntity
  8
1
  6
Continuous
 62
     7
100
AcDbCircle
 10
788.4297623171919
 20
458.2498489815424
 30
0.0
 40
3.950849646197846
100
AcDbArc
 50
131.7064476568625
 51
134.0096025338464
  0
ARC
  5
27D
330
77
100
AcDbEntity
  8
1
  6
Continuous
 62
     7
100
AcDbCircle
 10
788.647769235643
 20
458.005218810992
 30
0.0
 40
4.278524693823041
100
AcDbArc
 50
129.4590238339888
 51
131.706447656855
  0
ARC
  5
27E
330
77
100
AcDbEntity
  8
1
  6
Continuous
 62
     7
100
AcDbCircle
 10
788.7683354408609
 20
457.8587470089468
 30
0.0
 40
4.468235522810113
100
AcDbArc
 50
127.3071976712753
 51
129.4590238339977
  0
ARC
  5
27F
330
77
100
AcDbEntity
  8
1
  6
Continuous
 62
     7
100
AcDbCircle
 10
789.02101586247
 20
457.5271429687979
 30
0.0
 40
4.885139150651918
100
AcDbArc
 50
125.3387884323708
 51
127.3071976712694
  0
ARC
  5
280
330
77
100
AcDbEntity
  8
1
  6
Continuous
 62
     7
100
AcDbCircle
 10
789.1582385207439
 20
457.3336143970278
 30
0.0
 40
5.122380306514562
100
AcDbArc
 50
123.4614374476522
 51
125.338788432369
  0
ARC
  5
281
330
77
100
AcDbEntity
  8
1
  6
Continuous
 62
     7
100
AcDbCircle
 10
789.446811562661
 20
456.8969898820111
 30
0.0
 40
5.645749552492122
100
AcDbArc
 50
121.6644939278703
 51
123.4614374476486
  0
ARC
  5
282
330
77
100
AcDbEntity
  8
1
  6
Continuous
 62
     7
100
AcDbCircle
 10
789.5303831846691
 20
456.7614881460725
 30
0.0
 40
5.804950483542712
100
AcDbArc
 50
119.8259169526168
 51
121.6644939278775
  0
ARC
  5
283
330
77
100
AcDbEntity
  8
1
  6
Continuous
 62
     7
100
AcDbCircle
 10
789.772176253229
 20
456.3397361299534
 30
0.0
 40
6.291097221785877
100
AcDbArc
 50
118.1295101808751
 51
119.8259169526105
  0
ARC
  5
284
330
77
100
AcDbEntity
  8
1
  6
Continuous
 62
     7
100
AcDbCircle
 10
789.8642080450391
 20
456.167589354362
 30
0.0
 40
6.486300610717207
100
AcDbArc
 50
116.4840508782087
 51
118.1295101808799
  0
ARC
  5
285
330
77
100
AcDbEntity
  8
1
  6
Continuous
 62
     7
100
AcDbCircle
 10
790.132705838789
 20
455.6286904780822
 30
0.0
 40
7.088382884250867
100
AcDbArc
 50
114.9783118597825
 51
116.4840508782075
  0
ARC
  5
286
330
77
100
AcDbEntity
  8
1
  6
Continuous
 62
     7
100
AcDbCircle
 10
790.229726180997
 20
455.4204238954403
 30
0.0
 40
7.318139094717266
100
AcDbArc
 50
113.4541068540037
 51
114.9783118597858
  0
ARC
  5
287
330
77
100
AcDbEntity
  8
1
  6
Continuous
 62
     7
100
AcDbCircle
 10
790.4492684561319
 20
454.9144032171631
 30
0.0
 40
7.869732910323904
100
AcDbArc
 50
111.9756720140867
 51
113.4541068539997
  0
ARC
  5
288
330
77
100
AcDbEntity
  8
1
  6
Continuous
 62
     7
100
AcDbCircle
 10
790.4879822820551
 20
454.8184658740721
 30
0.0
 40
7.973186929660495
100
AcDbArc
 50
110.516460712615
 51
111.9756720140902
  0
ARC
  5
289
330
77
100
AcDbEntity
  8
1
  6
Continuous
 62
     7
100
AcDbCircle
 10
790.7128497805099
 20
454.2175567720223
 30
0.0
 40
8.614792058059393
100
AcDbArc
 50
109.1658824634679
 51
110.5164607126106
  0
ARC
  5
28A
330
77
100
AcDbEntity
  8
1
  6
Continuous
 62
     7
100
AcDbCircle
 10
790.7505073201819
 20
454.1092113605523
 30
0.0
 40
8.729495233607345
100
AcDbArc
 50
107.8330251184291
 51
109.1658824634705
  0
ARC
  5
28B
330
77
100
AcDbEntity
  8
1
  6
Continuous
 62
     7
100
AcDbCircle
 10
790.9791984860869
 20
453.3983298177608
 30
0.0
 40
9.476256385010137
100
AcDbArc
 50
106.5637890373052
 51
107.833025118427
  0
ARC
  5
28C
330
77
100
AcDbEntity
  8
1
  6
Continuous
 62
     7
100
AcDbCircle
 10
790.9701840934081
 20
453.4286379472411
 30
0.0
 40
9.444636106896763
100
AcDbArc
 50
105.2487790992219
 51
106.5637890373056
  0
ARC
  5
28D
330
77
100
AcDbEntity
  8
1
  6
Continuous
 62
     7
100
AcDbCircle
 10
791.142665832627
 20
452.7959291253955
 30
0.0
 40
10.10043363937574
100
AcDbArc
 50
104.0191720213371
 51
105.2487790992226
  0
ARC
  5
28E
330
77
100
AcDbEntity
  8
1
  6
Continuous
 62
     7
100
AcDbCircle
 10
791.132467997443
 20
452.8367721818446
 30
0.0
 40
10.05833671427953
100
AcDbArc
 50
102.7843930443583
 51
104.0191720213364
  0
ARC
  5
28F
330
77
100
AcDbEntity
  8
1
  6
Continuous
 62
     7
100
AcDbCircle
 10
791.2957027385789
 20
452.1173848181748
 30
0.0
 40
10.79601127648268
100
AcDbArc
 50
101.6339739860512
 51
102.7843930443614
  0
ARC
  5
290
330
77
100
AcDbEntity
  8
1
  6
Continuous
 62
     7
100
AcDbCircle
 10
791.302086458229
 20
452.0863791113939
 30
0.0
 40
10.82766733008283
100
AcDbArc
 50
99.86240874690245
 51
101.633973986051
  0
ARC
  5
291
330
77
100
AcDbEntity
  8
1
  6
Continuous
 62
     7
100
AcDbCircle
 10
791.4146306918419
 20
451.4390223245198
 30
0.0
 40
11.48473430842796
100
AcDbArc
 50
97.603465837587
 51
99.86240874690047
  0
ARC
  5
292
330
77
100
AcDbEntity
  8
1
  6
Continuous
 62
     7
100
AcDbCircle
 10
791.445249976254
 20
451.209647301912
 30
0.0
 40
11.71614399183433
100
AcDbArc
 50
95.38910892489436
 51
97.60346583758445
  0
ARC
  5
293
330
77
100
AcDbEntity
  8
1
  6
Continuous
 62
     7
100
AcDbCircle
 10
791.497103269797
 20
450.6599815803187
 30
0.0
 40
12.2682501134686
100
AcDbArc
 50
90.52673844208022
 51
95.38910892489537
  0
ARC
  5
294
330
77
100
AcDbEntity
  8
1
  6
Continuous
 62
     7
100
AcDbCircle
 10
791.4977642745589
 20
450.5880830571431
 30
0.0
 40
12.34015167507997
100
AcDbArc
 50
89.98961944423388
 51
90.52673844208333
  0
ARC
  5
295
330
77
100
AcDbEntity
  8
1
  6
Continuous
 62
     7
100
AcDbCircle
 10
781.0
 20
459.3575369645579
 30
0.0
 40
5.000000000000314
100
AcDbArc
 50
124.0557977425649
 51
-105.3375576695541
  0
ARC
  5
296
330
77
100
AcDbEntity
  8
1
  6
Continuous
 62
     7
100
AcDbCircle
 10
802.0
 20
459.3575369645581
 30
0.0
 40
4.999999999999032
100
AcDbArc
 50
-74.66244233044627
 51
55.94420225743443
  0
ARC
  5
297
330
77
100
AcDbEntity
  8
1
  6
Continuous
 62
     7
100
AcDbCircle
 10
796.2668285798461
 20
459.3573677222313
 30
0.0
 40
1.885238775575631
100
AcDbArc
 50
0.00514357713219
 51
3.83791798966812
  0
ARC
  5
298
330
77
100
AcDbEntity
  8
1
  6
Continuous
 62
     7
100
AcDbCircle
 10
796.1930115996661
 20
459.3524157345219
 30
0.0
 40
1.959221670525896
100
AcDbArc
 50
3.83791798966946
 51
9.37260108639655
  0
ARC
  5
299
330
77
100
AcDbEntity
  8
1
  6
Continuous
 62
     7
100
AcDbCircle
 10
796.108778162253
 20
459.338512360594
 30
0.0
 40
2.044594826640448
100
AcDbArc
 50
9.37260108639721
 51
14.67807157129255
  0
ARC
  5
29A
330
77
100
AcDbEntity
  8
1
  6
Continuous
 62
     7
100
AcDbCircle
 10
796.066072054447
 20
459.3273260907318
 30
0.0
 40
2.088741675648276
100
AcDbArc
 50
14.67807157129171
 51
19.98794307346603
  0
ARC
  5
29B
330
77
100
AcDbEntity
  8
1
  6
Continuous
 62
     7
100
AcDbCircle
 10
795.9317792785339
 20
459.2784795184897
 30
0.0
 40
2.231642121001995
100
AcDbArc
 50
19.98794307346022
 51
23.44839996530651
  0
ARC
  5
29C
330
77
100
AcDbEntity
  8
1
  6
Continuous
 62
     7
100
AcDbCircle
 10
795.8338426408029
 20
459.2360002916269
 30
0.0
 40
2.338394496736074
100
AcDbArc
 50
23.44839996530898
 51
26.75137744777017
  0
ARC
  5
29D
330
77
100
AcDbEntity
  8
1
  6
Continuous
 62
     7
100
AcDbCircle
 10
795.6733831675831
 20
459.1551172212467
 30
0.0
 40
2.518086771529134
100
AcDbArc
 50
26.75137744777597
 51
29.81983142576679
  0
ARC
  5
29E
330
77
100
AcDbEntity
  8
1
  6
Continuous
 62
     7
100
AcDbCircle
 10
795.5713815169249
 20
459.0966534308278
 30
0.0
 40
2.635655268700799
100
AcDbArc
 50
29.81983142576876
 51
32.75164132976732
  0
ARC
  5
29F
330
77
100
AcDbEntity
  8
1
  6
Continuous
 62
     7
100
AcDbCircle
 10
795.4038450316541
 20
458.9888835572332
 30
0.0
 40
2.834860739387467
100
AcDbArc
 50
32.75164132976632
 51
35.62806700317437
  0
ARC
  5
2A0
330
77
100
AcDbEntity
  8
1
  6
Continuous
 62
     7
100
AcDbCircle
 10
795.2949380911541
 20
458.9108331237088
 30
0.0
 40
2.968848021851874
100
AcDbArc
 50
35.62806700317348
 51
38.51810528406239
  0
ARC
  5
2A1
330
77
100
AcDbEntity
  8
1
  6
Continuous
 62
     7
100
AcDbCircle
 10
795.0914808010741
 20
458.7488908907866
 30
0.0
 40
3.228886779906348
100
AcDbArc
 50
38.51810528405243
 51
41.17514053460964
  0
ARC
  5
2A2
330
77
100
AcDbEntity
  8
1
  6
Continuous
 62
     7
100
AcDbCircle
 10
794.9581916132249
 20
458.6323071413015
 30
0.0
 40
3.405968055714264
100
AcDbArc
 50
41.1751405346142
 51
43.69457626014907
  0
ARC
  5
2A3
330
77
100
AcDbEntity
  8
1
  6
Continuous
 62
     7
100
AcDbCircle
 10
794.718106811813
 20
458.4029205991841
 30
0.0
 40
3.738020608141421
100
AcDbArc
 50
43.69457626015214
 51
45.99039746615247
  0
ARC
  5
2A4
330
77
100
AcDbEntity
  8
1
  6
Continuous
 62
     7
100
AcDbCircle
 10
794.570237682809
 20
458.2498489815424
 30
0.0
 40
3.95084964619771
100
AcDbArc
 50
45.99039746615364
 51
48.29355234313755
  0
ARC
  5
2A5
330
77
100
AcDbEntity
  8
1
  6
Continuous
 62
     7
100
AcDbCircle
 10
794.3522307643571
 20
458.005218810992
 30
0.0
 40
4.278524693823422
100
AcDbArc
 50
48.29355234313588
 51
50.54097616601121
  0
ARC
  5
2A6
330
77
100
AcDbEntity
  8
1
  6
Continuous
 62
     7
100
AcDbCircle
 10
794.23166455914
 20
457.8587470089468
 30
0.0
 40
4.468235522809721
100
AcDbArc
 50
50.5409761660113
 51
52.69280232873401
  0
ARC
  5
2A7
330
77
100
AcDbEntity
  8
1
  6
Continuous
 62
     7
100
AcDbCircle
 10
793.97898413753
 20
457.5271429687979
 30
0.0
 40
4.885139150651877
100
AcDbArc
 50
52.69280232873066
 51
54.66121156762922
  0
ARC
  5
2A8
330
77
100
AcDbEntity
  8
1
  6
Continuous
 62
     7
100
AcDbCircle
 10
793.8417614792561
 20
457.3336143970278
 30
0.0
 40
5.12238030651472
100
AcDbArc
 50
54.66121156763099
 51
56.5385625523478
  0
ARC
  5
2A9
330
77
100
AcDbEntity
  8
1
  6
Continuous
 62
     7
100
AcDbCircle
 10
793.553188437339
 20
456.8969898820111
 30
0.0
 40
5.645749552491864
100
AcDbArc
 50
56.53856255235137
 51
58.33550607212966
  0
ARC
  5
2AA
330
77
100
AcDbEntity
  8
1
  6
Continuous
 62
     7
100
AcDbCircle
 10
793.4696168153309
 20
456.7614881460725
 30
0.0
 40
5.804950483542902
100
AcDbArc
 50
58.33550607212248
 51
60.17408304738318
  0
ARC
  5
2AB
330
77
100
AcDbEntity
  8
1
  6
Continuous
 62
     7
100
AcDbCircle
 10
793.227823746771
 20
456.3397361299534
 30
0.0
 40
6.291097221785551
100
AcDbArc
 50
60.17408304738947
 51
61.87048981912494
  0
ARC
  5
2AC
330
77
100
AcDbEntity
  8
1
  6
Continuous
 62
     7
100
AcDbCircle
 10
793.135791954961
 20
456.167589354362
 30
0.0
 40
6.486300610717232
100
AcDbArc
 50
61.87048981912008
 51
63.51594912179137
  0
ARC
  5
2AD
330
77
100
AcDbEntity
  8
1
  6
Continuous
 62
     7
100
AcDbCircle
 10
792.867294161211
 20
455.6286904780822
 30
0.0
 40
7.088382884251492
100
AcDbArc
 50
63.51594912179252
 51
65.02168814020922
  0
ARC
  5
2AE
330
77
100
AcDbEntity
  8
1
  6
Continuous
 62
     7
100
AcDbCircle
 10
792.7702738190039
 20
455.4204238954403
 30
0.0
 40
7.318139094716514
100
AcDbArc
 50
65.0216881402126
 51
66.54589314600288
  0
ARC
  5
2AF
330
77
100
AcDbEntity
  8
1
  6
Continuous
 62
     7
100
AcDbCircle
 10
792.5507315438681
 20
454.9144032171631
 30
0.0
 40
7.869732910323943
100
AcDbArc
 50
66.54589314600027
 51
68.02432798591327
  0
ARC
  5
2B0
330
77
100
AcDbEntity
  8
1
  6
Continuous
 62
     7
100
AcDbCircle
 10
792.512017717946
 20
454.8184658740721
 30
0.0
 40
7.973186929660446
100
AcDbArc
 50
68.0243279859174
 51
69.48353928739265
  0
ARC
  5
2B1
330
77
100
AcDbEntity
  8
1
  6
Continuous
 62
     7
100
AcDbCircle
 10
792.2871502194901
 20
454.2175567720223
 30
0.0
 40
8.614792058059289
100
AcDbArc
 50
69.48353928738945
 51
70.83411753653209
  0
ARC
  5
2B2
330
77
100
AcDbEntity
  8
1
  6
Continuous
 62
     7
100
AcDbCircle
 10
792.2494926798181
 20
454.1092113605523
 30
0.0
 40
8.729495233607185
100
AcDbArc
 50
70.83411753652946
 51
72.16697488157088
  0
ARC
  5
2B3
330
77
100
AcDbEntity
  8
1
  6
Continuous
 62
     7
100
AcDbCircle
 10
792.0208015139131
 20
453.3983298177608
 30
0.0
 40
9.476256385010304
100
AcDbArc
 50
72.166974881573
 51
73.43621096269477
  0
ARC
  5
2B4
330
77
100
AcDbEntity
  8
1
  6
Continuous
 62
     7
100
AcDbCircle
 10
792.0298159065919
 20
453.4286379472411
 30
0.0
 40
9.444636106896805
100
AcDbArc
 50
73.43621096269438
 51
74.75122090077814
  0
ARC
  5
2B5
330
77
100
AcDbEntity
  8
1
  6
Continuous
 62
     7
100
AcDbCircle
 10
791.857334167373
 20
452.7959291253955
 30
0.0
 40
10.10043363937553
100
AcDbArc
 50
74.7512209007774
 51
75.98082797866286
  0
ARC
  5
2B6
330
77
100
AcDbEntity
  8
1
  6
Continuous
 62
     7
100
AcDbCircle
 10
791.867532002557
 20
452.8367721818446
 30
0.0
 40
10.05833671427966
100
AcDbArc
 50
75.98082797866357
 51
77.21560695564172
  0
ARC
  5
2B7
330
77
100
AcDbEntity
  8
1
  6
Continuous
 62
     7
100
AcDbCircle
 10
791.704297261422
 20
452.1173848181748
 30
0.0
 40
10.79601127648241
100
AcDbArc
 50
77.2156069556433
 51
78.36602601395353
  0
ARC
  5
2B8
330
77
100
AcDbEntity
  8
1
  6
Continuous
 62
     7
100
AcDbCircle
 10
791.697913541771
 20
452.0863791113939
 30
0.0
 40
10.82766733008311
100
AcDbArc
 50
78.36602601394898
 51
80.13759125309757
  0
ARC
  5
2B9
330
77
100
AcDbEntity
  8
1
  6
Continuous
 62
     7
100
AcDbCircle
 10
791.5853693081581
 20
451.4390223245198
 30
0.0
 40
11.48473430842789
100
AcDbArc
 50
80.13759125309954
 51
82.39653416241301
  0
ARC
  5
2BA
330
77
100
AcDbEntity
  8
1
  6
Continuous
 62
     7
100
AcDbCircle
 10
791.554750023746
 20
451.209647301912
 30
0.0
 40
11.71614399183429
100
AcDbArc
 50
82.39653416241555
 51
84.61089107510124
  0
ARC
  5
2BB
330
77
100
AcDbEntity
  8
1
  6
Continuous
 62
     7
100
AcDbCircle
 10
791.502896730203
 20
450.6599815803187
 30
0.0
 40
12.26825011346862
100
AcDbArc
 50
84.61089107510041
 51
89.4732615579198
  0
ARC
  5
2BC
330
77
100
AcDbEntity
  8
1
  6
Continuous
 62
     7
100
AcDbCircle
 10
791.509272343495
 20
467.9038996516887
 30
0.0
 40
12.11718326375007
100
AcDbArc
 50
-90.04384403443808
 51
-83.50322681731299
  0
ARC
  5
2BD
330
77
100
AcDbEntity
  8
1
  6
Continuous
 62
     7
100
AcDbCircle
 10
791.5544614570249
 20
467.5070811993777
 30
0.0
 40
11.71780006420828
100
AcDbArc
 50
-83.50322681731058
 51
-81.28919856902934
  0
ARC
  5
2BE
330
77
100
AcDbEntity
  8
1
  6
Continuous
 62
     7
100
AcDbCircle
 10
791.65476930143
 20
466.8523919796313
 30
0.0
 40
11.05547111413802
100
AcDbArc
 50
-81.28919856903269
 51
-78.94250833563623
  0
ARC
  5
2BF
330
77
100
AcDbEntity
  8
1
  6
Continuous
 62
     7
100
AcDbCircle
 10
791.685807473116
 20
466.6935654585219
 30
0.0
 40
10.89364023973721
100
AcDbArc
 50
-78.94250833563216
 51
-77.80241211342411
  0
ARC
  5
2C0
330
77
100
AcDbEntity
  8
1
  6
Continuous
 62
     7
100
AcDbCircle
 10
791.8114989942301
 20
466.1121006364201
 30
0.0
 40
10.29874554500397
100
AcDbArc
 50
-77.8024121134244
 51
-76.59644657028836
  0
ARC
  5
2C1
330
77
100
AcDbEntity
  8
1
  6
Continuous
 62
     7
100
AcDbCircle
 10
791.836460550127
 20
466.0073518090819
 30
0.0
 40
10.1910636240446
100
AcDbArc
 50
-76.59644657028677
 51
-75.37776435552208
  0
ARC
  5
2C2
330
77
100
AcDbEntity
  8
1
  6
Continuous
 62
     7
100
AcDbCircle
 10
791.970584686261
 20
465.4932593088883
 30
0.0
 40
9.659762972201223
100
AcDbArc
 50
-75.37776435552171
 51
-74.09206087472089
  0
ARC
  5
2C3
330
77
100
AcDbEntity
  8
1
  6
Continuous
 62
     7
100
AcDbCircle
 10
792.016128219298
 20
465.3334615354304
 30
0.0
 40
9.49360177997012
100
AcDbArc
 50
-74.09206087472393
 51
-72.17102362415662
  0
ARC
  5
2C4
330
77
100
AcDbEntity
  8
1
  6
Continuous
 62
     7
100
AcDbCircle
 10
792.266218950756
 20
464.5558714303519
 30
0.0
 40
8.676783718541069
100
AcDbArc
 50
-72.17102362415923
 51
-70.830068793951
  0
ARC
  5
2C5
330
77
100
AcDbEntity
  8
1
  6
Continuous
 62
     7
100
AcDbCircle
 10
792.269513147568
 20
464.5463957768783
 30
0.0
 40
8.666751782467127
100
AcDbArc
 50
-70.83006879394453
 51
-69.48758802996964
  0
ARC
  5
2C6
330
77
100
AcDbEntity
  8
1
  6
Continuous
 62
     7
100
AcDbCircle
 10
792.5279629023801
 20
463.8555967462019
 30
0.0
 40
7.929188512946856
100
AcDbArc
 50
-69.4875880299698
 51
-68.02027924332683
  0
ARC
  5
2C7
330
77
100
AcDbEntity
  8
1
  6
Continuous
 62
     7
100
AcDbCircle
 10
792.5339953630039
 20
463.8406506538493
 30
0.0
 40
7.913070936894903
100
AcDbArc
 50
-68.02027924332964
 51
-66.54994188858325
  0
ARC
  5
2C8
330
77
100
AcDbEntity
  8
1
  6
Continuous
 62
     7
100
AcDbCircle
 10
792.7861371673459
 20
463.2593791735301
 30
0.0
 40
7.279468519499483
100
AcDbArc
 50
-66.54994188858321
 51
-65.01763939762797
  0
ARC
  5
2C9
330
77
100
AcDbEntity
  8
1
  6
Continuous
 62
     7
100
AcDbCircle
 10
792.8506546323831
 20
463.1209097402883
 30
0.0
 40
7.126706327720584
100
AcDbArc
 50
-65.01763939762951
 51
-63.51999786437796
  0
ARC
  5
2CA
330
77
100
AcDbEntity
  8
1
  6
Continuous
 62
     7
100
AcDbCircle
 10
793.150364108187
 20
462.5192597411219
 30
0.0
 40
6.454539316194541
100
AcDbArc
 50
-63.51999786437495
 51
-61.86644107653678
  0
ARC
  5
2CB
330
77
100
AcDbEntity
  8
1
  6
Continuous
 62
     7
100
AcDbCircle
 10
793.2132051194369
 20
462.4017347105527
 30
0.0
 40
6.32126844351328
100
AcDbArc
 50
-61.86644107653671
 51
-60.17813178996925
  0
ARC
  5
2CC
330
77
100
AcDbEntity
  8
1
  6
Continuous
 62
     7
100
AcDbCircle
 10
793.482630071049
 20
461.9317083006011
 30
0.0
 40
5.779498537923125
100
AcDbArc
 50
-60.17813178997483
 51
-58.33145732954581
  0
ARC
  5
2CD
330
77
100
AcDbEntity
  8
1
  6
Continuous
 62
     7
100
AcDbCircle
 10
793.5394327837901
 20
461.8396238246361
 30
0.0
 40
5.671303811209988
100
AcDbArc
 50
-58.33145732954465
 51
-56.54261129493499
  0
ARC
  5
2CE
330
77
100
AcDbEntity
  8
1
  6
Continuous
 62
     7
100
AcDbCircle
 10
793.8985479809751
 20
461.29618224793
 30
0.0
 40
5.019926445820374
100
AcDbArc
 50
-56.54261129493592
 51
-55.58479018328283
  0
ARC
  5
2CF
330
77
100
AcDbEntity
  8
1
  6
Continuous
 62
     7
100
AcDbCircle
 10
793.8116853156989
 20
461.422969757264
 30
0.0
 40
5.173615076310987
100
AcDbArc
 50
-55.58479018328141
 51
-53.72604720347928
  0
ARC
  5
2D0
330
77
100
AcDbEntity
  8
1
  6
Continuous
 62
     7
100
AcDbCircle
 10
794.193684220247
 20
460.9024454644431
 30
0.0
 40
4.527961374631135
100
AcDbArc
 50
-53.72604720347536
 51
-51.60249499566452
  0
ARC
  5
2D1
330
77
100
AcDbEntity
  8
1
  6
Continuous
 62
     7
100
AcDbCircle
 10
794.2099295569069
 20
460.8819471170176
 30
0.0
 40
4.501806199036771
100
AcDbArc
 50
-51.60249499566616
 51
-49.46672482297055
  0
ARC
  5
2D2
330
77
100
AcDbEntity
  8
1
  6
Continuous
 62
     7
100
AcDbCircle
 10
794.5354777474149
 20
460.5012271088878
 30
0.0
 40
4.000877712191318
100
AcDbArc
 50
-49.46672482297488
 51
-47.06283292398191
  0
ARC
  5
2D3
330
77
100
AcDbEntity
  8
1
  6
Continuous
 62
     7
100
AcDbCircle
 10
794.560390999967
 20
460.4744521079516
 30
0.0
 40
3.96430489676931
100
AcDbArc
 50
-47.06283292397808
 51
-44.89834186822192
  0
ARC
  5
2D4
330
77
100
AcDbEntity
  8
1
  6
Continuous
 62
     7
100
AcDbCircle
 10
794.912307812459
 20
460.1237818752599
 30
0.0
 40
3.467500050768191
100
AcDbArc
 50
-44.89834186822333
 51
-42.42339965240458
  0
ARC
  5
2D5
330
77
100
AcDbEntity
  8
1
  6
Continuous
 62
     7
100
AcDbCircle
 10
794.958071745958
 20
460.0819593749635
 30
0.0
 40
3.405504412693357
100
AcDbArc
 50
-42.42339965240417
 51
-39.90392927688156
  0
ARC
  5
2D6
330
77
100
AcDbEntity
  8
1
  6
Continuous
 62
     7
100
AcDbCircle
 10
795.25433594021
 20
459.8342095350248
 30
0.0
 40
3.019301802673787
100
AcDbArc
 50
-39.90392927688295
 51
-37.06249637678783
  0
ARC
  5
2D7
330
77
100
AcDbEntity
  8
1
  6
Continuous
 62
     7
100
AcDbCircle
 10
795.296147738987
 20
459.8026305212893
 30
0.0
 40
2.966904659379315
100
AcDbArc
 50
-37.06249637678008
 51
-34.16969710193285
  0
ARC
  5
2D8
330
77
100
AcDbEntity
  8
1
  6
Continuous
 62
     7
100
AcDbCircle
 10
795.5459155066289
 20
459.6330815612116
 30
0.0
 40
2.665025896269925
100
AcDbArc
 50
-34.1696971019327
 51
-31.27086980468723
  0
ARC
  5
2D9
330
77
100
AcDbEntity
  8
1
  6
Continuous
 62
     7
100
AcDbCircle
 10
795.566144318931
 20
459.6207963328826
 30
0.0
 40
2.641358795005438
100
AcDbArc
 50
-31.27086980469012
 51
-28.34531312310611
  0
ARC
  5
2DA
330
77
100
AcDbEntity
  8
1
  6
Continuous
 62
     7
100
AcDbCircle
 10
795.803480577825
 20
459.4927617017459
 30
0.0
 40
2.371689800577634
100
AcDbArc
 50
-28.34531312310243
 51
-25.08804044718605
  0
ARC
  5
2DB
330
77
100
AcDbEntity
  8
1
  6
Continuous
 62
     7
100
AcDbCircle
 10
795.8371698627359
 20
459.4769890618233
 30
0.0
 40
2.334491089740657
100
AcDbArc
 50
-25.0880404471903
 51
-21.78003181772165
  0
ARC
  5
2DC
330
77
100
AcDbEntity
  8
1
  6
Continuous
 62
     7
100
AcDbCircle
 10
796.043506163775
 20
459.3945438321732
 30
0.0
 40
2.11229323867427
100
AcDbArc
 50
-21.78003181771621
 51
-18.12326386992391
  0
ARC
  5
2DD
330
77
100
AcDbEntity
  8
1
  6
Continuous
 62
     7
100
AcDbCircle
 10
796.0653647648121
 20
459.3873895153498
 30
0.0
 40
2.089293615014285
100
AcDbArc
 50
-18.12326386992676
 51
-11.20237824740716
  0
ARC
  5
2DE
330
77
100
AcDbEntity
  8
1
  6
Continuous
 62
     7
100
AcDbCircle
 10
796.1927877671151
 20
459.3621535849576
 30
0.0
 40
1.959395679315623
100
AcDbArc
 50
-11.20237824741351
 51
-5.66707811642143
  0
ARC
  5
2DF
330
77
100
AcDbEntity
  8
1
  6
Continuous
 62
     7
100
AcDbCircle
 10
796.1977829965931
 20
459.3616578934363
 30
0.0
 40
1.954375915613668
100
AcDbArc
 50
-5.66707811642567
 51
-1.96932947907917
  0
ARC
  5
2E0
330
77
100
AcDbEntity
  8
1
  6
Continuous
 62
     7
100
AcDbCircle
 10
796.352059858589
 20
459.3563531105184
 30
0.0
 40
1.80000787854256
100
AcDbArc
 50
-1.9693294790741
 51
0.03768308224287
  0
ARC
  5
2E1
330
77
100
AcDbEntity
  8
1
  6
Continuous
 62
     7
100
AcDbCircle
 10
791.502235725442
 20
450.5880830571431
 30
0.0
 40
12.34015167507978
100
AcDbArc
 50
89.47326155792089
 51
90.01038055577035
  0
SPLINE
  5
2E2
330
77
100
AcDbEntity
  8
1
  6
Continuous
 62
     7
100
AcDbSpline
210
0.0
220
0.0
230
1.0
 70
    11
 71
     3
 72
    79
 73
    75
 74
    73
 42
0.0000000001
 43
0.0000000001
 44
0.00000001
 40
0.0
 40
0.0
 40
0.0
 40
0.0
 40
0.2903672562530675
 40
0.5807357597935822
 40
0.8724071051841693
 40
1.164081918217988
 40
1.458189931540162
 40
1.752302927360176
 40
2.0496632078335
 40
2.347029113126125
 40
2.64804579276936
 40
2.949067942938838
 40
3.253697753141512
 40
3.558332281909204
 40
3.866104864362698
 40
4.173881026138639
 40
4.483966067735075
 40
4.794053328114042
 40
5.105362224076107
 40
5.416671870214112
 40
5.727981516352454
 40
6.039290412314703
 40
6.349377672693581
 40
6.659462714289984
 40
6.967238876066019
 40
7.275011458519412
 40
7.579645987287105
 40
7.884275797489917
 40
8.185297947659322
 40
8.486314627302519
 40
8.783680532595087
 40
9.081040813068221
 40
9.375153808888289
 40
9.669261822210579
 40
9.960936635244487
 40
10.25260798063498
 40
10.54297648417551
 40
10.83334374042858
 40
11.12371099668119
 40
11.4140795002215
 40
11.7057508456119
 40
11.99742565864567
 40
12.29153367196843
 40
12.58564666778905
 40
12.88300694826219
 40
13.18037285355475
 40
13.48138953319783
 40
13.78241168336734
 40
14.08704149357006
 40
14.39167602233785
 40
14.69944860479124
 40
15.00722476656727
 40
15.31730980816376
 40
15.62739706854267
 40
15.93870596450474
 40
16.25001561064307
 40
16.56132525678111
 40
16.87263415274306
 40
17.18272141312203
 40
17.49280645471858
 40
17.80058261649451
 40
18.1083551989479
 40
18.41298972771565
 40
18.71761953791826
 40
19.01864168808781
 40
19.31965836773096
 40
19.61702427302362
 40
19.91438455349692
 40
20.20849754931752
 40
20.50260556264011
 40
20.79428037567413
 40
21.08595172106429
 40
21.37632022460458
 40
21.6666874808572
 40
21.6666874808572
 40
21.6666874808572
 40
21.6666874808572
 10
803.6243556529821
 20
455.7868227502869
 30
0.0
 10
803.721179462716
 20
455.7894543476897
 30
0.0
 10
803.9148274980959
 20
455.7947175537995
 30
0.0
 10
804.2031883764845
 20
455.8370126274935
 30
0.0
 10
804.4869005197306
 20
455.9042235205353
 30
0.0
 10
804.7643255820908
 20
455.9982786860871
 30
0.0
 10
805.0326464931665
 20
456.1177101440028
 30
0.0
 10
805.2906462562767
 20
456.2619856396726
 30
0.0
 10
805.5354482592989
 20
456.4295897150355
 30
0.0
 10
805.7661444841426
 20
456.6197522693369
 30
0.0
 10
805.9800401912112
 20
456.8303749897766
 30
0.0
 10
806.1764137335908
 20
457.0605966057258
 30
0.0
 10
806.3529630785592
 20
457.3078330292315
 30
0.0
 10
806.5090658750399
 20
457.5710672035791
 30
0.0
 10
806.6429548894623
 20
457.8474307582545
 30
0.0
 10
806.7540829062805
 20
458.1356442022041
 30
0.0
 10
806.8412736660802
 20
458.4327826454395
 30
0.0
 10
806.9040992725389
 20
458.7372057995489
 30
0.0
 10
806.9419478223133
 20
459.0461424119147
 30
0.0
 10
806.9546100842711
 20
459.3575369645583
 30
0.0
 10
806.9419478223138
 20
459.668931517201
 30
0.0
 10
806.904099272539
 20
459.9778681295712
 30
0.0
 10
806.8412736660799
 20
460.2822912836639
 30
0.0
 10
806.7540829062806
 20
460.5794297269619
 30
0.0
 10
806.6429548894624
 20
460.8676431706797
 30
0.0
 10
806.5090658750398
 20
461.1440067262159
 30
0.0
 10
806.3529630785597
 20
461.4072408973824
 30
0.0
 10
806.1764137335904
 20
461.6544773326875
 30
0.0
 10
805.9800401912117
 20
461.8846989051018
 30
0.0
 10
805.7661444841426
 20
462.0953217869524
 30
0.0
 10
805.535448259299
 20
462.2854837458597
 30
0.0
 10
805.2906462562767
 20
462.4530900294794
 30
0.0
 10
805.0326464931663
 20
462.5973573699632
 30
0.0
 10
804.764325582091
 20
462.7168191093208
 30
0.0
 10
804.4869005197306
 20
462.8107621563889
 30
0.0
 10
804.2031883764844
 20
462.8783901288365
 30
0.0
 10
803.9148274980958
 20
462.9191352536853
 30
0.0
 10
803.6243556529821
 20
462.9328091316127
 30
0.0
 10
803.3338838078689
 20
462.9191352536853
 30
0.0
 10
803.0455229294806
 20
462.8783901288365
 30
0.0
 10
802.7618107862344
 20
462.8107621563887
 30
0.0
 10
802.484385723874
 20
462.7168191093207
 30
0.0
 10
802.216064812798
 20
462.5973573699633
 30
0.0
 10
801.9580650496876
 20
462.4530900294794
 30
0.0
 10
801.7132630466654
 20
462.2854837458596
 30
0.0
 10
801.4825668218214
 20
462.0953217869526
 30
0.0
 10
801.2686711147528
 20
461.8846989051016
 30
0.0
 10
801.0722975723734
 20
461.6544773326876
 30
0.0
 10
800.8957482274043
 20
461.4072408973825
 30
0.0
 10
800.7396454309243
 20
461.144006726216
 30
0.0
 10
800.6057564165018
 20
460.8676431706797
 30
0.0
 10
800.4946283996834
 20
460.5794297269617
 30
0.0
 10
800.4074376398837
 20
460.2822912836638
 30
0.0
 10
800.3446120334248
 20
459.9778681295711
 30
0.0
 10
800.3067634836509
 20
459.6689315172008
 30
0.0
 10
800.294101221694
 20
459.3575369645584
 30
0.0
 10
800.3067634836509
 20
459.0461424119147
 30
0.0
 10
800.3446120334251
 20
458.737205799549
 30
0.0
 10
800.4074376398839
 20
458.4327826454395
 30
0.0
 10
800.4946283996833
 20
458.135644202204
 30
0.0
 10
800.6057564165019
 20
457.8474307582545
 30
0.0
 10
800.7396454309242
 20
457.571067203579
 30
0.0
 10
800.8957482274043
 20
457.3078330292316
 30
0.0
 10
801.0722975723735
 20
457.0605966057255
 30
0.0
 10
801.2686711147527
 20
456.8303749897768
 30
0.0
 10
801.4825668218214
 20
456.6197522693369
 30
0.0
 10
801.7132630466651
 20
456.4295897150355
 30
0.0
 10
801.9580650496876
 20
456.2619856396724
 30
0.0
 10
802.2160648127979
 20
456.1177101440029
 30
0.0
 10
802.484385723874
 20
455.9982786860871
 30
0.0
 10
802.7618107862345
 20
455.9042235205354
 30
0.0
 10
803.0455229294807
 20
455.8370126274934
 30
0.0
 10
803.3338838078687
 20
455.7947175537995
 30
0.0
 10
803.5275318432484
 20
455.7894543476897
 30
0.0
 10
803.6243556529821
 20
455.7868227502869
 30
0.0
 11
803.6243556529821
 21
455.7868227502869
 31
0.0
 11
803.9144034147803
 21
455.8004403631394
 31
0.0
 11
804.201915339316
 21
455.841069922553
 31
0.0
 11
804.4856526491849
 21
455.9086370203914
 31
0.0
 11
804.7619261668401
 21
456.0021631664722
 31
0.0
 11
805.0306432289385
 21
456.1217067319097
 31
0.0
 11
805.287372489938
 21
456.2652077453448
 31
0.0
 11
805.5327897797203
 21
456.4331169180517
 31
0.0
 11
805.762288887973
 21
456.6222111827497
 31
0.0
 11
805.9768434470097
 21
456.8333447485795
 31
0.0
 11
806.172245266509
 21
457.0623261098931
 31
0.0
 11
806.3493486716495
 21
457.3101843458905
 31
0.0
 11
806.5047853084329
 21
457.5721798574226
 31
0.0
 11
806.6390385370561
 21
457.8491275656896
 31
0.0
 11
806.7498049528431
 21
458.1362807772183
 31
0.0
 11
806.8371627083162
 21
458.4338061636655
 31
0.0
 11
806.899859401831
 21
458.7374889482807
 31
0.0
 11
806.9377418218003
 21
459.0464843381531
 31
0.0
 11
806.950389326895
 21
459.3575369645581
 31
0.0
 11
806.9377418218004
 21
459.6685895909635
 31
0.0
 11
806.899859401831
 21
459.977584980836
 31
0.0
 11
806.8371627083161
 21
460.2812677654511
 31
0.0
 11
806.7498049528431
 21
460.5787931518983
 31
0.0
 11
806.639038537056
 21
460.865946363427
 31
0.0
 11
806.5047853084329
 21
461.142894071694
 31
0.0
 11
806.3493486716495
 21
461.4048895832261
 31
0.0
 11
806.172245266509
 21
461.6527478192237
 31
0.0
 11
805.9768434470099
 21
461.8817291805373
 31
0.0
 11
805.762288887973
 21
462.0928627463669
 31
0.0
 11
805.5327897797201
 21
462.2819570110647
 31
0.0
 11
805.287372489938
 21
462.4498661837714
 31
0.0
 11
805.0306432289385
 21
462.5933671972066
 31
0.0
 11
804.7619261668401
 21
462.7129107626444
 31
0.0
 11
804.4856526491848
 21
462.8064369087251
 31
0.0
 11
804.201915339316
 21
462.8740040065636
 31
0.0
 11
803.9144034147803
 21
462.9146335659773
 31
0.0
 11
803.6243556529821
 21
462.9282511788299
 31
0.0
 11
803.3343078911844
 21
462.9146335659773
 31
0.0
 11
803.0467959666489
 21
462.8740040065636
 31
0.0
 11
802.7630586567802
 21
462.806436908725
 31
0.0
 11
802.486785139125
 21
462.7129107626444
 31
0.0
 11
802.218068077026
 21
462.5933671972067
 31
0.0
 11
801.961338816026
 21
462.4498661837714
 31
0.0
 11
801.7159215262439
 21
462.2819570110647
 31
0.0
 11
801.486422417991
 21
462.0928627463669
 31
0.0
 11
801.2718678589544
 21
461.8817291805373
 31
0.0
 11
801.076466039455
 21
461.6527478192237
 31
0.0
 11
800.8993626343145
 21
461.4048895832262
 31
0.0
 11
800.7439259975311
 21
461.142894071694
 31
0.0
 11
800.609672768908
 21
460.865946363427
 31
0.0
 11
800.4989063531209
 21
460.5787931518983
 31
0.0
 11
800.4115485976478
 21
460.2812677654511
 31
0.0
 11
800.348851904133
 21
459.9775849808359
 31
0.0
 11
800.3109694841642
 21
459.6685895909635
 31
0.0
 11
800.2983219790699
 21
459.3575369645581
 31
0.0
 11
800.3109694841642
 21
459.0464843381531
 31
0.0
 11
800.348851904133
 21
458.7374889482807
 31
0.0
 11
800.4115485976478
 21
458.4338061636655
 31
0.0
 11
800.4989063531209
 21
458.1362807772182
 31
0.0
 11
800.609672768908
 21
457.8491275656896
 31
0.0
 11
800.7439259975311
 21
457.5721798574226
 31
0.0
 11
800.8993626343146
 21
457.3101843458905
 31
0.0
 11
801.076466039455
 21
457.0623261098931
 31
0.0
 11
801.2718678589544
 21
456.8333447485795
 31
0.0
 11
801.486422417991
 21
456.6222111827497
 31
0.0
 11
801.7159215262437
 21
456.4331169180516
 31
0.0
 11
801.961338816026
 21
456.2652077453448
 31
0.0
 11
802.2180680770262
 21
456.1217067319097
 31
0.0
 11
802.486785139125
 21
456.0021631664722
 31
0.0
 11
802.7630586567805
 21
455.9086370203915
 31
0.0
 11
803.0467959666489
 21
455.841069922553
 31
0.0
 11
803.3343078911844
 21
455.8004403631394
 31
0.0
 11
803.6243556529821
 21
455.7868227502869
 31
0.0
  0
SPLINE
  5
2E3
330
77
100
AcDbEntity
  8
1
  6
Continuous
 62
     7
100
AcDbSpline
210
0.0
220
0.0
230
1.0
 70
    11
 71
     3
 72
    79
 73
    75
 74
    73
 42
0.0000000001
 43
0.0000000001
 44
0.00000001
 40
0.0
 40
0.0
 40
0.0
 40
0.0
 40
0.290367256252954
 40
0.5807357597935812
 40
0.8724071051839472
 40
1.164081918217945
 40
1.458189931540165
 40
1.752302927360179
 40
2.049663207833504
 40
2.347029113126128
 40
2.648045792769284
 40
2.949067942938762
 40
3.253697753141482
 40
3.558332281909223
 40
3.866104864362618
 40
4.173881026138535
 40
4.483966067735111
 40
4.794053328114054
 40
5.105362224076036
 40
5.416671870214032
 40
5.727981516352307
 40
6.039290412314417
 40
6.349377672693383
 40
6.659462714289818
 40
6.967238876065853
 40
7.275011458519246
 40
7.579645987286939
 40
7.884275797489659
 40
8.185297947659137
 40
8.486314627302333
 40
8.783680532594813
 40
9.081040813068041
 40
9.37515380888811
 40
9.6692618222104
 40
9.960936635244307
 40
10.2526079806348
 40
10.54297648417531
 40
10.83334374042838
 40
11.12371099668145
 40
11.4140795002222
 40
11.7057508456126
 40
11.99742565864638
 40
12.29153367196865
 40
12.58564666778894
 40
12.88300694826208
 40
13.18037285355464
 40
13.4813895331978
 40
13.78241168336732
 40
14.08704149357004
 40
14.39167602233773
 40
14.69944860479113
 40
15.00722476656716
 40
15.31730980816365
 40
15.62739706854256
 40
15.93870596450463
 40
16.25001561064295
 40
16.561325256781
 40
16.87263415274295
 40
17.18272141312192
 40
17.49280645471846
 40
17.80058261649439
 40
18.10835519894778
 40
18.41298972771553
 40
18.71761953791824
 40
19.01864168808771
 40
19.31965836773087
 40
19.61702427302345
 40
19.91438455349681
 40
20.20849754931702
 40
20.50260556263924
 40
20.79428037567302
 40
21.08595172106339
 40
21.37632022460414
 40
21.6666874808572
 40
21.6666874808572
 40
21.6666874808572
 40
21.6666874808572
 10
779.3756443470179
 20
455.7868227502869
 30
0.0
 10
779.278820537284
 20
455.7894543476897
 30
0.0
 10
779.0851725019041
 20
455.7947175537996
 30
0.0
 10
778.7968116235157
 20
455.8370126274934
 30
0.0
 10
778.5130994802694
 20
455.9042235205354
 30
0.0
 10
778.2356744179092
 20
455.998278686087
 30
0.0
 10
777.9673535068334
 20
456.1177101440028
 30
0.0
 10
777.7093537437235
 20
456.2619856396726
 30
0.0
 10
777.4645517407012
 20
456.4295897150356
 30
0.0
 10
777.2338555158573
 20
456.6197522693367
 30
0.0
 10
777.0199598087887
 20
456.8303749897767
 30
0.0
 10
776.8235862664095
 20
457.0605966057256
 30
0.0
 10
776.6470369214401
 20
457.3078330292315
 30
0.0
 10
776.4909341249601
 20
457.5710672035789
 30
0.0
 10
776.3570451105381
 20
457.8474307582546
 30
0.0
 10
776.2459170937193
 20
458.135644202204
 30
0.0
 10
776.1587263339197
 20
458.4327826454394
 30
0.0
 10
776.0959007274608
 20
458.737205799549
 30
0.0
 10
776.0580521776875
 20
459.0461424119148
 30
0.0
 10
776.0453899157299
 20
459.3575369645585
 30
0.0
 10
776.0580521776872
 20
459.6689315172008
 30
0.0
 10
776.0959007274607
 20
459.9778681295711
 30
0.0
 10
776.1587263339202
 20
460.282291283664
 30
0.0
 10
776.2459170937193
 20
460.5794297269619
 30
0.0
 10
776.3570451105377
 20
460.8676431706796
 30
0.0
 10
776.4909341249603
 20
461.144006726216
 30
0.0
 10
776.6470369214406
 20
461.4072408973825
 30
0.0
 10
776.8235862664093
 20
461.6544773326874
 30
0.0
 10
777.0199598087886
 20
461.8846989051016
 30
0.0
 10
777.2338555158574
 20
462.0953217869524
 30
0.0
 10
777.4645517407012
 20
462.2854837458596
 30
0.0
 10
777.7093537437236
 20
462.4530900294792
 30
0.0
 10
777.9673535068333
 20
462.5973573699633
 30
0.0
 10
778.2356744179092
 20
462.7168191093206
 30
0.0
 10
778.5130994802694
 20
462.8107621563889
 30
0.0
 10
778.7968116235157
 20
462.8783901288365
 30
0.0
 10
779.085172501904
 20
462.9191352536851
 30
0.0
 10
779.3756443470181
 20
462.9328091316127
 30
0.0
 10
779.6661161921318
 20
462.9191352536853
 30
0.0
 10
779.9544770705203
 20
462.8783901288365
 30
0.0
 10
780.2381892137664
 20
462.8107621563887
 30
0.0
 10
780.5156142761266
 20
462.7168191093207
 30
0.0
 10
780.7839351872024
 20
462.5973573699633
 30
0.0
 10
781.0419349503125
 20
462.4530900294793
 30
0.0
 10
781.2867369533348
 20
462.2854837458596
 30
0.0
 10
781.5174331781788
 20
462.0953217869525
 30
0.0
 10
781.7313288852477
 20
461.8846989051017
 30
0.0
 10
781.9277024276266
 20
461.6544773326875
 30
0.0
 10
782.1042517725956
 20
461.4072408973824
 30
0.0
 10
782.2603545690758
 20
461.144006726216
 30
0.0
 10
782.3942435834983
 20
460.8676431706797
 30
0.0
 10
782.5053716003164
 20
460.5794297269617
 30
0.0
 10
782.5925623601163
 20
460.2822912836639
 30
0.0
 10
782.655387966575
 20
459.9778681295711
 30
0.0
 10
782.6932365163491
 20
459.6689315172008
 30
0.0
 10
782.7058987783062
 20
459.3575369645584
 30
0.0
 10
782.6932365163491
 20
459.0461424119147
 30
0.0
 10
782.6553879665753
 20
458.737205799549
 30
0.0
 10
782.5925623601161
 20
458.4327826454394
 30
0.0
 10
782.5053716003166
 20
458.1356442022041
 30
0.0
 10
782.3942435834982
 20
457.8474307582544
 30
0.0
 10
782.2603545690761
 20
457.5710672035791
 30
0.0
 10
782.1042517725957
 20
457.3078330292318
 30
0.0
 10
781.9277024276265
 20
457.0605966057253
 30
0.0
 10
781.7313288852474
 20
456.8303749897767
 30
0.0
 10
781.5174331781786
 20
456.6197522693369
 30
0.0
 10
781.2867369533349
 20
456.4295897150356
 30
0.0
 10
781.0419349503123
 20
456.2619856396724
 30
0.0
 10
780.7839351872026
 20
456.1177101440031
 30
0.0
 10
780.5156142761268
 20
455.998278686087
 30
0.0
 10
780.2381892137667
 20
455.9042235205355
 30
0.0
 10
779.9544770705199
 20
455.8370126274932
 30
0.0
 10
779.666116192132
 20
455.7947175537996
 30
0.0
 10
779.4724681567518
 20
455.7894543476896
 30
0.0
 10
779.3756443470179
 20
455.7868227502869
 30
0.0
 11
779.3756443470179
 21
455.7868227502869
 31
0.0
 11
779.0855965852198
 21
455.8004403631394
 31
0.0
 11
778.798084660684
 21
455.841069922553
 31
0.0
 11
778.5143473508153
 21
455.9086370203914
 31
0.0
 11
778.2380738331599
 21
456.0021631664721
 31
0.0
 11
777.9693567710615
 21
456.1217067319097
 31
0.0
 11
777.712627510062
 21
456.2652077453448
 31
0.0
 11
777.4672102202798
 21
456.4331169180517
 31
0.0
 11
777.237711112027
 21
456.6222111827497
 31
0.0
 11
777.0231565529903
 21
456.8333447485794
 31
0.0
 11
776.827754733491
 21
457.062326109893
 31
0.0
 11
776.6506513283505
 21
457.3101843458904
 31
0.0
 11
776.4952146915671
 21
457.5721798574226
 31
0.0
 11
776.3609614629442
 21
457.8491275656896
 31
0.0
 11
776.2501950471569
 21
458.1362807772182
 31
0.0
 11
776.1628372916837
 21
458.4338061636655
 31
0.0
 11
776.100140598169
 21
458.7374889482807
 31
0.0
 11
776.0622581782004
 21
459.0464843381531
 31
0.0
 11
776.0496106731059
 21
459.3575369645581
 31
0.0
 11
776.0622581782003
 21
459.6685895909634
 31
0.0
 11
776.100140598169
 21
459.9775849808359
 31
0.0
 11
776.1628372916838
 21
460.2812677654511
 31
0.0
 11
776.2501950471569
 21
460.5787931518983
 31
0.0
 11
776.360961462944
 21
460.865946363427
 31
0.0
 11
776.4952146915671
 21
461.142894071694
 31
0.0
 11
776.6506513283505
 21
461.4048895832261
 31
0.0
 11
776.827754733491
 21
461.6527478192236
 31
0.0
 11
777.0231565529903
 21
461.8817291805372
 31
0.0
 11
777.237711112027
 21
462.0928627463669
 31
0.0
 11
777.4672102202798
 21
462.2819570110647
 31
0.0
 11
777.712627510062
 21
462.4498661837714
 31
0.0
 11
777.9693567710615
 21
462.5933671972066
 31
0.0
 11
778.2380738331599
 21
462.7129107626444
 31
0.0
 11
778.5143473508152
 21
462.8064369087251
 31
0.0
 11
778.798084660684
 21
462.8740040065636
 31
0.0
 11
779.0855965852197
 21
462.9146335659772
 31
0.0
 11
779.3756443470179
 21
462.9282511788298
 31
0.0
 11
779.6656921088161
 21
462.9146335659773
 31
0.0
 11
779.953204033352
 21
462.8740040065636
 31
0.0
 11
780.2369413432207
 21
462.8064369087251
 31
0.0
 11
780.5132148608759
 21
462.7129107626444
 31
0.0
 11
780.7819319229743
 21
462.5933671972067
 31
0.0
 11
781.038661183974
 21
462.4498661837714
 31
0.0
 11
781.2840784737562
 21
462.2819570110647
 31
0.0
 11
781.513577582009
 21
462.0928627463669
 31
0.0
 11
781.7281321410458
 21
461.8817291805373
 31
0.0
 11
781.923533960545
 21
461.6527478192236
 31
0.0
 11
782.1006373656855
 21
461.4048895832261
 31
0.0
 11
782.256074002469
 21
461.142894071694
 31
0.0
 11
782.390327231092
 21
460.865946363427
 31
0.0
 11
782.5010936468791
 21
460.5787931518983
 31
0.0
 11
782.5884514023522
 21
460.2812677654511
 31
0.0
 11
782.651148095867
 21
459.9775849808359
 31
0.0
 11
782.6890305158358
 21
459.6685895909635
 31
0.0
 11
782.7016780209301
 21
459.3575369645581
 31
0.0
 11
782.6890305158358
 21
459.0464843381531
 31
0.0
 11
782.651148095867
 21
458.7374889482807
 31
0.0
 11
782.5884514023522
 21
458.4338061636655
 31
0.0
 11
782.5010936468791
 21
458.1362807772182
 31
0.0
 11
782.390327231092
 21
457.8491275656896
 31
0.0
 11
782.256074002469
 21
457.5721798574226
 31
0.0
 11
782.1006373656854
 21
457.3101843458905
 31
0.0
 11
781.923533960545
 21
457.062326109893
 31
0.0
 11
781.7281321410458
 21
456.8333447485794
 31
0.0
 11
781.513577582009
 21
456.6222111827497
 31
0.0
 11
781.2840784737563
 21
456.4331169180517
 31
0.0
 11
781.038661183974
 21
456.2652077453448
 31
0.0
 11
780.7819319229743
 21
456.1217067319097
 31
0.0
 11
780.5132148608759
 21
456.0021631664721
 31
0.0
 11
780.2369413432207
 21
455.9086370203914
 31
0.0
 11
779.953204033352
 21
455.841069922553
 31
0.0
 11
779.6656921088161
 21
455.8004403631394
 31
0.0
 11
779.3756443470179
 21
455.7868227502869
 31
0.0
  0
ARC
  5
2E4
330
77
100
AcDbEntity
  8
1
  6
Continuous
 62
     7
100
AcDbCircle
 10
781.7320508075691
 20
454.4999999999999
 30
0.0
 40
1.000000000000252
100
AcDbArc
 50
-137.0585971351205
 51
-90.0
  0
ARC
  5
2E5
330
77
100
AcDbEntity
  8
1
  6
Continuous
 62
     7
100
AcDbCircle
 10
779.94197893827
 20
455.4999999999999
 30
0.0
 40
0.9999999999994861
100
AcDbArc
 50
-105.3375576695804
 51
-90.0
  0
ARC
  5
2E6
330
77
100
AcDbEntity
  8
1
  6
Continuous
 62
     7
100
AcDbCircle
 10
781.7320508075691
 20
454.4999999999999
 30
0.0
 40
0.9999999999996883
100
AcDbArc
 50
-149.9999999999897
 51
-137.0585971351205
  0
ARC
  5
2E7
330
77
100
AcDbEntity
  8
1
  6
Continuous
 62
     7
100
AcDbCircle
 10
780.0
 20
453.4999999999999
 30
0.0
 40
1.000000000000476
100
AcDbArc
 50
29.99999999998426
 51
90.0
  0
ARC
  5
2E8
330
77
100
AcDbEntity
  8
1
  6
Continuous
 62
     7
100
AcDbCircle
 10
801.2679491924309
 20
454.5
 30
0.0
 40
1.0
100
AcDbArc
 50
-90.0
 51
-42.94140286488425
  0
ARC
  5
2E9
330
77
100
AcDbEntity
  8
1
  6
Continuous
 62
     7
100
AcDbCircle
 10
803.05802106173
 20
455.5
 30
0.0
 40
1.0
100
AcDbArc
 50
-90.0
 51
-74.66244233041964
  0
ARC
  5
2EA
330
77
100
AcDbEntity
  8
1
  6
Continuous
 62
     7
100
AcDbCircle
 10
801.2679491924309
 20
454.5
 30
0.0
 40
1.00000000000033
100
AcDbArc
 50
-42.94140286488425
 51
-29.99999999998426
  0
ARC
  5
2EB
330
77
100
AcDbEntity
  8
1
  6
Continuous
 62
     7
100
AcDbCircle
 10
803.0
 20
453.5
 30
0.0
 40
1.0
100
AcDbArc
 50
90.0
 51
149.9999999999897
  0
ENDBLK
  5
79
330
77
100
AcDbEntity
  8
0
100
AcDbBlockEnd
  0
BLOCK
  5
7B
330
7A
100
AcDbEntity
  8
0
100
AcDbBlockBegin
  2
60-7-170
 70
     0
 71
     0
 10
526.1698834595391
 20
397.2748743267712
 30
0.0
  3
60-7-170
  1

  0
LINE
  5
2EC
330
7A
100
AcDbEntity
  8
1
  6
Continuous
 62
     7
100
AcDbLine
 10
799.5000000000002
 20
453.4999999999999
 30
0.0
 11
799.5000000000001
 21
446.1431119252015
 31
0.0
  0
LINE
  5
2ED
330
7A
100
AcDbEntity
  8
1
  6
Continuous
 62
     7
100
AcDbLine
 10
427.0249999999903
 20
453.500000000011
 30
0.0
 11
427.0250000000001
 21
430.2370732059392
 31
0.0
  0
LINE
  5
2EE
330
7A
100
AcDbEntity
  8
1
  6
Continuous
 62
     7
100
AcDbLine
 10
783.4749999999999
 20
446.9276062768822
 30
0.0
 11
783.4749999999999
 21
453.5053215443517
 31
0.0
  0
LINE
  5
2EF
330
7A
100
AcDbEntity
  8
1
  6
Continuous
 62
     7
100
AcDbLine
 10
649.5
 20
429.0003089814581
 30
0.0
 11
766.3975047606093
 21
429.0003089814581
 31
0.0
  0
LINE
  5
2F0
330
7A
100
AcDbEntity
  8
1
  6
Continuous
 62
     7
100
AcDbLine
 10
649.5
 20
413.0003089814581
 30
0.0
 11
766.3571970562298
 21
413.0003089814581
 31
0.0
  0
LINE
  5
2F1
330
7A
100
AcDbEntity
  8
1
  6
Continuous
 62
     7
100
AcDbLine
 10
411.0250000000001
 20
430.285491838147
 30
0.0
 11
411.0250000000002
 21
453.500000000011
 31
0.0
  0
LINE
  5
2F2
330
7A
100
AcDbEntity
  8
1
  6
Continuous
 62
     7
100
AcDbLine
 10
411.0000000000041
 20
889.9598560561653
 30
0.0
 11
411.0000000000041
 21
943.4535332249461
 31
0.0
  0
LINE
  5
2F3
330
7A
100
AcDbEntity
  8
1
  6
Continuous
 62
     7
100
AcDbLine
 10
427.0000000000041
 20
943.4535332249461
 30
0.0
 11
427.0000000000041
 21
889.9114374239571
 31
0.0
  0
ARC
  5
2F4
330
7A
100
AcDbEntity
  8
1
  6
Continuous
 62
     7
100
AcDbCircle
 10
766.5
 20
446.0003089814581
 30
0.0
 40
33.00030897856487
100
AcDbArc
 50
-90.24793802752737
 51
0.24793802748078
  0
ARC
  5
2F5
330
7A
100
AcDbEntity
  8
1
  6
Continuous
 62
     7
100
AcDbCircle
 10
766.5
 20
446.0003089814581
 30
0.0
 40
17.00030897584211
100
AcDbArc
 50
-90.34543961660678
 51
3.12680215378939
  0
ENDBLK
  5
7C
330
7A
100
AcDbEntity
  8
0
100
AcDbBlockEnd
  0
BLOCK
  5
7E
330
7D
100
AcDbEntity
  8
0
100
AcDbBlockBegin
  2
32-1-16__16
 70
     0
 71
     0
 10
701.7583703106559
 20
546.6128604419326
 30
0.0
  3
32-1-16__16
  1

  0
LINE
  5
2F6
330
7D
100
AcDbEntity
  8
1
  6
Continuous
 62
     7
100
AcDbLine
 10
419.0
 20
454.500000000011
 30
0.0
 11
409.2320508075691
 21
454.500000000011
 31
0.0
  0
LINE
  5
2F7
330
7D
100
AcDbEntity
  8
1
  6
Continuous
 62
     7
100
AcDbLine
 10
407.5
 20
454.500000000011
 30
0.0
 11
407.4419789382689
 21
454.500000000011
 31
0.0
  0
LINE
  5
2F8
330
7D
100
AcDbEntity
  8
1
  6
Continuous
 62
     7
100
AcDbLine
 10
419.0
 20
463.500000000011
 30
0.0
 11
405.7000000000001
 21
463.500000000011
 31
0.0
  0
LINE
  5
2F9
330
7D
100
AcDbEntity
  8
1
  6
Continuous
 62
     7
100
AcDbLine
 10
409.2320508075691
 20
453.500000000011
 30
0.0
 11
410.8
 21
453.500000000011
 31
0.0
  0
LINE
  5
2FA
330
7D
100
AcDbEntity
  8
1
  6
Continuous
 62
     7
100
AcDbLine
 10
405.0
 20
455.786822750298
 30
0.0
 11
405.0
 21
462.9282511788409
 31
0.0
  0
LINE
  5
2FB
330
7D
100
AcDbEntity
  8
1
  6
Continuous
 62
     7
100
AcDbLine
 10
410.8
 20
453.500000000011
 30
0.0
 11
419.0
 21
453.500000000011
 31
0.0
  0
LINE
  5
2FC
330
7D
100
AcDbEntity
  8
1
  6
Continuous
 62
     7
100
AcDbLine
 10
428.7679491924309
 20
454.500000000011
 30
0.0
 11
419.0
 21
454.500000000011
 31
0.0
  0
LINE
  5
2FD
330
7D
100
AcDbEntity
  8
1
  6
Continuous
 62
     7
100
AcDbLine
 10
430.55802106173
 20
454.500000000011
 30
0.0
 11
430.5
 21
454.500000000011
 31
0.0
  0
LINE
  5
2FE
330
7D
100
AcDbEntity
  8
1
  6
Continuous
 62
     7
100
AcDbLine
 10
432.3
 20
463.500000000011
 30
0.0
 11
419.0
 21
463.500000000011
 31
0.0
  0
LINE
  5
2FF
330
7D
100
AcDbEntity
  8
1
  6
Continuous
 62
     7
100
AcDbLine
 10
427.2000000000001
 20
453.500000000011
 30
0.0
 11
428.7679491924309
 21
453.500000000011
 31
0.0
  0
LINE
  5
300
330
7D
100
AcDbEntity
  8
1
  6
Continuous
 62
     7
100
AcDbLine
 10
433.0
 20
462.9282511788409
 30
0.0
 11
433.0
 21
455.786822750298
 31
0.0
  0
LINE
  5
301
330
7D
100
AcDbEntity
  8
1
  6
Continuous
 62
     7
100
AcDbLine
 10
419.0
 20
453.500000000011
 30
0.0
 11
427.2000000000001
 21
453.500000000011
 31
0.0
  0
ARC
  5
302
330
7D
100
AcDbEntity
  8
1
  6
Continuous
 62
     7
100
AcDbCircle
 10
408.5
 20
459.3575369645696
 30
0.0
 40
4.999999999999812
100
AcDbArc
 50
124.055797742568
 51
134.4270040008064
  0
ARC
  5
303
330
7D
100
AcDbEntity
  8
1
  6
Continuous
 62
     7
100
AcDbCircle
 10
408.5
 20
459.3575369645696
 30
0.0
 40
5.000000000000138
100
AcDbArc
 50
-134.4270040008042
 51
-105.3375576695506
  0
ARC
  5
304
330
7D
100
AcDbEntity
  8
1
  6
Continuous
 62
     7
100
AcDbCircle
 10
429.5
 20
459.3575369645696
 30
0.0
 40
4.999999999999934
100
AcDbArc
 50
45.57299599919357
 51
55.94420225743097
  0
ARC
  5
305
330
7D
100
AcDbEntity
  8
1
  6
Continuous
 62
     7
100
AcDbCircle
 10
429.5
 20
459.3575369645696
 30
0.0
 40
5.00000000000002
100
AcDbArc
 50
-74.66244233044938
 51
-45.57299599919585
  0
SPLINE
  5
306
330
7D
100
AcDbEntity
  8
1
  6
Continuous
 62
     7
100
AcDbSpline
210
0.0
220
0.0
230
1.0
 70
     8
 71
     3
 72
    43
 73
    39
 74
    37
 42
0.0000000001
 43
0.0000000001
 44
0.00000001
 40
0.0
 40
0.0
 40
0.0
 40
0.0
 40
0.5012710906059787
 40
1.001984470899559
 40
1.493602134272575
 40
1.985705227943832
 40
2.512425585345341
 40
3.038783447864313
 40
3.434645320389538
 40
3.830703187905419
 40
4.329133508878746
 40
4.827210810688932
 40
5.131964616372935
 40
5.436749660626148
 40
5.790243661844938
 40
6.143721616677468
 40
6.471929725797348
 40
6.800020652062747
 40
7.113894046109621
 40
7.42771207941535
 40
7.741528936074879
 40
8.055403667265047
 40
8.383501461407381
 40
8.711702501440334
 40
9.065150496484089
 40
9.418674357561331
 40
9.803674808931504
 40
10.18871464436671
 40
10.60671041348096
 40
11.02475421452663
 40
11.47339319184182
 40
11.92198656269379
 40
12.39577736518498
 40
12.86975784123579
 40
13.36182388263367
 40
13.85347803440255
 40
14.354203642144
 40
14.85546266185673
 40
14.85546266185673
 40
14.85546266185673
 40
14.85546266185673
 10
426.0
 20
462.9282511788409
 30
0.0
 10
426.1670095304401
 20
462.9230791245856
 30
0.0
 10
426.500842777817
 20
462.9127407704625
 30
0.0
 10
426.997895957014
 20
462.8800003027652
 30
0.0
 10
427.4886068217025
 20
462.8134014832062
 30
0.0
 10
427.9826519126268
 20
462.7150659905871
 30
0.0
 10
428.4815648491384
 20
462.5858071544316
 30
0.0
 10
428.9403748188064
 20
462.4335652143013
 30
0.0
 10
429.3476775533198
 20
462.2679870344786
 30
0.0
 10
429.7357725912158
 20
462.081939239503
 30
0.0
 10
430.1389405990479
 20
461.850684476995
 30
0.0
 10
430.4936106132874
 20
461.599555401301
 30
0.0
 10
430.7751216096531
 20
461.3602262376002
 30
0.0
 10
431.0036748479213
 20
461.1343527803539
 30
0.0
 10
431.2218208244598
 20
460.8763805346682
 30
0.0
 10
431.4150092820253
 20
460.589511012185
 30
0.0
 10
431.568814067653
 20
460.2892142913267
 30
0.0
 10
431.6791017841692
 20
459.9841662820473
 30
0.0
 10
431.7456921602453
 20
459.6716104054715
 30
0.0
 10
431.7684417683724
 20
459.3575373951769
 30
0.0
 10
431.7456938956753
 20
459.0434637102438
 30
0.0
 10
431.6791016311872
 20
458.7309057168305
 30
0.0
 10
431.5688105833352
 20
458.4258583726958
 30
0.0
 10
431.4150138734347
 20
458.1255701494981
 30
0.0
 10
431.2218240554622
 20
457.838699031993
 30
0.0
 10
430.9863923835944
 20
457.5602882808919
 30
0.0
 10
430.7167402608206
 20
457.2994922770622
 30
0.0
 10
430.4075646585863
 20
457.0512681223597
 30
0.0
 10
430.0695053407055
 20
456.8237357228361
 30
0.0
 10
429.6963384558038
 20
456.6129120471426
 30
0.0
 10
429.2998253099929
 20
456.4249734369348
 30
0.0
 10
428.8741757031294
 20
456.2577230705563
 30
0.0
 10
428.4306171660641
 20
456.1156123990534
 30
0.0
 10
427.9654164600374
 20
455.9965819665106
 30
0.0
 10
427.4886157541163
 20
455.9016872910953
 30
0.0
 10
426.9979047295872
 20
455.8350721736363
 30
0.0
 10
426.5008389265383
 20
455.8023266174915
 30
0.0
 10
426.167005548185
 20
455.7919925398302
 30
0.0
 10
426.0
 20
455.786822750298
 30
0.0
 11
426.0
 21
462.9282511788409
 31
0.0
 11
426.5009323267773
 21
462.9098253744674
 31
0.0
 11
427.000362721134
 21
462.8740040065749
 31
0.0
 11
427.4875902878375
 21
462.8084507825159
 31
0.0
 11
427.9703299271939
 21
462.7129107626557
 31
0.0
 11
428.4800403382753
 21
462.5801341391995
 31
0.0
 11
428.9793875390219
 21
462.4136860315441
 31
0.0
 11
429.3459946462108
 21
462.264334596741
 31
0.0
 11
429.7030089861951
 21
462.0928627463782
 31
0.0
 11
430.1348156239566
 21
461.8439133289243
 31
0.0
 11
430.5406170814949
 21
461.555112055315
 31
0.0
 11
430.7725488681747
 21
461.3574190397419
 31
0.0
 11
430.989050510869
 21
461.1428940717053
 31
0.0
 11
431.2167006275049
 21
460.8724621333302
 31
0.0
 11
431.41343698384
 21
460.5787931519096
 31
0.0
 11
431.5624902748906
 21
460.2863830301303
 31
0.0
 11
431.6733389133881
 21
459.9775849808473
 31
0.0
 11
431.738553492296
 21
459.6705612583301
 31
0.0
 11
431.760859310901
 21
459.3575369645696
 31
0.0
 11
431.7385548195437
 21
459.044513755863
 31
0.0
 11
431.6733389133881
 21
458.737488948292
 31
0.0
 11
431.5624860462831
 21
458.4286851199873
 31
0.0
 11
431.41343698384
 21
458.1362807772296
 31
0.0
 11
431.216717905881
 21
457.8426362820192
 31
0.0
 11
430.989050510869
 21
457.5721798574339
 31
0.0
 11
430.7128529688297
 21
457.3039630322222
 31
0.0
 11
430.4130742627069
 21
457.0623261099041
 31
0.0
 11
430.0666718211609
 21
456.8283906241642
 31
0.0
 11
429.7030089861951
 21
456.622211182761
 31
0.0
 11
429.2977940004245
 21
456.4296553537831
 31
0.0
 11
428.8804296554511
 21
456.2652077453564
 31
0.0
 11
428.4293889209307
 21
456.1201560982491
 31
0.0
 11
427.9703299271939
 21
456.0021631664832
 31
0.0
 11
427.4876250794633
 21
455.906638200771
 31
0.0
 11
427.000362721134
 21
455.8410699225642
 31
0.0
 11
426.5009204369353
 21
455.8052434100015
 31
0.0
 11
426.0
 21
455.786822750298
 31
0.0
  0
SPLINE
  5
307
330
7D
100
AcDbEntity
  8
1
  6
Continuous
 62
     7
100
AcDbSpline
210
0.0
220
0.0
230
1.0
 70
     8
 71
     3
 72
    43
 73
    39
 74
    37
 42
0.0000000001
 43
0.0000000001
 44
0.00000001
 40
0.0
 40
0.0
 40
0.0
 40
0.0
 40
0.5012710906059787
 40
1.001984470899559
 40
1.493602134272575
 40
1.985705227943832
 40
2.512425585345231
 40
3.038783447864311
 40
3.434645320389483
 40
3.830703187905415
 40
4.329133508878742
 40
4.827210810688928
 40
5.13196461637293
 40
5.436749660626144
 40
5.790243661844934
 40
6.143721616677464
 40
6.471929725797343
 40
6.800020652062742
 40
7.113894046109617
 40
7.427712079415346
 40
7.741528936074882
 40
8.055403667265026
 40
8.383501461407379
 40
8.711702501440305
 40
9.06515049648406
 40
9.418674357561303
 40
9.803674808931884
 40
10.18871464436736
 40
10.60671041348116
 40
11.0247542145265
 40
11.47339319184179
 40
11.92198656269376
 40
12.39577736518485
 40
12.86975784123565
 40
13.36182388263353
 40
13.85347803440242
 40
14.35420364214386
 40
14.85546266185659
 40
14.85546266185659
 40
14.85546266185659
 40
14.85546266185659
 10
426.0
 20
462.9282511788409
 30
0.0
 10
425.83299046956
 20
462.9230791245856
 30
0.0
 10
425.499157222183
 20
462.9127407704625
 30
0.0
 10
425.0021040429861
 20
462.8800003027652
 30
0.0
 10
424.5113931782975
 20
462.8134014832061
 30
0.0
 10
424.0173480873733
 20
462.7150659905872
 30
0.0
 10
423.5184351508617
 20
462.5858071544314
 30
0.0
 10
423.0596251811939
 20
462.4335652143016
 30
0.0
 10
422.6523224466801
 20
462.2679870344784
 30
0.0
 10
422.2642274087845
 20
462.0819392395032
 30
0.0
 10
421.8610594009521
 20
461.850684476995
 30
0.0
 10
421.5063893867127
 20
461.599555401301
 30
0.0
 10
421.2248783903469
 20
461.3602262376002
 30
0.0
 10
420.9963251520788
 20
461.1343527803539
 30
0.0
 10
420.7781791755403
 20
460.8763805346682
 30
0.0
 10
420.5849907179749
 20
460.589511012185
 30
0.0
 10
420.4311859323469
 20
460.2892142913267
 30
0.0
 10
420.3208982158311
 20
459.9841662820472
 30
0.0
 10
420.2543078397547
 20
459.6716104054717
 30
0.0
 10
420.2315582316275
 20
459.3575373951766
 30
0.0
 10
420.2543061043251
 20
459.0434637102438
 30
0.0
 10
420.3208983688126
 20
458.7309057168304
 30
0.0
 10
420.4311894166651
 20
458.4258583726958
 30
0.0
 10
420.5849861265652
 20
458.1255701494983
 30
0.0
 10
420.7781759445379
 20
457.8386990319929
 30
0.0
 10
421.0136076164056
 20
457.5602882808918
 30
0.0
 10
421.2832597391796
 20
457.2994922770622
 30
0.0
 10
421.5924353414146
 20
457.0512681223598
 30
0.0
 10
421.9304946592951
 20
456.823735722836
 30
0.0
 10
422.3036615441963
 20
456.6129120471425
 30
0.0
 10
422.7001746900074
 20
456.4249734369348
 30
0.0
 10
423.1258242968706
 20
456.2577230705564
 30
0.0
 10
423.569382833936
 20
456.1156123990533
 30
0.0
 10
424.0345835399625
 20
455.9965819665106
 30
0.0
 10
424.5113842458839
 20
455.9016872910954
 30
0.0
 10
425.0020952704128
 20
455.8350721736362
 30
0.0
 10
425.4991610734617
 20
455.8023266174915
 30
0.0
 10
425.8329944518152
 20
455.7919925398302
 30
0.0
 10
426.0
 20
455.786822750298
 30
0.0
 11
426.0
 21
462.9282511788409
 31
0.0
 11
425.4990676732227
 21
462.9098253744674
 31
0.0
 11
424.999637278866
 21
462.8740040065749
 31
0.0
 11
424.5124097121625
 21
462.8084507825159
 31
0.0
 11
424.0296700728061
 21
462.7129107626557
 31
0.0
 11
423.5199596617248
 21
462.5801341391995
 31
0.0
 11
423.0206124609781
 21
462.4136860315441
 31
0.0
 11
422.6540053537892
 21
462.264334596741
 31
0.0
 11
422.2969910138049
 21
462.0928627463782
 31
0.0
 11
421.8651843760434
 21
461.8439133289243
 31
0.0
 11
421.4593829185051
 21
461.555112055315
 31
0.0
 11
421.2274511318253
 21
461.3574190397419
 31
0.0
 11
421.010949489131
 21
461.1428940717053
 31
0.0
 11
420.7832993724952
 21
460.8724621333302
 31
0.0
 11
420.58656301616
 21
460.5787931519096
 31
0.0
 11
420.4375097251094
 21
460.2863830301303
 31
0.0
 11
420.3266610866119
 21
459.9775849808473
 31
0.0
 11
420.261446507704
 21
459.6705612583301
 31
0.0
 11
420.239140689099
 21
459.3575369645696
 31
0.0
 11
420.2614451804565
 21
459.044513755863
 31
0.0
 11
420.3266610866119
 21
458.737488948292
 31
0.0
 11
420.437513953717
 21
458.4286851199873
 31
0.0
 11
420.58656301616
 21
458.1362807772296
 31
0.0
 11
420.783282094119
 21
457.8426362820192
 31
0.0
 11
421.010949489131
 21
457.5721798574339
 31
0.0
 11
421.2871470311709
 21
457.3039630322222
 31
0.0
 11
421.586925737294
 21
457.0623261099041
 31
0.0
 11
421.9333281788395
 21
456.8283906241643
 31
0.0
 11
422.2969910138049
 21
456.622211182761
 31
0.0
 11
422.7022059995756
 21
456.4296553537831
 31
0.0
 11
423.119570344549
 21
456.2652077453564
 31
0.0
 11
423.5706110790693
 21
456.1201560982491
 31
0.0
 11
424.0296700728061
 21
456.0021631664832
 31
0.0
 11
424.5123749205367
 21
455.906638200771
 31
0.0
 11
424.999637278866
 21
455.8410699225642
 31
0.0
 11
425.4990795630647
 21
455.8052434100015
 31
0.0
 11
426.0
 21
455.786822750298
 31
0.0
  0
SPLINE
  5
308
330
7D
100
AcDbEntity
  8
1
  6
Continuous
 62
     7
100
AcDbSpline
210
0.0
220
0.0
230
1.0
 70
     8
 71
     3
 72
    43
 73
    39
 74
    37
 42
0.0000000001
 43
0.0000000001
 44
0.00000001
 40
0.0
 40
0.0
 40
0.0
 40
0.0
 40
0.5012710906059787
 40
1.001984470899559
 40
1.493602134272575
 40
1.985705227943832
 40
2.512425585345231
 40
3.038783447864311
 40
3.434645320389483
 40
3.830703187905415
 40
4.329133508878742
 40
4.827210810688928
 40
5.13196461637293
 40
5.436749660626144
 40
5.790243661844971
 40
6.143721616677469
 40
6.471929725797246
 40
6.800020652062737
 40
7.11389404610973
 40
7.427712079415495
 40
7.741528936075051
 40
8.055403667265361
 40
8.383501461407752
 40
8.711702501440627
 40
9.06515049648432
 40
9.418674357561635
 40
9.803674808932216
 40
10.18871464436769
 40
10.60671041348149
 40
11.02475421452683
 40
11.47339319184212
 40
11.92198656269409
 40
12.39577736518518
 40
12.86975784123598
 40
13.36182388263386
 40
13.85347803440275
 40
14.35420364214419
 40
14.85546266185692
 40
14.85546266185692
 40
14.85546266185692
 40
14.85546266185692
 10
412.0
 20
462.9282511788409
 30
0.0
 10
411.83299046956
 20
462.9230791245856
 30
0.0
 10
411.499157222183
 20
462.9127407704625
 30
0.0
 10
411.0021040429861
 20
462.8800003027652
 30
0.0
 10
410.5113931782976
 20
462.8134014832061
 30
0.0
 10
410.0173480873732
 20
462.7150659905872
 30
0.0
 10
409.5184351508617
 20
462.5858071544314
 30
0.0
 10
409.059625181194
 20
462.4335652143016
 30
0.0
 10
408.6523224466799
 20
462.2679870344784
 30
0.0
 10
408.2642274087845
 20
462.0819392395032
 30
0.0
 10
407.8610594009521
 20
461.850684476995
 30
0.0
 10
407.5063893867127
 20
461.599555401301
 30
0.0
 10
407.2248783903469
 20
461.3602262376003
 30
0.0
 10
406.9963251520788
 20
461.1343527803538
 30
0.0
 10
406.7781791755404
 20
460.8763805346685
 30
0.0
 10
406.5849907179746
 20
460.5895110121846
 30
0.0
 10
406.4311859323471
 20
460.2892142913269
 30
0.0
 10
406.3208982158312
 20
459.9841662820471
 30
0.0
 10
406.2543078397541
 20
459.6716104054715
 30
0.0
 10
406.2315582316264
 20
459.3575373951769
 30
0.0
 10
406.2543061043241
 20
459.0434637102437
 30
0.0
 10
406.3208983688127
 20
458.7309057168305
 30
0.0
 10
406.4311894166651
 20
458.4258583726958
 30
0.0
 10
406.5849861265652
 20
458.1255701494982
 30
0.0
 10
406.7781759445377
 20
457.8386990319928
 30
0.0
 10
407.0136076164057
 20
457.5602882808919
 30
0.0
 10
407.2832597391798
 20
457.2994922770623
 30
0.0
 10
407.5924353414145
 20
457.0512681223599
 30
0.0
 10
407.9304946592951
 20
456.823735722836
 30
0.0
 10
408.3036615441963
 20
456.6129120471425
 30
0.0
 10
408.7001746900074
 20
456.4249734369348
 30
0.0
 10
409.1258242968708
 20
456.2577230705564
 30
0.0
 10
409.569382833936
 20
456.1156123990533
 30
0.0
 10
410.0345835399625
 20
455.9965819665106
 30
0.0
 10
410.5113842458837
 20
455.9016872910954
 30
0.0
 10
411.0020952704128
 20
455.8350721736362
 30
0.0
 10
411.4991610734617
 20
455.8023266174915
 30
0.0
 10
411.8329944518152
 20
455.7919925398302
 30
0.0
 10
412.0
 20
455.786822750298
 30
0.0
 11
412.0
 21
462.9282511788409
 31
0.0
 11
411.4990676732227
 21
462.9098253744674
 31
0.0
 11
410.999637278866
 21
462.8740040065749
 31
0.0
 11
410.5124097121625
 21
462.8084507825159
 31
0.0
 11
410.0296700728061
 21
462.7129107626557
 31
0.0
 11
409.5199596617248
 21
462.5801341391995
 31
0.0
 11
409.0206124609781
 21
462.4136860315441
 31
0.0
 11
408.6540053537892
 21
462.264334596741
 31
0.0
 11
408.2969910138049
 21
462.0928627463782
 31
0.0
 11
407.8651843760434
 21
461.8439133289243
 31
0.0
 11
407.4593829185051
 21
461.555112055315
 31
0.0
 11
407.2274511318253
 21
461.3574190397419
 31
0.0
 11
407.010949489131
 21
461.1428940717053
 31
0.0
 11
406.7832993724951
 21
460.8724621333302
 31
0.0
 11
406.58656301616
 21
460.5787931519096
 31
0.0
 11
406.4375097251095
 21
460.2863830301303
 31
0.0
 11
406.3266610866119
 21
459.9775849808473
 31
0.0
 11
406.2614465077034
 21
459.6705612583301
 31
0.0
 11
406.2391406890979
 21
459.3575369645696
 31
0.0
 11
406.2614451804557
 21
459.044513755863
 31
0.0
 11
406.3266610866119
 21
458.737488948292
 31
0.0
 11
406.4375139537171
 21
458.4286851199873
 31
0.0
 11
406.58656301616
 21
458.1362807772296
 31
0.0
 11
406.7832820941189
 21
457.8426362820192
 31
0.0
 11
407.010949489131
 21
457.5721798574339
 31
0.0
 11
407.2871470311709
 21
457.3039630322222
 31
0.0
 11
407.586925737294
 21
457.0623261099041
 31
0.0
 11
407.9333281788395
 21
456.8283906241643
 31
0.0
 11
408.2969910138049
 21
456.622211182761
 31
0.0
 11
408.7022059995756
 21
456.4296553537831
 31
0.0
 11
409.119570344549
 21
456.2652077453564
 31
0.0
 11
409.5706110790693
 21
456.1201560982491
 31
0.0
 11
410.0296700728061
 21
456.0021631664832
 31
0.0
 11
410.5123749205367
 21
455.906638200771
 31
0.0
 11
410.999637278866
 21
455.8410699225642
 31
0.0
 11
411.4990795630647
 21
455.8052434100015
 31
0.0
 11
412.0
 21
455.786822750298
 31
0.0
  0
SPLINE
  5
309
330
7D
100
AcDbEntity
  8
1
  6
Continuous
 62
     7
100
AcDbSpline
210
0.0
220
0.0
230
1.0
 70
     8
 71
     3
 72
    43
 73
    39
 74
    37
 42
0.0000000001
 43
0.0000000001
 44
0.00000001
 40
0.0
 40
0.0
 40
0.0
 40
0.0
 40
0.5012710906059787
 40
1.001984470899559
 40
1.493602134272575
 40
1.985705227943832
 40
2.512425585345341
 40
3.038783447864313
 40
3.434645320389538
 40
3.830703187905419
 40
4.329133508878746
 40
4.827210810688932
 40
5.131964616372935
 40
5.436749660626148
 40
5.790243661844938
 40
6.143721616677468
 40
6.471929725797348
 40
6.800020652062747
 40
7.113894046109621
 40
7.42771207941535
 40
7.741528936074879
 40
8.055403667265047
 40
8.3835014614074
 40
8.711702501440326
 40
9.065150496484081
 40
9.418674357561324
 40
9.803674808931906
 40
10.18871464436738
 40
10.60671041348119
 40
11.02475421452652
 40
11.47339319184171
 40
11.92198656269368
 40
12.39577736518487
 40
12.86975784123568
 40
13.36182388263356
 40
13.85347803440244
 40
14.35420364214389
 40
14.85546266185662
 40
14.85546266185662
 40
14.85546266185662
 40
14.85546266185662
 10
412.0
 20
462.9282511788409
 30
0.0
 10
412.1670095304401
 20
462.9230791245856
 30
0.0
 10
412.5008427778169
 20
462.9127407704625
 30
0.0
 10
412.9978959570141
 20
462.8800003027652
 30
0.0
 10
413.4886068217024
 20
462.8134014832062
 30
0.0
 10
413.9826519126268
 20
462.7150659905871
 30
0.0
 10
414.4815648491384
 20
462.5858071544316
 30
0.0
 10
414.9403748188064
 20
462.4335652143013
 30
0.0
 10
415.3476775533198
 20
462.2679870344786
 30
0.0
 10
415.7357725912157
 20
462.081939239503
 30
0.0
 10
416.1389405990479
 20
461.850684476995
 30
0.0
 10
416.4936106132874
 20
461.599555401301
 30
0.0
 10
416.7751216096531
 20
461.3602262376002
 30
0.0
 10
417.0036748479212
 20
461.1343527803539
 30
0.0
 10
417.2218208244598
 20
460.8763805346682
 30
0.0
 10
417.4150092820253
 20
460.589511012185
 30
0.0
 10
417.568814067653
 20
460.2892142913267
 30
0.0
 10
417.6791017841692
 20
459.9841662820473
 30
0.0
 10
417.7456921602453
 20
459.6716104054715
 30
0.0
 10
417.7684417683724
 20
459.3575373951769
 30
0.0
 10
417.7456938956752
 20
459.0434637102437
 30
0.0
 10
417.6791016311872
 20
458.7309057168304
 30
0.0
 10
417.568810583335
 20
458.4258583726958
 30
0.0
 10
417.4150138734349
 20
458.1255701494985
 30
0.0
 10
417.221824055462
 20
457.8386990319926
 30
0.0
 10
416.9863923835944
 20
457.5602882808919
 30
0.0
 10
416.7167402608201
 20
457.2994922770622
 30
0.0
 10
416.4075646585856
 20
457.0512681223598
 30
0.0
 10
416.0695053407048
 20
456.823735722836
 30
0.0
 10
415.6963384558037
 20
456.6129120471425
 30
0.0
 10
415.2998253099927
 20
456.4249734369347
 30
0.0
 10
414.8741757031295
 20
456.2577230705564
 30
0.0
 10
414.430617166064
 20
456.1156123990533
 30
0.0
 10
413.9654164600375
 20
455.9965819665106
 30
0.0
 10
413.4886157541162
 20
455.9016872910953
 30
0.0
 10
412.9979047295872
 20
455.8350721736363
 30
0.0
 10
412.5008389265382
 20
455.8023266174915
 30
0.0
 10
412.167005548185
 20
455.7919925398302
 30
0.0
 10
412.0
 20
455.786822750298
 30
0.0
 11
412.0
 21
462.9282511788409
 31
0.0
 11
412.5009323267773
 21
462.9098253744674
 31
0.0
 11
413.000362721134
 21
462.8740040065749
 31
0.0
 11
413.4875902878375
 21
462.8084507825159
 31
0.0
 11
413.9703299271939
 21
462.7129107626557
 31
0.0
 11
414.4800403382753
 21
462.5801341391995
 31
0.0
 11
414.9793875390219
 21
462.4136860315441
 31
0.0
 11
415.3459946462108
 21
462.264334596741
 31
0.0
 11
415.7030089861951
 21
462.0928627463782
 31
0.0
 11
416.1348156239566
 21
461.8439133289243
 31
0.0
 11
416.5406170814949
 21
461.555112055315
 31
0.0
 11
416.7725488681747
 21
461.3574190397419
 31
0.0
 11
416.989050510869
 21
461.1428940717053
 31
0.0
 11
417.2167006275049
 21
460.8724621333302
 31
0.0
 11
417.41343698384
 21
460.5787931519096
 31
0.0
 11
417.5624902748906
 21
460.2863830301303
 31
0.0
 11
417.6733389133881
 21
459.9775849808473
 31
0.0
 11
417.738553492296
 21
459.6705612583301
 31
0.0
 11
417.760859310901
 21
459.3575369645696
 31
0.0
 11
417.7385548195437
 21
459.044513755863
 31
0.0
 11
417.6733389133881
 21
458.737488948292
 31
0.0
 11
417.562486046283
 21
458.4286851199873
 31
0.0
 11
417.41343698384
 21
458.1362807772296
 31
0.0
 11
417.216717905881
 21
457.8426362820192
 31
0.0
 11
416.989050510869
 21
457.5721798574339
 31
0.0
 11
416.7128529688291
 21
457.3039630322222
 31
0.0
 11
416.413074262706
 21
457.0623261099041
 31
0.0
 11
416.0666718211605
 21
456.8283906241643
 31
0.0
 11
415.7030089861951
 21
456.622211182761
 31
0.0
 11
415.2977940004245
 21
456.4296553537831
 31
0.0
 11
414.8804296554511
 21
456.2652077453564
 31
0.0
 11
414.4293889209307
 21
456.1201560982491
 31
0.0
 11
413.9703299271939
 21
456.0021631664832
 31
0.0
 11
413.4876250794633
 21
455.906638200771
 31
0.0
 11
413.000362721134
 21
455.8410699225642
 31
0.0
 11
412.5009204369353
 21
455.8052434100015
 31
0.0
 11
412.0
 21
455.786822750298
 31
0.0
  0
ARC
  5
30A
330
7D
100
AcDbEntity
  8
1
  6
Continuous
 62
     7
100
AcDbCircle
 10
407.5
 20
453.500000000011
 30
0.0
 40
0.9999999999996883
100
AcDbArc
 50
30.00000000001032
 51
90.0
  0
ARC
  5
30B
330
7D
100
AcDbEntity
  8
1
  6
Continuous
 62
     7
100
AcDbCircle
 10
409.2320508075691
 20
454.500000000011
 30
0.0
 40
1.000000000000525
100
AcDbArc
 50
-150.0000000000174
 51
-137.058597135137
  0
ARC
  5
30C
330
7D
100
AcDbEntity
  8
1
  6
Continuous
 62
     7
100
AcDbCircle
 10
407.4419789382689
 20
455.500000000011
 30
0.0
 40
0.9999999999997336
100
AcDbArc
 50
-105.3375576695089
 51
-90.0
  0
ARC
  5
30D
330
7D
100
AcDbEntity
  8
1
  6
Continuous
 62
     7
100
AcDbCircle
 10
409.2320508075691
 20
454.500000000011
 30
0.0
 40
1.000000000000061
100
AcDbArc
 50
-137.058597135137
 51
-90.0
  0
ARC
  5
30E
330
7D
100
AcDbEntity
  8
1
  6
Continuous
 62
     7
100
AcDbCircle
 10
430.5
 20
453.500000000011
 30
0.0
 40
1.0
100
AcDbArc
 50
90.0
 51
149.9999999999897
  0
ARC
  5
30F
330
7D
100
AcDbEntity
  8
1
  6
Continuous
 62
     7
100
AcDbCircle
 10
428.7679491924309
 20
454.500000000011
 30
0.0
 40
1.000000000000061
100
AcDbArc
 50
-42.94140286486297
 51
-29.99999999998263
  0
ARC
  5
310
330
7D
100
AcDbEntity
  8
1
  6
Continuous
 62
     7
100
AcDbCircle
 10
430.55802106173
 20
455.500000000011
 30
0.0
 40
1.0
100
AcDbArc
 50
-90.0
 51
-74.66244233043139
  0
ARC
  5
311
330
7D
100
AcDbEntity
  8
1
  6
Continuous
 62
     7
100
AcDbCircle
 10
428.7679491924309
 20
454.500000000011
 30
0.0
 40
1.0
100
AcDbArc
 50
-90.0
 51
-42.94140286486297
  0
ENDBLK
  5
7F
330
7D
100
AcDbEntity
  8
0
100
AcDbBlockEnd
  0
BLOCK
  5
81
330
80
100
AcDbEntity
  8
0
100
AcDbBlockBegin
  2
84-26B
 70
     0
 71
     0
 10
833.784499852947
 20
874.478270140982
 30
0.0
  3
84-26B
  1

  0
LINE
  5
312
330
80
100
AcDbEntity
  8
1
  6
Continuous
 62
     7
100
AcDbLine
 10
646.5
 20
433.0003089814582
 30
0.0
 11
612.65296855202
 21
433.0003089814582
 31
0.0
  0
LINE
  5
313
330
80
100
AcDbEntity
  8
1
  6
Continuous
 62
     7
100
AcDbLine
 10
604.0
 20
409.0003089814582
 30
0.0
 11
608.0
 21
409.0003089814582
 31
0.0
  0
LINE
  5
314
330
80
100
AcDbEntity
  8
1
  6
Continuous
 62
     7
100
AcDbLine
 10
649.5
 20
432.5003089814582
 30
0.0
 11
646.5
 21
433.0003089814582
 31
0.0
  0
LINE
  5
315
330
80
100
AcDbEntity
  8
1
  6
Continuous
 62
     7
100
AcDbLine
 10
649.5
 20
409.5003089814582
 30
0.0
 11
646.5
 21
409.0003089814582
 31
0.0
  0
LINE
  5
316
330
80
100
AcDbEntity
  8
1
  6
Continuous
 62
     7
100
AcDbLine
 10
609.0
 20
407.500308981458
 30
0.0
 11
634.0
 21
407.500308981458
 31
0.0
  0
LINE
  5
317
330
80
100
AcDbEntity
  8
1
  6
Continuous
 62
     7
100
AcDbLine
 10
634.0
 20
408.0003089814582
 30
0.0
 11
634.0
 21
407.500308981458
 31
0.0
  0
LINE
  5
318
330
80
100
AcDbEntity
  8
1
  6
Continuous
 62
     7
100
AcDbLine
 10
646.5
 20
409.0003089814582
 30
0.0
 11
635.0
 21
409.0003089814582
 31
0.0
  0
LINE
  5
319
330
80
100
AcDbEntity
  8
1
  6
Continuous
 62
     7
100
AcDbLine
 10
609.0
 20
408.0003089814582
 30
0.0
 11
609.0
 21
407.500308981458
 31
0.0
  0
LINE
  5
31A
330
80
100
AcDbEntity
  8
1
  6
Continuous
 62
     7
100
AcDbLine
 10
599.963973716144
 20
415.5372341330493
 30
0.0
 11
610.1169422681639
 21
431.6029850833553
 31
0.0
  0
LINE
  5
31B
330
80
100
AcDbEntity
  8
1
  6
Continuous
 62
     7
100
AcDbLine
 10
599.5
 20
413.9345580311521
 30
0.0
 11
599.5
 21
413.5003089814582
 31
0.0
  0
LINE
  5
31C
330
80
100
AcDbEntity
  8
1
  6
Continuous
 62
     7
100
AcDbLine
 10
649.5
 20
432.5003089814582
 30
0.0
 11
649.5
 21
413.0003089814582
 31
0.0
  0
LINE
  5
31D
330
80
100
AcDbEntity
  8
1
  6
Continuous
 62
     7
100
AcDbLine
 10
649.5
 20
413.0003089814582
 30
0.0
 11
649.5
 21
409.5003089814582
 31
0.0
  0
LINE
  5
31E
330
80
100
AcDbEntity
  8
1
  6
Continuous
 62
     7
100
AcDbLine
 10
431.25
 20
407.500000000011
 30
0.0
 11
431.25
 21
415.3603245736522
 31
0.0
  0
LINE
  5
31F
330
80
100
AcDbEntity
  8
1
  6
Continuous
 62
     7
100
AcDbLine
 10
406.75
 20
407.500000000011
 30
0.0
 11
431.25
 21
407.500000000011
 31
0.0
  0
LINE
  5
320
330
80
100
AcDbEntity
  8
1
  6
Continuous
 62
     7
100
AcDbLine
 10
406.75
 20
415.3603245736522
 30
0.0
 11
406.75
 21
407.500000000011
 31
0.0
  0
LINE
  5
321
330
80
100
AcDbEntity
  8
1
  6
Continuous
 62
     7
100
AcDbLine
 10
431.217171928608
 20
415.932341209471
 30
0.0
 11
430.4244954357971
 21
422.815638262394
 31
0.0
  0
LINE
  5
322
330
80
100
AcDbEntity
  8
1
  6
Continuous
 62
     7
100
AcDbLine
 10
407.5755045642029
 20
422.815638262394
 30
0.0
 11
406.7828280713929
 21
415.932341209471
 31
0.0
  0
LINE
  5
323
330
80
100
AcDbEntity
  8
1
  6
Continuous
 62
     7
100
AcDbLine
 10
431.499999999998
 20
886.91143742396
 30
0.0
 11
430.999999999998
 21
889.91143742396
 31
0.0
  0
LINE
  5
324
330
80
100
AcDbEntity
  8
1
  6
Continuous
 62
     7
100
AcDbLine
 10
406.999999999998
 20
889.91143742396
 30
0.0
 11
406.499999999998
 21
886.91143742396
 31
0.0
  0
LINE
  5
325
330
80
100
AcDbEntity
  8
1
  6
Continuous
 62
     7
100
AcDbLine
 10
430.999999999998
 20
889.91143742396
 30
0.0
 11
406.999999999998
 21
889.91143742396
 31
0.0
  0
LINE
  5
326
330
80
100
AcDbEntity
  8
1
  6
Continuous
 62
     7
100
AcDbLine
 10
406.499999999998
 20
886.91143742396
 30
0.0
 11
431.499999999998
 21
886.91143742396
 31
0.0
  0
LINE
  5
327
330
80
100
AcDbEntity
  8
1
  6
Continuous
 62
     7
100
AcDbLine
 10
431.499999999998
 20
847.646428928646
 30
0.0
 11
431.499999999998
 21
887.5000000000032
 31
0.0
  0
LINE
  5
328
330
80
100
AcDbEntity
  8
1
  6
Continuous
 62
     7
100
AcDbLine
 10
406.499999999998
 20
847.646428928646
 30
0.0
 11
406.499999999998
 21
887.5000000000032
 31
0.0
  0
ARC
  5
329
330
80
100
AcDbEntity
  8
1
  6
Continuous
 62
     7
100
AcDbCircle
 10
604.0
 20
413.5003089814582
 30
0.0
 40
4.5
100
AcDbArc
 50
180.0
 51
-90.0
  0
ARC
  5
32A
330
80
100
AcDbEntity
  8
1
  6
Continuous
 62
     7
100
AcDbCircle
 10
419.0
 20
434.0000000000109
 30
0.0
 40
24.99999999999995
100
AcDbArc
 50
-111.2538091853597
 51
-68.74619081464027
  0
ARC
  5
32B
330
80
100
AcDbEntity
  8
1
  6
Continuous
 62
     7
100
AcDbCircle
 10
426.25
 20
415.3603245736522
 30
0.0
 40
4.999999999999905
100
AcDbArc
 50
-68.74619081463989
 51
6.56921108019239
  0
ARC
  5
32C
330
80
100
AcDbEntity
  8
1
  6
Continuous
 62
     7
100
AcDbCircle
 10
419.0
 20
421.5000000000109
 30
0.0
 40
11.49999999999979
100
AcDbArc
 50
6.56921108019181
 51
90.0
  0
ARC
  5
32D
330
80
100
AcDbEntity
  8
1
  6
Continuous
 62
     7
100
AcDbCircle
 10
411.75
 20
415.3603245736522
 30
0.0
 40
4.999999999999603
100
AcDbArc
 50
173.4307889198064
 51
-111.2538091853601
  0
ARC
  5
32E
330
80
100
AcDbEntity
  8
1
  6
Continuous
 62
     7
100
AcDbCircle
 10
419.0
 20
421.5000000000109
 30
0.0
 40
11.5
100
AcDbArc
 50
90.0
 51
173.4307889198082
  0
ARC
  5
32F
330
80
100
AcDbEntity
  8
1
  6
Continuous
 62
     2
100
AcDbCircle
 10
419.0
 20
434.0000000000109
 30
0.0
 40
20.50000000000027
100
AcDbArc
 50
-112.4747270468695
 51
-67.52527295313051
  0
ARC
  5
330
330
80
100
AcDbEntity
  8
1
  6
Continuous
 62
     7
100
AcDbCircle
 10
418.999999999998
 20
831.1949222723622
 30
0.0
 40
20.66160863199546
100
AcDbArc
 50
59.4567321163198
 51
120.5432678836802
  0
ARC
  5
331
330
80
100
AcDbEntity
  8
1
  6
Continuous
 62
     7
100
AcDbCircle
 10
418.999999999998
 20
864.9016258194229
 30
0.0
 40
25.00000000000026
100
AcDbArc
 50
-110.0051900881609
 51
-90.0
  0
ARC
  5
332
330
80
100
AcDbEntity
  8
1
  6
Continuous
 62
     7
100
AcDbCircle
 10
418.999999999998
 20
864.9016258194229
 30
0.0
 40
25.0
100
AcDbArc
 50
-90.0
 51
-69.99480991184134
  0
ARC
  5
333
330
80
100
AcDbEntity
  8
1
  6
Continuous
 62
     7
100
AcDbCircle
 10
608.0
 20
408.0003089814582
 30
0.0
 40
1.0
100
AcDbArc
 50
0.0
 51
90.0
  0
ARC
  5
334
330
80
100
AcDbEntity
  8
1
  6
Continuous
 62
     7
100
AcDbCircle
 10
635.0
 20
408.0003089814582
 30
0.0
 40
1.0
100
AcDbArc
 50
90.0
 51
180.0
  0
ARC
  5
335
330
80
100
AcDbEntity
  8
1
  6
Continuous
 62
     7
100
AcDbCircle
 10
602.5
 20
413.9345580311521
 30
0.0
 40
3.000000000000162
100
AcDbArc
 50
147.7086070282251
 51
180.0
  0
ARC
  5
336
330
80
100
AcDbEntity
  8
1
  6
Continuous
 62
     7
100
AcDbCircle
 10
612.65296855202
 20
430.0003089814582
 30
0.0
 40
3.0
100
AcDbArc
 50
90.0
 51
147.708607028227
  0
ARC
  5
337
330
80
100
AcDbEntity
  8
1
  6
Continuous
 62
     7
100
AcDbCircle
 10
412.927324638408
 20
847.3472418383558
 30
0.0
 40
6.434284336467277
100
AcDbArc
 50
177.3348487585729
 51
-112.67034132959
  0
ARC
  5
338
330
80
100
AcDbEntity
  8
1
  6
Continuous
 62
     7
100
AcDbCircle
 10
425.0726753615879
 20
847.3472418383556
 30
0.0
 40
6.434284336467065
100
AcDbArc
 50
-67.32965867041673
 51
2.6651512414291
  0
ENDBLK
  5
82
330
80
100
AcDbEntity
  8
0
100
AcDbBlockEnd
  0
BLOCK
  5
84
330
83
100
AcDbEntity
  8
0
100
AcDbBlockBegin
  2
30-44
 70
     0
 71
     0
 10
766.2485314487019
 20
817.6205481500331
 30
0.0
  3
30-44
  1

  0
LINE
  5
339
330
83
100
AcDbEntity
  8
1
  6
Continuous
 62
     7
100
AcDbLine
 10
406.700769086018
 20
407.5000000000111
 30
0.0
 11
431.2992309139625
 21
407.5000000000111
 31
0.0
  0
LINE
  5
33A
330
83
100
AcDbEntity
  8
1
  6
Continuous
 62
     7
100
AcDbLine
 10
406.5
 20
398.0000000000113
 30
0.0
 11
431.5
 21
398.0000000000113
 31
0.0
  0
LINE
  5
33B
330
83
100
AcDbEntity
  8
1
  6
Continuous
 62
     7
100
AcDbLine
 10
609.0
 20
407.3003432030245
 30
0.0
 11
609.0
 21
398.000308981458
 31
0.0
  0
LINE
  5
33C
330
83
100
AcDbEntity
  8
1
  6
Continuous
 62
     7
100
AcDbLine
 10
609.7927774651141
 20
395.225587853561
 30
0.0
 11
609.0
 21
398.000308981458
 31
0.0
  0
LINE
  5
33D
330
83
100
AcDbEntity
  8
1
  6
Continuous
 62
     7
100
AcDbLine
 10
610.7543014127541
 20
394.500308981458
 30
0.0
 11
621.5
 21
394.500308981458
 31
0.0
  0
LINE
  5
33E
330
83
100
AcDbEntity
  8
1
  6
Continuous
 62
     7
100
AcDbLine
 10
634.0
 20
398.000308981458
 30
0.0
 11
634.0
 21
407.3003432030245
 31
0.0
  0
LINE
  5
33F
330
83
100
AcDbEntity
  8
1
  6
Continuous
 62
     7
100
AcDbLine
 10
634.0
 20
398.000308981458
 30
0.0
 11
633.207222534887
 21
395.225587853561
 31
0.0
  0
LINE
  5
340
330
83
100
AcDbEntity
  8
1
  6
Continuous
 62
     7
100
AcDbLine
 10
621.5
 20
394.500308981458
 30
0.0
 11
632.2456985872459
 21
394.500308981458
 31
0.0
  0
LINE
  5
341
330
83
100
AcDbEntity
  8
1
  6
Continuous
 62
     7
100
AcDbLine
 10
431.5
 20
398.0000000000113
 30
0.0
 11
431.5
 21
407.2999657784447
 31
0.0
  0
LINE
  5
342
330
83
100
AcDbEntity
  8
1
  6
Continuous
 62
     7
100
AcDbLine
 10
431.5
 20
398.0000000000113
 30
0.0
 11
430.7072225348859
 21
395.2252788721139
 31
0.0
  0
LINE
  5
343
330
83
100
AcDbEntity
  8
1
  6
Continuous
 62
     7
100
AcDbLine
 10
419.0
 20
394.5000000000113
 30
0.0
 11
429.7456985872459
 21
394.5000000000113
 31
0.0
  0
LINE
  5
344
330
83
100
AcDbEntity
  8
1
  6
Continuous
 62
     7
100
AcDbLine
 10
406.5
 20
407.2999657784446
 30
0.0
 11
406.5
 21
398.0000000000113
 31
0.0
  0
LINE
  5
345
330
83
100
AcDbEntity
  8
1
  6
Continuous
 62
     7
100
AcDbLine
 10
407.292777465113
 20
395.2252788721139
 30
0.0
 11
406.5
 21
398.0000000000113
 31
0.0
  0
LINE
  5
346
330
83
100
AcDbEntity
  8
1
  6
Continuous
 62
     7
100
AcDbLine
 10
408.2543014127541
 20
394.5000000000113
 30
0.0
 11
419.0
 21
394.5000000000113
 31
0.0
  0
LINE
  5
347
330
83
100
AcDbEntity
  8
1
  6
Continuous
 62
     7
100
AcDbLine
 10
634.0
 20
398.000308981458
 30
0.0
 11
609.0
 21
398.000308981458
 31
0.0
  0
ARC
  5
348
330
83
100
AcDbEntity
  8
1
  6
Continuous
 62
     7
100
AcDbCircle
 10
633.8007690801722
 20
407.3003089814581
 30
0.0
 40
0.1999999999999437
100
AcDbArc
 50
0.00980375669825
 51
90.0
  0
ARC
  5
349
330
83
100
AcDbEntity
  8
1
  6
Continuous
 62
     7
100
AcDbCircle
 10
609.1992309198279
 20
407.3003089814581
 30
0.0
 40
0.2000000000001023
100
AcDbArc
 50
90.0
 51
179.9901962433018
  0
ARC
  5
34A
330
83
100
AcDbEntity
  8
1
  6
Continuous
 62
     7
100
AcDbCircle
 10
406.700769086018
 20
407.3000000000111
 30
0.0
 40
0.1999999999999886
100
AcDbArc
 50
90.0
 51
-179.9901962433018
  0
ARC
  5
34B
330
83
100
AcDbEntity
  8
1
  6
Continuous
 62
     7
100
AcDbCircle
 10
431.2992309139625
 20
407.3000000000111
 30
0.0
 40
0.1999999999998869
100
AcDbArc
 50
-0.00980375669825
 51
90.0
  0
ARC
  5
34C
330
83
100
AcDbEntity
  8
1
  6
Continuous
 62
     7
100
AcDbCircle
 10
610.7543014127541
 20
395.500308981458
 30
0.0
 40
0.9999999999990814
100
AcDbArc
 50
-164.0546040990874
 51
-138.9643661455522
  0
ARC
  5
34D
330
83
100
AcDbEntity
  8
1
  6
Continuous
 62
     7
100
AcDbCircle
 10
610.7543014127541
 20
395.500308981458
 30
0.0
 40
0.9999999999993826
100
AcDbArc
 50
-138.9643661455522
 51
-90.0
  0
ARC
  5
34E
330
83
100
AcDbEntity
  8
1
  6
Continuous
 62
     7
100
AcDbCircle
 10
632.2456985872459
 20
395.500308981458
 30
0.0
 40
0.9999999999993826
100
AcDbArc
 50
-41.03563385444783
 51
-15.94539590089467
  0
ARC
  5
34F
330
83
100
AcDbEntity
  8
1
  6
Continuous
 62
     7
100
AcDbCircle
 10
632.2456985872459
 20
395.500308981458
 30
0.0
 40
1.0
100
AcDbArc
 50
-90.0
 51
-41.03563385444783
  0
ARC
  5
350
330
83
100
AcDbEntity
  8
1
  6
Continuous
 62
     7
100
AcDbCircle
 10
429.7456985872459
 20
395.5000000000113
 30
0.0
 40
0.9999999999999051
100
AcDbArc
 50
-41.03563385448222
 51
-15.94539590093762
  0
ARC
  5
351
330
83
100
AcDbEntity
  8
1
  6
Continuous
 62
     7
100
AcDbCircle
 10
429.7456985872459
 20
395.5000000000113
 30
0.0
 40
1.0
100
AcDbArc
 50
-90.0
 51
-41.03563385448222
  0
ARC
  5
352
330
83
100
AcDbEntity
  8
1
  6
Continuous
 62
     7
100
AcDbCircle
 10
408.2543014127541
 20
395.5000000000113
 30
0.0
 40
1.0000000000003
100
AcDbArc
 50
-164.0546040990803
 51
-138.9643661455178
  0
ARC
  5
353
330
83
100
AcDbEntity
  8
1
  6
Continuous
 62
     7
100
AcDbCircle
 10
408.2543014127541
 20
395.5000000000113
 30
0.0
 40
0.9999999999999051
100
AcDbArc
 50
-138.9643661455178
 51
-90.0
  0
ENDBLK
  5
85
330
83
100
AcDbEntity
  8
0
100
AcDbBlockEnd
  0
BLOCK
  5
88
330
86
100
AcDbEntity
  8
0
100
AcDbBlockBegin
  2
M280
 70
     0
 71
     0
 10
592.5945089648581
 20
479.9765607173036
 30
0.0
  3
M280
  1

  0
INSERT
  5
87
330
86
100
AcDbEntity
  8
1
100
AcDbBlockReference
  2
30-44
 10
766.2485314487019
 20
817.6205481500331
 30
0.0
  0
LINE
  5
354
330
86
100
AcDbEntity
  8
1
  6
DASH_CENTER
 62
     2
100
AcDbLine
 10
621.5
 20
435.500308981458
 30
0.0
 11
621.5
 21
391.500308981458
 31
0.0
  0
ENDBLK
  5
89
330
86
100
AcDbEntity
  8
0
100
AcDbBlockEnd
  0
BLOCK
  5
8D
330
8A
100
AcDbEntity
  8
0
100
AcDbBlockBegin
  2
M50
 70
     0
 71
     0
 10
505.3969350003599
 20
479.9765607173036
 30
0.0
  3
M50
  1

  0
INSERT
  5
8B
330
8A
100
AcDbEntity
  8
0
100
AcDbBlockReference
  2
84-26B
 10
833.784499852947
 20
874.478270140982
 30
0.0
  0
INSERT
  5
8C
330
8A
100
AcDbEntity
  8
1
100
AcDbBlockReference
  2
M280
 10
592.5945089648581
 20
479.9765607173036
 30
0.0
  0
LINE
  5
355
330
8A
100
AcDbEntity
  8
1
  6
PHANTOM
 62
     4
100
AcDbLine
 10
599.867383354941
 20
421.0003089814581
 30
0.0
 11
654.5670198170151
 21
421.0003089814581
 31
0.0
  0
ENDBLK
  5
8E
330
8A
100
AcDbEntity
  8
0
100
AcDbBlockEnd
  0
BLOCK
  5
94
330
8F
100
AcDbEntity
  8
0
100
AcDbBlockBegin
  2
A10JD-60X
 70
     0
 71
     0
 10
748.0670503597121
 20
569.0443956043545
 30
0.0
  3
A10JD-60X
  1

  0
INSERT
  5
90
330
8F
100
AcDbEntity
  8
0
100
AcDbBlockReference
  2
32-1-16__15
 10
795.6080779129959
 20
1080.430453034525
 30
0.0
  0
INSERT
  5
91
330
8F
100
AcDbEntity
  8
1
100
AcDbBlockReference
  2
60-7-170
 10
526.1698834595391
 20
397.2748743267712
 30
0.0
  0
INSERT
  5
92
330
8F
100
AcDbEntity
  8
0
100
AcDbBlockReference
  2
32-1-16__16
 10
701.7583703106559
 20
546.6128604419326
 30
0.0
  0
INSERT
  5
93
330
8F
100
AcDbEntity
  8
1
100
AcDbBlockReference
  2
M50
 10
505.3969350003599
 20
479.9765607173036
 30
0.0
  0
LINE
  5
356
330
8F
100
AcDbEntity
  8
1
  6
PHANTOM
 62
     4
100
AcDbLine
 10
654.5670198170151
 20
421.0003089814581
 30
0.0
 11
766.3975047606093
 21
421.0003089814581
 31
0.0
  0
LINE
  5
357
330
8F
100
AcDbEntity
  8
1
  6
PHANTOM
 62
     4
100
AcDbLine
 10
791.5
 20
446.1028042208488
 30
0.0
 11
791.5
 21
453.0000000000001
 31
0.0
  0
LINE
  5
358
330
8F
100
AcDbEntity
  8
1
  6
PHANTOM
 62
     4
100
AcDbLine
 10
404.415609285229
 20
862.4999999999993
 30
0.0
 11
435.0536753492379
 21
862.4999999999993
 31
0.0
  0
ARC
  5
359
330
8F
100
AcDbEntity
  8
1
  6
PHANTOM
 62
     4
100
AcDbCircle
 10
766.5
 20
446.0003089814581
 30
0.0
 40
25.00021010459908
100
AcDbArc
 50
-90.23490046939332
 51
0.23490046939332
  0
ENDBLK
  5
95
330
8F
100
AcDbEntity
  8
0
100
AcDbBlockEnd
  0
BLOCK
  5
97
330
96
100
AcDbEntity
  8
0
100
AcDbBlockBegin
  2
___o________
 70
     0
 71
     0
 10
1085.685606477703
 20
352.4356064777019
 30
0.0
  3
___o________
  1

  0
LINE
  5
35A
330
96
100
AcDbEntity
  8
1
  6
PHANTOM
 62
     5
100
AcDbLine
 10
767.7974858641321
 20
528.4079347725376
 30
0.0
 11
767.7974858641271
 21
528.4079347725385
 31
0.0
  0
LINE
  5
35B
330
96
100
AcDbEntity
  8
1
  6
PHANTOM
 62
     5
100
AcDbLine
 10
746.2097044336799
 20
575.5777506310594
 30
0.0
 11
779.638997160454
 21
556.2773394764597
 31
0.0
  0
LINE
  5
35C
330
96
100
AcDbEntity
  8
1
  6
PHANTOM
 62
     5
100
AcDbLine
 10
807.390446641439
 20
552.9771727926002
 30
0.0
 11
726.7290535951579
 21
590.5901980874827
 31
0.0
  0
LINE
  5
35D
330
96
100
AcDbEntity
  8
1
  6
PHANTOM
 62
     4
100
AcDbLine
 10
789.6404796483459
 20
514.9122457370529
 30
0.0
 11
808.6583014266589
 21
555.696096153711
 31
0.0
  0
LINE
  5
35E
330
96
100
AcDbEntity
  8
1
  6
PHANTOM
 62
     5
100
AcDbLine
 10
725.4001275463811
 20
590.106508562186
 30
0.0
 11
724.3290813416811
 21
587.809642564019
 31
0.0
  0
LINE
  5
35F
330
96
100
AcDbEntity
  8
1
  6
PHANTOM
 62
     5
100
AcDbLine
 10
816.827149689246
 20
515.2704759454548
 30
0.0
 11
768.4683667650149
 21
528.2281727769275
 31
0.0
  0
LINE
  5
360
330
96
100
AcDbEntity
  8
1
  6
PHANTOM
 62
     5
100
AcDbLine
 10
746.2097044336799
 20
575.5777506310594
 30
0.0
 11
724.7813986289791
 21
586.4960177780903
 31
0.0
  0
LINE
  5
361
330
96
100
AcDbEntity
  8
1
  6
PHANTOM
 62
     5
100
AcDbLine
 10
768.4683667650149
 20
528.2281727769275
 30
0.0
 11
768.3850773767861
 21
528.2504901012418
 31
0.0
  0
LINE
  5
362
330
96
100
AcDbEntity
  8
1
  6
PHANTOM
 62
     4
100
AcDbLine
 10
398.847456736183
 20
1052.652543263817
 30
0.0
 11
484.7609306503491
 21
966.7390693496511
 31
0.0
  0
LINE
  5
363
330
96
100
AcDbEntity
  8
1
  6
PHANTOM
 62
     5
100
AcDbLine
 10
407.502191746785
 20
1019.30718356937
 30
0.0
 11
470.4851754177321
 21
964.4162303546646
 31
0.0
  0
LINE
  5
364
330
96
100
AcDbEntity
  8
1
  6
PHANTOM
 62
     5
100
AcDbLine
 10
432.1928164306301
 20
1043.997808253215
 30
0.0
 11
487.083769645335
 21
981.0148245822675
 31
0.0
  0
LINE
  5
365
330
96
100
AcDbEntity
  8
1
  6
PHANTOM
 62
     5
100
AcDbLine
 10
430.497808253215
 20
1019.30718356937
 30
0.0
 11
367.5148245822679
 21
964.4162303546648
 31
0.0
  0
LINE
  5
366
330
96
100
AcDbEntity
  8
1
  6
PHANTOM
 62
     5
100
AcDbLine
 10
405.80718356937
 20
1043.997808253215
 30
0.0
 11
350.916230354665
 21
981.0148245822679
 31
0.0
  0
LINE
  5
367
330
96
100
AcDbEntity
  8
1
  6
PHANTOM
 62
     4
100
AcDbLine
 10
439.1525432638171
 20
1052.652543263817
 30
0.0
 11
353.2390693496509
 21
966.7390693496511
 31
0.0
  0
ARC
  5
368
330
96
100
AcDbEntity
  8
1
  6
PHANTOM
 62
     5
100
AcDbCircle
 10
722.6721326496049
 20
547.5448985268555
 30
0.0
 40
99.99999999999946
100
AcDbArc
 50
-18.63342480941025
 51
-2.21966601298452
  0
ARC
  5
369
330
96
100
AcDbEntity
  8
1
  6
PHANTOM
 62
     5
100
AcDbCircle
 10
763.9312020591501
 20
459.7785220256441
 30
0.0
 40
102.8333333333329
100
AcDbArc
 50
55.50845571979926
 51
65.00000000002827
  0
ARC
  5
36A
330
96
100
AcDbEntity
  8
1
  6
PHANTOM
 62
     5
100
AcDbCircle
 10
857.6849656742129
 20
484.5873805383516
 30
0.0
 40
99.99999999999972
100
AcDbArc
 50
140.0945793537877
 51
153.661139804067
  0
ARC
  5
36B
330
96
100
AcDbEntity
  8
1
  6
PHANTOM
 62
     5
100
AcDbCircle
 10
458.5537855726211
 20
992.9462144273794
 30
0.0
 40
34.06250000000213
100
AcDbArc
 50
-58.42745368173037
 51
-31.57254631827174
  0
ARC
  5
36C
330
96
100
AcDbEntity
  8
1
  6
PHANTOM
 62
     5
100
AcDbCircle
 10
379.4462144273789
 20
992.9462144273794
 30
0.0
 40
34.06250000000249
100
AcDbArc
 50
-148.4274536817294
 51
-121.5725463182712
  0
ARC
  5
36D
330
96
100
AcDbEntity
  8
1
  6
PHANTOM
 62
     5
100
AcDbCircle
 10
419.0
 20
1032.5
 30
0.0
 40
17.5000000000007
100
AcDbArc
 50
45.0
 51
138.9271862016944
  0
ARC
  5
36E
330
96
100
AcDbEntity
  8
1
  6
PHANTOM
 62
     5
100
AcDbCircle
 10
419.0
 20
1032.5
 30
0.0
 40
17.5
100
AcDbArc
 50
180.0
 51
-131.0728137983055
  0
ARC
  5
36F
330
96
100
AcDbEntity
  8
1
  6
PHANTOM
 62
     5
100
AcDbCircle
 10
419.0
 20
1032.5
 30
0.0
 40
17.50000000000003
100
AcDbArc
 50
-48.92718620169457
 51
0.0
  0
ARC
  5
370
330
96
100
AcDbEntity
  8
1
  6
PHANTOM
 62
     5
100
AcDbCircle
 10
419.0
 20
1032.5
 30
0.0
 40
17.5000000000007
100
AcDbArc
 50
135.0
 51
138.9271862016944
  0
ARC
  5
371
330
96
100
AcDbEntity
  8
1
  6
PHANTOM
 62
     5
100
AcDbCircle
 10
816.9565592117981
 20
515.7534388585991
 30
0.0
 40
0.5000000000000163
100
AcDbArc
 50
-105.0000000001019
 51
-18.63342480942745
  0
ARC
  5
372
330
96
100
AcDbEntity
  8
1
  6
PHANTOM
 62
     5
100
AcDbCircle
 10
821.597851112615
 20
543.710550267086
 30
0.0
 40
0.9999999999995463
100
AcDbArc
 50
-2.21966601298166
 51
55.50845571977938
  0
ARC
  5
373
330
96
100
AcDbEntity
  8
1
  6
PHANTOM
 62
     5
100
AcDbCircle
 10
726.306435333418
 20
589.6838903004457
 30
0.0
 40
1.0
100
AcDbArc
 50
90.0
 51
155.0000000000239
  0
ARC
  5
374
330
96
100
AcDbEntity
  8
1
  6
PHANTOM
 62
     5
100
AcDbCircle
 10
725.235389128718
 20
587.387024302279
 30
0.0
 40
0.9999999999999312
100
AcDbArc
 50
155.0000000000416
 51
-116.9999999999581
  0
ARC
  5
375
330
96
100
AcDbEntity
  8
1
  6
PHANTOM
 62
     5
100
AcDbCircle
 10
726.306435333418
 20
589.6838903004457
 30
0.0
 40
0.9999999999999862
100
AcDbArc
 50
65.00000000005024
 51
90.0
  0
ARC
  5
376
330
96
100
AcDbEntity
  8
1
  6
PHANTOM
 62
     5
100
AcDbCircle
 10
777.138997160456
 20
551.9472124575361
 30
0.0
 40
4.999999999999806
100
AcDbArc
 50
-39.90542064620924
 51
60.00000000002824
  0
ARC
  5
377
330
96
100
AcDbEntity
  8
1
  6
PHANTOM
 62
     5
100
AcDbCircle
 10
768.514486899337
 20
528.733453014386
 30
0.0
 40
0.500000000000001
100
AcDbArc
 50
153.6611398040016
 51
-104.9999999999794
  0
ARC
  5
378
330
96
100
AcDbEntity
  8
1
  6
PHANTOM
 62
     5
100
AcDbCircle
 10
483.3143935222979
 20
977.7297365099207
 30
0.0
 40
4.999999999999716
100
AcDbArc
 50
0.0
 51
41.07281379830256
  0
ARC
  5
379
330
96
100
AcDbEntity
  8
1
  6
PHANTOM
 62
     5
100
AcDbCircle
 10
473.7702634900791
 20
968.1856064777019
 30
0.0
 40
5.000000000000062
100
AcDbArc
 50
-131.0728137983033
 51
-58.42745368173211
  0
ARC
  5
37A
330
96
100
AcDbEntity
  8
1
  6
PHANTOM
 62
     5
100
AcDbCircle
 10
354.6856064777021
 20
977.7297365099207
 30
0.0
 40
5.000000000000682
100
AcDbArc
 50
180.0
 51
-148.4274536817356
  0
ARC
  5
37B
330
96
100
AcDbEntity
  8
1
  6
PHANTOM
 62
     5
100
AcDbCircle
 10
364.2297365099209
 20
968.1856064777021
 30
0.0
 40
5.000000000000566
100
AcDbArc
 50
-121.5725463182768
 51
-48.9271862016967
  0
ARC
  5
37C
330
96
100
AcDbEntity
  8
1
  6
PHANTOM
 62
     5
100
AcDbCircle
 10
483.3143935222979
 20
977.7297365099207
 30
0.0
 40
5.000000000000044
100
AcDbArc
 50
-31.57254631827204
 51
0.0
  0
ARC
  5
37D
330
96
100
AcDbEntity
  8
1
  6
PHANTOM
 62
     5
100
AcDbCircle
 10
354.6856064777021
 20
977.7297365099207
 30
0.0
 40
5.000000000000002
100
AcDbArc
 50
138.9271862016935
 51
180.0
  0
ENDBLK
  5
98
330
96
100
AcDbEntity
  8
0
100
AcDbBlockEnd
  0
BLOCK
  5
9B
330
99
100
AcDbEntity
  8
0
100
AcDbBlockBegin
  2
87-174X-__F_
 70
     0
 71
     0
 10
958.0
 20
550.0
 30
0.0
  3
87-174X-__F_
  1

  0
INSERT
  5
9A
330
99
100
AcDbEntity
  8
1
100
AcDbBlockReference
  2
___o________
 10
1085.685606477703
 20
352.4356064777019
 30
0.0
  0
LINE
  5
37E
330
99
100
AcDbEntity
  8
1
  6
Continuous
 62
     7
100
AcDbLine
 10
814.4999999999959
 20
526.051858564375
 30
0.0
 11
766.59907775682
 21
517.6056335720837
 31
0.0
  0
LINE
  5
37F
330
99
100
AcDbEntity
  8
1
  6
Continuous
 62
     7
100
AcDbLine
 10
814.871186803201
 20
526.1173088126628
 30
0.0
 11
814.4999999999959
 21
526.051858564375
 31
0.0
  0
LINE
  5
380
330
99
100
AcDbEntity
  8
1
  6
Continuous
 62
     7
100
AcDbLine
 10
815.9880961336889
 20
526.3142500626332
 30
0.0
 11
814.871186803201
 21
526.1173088126628
 31
0.0
  0
LINE
  5
381
330
99
100
AcDbEntity
  8
1
  6
Continuous
 62
     7
100
AcDbLine
 10
426.3356826340601
 20
548.0648775392992
 30
0.0
 11
425.5999999999981
 21
548.0648775392992
 31
0.0
  0
LINE
  5
382
330
99
100
AcDbEntity
  8
1
  6
Continuous
 62
     7
100
AcDbLine
 10
412.399999999998
 20
548.0648775392992
 30
0.0
 11
411.664317365937
 21
548.0648775392992
 31
0.0
  0
LINE
  5
383
330
99
100
AcDbEntity
  8
1
  6
PHANTOM
 62
     4
100
AcDbLine
 10
418.999999999998
 20
514.4999999999998
 30
0.0
 11
418.999999999998
 21
559.5000000000001
 31
0.0
  0
LINE
  5
384
330
99
100
AcDbEntity
  8
1
  6
PHANTOM
 62
     4
100
AcDbLine
 10
817.1593291904489
 20
539.5000000000158
 30
0.0
 11
781.5
 21
539.5000000000158
 31
0.0
  0
LINE
  5
385
330
99
100
AcDbEntity
  8
1
  6
Continuous
 62
     7
100
AcDbLine
 10
430.499999999998
 20
554.9572278151657
 30
0.0
 11
430.499999999998
 21
553.2772031195214
 31
0.0
  0
LINE
  5
386
330
99
100
AcDbEntity
  8
1
  6
Continuous
 62
     7
100
AcDbLine
 10
407.499999999998
 20
554.9572278151657
 30
0.0
 11
407.499999999998
 21
553.2772031195214
 31
0.0
  0
LINE
  5
387
330
99
100
AcDbEntity
  8
1
  6
Continuous
 62
     7
100
AcDbLine
 10
770.500426802095
 20
549.5904520008277
 30
0.0
 11
702.4651005032961
 21
551.966297947804
 31
0.0
  0
LINE
  5
388
330
99
100
AcDbEntity
  8
1
  6
PHANTOM
 62
     4
100
AcDbLine
 10
791.4999999999959
 20
514.5000000000155
 30
0.0
 11
791.499999999998
 21
559.5000000000158
 31
0.0
  0
LINE
  5
389
330
99
100
AcDbEntity
  8
1
  6
Continuous
 62
     7
100
AcDbLine
 10
791.499999999998
 20
556.5000000000158
 30
0.0
 11
702.499999999998
 21
556.5000000000158
 31
0.0
  0
LINE
  5
38A
330
99
100
AcDbEntity
  8
1
  6
Continuous
 62
     7
100
AcDbLine
 10
726.499999999997
 20
551.1269807627224
 30
0.0
 11
764.9539345264359
 21
547.7626974236908
 31
0.0
  0
LINE
  5
38B
330
99
100
AcDbEntity
  8
1
  6
Continuous
 62
     2
100
AcDbLine
 10
766.0000000000021
 20
517.5000000000155
 30
0.0
 11
765.999999999997
 21
517.5000000000144
 31
0.0
  0
LINE
  5
38C
330
99
100
AcDbEntity
  8
1
  6
Continuous
 62
     7
100
AcDbLine
 10
436.4589081456791
 20
1031.301448223583
 30
0.0
 11
430.736978536502
 21
947.9519881265831
 31
0.0
  0
LINE
  5
38D
330
99
100
AcDbEntity
  8
1
  6
Continuous
 62
     7
100
AcDbLine
 10
401.5410918543209
 20
1031.301448223583
 30
0.0
 11
407.263021463498
 21
947.9519881265831
 31
0.0
  0
LINE
  5
38E
330
99
100
AcDbEntity
  8
1
  6
PHANTOM
 62
     4
100
AcDbLine
 10
390.5
 20
1032.5
 30
0.0
 11
447.5
 21
1032.5
 31
0.0
  0
LINE
  5
38F
330
99
100
AcDbEntity
  8
1
  6
PHANTOM
 62
     4
100
AcDbLine
 10
419.0
 20
1061.0
 30
0.0
 11
419.0
 21
939.5
 31
0.0
  0
LINE
  5
390
330
99
100
AcDbEntity
  8
1
  6
DASH_CENTER
 62
     2
100
AcDbLine
 10
407.0
 20
1026.25
 30
0.0
 11
407.0
 21
1038.75
 31
0.0
  0
LINE
  5
391
330
99
100
AcDbEntity
  8
1
  6
DASH_CENTER
 62
     2
100
AcDbLine
 10
431.0
 20
1026.25
 30
0.0
 11
431.0
 21
1038.75
 31
0.0
  0
LINE
  5
392
330
99
100
AcDbEntity
  8
1
  6
Continuous
 62
     7
100
AcDbLine
 10
701.499999999998
 20
555.5000000000158
 30
0.0
 11
701.499999999998
 21
552.9656887748232
 31
0.0
  0
ARC
  5
393
330
99
100
AcDbEntity
  8
1
  6
Continuous
 62
     7
100
AcDbCircle
 10
344.7256183027789
 20
515.2827132838452
 30
0.0
 40
100.0000000000001
100
AcDbArc
 50
3.84951912825392
 51
23.08819455624227
  0
ARC
  5
394
330
99
100
AcDbEntity
  8
1
  6
Continuous
 62
     2
100
AcDbCircle
 10
418.999999999998
 20
453.6666666666678
 30
0.0
 40
102.8333333333324
100
AcDbArc
 50
80.20181509242438
 51
80.50650338621668
  0
ARC
  5
395
330
99
100
AcDbEntity
  8
1
  6
Continuous
 62
     2
100
AcDbCircle
 10
344.7256183027789
 20
515.2827132838452
 30
0.0
 40
100.0000000000005
100
AcDbArc
 50
23.08819455624227
 51
23.40155930349743
  0
ARC
  5
396
330
99
100
AcDbEntity
  8
1
  6
Continuous
 62
     2
100
AcDbCircle
 10
493.274381697217
 20
515.2827132838452
 30
0.0
 40
100.0000000000005
100
AcDbArc
 50
156.5984406965026
 51
156.9118054437575
  0
ARC
  5
397
330
99
100
AcDbEntity
  8
1
  6
Continuous
 62
     7
100
AcDbCircle
 10
418.999999999998
 20
453.6666666666678
 30
0.0
 40
102.8333333333323
100
AcDbArc
 50
95.91826667126838
 51
99.49349661378273
  0
ARC
  5
398
330
99
100
AcDbEntity
  8
1
  6
Continuous
 62
     7
100
AcDbCircle
 10
493.274381697217
 20
515.2827132838452
 30
0.0
 40
99.99999999999972
100
AcDbArc
 50
156.9118054437575
 51
176.1504808717461
  0
ARC
  5
399
330
99
100
AcDbEntity
  8
1
  6
Continuous
 62
     7
100
AcDbCircle
 10
418.999999999998
 20
541.8648775392992
 30
0.0
 40
8.000000000000304
100
AcDbArc
 50
59.48976259388041
 51
90.0
  0
ARC
  5
39A
330
99
100
AcDbEntity
  8
1
  6
Continuous
 62
     7
100
AcDbCircle
 10
418.999999999998
 20
541.8648775392992
 30
0.0
 40
8.0
100
AcDbArc
 50
90.0
 51
120.5102374061136
  0
ARC
  5
39B
330
99
100
AcDbEntity
  8
1
  6
Continuous
 62
     7
100
AcDbCircle
 10
418.999999999998
 20
582.1541841706428
 30
0.0
 40
35.00000000000015
100
AcDbArc
 50
-75.84636823584235
 51
-64.79032143961111
  0
ARC
  5
39C
330
99
100
AcDbEntity
  8
1
  6
Continuous
 62
     7
100
AcDbCircle
 10
418.999999999998
 20
582.1541841706428
 30
0.0
 40
34.9999999999997
100
AcDbArc
 50
-115.2096785603879
 51
-104.153631764156
  0
ARC
  5
39D
330
99
100
AcDbEntity
  8
1
  6
Continuous
 62
     7
100
AcDbCircle
 10
418.999999999998
 20
752.0
 30
0.0
 40
199.9999999999996
100
AcDbArc
 50
-93.02454865472318
 51
-86.97545134527654
  0
ARC
  5
39E
330
99
100
AcDbEntity
  8
1
  6
Continuous
 62
     7
100
AcDbCircle
 10
418.999999999998
 20
453.6666666666678
 30
0.0
 40
102.8333333333324
100
AcDbArc
 50
80.50650338621668
 51
84.08173332873119
  0
ARC
  5
39F
330
99
100
AcDbEntity
  8
1
  6
Continuous
 62
     7
100
AcDbCircle
 10
418.999999999998
 20
453.6666666666678
 30
0.0
 40
102.8333333333324
100
AcDbArc
 50
90.0
 51
95.91826667126838
  0
ARC
  5
3A0
330
99
100
AcDbEntity
  8
1
  6
Continuous
 62
     7
100
AcDbCircle
 10
791.499999999998
 20
453.6666666666836
 30
0.0
 40
102.8333333333322
100
AcDbArc
 50
80.50845571977071
 51
90.0
  0
ARC
  5
3A1
330
99
100
AcDbEntity
  8
1
  6
Continuous
 62
     2
100
AcDbCircle
 10
418.999999999998
 20
453.6666666666678
 30
0.0
 40
102.8333333333322
100
AcDbArc
 50
99.49349661378273
 51
99.79818490757563
  0
ARC
  5
3A2
330
99
100
AcDbEntity
  8
1
  6
Continuous
 62
     7
100
AcDbCircle
 10
418.999999999998
 20
453.6666666666678
 30
0.0
 40
102.8333333333324
100
AcDbArc
 50
84.08173332873119
 51
90.0
  0
ARC
  5
3A3
330
99
100
AcDbEntity
  8
1
  6
Continuous
 62
     7
100
AcDbCircle
 10
865.9850893679429
 20
515.7731809348505
 30
0.0
 40
99.99999999999962
100
AcDbArc
 50
165.0945793537596
 51
178.661139804039
  0
ARC
  5
3A4
330
99
100
AcDbEntity
  8
1
  6
Continuous
 62
     7
100
AcDbCircle
 10
717.0149106320509
 20
515.7731809348575
 30
0.0
 40
99.9999999999996
100
AcDbArc
 50
15.70998377457458
 51
22.78033398698706
  0
ARC
  5
3A5
330
99
100
AcDbEntity
  8
1
  6
Continuous
 62
     7
100
AcDbCircle
 10
865.9850893679429
 20
515.7731809348505
 30
0.0
 40
99.99999999999965
100
AcDbArc
 50
161.0386957330212
 51
165.0945793537596
  0
ARC
  5
3A6
330
99
100
AcDbEntity
  8
1
  6
Continuous
 62
     7
100
AcDbCircle
 10
717.0149106320509
 20
515.7731809348575
 30
0.0
 40
99.99999999999959
100
AcDbArc
 50
6.3665751905615
 51
11.75739960287364
  0
ARC
  5
3A7
330
99
100
AcDbEntity
  8
1
  6
Continuous
 62
     7
100
AcDbCircle
 10
717.0149106320509
 20
515.7731809348575
 30
0.0
 40
99.99999999999915
100
AcDbArc
 50
11.75739960287364
 51
15.70998377457458
  0
ARC
  5
3A8
330
99
100
AcDbEntity
  8
1
  6
Continuous
 62
     7
100
AcDbCircle
 10
419.0
 20
1032.5
 30
0.0
 40
17.50000000000037
100
AcDbArc
 50
-3.92718620169483
 51
-176.0728137983052
  0
ARC
  5
3A9
330
99
100
AcDbEntity
  8
1
  6
Continuous
 62
     7
100
AcDbCircle
 10
419.0
 20
976.5625000000023
 30
0.0
 40
34.06250000000234
100
AcDbArc
 50
-103.4274536817295
 51
-76.57254631827057
  0
CIRCLE
  5
3AA
102
{ACAD_REACTORS
330
3C2
330
3C2
102
}
330
99
100
AcDbEntity
  8
1
  6
Continuous
 62
     7
100
AcDbCircle
 10
407.0
 20
1032.5
 30
0.0
 40
3.25
  0
CIRCLE
  5
3AB
102
{ACAD_REACTORS
330
3C3
330
3C3
102
}
330
99
100
AcDbEntity
  8
1
  6
Continuous
 62
     7
100
AcDbCircle
 10
431.0
 20
1032.5
 30
0.0
 40
3.25
  0
SPLINE
  5
3AC
330
99
100
AcDbEntity
  8
1
  6
Continuous
 62
     7
100
AcDbSpline
210
0.0
220
0.0
230
1.0
 70
     8
 71
     3
 72
    45
 73
    41
 74
    39
 42
0.0000000001
 43
0.0000000001
 44
0.00000001
 40
0.0
 40
0.0
 40
0.0
 40
0.0
 40
0.206674318648275
 40
0.4300513228944207
 40
1.015978900054342
 40
1.579713783487065
 40
2.431021067494092
 40
3.278249050352044
 40
4.437707385499012
 40
5.597125325103593
 40
7.053057833935636
 40
8.50840408417708
 40
10.2236346176043
 40
11.93878229847716
 40
13.86665281699928
 40
15.79443425919163
 40
17.8796240783038
 40
19.96477945753285
 40
22.14656925828549
 40
24.32834248117953
 40
26.54268997584152
 40
28.75703747050379
 40
30.93881069339829
 40
33.12060049415103
 40
35.20575587338003
 40
37.29094569249219
 40
39.21872713468438
 40
41.14659765320648
 40
42.8617453340792
 40
44.57697586750606
 40
46.03232211774728
 40
47.48825462657937
 40
48.64767256618398
 40
49.80713090133093
 40
50.65435888418883
 40
51.50566616819576
 40
52.06940105162839
 40
52.65532862878843
 40
52.87870563303596
 40
53.08537995168516
 40
53.08537995168516
 40
53.08537995168516
 40
53.08537995168516
 10
393.499999999998
 20
521.9963380080626
 30
0.0
 10
393.5059687591175
 20
521.9271039558787
 30
0.0
 10
393.5183886513042
 20
521.7830406009066
 30
0.0
 10
393.6710742504033
 20
521.4755478560098
 30
0.0
 10
393.9502369638116
 20
521.1063244024512
 30
0.0
 10
394.4955007773116
 20
520.7108365183821
 30
0.0
 10
395.1768328947622
 20
520.3845191141348
 30
0.0
 10
396.0573840850447
 20
520.0201121963621
 30
0.0
 10
397.0621052382822
 20
519.6935020379711
 30
0.0
 10
398.2767626342045
 20
519.3641306324286
 30
0.0
 10
399.6018637558495
 20
519.0699823806699
 30
0.0
 10
401.1171527569379
 20
518.7824333941279
 30
0.0
 10
402.7259324448651
 20
518.5276954879543
 30
0.0
 10
404.4963673925819
 20
518.2907754423585
 30
0.0
 10
406.3422160222996
 20
518.0867607427547
 30
0.0
 10
408.3144589713213
 20
517.9073352402918
 30
0.0
 10
410.3420259635651
 20
517.761235878541
 30
0.0
 10
412.4562790754937
 20
517.6445476598293
 30
0.0
 10
414.6043492378098
 20
517.5616839229605
 30
0.0
 10
416.7964862911246
 20
517.5110104513994
 30
0.0
 10
418.9999999999982
 20
517.4944539818082
 30
0.0
 10
421.2035137088719
 20
517.5110104513993
 30
0.0
 10
423.3956507621873
 20
517.5616839229606
 30
0.0
 10
425.5437209245031
 20
517.6445476598292
 30
0.0
 10
427.6579740364321
 20
517.7612358785409
 30
0.0
 10
429.6855410286757
 20
517.9073352402917
 30
0.0
 10
431.6577839776972
 20
518.0867607427547
 30
0.0
 10
433.5036326074151
 20
518.2907754423584
 30
0.0
 10
435.2740675551315
 20
518.5276954879544
 30
0.0
 10
436.8828472430587
 20
518.7824333941277
 30
0.0
 10
438.3981362441466
 20
519.0699823806698
 30
0.0
 10
439.7232373657915
 20
519.3641306324287
 30
0.0
 10
440.9378947617138
 20
519.6935020379711
 30
0.0
 10
441.9426159149514
 20
520.0201121963621
 30
0.0
 10
442.8231671052339
 20
520.3845191141351
 30
0.0
 10
443.5044992226846
 20
520.7108365183818
 30
0.0
 10
444.0497630361842
 20
521.1063244024513
 30
0.0
 10
444.3289257495934
 20
521.4755478560099
 30
0.0
 10
444.4816113486924
 20
521.7830406009076
 30
0.0
 10
444.4940312408787
 20
521.9271039558806
 30
0.0
 10
444.499999999998
 20
521.9963380080649
 30
0.0
 11
393.499999999998
 21
521.9963380080626
 31
0.0
 11
393.5299645875092
 21
521.791847427634
 31
0.0
 11
393.6198583500407
 21
521.5873568472057
 31
0.0
 11
393.9754083220435
 21
521.1216366059822
 31
0.0
 11
394.4235766771936
 21
520.7796685603391
 31
0.0
 11
395.1810180362263
 21
520.3910727813731
 31
0.0
 11
395.9644891181355
 21
520.0686315948761
 31
0.0
 11
397.0646939105627
 21
519.7027176081772
 31
0.0
 11
398.1832736035829
 21
519.3977103475424
 31
0.0
 11
399.6035117127005
 21
519.0772993869248
 31
0.0
 11
401.0332093810509
 21
518.8052749666881
 31
0.0
 11
402.7269299503842
 21
518.5344864591432
 31
0.0
 11
404.4268324511241
 21
518.3063131583789
 31
0.0
 11
406.3428594029886
 21
518.0929462070586
 31
0.0
 11
408.2626745531667
 21
517.9178717143197
 31
0.0
 11
410.3424035726873
 21
517.7670612800223
 31
0.0
 11
412.4243790391002
 21
517.6519478021733
 31
0.0
 11
414.604526068212
 21
517.5672975445032
 31
0.0
 11
416.7857169274912
 21
517.5168908828982
 31
0.0
 11
418.9999999999981
 21
517.4999999999998
 31
0.0
 11
421.2142830725053
 21
517.5168908828982
 31
0.0
 11
423.395473931785
 21
517.5672975445032
 31
0.0
 11
425.5756209608969
 21
517.6519478021733
 31
0.0
 11
427.6575964273097
 21
517.7670612800223
 31
0.0
 11
429.7373254468303
 21
517.9178717143197
 31
0.0
 11
431.6571405970083
 21
518.0929462070586
 31
0.0
 11
433.5731675488727
 21
518.3063131583788
 31
0.0
 11
435.2730700496125
 21
518.5344864591432
 31
0.0
 11
436.9667906189454
 21
518.805274966688
 31
0.0
 11
438.3964882872957
 21
519.0772993869247
 31
0.0
 11
439.8167263964133
 21
519.3977103475426
 31
0.0
 11
440.9353060894335
 21
519.7027176081772
 31
0.0
 11
442.0355108818607
 21
520.0686315948763
 31
0.0
 11
442.8189819637698
 21
520.3910727813732
 31
0.0
 11
443.5764233228024
 21
520.7796685603391
 31
0.0
 11
444.0245916779524
 21
521.1216366059822
 31
0.0
 11
444.3801416499556
 21
521.5873568472056
 31
0.0
 11
444.4700354124874
 21
521.7918474276353
 31
0.0
 11
444.499999999998
 21
521.9963380080649
 31
0.0
  0
SPLINE
  5
3AD
330
99
100
AcDbEntity
  8
1
  6
Continuous
 62
     7
100
AcDbSpline
210
0.0
220
0.0
230
1.0
 70
     8
 71
     3
 72
    55
 73
    51
 74
    49
 42
0.0000000001
 43
0.0000000001
 44
0.00000001
 40
0.0
 40
0.0
 40
0.0
 40
0.0
 40
1.239296009338994
 40
2.480927231709014
 40
4.691461210253954
 40
6.902027076043501
 40
9.108708649121454
 40
11.31541851856914
 40
13.51895686877476
 40
15.72251637750692
 40
17.9240033846154
 40
20.12550170464925
 40
22.32627980041548
 40
24.52705789618171
 40
26.72855621621532
 40
28.93004322332382
 40
31.1336027320561
 40
33.33714108226212
 40
35.54385095171013
 40
37.75053252478767
 40
39.96109839057702
 40
42.17163236912185
 40
44.38629251870233
 40
46.60092108587803
 40
48.81942006229398
 40
51.03789151427279
 40
53.25951321434594
 40
55.48111463379259
 40
57.70476984889448
 40
59.92841432413182
 40
62.15277163596066
 40
64.37712894778944
 40
66.60077342302678
 40
68.82442863812874
 40
71.04603005757538
 40
73.26765175764854
 40
75.4861232096272
 40
77.70462218604286
 40
79.91925075321832
 40
82.13391090279896
 40
84.34444488134399
 40
86.55501074713348
 40
88.76169232021105
 40
90.96840218965906
 40
93.17194053986511
 40
95.37550004859715
 40
97.57698705570586
 40
99.77848537573948
 40
101.9792634715055
 40
104.1800415672715
 40
104.1800415672715
 40
104.1800415672715
 40
104.1800415672715
 10
435.1840788862901
 20
1012.73143115876
 30
0.0
 10
435.5010453682953
 20
1012.996487440543
 30
0.0
 10
436.1355755941814
 20
1013.52709945128
 30
0.0
 10
437.2717207957507
 20
1014.602875165513
 30
0.0
 10
438.557851330077
 20
1015.987679932214
 30
0.0
 10
439.9130128740481
 20
1017.736149878053
 30
0.0
 10
441.1108236242237
 20
1019.59432394862
 30
0.0
 10
442.1389438125563
 20
1021.548912213202
 30
0.0
 10
442.9922456199079
 20
1023.584758236779
 30
0.0
 10
443.661655520533
 20
1025.68643907579
 30
0.0
 10
444.1445498270019
 20
1027.837946756305
 30
0.0
 10
444.4347985195512
 20
1030.022863931848
 30
0.0
 10
444.5325953994645
 20
1032.224568564343
 30
0.0
 10
444.434798548319
 20
1034.426273245811
 30
0.0
 10
444.1445497118859
 20
1036.611190274386
 30
0.0
 10
443.6616559523833
 20
1038.762698493985
 30
0.0
 10
442.9922440059835
 20
1040.864377321869
 30
0.0
 10
442.1389498393622
 20
1042.900230855389
 30
0.0
 10
441.1108010959617
 20
1044.854791054058
 30
0.0
 10
439.9130970079841
 20
1046.713069959572
 30
0.0
 10
438.5575367254626
 20
1048.461147997754
 30
0.0
 10
437.0518995250342
 20
1050.085368264675
 30
0.0
 10
435.4101766808843
 20
1051.573913797438
 30
0.0
 10
433.6424379703879
 20
1052.914748392581
 30
0.0
 10
431.7644558750357
 20
1054.098618087184
 30
0.0
 10
429.7883874979559
 20
1055.115388448189
 30
0.0
 10
427.7311829041775
 20
1055.958694407971
 30
0.0
 10
425.6068479301332
 20
1056.62058960299
 30
0.0
 10
423.4328654608593
 20
1057.097767883456
 30
0.0
 10
421.2247882477035
 20
1057.384759045066
 30
0.0
 10
418.9999999999995
 20
1057.481331353595
 30
0.0
 10
416.7752117522985
 20
1057.384759045067
 30
0.0
 10
414.5671345391347
 20
1057.097767883455
 30
0.0
 10
412.3931520698896
 20
1056.620589602993
 30
0.0
 10
410.268817095737
 20
1055.958694407963
 30
0.0
 10
408.2116125023637
 20
1055.115388448217
 30
0.0
 10
406.2355441237737
 20
1054.098618087079
 30
0.0
 10
404.3575620340538
 20
1052.914748392974
 30
0.0
 10
402.5898233025732
 20
1051.573913795975
 30
0.0
 10
400.9481005366626
 20
1050.085368270132
 30
0.0
 10
399.4424630447595
 20
1048.461147977428
 30
0.0
 10
398.0869038489905
 20
1046.713070035382
 30
0.0
 10
396.8891957119914
 20
1044.854790771681
 30
0.0
 10
395.8610620671548
 20
1042.900231908669
 30
0.0
 10
395.0077116290318
 20
1040.864373397233
 30
0.0
 10
394.3385095639231
 20
1038.762713135967
 30
0.0
 10
393.8548332163076
 20
1036.611135686688
 30
0.0
 10
393.5675041624791
 20
1034.426476949303
 30
0.0
 10
393.4588138786643
 20
1032.223808607842
 30
0.0
 10
393.5511060783495
 20
1030.758563075348
 30
0.0
 10
393.5972521781921
 20
1030.0259403091
 30
0.0
 11
435.1840788862901
 21
1012.73143115876
 31
0.0
 11
436.1265650296525
 21
1013.536151276772
 31
0.0
 11
437.0303573084295
 21
1014.387507611797
 31
0.0
 11
438.5328043243548
 21
1016.00896172297
 31
0.0
 11
439.8876588023035
 21
1017.755664557048
 31
0.0
 11
441.0827355108771
 21
1019.610721220761
 31
0.0
 11
442.1103323596004
 21
1021.56356867113
 31
0.0
 11
442.9616973121249
 21
1023.595995540279
 31
0.0
 11
443.6307799134308
 21
1025.69552000576
 31
0.0
 11
444.1124719758311
 21
1027.843662877984
 31
0.0
 11
444.4027478218075
 21
1030.0259403091
 31
0.0
 11
444.4999999999998
 21
1032.224568572504
 31
0.0
 11
444.4027478218075
 21
1034.423196835909
 31
0.0
 11
444.1124719758312
 21
1036.605474267024
 31
0.0
 11
443.6307799134308
 21
1038.753617139248
 31
0.0
 11
442.9616973121248
 21
1040.853141604729
 31
0.0
 11
442.1103323596004
 21
1042.885568473879
 31
0.0
 11
441.082735510877
 21
1044.838415924248
 31
0.0
 11
439.8876588023035
 21
1046.693472587961
 31
0.0
 11
438.532804324355
 21
1048.440175422039
 31
0.0
 11
437.03035730843
 21
1050.061629533211
 31
0.0
 11
435.38950615032
 21
1051.549018875337
 31
0.0
 11
433.6252991677559
 21
1052.887732217776
 31
0.0
 11
431.7484368053226
 21
1054.070578522601
 31
0.0
 11
429.7759752254103
 21
1055.085965591169
 31
0.0
 11
427.7202582933221
 21
1055.928361503648
 31
0.0
 11
425.599343980532
 21
1056.58959924054
 31
0.0
 11
423.42732979381
 21
1057.066041145003
 31
0.0
 11
421.222278753398
 21
1057.352998740183
 31
0.0
 11
419.0
 21
1057.449137145008
 31
0.0
 11
416.7777212466021
 21
1057.352998740183
 31
0.0
 11
414.5726702061901
 21
1057.066041145003
 31
0.0
 11
412.400656019468
 21
1056.58959924054
 31
0.0
 11
410.279741706678
 21
1055.928361503648
 31
0.0
 11
408.2240247745897
 21
1055.085965591169
 31
0.0
 11
406.2515631946775
 21
1054.070578522601
 31
0.0
 11
404.3747008322446
 21
1052.887732217776
 31
0.0
 11
402.6104938496808
 21
1051.549018875337
 31
0.0
 11
400.9696426915706
 21
1050.061629533211
 31
0.0
 11
399.4671956756453
 21
1048.440175422039
 31
0.0
 11
398.1123411976966
 21
1046.693472587961
 31
0.0
 11
396.917264489123
 21
1044.838415924248
 31
0.0
 11
395.8896676403996
 21
1042.885568473879
 31
0.0
 11
395.0383026878751
 21
1040.853141604729
 31
0.0
 11
394.3692200865692
 21
1038.753617139248
 31
0.0
 11
393.8875280241689
 21
1036.605474267024
 31
0.0
 11
393.5972521781926
 21
1034.423196835909
 31
0.0
 11
393.5000000000001
 21
1032.224568572504
 31
0.0
 11
393.5972521781921
 21
1030.0259403091
 31
0.0
  0
SPLINE
  5
3AE
330
99
100
AcDbEntity
  8
1
  6
Continuous
 62
     7
100
AcDbSpline
210
0.0
220
0.0
230
1.0
 70
     8
 71
     3
 72
    17
 73
    13
 74
    11
 42
0.0000000001
 43
0.0000000001
 44
0.00000001
 40
0.0
 40
0.0
 40
0.0
 40
0.0
 40
2.201498320034113
 40
4.402985327142847
 40
6.606544835875001
 40
8.810083186080627
 40
11.01679305552834
 40
13.22347462860629
 40
15.43404049439598
 40
17.64457447294084
 40
18.88620569531283
 40
20.12550170465347
 40
20.12550170465347
 40
20.12550170465347
 40
20.12550170465347
 10
393.5972521781921
 20
1030.0259403091
 30
0.0
 10
393.6804529456549
 20
1029.296354397108
 30
0.0
 10
393.8468540530334
 20
1027.837186322277
 30
0.0
 10
394.3406502047677
 20
1025.686643045952
 30
0.0
 10
395.0071363532667
 20
1023.584703564598
 30
0.0
 10
395.8612220524198
 20
1021.548926886027
 30
0.0
 10
396.8891319044001
 20
1019.594320014572
 30
0.0
 10
398.0869990810592
 20
1017.736150935632
 30
0.0
 10
399.442145405349
 20
1015.987679643422
 30
0.0
 10
400.7282796618334
 20
1014.602875205992
 30
0.0
 10
401.864424319686
 20
1013.527099443658
 30
0.0
 10
402.498954603014
 20
1012.996487438003
 30
0.0
 10
402.8159211137131
 20
1012.731431158758
 30
0.0
 11
393.5972521781921
 21
1030.0259403091
 31
0.0
 11
393.8875280241688
 21
1027.843662877985
 31
0.0
 11
394.3692200865692
 21
1025.69552000576
 31
0.0
 11
395.0383026878751
 21
1023.595995540279
 31
0.0
 11
395.8896676403996
 21
1021.56356867113
 31
0.0
 11
396.917264489123
 21
1019.610721220761
 31
0.0
 11
398.1123411976966
 21
1017.755664557048
 31
0.0
 11
399.4671956756452
 21
1016.00896172297
 31
0.0
 11
400.9696426915704
 21
1014.387507611797
 31
0.0
 11
401.8734349703489
 21
1013.536151276771
 31
0.0
 11
402.8159211137131
 21
1012.731431158758
 31
0.0
  0
ARC
  5
3AF
330
99
100
AcDbEntity
  8
1
  6
Continuous
 62
     7
100
AcDbCircle
 10
766.5122536679869
 20
518.0980374485897
 30
0.0
 40
0.5000000000003031
100
AcDbArc
 50
178.6611398040225
 51
-80.00000000004516
  0
ARC
  5
3B0
330
99
100
AcDbEntity
  8
1
  6
Continuous
 62
     7
100
AcDbCircle
 10
435.795947631455
 20
554.1053241693392
 30
0.0
 40
1.000000000000545
100
AcDbArc
 50
23.08819455622471
 51
80.50650338618516
  0
ARC
  5
3B1
330
99
100
AcDbEntity
  8
1
  6
Continuous
 62
     7
100
AcDbCircle
 10
402.2040523685409
 20
554.1053241693392
 30
0.0
 40
0.9999999999999251
100
AcDbArc
 50
99.49349661374738
 51
156.9118054437548
  0
ARC
  5
3B2
330
99
100
AcDbEntity
  8
1
  6
Continuous
 62
     7
100
AcDbCircle
 10
426.3356826340601
 20
553.0648775392992
 30
0.0
 40
5.0
100
AcDbArc
 50
-90.0
 51
-75.84636823584019
  0
ARC
  5
3B3
330
99
100
AcDbEntity
  8
1
  6
Continuous
 62
     7
100
AcDbCircle
 10
425.5999999999981
 20
553.0648775392992
 30
0.0
 40
4.999999999999776
100
AcDbArc
 50
-120.5102374061096
 51
-90.0
  0
ARC
  5
3B4
330
99
100
AcDbEntity
  8
1
  6
Continuous
 62
     7
100
AcDbCircle
 10
412.399999999998
 20
553.0648775392992
 30
0.0
 40
5.0
100
AcDbArc
 50
-90.0
 51
-59.4897625938814
  0
ARC
  5
3B5
330
99
100
AcDbEntity
  8
1
  6
Continuous
 62
     7
100
AcDbCircle
 10
411.664317365937
 20
553.0648775392992
 30
0.0
 40
5.000000000000002
100
AcDbArc
 50
-104.1536317641598
 51
-90.0
  0
ARC
  5
3B6
330
99
100
AcDbEntity
  8
1
  6
Continuous
 62
     7
100
AcDbCircle
 10
408.499999999998
 20
554.9572278151657
 30
0.0
 40
0.9999999999999213
100
AcDbArc
 50
95.91826667126702
 51
180.0
  0
ARC
  5
3B7
330
99
100
AcDbEntity
  8
1
  6
Continuous
 62
     7
100
AcDbCircle
 10
408.499999999998
 20
553.2772031195214
 30
0.0
 40
1.0
100
AcDbArc
 50
180.0
 51
-93.02454865469652
  0
ARC
  5
3B8
330
99
100
AcDbEntity
  8
1
  6
Continuous
 62
     7
100
AcDbCircle
 10
429.499999999998
 20
553.2772031195214
 30
0.0
 40
0.9999999999996949
100
AcDbArc
 50
-86.97545134524495
 51
0.0
  0
ARC
  5
3B9
330
99
100
AcDbEntity
  8
1
  6
Continuous
 62
     7
100
AcDbCircle
 10
429.499999999998
 20
554.9572278151657
 30
0.0
 40
1.0
100
AcDbArc
 50
0.0
 51
84.08173332868763
  0
ARC
  5
3BA
330
99
100
AcDbEntity
  8
1
  6
Continuous
 62
     7
100
AcDbCircle
 10
808.2925252097441
 20
554.1058964270599
 30
0.0
 40
0.9999999999996313
100
AcDbArc
 50
22.78033398699758
 51
80.50845571979217
  0
ARC
  5
3BB
330
99
100
AcDbEntity
  8
1
  6
Continuous
 62
     7
100
AcDbCircle
 10
764.5181558126981
 20
542.781723933232
 30
0.0
 40
4.999999999999877
100
AcDbArc
 50
-14.90542064623597
 51
85.00000000000551
  0
ARC
  5
3BC
330
99
100
AcDbEntity
  8
1
  6
Continuous
 62
     7
100
AcDbCircle
 10
770.4655273053929
 20
548.5910611738085
 30
0.0
 40
0.9999999999999991
100
AcDbArc
 50
-18.96130426696201
 51
88.00000000002254
  0
ARC
  5
3BD
330
99
100
AcDbEntity
  8
1
  6
Continuous
 62
     7
100
AcDbCircle
 10
815.901272044855
 20
526.806653939139
 30
0.0
 40
0.4999999999998054
100
AcDbArc
 50
-79.999999999938
 51
6.36657519055001
  0
ARC
  5
3BE
330
99
100
AcDbEntity
  8
1
  6
Continuous
 62
     7
100
AcDbCircle
 10
425.748719066308
 20
948.2944314912736
 30
0.0
 40
5.000000000000152
100
AcDbArc
 50
-76.57254631826719
 51
-3.92718620169485
  0
ARC
  5
3BF
330
99
100
AcDbEntity
  8
1
  6
Continuous
 62
     7
100
AcDbCircle
 10
412.251280933692
 20
948.2944314912736
 30
0.0
 40
5.000000000000081
100
AcDbArc
 50
-176.0728137983052
 51
-103.4274536817328
  0
ARC
  5
3C0
330
99
100
AcDbEntity
  8
1
  6
Continuous
 62
     7
100
AcDbCircle
 10
702.499999999998
 20
552.9656887748232
 30
0.0
 40
1.0
100
AcDbArc
 50
180.0
 51
-91.99999999996444
  0
ARC
  5
3C1
330
99
100
AcDbEntity
  8
1
  6
Continuous
 62
     7
100
AcDbCircle
 10
702.499999999998
 20
555.5000000000158
 30
0.0
 40
1.0
100
AcDbArc
 50
90.0
 51
180.0
  0
HATCH
  5
3C2
330
99
100
AcDbEntity
  8
1
  6
Continuous
 62
     2
100
AcDbHatch
 10
0.0
 20
0.0
 30
0.0
210
0.0
220
0.0
230
1.0
  2
CUSTOM0
 70
     0
 71
     1
 91
        1
 92
        1
 93
        1
 72
     2
 10
407.0
 20
1032.5
 40
3.25
 50
0.0
 51
360.0
 73
     1
 97
        1
330
3AA
 75
     1
 76
     2
 52
45.0
 41
0.2
 77
     0
 78
     1
 53
45.0
 43
0.0
 44
0.0
 45
-0.565685424949238
 46
0.0
 79
     0
 98
        1
 10
0.0
 20
0.0
  0
HATCH
  5
3C3
330
99
100
AcDbEntity
  8
1
  6
Continuous
 62
     2
100
AcDbHatch
 10
0.0
 20
0.0
 30
0.0
210
0.0
220
0.0
230
1.0
  2
CUSTOM1
 70
     0
 71
     1
 91
        1
 92
        1
 93
        1
 72
     2
 10
431.0
 20
1032.5
 40
3.25
 50
0.0
 51
360.0
 73
     1
 97
        1
330
3AB
 75
     1
 76
     2
 52
45.0
 41
0.2
 77
     0
 78
     1
 53
45.0
 43
0.0
 44
0.0
 45
-0.565685424949238
 46
0.0
 79
     0
 98
        1
 10
0.0
 20
0.0
  0
ENDBLK
  5
9C
330
99
100
AcDbEntity
  8
0
100
AcDbBlockEnd
  0
BLOCK
  5
9E
330
9D
100
AcDbEntity
  8
0
100
AcDbBlockBegin
  2
K1700-0
 70
     0
 71
     0
 10
269.0
 20
392.5000000000001
 30
0.0
  3
K1700-0
  1

  0
LINE
  5
3C4
330
9D
100
AcDbEntity
  8
1
  6
Continuous
 62
     7
100
AcDbLine
 10
769.49999999999
 20
518.1171444324921
 30
0.0
 11
769.5
 21
482.0000000000001
 31
0.0
  0
LINE
  5
3C5
330
9D
100
AcDbEntity
  8
1
  6
Continuous
 62
     7
100
AcDbLine
 10
396.9999999999751
 20
519.722393020854
 30
0.0
 11
397.0
 21
506.0000000000001
 31
0.0
  0
LINE
  5
3C6
330
9D
100
AcDbEntity
  8
1
  6
Continuous
 62
     7
100
AcDbLine
 10
372.7204999999999
 20
1040.5
 30
0.0
 11
345.0
 21
1040.5
 31
0.0
  0
LINE
  5
3C7
330
9D
100
AcDbEntity
  8
1
  6
Continuous
 62
     7
100
AcDbLine
 10
493.0
 20
1040.5
 30
0.0
 11
465.2795000000001
 21
1040.5
 31
0.0
  0
LINE
  5
3C8
330
9D
100
AcDbEntity
  8
1
  6
Continuous
 62
     7
100
AcDbLine
 10
359.0
 20
1023.5
 30
0.0
 11
377.7325794360741
 21
1023.5
 31
0.0
  0
LINE
  5
3C9
330
9D
100
AcDbEntity
  8
1
  6
Continuous
 62
     7
100
AcDbLine
 10
387.6950483150031
 20
1040.5
 30
0.0
 11
372.7204999999999
 21
1040.5
 31
0.0
  0
LINE
  5
3CA
330
9D
100
AcDbEntity
  8
1
  6
Continuous
 62
     7
100
AcDbLine
 10
345.2795000000001
 20
1040.5
 30
0.0
 11
345.0
 21
1040.5
 31
0.0
  0
LINE
  5
3CB
330
9D
100
AcDbEntity
  8
1
  6
Continuous
 62
     7
100
AcDbLine
 10
345.0
 20
1040.5
 30
0.0
 11
345.0
 21
1032.5
 31
0.0
  0
LINE
  5
3CC
330
9D
100
AcDbEntity
  8
1
  6
Continuous
 62
     7
100
AcDbLine
 10
345.7795000000001
 20
1044.487356961605
 30
0.0
 11
345.7795000000001
 21
1041.0
 31
0.0
  0
LINE
  5
3CD
330
9D
100
AcDbEntity
  8
1
  6
Continuous
 62
     7
100
AcDbLine
 10
372.2204999999999
 20
1044.487356961605
 30
0.0
 11
372.2204999999999
 21
1041.0
 31
0.0
  0
LINE
  5
3CE
330
9D
100
AcDbEntity
  8
1
  6
Continuous
 62
     2
100
AcDbLine
 10
371.0585000000001
 20
1046.5
 30
0.0
 11
372.2204999999999
 21
1044.487356961605
 31
0.0
  0
LINE
  5
3CF
330
9D
100
AcDbEntity
  8
1
  6
Continuous
 62
     2
100
AcDbLine
 10
346.9414999999999
 20
1046.5
 30
0.0
 11
345.7795000000001
 21
1044.487356961605
 31
0.0
  0
LINE
  5
3D0
330
9D
100
AcDbEntity
  8
1
  6
Continuous
 62
     7
100
AcDbLine
 10
372.2204999999999
 20
1046.5
 30
0.0
 11
371.0585000000001
 21
1046.5
 31
0.0
  0
LINE
  5
3D1
330
9D
100
AcDbEntity
  8
1
  6
Continuous
 62
     7
100
AcDbLine
 10
345.7795000000001
 20
1046.5
 30
0.0
 11
346.9414999999999
 21
1046.5
 31
0.0
  0
LINE
  5
3D2
330
9D
100
AcDbEntity
  8
1
  6
Continuous
 62
     7
100
AcDbLine
 10
465.7795000000001
 20
1044.487356961605
 30
0.0
 11
465.7795000000001
 21
1048.380561136096
 31
0.0
  0
LINE
  5
3D3
330
9D
100
AcDbEntity
  8
1
  6
Continuous
 62
     7
100
AcDbLine
 10
492.2204999999999
 20
1044.487356961605
 30
0.0
 11
492.2204999999999
 21
1048.380561136096
 31
0.0
  0
LINE
  5
3D4
330
9D
100
AcDbEntity
  8
1
  6
Continuous
 62
     7
100
AcDbLine
 10
397.0
 20
495.8658231063927
 30
0.0
 11
397.0
 21
496.0000000000001
 31
0.0
  0
LINE
  5
3D5
330
9D
100
AcDbEntity
  8
1
  6
Continuous
 62
     7
100
AcDbLine
 10
441.0
 20
495.8658231063927
 30
0.0
 11
441.0
 21
496.0000000000001
 31
0.0
  0
LINE
  5
3D6
330
9D
100
AcDbEntity
  8
1
  6
Continuous
 62
     7
100
AcDbLine
 10
387.0
 20
496.0000000000001
 30
0.0
 11
359.0
 21
496.0000000000001
 31
0.0
  0
LINE
  5
3D7
330
9D
100
AcDbEntity
  8
1
  6
Continuous
 62
     7
100
AcDbLine
 10
441.0
 20
506.0000000000001
 30
0.0
 11
440.9999999999749
 21
519.722393020843
 31
0.0
  0
LINE
  5
3D8
330
9D
100
AcDbEntity
  8
1
  6
Continuous
 62
     2
100
AcDbLine
 10
406.8130000000001
 20
464.9948038475778
 30
0.0
 11
406.0000000000001
 21
466.4029611541308
 31
0.0
  0
LINE
  5
3D9
330
9D
100
AcDbEntity
  8
1
  6
Continuous
 62
     2
100
AcDbLine
 10
431.1869999999999
 20
464.9948038475779
 30
0.0
 11
431.1869999999999
 21
463.4999999999999
 31
0.0
  0
LINE
  5
3DA
330
9D
100
AcDbEntity
  8
1
  6
Continuous
 62
     2
100
AcDbLine
 10
432.0
 20
466.4029611541308
 30
0.0
 11
431.1869999999999
 21
464.9948038475779
 31
0.0
  0
LINE
  5
3DB
330
9D
100
AcDbEntity
  8
1
  6
Continuous
 62
     7
100
AcDbLine
 10
406.0
 20
464.9948038475779
 30
0.0
 11
432.0
 21
464.9948038475779
 31
0.0
  0
LINE
  5
3DC
330
9D
100
AcDbEntity
  8
1
  6
Continuous
 62
     7
100
AcDbLine
 10
406.0
 20
466.5000000000001
 30
0.0
 11
406.0
 21
463.4999999999999
 31
0.0
  0
LINE
  5
3DD
330
9D
100
AcDbEntity
  8
1
  6
Continuous
 62
     7
100
AcDbLine
 10
359.0
 20
468.0000000000001
 30
0.0
 11
479.0
 21
468.0000000000001
 31
0.0
  0
LINE
  5
3DE
330
9D
100
AcDbEntity
  8
1
  6
Continuous
 62
     7
100
AcDbLine
 10
479.0
 20
496.0000000000001
 30
0.0
 11
451.0
 21
496.0000000000001
 31
0.0
  0
LINE
  5
3DF
330
9D
100
AcDbEntity
  8
1
  6
Continuous
 62
     7
100
AcDbLine
 10
804.5
 20
466.4029611541467
 30
0.0
 11
804.5
 21
466.5000000000002
 31
0.0
  0
LINE
  5
3E0
330
9D
100
AcDbEntity
  8
1
  6
Continuous
 62
     7
100
AcDbLine
 10
778.5
 20
466.4029611541466
 30
0.0
 11
778.5
 21
463.4948038475936
 31
0.0
  0
LINE
  5
3E1
330
9D
100
AcDbEntity
  8
1
  6
Continuous
 62
     2
100
AcDbLine
 10
779.3130000000001
 20
464.9948038475936
 30
0.0
 11
778.5
 21
466.4029611541466
 31
0.0
  0
LINE
  5
3E2
330
9D
100
AcDbEntity
  8
1
  6
Continuous
 62
     2
100
AcDbLine
 10
779.3130000000001
 20
463.4948038475936
 30
0.0
 11
779.3130000000001
 21
464.9948038475936
 31
0.0
  0
LINE
  5
3E3
330
9D
100
AcDbEntity
  8
1
  6
Continuous
 62
     2
100
AcDbLine
 10
803.6869999999999
 20
464.9948038475937
 30
0.0
 11
803.6869999999999
 21
463.4948038475937
 31
0.0
  0
LINE
  5
3E4
330
9D
100
AcDbEntity
  8
1
  6
Continuous
 62
     2
100
AcDbLine
 10
804.5
 20
466.4029611541467
 30
0.0
 11
803.6869999999999
 21
464.9948038475937
 31
0.0
  0
LINE
  5
3E5
330
9D
100
AcDbEntity
  8
1
  6
Continuous
 62
     7
100
AcDbLine
 10
803.6869999999999
 20
464.9948038475937
 30
0.0
 11
804.5
 21
464.9948038475937
 31
0.0
  0
LINE
  5
3E6
330
9D
100
AcDbEntity
  8
1
  6
Continuous
 62
     7
100
AcDbLine
 10
778.5
 20
464.9948038475936
 30
0.0
 11
779.3130000000001
 21
464.9948038475936
 31
0.0
  0
LINE
  5
3E7
330
9D
100
AcDbEntity
  8
1
  6
Continuous
 62
     7
100
AcDbLine
 10
778.5
 20
466.7084973778709
 30
0.0
 11
778.5
 21
466.4029611541466
 31
0.0
  0
LINE
  5
3E8
330
9D
100
AcDbEntity
  8
1
  6
Continuous
 62
     7
100
AcDbLine
 10
804.5
 20
463.4948038475937
 30
0.0
 11
804.5
 21
466.4029611541467
 31
0.0
  0
LINE
  5
3E9
330
9D
100
AcDbEntity
  8
1
  6
Continuous
 62
     7
100
AcDbLine
 10
806.0
 20
468.0000000000002
 30
0.0
 11
807.3805611360949
 21
468.0000000000002
 31
0.0
  0
LINE
  5
3EA
330
9D
100
AcDbEntity
  8
1
  6
Continuous
 62
     7
100
AcDbLine
 10
460.2674205639271
 20
1023.5
 30
0.0
 11
479.0
 21
1023.5
 31
0.0
  0
LINE
  5
3EB
330
9D
100
AcDbEntity
  8
1
  6
Continuous
 62
     7
100
AcDbLine
 10
465.2795000000001
 20
1040.5
 30
0.0
 11
450.3049516849969
 21
1040.5
 31
0.0
  0
LINE
  5
3EC
330
9D
100
AcDbEntity
  8
1
  6
Continuous
 62
     7
100
AcDbLine
 10
493.0
 20
1040.5
 30
0.0
 11
492.7204999999999
 21
1040.5
 31
0.0
  0
LINE
  5
3ED
330
9D
100
AcDbEntity
  8
1
  6
Continuous
 62
     7
100
AcDbLine
 10
493.0
 20
1032.5
 30
0.0
 11
493.0
 21
1040.5
 31
0.0
  0
LINE
  5
3EE
330
9D
100
AcDbEntity
  8
1
  6
Continuous
 62
     7
100
AcDbLine
 10
492.2204999999999
 20
1041.0
 30
0.0
 11
492.2204999999999
 21
1044.487356961605
 31
0.0
  0
LINE
  5
3EF
330
9D
100
AcDbEntity
  8
1
  6
Continuous
 62
     7
100
AcDbLine
 10
465.7795000000001
 20
1041.0
 30
0.0
 11
465.7795000000001
 21
1044.487356961605
 31
0.0
  0
LINE
  5
3F0
330
9D
100
AcDbEntity
  8
1
  6
Continuous
 62
     2
100
AcDbLine
 10
466.9414999999999
 20
1046.5
 30
0.0
 11
466.9415
 21
1048.380561136096
 31
0.0
  0
LINE
  5
3F1
330
9D
100
AcDbEntity
  8
1
  6
Continuous
 62
     2
100
AcDbLine
 10
491.0585000000001
 20
1046.5
 30
0.0
 11
491.0585000000001
 21
1048.380561136096
 31
0.0
  0
LINE
  5
3F2
330
9D
100
AcDbEntity
  8
1
  6
Continuous
 62
     2
100
AcDbLine
 10
465.7795000000001
 20
1044.487356961605
 30
0.0
 11
466.9414999999999
 21
1046.5
 31
0.0
  0
LINE
  5
3F3
330
9D
100
AcDbEntity
  8
1
  6
Continuous
 62
     2
100
AcDbLine
 10
492.2204999999999
 20
1044.487356961605
 30
0.0
 11
491.0585000000001
 21
1046.5
 31
0.0
  0
LINE
  5
3F4
330
9D
100
AcDbEntity
  8
1
  6
Continuous
 62
     7
100
AcDbLine
 10
466.9414999999999
 20
1046.5
 30
0.0
 11
465.7795000000001
 21
1046.5
 31
0.0
  0
LINE
  5
3F5
330
9D
100
AcDbEntity
  8
1
  6
Continuous
 62
     7
100
AcDbLine
 10
491.0585000000001
 20
1046.5
 30
0.0
 11
492.2204999999999
 21
1046.5
 31
0.0
  0
LINE
  5
3F6
330
9D
100
AcDbEntity
  8
1
  6
Continuous
 62
     7
100
AcDbLine
 10
432.0
 20
463.4999999999999
 30
0.0
 11
432.0
 21
466.5000000000001
 31
0.0
  0
LINE
  5
3F7
330
9D
100
AcDbEntity
  8
1
  6
Continuous
 62
     2
100
AcDbLine
 10
406.8130000000001
 20
463.4999999999999
 30
0.0
 11
406.8130000000001
 21
464.9948038475778
 31
0.0
  0
LINE
  5
3F8
330
9D
100
AcDbEntity
  8
1
  6
Continuous
 62
     7
100
AcDbLine
 10
346.9414999999999
 20
1046.5
 30
0.0
 11
371.0585000000001
 21
1046.5
 31
0.0
  0
LINE
  5
3F9
330
9D
100
AcDbEntity
  8
1
  6
Continuous
 62
     7
100
AcDbLine
 10
466.9414999999999
 20
1046.5
 30
0.0
 11
491.0585000000001
 21
1046.5
 31
0.0
  0
LINE
  5
3FA
330
9D
100
AcDbEntity
  8
1
  6
Continuous
 62
     7
100
AcDbLine
 10
803.6869999999999
 20
464.9948038475937
 30
0.0
 11
779.3130000000001
 21
464.9948038475936
 31
0.0
  0
LINE
  5
3FB
330
9D
100
AcDbEntity
  8
1
  6
Continuous
 62
     7
100
AcDbLine
 10
803.487356961605
 20
495.2204999999998
 30
0.0
 11
807.3805611360951
 21
495.2204999999998
 31
0.0
  0
LINE
  5
3FC
330
9D
100
AcDbEntity
  8
1
  6
Continuous
 62
     7
100
AcDbLine
 10
803.487356961605
 20
468.7795
 30
0.0
 11
807.3805611360951
 21
468.7795
 31
0.0
  0
LINE
  5
3FD
330
9D
100
AcDbEntity
  8
1
  6
Continuous
 62
     7
100
AcDbLine
 10
799.5
 20
467.9999999999998
 30
0.0
 11
799.5
 21
468.2794999999999
 31
0.0
  0
LINE
  5
3FE
330
9D
100
AcDbEntity
  8
1
  6
Continuous
 62
     7
100
AcDbLine
 10
791.5
 20
467.9999999999998
 30
0.0
 11
799.5
 21
467.9999999999998
 31
0.0
  0
LINE
  5
3FF
330
9D
100
AcDbEntity
  8
1
  6
Continuous
 62
     7
100
AcDbLine
 10
800.0
 20
468.7794999999999
 30
0.0
 11
803.487356961605
 21
468.7795
 31
0.0
  0
LINE
  5
400
330
9D
100
AcDbEntity
  8
1
  6
Continuous
 62
     7
100
AcDbLine
 10
800.0
 20
495.2204999999998
 30
0.0
 11
803.487356961605
 21
495.2204999999998
 31
0.0
  0
LINE
  5
401
330
9D
100
AcDbEntity
  8
1
  6
Continuous
 62
     2
100
AcDbLine
 10
805.5
 20
494.0584999999999
 30
0.0
 11
807.3805611360949
 21
494.0584999999999
 31
0.0
  0
LINE
  5
402
330
9D
100
AcDbEntity
  8
1
  6
Continuous
 62
     2
100
AcDbLine
 10
805.5
 20
469.9415
 30
0.0
 11
807.3805611360949
 21
469.9415
 31
0.0
  0
LINE
  5
403
330
9D
100
AcDbEntity
  8
1
  6
Continuous
 62
     2
100
AcDbLine
 10
803.487356961605
 20
495.2204999999998
 30
0.0
 11
805.5
 21
494.0584999999999
 31
0.0
  0
LINE
  5
404
330
9D
100
AcDbEntity
  8
1
  6
Continuous
 62
     2
100
AcDbLine
 10
803.487356961605
 20
468.7795
 30
0.0
 11
805.5
 21
469.9415
 31
0.0
  0
LINE
  5
405
330
9D
100
AcDbEntity
  8
1
  6
Continuous
 62
     7
100
AcDbLine
 10
805.5
 20
494.0584999999999
 30
0.0
 11
805.5
 21
495.2204999999998
 31
0.0
  0
LINE
  5
406
330
9D
100
AcDbEntity
  8
1
  6
Continuous
 62
     7
100
AcDbLine
 10
805.5
 20
469.9415
 30
0.0
 11
805.5
 21
468.7795
 31
0.0
  0
LINE
  5
407
330
9D
100
AcDbEntity
  8
1
  6
Continuous
 62
     7
100
AcDbLine
 10
805.5
 20
494.0584999999999
 30
0.0
 11
805.5
 21
469.9415
 31
0.0
  0
LINE
  5
408
330
9D
100
AcDbEntity
  8
1
  6
Continuous
 62
     7
100
AcDbLine
 10
799.5
 20
496.0000000000003
 30
0.0
 11
791.5
 21
496.0000000000003
 31
0.0
  0
LINE
  5
409
330
9D
100
AcDbEntity
  8
1
  6
Continuous
 62
     7
100
AcDbLine
 10
799.5
 20
495.7204999999998
 30
0.0
 11
799.5
 21
496.0000000000003
 31
0.0
  0
LINE
  5
40A
330
9D
100
AcDbEntity
  8
1
  6
Continuous
 62
     7
100
AcDbLine
 10
799.5
 20
482.0000000000001
 30
0.0
 11
799.5
 21
493.0000000000001
 31
0.0
  0
LINE
  5
40B
330
9D
100
AcDbEntity
  8
1
  6
Continuous
 62
     7
100
AcDbLine
 10
799.5
 20
471.0000000000001
 30
0.0
 11
799.5
 21
482.0000000000001
 31
0.0
  0
LINE
  5
40C
330
9D
100
AcDbEntity
  8
1
  6
Continuous
 62
     7
100
AcDbLine
 10
813.5
 20
522.0000000000002
 30
0.0
 11
791.5207681881981
 21
522.0000000000002
 31
0.0
  0
LINE
  5
40D
330
9D
100
AcDbEntity
  8
1
  6
Continuous
 62
     7
100
AcDbLine
 10
372.2204999999999
 20
1048.380561136096
 30
0.0
 11
372.2204999999999
 21
1044.487356961605
 31
0.0
  0
LINE
  5
40E
330
9D
100
AcDbEntity
  8
1
  6
Continuous
 62
     2
100
AcDbLine
 10
371.0585000000001
 20
1048.380561136096
 30
0.0
 11
371.0585000000001
 21
1046.5
 31
0.0
  0
LINE
  5
40F
330
9D
100
AcDbEntity
  8
1
  6
Continuous
 62
     2
100
AcDbLine
 10
346.9415
 20
1048.380561136096
 30
0.0
 11
346.9414999999999
 21
1046.5
 31
0.0
  0
LINE
  5
410
330
9D
100
AcDbEntity
  8
1
  6
Continuous
 62
     7
100
AcDbLine
 10
345.7795000000001
 20
1048.380561136096
 30
0.0
 11
345.7795000000001
 21
1044.487356961605
 31
0.0
  0
LINE
  5
411
330
9D
100
AcDbEntity
  8
1
  6
Continuous
 62
     7
100
AcDbLine
 10
813.5
 20
498.7307949636321
 30
0.0
 11
813.5
 21
522.0000000000002
 31
0.0
  0
ARC
  5
412
330
9D
100
AcDbEntity
  8
1
  6
Continuous
 62
     7
100
AcDbCircle
 10
349.0
 20
1032.5
 30
0.0
 40
4.0
100
AcDbArc
 50
180.0
 51
-143.1301023541548
  0
ARC
  5
413
330
9D
100
AcDbEntity
  8
1
  6
Continuous
 62
     7
100
AcDbCircle
 10
359.0
 20
1040.0
 30
0.0
 40
16.50000000000005
100
AcDbArc
 50
-143.1301023541557
 51
-90.0
  0
ARC
  5
414
330
9D
100
AcDbEntity
  8
1
  6
Continuous
 62
     7
100
AcDbCircle
 10
778.5
 20
472.0000000000001
 30
0.0
 40
4.000000000000045
100
AcDbArc
 50
-126.8698976458452
 51
-105.8266201318711
  0
ARC
  5
415
330
9D
100
AcDbEntity
  8
1
  6
Continuous
 62
     7
100
AcDbCircle
 10
786.0
 20
482.0000000000001
 30
0.0
 40
16.5
100
AcDbArc
 50
180.0
 51
-126.8698976458443
  0
ARC
  5
416
330
9D
100
AcDbEntity
  8
1
  6
Continuous
 62
     7
100
AcDbCircle
 10
489.0
 20
1032.5
 30
0.0
 40
4.000000000000137
100
AcDbArc
 50
-36.86989764584419
 51
0.0
  0
ARC
  5
417
330
9D
100
AcDbEntity
  8
1
  6
Continuous
 62
     7
100
AcDbCircle
 10
479.0
 20
1040.0
 30
0.0
 40
16.5
100
AcDbArc
 50
-90.0
 51
-36.86989764584406
  0
ARC
  5
418
330
9D
100
AcDbEntity
  8
1
  6
Continuous
 62
     7
100
AcDbCircle
 10
479.0
 20
482.0000000000001
 30
0.0
 40
14.0
100
AcDbArc
 50
0.0
 51
90.0
  0
ARC
  5
419
330
9D
100
AcDbEntity
  8
1
  6
Continuous
 62
     7
100
AcDbCircle
 10
359.0
 20
482.0000000000001
 30
0.0
 40
14.0
100
AcDbArc
 50
180.0
 51
-90.0
  0
ARC
  5
41A
330
9D
100
AcDbEntity
  8
1
  6
Continuous
 62
     7
100
AcDbCircle
 10
359.0
 20
482.0000000000001
 30
0.0
 40
14.0
100
AcDbArc
 50
90.0
 51
180.0
  0
ARC
  5
41B
330
9D
100
AcDbEntity
  8
1
  6
Continuous
 62
     7
100
AcDbCircle
 10
479.0
 20
482.0000000000001
 30
0.0
 40
14.0
100
AcDbArc
 50
-90.0
 51
0.0
  0
ARC
  5
41C
330
9D
100
AcDbEntity
  8
1
  6
Continuous
 62
     7
100
AcDbCircle
 10
791.5
 20
471.9999999999998
 30
0.0
 40
4.000000000000045
100
AcDbArc
 50
-126.8698976458452
 51
-90.0
  0
ARC
  5
41D
330
9D
100
AcDbEntity
  8
1
  6
Continuous
 62
     7
100
AcDbCircle
 10
799.0
 20
481.9999999999998
 30
0.0
 40
16.5
100
AcDbArc
 50
180.0
 51
-126.8698976458443
  0
ARC
  5
41E
330
9D
100
AcDbEntity
  8
1
  6
Continuous
 62
     7
100
AcDbCircle
 10
799.0
 20
481.9999999999998
 30
0.0
 40
16.50000000000046
100
AcDbArc
 50
126.8698976458432
 51
180.0
  0
ARC
  5
41F
330
9D
100
AcDbEntity
  8
1
  6
Continuous
 62
     7
100
AcDbCircle
 10
791.5
 20
492.0000000000003
 30
0.0
 40
4.0
100
AcDbArc
 50
90.0
 51
126.8698976458452
  0
ARC
  5
420
330
9D
100
AcDbEntity
  8
1
  6
Continuous
 62
     7
100
AcDbCircle
 10
751.533402791641
 20
481.9999999999999
 30
0.0
 40
30.96659720835928
100
AcDbArc
 50
-26.56439390165255
 51
-9.61926938042857
  0
SPLINE
  5
421
330
9D
100
AcDbEntity
  8
1
  6
Continuous
 62
     7
100
AcDbSpline
210
0.0
220
0.0
230
1.0
 70
     8
 71
     3
 72
    27
 73
    23
 74
    21
 42
0.0000000001
 43
0.0000000001
 44
0.00000001
 40
0.0
 40
0.0
 40
0.0
 40
0.0
 40
4.552476765930141
 40
9.103981523741195
 40
9.979614165145371
 40
10.85524184995733
 40
11.53345730967371
 40
12.2116712060129
 40
12.75670089532683
 40
13.30172705325581
 40
13.74655418079945
 40
14.19138450722496
 40
14.55556423984451
 40
14.91973003207654
 40
15.21587550706839
 40
15.51205176793879
 40
15.74893971647013
 40
15.98574563824099
 40
16.16947813427534
 40
16.353393140499
 40
16.58580629491168
 40
16.81786771654989
 40
16.81786771654989
 40
16.81786771654989
 40
16.81786771654989
 10
406.3905103832451
 20
482.0000000000001
 30
0.0
 10
405.422810831015
 20
483.169271125164
 30
0.0
 10
403.4876183419578
 20
485.5075637221524
 30
0.0
 10
401.5304766959054
 20
488.200404036192
 30
0.0
 10
400.3410917086044
 20
489.9321847521638
 30
0.0
 10
399.8898860467257
 20
490.604696469302
 30
0.0
 10
399.4815837707014
 20
491.2266818037639
 30
0.0
 10
399.1389948516327
 20
491.7599507711116
 30
0.0
 10
398.8252656783302
 20
492.2589529660356
 30
0.0
 10
398.5573133968758
 20
492.6948140846575
 30
0.0
 10
398.3110869687213
 20
493.1047919852828
 30
0.0
 10
398.0998719792111
 20
493.4654516508543
 30
0.0
 10
397.9061890956173
 20
493.8051874986434
 30
0.0
 10
397.7409473863203
 20
494.1040578686096
 30
0.0
 10
397.5906552757774
 20
494.3852544483544
 30
0.0
 10
397.4643060938604
 20
494.6311024032651
 30
0.0
 10
397.350976101243
 20
494.8613695567609
 30
0.0
 10
397.2587607967557
 20
495.060167402403
 30
0.0
 10
397.1786186791446
 20
495.2451256906621
 30
0.0
 10
397.1054550953552
 20
495.4310683030627
 30
0.0
 10
397.0304201728786
 20
495.6349222627418
 30
0.0
 10
397.0101349371577
 20
495.7888950248392
 30
0.0
 10
397.0
 20
495.8658231063927
 30
0.0
 11
406.3905103832451
 21
482.0000000000001
 31
0.0
 11
403.5248633793
 21
485.5373877301075
 31
0.0
 11
400.8378548241107
 21
489.211102550928
 31
0.0
 11
400.3423985500685
 21
489.9330828852894
 31
0.0
 11
399.8546015048735
 21
490.6602540378444
 31
0.0
 11
399.4825176774416
 21
491.227290046544
 31
0.0
 11
399.1160329332897
 21
491.7979589711329
 31
0.0
 11
398.8260407683848
 21
492.2594369300079
 31
0.0
 11
398.5407066928859
 21
492.7238052947637
 31
0.0
 11
398.3117924156894
 21
493.1052098399574
 31
0.0
 11
398.087108317088
 21
493.4891252930763
 31
0.0
 11
397.9068789818034
 21
493.8055810788564
 31
0.0
 11
397.7308122469474
 21
494.1243556529823
 31
0.0
 11
397.5913643359875
 21
494.3856149542273
 31
0.0
 11
397.4561223279893
 21
494.6491106406736
 31
0.0
 11
397.3517861123498
 21
494.8617837566648
 31
0.0
 11
397.252340573345
 21
495.0766968306222
 31
0.0
 11
397.1796216040095
 21
495.2454261451996
 31
0.0
 11
397.1118722054234
 21
495.4164078649988
 31
0.0
 11
397.0387586727914
 21
495.6370212954379
 31
0.0
 11
397.0
 21
495.8658231063927
 31
0.0
  0
SPLINE
  5
422
330
9D
100
AcDbEntity
  8
1
  6
Continuous
 62
     7
100
AcDbSpline
210
0.0
220
0.0
230
1.0
 70
     8
 71
     3
 72
    27
 73
    23
 74
    21
 42
0.0000000001
 43
0.0000000001
 44
0.00000001
 40
0.0
 40
0.0
 40
0.0
 40
0.0
 40
4.552476765930034
 40
9.103981523740785
 40
9.979614165144863
 40
10.8552418499567
 40
11.53345730967311
 40
12.21167120601223
 40
12.75670089532617
 40
13.30172705325517
 40
13.74655418079881
 40
14.19138450722435
 40
14.55556423984396
 40
14.91973003207607
 40
15.21587550706805
 40
15.5120517679385
 40
15.7489397164699
 40
15.98574563824078
 40
16.16947813427517
 40
16.3533931404987
 40
16.58580629491124
 40
16.81786771654941
 40
16.81786771654941
 40
16.81786771654941
 40
16.81786771654941
 10
431.609489616756
 20
482.0000000000001
 30
0.0
 10
432.5771891689862
 20
483.1692711251641
 30
0.0
 10
434.5123816580432
 20
485.5075637221523
 30
0.0
 10
436.4695233040951
 20
488.2004040361919
 30
0.0
 10
437.658908291396
 20
489.9321847521639
 30
0.0
 10
438.1101139532743
 20
490.6046964693021
 30
0.0
 10
438.5184162292986
 20
491.2266818037638
 30
0.0
 10
438.8610051483674
 20
491.7599507711118
 30
0.0
 10
439.1747343216697
 20
492.2589529660354
 30
0.0
 10
439.4426866031242
 20
492.6948140846576
 30
0.0
 10
439.6889130312786
 20
493.1047919852829
 30
0.0
 10
439.9001280207889
 20
493.4654516508543
 30
0.0
 10
440.093810904383
 20
493.8051874986434
 30
0.0
 10
440.25905261368
 20
494.1040578686098
 30
0.0
 10
440.4093447242234
 20
494.3852544483543
 30
0.0
 10
440.5356939061403
 20
494.6311024032651
 30
0.0
 10
440.6490238987578
 20
494.8613695567609
 30
0.0
 10
440.7412392032454
 20
495.060167402403
 30
0.0
 10
440.8213813208562
 20
495.2451256906619
 30
0.0
 10
440.8945449046456
 20
495.4310683030628
 30
0.0
 10
440.9695798271216
 20
495.6349222627418
 30
0.0
 10
440.9898650628423
 20
495.7888950248394
 30
0.0
 10
441.0
 20
495.8658231063927
 30
0.0
 11
431.609489616756
 21
482.0000000000001
 31
0.0
 11
434.4751366207009
 21
485.5373877301075
 31
0.0
 11
437.1621451758897
 21
489.211102550928
 31
0.0
 11
437.6576014499318
 21
489.9330828852894
 31
0.0
 11
438.1453984951265
 21
490.6602540378444
 31
0.0
 11
438.5174823225585
 21
491.227290046544
 31
0.0
 11
438.8839670667103
 21
491.7979589711329
 31
0.0
 11
439.1739592316152
 21
492.2594369300079
 31
0.0
 11
439.4592933071141
 21
492.7238052947637
 31
0.0
 11
439.6882075843106
 21
493.1052098399574
 31
0.0
 11
439.9128916829121
 21
493.4891252930763
 31
0.0
 11
440.0931210181968
 21
493.8055810788564
 31
0.0
 11
440.2691877530529
 21
494.1243556529823
 31
0.0
 11
440.4086356640132
 21
494.3856149542273
 31
0.0
 11
440.5438776720114
 21
494.6491106406736
 31
0.0
 11
440.6482138876511
 21
494.8617837566648
 31
0.0
 11
440.7476594266559
 21
495.0766968306222
 31
0.0
 11
440.8203783959916
 21
495.2454261451996
 31
0.0
 11
440.8881277945773
 21
495.4164078649988
 31
0.0
 11
440.9612413272088
 21
495.6370212954379
 31
0.0
 11
441.0
 21
495.8658231063927
 31
0.0
  0
ARC
  5
423
330
9D
100
AcDbEntity
  8
1
  6
Continuous
 62
     7
100
AcDbCircle
 10
377.7325794360741
 20
973.5
 30
0.0
 40
49.99999999999991
100
AcDbArc
 50
69.16697560549895
 51
90.0
  0
ARC
  5
424
330
9D
100
AcDbEntity
  8
1
  6
Continuous
 62
     7
100
AcDbCircle
 10
345.2795000000001
 20
1041.0
 30
0.0
 40
0.5
100
AcDbArc
 50
-90.0
 51
0.0
  0
ARC
  5
425
330
9D
100
AcDbEntity
  8
1
  6
Continuous
 62
     7
100
AcDbCircle
 10
372.7204999999999
 20
1041.0
 30
0.0
 40
0.5
100
AcDbArc
 50
180.0
 51
-90.0
  0
ARC
  5
426
330
9D
100
AcDbEntity
  8
1
  6
Continuous
 62
     7
100
AcDbCircle
 10
777.0
 20
466.7084973778709
 30
0.0
 40
1.5
100
AcDbArc
 50
0.0
 51
74.17337986812463
  0
ARC
  5
427
330
9D
100
AcDbEntity
  8
1
  6
Continuous
 62
     7
100
AcDbCircle
 10
806.0
 20
466.5000000000002
 30
0.0
 40
1.5
100
AcDbArc
 50
90.0
 51
180.0
  0
ARC
  5
428
330
9D
100
AcDbEntity
  8
1
  6
Continuous
 62
     7
100
AcDbCircle
 10
404.5
 20
466.5000000000001
 30
0.0
 40
1.5
100
AcDbArc
 50
0.0
 51
90.0
  0
ARC
  5
429
330
9D
100
AcDbEntity
  8
1
  6
Continuous
 62
     7
100
AcDbCircle
 10
433.5
 20
466.5000000000001
 30
0.0
 40
1.5
100
AcDbArc
 50
90.0
 51
180.0
  0
ARC
  5
42A
330
9D
100
AcDbEntity
  8
1
  6
Continuous
 62
     7
100
AcDbCircle
 10
451.0
 20
506.0000000000001
 30
0.0
 40
10.0
100
AcDbArc
 50
180.0
 51
-90.0
  0
ARC
  5
42B
330
9D
100
AcDbEntity
  8
1
  6
Continuous
 62
     7
100
AcDbCircle
 10
387.0
 20
506.0000000000001
 30
0.0
 40
10.0
100
AcDbArc
 50
-90.0
 51
0.0
  0
ARC
  5
42C
330
9D
100
AcDbEntity
  8
1
  6
Continuous
 62
     7
100
AcDbCircle
 10
450.3049516849969
 20
1060.5
 30
0.0
 40
19.99999999999966
100
AcDbArc
 50
-119.6106933630422
 51
-90.0
  0
ARC
  5
42D
330
9D
100
AcDbEntity
  8
1
  6
Continuous
 62
     7
100
AcDbCircle
 10
492.7204999999999
 20
1041.0
 30
0.0
 40
0.5
100
AcDbArc
 50
180.0
 51
-90.0
  0
ARC
  5
42E
330
9D
100
AcDbEntity
  8
1
  6
Continuous
 62
     7
100
AcDbCircle
 10
465.2795000000001
 20
1041.0
 30
0.0
 40
0.5
100
AcDbArc
 50
-90.0
 51
0.0
  0
ARC
  5
42F
330
9D
100
AcDbEntity
  8
1
  6
Continuous
 62
     7
100
AcDbCircle
 10
460.2674205639271
 20
973.5
 30
0.0
 40
50.0
100
AcDbArc
 50
90.0
 51
110.8333915065813
  0
ARC
  5
430
330
9D
100
AcDbEntity
  8
1
  6
Continuous
 62
     7
100
AcDbCircle
 10
387.6950483150031
 20
1060.5
 30
0.0
 40
20.0
100
AcDbArc
 50
-90.0
 51
-60.39298505762209
  0
ARC
  5
431
330
9D
100
AcDbEntity
  8
1
  6
Continuous
 62
     7
100
AcDbCircle
 10
800.0
 20
468.2794999999999
 30
0.0
 40
0.5
100
AcDbArc
 50
90.0
 51
180.0
  0
ARC
  5
432
330
9D
100
AcDbEntity
  8
1
  6
Continuous
 62
     7
100
AcDbCircle
 10
800.0
 20
495.7204999999998
 30
0.0
 40
0.5
100
AcDbArc
 50
180.0
 51
-90.0
  0
ENDBLK
  5
9F
330
9D
100
AcDbEntity
  8
0
100
AcDbBlockEnd
  0
BLOCK
  5
A1
330
A0
100
AcDbEntity
  8
0
100
AcDbBlockBegin
  2
37-373-M11
 70
     0
 71
     0
 10
1358.414904886312
 20
400.7500000000006
 30
0.0
  3
37-373-M11
  1

  0
LINE
  5
433
330
A0
100
AcDbEntity
  8
1
  6
Continuous
 62
     7
100
AcDbLine
 10
807.5
 20
524.5000000000164
 30
0.0
 11
810.045065792631
 21
524.5000000000164
 31
0.0
  0
LINE
  5
434
330
A0
100
AcDbEntity
  8
1
  6
Continuous
 62
     7
100
AcDbLine
 10
812.4999999999991
 20
522.0000000000157
 30
0.0
 11
812.4999999999991
 21
522.5000000000143
 31
0.0
  0
LINE
  5
435
330
A0
100
AcDbEntity
  8
1
  6
Continuous
 62
     7
100
AcDbLine
 10
812.4999999999991
 20
522.5000000000143
 30
0.0
 11
810.499999999998
 21
523.5000000000164
 31
0.0
  0
LINE
  5
436
330
A0
100
AcDbEntity
  8
1
  6
Continuous
 62
     7
100
AcDbLine
 10
812.4999999999991
 20
522.0000000000157
 30
0.0
 11
791.499999999997
 21
522.0000000000157
 31
0.0
  0
LINE
  5
437
330
A0
100
AcDbEntity
  8
1
  6
Continuous
 62
     7
100
AcDbLine
 10
810.499999999998
 20
523.5000000000164
 30
0.0
 11
800.0276909177201
 21
523.5000000000164
 31
0.0
  0
LINE
  5
438
330
A0
100
AcDbEntity
  8
1
  6
Continuous
 62
     7
100
AcDbLine
 10
807.5
 20
524.8175696994155
 30
0.0
 11
807.5
 21
524.5000000000164
 31
0.0
  0
ARC
  5
439
330
A0
100
AcDbEntity
  8
1
  6
Continuous
 62
     7
100
AcDbCircle
 10
801.1839447327061
 20
519.8652903476902
 30
0.0
 40
9.999999999997458
100
AcDbArc
 50
21.31351354716548
 51
27.61131035201021
  0
ENDBLK
  5
A2
330
A0
100
AcDbEntity
  8
0
100
AcDbBlockEnd
  0
BLOCK
  5
47C
330
475
100
AcDbEntity
  8
0
100
AcDbBlockBegin
  2
*D030
 70
     1
 71
     0
 10
0.0
 20
0.0
 30
0.0
  3
*D030
  1

  0
LINE
  5
476
330
475
100
AcDbEntity
  8
1
  6
Continuous
 62
     2
100
AcDbLine
 10
281.1303314613522
 20
489.1589930777136
 30
0.0
 11
316.4856704004545
 21
524.5143312281489
 31
0.0
  0
LINE
  5
477
330
475
100
AcDbEntity
  8
1
  6
Continuous
 62
     2
100
AcDbLine
 10
323.6446617411392
 20
446.6446618495649
 30
0.0
 11
277.5947975948528
 21
492.6945270230796
 31
0.0
  0
LINE
  5
478
330
475
100
AcDbEntity
  8
1
  6
Continuous
 62
     2
100
AcDbLine
 10
359.0000006802415
 20
482.0000000000002
 30
0.0
 11
312.9501365339551
 21
528.049865173515
 31
0.0
  0
SOLID
  5
479
330
475
100
AcDbEntity
  8
1
 62
     2
100
AcDbTrace
 10
291.8755837467307
 20
503.1624781702049
 30
0.0
 11
295.1338167935369
 21
499.9042450507175
 31
0.0
 12
281.1303314613522
 22
489.1589930777136
 32
0.0
 13
281.1303314613522
 23
489.1589930777136
 33
0.0
  0
SOLID
  5
47A
330
475
100
AcDbEntity
  8
1
 62
     2
100
AcDbTrace
 10
305.7404181150761
 20
510.5108461356576
 30
0.0
 11
302.4821850682699
 21
513.7690792551449
 31
0.0
 12
316.4856704004545
 22
524.5143312281489
 32
0.0
 13
316.4856704004545
 23
524.5143312281489
 33
0.0
  0
MTEXT
  5
47B
330
475
100
AcDbEntity
  8
1
 62
     7
100
AcDbMText
 10
287.3520239902176
 20
502.4517532007913
 30
0.0
 40
17.5
 41
0.0
 71
     7
 72
     1
  1
50
  7
CONVERTER_2
 11
0.7071067890732171
 21
0.7071067732998778
 31
0.0
 73
     1
 44
0.60024009603842
  0
ENDBLK
  5
47D
330
475
100
AcDbEntity
  8
0
100
AcDbBlockEnd
  0
BLOCK
  5
488
330
480
100
AcDbEntity
  8
0
100
AcDbBlockBegin
  2
*D131
 70
     1
 71
     0
 10
0.0
 20
0.0
 30
0.0
  3
*D131
  1

  0
LINE
  5
481
330
480
100
AcDbEntity
  8
1
  6
Continuous
 62
     2
100
AcDbLine
 10
246.828120341765
 20
1159.0
 30
0.0
 11
298.6446628523347
 21
1159.0
 31
0.0
  0
LINE
  5
482
330
480
100
AcDbEntity
  8
1
  6
Continuous
 62
     2
100
AcDbLine
 10
298.6446628523347
 20
1159.0
 30
0.0
 11
348.6446628523347
 21
1159.0
 31
0.0
  0
LINE
  5
483
330
480
100
AcDbEntity
  8
1
  6
Continuous
 62
     2
100
AcDbLine
 10
348.6446628523347
 20
1095.0
 30
0.0
 11
348.6446628523347
 21
1164.0
 31
0.0
  0
LINE
  5
484
330
480
100
AcDbEntity
  8
1
  6
Continuous
 62
     2
100
AcDbLine
 10
298.6446628523347
 20
1095.0
 30
0.0
 11
298.6446628523347
 21
1164.0
 31
0.0
  0
SOLID
  5
485
330
480
100
AcDbEntity
  8
1
 62
     2
100
AcDbTrace
 10
316.1446628523347
 20
1161.30391870778
 30
0.0
 11
316.1446628523347
 21
1156.696081292221
 31
0.0
 12
298.6446628523347
 22
1159.0
 32
0.0
 13
298.6446628523347
 23
1159.0
 33
0.0
  0
SOLID
  5
486
330
480
100
AcDbEntity
  8
1
 62
     2
100
AcDbTrace
 10
331.1446628523347
 20
1156.696081292221
 30
0.0
 11
331.1446628523347
 21
1161.30391870778
 31
0.0
 12
348.6446628523347
 22
1159.0
 32
0.0
 13
348.6446628523347
 23
1159.0
 33
0.0
  0
MTEXT
  5
487
330
480
100
AcDbEntity
  8
1
 62
     7
100
AcDbMText
 10
239.1281203418493
 20
1163.999930429237
 30
0.0
 40
17.5
 41
0.0
 71
     7
 72
     1
  1
\C7;{\Fgdt;n}\C7;50
  7
CONVERTER_2
 11
0.9999999999970621
 21
2.424068405545307E-6
 31
0.0
 73
     1
 44
0.60024009603842
  0
ENDBLK
  5
489
330
480
100
AcDbEntity
  8
0
100
AcDbBlockEnd
  0
BLOCK
  5
493
330
48C
100
AcDbEntity
  8
0
100
AcDbBlockBegin
  2
*D232
 70
     1
 71
     0
 10
0.0
 20
0.0
 30
0.0
  3
*D232
  1

  0
LINE
  5
48D
330
48C
100
AcDbEntity
  8
1
  6
Continuous
 62
     2
100
AcDbLine
 10
791.5
 20
304.500308981458
 30
0.0
 11
868.0
 21
304.500308981458
 31
0.0
  0
LINE
  5
48E
330
48C
100
AcDbEntity
  8
1
  6
Continuous
 62
     2
100
AcDbLine
 10
791.5
 20
446.1028042208488
 30
0.0
 11
791.5
 21
299.500308981458
 31
0.0
  0
LINE
  5
48F
330
48C
100
AcDbEntity
  8
1
  6
Continuous
 62
     2
100
AcDbLine
 10
868.0
 20
437.329160159941
 30
0.0
 11
868.0
 21
299.500308981458
 31
0.0
  0
SOLID
  5
490
330
48C
100
AcDbEntity
  8
1
 62
     2
100
AcDbTrace
 10
809.0
 20
306.8042276892374
 30
0.0
 11
809.0
 21
302.1963902736786
 31
0.0
 12
791.5
 22
304.500308981458
 32
0.0
 13
791.5
 23
304.500308981458
 33
0.0
  0
SOLID
  5
491
330
48C
100
AcDbEntity
  8
1
 62
     2
100
AcDbTrace
 10
850.5
 20
302.1963902736786
 30
0.0
 11
850.5
 21
306.8042276892374
 31
0.0
 12
868.0
 22
304.500308981458
 32
0.0
 13
868.0
 23
304.500308981458
 33
0.0
  0
MTEXT
  5
492
330
48C
100
AcDbEntity
  8
1
 62
     7
100
AcDbMText
 10
816.6665692134873
 20
309.500308981458
 30
0.0
 40
17.5
 41
0.0
 71
     7
 72
     1
  1
77
  7
CONVERTER_2
 11
0.9999999999970621
 21
2.424068405545307E-6
 31
0.0
 73
     1
 44
0.60024009603842
  0
ENDBLK
  5
494
330
48C
100
AcDbEntity
  8
0
100
AcDbBlockEnd
  0
BLOCK
  5
49E
330
497
100
AcDbEntity
  8
0
100
AcDbBlockBegin
  2
*D333
 70
     1
 71
     0
 10
0.0
 20
0.0
 30
0.0
  3
*D333
  1

  0
LINE
  5
498
330
497
100
AcDbEntity
  8
1
  6
Continuous
 62
     2
100
AcDbLine
 10
791.5
 20
344.500308981458
 30
0.0
 11
854.0
 21
344.500308981458
 31
0.0
  0
LINE
  5
499
330
497
100
AcDbEntity
  8
1
  6
Continuous
 62
     2
100
AcDbLine
 10
791.5
 20
446.1028042208488
 30
0.0
 11
791.5
 21
339.500308981458
 31
0.0
  0
LINE
  5
49A
330
497
100
AcDbEntity
  8
1
  6
Continuous
 62
     2
100
AcDbLine
 10
854.0
 20
421.6446640475419
 30
0.0
 11
854.0
 21
339.500308981458
 31
0.0
  0
SOLID
  5
49B
330
497
100
AcDbEntity
  8
1
 62
     2
100
AcDbTrace
 10
809.0
 20
346.8042276892374
 30
0.0
 11
809.0
 21
342.1963902736786
 31
0.0
 12
791.5
 22
344.500308981458
 32
0.0
 13
791.5
 23
344.500308981458
 33
0.0
  0
SOLID
  5
49C
330
497
100
AcDbEntity
  8
1
 62
     2
100
AcDbTrace
 10
836.5
 20
342.1963902736786
 30
0.0
 11
836.5
 21
346.8042276892374
 31
0.0
 12
854.0
 22
344.500308981458
 32
0.0
 13
854.0
 23
344.500308981458
 33
0.0
  0
MTEXT
  5
49D
330
497
100
AcDbEntity
  8
1
 62
     7
100
AcDbMText
 10
810.275234113358
 20
349.500308981458
 30
0.0
 40
17.5
 41
0.0
 71
     7
 72
     1
  1
63
  7
CONVERTER_2
 11
0.9999999999970621
 21
2.424068405545307E-6
 31
0.0
 73
     1
 44
0.60024009603842
  0
ENDBLK
  5
49F
330
497
100
AcDbEntity
  8
0
100
AcDbBlockEnd
  0
BLOCK
  5
4A9
330
4A2
100
AcDbEntity
  8
0
100
AcDbBlockBegin
  2
*D434
 70
     1
 71
     0
 10
0.0
 20
0.0
 30
0.0
  3
*D434
  1

  0
LINE
  5
4A3
330
4A2
100
AcDbEntity
  8
1
  6
Continuous
 62
     2
100
AcDbLine
 10
323.6446628523371
 20
1199.0
 30
0.0
 11
514.35533793044
 21
1199.0
 31
0.0
  0
LINE
  5
4A4
330
4A2
100
AcDbEntity
  8
1
  6
Continuous
 62
     2
100
AcDbLine
 10
514.35533793044
 20
1118.230431654675
 30
0.0
 11
514.35533793044
 21
1204.0
 31
0.0
  0
LINE
  5
4A5
330
4A2
100
AcDbEntity
  8
1
  6
Continuous
 62
     2
100
AcDbLine
 10
323.6446628523371
 20
1120.230431654675
 30
0.0
 11
323.6446628523371
 21
1204.0
 31
0.0
  0
SOLID
  5
4A6
330
4A2
100
AcDbEntity
  8
1
 62
     2
100
AcDbTrace
 10
341.1446628523371
 20
1201.30391870778
 30
0.0
 11
341.1446628523371
 21
1196.696081292221
 31
0.0
 12
323.6446628523371
 22
1199.0
 32
0.0
 13
323.6446628523371
 23
1199.0
 33
0.0
  0
SOLID
  5
4A7
330
4A2
100
AcDbEntity
  8
1
 62
     2
100
AcDbTrace
 10
496.85533793044
 20
1196.696081292221
 30
0.0
 11
496.85533793044
 21
1201.30391870778
 31
0.0
 12
514.35533793044
 22
1199.0
 32
0.0
 13
514.35533793044
 23
1199.0
 33
0.0
  0
MTEXT
  5
4A8
330
4A2
100
AcDbEntity
  8
1
 62
     7
100
AcDbMText
 10
333.2500000000009
 20
1204.0
 30
0.0
 40
17.5
 41
0.0
 71
     7
 72
     1
  1
取付寸法120～220
  7
CONVERTER_1
 11
0.9999999999970621
 21
2.424068405545307E-6
 31
0.0
 73
     1
 44
0.60024009603842
  0
ENDBLK
  5
4AA
330
4A2
100
AcDbEntity
  8
0
100
AcDbBlockEnd
  0
BLOCK
  5
4B4
330
4AD
100
AcDbEntity
  8
0
100
AcDbBlockBegin
  2
*D535
 70
     1
 71
     0
 10
0.0
 20
0.0
 30
0.0
  3
*D535
  1

  0
LINE
  5
4AE
330
4AD
100
AcDbEntity
  8
1
  6
Continuous
 62
     2
100
AcDbLine
 10
359.0
 20
1159.0
 30
0.0
 11
478.9999999892981
 21
1159.0
 31
0.0
  0
LINE
  5
4AF
330
4AD
100
AcDbEntity
  8
1
  6
Continuous
 62
     2
100
AcDbLine
 10
478.9999999892981
 20
1085.943669064747
 30
0.0
 11
478.9999999892981
 21
1164.0
 31
0.0
  0
LINE
  5
4B0
330
4AD
100
AcDbEntity
  8
1
  6
Continuous
 62
     2
100
AcDbLine
 10
359.0
 20
1085.943669064747
 30
0.0
 11
359.0
 21
1164.0
 31
0.0
  0
SOLID
  5
4B1
330
4AD
100
AcDbEntity
  8
1
 62
     2
100
AcDbTrace
 10
376.5
 20
1161.30391870778
 30
0.0
 11
376.5
 21
1156.696081292221
 31
0.0
 12
359.0
 22
1159.0
 32
0.0
 13
359.0
 23
1159.0
 33
0.0
  0
SOLID
  5
4B2
330
4AD
100
AcDbEntity
  8
1
 62
     2
100
AcDbTrace
 10
461.4999999892981
 20
1156.696081292221
 30
0.0
 11
461.4999999892981
 21
1161.30391870778
 31
0.0
 12
478.9999999892981
 22
1159.0
 32
0.0
 13
478.9999999892981
 23
1159.0
 33
0.0
  0
MTEXT
  5
4B3
330
4AD
100
AcDbEntity
  8
1
 62
     7
100
AcDbMText
 10
400.6250000000009
 20
1164.0
 30
0.0
 40
17.5
 41
0.0
 71
     7
 72
     1
  1
120
  7
CONVERTER_2
 11
0.9999999999970621
 21
2.424068405545307E-6
 31
0.0
 73
     1
 44
0.60024009603842
  0
ENDBLK
  5
4B5
330
4AD
100
AcDbEntity
  8
0
100
AcDbBlockEnd
  0
BLOCK
  5
4BF
330
4B8
100
AcDbEntity
  8
0
100
AcDbBlockBegin
  2
*D636
 70
     1
 71
     0
 10
0.0
 20
0.0
 30
0.0
  3
*D636
  1

  0
LINE
  5
4B9
330
4B8
100
AcDbEntity
  8
1
  6
Continuous
 62
     2
100
AcDbLine
 10
791.5
 20
304.500308981458
 30
0.0
 11
621.5
 21
304.500308981458
 31
0.0
  0
LINE
  5
4BA
330
4B8
100
AcDbEntity
  8
1
  6
Continuous
 62
     2
100
AcDbLine
 10
791.5
 20
446.1028042208488
 30
0.0
 11
791.5
 21
299.500308981458
 31
0.0
  0
LINE
  5
4BB
330
4B8
100
AcDbEntity
  8
1
  6
Continuous
 62
     2
100
AcDbLine
 10
621.5
 20
391.500308981458
 30
0.0
 11
621.5
 21
299.500308981458
 31
0.0
  0
SOLID
  5
4BC
330
4B8
100
AcDbEntity
  8
1
 62
     2
100
AcDbTrace
 10
774.0
 20
302.1963902736786
 30
0.0
 11
774.0
 21
306.8042276892374
 31
0.0
 12
791.5
 22
304.500308981458
 32
0.0
 13
791.5
 23
304.500308981458
 33
0.0
  0
SOLID
  5
4BD
330
4B8
100
AcDbEntity
  8
1
 62
     2
100
AcDbTrace
 10
639.0
 20
306.8042276892374
 30
0.0
 11
639.0
 21
302.1963902736786
 31
0.0
 12
621.5
 22
304.500308981458
 32
0.0
 13
621.5
 23
304.500308981458
 33
0.0
  0
MTEXT
  5
4BE
330
4B8
100
AcDbEntity
  8
1
 62
     7
100
AcDbMText
 10
683.221319008478
 20
309.500308981458
 30
0.0
 40
17.5
 41
0.0
 71
     7
 72
     1
  1
170
  7
CONVERTER_2
 11
0.9999999999970621
 21
2.424068405545307E-6
 31
0.0
 73
     1
 44
0.60024009603842
  0
ENDBLK
  5
4C0
330
4B8
100
AcDbEntity
  8
0
100
AcDbBlockEnd
  0
BLOCK
  5
4CA
330
4C3
100
AcDbEntity
  8
0
100
AcDbBlockBegin
  2
*D737
 70
     1
 71
     0
 10
0.0
 20
0.0
 30
0.0
  3
*D737
  1

  0
LINE
  5
4C4
330
4C3
100
AcDbEntity
  8
1
  6
Continuous
 62
     2
100
AcDbLine
 10
574.1028324785871
 20
482.0000000000001
 30
0.0
 11
574.1028324785871
 21
394.500308981458
 31
0.0
  0
LINE
  5
4C5
330
4C3
100
AcDbEntity
  8
1
  6
Continuous
 62
     2
100
AcDbLine
 10
766.5
 20
482.0000000000001
 30
0.0
 11
569.1028324785871
 21
482.0000000000001
 31
0.0
  0
LINE
  5
4C6
330
4C3
100
AcDbEntity
  8
1
  6
Continuous
 62
     2
100
AcDbLine
 10
610.7543014127546
 20
394.500308981458
 30
0.0
 11
569.1028324785871
 21
394.500308981458
 31
0.0
  0
SOLID
  5
4C7
330
4C3
100
AcDbEntity
  8
1
 62
     2
100
AcDbTrace
 10
576.4067511863665
 20
464.5000000000001
 30
0.0
 11
571.7989137708076
 21
464.5000000000001
 31
0.0
 12
574.1028324785871
 22
482.0000000000001
 32
0.0
 13
574.1028324785871
 23
482.0000000000001
 33
0.0
  0
SOLID
  5
4C8
330
4C3
100
AcDbEntity
  8
1
 62
     2
100
AcDbTrace
 10
571.7989137708076
 20
412.000308981458
 30
0.0
 11
576.4067511863665
 21
412.000308981458
 31
0.0
 12
574.1028324785871
 22
394.500308981458
 32
0.0
 13
574.1028324785871
 23
394.500308981458
 33
0.0
  0
MTEXT
  5
4C9
330
4C3
100
AcDbEntity
  8
1
 62
     7
100
AcDbMText
 10
569.1028324785871
 20
429.6568811974231
 30
0.0
 40
17.5
 41
0.0
 71
     7
 72
     1
  1
88
  7
CONVERTER_2
 11
0.0
 21
1.0
 31
0.0
 73
     1
 44
0.60024009603842
  0
ENDBLK
  5
4CB
330
4C3
100
AcDbEntity
  8
0
100
AcDbBlockEnd
  0
BLOCK
  5
4D6
330
4CE
100
AcDbEntity
  8
0
100
AcDbBlockBegin
  2
*D838
 70
     1
 71
     0
 10
0.0
 20
0.0
 30
0.0
  3
*D838
  1

  0
LINE
  5
4CF
330
4CE
100
AcDbEntity
  8
1
  6
Continuous
 62
     2
100
AcDbLine
 10
603.6603212442969
 20
556.5000000000158
 30
0.0
 11
603.6603212442969
 21
482.0000000000001
 31
0.0
  0
LINE
  5
4D0
330
4CE
100
AcDbEntity
  8
1
  6
Continuous
 62
     2
100
AcDbLine
 10
667.402327518934
 20
556.5000000000158
 30
0.0
 11
598.6603212442969
 21
556.5000000000158
 31
0.0
  0
LINE
  5
4D1
330
4CE
100
AcDbEntity
  8
1
  6
Continuous
 62
     2
100
AcDbLine
 10
702.4999999999982
 20
556.5000000000158
 30
0.0
 11
682.8637455814999
 21
556.5000000000158
 31
0.0
  0
LINE
  5
4D2
330
4CE
100
AcDbEntity
  8
1
  6
Continuous
 62
     2
100
AcDbLine
 10
766.5
 20
482.0000000000001
 30
0.0
 11
598.6603212442969
 21
482.0000000000001
 31
0.0
  0
SOLID
  5
4D3
330
4CE
100
AcDbEntity
  8
1
 62
     2
100
AcDbTrace
 10
605.9642399520764
 20
539.0000000000158
 30
0.0
 11
601.3564025365175
 21
539.0000000000158
 31
0.0
 12
603.6603212442969
 22
556.5000000000158
 32
0.0
 13
603.6603212442969
 23
556.5000000000158
 33
0.0
  0
SOLID
  5
4D4
330
4CE
100
AcDbEntity
  8
1
 62
     2
100
AcDbTrace
 10
601.3564025365175
 20
499.5000000000001
 30
0.0
 11
605.9642399520764
 21
499.5000000000001
 31
0.0
 12
603.6603212442969
 22
482.0000000000001
 32
0.0
 13
603.6603212442969
 23
482.0000000000001
 33
0.0
  0
MTEXT
  5
4D5
330
4CE
100
AcDbEntity
  8
1
 62
     7
100
AcDbMText
 10
598.6603212442969
 20
473.2609266935586
 30
0.0
 40
17.5
 41
0.0
 71
     7
 72
     1
  1
\C7;最小\C7;75
  7
CONVERTER_1
 11
0.0
 21
1.0
 31
0.0
 73
     1
 44
0.60024009603842
  0
ENDBLK
  5
4D7
330
4CE
100
AcDbEntity
  8
0
100
AcDbBlockEnd
  0
BLOCK
  5
4E2
330
4DA
100
AcDbEntity
  8
0
100
AcDbBlockBegin
  2
*D939
 70
     1
 71
     0
 10
0.0
 20
0.0
 30
0.0
  3
*D939
  1

  0
LINE
  5
4DB
330
4DA
100
AcDbEntity
  8
1
  6
Continuous
 62
     2
100
AcDbLine
 10
574.1028324785871
 20
590.6838903004457
 30
0.0
 11
574.1028324785871
 21
482.0000000000001
 31
0.0
  0
LINE
  5
4DC
330
4DA
100
AcDbEntity
  8
1
  6
Continuous
 62
     2
100
AcDbLine
 10
687.0840888417176
 20
590.6838903004457
 30
0.0
 11
569.1028324785871
 21
590.6838903004457
 31
0.0
  0
LINE
  5
4DD
330
4DA
100
AcDbEntity
  8
1
  6
Continuous
 62
     2
100
AcDbLine
 10
726.3064353334178
 20
590.6838903004457
 30
0.0
 11
702.3369974570248
 21
590.6838903004457
 31
0.0
  0
LINE
  5
4DE
330
4DA
100
AcDbEntity
  8
1
  6
Continuous
 62
     2
100
AcDbLine
 10
766.5
 20
482.0000000000001
 30
0.0
 11
569.1028324785871
 21
482.0000000000001
 31
0.0
  0
SOLID
  5
4DF
330
4DA
100
AcDbEntity
  8
1
 62
     2
100
AcDbTrace
 10
576.4067511863665
 20
573.1838903004457
 30
0.0
 11
571.7989137708076
 21
573.1838903004457
 31
0.0
 12
574.1028324785871
 22
590.6838903004457
 32
0.0
 13
574.1028324785871
 23
590.6838903004457
 33
0.0
  0
SOLID
  5
4E0
330
4DA
100
AcDbEntity
  8
1
 62
     2
100
AcDbTrace
 10
571.7989137708076
 20
499.5000000000001
 30
0.0
 11
576.4067511863665
 21
499.5000000000001
 31
0.0
 12
574.1028324785871
 22
482.0000000000001
 32
0.0
 13
574.1028324785871
 23
482.0000000000001
 33
0.0
  0
MTEXT
  5
4E1
330
4DA
100
AcDbEntity
  8
1
 62
     7
100
AcDbMText
 10
569.1028324785871
 20
490.1691938740509
 30
0.0
 40
17.5
 41
0.0
 71
     7
 72
     1
  1
\C7;最大\C7;109
  7
CONVERTER_1
 11
0.0
 21
1.0
 31
0.0
 73
     1
 44
0.60024009603842
  0
ENDBLK
  5
4E3
330
4DA
100
AcDbEntity
  8
0
100
AcDbBlockEnd
  0
BLOCK
  5
4ED
330
4E6
100
AcDbEntity
  8
0
100
AcDbBlockBegin
  2
*D1040
 70
     1
 71
     0
 10
0.0
 20
0.0
 30
0.0
  3
*D1040
  1

  0
LINE
  5
4E7
330
4E6
100
AcDbEntity
  8
1
  6
Continuous
 62
     2
100
AcDbLine
 10
349.6856064777015
 20
875.0
 30
0.0
 11
419.000000000001
 21
875.0
 31
0.0
  0
LINE
  5
4E8
330
4E6
100
AcDbEntity
  8
1
  6
Continuous
 62
     2
100
AcDbLine
 10
419.000000000001
 20
824.901625819423
 30
0.0
 11
419.000000000001
 21
880.0
 31
0.0
  0
LINE
  5
4E9
330
4E6
100
AcDbEntity
  8
1
  6
Continuous
 62
     2
100
AcDbLine
 10
349.6856064777015
 20
977.7297365099207
 30
0.0
 11
349.6856064777015
 21
870.0
 31
0.0
  0
SOLID
  5
4EA
330
4E6
100
AcDbEntity
  8
1
 62
     2
100
AcDbTrace
 10
367.1856064777015
 20
877.3039187077794
 30
0.0
 11
367.1856064777015
 21
872.6960812922206
 31
0.0
 12
349.6856064777015
 22
875.0
 32
0.0
 13
349.6856064777015
 23
875.0
 33
0.0
  0
SOLID
  5
4EB
330
4E6
100
AcDbEntity
  8
1
 62
     2
100
AcDbTrace
 10
401.500000000001
 20
872.6960812922206
 30
0.0
 11
401.500000000001
 21
877.3039187077794
 31
0.0
 12
419.000000000001
 22
875.0
 32
0.0
 13
419.000000000001
 23
875.0
 33
0.0
  0
MTEXT
  5
4EC
330
4E6
100
AcDbEntity
  8
1
 62
     7
100
AcDbMText
 10
371.2178032388512
 20
880.0
 30
0.0
 40
17.5
 41
0.0
 71
     7
 72
     1
  1
69
  7
CONVERTER_2
 11
0.9999999999970621
 21
2.424068405545307E-6
 31
0.0
 73
     1
 44
0.60024009603842
  0
ENDBLK
  5
4EE
330
4E6
100
AcDbEntity
  8
0
100
AcDbBlockEnd
  0
BLOCK
  5
4F8
330
4F1
100
AcDbEntity
  8
0
100
AcDbBlockBegin
  2
*D1141
 70
     1
 71
     0
 10
0.0
 20
0.0
 30
0.0
  3
*D1141
  1

  0
LINE
  5
4F2
330
4F1
100
AcDbEntity
  8
1
  6
Continuous
 62
     2
100
AcDbLine
 10
419.000000000001
 20
875.0
 30
0.0
 11
488.3143935222977
 21
875.0
 31
0.0
  0
LINE
  5
4F3
330
4F1
100
AcDbEntity
  8
1
  6
Continuous
 62
     2
100
AcDbLine
 10
488.3143935222977
 20
977.7297365099207
 30
0.0
 11
488.3143935222977
 21
870.0
 31
0.0
  0
LINE
  5
4F4
330
4F1
100
AcDbEntity
  8
1
  6
Continuous
 62
     2
100
AcDbLine
 10
419.000000000001
 20
824.901625819423
 30
0.0
 11
419.000000000001
 21
880.0
 31
0.0
  0
SOLID
  5
4F5
330
4F1
100
AcDbEntity
  8
1
 62
     2
100
AcDbTrace
 10
436.500000000001
 20
877.3039187077794
 30
0.0
 11
436.500000000001
 21
872.6960812922206
 31
0.0
 12
419.000000000001
 22
875.0
 32
0.0
 13
419.000000000001
 23
875.0
 33
0.0
  0
SOLID
  5
4F6
330
4F1
100
AcDbEntity
  8
1
 62
     2
100
AcDbTrace
 10
470.8143935222977
 20
872.6960812922206
 30
0.0
 11
470.8143935222977
 21
877.3039187077794
 31
0.0
 12
488.3143935222977
 22
875.0
 32
0.0
 13
488.3143935222977
 23
875.0
 33
0.0
  0
MTEXT
  5
4F7
330
4F1
100
AcDbEntity
  8
1
 62
     7
100
AcDbMText
 10
440.5321967611494
 20
880.0
 30
0.0
 40
17.5
 41
0.0
 71
     7
 72
     1
  1
69
  7
CONVERTER_2
 11
0.9999999999970621
 21
2.424068405545307E-6
 31
0.0
 73
     1
 44
0.60024009603842
  0
ENDBLK
  5
4F9
330
4F1
100
AcDbEntity
  8
0
100
AcDbBlockEnd
  0
ENDSEC
  0
SECTION
  2
ENTITIES
  0
INSERT
  5
A3
330
1F
100
AcDbEntity
  8
1
100
AcDbBlockReference
  2
U003-47X-50
 10
623.6510271263152
 20
689.262611128582
 30
0.0
  0
INSERT
  5
A4
330
1F
100
AcDbEntity
  8
1
100
AcDbBlockReference
  2
U3-48F-50
 10
666.4999999892978
 20
906.0
 30
0.0
  0
INSERT
  5
A5
330
1F
100
AcDbEntity
  8
1
100
AcDbBlockReference
  2
_J__A4
 10
0.0
 20
0.0
 30
0.0
 41
5.0
 42
5.0
 43
5.0
  0
INSERT
  5
A6
330
1F
100
AcDbEntity
  8
0
100
AcDbBlockReference
  2
A10JD-60X
 10
748.0670503597121
 20
569.0443956043545
 30
0.0
  0
INSERT
  5
A7
330
1F
100
AcDbEntity
  8
1
100
AcDbBlockReference
  2
87-174X-__F_
 10
958.0
 20
550.0
 30
0.0
  0
INSERT
  5
A8
330
1F
100
AcDbEntity
  8
1
100
AcDbBlockReference
  2
K1700-0
 10
269.0
 20
392.5000000000001
 30
0.0
  0
INSERT
  5
A9
330
1F
100
AcDbEntity
  8
1
100
AcDbBlockReference
  2
37-373-M11
 10
1358.414904886312
 20
400.7500000000006
 30
0.0
  0
LINE
  5
43A
330
1F
100
AcDbEntity
  8
1
  6
DASH_CENTER
 62
     2
100
AcDbLine
 10
588.4164377375764
 20
421.0003089814581
 30
0.0
 11
766.3975047606094
 21
421.0003089814581
 31
0.0
  0
LINE
  5
43B
330
1F
100
AcDbEntity
  8
1
  6
DASH_CENTER
 62
     2
100
AcDbLine
 10
621.5
 20
379.500308981458
 30
0.0
 11
621.5
 21
448.0003089814582
 31
0.0
  0
LINE
  5
43C
330
1F
100
AcDbEntity
  8
1
  6
DASH_CENTER
 62
     2
100
AcDbLine
 10
786.733924715673
 20
508.6791185690871
 30
0.0
 11
813.7297205675425
 21
566.5717895981533
 31
0.0
  0
LINE
  5
43D
330
1F
100
AcDbEntity
  8
1
  6
DASH_CENTER
 62
     2
100
AcDbLine
 10
323.6446607501666
 20
446.6446628405374
 30
0.0
 11
295.3603905532393
 21
418.3603926436101
 31
0.0
  0
LINE
  5
43E
330
1F
100
AcDbEntity
  8
1
  6
DASH_CENTER
 62
     2
100
AcDbLine
 10
468.393399927858
 20
492.6066019007353
 30
0.0
 11
542.639609051476
 21
418.3603902160018
 31
0.0
  0
LINE
  5
43F
330
1F
100
AcDbEntity
  8
1
  6
DASH_CENTER
 62
     2
100
AcDbLine
 10
369.6065948539069
 20
492.6065969442777
 30
0.0
 11
323.6446607501666
 21
446.6446628405374
 31
0.0
  0
LINE
  5
440
330
1F
100
AcDbEntity
  8
1
  6
DASH_CENTER
 62
     2
100
AcDbLine
 10
506.0
 20
482.0000000000002
 30
0.0
 11
359.0000006802415
 21
482.0000000000002
 31
0.0
  0
LINE
  5
441
330
1F
100
AcDbEntity
  8
1
  6
DASH_CENTER
 62
     2
100
AcDbLine
 10
390.600223809118
 20
1060.899776190882
 30
0.0
 11
493.2462120245876
 21
958.2537879754132
 31
0.0
  0
LINE
  5
442
330
1F
100
AcDbEntity
  8
1
  6
DASH_CENTER
 62
     2
100
AcDbLine
 10
344.7537879754122
 20
958.2537879754127
 30
0.0
 11
447.3997761908825
 21
1060.899776190882
 31
0.0
  0
LINE
  5
443
330
1F
100
AcDbEntity
  8
1
  6
DASH_CENTER
 62
     2
100
AcDbLine
 10
393.9999999999981
 20
862.4999999999994
 30
0.0
 11
443.9999999999981
 21
862.4999999999994
 31
0.0
  0
LINE
  5
444
330
1F
100
AcDbEntity
  8
1
  6
DASH_CENTER
 62
     2
100
AcDbLine
 10
419.0000000000009
 20
1072.449137145008
 30
0.0
 11
419.0000000000009
 21
824.901625819423
 31
0.0
  0
LINE
  5
445
330
1F
100
AcDbEntity
  8
1
  6
DASH_CENTER
 62
     2
100
AcDbLine
 10
419.0000000000001
 20
571.5000000000002
 30
0.0
 11
419.0000000000001
 21
379.5000000000113
 31
0.0
  0
LINE
  5
446
330
1F
100
AcDbEntity
  8
1
  6
DASH_CENTER
 62
     2
100
AcDbLine
 10
359.0000006802415
 20
482.0000000000002
 30
0.0
 11
334.0000000000001
 21
482.0000000000002
 31
0.0
  0
LINE
  5
447
330
1F
100
AcDbEntity
  8
1
  6
DASH_CENTER
 62
     2
100
AcDbLine
 10
323.6446617411392
 20
446.6446618495649
 30
0.0
 11
303.8456689028665
 21
466.4436537126003
 31
0.0
  0
LINE
  5
448
330
1F
100
AcDbEntity
  8
1
  6
DASH_CENTER
 62
     2
100
AcDbLine
 10
804.4999999999999
 20
446.6446612769307
 30
0.0
 11
870.4999999999997
 21
446.6446612769307
 31
0.0
  0
LINE
  5
449
330
1F
100
AcDbEntity
  8
1
  6
DASH_CENTER
 62
     2
100
AcDbLine
 10
358.9999979096293
 20
508.0000000000001
 30
0.0
 11
358.9999979096293
 21
456.0
 31
0.0
  0
LINE
  5
44A
330
1F
100
AcDbEntity
  8
1
  6
DASH_CENTER
 62
     2
100
AcDbLine
 10
478.9999996333515
 20
508.0000000000001
 30
0.0
 11
478.9999996333515
 21
456.0
 31
0.0
  0
LINE
  5
44B
330
1F
100
AcDbEntity
  8
1
  6
DASH_CENTER
 62
     2
100
AcDbLine
 10
343.4436496245498
 20
426.8456749413911
 30
0.0
 11
323.6446617411392
 21
446.6446618495649
 31
0.0
  0
LINE
  5
44C
330
1F
100
AcDbEntity
  8
1
  6
DASH_CENTER
 62
     2
100
AcDbLine
 10
494.5563498485723
 20
426.8456730112503
 30
0.0
 11
534.1543295950187
 21
466.4436527576967
 31
0.0
  0
LINE
  5
44D
330
1F
100
AcDbEntity
  8
1
  6
DASH_CENTER
 62
     2
100
AcDbLine
 10
514.3553379304399
 20
1118.230431654675
 30
0.0
 11
514.3553379304399
 21
1045.5
 31
0.0
  0
LINE
  5
44E
330
1F
100
AcDbEntity
  8
1
  6
DASH_CENTER
 62
     2
100
AcDbLine
 10
478.9999999892981
 20
1085.943669064747
 30
0.0
 11
478.9999999892981
 21
1018.5
 31
0.0
  0
LINE
  5
44F
330
1F
100
AcDbEntity
  8
1
  6
DASH_CENTER
 62
     2
100
AcDbLine
 10
359.0
 20
1018.5
 30
0.0
 11
359.0
 21
1085.943669064747
 31
0.0
  0
LINE
  5
450
330
1F
100
AcDbEntity
  8
1
  6
DASH_CENTER
 62
     2
100
AcDbLine
 10
323.644662852337
 20
1047.5
 30
0.0
 11
323.644662852337
 21
1120.230431654675
 31
0.0
  0
LINE
  5
451
330
1F
100
AcDbEntity
  8
1
  6
DASH_CENTER
 62
     2
100
AcDbLine
 10
498.0
 20
1032.5
 30
0.0
 11
340.0
 21
1032.5
 31
0.0
  0
LINE
  5
452
330
1F
100
AcDbEntity
  8
1
  6
Continuous
 62
     2
100
AcDbLine
 10
303.3589677634011
 20
908.0000000000001
 30
0.0
 11
338.8589677634011
 21
908.0000000000001
 31
0.0
  0
LINE
  5
453
330
1F
100
AcDbEntity
  8
1
  6
Continuous
 62
     2
100
AcDbLine
 10
500.1410322365989
 20
908.0000000000001
 30
0.0
 11
535.6410322365989
 21
908.0000000000001
 31
0.0
  0
LINE
  5
454
330
1F
100
AcDbEntity
  8
1
  6
Continuous
 62
     2
100
AcDbLine
 10
698.9934927964009
 20
613.0
 30
0.0
 11
736.4934927964009
 21
613.0
 31
0.0
  0
LINE
  5
455
330
1F
100
AcDbEntity
  8
1
  6
Continuous
 62
     2
100
AcDbLine
 10
651.6573824315381
 20
522.0
 30
0.0
 11
688.1573824315381
 21
522.0
 31
0.0
  0
LINE
  5
456
330
1F
100
AcDbEntity
  8
1
  6
DASH_CENTER
 62
     2
100
AcDbLine
 10
766.5
 20
482.0000000000001
 30
0.0
 11
846.9999985399311
 21
482.0000000000002
 31
0.0
  0
LINE
  5
457
330
1F
100
AcDbEntity
  8
1
  6
DASH_CENTER
 62
     2
100
AcDbLine
 10
791.5
 20
445.9684953416438
 30
0.0
 11
791.5
 21
560.0850951136806
 31
0.0
  0
ARC
  5
458
330
1F
100
AcDbEntity
  8
1
  6
DASH_CENTER
 62
     2
100
AcDbCircle
 10
766.5
 20
446.0003089814581
 30
0.0
 40
25.00021010459907
100
AcDbArc
 50
-90.23490046939307
 51
-0.07291145233561
  0
ARC
  5
459
330
1F
100
AcDbEntity
  8
1
  6
Continuous
 62
     2
100
AcDbCircle
 10
419.0000000000009
 20
1032.5
 30
0.0
 40
79.99999999999994
100
AcDbArc
 50
-79.19307712514031
 51
-55.77113367218829
  0
ARC
  5
45A
330
1F
100
AcDbEntity
  8
1
  6
Continuous
 62
     2
100
AcDbCircle
 10
419.0000000000009
 20
1032.5
 30
0.0
 40
79.99999999999987
100
AcDbArc
 50
-124.2288663278134
 51
-100.806922874861
  0
ARC
  5
45B
330
1F
100
AcDbEntity
  8
1
  6
Continuous
 62
     2
100
AcDbCircle
 10
746.391951719467
 20
544.6433697779893
 30
0.0
 40
69.99999999999969
100
AcDbArc
 50
131.1652763304332
 51
165.0000000000001
  0
SOLID
  5
45C
330
1F
100
AcDbEntity
  8
1
 62
     2
100
AcDbTrace
 10
449.8516318052299
 20
955.8024634439335
 30
0.0
 11
447.6022132853802
 21
959.8239410294461
 31
0.0
 12
464.0
 22
966.3562172233844
 32
0.0
 13
464.0
 23
966.3562172233844
 33
0.0
  0
LEADER
  5
45D
330
1F
100
AcDbEntity
  8
1
  6
Continuous
 62
     2
100
AcDbLeader
  3
Standard
 71
     0
 76
     2
 10
464.0
 20
966.3562172233844
 30
0.0
 10
460.9453845090609
 20
964.6476142260456
 30
0.0
  0
SOLID
  5
45E
330
1F
100
AcDbEntity
  8
1
 62
     2
100
AcDbTrace
 10
390.3963511090931
 20
959.8203384210063
 30
0.0
 11
388.1460490826387
 21
955.7993551534511
 31
0.0
 12
374.0
 22
966.356217223386
 32
0.0
 13
374.0
 23
966.356217223386
 33
0.0
  0
LEADER
  5
45F
330
1F
100
AcDbEntity
  8
1
  6
Continuous
 62
     2
100
AcDbLeader
  3
Standard
 71
     0
 76
     2
 10
374.0
 20
966.356217223386
 30
0.0
 10
377.054240019173
 20
964.6469431361545
 30
0.0
  0
SOLID
  5
460
330
1F
100
AcDbEntity
  8
1
 62
     2
100
AcDbTrace
 10
681.228061250938
 20
578.2393768493594
 30
0.0
 11
687.1694415994527
 21
575.4054837926649
 31
0.0
 12
673.4359740049899
 22
554.2577982122647
 32
0.0
 13
673.4359740049899
 23
554.2577982122647
 33
0.0
  0
LEADER
  5
461
330
1F
100
AcDbEntity
  8
1
  6
Continuous
 62
     2
100
AcDbLeader
  3
Standard
 71
     0
 76
     2
 10
673.4359740049899
 20
554.2577982122647
 30
0.0
 10
674.1873480787381
 20
555.8330867171023
 30
0.0
  0
SOLID
  5
462
330
1F
100
AcDbEntity
  8
1
 62
     2
100
AcDbTrace
 10
694.6808730584173
 20
588.068477547313
 30
0.0
 11
689.985812906593
 21
592.6823003086737
 31
0.0
 12
709.8560745899999
 22
608.2066501568494
 32
0.0
 13
709.8560745899999
 23
608.2066501568494
 33
0.0
  0
LEADER
  5
463
330
1F
100
AcDbEntity
  8
1
  6
Continuous
 62
     2
100
AcDbLeader
  3
Standard
 71
     0
 76
     2
 10
709.8560745899999
 20
608.2066501568494
 30
0.0
 10
708.63277267479
 20
606.9618090840945
 30
0.0
  0
SOLID
  5
464
330
1F
100
AcDbEntity
  8
1
 62
     2
100
AcDbTrace
 10
531.5875858012504
 20
1119.598691828709
 30
0.0
 11
535.5780900596329
 21
1117.294773120929
 31
0.0
 12
524.8328379304423
 22
1103.291287908591
 32
0.0
 13
524.8328379304423
 23
1103.291287908591
 33
0.0
  0
LEADER
  5
465
330
1F
100
AcDbEntity
  8
1
  6
Continuous
 62
     2
100
AcDbLeader
  3
Standard
 71
     0
 76
     3
 10
524.8328379304423
 20
1103.291287908591
 30
0.0
 10
558.150978391004
 20
1161.0
 30
0.0
 10
624.9959999800049
 20
1161.0
 30
0.0
  0
MTEXT
  5
466
330
1F
100
AcDbEntity
  8
1
 62
     7
100
AcDbMText
 10
169.9999999999999
 20
152.5
 30
0.0
 40
17.5
 41
0.0
 71
     4
 72
     1
  1
吐水口は回転式(角度制限なし)
  7
CONVERTER_1
 73
     1
 44
0.7202881152461
  0
MTEXT
  5
468
330
1F
100
AcDbEntity
  8
1
 62
     7
100
AcDbMText
 10
169.9999999999999
 20
187.5
 30
0.0
 40
17.5
 41
0.0
 71
     4
 72
     1
  1
JIS
  7
CONVERTER_2
 73
     1
 44
0.7202881152461
  0
MTEXT
  5
469
330
1F
100
AcDbEntity
  8
1
 62
     7
100
AcDbMText
 10
285.0
 20
113.7500000000001
 30
0.0
 40
17.5
 41
0.0
 71
     5
 72
     1
  1
シングル混合栓
  7
CONVERTER_1
 73
     1
 44
0.7202881152461
  0
MTEXT
  5
46A
330
1F
100
AcDbEntity
  8
1
 62
     7
100
AcDbMText
 10
285.0
 20
71.24999999999999
 30
0.0
 40
17.5
 41
0.0
 71
     5
 72
     1
  1
K1700DK-4U-13
  7
CONVERTER_2
 73
     1
 44
0.7202881152461
  0
MTEXT
  5
46B
330
1F
100
AcDbEntity
  8
1
 62
     7
100
AcDbMText
 10
426.25
 20
85.0
 30
0.0
 40
17.5
 41
0.0
 71
     5
 72
     1
  1
1
  7
CONVERTER_2
 73
     1
 44
0.7202881152461
  0
MTEXT
  5
46C
330
1F
100
AcDbEntity
  8
1
 62
     7
100
AcDbMText
 10
468.75
 20
85.0
 30
0.0
 40
17.5
 41
0.0
 71
     5
 72
     1
  1
5
  7
CONVERTER_2
 73
     1
 44
0.7202881152461
  0
MTEXT
  5
46D
330
1F
100
AcDbEntity
  8
1
 62
     7
100
AcDbMText
 10
320.5
 20
923.0
 30
0.0
 40
17.5
 41
0.0
 71
     5
 72
     1
  1
湯側
  7
CONVERTER_1
 73
     1
 44
0.7202881152461
  0
MTEXT
  5
46E
330
1F
100
AcDbEntity
  8
1
 62
     7
100
AcDbMText
 10
517.0
 20
923.0
 30
0.0
 40
17.5
 41
0.0
 71
     5
 72
     1
  1
水側
  7
CONVERTER_1
 73
     1
 44
0.7202881152461
  0
MTEXT
  5
46F
330
1F
100
AcDbEntity
  8
1
 62
     7
100
AcDbMText
 10
718.0
 20
628.0
 30
0.0
 40
17.5
 41
0.0
 71
     5
 72
     1
  1
吐水
  7
CONVERTER_1
 73
     1
 44
0.7202881152461
  0
MTEXT
  5
470
330
1F
100
AcDbEntity
  8
1
 62
     7
100
AcDbMText
 10
670.0
 20
537.0
 30
0.0
 40
17.5
 41
0.0
 71
     5
 72
     1
  1
止水
  7
CONVERTER_1
 73
     1
 44
0.7202881152461
  0
MTEXT
  5
471
330
1F
100
AcDbEntity
  8
1
 62
     7
100
AcDbMText
 10
592.3678567558743
 20
1176.0
 30
0.0
 40
17.5
 41
0.0
 71
     5
 72
     1
  1
PJ1/2
  7
CONVERTER_2
 73
     1
 44
0.7202881152461
  0
MTEXT
  5
472
330
1F
100
AcDbEntity
  8
1
 62
     7
100
AcDbMText
 10
384.3428032388512
 20
925.5000000000001
 30
0.0
 40
17.5
 41
0.0
 71
     5
 72
     1
  1
45{\Fgdt;~}
  7
CONVERTER_2
 73
     1
 44
0.7202881152461
  0
MTEXT
  5
473
330
1F
100
AcDbEntity
  8
1
 62
     7
100
AcDbMText
 10
453.6571967611494
 20
925.5000000000001
 30
0.0
 40
17.5
 41
0.0
 71
     5
 72
     1
  1
45{\Fgdt;~}
  7
CONVERTER_2
 73
     1
 44
0.7202881152461
  0
MTEXT
  5
474
330
1F
100
AcDbEntity
  8
1
 62
     7
100
AcDbMText
 10
649.448919876886
 20
574.212804222288
 30
0.0
 40
17.5
 41
0.0
 71
     5
 72
     1
  1
25{\Fgdt;~}
  7
CONVERTER_2
 73
     1
 44
0.7202881152461
  0
DIMENSION
  5
47F
330
1F
100
AcDbEntity
  8
1
100
AcDbDimension
  2
*D030
 10
281.1303314613522
 20
489.1589930777136
 30
0.0
 11
290.4456163304297
 21
517.9197140047428
 31
0.0
 70
     1
  1
<>
 71
     5
 42
0.0
 53
44.99999936095522
  3
ME10_DIM_0
100
AcDbAlignedDimension
 13
359.0000006802415
 23
482.0000000000002
 33
0.0
 14
323.6446617411392
 24
446.6446618495649
 34
0.0
  0
DIMENSION
  5
48B
330
1F
100
AcDbEntity
  8
1
100
AcDbDimension
  2
*D131
 10
298.6446628523347
 20
1159.0
 30
0.0
 11
270.453120341765
 21
1172.75
 31
0.0
  1
<>
 71
     5
 42
0.0
 53
0.00013888888889
  3
ME10_DIM_1
100
AcDbAlignedDimension
 13
348.6446628523347
 23
1095.0
 33
0.0
 14
298.6446628523347
 24
1095.0
 34
0.0
100
AcDbRotatedDimension
  0
DIMENSION
  5
496
330
1F
100
AcDbEntity
  8
1
100
AcDbDimension
  2
*D232
 10
791.5
 20
304.500308981458
 30
0.0
 11
829.7915692134873
 21
318.250308981458
 31
0.0
  1
77
 71
     5
 42
0.0
 53
0.00013888888889
  3
ME10_DIM_2
100
AcDbAlignedDimension
 13
868.0000000000001
 23
437.3291601599411
 33
0.0
 14
791.5
 24
446.1028042208488
 34
0.0
100
AcDbRotatedDimension
  0
DIMENSION
  5
4A1
330
1F
100
AcDbEntity
  8
1
100
AcDbDimension
  2
*D333
 10
791.5
 20
344.500308981458
 30
0.0
 11
823.400234113358
 21
358.250308981458
 31
0.0
  1
63
 71
     5
 42
0.0
 53
0.00013888888889
  3
ME10_DIM_3
100
AcDbAlignedDimension
 13
854.0
 23
421.6446640475419
 33
0.0
 14
791.5
 24
446.1028042208488
 34
0.0
100
AcDbRotatedDimension
  0
DIMENSION
  5
4AC
330
1F
100
AcDbEntity
  8
1
100
AcDbDimension
  2
*D434
 10
323.6446628523371
 20
1199.0
 30
0.0
 11
419.0000000000009
 21
1212.75
 31
0.0
  1
取付寸法120～220
 71
     5
 42
0.0
 53
0.00013888888889
  3
ME10_DIM_4
100
AcDbAlignedDimension
 13
514.3553379304399
 23
1118.230431654675
 33
0.0
 14
323.644662852337
 24
1120.230431654675
 34
0.0
100
AcDbRotatedDimension
  0
DIMENSION
  5
4B7
330
1F
100
AcDbEntity
  8
1
100
AcDbDimension
  2
*D535
 10
359.0
 20
1159.0
 30
0.0
 11
419.0000000000009
 21
1172.75
 31
0.0
  1
<>
 71
     5
 42
0.0
 53
0.00013888888889
  3
ME10_DIM_5
100
AcDbAlignedDimension
 13
478.9999999892981
 23
1085.943669064747
 33
0.0
 14
359.0
 24
1085.943669064747
 34
0.0
100
AcDbRotatedDimension
  0
DIMENSION
  5
4C2
330
1F
100
AcDbEntity
  8
1
100
AcDbDimension
  2
*D636
 10
791.5
 20
304.500308981458
 30
0.0
 11
701.596319008478
 21
318.250308981458
 31
0.0
  1
<>
 71
     5
 42
0.0
 53
0.00013888888889
  3
ME10_DIM_6
100
AcDbAlignedDimension
 13
621.5
 23
391.500308981458
 33
0.0
 14
791.5
 24
446.1028042208488
 34
0.0
100
AcDbRotatedDimension
  0
DIMENSION
  5
4CD
330
1F
100
AcDbEntity
  8
1
100
AcDbDimension
  2
*D737
 10
574.1028324785871
 20
482.0000000000001
 30
0.0
 11
560.3528324785871
 21
442.7818811974231
 31
0.0
  1
88
 71
     5
 42
0.0
 53
90.0
  3
ME10_DIM_7
100
AcDbAlignedDimension
 13
610.7543014127541
 23
394.500308981458
 33
0.0
 14
766.5
 24
482.0000000000001
 34
0.0
 50
90.0
100
AcDbRotatedDimension
  0
DIMENSION
  5
4D9
330
1F
100
AcDbEntity
  8
1
100
AcDbDimension
  2
*D838
 10
603.6603212442969
 20
556.5000000000158
 30
0.0
 11
589.9103212442969
 21
523.1262044713365
 31
0.0
  1
最小75
 71
     5
 42
0.0
 53
90.0
  3
ME10_DIM_8
100
AcDbAlignedDimension
 13
766.5
 23
482.0000000000001
 33
0.0
 14
702.499999999998
 24
556.5000000000158
 34
0.0
 50
90.0
100
AcDbRotatedDimension
  0
DIMENSION
  5
4E5
330
1F
100
AcDbEntity
  8
1
100
AcDbDimension
  2
*D939
 10
574.1028324785871
 20
590.6838903004457
 30
0.0
 11
560.3528324785871
 21
545.2844716518287
 31
0.0
  1
最大109
 71
     5
 42
0.0
 53
90.0
  3
ME10_DIM_9
100
AcDbAlignedDimension
 13
766.5
 23
482.0000000000001
 33
0.0
 14
726.306435333418
 24
590.6838903004457
 34
0.0
 50
90.0
100
AcDbRotatedDimension
  0
DIMENSION
  5
4F0
330
1F
100
AcDbEntity
  8
1
100
AcDbDimension
  2
*D1040
 10
349.6856064777015
 20
875.0
 30
0.0
 11
384.3428032388512
 21
888.75
 31
0.0
  1
69
 71
     5
 42
0.0
 53
0.00013888888889
  3
ME10_DIM_10
100
AcDbAlignedDimension
 13
419.0000000000009
 23
824.901625819423
 33
0.0
 14
349.6856064777014
 24
977.7297365099207
 34
0.0
100
AcDbRotatedDimension
  0
DIMENSION
  5
4FB
330
1F
100
AcDbEntity
  8
1
100
AcDbDimension
  2
*D1141
 10
419.000000000001
 20
875.0
 30
0.0
 11
453.6571967611494
 21
888.75
 31
0.0
  1
69
 71
     5
 42
0.0
 53
0.00013888888889
  3
ME10_DIM_11
100
AcDbAlignedDimension
 13
488.3143935222977
 23
977.7297365099207
 33
0.0
 14
419.0000000000009
 24
824.901625819423
 34
0.0
100
AcDbRotatedDimension
  0
ENDSEC
  0
SECTION
  2
OBJECTS
  0
DICTIONARY
  5
C
330
0
100
AcDbDictionary
281
     1
  3
ACAD_GROUP
350
D
  3
ACAD_LAYOUT
350
1A
  3
ACAD_MLINESTYLE
350
17
  3
ACAD_PLOTSETTINGS
350
19
  3
ACAD_PLOTSTYLENAME
350
E
  3
ACAD_TABLESTYLE
350
2A
  3
AcDbVariableDictionary
350
2C
  0
DICTIONARY
  5
D
102
{ACAD_REACTORS
330
C
102
}
330
C
100
AcDbDictionary
281
     1
  0
DICTIONARY
  5
1A
102
{ACAD_REACTORS
330
C
102
}
330
C
100
AcDbDictionary
281
     1
  3
Layout1
350
1E
  3
Layout2
350
26
  3
Model
350
22
  0
DICTIONARY
  5
17
102
{ACAD_REACTORS
330
C
102
}
330
C
100
AcDbDictionary
281
     1
  3
Standard
350
18
  0
DICTIONARY
  5
19
102
{ACAD_REACTORS
330
C
102
}
330
C
100
AcDbDictionary
281
     1
  0
ACDBDICTIONARYWDFLT
  5
E
102
{ACAD_REACTORS
330
C
102
}
330
C
100
AcDbDictionary
281
     1
  3
Normal
350
F
100
AcDbDictionaryWithDefault
340
F
  0
DICTIONARY
  5
2A
102
{ACAD_REACTORS
330
C
102
}
330
C
100
AcDbDictionary
281
     1
  3
Standard
350
2B
  0
DICTIONARY
  5
2C
102
{ACAD_REACTORS
330
C
102
}
330
C
100
AcDbDictionary
281
     1
  3
CTABLESTYLE
350
2D
  0
LAYOUT
  5
1E
102
{ACAD_REACTORS
330
1A
102
}
330
1A
100
AcDbPlotSettings
  1

  2

  4

  6

 40
0.0
 41
0.0
 42
0.0
 43
0.0
 44
0.0
 45
0.0
 46
0.0
 47
0.0
 48
0.0
 49
0.0
140
0.0
141
0.0
142
1.0
143
1.0
 70
   688
 72
     0
 73
     0
 74
     5
  7

 75
    16
147
1.0
148
0.0
149
0.0
100
AcDbLayout
  1
Layout1
 70
     1
 71
     1
 10
0.0
 20
0.0
 11
12.0
 21
9.0
 12
0.0
 22
0.0
 32
0.0
 14
1.00000000000000E+20
 24
1.00000000000000E+20
 34
1.00000000000000E+20
 15
-1.00000000000000E+20
 25
-1.00000000000000E+20
 35
-1.00000000000000E+20
146
0.0
 13
0.0
 23
0.0
 33
0.0
 16
1.0
 26
0.0
 36
0.0
 17
0.0
 27
1.0
 37
0.0
 76
     0
330
1B
  0
LAYOUT
  5
26
102
{ACAD_REACTORS
330
1A
102
}
330
1A
100
AcDbPlotSettings
  1

  2

  4

  6

 40
0.0
 41
0.0
 42
0.0
 43
0.0
 44
0.0
 45
0.0
 46
0.0
 47
0.0
 48
0.0
 49
0.0
140
0.0
141
0.0
142
1.0
143
1.0
 70
   688
 72
     0
 73
     0
 74
     5
  7

 75
    16
147
1.0
148
0.0
149
0.0
100
AcDbLayout
  1
Layout2
 70
     1
 71
     2
 10
0.0
 20
0.0
 11
0.0
 21
0.0
 12
0.0
 22
0.0
 32
0.0
 14
0.0
 24
0.0
 34
0.0
 15
0.0
 25
0.0
 35
0.0
146
0.0
 13
0.0
 23
0.0
 33
0.0
 16
1.0
 26
0.0
 36
0.0
 17
0.0
 27
1.0
 37
0.0
 76
     0
330
23
  0
LAYOUT
  5
22
102
{ACAD_REACTORS
330
1A
102
}
330
1A
100
AcDbPlotSettings
  1

  2

  4

  6

 40
0.0
 41
0.0
 42
0.0
 43
0.0
 44
0.0
 45
0.0
 46
0.0
 47
0.0
 48
0.0
 49
0.0
140
0.0
141
0.0
142
1.0
143
1.0
 70
  1712
 72
     0
 73
     0
 74
     0
  7

 75
     0
147
1.0
148
0.0
149
0.0
100
AcDbLayout
  1
Model
 70
     1
 71
     0
 10
0.0
 20
0.0
 11
0.0
 21
0.0
 12
0.0
 22
0.0
 32
0.0
 14
0.0
 24
0.0
 34
0.0
 15
1050.0
 25
1485.0
 35
0.0
146
0.0
 13
0.0
 23
0.0
 33
0.0
 16
1.0
 26
0.0
 36
0.0
 17
0.0
 27
1.0
 37
0.0
 76
     0
330
1F
  0
MLINESTYLE
  5
18
102
{ACAD_REACTORS
330
17
102
}
330
17
100
AcDbMlineStyle
  2
Standard
 70
     0
  3

 62
   256
 51
90.0
 52
90.0
 71
     2
 49
0.5
 62
   256
  6
BYLAYER
 49
-0.5
 62
   256
  6
BYLAYER
  0
ACDBPLACEHOLDER
  5
F
102
{ACAD_REACTORS
330
E
102
}
330
E
  0
TABLESTYLE
  5
2B
102
{ACAD_REACTORS
330
2A
102
}
330
2A
100
AcDbTableStyle
  3
Standard
 70
     0
 71
     0
 40
0.06
 41
0.06
280
     0
281
     0
  7
Standard
140
0.18
170
     2
 62
     0
 63
     7
283
     0
274
    -2
284
     1
 64
     0
275
    -2
285
     1
 65
     0
276
    -2
286
     1
 66
     0
277
    -2
287
     1
 67
     0
278
    -2
288
     1
 68
     0
279
    -2
289
     1
 69
     0
  7
Standard
140
0.25
170
     5
 62
     0
 63
     7
283
     0
274
    -2
284
     1
 64
     0
275
    -2
285
     1
 65
     0
276
    -2
286
     1
 66
     0
277
    -2
287
     1
 67
     0
278
    -2
288
     1
 68
     0
279
    -2
289
     1
 69
     0
  7
Standard
140
0.18
170
     5
 62
     0
 63
     7
283
     0
274
    -2
284
     1
 64
     0
275
    -2
285
     1
 65
     0
276
    -2
286
     1
 66
     0
277
    -2
287
     1
 67
     0
278
    -2
288
     1
 68
     0
279
    -2
289
     1
 69
     0
  0
DICTIONARYVAR
  5
2D
102
{ACAD_REACTORS
330
2C
102
}
330
2C
100
DictionaryVariables
280
     0
  1
Standard
  0
ENDSEC
  0
EOF
