  0
SECTION
  2
HEADER
  9
$ACADVER
  1
AC1015
  9
$ACADMAINTVER
 70
     6
  9
$DWGCODEPAGE
  3
ANSI_932
  9
$INSBASE
 10
0.0
 20
0.0
 30
0.0
  9
$EXTMIN
 10
10.0
 20
0.0
 30
0.0
  9
$EXTMAX
 10
964.4809879003252
 20
1188.0
 30
0.0
  9
$LIMMIN
 10
0.0
 20
0.0
  9
$LIMMAX
 10
12.0
 20
9.0
  9
$ORTHOMODE
 70
     0
  9
$REGENMODE
 70
     1
  9
$FILLMODE
 70
     1
  9
$QTEXTMODE
 70
     0
  9
$MIRRTEXT
 70
     1
  9
$LTSCALE
 40
1.0
  9
$ATTMODE
 70
     1
  9
$TEXTSIZE
 40
0.2
  9
$TRACEWID
 40
0.05
  9
$TEXTSTYLE
  7
Standard
  9
$CLAYER
  8
0
  9
$CELTYPE
  6
ByLayer
  9
$CECOLOR
 62
   256
  9
$CELTSCALE
 40
1.0
  9
$DISPSILH
 70
     0
  9
$DIMSCALE
 40
1.0
  9
$DIMASZ
 40
0.18
  9
$DIMEXO
 40
0.0625
  9
$DIMDLI
 40
0.38
  9
$DIMRND
 40
0.0
  9
$DIMDLE
 40
0.0
  9
$DIMEXE
 40
0.18
  9
$DIMTP
 40
0.0
  9
$DIMTM
 40
0.0
  9
$DIMTXT
 40
0.18
  9
$DIMCEN
 40
0.09
  9
$DIMTSZ
 40
0.0
  9
$DIMTOL
 70
     0
  9
$DIMLIM
 70
     0
  9
$DIMTIH
 70
     1
  9
$DIMTOH
 70
     1
  9
$DIMSE1
 70
     0
  9
$DIMSE2
 70
     0
  9
$DIMTAD
 70
     0
  9
$DIMZIN
 70
     0
  9
$DIMBLK
  1

  9
$DIMASO
 70
     1
  9
$DIMSHO
 70
     1
  9
$DIMPOST
  1

  9
$DIMAPOST
  1

  9
$DIMALT
 70
     0
  9
$DIMALTD
 70
     2
  9
$DIMALTF
 40
25.4
  9
$DIMLFAC
 40
1.0
  9
$DIMTOFL
 70
     0
  9
$DIMTVP
 40
0.0
  9
$DIMTIX
 70
     0
  9
$DIMSOXD
 70
     0
  9
$DIMSAH
 70
     0
  9
$DIMBLK1
  1

  9
$DIMBLK2
  1

  9
$DIMSTYLE
  2
Standard
  9
$DIMCLRD
 70
     0
  9
$DIMCLRE
 70
     0
  9
$DIMCLRT
 70
     0
  9
$DIMTFAC
 40
1.0
  9
$DIMGAP
 40
0.09
  9
$DIMJUST
 70
     0
  9
$DIMSD1
 70
     0
  9
$DIMSD2
 70
     0
  9
$DIMTOLJ
 70
     1
  9
$DIMTZIN
 70
     0
  9
$DIMALTZ
 70
     0
  9
$DIMALTTZ
 70
     0
  9
$DIMUPT
 70
     0
  9
$DIMDEC
 70
     4
  9
$DIMTDEC
 70
     4
  9
$DIMALTU
 70
     2
  9
$DIMALTTD
 70
     2
  9
$DIMTXSTY
  7
Standard
  9
$DIMAUNIT
 70
     0
  9
$DIMADEC
 70
     0
  9
$DIMALTRND
 40
0.0
  9
$DIMAZIN
 70
     0
  9
$DIMDSEP
 70
    46
  9
$DIMATFIT
 70
     3
  9
$DIMFRAC
 70
     0
  9
$DIMLDRBLK
  1

  9
$DIMLUNIT
 70
     2
  9
$DIMLWD
 70
    -2
  9
$DIMLWE
 70
    -2
  9
$DIMTMOVE
 70
     0
  9
$LUNITS
 70
     2
  9
$LUPREC
 70
     4
  9
$SKETCHINC
 40
0.1
  9
$FILLETRAD
 40
0.5
  9
$AUNITS
 70
     0
  9
$AUPREC
 70
     0
  9
$MENU
  1
.
  9
$ELEVATION
 40
0.0
  9
$PELEVATION
 40
0.0
  9
$THICKNESS
 40
0.0
  9
$LIMCHECK
 70
     0
  9
$CHAMFERA
 40
0.5
  9
$CHAMFERB
 40
0.5
  9
$CHAMFERC
 40
1.0
  9
$CHAMFERD
 40
0.0
  9
$SKPOLY
 70
     0
  9
$TDCREATE
 40
2456569.660778542
  9
$TDUCREATE
 40
2456569.285778542
  9
$TDUPDATE
 40
2456569.660780532
  9
$TDUUPDATE
 40
2456569.285780532
  9
$TDINDWG
 40
0.0000000116
  9
$TDUSRTIMER
 40
0.0000000116
  9
$USRTIMER
 70
     1
  9
$ANGBASE
 50
0.0
  9
$ANGDIR
 70
     0
  9
$PDMODE
 70
     0
  9
$PDSIZE
 40
0.0
  9
$PLINEWID
 40
0.0
  9
$SPLFRAME
 70
     0
  9
$SPLINETYPE
 70
     6
  9
$SPLINESEGS
 70
     8
  9
$HANDSEED
  5
4B4
  9
$SURFTAB1
 70
     6
  9
$SURFTAB2
 70
     6
  9
$SURFTYPE
 70
     6
  9
$SURFU
 70
     6
  9
$SURFV
 70
     6
  9
$UCSBASE
  2

  9
$UCSNAME
  2

  9
$UCSORG
 10
0.0
 20
0.0
 30
0.0
  9
$UCSXDIR
 10
1.0
 20
0.0
 30
0.0
  9
$UCSYDIR
 10
0.0
 20
1.0
 30
0.0
  9
$UCSORTHOREF
  2

  9
$UCSORTHOVIEW
 70
     0
  9
$UCSORGTOP
 10
0.0
 20
0.0
 30
0.0
  9
$UCSORGBOTTOM
 10
0.0
 20
0.0
 30
0.0
  9
$UCSORGLEFT
 10
0.0
 20
0.0
 30
0.0
  9
$UCSORGRIGHT
 10
0.0
 20
0.0
 30
0.0
  9
$UCSORGFRONT
 10
0.0
 20
0.0
 30
0.0
  9
$UCSORGBACK
 10
0.0
 20
0.0
 30
0.0
  9
$PUCSBASE
  2

  9
$PUCSNAME
  2

  9
$PUCSORG
 10
0.0
 20
0.0
 30
0.0
  9
$PUCSXDIR
 10
1.0
 20
0.0
 30
0.0
  9
$PUCSYDIR
 10
0.0
 20
1.0
 30
0.0
  9
$PUCSORTHOREF
  2

  9
$PUCSORTHOVIEW
 70
     0
  9
$PUCSORGTOP
 10
0.0
 20
0.0
 30
0.0
  9
$PUCSORGBOTTOM
 10
0.0
 20
0.0
 30
0.0
  9
$PUCSORGLEFT
 10
0.0
 20
0.0
 30
0.0
  9
$PUCSORGRIGHT
 10
0.0
 20
0.0
 30
0.0
  9
$PUCSORGFRONT
 10
0.0
 20
0.0
 30
0.0
  9
$PUCSORGBACK
 10
0.0
 20
0.0
 30
0.0
  9
$USERI1
 70
     0
  9
$USERI2
 70
     0
  9
$USERI3
 70
     0
  9
$USERI4
 70
     0
  9
$USERI5
 70
     0
  9
$USERR1
 40
18.1
  9
$USERR2
 40
0.0
  9
$USERR3
 40
0.0
  9
$USERR4
 40
0.0
  9
$USERR5
 40
0.0
  9
$WORLDVIEW
 70
     1
  9
$SHADEDGE
 70
     3
  9
$SHADEDIF
 70
    70
  9
$TILEMODE
 70
     1
  9
$MAXACTVP
 70
    64
  9
$PINSBASE
 10
0.0
 20
0.0
 30
0.0
  9
$PLIMCHECK
 70
     0
  9
$PEXTMIN
 10
1.00000000000000E+20
 20
1.00000000000000E+20
 30
1.00000000000000E+20
  9
$PEXTMAX
 10
-1.00000000000000E+20
 20
-1.00000000000000E+20
 30
-1.00000000000000E+20
  9
$PLIMMIN
 10
0.0
 20
0.0
  9
$PLIMMAX
 10
12.0
 20
9.0
  9
$UNITMODE
 70
     0
  9
$VISRETAIN
 70
     1
  9
$PLINEGEN
 70
     0
  9
$PSLTSCALE
 70
     1
  9
$TREEDEPTH
 70
  3020
  9
$CMLSTYLE
  2
Standard
  9
$CMLJUST
 70
     0
  9
$CMLSCALE
 40
1.0
  9
$PROXYGRAPHICS
 70
     1
  9
$MEASUREMENT
 70
     1
  9
$CELWEIGHT
370
    -1
  9
$ENDCAPS
280
     0
  9
$JOINSTYLE
280
     0
  9
$LWDISPLAY
290
     0
  9
$INSUNITS
 70
     4
  9
$HYPERLINKBASE
  1

  9
$STYLESHEET
  1

  9
$XEDIT
290
     1
  9
$CEPSNTYPE
380
     0
  9
$PSTYLEMODE
290
     1
  9
$FINGERPRINTGUID
  2
{22A0D699-61B6-43D6-BE5E-5D8CA7F7521D}
  9
$VERSIONGUID
  2
{FAEB1C32-E019-11D5-929B-00C0DF256EC4}
  9
$EXTNAMES
290
     1
  9
$PSVPSCALE
 40
0.0
  9
$OLESTARTUP
290
     0
  0
ENDSEC
  0
SECTION
  2
CLASSES
  0
CLASS
  1
ACDBDICTIONARYWDFLT
  2
AcDbDictionaryWithDefault
  3
ObjectDBX Classes
 90
        0
280
     0
281
     0
  0
CLASS
  1
VISUALSTYLE
  2
AcDbVisualStyle
  3
ObjectDBX Classes
 90
     4095
280
     0
281
     0
  0
CLASS
  1
MATERIAL
  2
AcDbMaterial
  3
ObjectDBX Classes
 90
     1153
280
     0
281
     0
  0
CLASS
  1
DICTIONARYVAR
  2
AcDbDictionaryVar
  3
ObjectDBX Classes
 90
        0
280
     0
281
     0
  0
CLASS
  1
ACDBPLACEHOLDER
  2
AcDbPlaceHolder
  3
ObjectDBX Classes
 90
        0
280
     0
281
     0
  0
CLASS
  1
LAYOUT
  2
AcDbLayout
  3
ObjectDBX Classes
 90
        0
280
     0
281
     0
  0
ENDSEC
  0
SECTION
  2
TABLES
  0
TABLE
  2
VPORT
  5
8
330
0
100
AcDbSymbolTable
 70
     1
  0
VPORT
  5
29
330
8
100
AcDbSymbolTableRecord
100
AcDbViewportTableRecord
  2
*Active
 70
     0
 10
0.0
 20
0.0
 11
1.0
 21
1.0
 12
487.2404939501626
 22
594.0
 13
0.0
 23
0.0
 14
0.5
 24
0.5
 15
0.5
 25
0.5
 16
0.0
 26
0.0
 36
1.0
 17
0.0
 27
0.0
 37
0.0
 40
1306.8
 41
1.60267857142857
 42
50.0
 43
0.0
 44
0.0
 50
0.0
 51
0.0
 71
     0
 72
   100
 73
     1
 74
     3
 75
     0
 76
     0
 77
     0
 78
     0
281
     0
 65
     1
110
0.0
120
0.0
130
0.0
111
1.0
121
0.0
131
0.0
112
0.0
122
1.0
132
0.0
 79
     0
146
0.0
  0
ENDTAB
  0
TABLE
  2
LTYPE
  5
5
330
0
100
AcDbSymbolTable
 70
     8
  0
LTYPE
  5
14
330
5
100
AcDbSymbolTableRecord
100
AcDbLinetypeTableRecord
  2
ByBlock
 70
     0
  3

 72
    65
 73
     0
 40
0.0
  0
LTYPE
  5
15
330
5
100
AcDbSymbolTableRecord
100
AcDbLinetypeTableRecord
  2
ByLayer
 70
     0
  3

 72
    65
 73
     0
 40
0.0
  0
LTYPE
  5
16
330
5
100
AcDbSymbolTableRecord
100
AcDbLinetypeTableRecord
  2
Continuous
 70
     0
  3
Solid line
 72
    65
 73
     0
 40
0.0
  0
LTYPE
  5
3F
330
5
100
AcDbSymbolTableRecord
100
AcDbLinetypeTableRecord
  2
DASHED
 70
     0
  3
Dashed
 72
    65
 73
     2
 40
15.0
 49
7.0
 74
     0
 49
-8.0
 74
     0
  0
LTYPE
  5
40
330
5
100
AcDbSymbolTableRecord
100
AcDbLinetypeTableRecord
  2
DOTTED
 70
     0
  3
Dotted
 72
    65
 73
     2
 40
1.0
 49
0.0
 74
     0
 49
-1.0
 74
     0
  0
LTYPE
  5
41
330
5
100
AcDbSymbolTableRecord
100
AcDbLinetypeTableRecord
  2
DOT_CENTER
 70
     0
  3
Dot_Center
 72
    65
 73
     4
 40
14.0
 49
12.0
 74
     0
 49
-1.0
 74
     0
 49
0.0
 74
     0
 49
-1.0
 74
     0
  0
LTYPE
  5
42
330
5
100
AcDbSymbolTableRecord
100
AcDbLinetypeTableRecord
  2
LONG_DASHED
 70
     0
  3
Long_Dashed
 72
    65
 73
     2
 40
15.0
 49
10.0
 74
     0
 49
-5.0
 74
     0
  0
LTYPE
  5
43
330
5
100
AcDbSymbolTableRecord
100
AcDbLinetypeTableRecord
  2
DASH_CENTER
 70
     0
  3
Dash_Center
 72
    65
 73
     4
 40
14.0
 49
11.0
 74
     0
 49
-1.0
 74
     0
 49
1.0
 74
     0
 49
-1.0
 74
     0
  0
LTYPE
  5
44
330
5
100
AcDbSymbolTableRecord
100
AcDbLinetypeTableRecord
  2
PHANTOM
 70
     0
  3
Phantom
 72
    65
 73
     6
 40
13.0
 49
10.0
 74
     0
 49
-1.0
 74
     0
 49
0.0
 74
     0
 49
-1.0
 74
     0
 49
0.0
 74
     0
 49
-1.0
 74
     0
  0
LTYPE
  5
45
330
5
100
AcDbSymbolTableRecord
100
AcDbLinetypeTableRecord
  2
CENTER_DASH_DASH
 70
     0
  3
Center_Dash_Dash
 72
    65
 73
     6
 40
14.0
 49
9.0
 74
     0
 49
-1.0
 74
     0
 49
1.0
 74
     0
 49
-1.0
 74
     0
 49
1.0
 74
     0
 49
-1.0
 74
     0
  0
ENDTAB
  0
TABLE
  2
LAYER
  5
2
330
0
100
AcDbSymbolTable
 70
     5
  0
LAYER
  5
10
330
2
100
AcDbSymbolTableRecord
100
AcDbLayerTableRecord
  2
0
 70
     0
 62
     7
  6
Continuous
370
    -3
390
F
  0
LAYER
  5
46
330
2
100
AcDbSymbolTableRecord
100
AcDbLayerTableRecord
  2
1
 70
     0
 62
     7
  6
Continuous
370
    -3
390
F
  0
LAYER
  5
47
330
2
100
AcDbSymbolTableRecord
100
AcDbLayerTableRecord
  2
11
 70
     0
 62
     7
  6
Continuous
370
    -3
390
F
  0
LAYER
  5
48
330
2
100
AcDbSymbolTableRecord
100
AcDbLayerTableRecord
  2
6
 70
     0
 62
     7
  6
Continuous
370
    -3
390
F
  0
LAYER
  5
49
330
2
100
AcDbSymbolTableRecord
100
AcDbLayerTableRecord
  2
8
 70
     0
 62
     7
  6
Continuous
370
    -3
390
F
  0
ENDTAB
  0
TABLE
  2
STYLE
  5
3
330
0
100
AcDbSymbolTable
 70
     3
  0
STYLE
  5
11
330
3
100
AcDbSymbolTableRecord
100
AcDbTextStyleTableRecord
  2
Standard
 70
     0
 40
0.0
 41
1.0
 50
0.0
 71
     0
 42
0.2
  3
txt
  4

  0
STYLE
  5
217
330
3
100
AcDbSymbolTableRecord
100
AcDbTextStyleTableRecord
  2
CONVERTER_11
 70
     0
 40
0.0
 41
0.89
 50
0.0
 71
     0
 42
0.2
  3
MS Mincho.ttf
  4

1001
ACAD
1000
MS Mincho
1071
    32785
  0
STYLE
  5
3E0
330
3
100
AcDbSymbolTableRecord
100
AcDbTextStyleTableRecord
  2
CONVERTER_12
 70
     0
 40
0.0
 41
0.9
 50
0.0
 71
     0
 42
0.2
  3
txt.shx
  4

  0
ENDTAB
  0
TABLE
  2
VIEW
  5
6
330
0
100
AcDbSymbolTable
 70
     0
  0
ENDTAB
  0
TABLE
  2
UCS
  5
7
330
0
100
AcDbSymbolTable
 70
     0
  0
ENDTAB
  0
TABLE
  2
APPID
  5
9
330
0
100
AcDbSymbolTable
 70
     1
  0
APPID
  5
12
330
9
100
AcDbSymbolTableRecord
100
AcDbRegAppTableRecord
  2
ACAD
 70
     0
  0
ENDTAB
  0
TABLE
  2
DIMSTYLE
  5
A
330
0
100
AcDbSymbolTable
 70
    15
100
AcDbDimStyleTable
  0
DIMSTYLE
105
27
330
A
100
AcDbSymbolTableRecord
100
AcDbDimStyleTableRecord
  2
Standard
 70
     0
178
     0
340
11
  0
DIMSTYLE
105
3F5
102
{ACAD_REACTORS
330
3F6
102
}
330
A
100
AcDbSymbolTableRecord
100
AcDbDimStyleTableRecord
  2
ME10_DIM_10
 70
     0
 41
14.0
 42
0.0
 44
4.0
 73
     0
 74
     0
 77
     1
 78
     8
140
14.0
147
4.0
172
     1
173
     1
174
     1
175
     1
176
     2
177
     2
271
     2
178
     7
271
     2
340
3E0
  0
DIMSTYLE
105
401
102
{ACAD_REACTORS
330
402
102
}
330
A
100
AcDbSymbolTableRecord
100
AcDbDimStyleTableRecord
  2
ME10_DIM_11
 70
     0
  3
{\Fgdt;n}<>
 41
14.0
 42
0.0
 44
4.0
 73
     0
 74
     0
 77
     1
 78
     8
140
14.0
147
4.0
172
     1
173
     1
174
     1
175
     1
176
     2
177
     2
271
     2
178
     7
271
     2
340
3E0
  0
DIMSTYLE
105
40C
102
{ACAD_REACTORS
330
40D
102
}
330
A
100
AcDbSymbolTableRecord
100
AcDbDimStyleTableRecord
  2
ME10_DIM_12
 70
     0
 41
14.0
 42
0.0
 44
4.0
 73
     0
 74
     0
 77
     1
 78
     8
140
14.0
147
4.0
172
     1
173
     1
174
     1
175
     1
176
     2
177
     2
271
     2
178
     7
271
     2
340
3E0
  0
DIMSTYLE
105
417
102
{ACAD_REACTORS
330
418
102
}
330
A
100
AcDbSymbolTableRecord
100
AcDbDimStyleTableRecord
  2
ME10_DIM_13
 70
     0
 41
14.0
 42
0.0
 44
4.0
 73
     0
 74
     0
 77
     1
 78
     8
140
14.0
147
4.0
172
     1
173
     1
174
     1
175
     1
176
     2
177
     2
271
     2
178
     7
271
     2
340
3E0
  0
DIMSTYLE
105
422
102
{ACAD_REACTORS
330
423
102
}
330
A
100
AcDbSymbolTableRecord
100
AcDbDimStyleTableRecord
  2
ME10_DIM_14
 70
     0
  3
最大<>
 41
14.0
 42
0.0
 44
4.0
 73
     0
 74
     0
 77
     1
 78
     8
140
14.0
147
4.0
172
     1
173
     1
174
     1
175
     1
176
     2
177
     2
271
     2
178
     7
271
     2
340
217
  0
DIMSTYLE
105
42D
102
{ACAD_REACTORS
330
42E
102
}
330
A
100
AcDbSymbolTableRecord
100
AcDbDimStyleTableRecord
  2
ME10_DIM_15
 70
     0
  3
最小<>
 41
14.0
 42
0.0
 44
4.0
 73
     0
 74
     0
 77
     1
 78
     8
140
14.0
147
4.0
172
     1
173
     1
174
     1
175
     1
176
     2
177
     2
271
     2
178
     7
271
     2
340
217
  0
DIMSTYLE
105
43A
102
{ACAD_REACTORS
330
43B
102
}
330
A
100
AcDbSymbolTableRecord
100
AcDbDimStyleTableRecord
  2
ME10_DIM_16
 70
     0
 41
14.0
 42
0.0
 44
4.0
 73
     0
 74
     0
 77
     1
 78
     8
140
14.0
147
4.0
172
     1
173
     1
174
     1
175
     1
176
     2
177
     2
271
     2
178
     7
271
     2
340
3E0
  0
DIMSTYLE
105
445
102
{ACAD_REACTORS
330
446
102
}
330
A
100
AcDbSymbolTableRecord
100
AcDbDimStyleTableRecord
  2
ME10_DIM_17
 70
     0
 41
14.0
 42
0.0
 44
4.0
 73
     0
 74
     0
 77
     1
 78
     8
140
14.0
147
4.0
172
     1
173
     1
174
     1
175
     1
176
     2
177
     2
271
     2
178
     7
271
     2
340
3E0
  0
DIMSTYLE
105
450
102
{ACAD_REACTORS
330
451
102
}
330
A
100
AcDbSymbolTableRecord
100
AcDbDimStyleTableRecord
  2
ME10_DIM_18
 70
     0
 41
14.0
 42
0.0
 44
4.0
 73
     0
 74
     0
 77
     1
 78
     8
140
14.0
147
4.0
172
     1
173
     1
174
     1
175
     1
176
     2
177
     2
271
     2
178
     7
271
     2
340
217
  0
DIMSTYLE
105
45B
102
{ACAD_REACTORS
330
45C
102
}
330
A
100
AcDbSymbolTableRecord
100
AcDbDimStyleTableRecord
  2
ME10_DIM_19
 70
     0
 41
14.0
 42
0.0
 44
4.0
 73
     0
 74
     0
 77
     1
 78
     8
140
14.0
147
4.0
172
     1
173
     1
174
     1
175
     1
176
     2
177
     2
271
     2
178
     7
271
     2
340
3E0
  0
DIMSTYLE
105
466
102
{ACAD_REACTORS
330
467
102
}
330
A
100
AcDbSymbolTableRecord
100
AcDbDimStyleTableRecord
  2
ME10_DIM_20
 70
     0
 41
14.0
 42
0.0
 44
4.0
 73
     0
 74
     0
 77
     1
 78
     8
140
14.0
147
4.0
172
     1
173
     1
174
     1
175
     1
176
     2
177
     2
271
     2
178
     7
271
     2
340
3E0
  0
DIMSTYLE
105
471
102
{ACAD_REACTORS
330
472
102
}
330
A
100
AcDbSymbolTableRecord
100
AcDbDimStyleTableRecord
  2
ME10_DIM_21
 70
     0
 41
14.0
 42
0.0
 44
4.0
 73
     0
 74
     0
 77
     1
 78
     8
140
14.0
147
4.0
172
     1
173
     1
174
     1
175
     1
176
     2
177
     2
271
     2
178
     7
271
     2
340
3E0
  0
DIMSTYLE
105
47C
102
{ACAD_REACTORS
330
47D
102
}
330
A
100
AcDbSymbolTableRecord
100
AcDbDimStyleTableRecord
  2
ME10_DIM_22
 70
     0
 41
14.0
 42
0.0
 44
4.0
 73
     0
 74
     0
 77
     1
 78
     8
140
14.0
147
4.0
172
     1
173
     1
174
     1
175
     1
176
     2
177
     2
271
     2
178
     7
271
     2
340
3E0
  0
DIMSTYLE
105
487
102
{ACAD_REACTORS
330
488
102
}
330
A
100
AcDbSymbolTableRecord
100
AcDbDimStyleTableRecord
  2
ME10_DIM_23
 70
     0
 41
14.0
 42
0.0
 44
4.0
 73
     0
 74
     0
 77
     1
 78
     8
140
14.0
147
4.0
172
     1
173
     1
174
     1
175
     1
176
     2
177
     2
271
     2
178
     7
271
     2
340
3E0
  0
ENDTAB
  0
TABLE
  2
BLOCK_RECORD
  5
1
330
0
100
AcDbSymbolTable
 70
    43
  0
BLOCK_RECORD
  5
1F
330
1
100
AcDbSymbolTableRecord
100
AcDbBlockTableRecord
  2
*Model_Space
340
22
  0
BLOCK_RECORD
  5
1B
330
1
100
AcDbSymbolTableRecord
100
AcDbBlockTableRecord
  2
*Paper_Space
340
1E
  0
BLOCK_RECORD
  5
23
330
1
100
AcDbSymbolTableRecord
100
AcDbBlockTableRecord
  2
*Paper_Space0
340
26
  0
BLOCK_RECORD
  5
4A
330
1
100
AcDbSymbolTableRecord
100
AcDbBlockTableRecord
  2
27-16-M1
340
0
102
{BLKREFS
331
AE
102
}
  0
BLOCK_RECORD
  5
4D
330
1
100
AcDbSymbolTableRecord
100
AcDbBlockTableRecord
  2
84-208
340
0
102
{BLKREFS
331
AF
102
}
  0
BLOCK_RECORD
  5
50
330
1
100
AcDbSymbolTableRecord
100
AcDbBlockTableRecord
  2
37-305-M11
340
0
102
{BLKREFS
331
B0
102
}
  0
BLOCK_RECORD
  5
53
330
1
100
AcDbSymbolTableRecord
100
AcDbBlockTableRecord
  2
30-161C-M1
340
0
102
{BLKREFS
331
B1
102
}
  0
BLOCK_RECORD
  5
56
330
1
100
AcDbSymbolTableRecord
100
AcDbBlockTableRecord
  2
K2710-0B
340
0
102
{BLKREFS
331
B2
102
}
  0
BLOCK_RECORD
  5
59
330
1
100
AcDbSymbolTableRecord
100
AcDbBlockTableRecord
  2
82-20-M21
340
0
102
{BLKREFS
331
B3
102
}
  0
BLOCK_RECORD
  5
5C
330
1
100
AcDbSymbolTableRecord
100
AcDbBlockTableRecord
  2
61-129B-M1
340
0
102
{BLKREFS
331
B4
102
}
  0
BLOCK_RECORD
  5
5F
330
1
100
AcDbSymbolTableRecord
100
AcDbBlockTableRecord
  2
開示A4
340
0
102
{BLKREFS
331
B5
102
}
  0
BLOCK_RECORD
  5
62
330
1
100
AcDbSymbolTableRecord
100
AcDbBlockTableRecord
  2
32-3-M1K__1
340
0
102
{BLKREFS
331
7E
102
}
  0
BLOCK_RECORD
  5
65
330
1
100
AcDbSymbolTableRecord
100
AcDbBlockTableRecord
  2
78-3A-C4K__2
340
0
102
{BLKREFS
331
7F
102
}
  0
BLOCK_RECORD
  5
68
330
1
100
AcDbSymbolTableRecord
100
AcDbBlockTableRecord
  2
35-6A-8-C2K__3
340
0
102
{BLKREFS
331
80
102
}
  0
BLOCK_RECORD
  5
6B
330
1
100
AcDbSymbolTableRecord
100
AcDbBlockTableRecord
  2
30-108-M11K__4
340
0
102
{BLKREFS
331
75
102
}
  0
BLOCK_RECORD
  5
6E
330
1
100
AcDbSymbolTableRecord
100
AcDbBlockTableRecord
  2
36-99-M11K__5
340
0
102
{BLKREFS
331
76
102
}
  0
BLOCK_RECORD
  5
71
330
1
100
AcDbSymbolTableRecord
100
AcDbBlockTableRecord
  2
78-78-C2K__6
340
0
102
{BLKREFS
331
77
102
}
  0
BLOCK_RECORD
  5
74
330
1
100
AcDbSymbolTableRecord
100
AcDbBlockTableRecord
  2
30-108XK__7
340
0
102
{BLKREFS
331
81
102
}
  0
BLOCK_RECORD
  5
7A
330
1
100
AcDbSymbolTableRecord
100
AcDbBlockTableRecord
  2
03-47-50-M1K__8
340
0
102
{BLKREFS
331
82
102
}
  0
BLOCK_RECORD
  5
7D
330
1
100
AcDbSymbolTableRecord
100
AcDbBlockTableRecord
  2
U3-48F-50__9
340
0
102
{BLKREFS
331
B6
102
}
  0
BLOCK_RECORD
  5
85
330
1
100
AcDbSymbolTableRecord
100
AcDbBlockTableRecord
  2
03-47-50-M1K__10
340
0
102
{BLKREFS
331
A1
102
}
  0
BLOCK_RECORD
  5
88
330
1
100
AcDbSymbolTableRecord
100
AcDbBlockTableRecord
  2
30-108-M11K__11
340
0
102
{BLKREFS
331
92
102
}
  0
BLOCK_RECORD
  5
8B
330
1
100
AcDbSymbolTableRecord
100
AcDbBlockTableRecord
  2
78-78-C2K__12
340
0
102
{BLKREFS
331
93
102
}
  0
BLOCK_RECORD
  5
8E
330
1
100
AcDbSymbolTableRecord
100
AcDbBlockTableRecord
  2
36-99-M11K__13
340
0
102
{BLKREFS
331
94
102
}
  0
BLOCK_RECORD
  5
91
330
1
100
AcDbSymbolTableRecord
100
AcDbBlockTableRecord
  2
30-108XK__14
340
0
102
{BLKREFS
331
A2
102
}
  0
BLOCK_RECORD
  5
97
330
1
100
AcDbSymbolTableRecord
100
AcDbBlockTableRecord
  2
35-6A-8-C2K__15
340
0
102
{BLKREFS
331
A3
102
}
  0
BLOCK_RECORD
  5
9A
330
1
100
AcDbSymbolTableRecord
100
AcDbBlockTableRecord
  2
78-3A-C4K__16
340
0
102
{BLKREFS
331
A4
102
}
  0
BLOCK_RECORD
  5
9D
330
1
100
AcDbSymbolTableRecord
100
AcDbBlockTableRecord
  2
32-3-M1K__17
340
0
102
{BLKREFS
331
A5
102
}
  0
BLOCK_RECORD
  5
A0
330
1
100
AcDbSymbolTableRecord
100
AcDbBlockTableRecord
  2
U3-48F-50__18
340
0
102
{BLKREFS
331
B7
102
}
  0
BLOCK_RECORD
  5
A8
330
1
100
AcDbSymbolTableRecord
100
AcDbBlockTableRecord
  2
35-248
340
0
102
{BLKREFS
331
B8
102
}
  0
BLOCK_RECORD
  5
AB
330
1
100
AcDbSymbolTableRecord
100
AcDbBlockTableRecord
  2
31-17
340
0
102
{BLKREFS
331
B9
102
}
  0
BLOCK_RECORD
  5
3EC
330
1
100
AcDbSymbolTableRecord
100
AcDbBlockTableRecord
  2
*D29
340
0
  0
BLOCK_RECORD
  5
3F7
330
1
100
AcDbSymbolTableRecord
100
AcDbBlockTableRecord
  2
*D30
340
0
  0
BLOCK_RECORD
  5
403
330
1
100
AcDbSymbolTableRecord
100
AcDbBlockTableRecord
  2
*D31
340
0
  0
BLOCK_RECORD
  5
40E
330
1
100
AcDbSymbolTableRecord
100
AcDbBlockTableRecord
  2
*D32
340
0
  0
BLOCK_RECORD
  5
419
330
1
100
AcDbSymbolTableRecord
100
AcDbBlockTableRecord
  2
*D33
340
0
  0
BLOCK_RECORD
  5
424
330
1
100
AcDbSymbolTableRecord
100
AcDbBlockTableRecord
  2
*D34
340
0
  0
BLOCK_RECORD
  5
42F
330
1
100
AcDbSymbolTableRecord
100
AcDbBlockTableRecord
  2
*D35
340
0
  0
BLOCK_RECORD
  5
43C
330
1
100
AcDbSymbolTableRecord
100
AcDbBlockTableRecord
  2
*D36
340
0
  0
BLOCK_RECORD
  5
447
330
1
100
AcDbSymbolTableRecord
100
AcDbBlockTableRecord
  2
*D37
340
0
  0
BLOCK_RECORD
  5
452
330
1
100
AcDbSymbolTableRecord
100
AcDbBlockTableRecord
  2
*D38
340
0
  0
BLOCK_RECORD
  5
45D
330
1
100
AcDbSymbolTableRecord
100
AcDbBlockTableRecord
  2
*D39
340
0
  0
BLOCK_RECORD
  5
468
330
1
100
AcDbSymbolTableRecord
100
AcDbBlockTableRecord
  2
*D40
340
0
  0
BLOCK_RECORD
  5
473
330
1
100
AcDbSymbolTableRecord
100
AcDbBlockTableRecord
  2
*D41
340
0
  0
BLOCK_RECORD
  5
47E
330
1
100
AcDbSymbolTableRecord
100
AcDbBlockTableRecord
  2
*D42
340
0
  0
ENDTAB
  0
ENDSEC
  0
SECTION
  2
BLOCKS
  0
BLOCK
  5
20
330
1F
100
AcDbEntity
  8
0
100
AcDbBlockBegin
  2
*Model_Space
 70
     0
 10
0.0
 20
0.0
 30
0.0
  3
*Model_Space
  1

  0
ENDBLK
  5
21
330
1F
100
AcDbEntity
  8
0
100
AcDbBlockEnd
  0
BLOCK
  5
1C
330
1B
100
AcDbEntity
 67
     1
  8
0
100
AcDbBlockBegin
  2
*Paper_Space
 70
     0
 10
0.0
 20
0.0
 30
0.0
  3
*Paper_Space
  1

  0
ENDBLK
  5
1D
330
1B
100
AcDbEntity
 67
     1
  8
0
100
AcDbBlockEnd
  0
BLOCK
  5
24
330
23
100
AcDbEntity
  8
0
100
AcDbBlockBegin
  2
*Paper_Space0
 70
     0
 10
0.0
 20
0.0
 30
0.0
  3
*Paper_Space0
  1

  0
ENDBLK
  5
25
330
23
100
AcDbEntity
  8
0
100
AcDbBlockEnd
  0
BLOCK
  5
4B
330
4A
100
AcDbEntity
  8
0
100
AcDbBlockBegin
  2
27-16-M1
 70
     0
 10
1088.48098343957
 20
868.8500000001989
 30
0.0
  3
27-16-M1
  1

  0
LINE
  5
BA
330
4A
100
AcDbEntity
  8
1
  6
Continuous
 62
     7
100
AcDbLine
 10
251.4812941009085
 20
423.1614973408226
 30
0.0
 11
296.48067277821
 21
423.1614973408226
 31
0.0
  0
LINE
  5
BB
330
4A
100
AcDbEntity
  8
1
  6
Continuous
 62
     7
100
AcDbLine
 10
250.9812941009085
 20
423.6614973408226
 30
0.0
 11
250.9812941009085
 21
434.869606736064
 31
0.0
  0
LINE
  5
BC
330
4A
100
AcDbEntity
  8
1
  6
Continuous
 62
     7
100
AcDbLine
 10
296.98067277821
 20
423.6614973408226
 30
0.0
 11
296.98067277821
 21
434.8696067366534
 31
0.0
  0
LINE
  5
BD
330
4A
100
AcDbEntity
  8
1
  6
PHANTOM
 62
     4
100
AcDbLine
 10
273.9809834395465
 20
471.8759703339667
 30
0.0
 11
273.9809834401836
 21
420.1614973408226
 31
0.0
  0
LINE
  5
BE
330
4A
100
AcDbEntity
  8
1
  6
PHANTOM
 62
     5
100
AcDbLine
 10
731.8585332958336
 20
417.7010493072991
 30
0.0
 11
731.6366884488629
 21
417.2253014976909
 31
0.0
  0
LINE
  5
BF
330
4A
100
AcDbEntity
  8
1
  6
PHANTOM
 62
     5
100
AcDbLine
 10
731.0541250327934
 20
416.9536477154167
 30
0.0
 11
730.4785522459634
 21
417.1078719788331
 31
0.0
  0
LINE
  5
C0
330
4A
100
AcDbEntity
  8
1
  6
PHANTOM
 62
     5
100
AcDbLine
 10
730.4785522459634
 20
417.1078719788331
 30
0.0
 11
725.5744183003552
 21
418.421930709133
 31
0.0
  0
LINE
  5
C1
330
4A
100
AcDbEntity
  8
1
  6
PHANTOM
 62
     5
100
AcDbLine
 10
645.4909202350451
 20
499.8658842867798
 30
0.0
 11
644.6585121181926
 21
498.0807793195015
 31
0.0
  0
LINE
  5
C2
330
4A
100
AcDbEntity
  8
1
  6
Continuous
 62
     7
100
AcDbLine
 10
729.4999999999978
 20
427.07937694517
 30
0.0
 11
707.4999999999933
 21
423.2001833695838
 31
0.0
  0
LINE
  5
C3
330
4A
100
AcDbEntity
  8
1
  6
Continuous
 62
     7
100
AcDbLine
 10
685.4999999999978
 20
423.2001833695838
 30
0.0
 11
707.4999999999933
 21
423.2001833695838
 31
0.0
  0
LINE
  5
C4
330
4A
100
AcDbEntity
  8
1
  6
Continuous
 62
     7
100
AcDbLine
 10
730.0868240888313
 20
427.1828498649611
 30
0.0
 11
729.4999999999978
 21
427.07937694517
 31
0.0
  0
LINE
  5
C5
330
4A
100
AcDbEntity
  8
1
  6
Continuous
 62
     7
100
AcDbLine
 10
617.4999999999978
 20
466.1662826296258
 30
0.0
 11
617.4999999999978
 21
464.1966372257006
 31
0.0
  0
LINE
  5
C6
330
4A
100
AcDbEntity
  8
1
  6
Continuous
 62
     7
100
AcDbLine
 10
684.9999999999978
 20
423.2001833695838
 30
0.0
 11
685.4999999999978
 21
423.2001833695838
 31
0.0
  0
LINE
  5
C7
330
4A
100
AcDbEntity
  8
1
  6
Continuous
 62
     7
100
AcDbLine
 10
730.4999999999978
 20
428.2001833695838
 30
0.0
 11
730.4999999999978
 21
427.6752537414672
 31
0.0
  0
LINE
  5
C8
330
4A
100
AcDbEntity
  8
1
  6
Continuous
 62
     7
100
AcDbLine
 10
684.4999999999978
 20
423.7001833695838
 30
0.0
 11
684.4999999999978
 21
432.4001833695843
 31
0.0
  0
LINE
  5
C9
330
4A
100
AcDbEntity
  8
1
  6
PHANTOM
 62
     4
100
AcDbLine
 10
273.9809834395705
 20
724.400183369591
 30
0.0
 11
273.9809834395705
 21
666.4001833695916
 31
0.0
  0
LINE
  5
CA
330
4A
100
AcDbEntity
  8
1
  6
PHANTOM
 62
     4
100
AcDbLine
 10
273.9809834395705
 20
792.1660688118815
 30
0.0
 11
273.9809834395705
 21
788.4001833695914
 31
0.0
  0
LINE
  5
CB
330
4A
100
AcDbEntity
  8
1
  6
PHANTOM
 62
     4
100
AcDbLine
 10
273.9809834395705
 20
788.4001833695914
 30
0.0
 11
273.9809834395705
 21
724.400183369591
 31
0.0
  0
ARC
  5
CC
330
4A
100
AcDbEntity
  8
1
  6
PHANTOM
 62
     5
100
AcDbCircle
 10
713.7323775551005
 20
426.153414542113
 30
0.0
 40
20.00000000000006
100
AcDbArc
 50
335.0000000000003
 51
0.75207019639301
  0
ARC
  5
CD
330
4A
100
AcDbEntity
  8
1
  6
Continuous
 62
     7
100
AcDbCircle
 10
273.9809834395705
 20
481.255129001504
 30
0.0
 40
29.09107065805785
100
AcDbArc
 50
244.5285467250201
 51
295.4714532749805
  0
ARC
  5
CE
330
4A
100
AcDbEntity
  8
1
  6
Continuous
 62
     7
100
AcDbCircle
 10
330.9218025964034
 20
431.7849509233058
 30
0.0
 40
80.00000000000928
100
AcDbArc
 50
163.7825754305609
 51
177.7902302207836
  0
ARC
  5
CF
330
4A
100
AcDbEntity
  8
1
  6
Continuous
 62
     7
100
AcDbCircle
 10
263.2441228709272
 20
461.3362750133015
 30
0.0
 40
6.151907012558418
100
AcDbArc
 50
115.5650368666785
 51
156.6657444252367
  0
ARC
  5
D0
330
4A
100
AcDbEntity
  8
1
  6
Continuous
 62
     7
100
AcDbCircle
 10
261.5617592384249
 20
451.3069600895912
 30
0.0
 40
7.972314682305764
100
AcDbArc
 50
110.6334284093932
 51
159.2798016107455
  0
ARC
  5
D1
330
4A
100
AcDbEntity
  8
1
  6
Continuous
 62
     7
100
AcDbCircle
 10
330.9218025964034
 20
431.7849509233058
 30
0.0
 40
80.00000000000911
100
AcDbArc
 50
156.4311508212934
 51
163.7825754305609
  0
ARC
  5
D2
330
4A
100
AcDbEntity
  8
1
  6
Continuous
 62
     7
100
AcDbCircle
 10
217.0401642827376
 20
431.7849509233058
 30
0.0
 40
80.00000000000948
100
AcDbArc
 50
16.21742456943905
 51
23.56884917870658
  0
ARC
  5
D3
330
4A
100
AcDbEntity
  8
1
  6
Continuous
 62
     7
100
AcDbCircle
 10
217.0401642827376
 20
431.7849509233058
 30
0.0
 40
80.00000000000948
100
AcDbArc
 50
2.20976977963881
 51
16.21742456943905
  0
ARC
  5
D4
330
4A
100
AcDbEntity
  8
1
  6
Continuous
 62
     7
100
AcDbCircle
 10
286.4002076407162
 20
451.3069600895912
 30
0.0
 40
7.972314682306155
100
AcDbArc
 50
20.72019838925421
 51
57.12918412703913
  0
ARC
  5
D5
330
4A
100
AcDbEntity
  8
1
  6
Continuous
 62
     7
100
AcDbCircle
 10
284.7178440082139
 20
461.3362750133015
 30
0.0
 40
6.151907012558328
100
AcDbArc
 50
23.33425557476333
 51
64.43496314350348
  0
ARC
  5
D6
330
4A
100
AcDbEntity
  8
1
  6
Continuous
 62
     7
100
AcDbCircle
 10
283.9954336508829
 20
473.2433671122051
 30
0.0
 40
28.99999999999994
100
AcDbArc
 50
217.2041976261669
 51
243.2772398890467
  0
ARC
  5
D7
330
4A
100
AcDbEntity
  8
1
  6
Continuous
 62
     7
100
AcDbCircle
 10
263.9665332282586
 20
473.2433671122051
 30
0.0
 40
28.99999999999981
100
AcDbArc
 50
297.5083035903625
 51
322.7958023738331
  0
ARC
  5
D8
330
4A
100
AcDbEntity
  8
1
  6
Continuous
 62
     7
100
AcDbCircle
 10
617.4999999999978
 20
323.200183369584
 30
0.0
 40
139.9999999999999
100
AcDbArc
 50
56.14970769156544
 51
62.66068082001391
  0
ARC
  5
D9
330
4A
100
AcDbEntity
  8
1
  6
Continuous
 62
     7
100
AcDbCircle
 10
678.7727292454932
 20
414.5547270486383
 30
0.0
 40
29.99999999999985
100
AcDbArc
 50
18.65908668539698
 51
56.14970769156557
  0
ARC
  5
DA
330
4A
100
AcDbEntity
  8
1
  6
PHANTOM
 62
     5
100
AcDbCircle
 10
545.7673375360351
 20
286.0079710507398
 30
0.0
 40
239.9999999999999
100
AcDbArc
 50
42.24616831730157
 51
43.45208342181514
  0
ARC
  5
DB
330
4A
100
AcDbEntity
  8
1
  6
PHANTOM
 62
     5
100
AcDbCircle
 10
686.4173247659654
 20
413.7482587137176
 30
0.0
 40
50.00000000000035
100
AcDbArc
 50
24.42521666518905
 51
42.24616831730132
  0
ARC
  5
DC
330
4A
100
AcDbEntity
  8
1
  6
PHANTOM
 62
     5
100
AcDbCircle
 10
713.7323775551005
 20
426.153414542113
 30
0.0
 40
20.00000000000014
100
AcDbArc
 50
0.75207019639301
 51
24.42521666518924
  0
ARC
  5
DD
330
4A
100
AcDbEntity
  8
1
  6
PHANTOM
 62
     5
100
AcDbCircle
 10
585.0708358779192
 20
370.2945952451487
 30
0.0
 40
139.9999999999999
100
AcDbArc
 50
38.94557442194821
 51
64.59364354718711
  0
ARC
  5
DE
330
4A
100
AcDbEntity
  8
1
  6
PHANTOM
 62
     5
100
AcDbCircle
 10
545.7673375360351
 20
286.0079710507398
 30
0.0
 40
240.0
100
AcDbArc
 50
43.45208342181514
 51
64.02883859101375
  0
ARC
  5
DF
330
4A
100
AcDbEntity
  8
1
  6
Continuous
 62
     7
100
AcDbCircle
 10
663.228336811842
 20
438.0739451565305
 30
0.0
 40
22.01534073334669
100
AcDbArc
 50
10.53155409903174
 51
15.87553938212288
  0
ARC
  5
E0
330
4A
100
AcDbEntity
  8
1
  6
PHANTOM
 62
     5
100
AcDbCircle
 10
-240.7269551620723
 20
1270.053676767898
 30
0.0
 40
750.0000000000001
100
AcDbArc
 50
309.5435320091834
 51
310.6995910626922
  0
ARC
  5
E1
330
4A
100
AcDbEntity
  8
1
  6
PHANTOM
 62
     5
100
AcDbCircle
 10
224.0379832219769
 20
707.1206860408755
 30
0.0
 40
20.0
100
AcDbArc
 50
180.0
 51
309.5435320091818
  0
ARC
  5
E2
330
4A
100
AcDbEntity
  8
1
  6
PHANTOM
 62
     5
100
AcDbCircle
 10
782.8647777814208
 20
237.4265156678368
 30
0.0
 40
749.9999999999994
100
AcDbArc
 50
134.4504374720751
 51
139.9529334994515
  0
ARC
  5
E3
330
4A
100
AcDbEntity
  8
1
  6
PHANTOM
 62
     5
100
AcDbCircle
 10
788.4604181303218
 20
1270.053676767898
 30
0.0
 40
749.9999999999994
100
AcDbArc
 50
229.3004089373078
 51
230.4564679908166
  0
ARC
  5
E4
330
4A
100
AcDbEntity
  8
1
  6
PHANTOM
 62
     5
100
AcDbCircle
 10
323.6954797462726
 20
707.1206860408754
 30
0.0
 40
20.0
100
AcDbArc
 50
0.0
 51
40.0470665005495
  0
ARC
  5
E5
330
4A
100
AcDbEntity
  8
1
  6
PHANTOM
 62
     5
100
AcDbCircle
 10
-235.1313148131712
 20
237.4265156678368
 30
0.0
 40
749.9999999999999
100
AcDbArc
 50
40.04706650054848
 51
45.54956252792494
  0
ARC
  5
E6
330
4A
100
AcDbEntity
  8
1
  6
Continuous
 62
     7
100
AcDbCircle
 10
617.4999999999978
 20
230.200183369584
 30
0.0
 40
239.9999999999999
100
AcDbArc
 50
67.24616831730103
 51
68.45208342181452
  0
ARC
  5
E7
330
4A
100
AcDbEntity
  8
1
  6
Continuous
 62
     7
100
AcDbCircle
 10
617.4999999999978
 20
323.200183369584
 30
0.0
 40
139.9999999999998
100
AcDbArc
 50
62.66068082001391
 51
62.79710558778541
  0
ARC
  5
E8
330
4A
100
AcDbEntity
  8
1
  6
Continuous
 62
     7
100
AcDbCircle
 10
617.4999999999978
 20
323.200183369584
 30
0.0
 40
139.9999999999998
100
AcDbArc
 50
87.43701624248727
 51
89.59364354718652
  0
ARC
  5
E9
330
4A
100
AcDbEntity
  8
1
  6
Continuous
 62
     7
100
AcDbCircle
 10
617.4999999999978
 20
230.200183369584
 30
0.0
 40
239.9999999999997
100
AcDbArc
 50
89.00877023955384
 51
89.02883859101316
  0
ARC
  5
EA
330
4A
100
AcDbEntity
  8
1
  6
Continuous
 62
     7
100
AcDbCircle
 10
617.4999999999978
 20
323.200183369584
 30
0.0
 40
139.9999999999997
100
AcDbArc
 50
62.79710558778541
 51
87.43701624248727
  0
ARC
  5
EB
330
4A
100
AcDbEntity
  8
1
  6
Continuous
 62
     7
100
AcDbCircle
 10
617.4999999999978
 20
230.200183369584
 30
0.0
 40
240.0
100
AcDbArc
 50
68.45208342181452
 51
89.00877023955384
  0
ARC
  5
EC
330
4A
100
AcDbEntity
  8
1
  6
Continuous
 62
     7
100
AcDbCircle
 10
710.4999999999978
 20
428.2001833695838
 30
0.0
 40
20.0
100
AcDbArc
 50
0.0
 51
49.4252166651881
  0
ARC
  5
ED
330
4A
100
AcDbEntity
  8
1
  6
Continuous
 62
     7
100
AcDbCircle
 10
690.9868003467062
 20
405.4134539138065
 30
0.0
 40
50.00000000000023
100
AcDbArc
 50
49.42521666518808
 51
67.24616831730081
  0
ARC
  5
EE
330
4A
100
AcDbEntity
  8
1
  6
Continuous
 62
     7
100
AcDbCircle
 10
180.1104022298957
 20
694.9508408009125
 30
0.0
 40
107.2592157783522
100
AcDbArc
 50
354.7952992548663
 51
15.16888634041647
  0
ARC
  5
EF
330
4A
100
AcDbEntity
  8
1
  6
Continuous
 62
     7
100
AcDbCircle
 10
367.851564649246
 20
694.9508408009125
 30
0.0
 40
107.2592157783531
100
AcDbArc
 50
164.8311136595836
 51
185.2047007451336
  0
ARC
  5
F0
330
4A
100
AcDbEntity
  8
1
  6
Continuous
 62
     7
100
AcDbCircle
 10
92.69481490295561
 20
702.9135137891725
 30
0.0
 40
197.5367132867221
100
AcDbArc
 50
354.7952992548658
 51
12.28789870107721
  0
ARC
  5
F1
330
4A
100
AcDbEntity
  8
1
  6
Continuous
 62
     7
100
AcDbCircle
 10
455.2671519761836
 20
702.9135137891716
 30
0.0
 40
197.5367132867204
100
AcDbArc
 50
167.7121012989224
 51
185.2047007451339
  0
ARC
  5
F2
330
4A
100
AcDbEntity
  8
1
  6
Continuous
 62
     7
100
AcDbCircle
 10
273.9809834395705
 20
720.4001833695914
 30
0.0
 40
10.00000000000009
100
AcDbArc
 50
15.16888634041551
 51
164.8311136595842
  0
ARC
  5
F3
330
4A
100
AcDbEntity
  8
1
  6
Continuous
 62
     7
100
AcDbCircle
 10
273.9809834395705
 20
742.4001833695914
 30
0.0
 40
12.00000000000049
100
AcDbArc
 50
12.28789870107521
 51
167.7121012989246
  0
ARC
  5
F4
330
4A
100
AcDbEntity
  8
1
  6
Continuous
 62
     7
100
AcDbCircle
 10
273.9809834395705
 20
686.4001833695914
 30
0.0
 40
13.00000000000017
100
AcDbArc
 50
185.2047007451349
 51
354.795299254865
  0
ARC
  5
F5
330
4A
100
AcDbEntity
  8
1
  6
Continuous
 62
     7
100
AcDbCircle
 10
273.9809834395705
 20
686.4001833695914
 30
0.0
 40
15.50000000000026
100
AcDbArc
 50
185.204700745136
 51
354.795299254864
  0
ARC
  5
F6
330
4A
100
AcDbEntity
  8
1
  6
Continuous
 62
     7
100
AcDbCircle
 10
273.9809834395705
 20
686.4001833695914
 30
0.0
 40
20.00000000000022
100
AcDbArc
 50
185.2047007451346
 51
354.7952992548654
  0
ARC
  5
F7
330
4A
100
AcDbEntity
  8
1
  6
Continuous
 62
     7
100
AcDbCircle
 10
273.9809834395705
 20
756.4001833695914
 30
0.0
 40
23.00000000000005
100
AcDbArc
 50
0.29779528224094
 51
179.7022047177591
  0
ARC
  5
F8
330
4A
100
AcDbEntity
  8
1
  6
Continuous
 62
     7
100
AcDbCircle
 10
1000.971163839526
 20
752.6216119410195
 30
0.0
 40
750.0000000000006
100
AcDbArc
 50
179.7022047177576
 51
185.204700745134
  0
ARC
  5
F9
330
4A
100
AcDbEntity
  8
1
  6
Continuous
 62
     7
100
AcDbCircle
 10
-453.0091969603839
 20
752.6216119410195
 30
0.0
 40
749.9999999999994
100
AcDbArc
 50
354.7952992548659
 51
0.29779528224244
  0
ARC
  5
FA
330
4A
100
AcDbEntity
  8
1
  6
Continuous
 62
     7
100
AcDbCircle
 10
663.228336811842
 20
438.0739451565305
 30
0.0
 40
22.01534073334668
100
AcDbArc
 50
345.06526781553
 51
10.53155409903174
  0
ARC
  5
FB
330
4A
100
AcDbEntity
  8
1
  6
PHANTOM
 62
     5
100
AcDbCircle
 10
224.0379832219769
 20
707.1206860408755
 30
0.0
 40
20.00000000000013
100
AcDbArc
 50
139.9529334994511
 51
180.0
  0
ARC
  5
FC
330
4A
100
AcDbEntity
  8
1
  6
PHANTOM
 62
     5
100
AcDbCircle
 10
323.6954797462726
 20
707.1206860408754
 30
0.0
 40
20.00000000000076
100
AcDbArc
 50
230.4564679908178
 51
0.0
  0
SPLINE
  5
FD
330
4A
100
AcDbEntity
  8
1
  6
Continuous
 62
     7
100
AcDbSpline
210
0.0
220
0.0
230
1.0
 70
     8
 71
     3
 72
    51
 73
    47
 74
    45
 42
0.000000001
 43
0.0000000001
 44
0.00000001
 40
0.0
 40
0.0
 40
0.0
 40
0.0
 40
0.300868333745517
 40
0.6021523490297145
 40
0.8947980915267317
 40
1.187780043364239
 40
1.462735226955086
 40
1.737935191785457
 40
2.00658783404098
 40
2.275240476257517
 40
2.55044044100526
 40
2.82539562447121
 40
3.118377576204426
 40
3.411023318726346
 40
3.729317520999812
 40
4.047319599375347
 40
4.394230506126541
 40
4.740930716363402
 40
5.1159831804366
 40
5.490895062807096
 40
5.890638670009523
 40
6.290293093355813
 40
6.709111506204206
 40
7.127877684849784
 40
7.558695974452548
 40
7.989490173646088
 40
8.424392401767646
 40
8.859294629917965
 40
9.290088829187466
 40
9.720907118891345
 40
10.13967329764179
 40
10.55849171059438
 40
10.95814613404541
 40
11.35788974137097
 40
11.73280162389016
 40
12.10785408816117
 40
12.45455429863956
 40
12.80146520570391
 40
13.11946728444216
 40
13.43776148716366
 40
13.73040723018354
 40
14.02338918250436
 40
14.29834436660961
 40
14.57354433197355
 40
14.84219697289833
 40
15.11084960655677
 40
15.11084960655677
 40
15.11084960655677
 40
15.11084960655677
 10
269.8648961380584
 20
448.0386490393469
 30
0.0
 10
269.7914789325542
 20
448.1070696795537
 30
0.0
 10
269.6445430932902
 20
448.2440054958248
 30
0.0
 10
269.451131587336
 20
448.4719867785512
 30
0.0
 10
269.2831436633275
 20
448.7159230388222
 30
0.0
 10
269.1502666478249
 20
448.9710403504347
 30
0.0
 10
269.0524542702329
 20
449.2353878292258
 30
0.0
 10
268.9946588029823
 20
449.503059626108
 30
0.0
 10
268.9742282697645
 20
449.7740652691248
 30
0.0
 10
268.9946580463331
 20
450.0450723813333
 30
0.0
 10
269.0524573735307
 20
450.3127396647291
 30
0.0
 10
269.1502546951526
 20
450.5771041267212
 30
0.0
 10
269.2831915101747
 20
450.8321541501957
 30
0.0
 10
269.4541688594978
 20
451.0810303848606
 30
0.0
 10
269.6566127236429
 20
451.3161139734664
 30
0.0
 10
269.8946167621125
 20
451.542114804894
 30
0.0
 10
270.159761613957
 20
451.7511883987868
 30
0.0
 10
270.4571530786305
 20
451.947933442001
 30
0.0
 10
270.7770808342944
 20
452.1255168996991
 30
0.0
 10
271.1247360038688
 20
452.2874608806517
 30
0.0
 10
271.4901465108533
 20
452.4286065027775
 30
0.0
 10
271.8775406069888
 20
452.5511511110878
 30
0.0
 10
272.277754853628
 20
452.6517155813735
 30
0.0
 10
272.6932028581432
 20
452.7313813977337
 30
0.0
 10
273.1164036274766
 20
452.7882880717216
 30
0.0
 10
273.5473960515141
 20
452.822852807006
 30
0.0
 10
273.9809834424639
 20
452.8342693098213
 30
0.0
 10
274.4145708334515
 20
452.8228528075182
 30
0.0
 10
274.8455632576018
 20
452.7882880727483
 30
0.0
 10
275.2687640270872
 20
452.7313813992658
 30
0.0
 10
275.6842120318388
 20
452.6517155833774
 30
0.0
 10
276.0844262785485
 20
452.5511511135302
 30
0.0
 10
276.4718203754234
 20
452.4286065054927
 30
0.0
 10
276.837230880788
 20
452.2874608838901
 30
0.0
 10
277.1848860571207
 20
452.1255169021466
 30
0.0
 10
277.504813789675
 20
451.9479334479141
 30
0.0
 10
277.8022053355587
 20
451.7511883928191
 30
0.0
 10
278.067349898758
 20
451.542114840966
 30
0.0
 10
278.3053549306621
 20
451.3161138641304
 30
0.0
 10
278.5077952523776
 20
451.0810307926945
 30
0.0
 10
278.6787848178791
 20
450.8321527726178
 30
0.0
 10
278.8116777351843
 20
450.5771091620774
 30
0.0
 10
278.9096293972833
 20
450.312722149249
 30
0.0
 10
278.9668645389813
 20
450.0451372953752
 30
0.0
 10
278.9893531024999
 20
449.7738293868111
 30
0.0
 10
278.97074599489
 20
449.595359460014
 30
0.0
 10
278.9614424367962
 20
449.5061244979879
 30
0.0
 11
269.8648961380584
 21
448.0386490393469
 31
0.0
 11
269.6488337286143
 21
448.2480261985651
 31
0.0
 11
269.4533516635202
 21
448.4772833048214
 31
0.0
 11
269.2883263123254
 21
448.718961115838
 31
0.0
 11
269.1532860590757
 21
448.9789660279458
 31
0.0
 11
269.058724822375
 21
449.2371491522601
 31
0.0
 11
269.000524442345
 21
449.506124497988
 31
0.0
 11
268.9809834395705
 21
449.7740655206197
 31
0.0
 11
269.0005244423449
 21
450.0420065432514
 31
0.0
 11
269.058724822375
 21
450.3109818889792
 31
0.0
 11
269.1532860590757
 21
450.5691650132936
 31
0.0
 11
269.2883263123255
 21
450.8291699254013
 31
0.0
 11
269.4533516635202
 21
451.0708477364179
 31
0.0
 11
269.6605198904612
 21
451.3124931899681
 31
0.0
 11
269.890665450659
 21
451.5319432827192
 31
0.0
 11
270.1626246328821
 21
451.7473159380347
 31
0.0
 11
270.451502163052
 21
451.9390209419221
 31
0.0
 11
270.7791208071534
 21
452.1215870257913
 31
0.0
 11
271.1188212198571
 21
452.2802141017008
 31
0.0
 11
271.4915396633976
 21
452.4246990951136
 31
0.0
 11
271.8725144136127
 21
452.545454623673
 31
0.0
 11
272.2786225575538
 21
452.6478510987916
 31
0.0
 11
272.6898728384548
 21
452.7268341252309
 31
0.0
 11
273.1168200240794
 21
452.7844578948436
 31
0.0
 11
273.5462343954662
 21
452.8189098770027
 31
0.0
 11
273.9809834395705
 21
452.8304517986107
 31
0.0
 11
274.415732483675
 21
452.8189098770029
 31
0.0
 11
274.8451468550619
 21
452.7844578948436
 31
0.0
 11
275.2720940406864
 21
452.7268341252309
 31
0.0
 11
275.6833443215874
 21
452.6478510987916
 31
0.0
 11
276.0894524655286
 21
452.545454623673
 31
0.0
 11
276.4704272157438
 21
452.4246990951136
 31
0.0
 11
276.8431456592842
 21
452.2802141017008
 31
0.0
 11
277.1828460719878
 21
452.1215870257912
 31
0.0
 11
277.5104647160892
 21
451.939020941922
 31
0.0
 11
277.7993422462592
 21
451.7473159380346
 31
0.0
 11
278.0713014284823
 21
451.5319432827192
 31
0.0
 11
278.3014469886801
 21
451.3124931899681
 31
0.0
 11
278.508615215621
 21
451.0708477364178
 31
0.0
 11
278.6736405668158
 21
450.8291699254014
 31
0.0
 11
278.8086808200654
 21
450.5691650132936
 31
0.0
 11
278.903242056766
 21
450.3109818889793
 31
0.0
 11
278.961442436796
 21
450.0420065432514
 31
0.0
 11
278.9809834395704
 21
449.7740655206196
 31
0.0
 11
278.9614424367962
 21
449.5061244979879
 31
0.0
  0
SPLINE
  5
FE
330
4A
100
AcDbEntity
  8
1
  6
Continuous
 62
     7
100
AcDbSpline
210
0.0
220
0.0
230
1.0
 70
     8
 71
     3
 72
    13
 73
     9
 74
     7
 42
0.000000001
 43
0.0000000001
 44
0.00000001
 40
0.0
 40
0.0
 40
0.0
 40
0.0
 40
0.1176106921973685
 40
0.2353769891066269
 40
0.4280902937662057
 40
0.6218233932347422
 40
0.771273821854683
 40
0.9196897777884435
 40
0.9196897777884435
 40
0.9196897777884435
 40
0.9196897777884435
 10
261.4700384821292
 20
454.991720077604
 30
0.0
 10
261.4424503470124
 20
455.0195770132395
 30
0.0
 10
261.3872375867352
 20
455.075327750792
 30
0.0
 10
261.2903415040187
 20
455.1801158129759
 30
0.0
 10
261.1805260910401
 20
455.3074194431778
 30
0.0
 10
261.0695666030401
 20
455.4474578588504
 30
0.0
 10
260.9739019001598
 20
455.5806806363705
 30
0.0
 10
260.9228085659999
 20
455.6658591584052
 30
0.0
 10
260.8973506272009
 20
455.7083005132165
 30
0.0
 11
261.4700384821292
 21
454.991720077604
 31
0.0
 11
261.3877575317038
 21
455.0757564979137
 31
0.0
 11
261.3076872607896
 21
455.1621141968387
 31
0.0
 11
261.1817805236298
 21
455.308011115578
 31
0.0
 11
261.0617598444072
 21
455.4600885685778
 31
0.0
 11
260.9754303186813
 21
455.5820830108653
 31
0.0
 11
260.8973506272009
 21
455.7083005132165
 31
0.0
  0
SPLINE
  5
FF
330
4A
100
AcDbEntity
  8
1
  6
Continuous
 62
     7
100
AcDbSpline
210
0.0
220
0.0
230
1.0
 70
     8
 71
     3
 72
    25
 73
    21
 74
    19
 42
0.000000001
 43
0.0000000001
 44
0.00000001
 40
0.0
 40
0.0
 40
0.0
 40
0.0
 40
0.2884199211521696
 40
0.5770183167392597
 40
0.9767619219899297
 40
1.376416346842905
 40
1.795234760105384
 40
2.214000938931177
 40
2.644819228547348
 40
3.075613427612929
 40
3.510515655511896
 40
3.945417883409152
 40
4.376212082472534
 40
4.807030372076668
 40
5.22579655087304
 40
5.644614964017589
 40
6.044269387760014
 40
6.444012994028975
 40
6.533749291191469
 40
6.623410274121316
 40
6.623410274121316
 40
6.623410274121316
 40
6.623410274121316
 10
277.3609708225233
 20
447.5219938686682
 30
0.0
 10
277.2763712241698
 20
447.4762665502149
 30
0.0
 10
277.1071196708504
 20
447.3847836289503
 30
0.0
 10
276.810206310963
 20
447.2506217235567
 30
0.0
 10
276.4718707915116
 20
447.1194257225499
 30
0.0
 10
276.0844120453995
 20
446.9970077958818
 30
0.0
 10
275.6842159127047
 20
446.8964078292625
 30
0.0
 10
275.2687629503284
 20
446.816751729287
 30
0.0
 10
274.8455635445571
 20
446.7598423757921
 30
0.0
 10
274.4145707566675
 20
446.7252783820151
 30
0.0
 10
273.9809834433778
 20
446.7138616210307
 30
0.0
 10
273.5473961099672
 20
446.7252784083863
 30
0.0
 10
273.1164033818716
 20
446.7598422711471
 30
0.0
 10
272.6932037593374
 20
446.8167521166555
 30
0.0
 10
272.2777515832689
 20
446.8964064271389
 30
0.0
 10
271.8775525785609
 20
446.9970129319718
 30
0.0
 10
271.4901040838178
 20
447.1194075233482
 30
0.0
 10
271.2135808515941
 20
447.226687691534
 30
0.0
 10
271.0363997663254
 20
447.3033501539405
 30
0.0
 10
270.9820537455662
 20
447.3283035502149
 30
0.0
 10
270.954892145865
 20
447.3407750168969
 30
0.0
 11
277.3609708225233
 21
447.5219938686682
 31
0.0
 11
277.1056357608061
 21
447.3878668494188
 31
0.0
 11
276.8431456592842
 21
447.2679169395384
 31
0.0
 11
276.4704272157438
 21
447.1234319461258
 31
0.0
 11
276.0894524655287
 21
447.0026764175664
 31
0.0
 11
275.6833443215875
 21
446.9002799424478
 31
0.0
 11
275.2720940406865
 21
446.8212969160085
 31
0.0
 11
274.8451468550618
 21
446.7636731463959
 31
0.0
 11
274.4157324836749
 21
446.7292211642367
 31
0.0
 11
273.9809834395705
 21
446.7176792426288
 31
0.0
 11
273.5462343954661
 21
446.7292211642367
 31
0.0
 11
273.1168200240792
 21
446.7636731463958
 31
0.0
 11
272.6898728384547
 21
446.8212969160086
 31
0.0
 11
272.2786225575537
 21
446.9002799424478
 31
0.0
 11
271.8725144136126
 21
447.0026764175665
 31
0.0
 11
271.4915396633975
 21
447.1234319461258
 31
0.0
 11
271.1188212198568
 21
447.2679169395385
 31
0.0
 11
271.0365114304627
 21
447.3036618896394
 31
0.0
 11
270.954892145865
 21
447.3407750168969
 31
0.0
  0
SPLINE
  5
100
330
4A
100
AcDbEntity
  8
1
  6
Continuous
 62
     7
100
AcDbSpline
210
0.0
220
0.0
230
1.0
 70
     8
 71
     3
 72
    11
 73
     7
 74
     5
 42
0.000000001
 43
0.0000000001
 44
0.00000001
 40
0.0
 40
0.0
 40
0.0
 40
0.0
 40
0.1492925979422434
 40
0.2988312657875287
 40
0.5655537931840078
 40
0.8316137140793549
 40
0.8316137140793549
 40
0.8316137140793549
 40
0.8316137140793549
 10
285.8521492570011
 20
454.461820704488
 30
0.0
 10
285.8924501470821
 20
454.4910189450134
 30
0.0
 10
285.9731183440703
 20
454.5494635636031
 30
0.0
 10
286.1232636479811
 20
454.6634556357713
 30
0.0
 10
286.2997732338064
 20
454.8072406796881
 30
0.0
 10
286.4279298076903
 20
454.9302779471634
 30
0.0
 10
286.4919283970064
 20
454.9917200776215
 30
0.0
 11
285.8521492570011
 21
454.461820704488
 31
0.0
 11
285.9727191303319
 21
454.5498615216353
 31
0.0
 11
286.0917882856241
 21
454.6403289163753
 31
0.0
 11
286.2975214168581
 21
454.8100781008218
 31
0.0
 11
286.4919283970064
 21
454.9917200776215
 31
0.0
  0
SPLINE
  5
101
330
4A
100
AcDbEntity
  8
1
  6
Continuous
 62
     7
100
AcDbSpline
210
0.0
220
0.0
230
1.0
 70
     8
 71
     3
 72
    27
 73
    23
 74
    21
 42
0.000000001
 43
0.0000000001
 44
0.00000001
 40
0.0
 40
0.0
 40
0.0
 40
0.0
 40
0.2934931570853405
 40
0.5872302140814402
 40
2.262042852817127
 40
3.936227606529231
 40
5.746160202189691
 40
7.555720423595675
 40
9.468878744053432
 40
11.3818280198323
 40
13.35948773767612
 40
15.33705328501504
 40
17.3366051160864
 40
19.33615694715085
 40
21.3137224944742
 40
23.29138221227174
 40
25.20433148795551
 40
27.11748980815525
 40
28.92705002879745
 40
30.73698261757382
 40
31.85573941891794
 40
32.97374536492569
 40
32.97374536492569
 40
32.97374536492569
 40
32.97374536492569
 10
290.7271552174514
 20
458.0028787018436
 30
0.0
 10
290.6413780121403
 20
458.0499287947985
 30
0.0
 10
290.4697523088374
 20
458.1440680623618
 30
0.0
 10
289.8015511774244
 20
458.4934625947556
 30
0.0
 10
288.7039912704357
 20
459.0152094524588
 30
0.0
 10
287.104426488246
 20
459.6494351271965
 30
0.0
 10
285.4274536601664
 20
460.2016295169225
 30
0.0
 10
283.6460728483376
 20
460.6821777394491
 30
0.0
 10
281.8083608374077
 20
461.0757712054235
 30
0.0
 10
279.8984298752442
 20
461.3882192673459
 30
0.0
 10
277.954366529187
 20
461.6110379246931
 30
0.0
 10
275.9733918808376
 20
461.7466326461075
 30
0.0
 10
273.9809833722483
 20
461.7912767427096
 30
0.0
 10
271.9885752770326
 20
461.7466320483321
 30
0.0
 10
270.0075994021779
 20
461.6110402861762
 30
0.0
 10
268.0635404940629
 20
461.388210532145
 30
0.0
 10
266.1535935102399
 20
461.0758026356353
 30
0.0
 10
264.3159398021158
 20
460.6820629833826
 30
0.0
 10
262.5343526579895
 20
460.2020321284515
 30
0.0
 10
261.0339968521986
 20
459.7061101866284
 30
0.0
 10
259.7733416071371
 20
459.2246603283637
 30
0.0
 10
259.092646667026
 20
458.9201083481157
 30
0.0
 10
258.7524134512541
 20
458.7678834668834
 30
0.0
 11
290.7271552174514
 21
458.0028787018436
 31
0.0
 11
290.4693638629419
 21
458.1431707236483
 31
0.0
 11
290.2092582669255
 21
458.2796498004626
 31
0.0
 11
288.6964680702978
 21
458.9983035356999
 31
0.0
 11
287.1411016618529
 21
459.6177629153781
 31
0.0
 11
285.4226401354586
 21
460.1858702831223
 31
0.0
 11
283.6758138287865
 21
460.658211312004
 31
0.0
 11
281.8054239651199
 21
461.060475547638
 31
0.0
 11
279.9176515199395
 21
461.3698137528891
 31
0.0
 11
277.952970177837
 21
461.596010971688
 31
0.0
 11
275.980023102467
 21
461.7310862472083
 31
0.0
 11
273.9809834395705
 21
461.7763405234904
 31
0.0
 11
271.9819437766741
 21
461.7310862472082
 31
0.0
 11
270.0089967013043
 21
461.596010971688
 31
0.0
 11
268.0443153592017
 21
461.3698137528891
 31
0.0
 11
266.1565429140214
 21
461.060475547638
 31
0.0
 11
264.2861530503545
 21
460.658211312004
 31
0.0
 11
262.5393267436825
 21
460.1858702831222
 31
0.0
 11
260.8208652172882
 21
459.6177629153782
 31
0.0
 11
259.7771397112835
 21
459.2149554790939
 31
0.0
 11
258.7524134512541
 21
458.7678834668834
 31
0.0
  0
SPLINE
  5
102
330
4A
100
AcDbEntity
  8
1
  6
Continuous
 62
     7
100
AcDbSpline
210
0.0
220
0.0
230
1.0
 70
     8
 71
     3
 72
    21
 73
    17
 74
    15
 42
0.000000001
 43
0.0000000001
 44
0.00000001
 40
0.0
 40
0.0
 40
0.0
 40
0.0
 40
1.137779372494292
 40
2.275616194823338
 40
3.510008271256789
 40
4.744422846065588
 40
5.927183794645732
 40
7.109996220840254
 40
8.208983300897021
 40
9.308073483562161
 40
10.2946803039851
 40
11.28146875585931
 40
12.13249551206205
 40
12.98398018335928
 40
13.31009420609498
 40
13.63588097744343
 40
13.63588097744343
 40
13.63588097744343
 40
13.63588097744343
 10
273.9809834395834
 20
468.8759703339667
 30
0.0
 10
273.6017435924505
 20
468.881163101099
 30
0.0
 10
272.8432447492965
 20
468.8915488979303
 30
0.0
 10
271.6732171467104
 20
468.8744603166877
 30
0.0
 10
270.4717269100047
 20
468.82994391377
 30
0.0
 10
269.2567646813657
 20
468.7539209118367
 30
0.0
 10
268.061393011141
 20
468.6471597655591
 30
0.0
 10
266.914159200437
 20
468.5132631247579
 30
0.0
 10
265.7990635215706
 20
468.3490434230074
 30
0.0
 10
264.7539254818747
 20
468.1618048065925
 30
0.0
 10
263.7527715157664
 20
467.9449401316681
 30
0.0
 10
262.8406171603809
 20
467.7106294514291
 30
0.0
 10
261.9831804926231
 20
467.4479229604798
 30
0.0
 10
261.3477669932828
 20
467.2155738882228
 30
0.0
 10
260.8843769156996
 20
467.0244557618134
 30
0.0
 10
260.6876644008678
 20
466.932060389507
 30
0.0
 10
260.589357521847
 20
466.8858858854699
 30
0.0
 11
273.9809834395834
 21
468.8759703339667
 31
0.0
 11
272.8432499096958
 21
468.8861827291507
 31
0.0
 11
271.7055163798082
 21
468.8708511691381
 31
0.0
 11
270.4719868760314
 21
468.8247126375181
 31
0.0
 11
269.2400036218959
 21
468.747274889289
 31
0.0
 11
268.0619510827533
 21
468.6418439790571
 31
0.0
 11
266.8872055170331
 21
468.5039378824847
 31
0.0
 11
265.800002387432
 21
468.3434325645159
 31
0.0
 11
264.718361401809
 21
468.1483633262604
 31
0.0
 11
263.754257409452
 21
467.9388483868102
 31
0.0
 11
262.7989554718604
 21
467.6915638210608
 31
0.0
 11
261.9857125621785
 21
467.4407999694849
 31
0.0
 11
261.1862823433672
 21
467.1476490370768
 31
0.0
 11
260.8853329946887
 21
467.0220311852718
 31
0.0
 11
260.589357521847
 21
466.8858858854699
 31
0.0
  0
SPLINE
  5
103
330
4A
100
AcDbEntity
  8
1
  6
Continuous
 62
     7
100
AcDbSpline
210
0.0
220
0.0
230
1.0
 70
     8
 71
     3
 72
    21
 73
    17
 74
    15
 42
0.000000001
 43
0.0000000001
 44
0.00000001
 40
0.0
 40
0.0
 40
0.0
 40
0.0
 40
1.137779372494519
 40
2.275616194823622
 40
3.510008271257073
 40
4.744422846065872
 40
5.927183794646016
 40
7.109996220840483
 40
8.20898330089725
 40
9.308073483562445
 40
10.29468030398544
 40
11.28146875585965
 40
12.13249551206235
 40
12.98398018335961
 40
13.31009420553931
 40
13.63588097633219
 40
13.63588097633219
 40
13.63588097633219
 40
13.63588097633219
 10
273.9809834395576
 20
468.8759703339667
 30
0.0
 10
274.3602232866906
 20
468.881163101099
 30
0.0
 10
275.1187221298447
 20
468.8915488979304
 30
0.0
 10
276.2887497324307
 20
468.8744603166877
 30
0.0
 10
277.4902399691366
 20
468.82994391377
 30
0.0
 10
278.7052021977755
 20
468.7539209118366
 30
0.0
 10
279.9005738680003
 20
468.6471597655591
 30
0.0
 10
281.0478076787042
 20
468.5132631247578
 30
0.0
 10
282.1629033575705
 20
468.3490434230075
 30
0.0
 10
283.2080413972665
 20
468.1618048065924
 30
0.0
 10
284.2091953633749
 20
467.944940131668
 30
0.0
 10
285.1213497187604
 20
467.7106294514292
 30
0.0
 10
285.9787863865182
 20
467.44792296048
 30
0.0
 10
286.6141998856841
 20
467.2155738882855
 30
0.0
 10
287.0775899629288
 20
467.0244557620287
 30
0.0
 10
287.2743024774347
 20
466.9320603899002
 30
0.0
 10
287.3726093562927
 20
466.8858858859523
 30
0.0
 11
273.9809834395576
 21
468.8759703339667
 31
0.0
 11
275.1187169694454
 21
468.8861827291507
 31
0.0
 11
276.2564504993331
 21
468.8708511691381
 31
0.0
 11
277.4899800031098
 21
468.8247126375181
 31
0.0
 11
278.7219632572453
 21
468.747274889289
 31
0.0
 11
279.9000157963879
 21
468.6418439790571
 31
0.0
 11
281.0747613621081
 21
468.5039378824847
 31
0.0
 11
282.1619644917092
 21
468.3434325645159
 31
0.0
 11
283.2436054773323
 21
468.1483633262604
 31
0.0
 11
284.2077094696893
 21
467.9388483868102
 31
0.0
 11
285.1630114072809
 21
467.6915638210608
 31
0.0
 11
285.9762543169627
 21
467.4407999694849
 31
0.0
 11
286.7756845357741
 21
467.1476490370768
 31
0.0
 11
287.0766338839433
 21
467.022031185495
 31
0.0
 11
287.3726093562927
 21
466.8858858859523
 31
0.0
  0
SPLINE
  5
104
330
4A
100
AcDbEntity
  8
1
  6
Continuous
 62
     7
100
AcDbSpline
210
0.0
220
0.0
230
1.0
 70
     8
 71
     3
 72
    13
 73
     9
 74
     7
 42
0.000000001
 43
0.0000000001
 44
0.00000001
 40
0.0
 40
0.0
 40
0.0
 40
0.0
 40
0.3098369541677886
 40
0.6217307856513672
 40
1.104607549023794
 40
1.590310587308296
 40
2.037640892110089
 40
2.48497119742716
 40
2.48497119742716
 40
2.48497119742716
 40
2.48497119742716
 10
286.4919283970064
 20
454.9917200776215
 30
0.0
 10
286.563561217495
 20
455.0661702102719
 30
0.0
 10
286.7073023880593
 20
455.2155647286284
 30
0.0
 10
286.9404799550144
 20
455.5009856352106
 30
0.0
 10
287.1670606620941
 20
455.8661987975692
 30
0.0
 10
287.3258881999878
 20
456.3133153465013
 30
0.0
 10
287.3939096746069
 20
456.7750701055
 30
0.0
 10
287.3408299997107
 20
457.070330729605
 30
0.0
 10
287.3142901551339
 20
457.2179610408855
 30
0.0
 11
286.4919283970064
 21
454.9917200776215
 31
0.0
 11
286.7037233255857
 21
455.2178657073219
 31
0.0
 11
286.9002070347111
 21
455.4600885685777
 31
0.0
 11
287.1509664829177
 21
455.8727502570379
 31
0.0
 11
287.3142901551336
 21
456.330170000354
 31
0.0
 11
287.3696180082366
 21
456.7740655206196
 31
0.0
 11
287.3142901551339
 21
457.2179610408855
 31
0.0
  0
SPLINE
  5
105
330
4A
100
AcDbEntity
  8
1
  6
Continuous
 62
     7
100
AcDbSpline
210
0.0
220
0.0
230
1.0
 70
     8
 71
     3
 72
    45
 73
    41
 74
    39
 42
0.000000001
 43
0.0000000001
 44
0.00000001
 40
0.0
 40
0.0
 40
0.0
 40
0.0
 40
0.3337358655264855
 40
0.671761419585559
 40
1.119091729267963
 40
1.566422038371449
 40
2.052125079745844
 40
2.535001845243443
 40
3.11314414649379
 40
3.688882906728631
 40
4.385558641906812
 40
5.081227097863271
 40
5.901753645113045
 40
6.721758804069744
 40
7.656665290824667
 40
8.591306730929203
 40
9.62239129708561
 40
10.65333154426921
 40
11.75669909075722
 40
12.85999030199535
 40
14.00810143051796
 40
15.15617917908608
 40
16.31941988683793
 40
17.48266059477582
 40
18.6307383438865
 40
19.7788494732801
 40
20.88214068561105
 40
21.98550823335649
 40
23.01644848177368
 40
24.04753304913934
 40
24.9821744902723
 40
25.9170809779688
 40
26.73708613767566
 40
27.55761268561134
 40
28.25328114210403
 40
28.94995687779029
 40
29.5256956384249
 40
30.10383794009618
 40
30.58671470896079
 40
31.07241774569967
 40
31.07241774569967
 40
31.07241774569967
 40
31.07241774569967
 10
260.8973506272009
 20
455.7083005132165
 30
0.0
 10
260.8458193400045
 20
455.8070970172795
 30
0.0
 10
260.7420944078743
 20
456.0059599111158
 30
0.0
 10
260.6285034603087
 20
456.362915258334
 30
0.0
 10
260.5718289421236
 20
456.7740618358449
 30
0.0
 10
260.6350047375608
 20
457.234487028384
 30
0.0
 10
260.7950625477011
 20
457.68216560043
 30
0.0
 10
261.0690915644012
 20
458.1224423198424
 30
0.0
 10
261.4301715876632
 20
458.5341092852141
 30
0.0
 10
261.8945069051346
 20
458.9421887108751
 30
0.0
 10
262.4337867470146
 20
459.3178776062291
 30
0.0
 10
263.0733771479776
 20
459.6866713636196
 30
0.0
 10
263.7770189535811
 20
460.0220211353753
 30
0.0
 10
264.5737438163044
 20
460.34289042404
 30
0.0
 10
265.423804716107
 20
460.6292292600587
 30
0.0
 10
266.3542216874695
 20
460.8933981768929
 30
0.0
 10
267.3269658404357
 20
461.1219088428455
 30
0.0
 10
268.3632352475928
 20
461.3218545335748
 30
0.0
 10
269.4302817322063
 20
461.4850922569002
 30
0.0
 10
270.5411751792059
 20
461.6150961911682
 30
0.0
 10
271.6707759293297
 20
461.707594588779
 30
0.0
 10
272.8227406542215
 20
461.7640317805897
 30
0.0
 10
273.9809834328236
 20
461.7825352801124
 30
0.0
 10
275.1392262115631
 20
461.7640317822229
 30
0.0
 10
276.2911909372738
 20
461.7075945920164
 30
0.0
 10
277.4207916875992
 20
461.61509619557
 30
0.0
 10
278.5316851385002
 20
461.4850922630899
 30
0.0
 10
279.5987316147081
 20
461.3218545380205
 30
0.0
 10
280.6350010572708
 20
461.1219088565611
 30
0.0
 10
281.6077450901242
 20
460.893398159493
 30
0.0
 10
282.5381624752599
 20
460.6292293493135
 30
0.0
 10
283.3882219300791
 20
460.342890139817
 30
0.0
 10
284.1849515624715
 20
460.0220220828459
 30
0.0
 10
284.8885769493346
 20
459.6866680701203
 30
0.0
 10
285.5282198535776
 20
459.3178878735388
 30
0.0
 10
286.0673216022387
 20
458.9421529787382
 30
0.0
 10
286.5322138468866
 20
458.53421740065
 30
0.0
 10
286.8914057953225
 20
458.1220627671189
 30
0.0
 10
287.1714052377644
 20
457.6833281378263
 30
0.0
 10
287.2665692839792
 20
457.3733848715
 30
0.0
 10
287.3142901551339
 20
457.2179610408855
 30
0.0
 11
260.8973506272009
 21
455.7083005132165
 31
0.0
 11
260.7515284701263
 21
456.0084930066389
 31
0.0
 11
260.6476767239844
 21
456.330170000354
 31
0.0
 11
260.5923488708816
 21
456.7740655206196
 31
0.0
 11
260.6476767239844
 21
457.2179610408852
 31
0.0
 11
260.8110003962004
 21
457.6753807842013
 31
0.0
 11
261.0617598444072
 21
458.0880424726615
 31
0.0
 11
261.4394817378042
 21
458.5257349343923
 31
0.0
 11
261.8701785934942
 21
458.9078021248641
 31
0.0
 11
262.4392983106221
 21
459.3096227652023
 31
0.0
 11
263.0411701289615
 21
459.6584850796744
 31
0.0
 11
263.7805265989943
 21
460.0143162537548
 31
0.0
 11
264.5407676725999
 21
460.3216303768767
 31
0.0
 11
265.4260873345042
 21
460.6220621240103
 31
0.0
 11
266.3249950850862
 21
460.8780298504694
 31
0.0
 11
267.3284387551284
 21
461.115171544364
 31
0.0
 11
268.3406223612958
 21
461.3109319591556
 31
0.0
 11
269.4311669630269
 21
461.4786591586003
 31
0.0
 11
270.5269541794105
 21
461.6071187718703
 31
0.0
 11
271.6711925207268
 21
461.7013407463169
 31
0.0
 11
272.8178950287228
 21
461.757517907392
 31
0.0
 11
273.9809834395592
 21
461.7763405234905
 31
0.0
 11
275.1440718503955
 21
461.7575179073921
 31
0.0
 11
276.2907743583916
 21
461.7013407463172
 31
0.0
 11
277.4350126997078
 21
461.6071187718704
 31
0.0
 11
278.5307999160914
 21
461.4786591586003
 31
0.0
 11
279.6213445178224
 21
461.3109319591556
 31
0.0
 11
280.6335281239898
 21
461.1151715443641
 31
0.0
 11
281.6369717940319
 21
460.8780298504695
 31
0.0
 11
282.5358795446138
 21
460.6220621240105
 31
0.0
 11
283.4211992065183
 21
460.3216303768768
 31
0.0
 11
284.1814402801241
 21
460.0143162537549
 31
0.0
 11
284.9207967501569
 21
459.6584850796744
 31
0.0
 11
285.5226685684962
 21
459.3096227652022
 31
0.0
 11
286.091788285624
 21
458.9078021248641
 31
0.0
 11
286.5224851413141
 21
458.5257349343922
 31
0.0
 11
286.9002070347111
 21
458.0880424726615
 31
0.0
 11
287.150966482918
 21
457.6753807842014
 31
0.0
 11
287.3142901551339
 21
457.2179610408855
 31
0.0
  0
ARC
  5
106
330
4A
100
AcDbEntity
  8
1
  6
Continuous
 62
     7
100
AcDbCircle
 10
251.4812941009085
 20
423.6614973408225
 30
0.0
 40
0.5
100
AcDbArc
 50
179.999999999987
 51
270.0
  0
ARC
  5
107
330
4A
100
AcDbEntity
  8
1
  6
Continuous
 62
     7
100
AcDbCircle
 10
296.48067277821
 20
423.6614973408225
 30
0.0
 40
0.4999999999998863
100
AcDbArc
 50
270.0
 51
0.00000000001303
  0
ARC
  5
108
330
4A
100
AcDbEntity
  8
1
  6
PHANTOM
 62
     5
100
AcDbCircle
 10
649.1161513831918
 20
498.1754112398171
 30
0.0
 40
3.999999999999813
100
AcDbArc
 50
64.02883859101212
 51
90.0
  0
ARC
  5
109
330
4A
100
AcDbEntity
  8
1
  6
PHANTOM
 62
     5
100
AcDbCircle
 10
731.1835345553446
 20
417.4366106285613
 30
0.0
 40
0.5000000000000554
100
AcDbArc
 50
255.0000000000072
 51
334.9999999999893
  0
ARC
  5
10A
330
4A
100
AcDbEntity
  8
1
  6
PHANTOM
 62
     5
100
AcDbCircle
 10
649.1161513831918
 20
498.1754112398171
 30
0.0
 40
4.0
100
AcDbArc
 50
90.0
 51
155.0000000000014
  0
ARC
  5
10B
330
4A
100
AcDbEntity
  8
1
  6
PHANTOM
 62
     5
100
AcDbCircle
 10
645.5648199052295
 20
497.6581610577609
 30
0.0
 40
1.000000000000195
100
AcDbArc
 50
155.0000000000091
 51
244.5936435471765
  0
ARC
  5
10C
330
4A
100
AcDbEntity
  8
1
  6
Continuous
 62
     7
100
AcDbCircle
 10
679.4999999999978
 20
443.1209905716703
 30
0.0
 40
4.999999999999944
100
AcDbArc
 50
11.24729879477067
 51
53.0318601447301
  0
ARC
  5
10D
330
4A
100
AcDbEntity
  8
1
  6
Continuous
 62
     7
100
AcDbCircle
 10
684.9999999999978
 20
423.7001833695838
 30
0.0
 40
0.5
100
AcDbArc
 50
180.0
 51
270.0
  0
ARC
  5
10E
330
4A
100
AcDbEntity
  8
1
  6
Continuous
 62
     7
100
AcDbCircle
 10
729.9999999999978
 20
427.6752537414672
 30
0.0
 40
0.5000000000000064
100
AcDbArc
 50
280.0000000000051
 51
0.0
  0
ARC
  5
10F
330
4A
100
AcDbEntity
  8
1
  6
Continuous
 62
     7
100
AcDbCircle
 10
679.4999999999978
 20
443.1209905716703
 30
0.0
 40
5.000000000000041
100
AcDbArc
 50
53.0318601447301
 51
62.6606808200137
  0
ARC
  5
110
330
4A
100
AcDbEntity
  8
1
  6
Continuous
 62
     7
100
AcDbCircle
 10
618.4999999999978
 20
464.1966372257006
 30
0.0
 40
1.0
100
AcDbArc
 50
180.0
 51
269.5936435471825
  0
ARC
  5
111
330
4A
100
AcDbEntity
  8
1
  6
Continuous
 62
     7
100
AcDbCircle
 10
621.4999999999978
 20
466.1662826296258
 30
0.0
 40
3.999999999999925
100
AcDbArc
 50
89.0288385910119
 51
180.0
  0
ENDBLK
  5
4C
330
4A
100
AcDbEntity
  8
0
100
AcDbBlockEnd
  0
BLOCK
  5
4E
330
4D
100
AcDbEntity
  8
0
100
AcDbBlockBegin
  2
84-208
 70
     0
 10
859.392248465429
 20
163.7307010766966
 30
0.0
  3
84-208
  1

  0
LINE
  5
112
330
4D
100
AcDbEntity
  8
1
  6
DASH_CENTER
 62
     2
100
AcDbLine
 10
681.7221510379884
 20
438.2001833695853
 30
0.0
 11
689.2252316804729
 21
438.2001833695835
 31
0.0
  0
LINE
  5
113
102
{ACAD_REACTORS
330
119
102
}
330
4D
100
AcDbEntity
  8
0
  6
Continuous
 62
     7
100
AcDbLine
 10
273.9809834395668
 20
442.411497340823
 30
0.0
 11
273.9809834395742
 21
433.911497340823
 31
0.0
  0
LINE
  5
114
330
4D
100
AcDbEntity
  8
1
  6
PHANTOM
 62
     4
100
AcDbLine
 10
266.7309834395705
 20
438.161497340823
 30
0.0
 11
281.2309834395705
 21
438.161497340823
 31
0.0
  0
LINE
  5
115
330
4D
100
AcDbEntity
  8
1
  6
PHANTOM
 62
     4
100
AcDbLine
 10
273.9809834395705
 20
430.9501833695847
 30
0.0
 11
273.9809834395705
 21
445.4501833695848
 31
0.0
  0
ARC
  5
116
330
4D
100
AcDbEntity
  8
1
  6
Continuous
 62
     7
100
AcDbCircle
 10
696.2221498879876
 20
438.200183369584
 30
0.0
 40
11.99999880000022
100
AcDbArc
 50
161.0462381785443
 51
199.3921999871085
  0
ARC
  5
117
330
4D
100
AcDbEntity
  8
1
  6
Continuous
 62
     7
100
AcDbCircle
 10
273.9809834395705
 20
438.161497340823
 30
0.0
 40
4.25
100
AcDbArc
 50
90.00000000004982
 51
270.0000000000499
  0
ARC
  5
118
102
{ACAD_REACTORS
330
119
102
}
330
4D
100
AcDbEntity
  8
1
  6
Continuous
 62
     7
100
AcDbCircle
 10
273.9809834395705
 20
438.161497340823
 30
0.0
 40
4.25
100
AcDbArc
 50
270.0000000000499
 51
90.00000000004982
  0
HATCH
  5
119
330
4D
100
AcDbEntity
  8
1
  6
Continuous
 62
     2
100
AcDbHatch
 10
0.0
 20
0.0
 30
0.0
210
0.0
220
0.0
230
1.0
  2
CUSTOM0
 70
     0
 71
     1
 91
        1
 92
        1
 93
        2
 72
     2
 10
273.9809834395705
 20
438.161497340823
 40
4.25
 50
270.0000000000499
 51
450.0000000000498
 73
     1
 72
     1
 10
273.9809834395668
 20
442.411497340823
 11
273.9809834395742
 21
433.911497340823
 97
        2
330
118
330
113
 75
     1
 76
     2
 52
45.0
 41
0.1
 77
     0
 78
     1
 53
45.0
 43
0.0
 44
0.0
 45
-0.282842712474619
 46
0.0
 79
     0
 98
        1
 10
0.0
 20
0.0
  0
ENDBLK
  5
4F
330
4D
100
AcDbEntity
  8
0
100
AcDbBlockEnd
  0
BLOCK
  5
51
330
50
100
AcDbEntity
  8
0
100
AcDbBlockBegin
  2
37-305-M11
 70
     0
 10
1121.84069620177
 20
436.450285395767
 30
0.0
  3
37-305-M11
  1

  0
LINE
  5
11A
330
50
100
AcDbEntity
  8
1
  6
Continuous
 62
     7
100
AcDbLine
 10
686.4999999999992
 20
422.2001833695833
 30
0.0
 11
686.4999999999992
 21
421.7001833695845
 31
0.0
  0
LINE
  5
11B
330
50
100
AcDbEntity
  8
1
  6
PHANTOM
 62
     4
100
AcDbLine
 10
707.4999999999978
 20
412.5001833695848
 30
0.0
 11
707.4999999999978
 21
435.0001833695849
 31
0.0
  0
LINE
  5
11C
330
50
100
AcDbEntity
  8
1
  6
Continuous
 62
     7
100
AcDbLine
 10
728.4999999999978
 20
422.2001833695833
 30
0.0
 11
726.4999999999965
 21
424.2001833695849
 31
0.0
  0
LINE
  5
11D
330
50
100
AcDbEntity
  8
1
  6
Continuous
 62
     7
100
AcDbLine
 10
728.4999999999978
 20
421.7001833695845
 30
0.0
 11
728.4999999999978
 21
422.2001833695833
 31
0.0
  0
LINE
  5
11E
330
50
100
AcDbEntity
  8
1
  6
Continuous
 62
     7
100
AcDbLine
 10
294.9809834395704
 20
421.6614973408228
 30
0.0
 11
294.9809834395704
 21
422.1614973408213
 31
0.0
  0
LINE
  5
11F
330
50
100
AcDbEntity
  8
1
  6
Continuous
 62
     7
100
AcDbLine
 10
294.9809834395704
 20
422.1614973408213
 30
0.0
 11
293.9809834395693
 21
423.1614973408228
 31
0.0
  0
LINE
  5
120
330
50
100
AcDbEntity
  8
1
  6
PHANTOM
 62
     4
100
AcDbLine
 10
273.9809834395706
 20
412.7001833695846
 30
0.0
 11
273.9809834395706
 21
435.2001833695847
 31
0.0
  0
LINE
  5
121
330
50
100
AcDbEntity
  8
1
  6
PHANTOM
 62
     4
100
AcDbLine
 10
252.9809834395718
 20
422.1614973408213
 30
0.0
 11
253.0809834395716
 21
422.1614973408213
 31
0.0
  0
LINE
  5
122
330
50
100
AcDbEntity
  8
1
  6
Continuous
 62
     7
100
AcDbLine
 10
252.9809834395718
 20
422.1614973408213
 30
0.0
 11
252.9809834395718
 21
421.6614973408228
 31
0.0
  0
LINE
  5
123
330
50
100
AcDbEntity
  8
1
  6
Continuous
 62
     7
100
AcDbLine
 10
253.9809834395728
 20
423.1614973408228
 30
0.0
 11
252.9809834395718
 21
422.1614973408213
 31
0.0
  0
LINE
  5
124
330
50
100
AcDbEntity
  8
1
  6
Continuous
 62
     7
100
AcDbLine
 10
687.5000000000005
 20
423.2001833695848
 30
0.0
 11
686.4999999999992
 21
422.2001833695833
 31
0.0
  0
LINE
  5
125
330
50
100
AcDbEntity
  8
1
  6
Continuous
 62
     7
100
AcDbLine
 10
713.1712818196129
 20
424.2001833695849
 30
0.0
 11
726.4999999999965
 21
424.2001833695849
 31
0.0
  0
ARC
  5
126
330
50
100
AcDbEntity
  8
1
  6
Continuous
 62
     7
100
AcDbCircle
 10
710.5626056310535
 20
422.7861604812338
 30
0.0
 40
15.99999999999983
100
AcDbArc
 50
5.07021119923653
 51
13.36644805771103
  0
ENDBLK
  5
52
330
50
100
AcDbEntity
  8
0
100
AcDbBlockEnd
  0
BLOCK
  5
54
330
53
100
AcDbEntity
  8
0
100
AcDbBlockBegin
  2
30-161C-M1
 70
     0
 10
1914.0
 20
743.9999999999999
 30
0.0
  3
30-161C-M1
  1

  0
LINE
  5
127
330
53
100
AcDbEntity
  8
6
  6
Continuous
 62
     7
100
AcDbLine
 10
293.4809834395705
 20
387.2114973408226
 30
0.0
 11
287.9809834395711
 21
387.2114973408226
 31
0.0
  0
LINE
  5
128
330
53
100
AcDbEntity
  8
6
  6
Continuous
 62
     7
100
AcDbLine
 10
293.4809834395705
 20
387.2114973408226
 30
0.0
 11
293.4809834395705
 21
386.7614973408226
 31
0.0
  0
LINE
  5
129
330
53
100
AcDbEntity
  8
6
  6
Continuous
 62
     7
100
AcDbLine
 10
254.4809834395705
 20
387.2114973408226
 30
0.0
 11
254.4809834395705
 21
386.7614973408226
 31
0.0
  0
LINE
  5
12A
330
53
100
AcDbEntity
  8
6
  6
Continuous
 62
     7
100
AcDbLine
 10
251.9809834395705
 20
421.6614973408228
 30
0.0
 11
251.9809834395705
 21
387.2114973408226
 31
0.0
  0
LINE
  5
12B
330
53
100
AcDbEntity
  8
6
  6
Continuous
 62
     7
100
AcDbLine
 10
295.9809834395705
 20
421.6614973408228
 30
0.0
 11
295.9809834395705
 21
387.2114973408226
 31
0.0
  0
LINE
  5
12C
330
53
100
AcDbEntity
  8
6
  6
Continuous
 62
     7
100
AcDbLine
 10
295.9809834395705
 20
421.6614973408228
 30
0.0
 11
251.9809834395705
 21
421.6614973408228
 31
0.0
  0
LINE
  5
12D
330
53
100
AcDbEntity
  8
6
  6
Continuous
 62
     7
100
AcDbLine
 10
254.4809834395705
 20
387.2114973408226
 30
0.0
 11
251.9809834395705
 21
387.2114973408226
 31
0.0
  0
LINE
  5
12E
330
53
100
AcDbEntity
  8
6
  6
Continuous
 62
     7
100
AcDbLine
 10
295.9809834395705
 20
387.2114973408226
 30
0.0
 11
293.4809834395705
 21
387.2114973408226
 31
0.0
  0
LINE
  5
12F
330
53
100
AcDbEntity
  8
8
  6
Continuous
 62
     7
100
AcDbLine
 10
687.9999999999978
 20
387.2501833695846
 30
0.0
 11
685.4999999999983
 21
387.2501833695847
 31
0.0
  0
LINE
  5
130
330
53
100
AcDbEntity
  8
8
  6
Continuous
 62
     7
100
AcDbLine
 10
729.4999999999978
 20
387.2501833695847
 30
0.0
 11
726.9999999999978
 21
387.2501833695847
 31
0.0
  0
LINE
  5
131
330
53
100
AcDbEntity
  8
8
  6
Continuous
 62
     7
100
AcDbLine
 10
726.9999999999978
 20
387.2501833695847
 30
0.0
 11
726.9999999999978
 21
386.8001833695852
 31
0.0
  0
LINE
  5
132
330
53
100
AcDbEntity
  8
8
  6
Continuous
 62
     7
100
AcDbLine
 10
685.4999999999983
 20
421.7001833695845
 30
0.0
 11
729.4999999999978
 21
421.7001833695845
 31
0.0
  0
LINE
  5
133
330
53
100
AcDbEntity
  8
8
  6
Continuous
 62
     7
100
AcDbLine
 10
687.9999999999978
 20
386.8001833695852
 30
0.0
 11
687.9999999999978
 21
387.2501833695846
 31
0.0
  0
LINE
  5
134
330
53
100
AcDbEntity
  8
8
  6
Continuous
 62
     7
100
AcDbLine
 10
685.4999999999983
 20
387.2501833695847
 30
0.0
 11
685.4999999999983
 21
421.7001833695845
 31
0.0
  0
LINE
  5
135
330
53
100
AcDbEntity
  8
8
  6
Continuous
 62
     7
100
AcDbLine
 10
729.4999999999978
 20
421.7001833695845
 30
0.0
 11
729.4999999999978
 21
387.2501833695847
 31
0.0
  0
LINE
  5
136
330
53
100
AcDbEntity
  8
6
  6
Continuous
 62
     7
100
AcDbLine
 10
259.9809834395713
 20
387.2114973408226
 30
0.0
 11
254.4809834395705
 21
387.2114973408226
 31
0.0
  0
LINE
  5
137
330
53
100
AcDbEntity
  8
1
  6
PHANTOM
 62
     4
100
AcDbLine
 10
273.9809834395705
 20
424.7001833695849
 30
0.0
 11
273.9809834395706
 21
354.88351670292
 31
0.0
  0
LINE
  5
138
330
53
100
AcDbEntity
  8
1
  6
Continuous
 62
     7
100
AcDbLine
 10
726.9999999999978
 20
387.2501833695847
 30
0.0
 11
687.9999999999978
 21
387.2501833695846
 31
0.0
  0
ENDBLK
  5
55
330
53
100
AcDbEntity
  8
0
100
AcDbBlockEnd
  0
BLOCK
  5
57
330
56
100
AcDbEntity
  8
0
100
AcDbBlockBegin
  2
K2710-0B
 70
     0
 10
1501.129084638862
 20
1746.061234659811
 30
0.0
  3
K2710-0B
  1

  0
LINE
  5
139
330
56
100
AcDbEntity
  8
1
  6
Continuous
 62
     7
100
AcDbLine
 10
701.7566536146059
 20
341.8001833695848
 30
0.0
 11
734.8999999999918
 21
341.8001833695848
 31
0.0
  0
LINE
  5
13A
330
56
100
AcDbEntity
  8
11
  6
Continuous
 62
     7
100
AcDbLine
 10
734.8999999999918
 20
341.8001833695848
 30
0.0
 11
734.8999999999918
 21
343.5796833695858
 31
0.0
  0
LINE
  5
13B
330
56
100
AcDbEntity
  8
1
  6
Continuous
 62
     7
100
AcDbLine
 10
213.9809834395757
 20
341.8001833695848
 30
0.0
 11
273.9809834395757
 21
341.8001833695848
 31
0.0
  0
LINE
  5
13C
330
56
100
AcDbEntity
  8
1
  6
Continuous
 62
     2
100
AcDbLine
 10
737.8999999999925
 20
344.7416833695847
 30
0.0
 11
739.7805611360882
 21
344.7416833695847
 31
0.0
  0
LINE
  5
13D
330
56
100
AcDbEntity
  8
11
  6
Continuous
 62
     7
100
AcDbLine
 10
734.8999999999918
 20
343.5796833695858
 30
0.0
 11
739.7805611360883
 21
343.5796833695858
 31
0.0
  0
LINE
  5
13E
330
56
100
AcDbEntity
  8
1
  6
Continuous
 62
     7
100
AcDbLine
 10
737.8999999999925
 20
343.5796833695858
 30
0.0
 11
737.8999999999925
 21
370.0206833695847
 31
0.0
  0
LINE
  5
13F
330
56
100
AcDbEntity
  8
1
  6
Continuous
 62
     2
100
AcDbLine
 10
735.8873569615974
 20
343.5796833695858
 30
0.0
 11
737.8999999999925
 21
344.7416833695847
 31
0.0
  0
LINE
  5
140
330
56
100
AcDbEntity
  8
1
  6
Continuous
 62
     2
100
AcDbLine
 10
735.8873569615974
 20
370.0206833695847
 30
0.0
 11
737.8999999999925
 21
368.8586833695858
 31
0.0
  0
LINE
  5
141
330
56
100
AcDbEntity
  8
1
  6
Continuous
 62
     7
100
AcDbLine
 10
348.9809834395716
 20
356.8001833695848
 30
0.0
 11
348.9809834395716
 21
362.8387148205281
 31
0.0
  0
LINE
  5
142
330
56
100
AcDbEntity
  8
1
  6
Continuous
 62
     7
100
AcDbLine
 10
198.9809834395757
 20
371.8001833695847
 30
0.0
 11
198.9809834395757
 21
362.8387148205281
 31
0.0
  0
LINE
  5
143
330
56
100
AcDbEntity
  8
1
  6
Continuous
 62
     7
100
AcDbLine
 10
348.9809834395716
 20
371.8001833695847
 30
0.0
 11
296.4309834395737
 21
371.8001833695847
 31
0.0
  0
LINE
  5
144
330
56
100
AcDbEntity
  8
1
  6
Continuous
 62
     7
100
AcDbLine
 10
348.9809834395716
 20
362.8387148205281
 30
0.0
 11
348.9809834395716
 21
371.8001833695847
 31
0.0
  0
LINE
  5
145
330
56
100
AcDbEntity
  8
1
  6
Continuous
 62
     7
100
AcDbLine
 10
348.9809834395716
 20
356.8001833695848
 30
0.0
 11
348.9809834395716
 21
362.8387148205281
 31
0.0
  0
LINE
  5
146
330
56
100
AcDbEntity
  8
1
  6
Continuous
 62
     7
100
AcDbLine
 10
273.9809834395716
 20
341.8001833695847
 30
0.0
 11
333.9809834395716
 21
341.8001833695848
 31
0.0
  0
LINE
  5
147
330
56
100
AcDbEntity
  8
1
  6
Continuous
 62
     7
100
AcDbLine
 10
198.9809834395757
 20
362.8387148205281
 30
0.0
 11
198.9809834395757
 21
356.8001833695848
 31
0.0
  0
LINE
  5
148
330
56
100
AcDbEntity
  8
1
  6
Continuous
 62
     7
100
AcDbLine
 10
734.8999999999918
 20
371.8001833695848
 30
0.0
 11
680.8999999999917
 21
356.8001833695848
 31
0.0
  0
LINE
  5
149
330
56
100
AcDbEntity
  8
1
  6
Continuous
 62
     7
100
AcDbLine
 10
251.4309834395737
 20
371.8001833695847
 30
0.0
 11
198.9809834395757
 21
371.8001833695847
 31
0.0
  0
LINE
  5
14A
330
56
100
AcDbEntity
  8
1
  6
Continuous
 62
     7
100
AcDbLine
 10
348.9809834395273
 20
761.3674488791764
 30
0.0
 11
348.9809834395703
 21
773.5178769658093
 31
0.0
  0
LINE
  5
14B
330
56
100
AcDbEntity
  8
1
  6
Continuous
 62
     7
100
AcDbLine
 10
198.9809834395705
 20
783.800183369585
 30
0.0
 11
198.9809834395705
 21
759.9334113971983
 31
0.0
  0
LINE
  5
14C
330
56
100
AcDbEntity
  8
1
  6
Continuous
 62
     7
100
AcDbLine
 10
348.9809834395703
 20
773.5178769658093
 30
0.0
 11
348.9809834395703
 21
783.800183369585
 31
0.0
  0
LINE
  5
14D
330
56
100
AcDbEntity
  8
1
  6
Continuous
 62
     7
100
AcDbLine
 10
348.9809834395703
 20
759.9334113971981
 30
0.0
 11
348.9809834395273
 21
761.3674488791764
 31
0.0
  0
LINE
  5
14E
330
56
100
AcDbEntity
  8
1
  6
Continuous
 62
     7
100
AcDbLine
 10
348.9809834395703
 20
783.800183369585
 30
0.0
 11
200.7604834395704
 21
783.800183369585
 31
0.0
  0
LINE
  5
14F
330
56
100
AcDbEntity
  8
11
  6
Continuous
 62
     7
100
AcDbLine
 10
227.2014834395704
 20
783.8001833695844
 30
0.0
 11
227.2014834395704
 21
788.6807445056804
 31
0.0
  0
LINE
  5
150
330
56
100
AcDbEntity
  8
11
  6
Continuous
 62
     7
100
AcDbLine
 10
200.7604834395704
 20
788.6807445056804
 30
0.0
 11
200.7604834395704
 21
785.81282640798
 31
0.0
  0
LINE
  5
151
330
56
100
AcDbEntity
  8
1
  6
Continuous
 62
     2
100
AcDbLine
 10
226.0394834395704
 20
786.800183369585
 30
0.0
 11
227.2014834395704
 21
784.7875403311901
 31
0.0
  0
LINE
  5
152
330
56
100
AcDbEntity
  8
1
  6
Continuous
 62
     2
100
AcDbLine
 10
201.9224834395704
 20
786.800183369585
 30
0.0
 11
200.7604834395704
 21
784.7875403311901
 31
0.0
  0
LINE
  5
153
330
56
100
AcDbEntity
  8
1
  6
Continuous
 62
     2
100
AcDbLine
 10
201.9224834395704
 20
788.6807445056804
 30
0.0
 11
201.9224834395704
 21
786.800183369585
 31
0.0
  0
LINE
  5
154
330
56
100
AcDbEntity
  8
1
  6
Continuous
 62
     2
100
AcDbLine
 10
226.0394834395701
 20
788.6807445056804
 30
0.0
 11
226.0394834395704
 21
786.800183369585
 31
0.0
  0
LINE
  5
155
330
56
100
AcDbEntity
  8
1
  6
Continuous
 62
     7
100
AcDbLine
 10
227.2014834395704
 20
786.800183369585
 30
0.0
 11
200.7604834395704
 21
786.800183369585
 31
0.0
  0
LINE
  5
156
330
56
100
AcDbEntity
  8
11
  6
Continuous
 62
     7
100
AcDbLine
 10
200.7604834395704
 20
786.800183369585
 30
0.0
 11
200.7604834395704
 21
783.800183369585
 31
0.0
  0
LINE
  5
157
330
56
100
AcDbEntity
  8
11
  6
Continuous
 62
     7
100
AcDbLine
 10
734.8999999999918
 20
370.0206833695847
 30
0.0
 11
734.8999999999918
 21
371.8001833695848
 31
0.0
  0
LINE
  5
158
330
56
100
AcDbEntity
  8
11
  6
Continuous
 62
     7
100
AcDbLine
 10
734.8999999999918
 20
343.5796833695858
 30
0.0
 11
734.8999999999918
 21
370.0206833695847
 31
0.0
  0
LINE
  5
159
330
56
100
AcDbEntity
  8
11
  6
Continuous
 62
     7
100
AcDbLine
 10
739.7805611360882
 20
370.0206833695847
 30
0.0
 11
734.8999999999918
 21
370.0206833695847
 31
0.0
  0
LINE
  5
15A
330
56
100
AcDbEntity
  8
1
  6
Continuous
 62
     2
100
AcDbLine
 10
737.8999999999925
 20
368.8586833695858
 30
0.0
 11
739.7805611360882
 21
368.8586833695858
 31
0.0
  0
LINE
  5
15B
330
56
100
AcDbEntity
  8
1
  6
Continuous
 62
     7
100
AcDbLine
 10
200.7604834395704
 20
783.800183369585
 30
0.0
 11
198.9809834395705
 21
783.800183369585
 31
0.0
  0
LINE
  5
15C
330
56
100
AcDbEntity
  8
1
  6
Continuous
 62
     7
100
AcDbLine
 10
320.7604834395704
 20
783.800183369585
 30
0.0
 11
318.9809834395705
 21
783.800183369585
 31
0.0
  0
LINE
  5
15D
330
56
100
AcDbEntity
  8
11
  6
Continuous
 62
     7
100
AcDbLine
 10
320.7604834395704
 20
786.800183369585
 30
0.0
 11
320.7604834395704
 21
783.800183369585
 31
0.0
  0
LINE
  5
15E
330
56
100
AcDbEntity
  8
1
  6
Continuous
 62
     7
100
AcDbLine
 10
347.2014834395704
 20
786.800183369585
 30
0.0
 11
320.7604834395704
 21
786.800183369585
 31
0.0
  0
LINE
  5
15F
330
56
100
AcDbEntity
  8
1
  6
Continuous
 62
     2
100
AcDbLine
 10
346.0394834395701
 20
788.6807445056804
 30
0.0
 11
346.0394834395704
 21
786.800183369585
 31
0.0
  0
LINE
  5
160
330
56
100
AcDbEntity
  8
1
  6
Continuous
 62
     2
100
AcDbLine
 10
321.9224834395702
 20
788.6807445056804
 30
0.0
 11
321.9224834395704
 21
786.800183369585
 31
0.0
  0
LINE
  5
161
330
56
100
AcDbEntity
  8
1
  6
Continuous
 62
     2
100
AcDbLine
 10
321.9224834395704
 20
786.800183369585
 30
0.0
 11
320.7604834395704
 21
784.7875403311901
 31
0.0
  0
LINE
  5
162
330
56
100
AcDbEntity
  8
1
  6
Continuous
 62
     2
100
AcDbLine
 10
346.0394834395704
 20
786.800183369585
 30
0.0
 11
347.2014834395704
 21
784.7875403311901
 31
0.0
  0
LINE
  5
163
330
56
100
AcDbEntity
  8
11
  6
Continuous
 62
     7
100
AcDbLine
 10
320.7604834395704
 20
788.6807445056804
 30
0.0
 11
320.7604834395704
 21
785.81282640798
 31
0.0
  0
LINE
  5
164
330
56
100
AcDbEntity
  8
11
  6
Continuous
 62
     7
100
AcDbLine
 10
347.2014834395704
 20
783.8001833695844
 30
0.0
 11
347.2014834395704
 21
788.6807445056804
 31
0.0
  0
ARC
  5
165
330
56
100
AcDbEntity
  8
1
  6
Continuous
 62
     7
100
AcDbCircle
 10
701.7566536146059
 20
363.8001833695848
 30
0.0
 40
21.99999999999997
100
AcDbArc
 50
198.5530045350207
 51
270.0
  0
SPLINE
  5
166
330
56
100
AcDbEntity
  8
1
  6
Continuous
 62
     7
100
AcDbSpline
210
0.0
220
0.0
230
1.0
 70
     8
 71
     3
 72
    35
 73
    31
 74
    29
 42
0.000000001
 43
0.0000000001
 44
0.00000001
 40
0.0
 40
0.0
 40
0.0
 40
0.0
 40
2.500034916774433
 40
5.000069834484663
 40
7.500329266908633
 40
10.00058870206597
 40
12.50130260512842
 40
15.00201651140092
 40
17.50342596187283
 40
20.00483541684689
 40
22.50719882538973
 40
25.00956224180138
 40
27.51316238897673
 40
30.01676254651074
 40
32.52191485068617
 40
35.02706716993371
 40
37.53412971562931
 40
40.04119227706086
 40
42.55057828173211
 40
45.05996432261244
 40
47.57215812759301
 40
50.08435192554175
 40
52.59992961987324
 40
55.11550751263102
 40
57.63516547478559
 40
60.15482296931751
 40
62.67941330694925
 40
65.20400565611433
 40
70.27248694630096
 40
75.34096867005721
 40
75.34096867005721
 40
75.34096867005721
 40
75.34096867005721
 10
273.9809834395705
 20
356.8001833695852
 30
0.0
 10
274.8143291890933
 20
356.8013193724009
 30
0.0
 10
276.4810206884162
 20
356.8035913926657
 30
0.0
 10
278.9810769319408
 20
356.8219858112669
 30
0.0
 10
281.4810960758679
 20
356.8513737861894
 30
0.0
 10
283.9811726640065
 20
356.8928847644128
 30
0.0
 10
286.4811741708988
 20
356.9462832917546
 30
0.0
 10
288.9812729727149
 20
357.0117410702138
 30
0.0
 10
291.4812569088488
 20
357.0893240045266
 30
0.0
 10
293.9813804006291
 20
357.1791755553232
 30
0.0
 10
296.4813464413868
 20
357.2814150474251
 30
0.0
 10
298.9814978318743
 20
357.3962289136972
 30
0.0
 10
301.4814452520737
 20
357.5237728869936
 30
0.0
 10
303.9816286451739
 20
357.6642873629477
 30
0.0
 10
306.4815562923604
 20
357.8179646551344
 30
0.0
 10
308.9817769196667
 20
357.9851075702802
 30
0.0
 10
311.481683177112
 20
358.1659470694605
 30
0.0
 10
313.9819477129388
 20
358.3608590104844
 30
0.0
 10
316.4818304360825
 20
358.5701160067995
 30
0.0
 10
318.9821474630469
 20
358.7941807774622
 30
0.0
 10
321.4820039356923
 20
359.0333714107006
 30
0.0
 10
323.9823844887561
 20
359.2882563866718
 30
0.0
 10
326.4822113126621
 20
359.5592039204009
 30
0.0
 10
328.9826697040334
 20
359.8469148294957
 30
0.0
 10
331.4824644539153
 20
360.1518003026762
 30
0.0
 10
333.9830137272575
 20
360.474778337718
 30
0.0
 10
336.4827915367894
 20
360.8161406211303
 30
0.0
 10
339.8206354514853
 20
361.2987701830788
 30
0.0
 10
343.9914351958425
 20
361.9469296577968
 30
0.0
 10
347.3178006450848
 20
362.541453086296
 30
0.0
 10
348.9809834395716
 20
362.8387148205281
 30
0.0
 11
273.9809834395705
 21
356.8001833695852
 31
0.0
 11
276.4810113804768
 21
356.8060890222789
 31
0.0
 11
278.9809834395703
 21
356.823817226424
 31
0.0
 11
281.4810679290418
 21
356.8533937113336
 31
0.0
 11
283.9809834395698
 21
356.894862659626
 31
0.0
 11
286.4811265074322
 21
356.9482916094661
 31
0.0
 11
288.9809834395705
 21
357.0137541911697
 31
0.0
 11
291.4811885700287
 21
357.0913656719301
 31
0.0
 11
293.9809834395707
 21
357.1812259731469
 31
0.0
 11
296.481255732163
 21
357.2835054627434
 31
0.0
 11
298.9809834395697
 21
357.3983273183846
 31
0.0
 11
301.4813298549852
 21
357.5259263027165
 31
0.0
 11
303.9809834395705
 21
357.6664457174328
 31
0.0
 11
306.4814131515548
 21
357.8201965603945
 31
0.0
 11
308.9809834395701
 21
357.9873387640395
 31
0.0
 11
311.4815083364979
 21
358.1682747899544
 31
0.0
 11
313.9809834395703
 21
358.3631770563246
 31
0.0
 11
316.4816187998384
 21
358.5725592766036
 31
0.0
 11
318.9809834395702
 21
358.7966010198923
 31
0.0
 11
321.4817489729791
 21
359.0359532053354
 31
0.0
 11
323.9809834395697
 21
359.2907958415805
 31
0.0
 11
326.4819044065591
 21
359.5619516300579
 31
0.0
 11
328.9809834395692
 21
359.8495905144125
 31
0.0
 11
331.4820935910346
 21
360.1547531944727
 31
0.0
 11
333.9809834395689
 21
360.4775897138351
 31
0.0
 11
336.4823243094769
 21
360.8194233402428
 31
0.0
 11
338.9809834395691
 21
361.1803514261832
 31
0.0
 11
343.988230818509
 21
361.965829803693
 31
0.0
 11
348.9809834395716
 21
362.8387148205281
 31
0.0
  0
SPLINE
  5
167
330
56
100
AcDbEntity
  8
1
  6
Continuous
 62
     7
100
AcDbSpline
210
0.0
220
0.0
230
1.0
 70
     8
 71
     3
 72
    35
 73
    31
 74
    29
 42
0.000000001
 43
0.0000000001
 44
0.00000001
 40
0.0
 40
0.0
 40
0.0
 40
0.0
 40
2.500034916774433
 40
5.000069834485174
 40
7.500329266909372
 40
10.0005887020666
 40
12.50130260512882
 40
15.00201651140092
 40
17.50342596187289
 40
20.00483541684715
 40
22.50719882539047
 40
25.0095622418026
 40
27.51316238897753
 40
30.01676254651094
 40
32.52191485068612
 40
35.02706716993377
 40
37.53412971562977
 40
40.04119227706151
 40
42.55057828173263
 40
45.05996432261259
 40
47.57215812759318
 40
50.08435192554203
 40
52.59992961987415
 40
55.11550751263263
 40
57.63516547478754
 40
60.15482296931949
 40
62.67941330695118
 40
65.2040056561163
 40
70.27248694630251
 40
75.34096867005613
 40
75.34096867005613
 40
75.34096867005613
 40
75.34096867005613
 10
273.9809834395786
 20
356.8001833695852
 30
0.0
 10
273.1476376900558
 20
356.8013193724008
 30
0.0
 10
271.4809461907328
 20
356.8035913926658
 30
0.0
 10
268.9808899472079
 20
356.8219858112668
 30
0.0
 10
266.4808708032807
 20
356.8513737861894
 30
0.0
 10
263.9807942151421
 20
356.8928847644128
 30
0.0
 10
261.48079270825
 20
356.9462832917546
 30
0.0
 10
258.9806939064339
 20
357.0117410702138
 30
0.0
 10
256.4807099703003
 20
357.0893240045267
 30
0.0
 10
253.9805864785196
 20
357.1791755553231
 30
0.0
 10
251.4806204377616
 20
357.2814150474252
 30
0.0
 10
248.9804690472739
 20
357.3962289136971
 30
0.0
 10
246.4805216270746
 20
357.5237728869937
 30
0.0
 10
243.9803382339748
 20
357.6642873629476
 30
0.0
 10
241.4804105867886
 20
357.8179646551344
 30
0.0
 10
238.9801899594822
 20
357.9851075702802
 30
0.0
 10
236.4802837020367
 20
358.1659470694605
 30
0.0
 10
233.9800191662098
 20
358.3608590104844
 30
0.0
 10
231.4801364430661
 20
358.5701160067995
 30
0.0
 10
228.9798194161018
 20
358.7941807774622
 30
0.0
 10
226.4799629434567
 20
359.0333714107006
 30
0.0
 10
223.9795823903925
 20
359.2882563866719
 30
0.0
 10
221.4797555664861
 20
359.5592039204009
 30
0.0
 10
218.9792971751142
 20
359.8469148294957
 30
0.0
 10
216.479502425232
 20
360.151800302676
 30
0.0
 10
213.9789531518897
 20
360.4747783377181
 30
0.0
 10
211.4791753423577
 20
360.8161406211304
 30
0.0
 10
208.141331427662
 20
361.2987701830788
 30
0.0
 10
203.9705316833057
 20
361.9469296577967
 30
0.0
 10
200.6441662340644
 20
362.5414530862959
 30
0.0
 10
198.9809834395786
 20
362.8387148205281
 30
0.0
 11
273.9809834395786
 21
356.8001833695852
 31
0.0
 11
271.4809554986722
 21
356.8060890222789
 31
0.0
 11
268.9809834395783
 21
356.823817226424
 31
0.0
 11
266.4808989501066
 21
356.8533937113336
 31
0.0
 11
263.9809834395787
 21
356.894862659626
 31
0.0
 11
261.4808403717165
 21
356.9482916094661
 31
0.0
 11
258.9809834395786
 21
357.0137541911697
 31
0.0
 11
256.4807783091204
 21
357.0913656719301
 31
0.0
 11
253.9809834395781
 21
357.1812259731469
 31
0.0
 11
251.4807111469853
 21
357.2835054627434
 31
0.0
 11
248.9809834395782
 21
357.3983273183846
 31
0.0
 11
246.4806370241631
 21
357.5259263027165
 31
0.0
 11
243.9809834395784
 21
357.6664457174328
 31
0.0
 11
241.4805537275944
 21
357.8201965603945
 31
0.0
 11
238.9809834395789
 21
357.9873387640395
 31
0.0
 11
236.4804585426508
 21
358.1682747899544
 31
0.0
 11
233.9809834395782
 21
358.3631770563246
 31
0.0
 11
231.4803480793102
 21
358.5725592766036
 31
0.0
 11
228.9809834395788
 21
358.7966010198923
 31
0.0
 11
226.4802179061698
 21
359.0359532053354
 31
0.0
 11
223.9809834395791
 21
359.2907958415805
 31
0.0
 11
221.4800624725891
 21
359.5619516300579
 31
0.0
 11
218.9809834395782
 21
359.8495905144125
 31
0.0
 11
216.4798732881125
 21
360.1547531944727
 31
0.0
 11
213.9809834395782
 21
360.4775897138351
 31
0.0
 11
211.4796425696703
 21
360.8194233402428
 31
0.0
 11
208.9809834395781
 21
361.1803514261832
 31
0.0
 11
203.9737360606386
 21
361.965829803693
 31
0.0
 11
198.9809834395786
 21
362.8387148205281
 31
0.0
  0
SPLINE
  5
168
330
56
100
AcDbEntity
  8
1
  6
Continuous
 62
     7
100
AcDbSpline
210
0.0
220
0.0
230
1.0
 70
     8
 71
     3
 72
    45
 73
    41
 74
    39
 42
0.000000001
 43
0.0000000001
 44
0.00000001
 40
0.0
 40
0.0
 40
0.0
 40
0.0
 40
0.6655979566715301
 40
1.322150376519924
 40
2.183805291597127
 40
3.040263338307028
 40
4.138666169282696
 40
5.236052551504661
 40
6.573434610810283
 40
7.910107648093415
 40
9.462049053633704
 40
11.01371989141087
 40
12.74357231349634
 40
14.4732688952945
 40
16.33567335056661
 40
18.19800067348865
 40
20.14207770049097
 40
22.08612095499339
 40
24.05776379194835
 40
26.02940662878162
 40
27.97344988292999
 40
29.91752690936016
 40
31.77985423155241
 40
33.64225868595328
 40
35.37195526685664
 40
37.10180768800858
 40
38.653478524948
 40
40.20541992967511
 40
41.54209296629055
 40
42.87947502496598
 40
43.97686140670453
 40
45.07526423723419
 40
45.9317222836514
 40
46.79337719857853
 40
47.44992962006175
 40
48.11552757491386
 40
48.6892951050401
 40
49.26306263694095
 40
49.40025622949087
 40
49.5358840767581
 40
49.5358840767581
 40
49.5358840767581
 40
49.5358840767581
 10
251.3795721338016
 20
363.6238382838001
 30
0.0
 10
251.4656265890341
 20
363.4178371502595
 30
0.0
 10
251.6365659989814
 20
363.0086344512191
 30
0.0
 10
252.1222214588007
 20
362.4539332955219
 30
0.0
 10
252.7327408721858
 20
361.9487277738167
 30
0.0
 10
253.5217334273826
 20
361.4361903568076
 30
0.0
 10
254.4281789853181
 20
360.9711849974203
 30
0.0
 10
255.5116261993853
 20
360.507687476446
 30
0.0
 10
256.6980253245877
 20
360.08945571133
 30
0.0
 10
258.0480089388747
 20
359.685678683015
 30
0.0
 10
259.4844567458311
 20
359.3268599744437
 30
0.0
 10
261.0612136751658
 20
358.9942683156291
 30
0.0
 10
262.707114837113
 20
358.7072660527526
 30
0.0
 10
264.4633774648481
 20
358.4554640612944
 30
0.0
 10
266.2701475971124
 20
358.2502014262512
 30
0.0
 10
268.1528477771612
 20
358.0864602816487
 30
0.0
 10
270.0663370091951
 20
357.9700853931943
 30
0.0
 10
272.0184871377891
 20
357.8989891369086
 30
0.0
 10
273.9809834456111
 20
357.8757259452572
 30
0.0
 10
275.9434797534628
 20
357.8989891380509
 30
0.0
 10
277.8956298811867
 20
357.9700853956323
 30
0.0
 10
279.8091191143328
 20
358.0864602844659
 30
0.0
 10
281.6918192873974
 20
358.2502014322202
 30
0.0
 10
283.4985894410564
 20
358.4554640597129
 30
0.0
 10
285.2548519902057
 20
358.707266080319
 30
0.0
 10
286.9007534264555
 20
358.994268241921
 30
0.0
 10
288.4775094281026
 20
359.3268602430121
 30
0.0
 10
289.9139604556686
 20
359.6856777626124
 30
0.0
 10
291.2639336229441
 20
360.0894586468248
 30
0.0
 10
292.450368212436
 20
360.507677321421
 30
0.0
 10
293.5337053941081
 20
360.971215456591
 30
0.0
 10
294.4405148792737
 20
361.4360864857246
 30
0.0
 10
295.2284273059972
 20
361.9490225919379
 30
0.0
 10
295.8424674561933
 20
362.4529285655326
 30
0.0
 10
296.3178472707615
 20
363.0114225930732
 30
0.0
 10
296.5977253862978
 20
363.585375889078
 30
0.0
 10
296.7188602545016
 20
364.1883509100023
 30
0.0
 10
296.6350719107801
 20
364.618830302781
 30
0.0
 10
296.5356057154601
 20
364.8827388744388
 30
0.0
 10
296.499121067985
 20
364.9660737953893
 30
0.0
 10
296.4809834395726
 20
365.0075021233017
 30
0.0
 11
251.3795721338016
 21
363.6238382838001
 31
0.0
 11
251.6689312589195
 21
363.0244286302027
 31
0.0
 11
252.0864632325068
 21
362.5177451666505
 31
0.0
 11
252.7440305356734
 21
361.9609198501225
 31
0.0
 11
253.4602782826246
 21
361.4913354066778
 31
0.0
 11
254.433796077063
 21
360.9826588088887
 31
0.0
 11
255.4419509789255
 21
360.5492068923057
 31
0.0
 11
256.7015077352543
 21
360.0996431619965
 31
0.0
 11
257.9817508350696
 21
359.71536147956
 31
0.0
 11
259.4866498353858
 21
359.3361502961264
 31
0.0
 11
261.004721476106
 21
359.0149947590912
 31
0.0
 11
262.7085155093828
 21
358.7158705540701
 31
0.0
 11
264.4206203095089
 21
358.4698067123241
 31
0.0
 11
266.2709808479739
 21
358.2583445927704
 31
0.0
 11
268.1262798088034
 21
358.0967004796597
 31
0.0
 11
270.0667273948221
 21
357.9779627493912
 31
0.0
 11
272.0094830976607
 21
357.9072206066957
 31
0.0
 11
273.9809834395768
 21
357.8835167029204
 31
0.0
 11
275.9524837814927
 21
357.9072206066957
 31
0.0
 11
277.8952394843309
 21
357.9779627493913
 31
0.0
 11
279.8356870703498
 21
358.0967004796597
 31
0.0
 11
281.6909860311793
 21
358.2583445927703
 31
0.0
 11
283.5413465696441
 21
358.469806712324
 31
0.0
 11
285.2534513697699
 21
358.7158705540699
 31
0.0
 11
286.9572454030466
 21
359.0149947590911
 31
0.0
 11
288.4753170437668
 21
359.3361502961264
 31
0.0
 11
289.9802160440831
 21
359.7153614795599
 31
0.0
 11
291.2604591438983
 21
360.0996431619964
 31
0.0
 11
292.5200159002271
 21
360.5492068923056
 31
0.0
 11
293.5281708020897
 21
360.9826588088886
 31
0.0
 11
294.501688596528
 21
361.4913354066774
 31
0.0
 11
295.2179363434792
 21
361.9609198501221
 31
0.0
 11
295.8755036466457
 21
362.5177451666502
 31
0.0
 11
296.2930356202331
 21
363.0244286302026
 31
0.0
 11
296.5823947453511
 21
363.6238382837998
 31
0.0
 11
296.6809834395768
 21
364.1890722584749
 31
0.0
 11
296.5823947453511
 21
364.75430623315
 31
0.0
 11
296.5343013282795
 21
364.8827939909106
 31
0.0
 11
296.4809834395726
 21
365.0075021233017
 31
0.0
  0
SPLINE
  5
169
330
56
100
AcDbEntity
  8
1
  6
Continuous
 62
     7
100
AcDbSpline
210
0.0
220
0.0
230
1.0
 70
     8
 71
     3
 72
    11
 73
     7
 74
     5
 42
0.000000001
 43
0.0000000001
 44
0.00000001
 40
0.0
 40
0.0
 40
0.0
 40
0.0
 40
0.1356278555736188
 40
0.272821443121731
 40
0.8465889685528851
 40
1.420356496317887
 40
1.420356496317887
 40
1.420356496317887
 40
1.420356496317887
 10
251.4809834395759
 20
365.0075021232915
 30
0.0
 10
251.4628342186055
 20
364.9660695142913
 30
0.0
 10
251.4263262694373
 20
364.8827259791556
 30
0.0
 10
251.3272243530455
 20
364.6189518660304
 30
0.0
 10
251.237121403275
 20
364.1861416755219
 30
0.0
 10
251.3320885513494
 20
363.8112727474305
 30
0.0
 10
251.3795721338016
 20
363.6238382838001
 30
0.0
 11
251.4809834395759
 21
365.0075021232915
 31
0.0
 11
251.4276655508715
 21
364.8827939909055
 31
0.0
 11
251.379572133802
 21
364.7543062331504
 31
0.0
 11
251.2809834395759
 21
364.1890722584752
 31
0.0
 11
251.3795721338016
 21
363.6238382838001
 31
0.0
  0
SPLINE
  5
16A
330
56
100
AcDbEntity
  8
1
  6
Continuous
 62
     7
100
AcDbSpline
210
0.0
220
0.0
230
1.0
 70
     8
 71
     3
 72
    27
 73
    23
 74
    21
 42
0.000000001
 43
0.0000000001
 44
0.00000001
 40
0.0
 40
0.0
 40
0.0
 40
0.0
 40
0.41560432450242
 40
0.8312087878733581
 40
3.377468266125883
 40
5.92372869217218
 40
8.48969503234347
 40
11.05566259218292
 40
13.64569264238911
 40
16.23572424324764
 40
18.85474947859167
 40
21.47377668927098
 40
24.12745285827808
 40
26.78113149024418
 40
29.4760270907353
 40
32.17092599261962
 40
34.91476593802238
 40
37.6586093781868
 40
40.46059241272437
 40
43.26258297838961
 40
44.60588555383472
 40
45.94919034343079
 40
45.94919034343079
 40
45.94919034343079
 40
45.94919034343079
 10
249.800232203784
 20
731.8130094355083
 30
0.0
 10
249.6636423896636
 20
731.8361426168016
 30
0.0
 10
249.3904627181939
 20
731.8824090012987
 30
0.0
 10
248.2811411679388
 20
732.0744618472875
 30
0.0
 10
246.4751858959573
 20
732.4060976426953
 30
0.0
 10
243.9729563198535
 20
732.912524601078
 30
0.0
 10
241.4739059214401
 20
733.4657001881671
 30
0.0
 10
238.9712611621577
 20
734.0681388865964
 30
0.0
 10
236.4724861796917
 20
734.7190477112287
 30
0.0
 10
233.9693873782778
 20
735.4216982776833
 30
0.0
 10
231.470905814447
 20
736.1748274994868
 30
0.0
 10
228.9672921058089
 20
736.9827386330713
 30
0.0
 10
226.4691303798596
 20
737.8435226673437
 30
0.0
 10
223.964926944285
 20
738.7627778329734
 30
0.0
 10
221.4671172731554
 20
739.7377511828186
 30
0.0
 10
218.96223361717
 20
740.775670874407
 30
0.0
 10
216.4648114978861
 20
741.8726797609331
 30
0.0
 10
213.9591524901491
 20
743.0381138513151
 30
0.0
 10
211.4620970877273
 20
744.2664891549277
 30
0.0
 10
209.4076189448846
 20
745.3354908929241
 30
0.0
 10
207.7982258177032
 20
746.2056698793191
 30
0.0
 10
207.0163638615767
 20
746.6423542569844
 30
0.0
 10
206.6254325648542
 20
746.860696632106
 30
0.0
 11
249.800232203784
 21
731.8130094355083
 31
0.0
 11
249.3905055346945
 21
731.882658635687
 31
0.0
 11
248.9809834395704
 21
731.9535015852639
 31
0.0
 11
246.4766436776702
 21
732.4136316604391
 31
0.0
 11
243.9809834395706
 21
732.9187278218373
 31
0.0
 11
241.4756760348082
 21
733.4733610936473
 31
0.0
 11
238.9809834395705
 21
734.0739427896208
 31
0.0
 11
236.4746107420648
 21
734.7268988085433
 31
0.0
 11
233.9809834395704
 21
735.4269606418472
 31
0.0
 11
231.4734255368101
 21
736.1829014785962
 31
0.0
 11
228.9809834395705
 21
736.9872869106918
 31
0.0
 11
226.4720941055111
 21
737.8518512638691
 31
0.0
 11
223.9809834395706
 21
738.7663882687699
 31
0.0
 11
221.4705847386408
 21
739.7463681979838
 31
0.0
 11
218.9809834395706
 21
740.7780490909643
 31
0.0
 11
216.4688583913318
 21
741.8816275386167
 31
0.0
 11
213.9809834395705
 21
743.0388462088858
 31
0.0
 11
211.466866185897
 21
744.2759086014918
 31
0.0
 11
208.9809834395705
 21
745.5687883733385
 31
0.0
 11
207.7997059594424
 21
746.208354886523
 31
0.0
 11
206.6254325648542
 21
746.860696632106
 31
0.0
  0
SPLINE
  5
16B
330
56
100
AcDbEntity
  8
1
  6
Continuous
 62
     7
100
AcDbSpline
210
0.0
220
0.0
230
1.0
 70
     8
 71
     3
 72
    27
 73
    23
 74
    21
 42
0.000000001
 43
0.0000000001
 44
0.00000001
 40
0.0
 40
0.0
 40
0.0
 40
0.0
 40
1.343304789590906
 40
2.686607365041561
 40
5.488597930706598
 40
8.29058096524411
 40
11.03442440540853
 40
13.7782643508116
 40
16.47316325269581
 40
19.16805885318694
 40
21.82173748515309
 40
24.47541365416023
 40
27.09444086483932
 40
29.71346610018328
 40
32.30349770104189
 40
34.89352775124819
 40
37.45949531108747
 40
40.02546165125868
 40
42.57172207730505
 40
45.1179815555577
 40
45.53358601892734
 40
45.94919034342794
 40
45.94919034342794
 40
45.94919034342794
 40
45.94919034342794
 10
341.3365343142873
 20
746.8606966321058
 30
0.0
 10
340.9456030175663
 20
746.642354256985
 30
0.0
 10
340.1637410614395
 20
746.2056698793201
 30
0.0
 10
338.554347934258
 20
745.335490892925
 30
0.0
 10
336.4998697914136
 20
744.2664891549277
 30
0.0
 10
334.002814388992
 20
743.0381138513153
 30
0.0
 10
331.4971553812547
 20
741.8726797609338
 30
0.0
 10
328.9997332619712
 20
740.7756708744063
 30
0.0
 10
326.4948496059856
 20
739.7377511828189
 30
0.0
 10
323.997039934856
 20
738.7627778329733
 30
0.0
 10
321.4928364992815
 20
737.8435226673434
 30
0.0
 10
318.9946747733319
 20
736.9827386330717
 30
0.0
 10
316.4910610646941
 20
736.1748274994866
 30
0.0
 10
313.9925795008633
 20
735.4216982776833
 30
0.0
 10
311.4894806994494
 20
734.7190477112285
 30
0.0
 10
308.9907057169834
 20
734.0681388865964
 30
0.0
 10
306.4880609577012
 20
733.4657001881669
 30
0.0
 10
303.9890105592876
 20
732.9125246010788
 30
0.0
 10
301.4867809831841
 20
732.4060976426942
 30
0.0
 10
299.6808257112025
 20
732.0744618472881
 30
0.0
 10
298.5715041609486
 20
731.882409001299
 30
0.0
 10
298.2983244894799
 20
731.8361426168021
 30
0.0
 10
298.1617346753601
 20
731.813009435509
 30
0.0
 11
341.3365343142873
 21
746.8606966321058
 31
0.0
 11
340.1622609197034
 21
746.2083548865256
 31
0.0
 11
338.9809834395704
 21
745.5687883733385
 31
0.0
 11
336.495100693244
 21
744.275908601492
 31
0.0
 11
333.9809834395706
 21
743.0388462088861
 31
0.0
 11
331.4931084878092
 21
741.8816275386171
 31
0.0
 11
328.9809834395703
 21
740.778049090964
 31
0.0
 11
326.4913821405002
 21
739.7463681979838
 31
0.0
 11
323.9809834395704
 21
738.7663882687698
 31
0.0
 11
321.4898727736298
 21
737.851851263869
 31
0.0
 11
318.9809834395704
 21
736.9872869106919
 31
0.0
 11
316.488541342331
 21
736.1829014785964
 31
0.0
 11
313.9809834395708
 21
735.4269606418472
 31
0.0
 11
311.4873561370763
 21
734.7268988085433
 31
0.0
 11
308.9809834395705
 21
734.0739427896208
 31
0.0
 11
306.4862908443329
 21
733.4733610936473
 31
0.0
 11
303.9809834395707
 21
732.9187278218374
 31
0.0
 11
301.485323201471
 21
732.413631660439
 31
0.0
 11
298.9809834395707
 21
731.953501585264
 31
0.0
 11
298.5714613444478
 21
731.8826586356874
 31
0.0
 11
298.1617346753601
 21
731.813009435509
 31
0.0
  0
ARC
  5
16C
330
56
100
AcDbEntity
  8
1
  6
Continuous
 62
     7
100
AcDbCircle
 10
213.9809834395757
 20
356.8001833695852
 30
0.0
 40
15.0
100
AcDbArc
 50
180.0000000000017
 51
270.0
  0
ARC
  5
16D
330
56
100
AcDbEntity
  8
1
  6
Continuous
 62
     7
100
AcDbCircle
 10
333.9809834395716
 20
356.8001833695852
 30
0.0
 40
15.00000000000045
100
AcDbArc
 50
270.0
 51
359.9999999999983
  0
ARC
  5
16E
330
56
100
AcDbEntity
  8
1
  6
Continuous
 62
     7
100
AcDbCircle
 10
333.9809834395703
 20
759.9334113971981
 30
0.0
 40
15.00000000000041
100
AcDbArc
 50
299.3649073348685
 51
0.0
  0
ARC
  5
16F
330
56
100
AcDbEntity
  8
1
  6
Continuous
 62
     7
100
AcDbCircle
 10
213.9809834395705
 20
759.9334113971981
 30
0.0
 40
15.0
100
AcDbArc
 50
179.9999999999996
 51
240.6350926651334
  0
ENDBLK
  5
58
330
56
100
AcDbEntity
  8
0
100
AcDbBlockEnd
  0
BLOCK
  5
5A
330
59
100
AcDbEntity
  8
0
100
AcDbBlockBegin
  2
82-20-M21
 70
     0
 10
743.32081403103
 20
1078.922963702339
 30
0.0
  3
82-20-M21
  1

  0
LINE
  5
170
330
59
100
AcDbEntity
  8
0
  6
Continuous
 62
     7
100
AcDbLine
 10
286.4809834395734
 20
386.4014973408227
 30
0.0
 11
261.4809834395734
 21
386.4014973408227
 31
0.0
  0
LINE
  5
171
330
59
100
AcDbEntity
  8
1
  6
Continuous
 62
     7
100
AcDbLine
 10
286.2809834395736
 20
396.4014973408227
 30
0.0
 11
261.6809834395735
 21
396.4014973408227
 31
0.0
  0
LINE
  5
172
330
59
100
AcDbEntity
  8
1
  6
Continuous
 62
     7
100
AcDbLine
 10
284.7266820268195
 20
382.9014973408227
 30
0.0
 11
263.2352848523275
 21
382.9014973408227
 31
0.0
  0
LINE
  5
173
330
59
100
AcDbEntity
  8
1
  6
Continuous
 62
     7
100
AcDbLine
 10
261.4809834395734
 20
396.2014973408227
 30
0.0
 11
261.4809834395734
 21
386.4014973408227
 31
0.0
  0
LINE
  5
174
330
59
100
AcDbEntity
  8
1
  6
Continuous
 62
     7
100
AcDbLine
 10
261.4809834395734
 20
386.4014973408227
 30
0.0
 11
262.2737609046875
 21
383.6267762129257
 31
0.0
  0
LINE
  5
175
330
59
100
AcDbEntity
  8
1
  6
Continuous
 62
     7
100
AcDbLine
 10
286.4809834395734
 20
386.4014973408227
 30
0.0
 11
285.6882059744604
 21
383.6267762129257
 31
0.0
  0
LINE
  5
176
330
59
100
AcDbEntity
  8
1
  6
Continuous
 62
     7
100
AcDbLine
 10
286.4809834395734
 20
396.2014973408227
 30
0.0
 11
286.4809834395734
 21
386.4014973408227
 31
0.0
  0
LINE
  5
177
330
59
100
AcDbEntity
  8
1
  6
Continuous
 62
     7
100
AcDbLine
 10
519.999999999998
 20
396.2383468981308
 30
0.0
 11
519.999999999998
 21
386.4383468981307
 31
0.0
  0
LINE
  5
178
330
59
100
AcDbEntity
  8
1
  6
Continuous
 62
     7
100
AcDbLine
 10
519.999999999998
 20
386.4383468981307
 30
0.0
 11
519.2072225348843
 21
383.6636257702334
 31
0.0
  0
LINE
  5
179
330
59
100
AcDbEntity
  8
1
  6
Continuous
 62
     7
100
AcDbLine
 10
494.999999999998
 20
386.4383468981307
 30
0.0
 11
495.7927774651114
 21
383.6636257702334
 31
0.0
  0
LINE
  5
17A
330
59
100
AcDbEntity
  8
1
  6
Continuous
 62
     7
100
AcDbLine
 10
494.999999999998
 20
396.2383468981308
 30
0.0
 11
494.999999999998
 21
386.4383468981307
 31
0.0
  0
LINE
  5
17B
330
59
100
AcDbEntity
  8
1
  6
Continuous
 62
     7
100
AcDbLine
 10
495.1999999999979
 20
396.4383468981307
 30
0.0
 11
518.499999999998
 21
396.4383468981307
 31
0.0
  0
LINE
  5
17C
330
59
100
AcDbEntity
  8
1
  6
Continuous
 62
     7
100
AcDbLine
 10
496.7543014127523
 20
382.9383468981307
 30
0.0
 11
518.2456985872434
 21
382.9383468981307
 31
0.0
  0
LINE
  5
17D
330
59
100
AcDbEntity
  8
1
  6
Continuous
 62
     7
100
AcDbLine
 10
518.499999999998
 20
396.4383468981307
 30
0.0
 11
519.7999999999979
 21
396.4383468981307
 31
0.0
  0
LINE
  5
17E
330
59
100
AcDbEntity
  8
1
  6
Continuous
 62
     7
100
AcDbLine
 10
519.999999999998
 20
386.4383468981307
 30
0.0
 11
494.999999999998
 21
386.4383468981307
 31
0.0
  0
ARC
  5
17F
330
59
100
AcDbEntity
  8
1
  6
Continuous
 62
     7
100
AcDbCircle
 10
284.7266820268195
 20
383.9014973408227
 30
0.0
 40
1.0
100
AcDbArc
 50
270.0
 51
344.0546040990986
  0
ARC
  5
180
330
59
100
AcDbEntity
  8
1
  6
Continuous
 62
     7
100
AcDbCircle
 10
263.2352848523275
 20
383.9014973408227
 30
0.0
 40
0.9999999999990971
100
AcDbArc
 50
195.9453959009157
 51
270.0
  0
ARC
  5
181
330
59
100
AcDbEntity
  8
1
  6
Continuous
 62
     7
100
AcDbCircle
 10
286.2809834395736
 20
396.2014973408227
 30
0.0
 40
0.1999999999997613
100
AcDbArc
 50
0.0
 51
90.0
  0
ARC
  5
182
330
59
100
AcDbEntity
  8
1
  6
Continuous
 62
     7
100
AcDbCircle
 10
261.6809834395735
 20
396.2014973408227
 30
0.0
 40
0.1999999999999886
100
AcDbArc
 50
90.0
 51
180.0
  0
ARC
  5
183
330
59
100
AcDbEntity
  8
1
  6
Continuous
 62
     7
100
AcDbCircle
 10
495.1999999999979
 20
396.2383468981308
 30
0.0
 40
0.1999999999998749
100
AcDbArc
 50
90.0
 51
180.0
  0
ARC
  5
184
330
59
100
AcDbEntity
  8
1
  6
Continuous
 62
     7
100
AcDbCircle
 10
519.7999999999979
 20
396.2383468981308
 30
0.0
 40
0.2000000000000455
100
AcDbArc
 50
0.0
 51
90.0
  0
ARC
  5
185
330
59
100
AcDbEntity
  8
1
  6
Continuous
 62
     7
100
AcDbCircle
 10
496.7543014127523
 20
383.9383468981307
 30
0.0
 40
1.00000000000005
100
AcDbArc
 50
195.945395900917
 51
270.0
  0
ARC
  5
186
330
59
100
AcDbEntity
  8
1
  6
Continuous
 62
     7
100
AcDbCircle
 10
518.2456985872434
 20
383.9383468981307
 30
0.0
 40
1.0
100
AcDbArc
 50
270.0
 51
344.054604099083
  0
ENDBLK
  5
5B
330
59
100
AcDbEntity
  8
0
100
AcDbBlockEnd
  0
BLOCK
  5
5D
330
5C
100
AcDbEntity
  8
0
100
AcDbBlockBegin
  2
61-129B-M1
 70
     0
 10
60.0
 20
1461.0
 30
0.0
  3
61-129B-M1
  1

  0
LINE
  5
187
330
5C
100
AcDbEntity
  8
1
  6
Continuous
 62
     7
100
AcDbLine
 10
261.4809834395734
 20
708.7290417902925
 30
0.0
 11
261.4809834395734
 21
682.8294691553102
 31
0.0
  0
LINE
  5
188
330
5C
100
AcDbEntity
  8
1
  6
Continuous
 62
     7
100
AcDbLine
 10
286.4809834395734
 20
682.8294691553301
 30
0.0
 11
286.4809834395734
 21
708.7290417902492
 31
0.0
  0
LINE
  5
189
330
5C
100
AcDbEntity
  8
1
  6
Continuous
 62
     7
100
AcDbLine
 10
269.2409834395739
 20
542.7963140847103
 30
0.0
 11
278.720983439574
 21
542.796314084711
 31
0.0
  0
LINE
  5
18A
330
5C
100
AcDbEntity
  8
1
  6
Continuous
 62
     7
100
AcDbLine
 10
286.4809834395734
 20
550.556314084711
 30
0.0
 11
286.4809834395734
 21
670.787688373755
 31
0.0
  0
LINE
  5
18B
330
5C
100
AcDbEntity
  8
1
  6
Continuous
 62
     7
100
AcDbLine
 10
730.0000000000084
 20
370.4390722584784
 30
0.0
 11
730.0000000000209
 21
386.300183369585
 31
0.0
  0
LINE
  5
18C
330
5C
100
AcDbEntity
  8
1
  6
Continuous
 62
     7
100
AcDbLine
 10
287.9809834395702
 20
395.4014973408226
 30
0.0
 11
287.9809834395709
 21
370.6278184917235
 31
0.0
  0
LINE
  5
18D
330
5C
100
AcDbEntity
  8
1
  6
Continuous
 62
     7
100
AcDbLine
 10
287.9809834395702
 20
395.4014973408226
 30
0.0
 11
286.4809834395695
 21
395.4014973408226
 31
0.0
  0
LINE
  5
18E
330
5C
100
AcDbEntity
  8
1
  6
Continuous
 62
     7
100
AcDbLine
 10
259.9809834395703
 20
395.4014973408226
 30
0.0
 11
259.9809834395712
 21
370.6278184917235
 31
0.0
  0
LINE
  5
18F
330
5C
100
AcDbEntity
  8
1
  6
Continuous
 62
     7
100
AcDbLine
 10
259.9809834395703
 20
395.4014973408226
 30
0.0
 11
261.4809834395695
 21
395.4014973408226
 31
0.0
  0
LINE
  5
190
330
5C
100
AcDbEntity
  8
1
  6
Continuous
 62
     7
100
AcDbLine
 10
259.9809834395704
 20
406.1414973408232
 30
0.0
 11
259.9809834395702
 21
396.9014973408226
 31
0.0
  0
LINE
  5
191
330
5C
100
AcDbEntity
  8
1
  6
Continuous
 62
     7
100
AcDbLine
 10
287.9809834395702
 20
406.1414973408232
 30
0.0
 11
287.9809834395702
 21
396.9014973408226
 31
0.0
  0
LINE
  5
192
330
5C
100
AcDbEntity
  8
1
  6
Continuous
 62
     7
100
AcDbLine
 10
267.7409834395705
 20
413.9014973408226
 30
0.0
 11
280.2209834395704
 21
413.9014973408226
 31
0.0
  0
LINE
  5
193
330
5C
100
AcDbEntity
  8
1
  6
Continuous
 62
     7
100
AcDbLine
 10
259.9809834395702
 20
396.9014973408226
 30
0.0
 11
287.9809834395702
 21
396.9014973408226
 31
0.0
  0
LINE
  5
194
330
5C
100
AcDbEntity
  8
1
  6
Continuous
 62
     7
100
AcDbLine
 10
296.4809834395707
 20
386.2614973408225
 30
0.0
 11
296.4809834395707
 21
374.9014973408227
 31
0.0
  0
LINE
  5
195
330
5C
100
AcDbEntity
  8
1
  6
Continuous
 62
     7
100
AcDbLine
 10
251.9809834395707
 20
386.7614973408225
 30
0.0
 11
252.4809834395707
 21
386.7614973408225
 31
0.0
  0
LINE
  5
196
330
5C
100
AcDbEntity
  8
1
  6
Continuous
 62
     7
100
AcDbLine
 10
251.4809834395707
 20
373.1514973408226
 30
0.0
 11
251.4809834395707
 21
377.4014973408226
 31
0.0
  0
LINE
  5
197
330
5C
100
AcDbEntity
  8
1
  6
Continuous
 62
     7
100
AcDbLine
 10
251.4809834395707
 20
383.468956150644
 30
0.0
 11
251.4809834395707
 21
386.2614973408225
 31
0.0
  0
LINE
  5
198
330
5C
100
AcDbEntity
  8
1
  6
Continuous
 62
     7
100
AcDbLine
 10
251.4809834395707
 20
377.4014973408226
 30
0.0
 11
251.4809834395707
 21
383.468956150644
 31
0.0
  0
LINE
  5
199
330
5C
100
AcDbEntity
  8
1
  6
Continuous
 62
     7
100
AcDbLine
 10
251.4809834395707
 20
373.1514973408226
 30
0.0
 11
251.4809834395757
 21
363.3706423936583
 31
0.0
  0
LINE
  5
19A
330
5C
100
AcDbEntity
  8
1
  6
Continuous
 62
     7
100
AcDbLine
 10
252.4809834395707
 20
386.7614973408225
 30
0.0
 11
259.9809834395707
 21
386.7614973408225
 31
0.0
  0
LINE
  5
19B
330
5C
100
AcDbEntity
  8
1
  6
Continuous
 62
     7
100
AcDbLine
 10
287.9809834395702
 20
396.9014973408226
 30
0.0
 11
287.9809834395702
 21
395.4014973408226
 31
0.0
  0
LINE
  5
19C
330
5C
100
AcDbEntity
  8
1
  6
Continuous
 62
     7
100
AcDbLine
 10
259.9809834395702
 20
396.9014973408226
 30
0.0
 11
259.9809834395703
 21
395.4014973408226
 31
0.0
  0
LINE
  5
19D
330
5C
100
AcDbEntity
  8
1
  6
Continuous
 62
     7
100
AcDbLine
 10
287.9809834395707
 20
386.7614973408226
 30
0.0
 11
295.9809834395707
 21
386.7614973408225
 31
0.0
  0
LINE
  5
19E
330
5C
100
AcDbEntity
  8
1
  6
Continuous
 62
     7
100
AcDbLine
 10
684.9999999999983
 20
367.1001833695848
 30
0.0
 11
684.9999999999982
 21
357.9390722584755
 31
0.0
  0
LINE
  5
19F
330
5C
100
AcDbEntity
  8
1
  6
PHANTOM
 62
     4
100
AcDbLine
 10
687.9302868463064
 20
374.6475311484725
 30
0.0
 11
556.7637820950381
 21
403.4286733652402
 31
0.0
  0
LINE
  5
1A0
330
5C
100
AcDbEntity
  8
1
  6
Continuous
 62
     7
100
AcDbLine
 10
521.4999999999982
 20
396.9383468981307
 30
0.0
 11
520.5019346424351
 21
396.9383468981304
 31
0.0
  0
LINE
  5
1A1
330
5C
100
AcDbEntity
  8
1
  6
Continuous
 62
     7
100
AcDbLine
 10
521.4999999999982
 20
397.9383468981304
 30
0.0
 11
521.4999999999982
 21
396.9383468981307
 31
0.0
  0
LINE
  5
1A2
330
5C
100
AcDbEntity
  8
1
  6
Continuous
 62
     7
100
AcDbLine
 10
517.4999999999973
 20
396.9383468981307
 30
0.0
 11
517.4999999999973
 21
396.4383468981307
 31
0.0
  0
LINE
  5
1A3
330
5C
100
AcDbEntity
  8
1
  6
Continuous
 62
     7
100
AcDbLine
 10
520.5019346424351
 20
396.9383468981304
 30
0.0
 11
517.4999999999973
 21
396.9383468981307
 31
0.0
  0
LINE
  5
1A4
330
5C
100
AcDbEntity
  8
1
  6
Continuous
 62
     7
100
AcDbLine
 10
497.4999999999973
 20
396.4383468981307
 30
0.0
 11
497.4999999999973
 21
396.9383468981307
 31
0.0
  0
LINE
  5
1A5
330
5C
100
AcDbEntity
  8
1
  6
Continuous
 62
     7
100
AcDbLine
 10
497.4999999999973
 20
396.9383468981307
 30
0.0
 11
493.4961307151243
 21
396.9383468981307
 31
0.0
  0
LINE
  5
1A6
330
5C
100
AcDbEntity
  8
1
  6
Continuous
 62
     7
100
AcDbLine
 10
726.9999999999982
 20
386.8001833695855
 30
0.0
 11
729.4999999999982
 21
386.8001833695855
 31
0.0
  0
LINE
  5
1A7
330
5C
100
AcDbEntity
  8
1
  6
Continuous
 62
     7
100
AcDbLine
 10
684.9999999999982
 20
383.4808322676503
 30
0.0
 11
684.9999999999982
 21
386.3001833695855
 31
0.0
  0
LINE
  5
1A8
330
5C
100
AcDbEntity
  8
1
  6
Continuous
 62
     7
100
AcDbLine
 10
493.4961307151242
 20
397.9383468981304
 30
0.0
 11
521.4999999999982
 21
397.9383468981304
 31
0.0
  0
LINE
  5
1A9
330
5C
100
AcDbEntity
  8
1
  6
Continuous
 62
     7
100
AcDbLine
 10
493.4961307151234
 20
409.4383468981304
 30
0.0
 11
493.4961307151242
 21
397.9383468981304
 31
0.0
  0
LINE
  5
1AA
330
5C
100
AcDbEntity
  8
1
  6
DASH_CENTER
 62
     4
100
AcDbLine
 10
490.4980653575603
 20
405.9383468981304
 30
0.0
 11
533.6166219698184
 21
405.9383468981304
 31
0.0
  0
LINE
  5
1AB
330
5C
100
AcDbEntity
  8
1
  6
PHANTOM
 62
     4
100
AcDbLine
 10
507.4999999999982
 20
414.9383468981304
 30
0.0
 11
507.4999999999982
 21
380.6872627869705
 31
0.0
  0
LINE
  5
1AC
330
5C
100
AcDbEntity
  8
1
  6
PHANTOM
 62
     4
100
AcDbLine
 10
684.2499999999986
 20
372.9001833695861
 30
0.0
 11
687.2499999999986
 21
372.9001833695861
 31
0.0
  0
LINE
  5
1AD
330
5C
100
AcDbEntity
  8
1
  6
Continuous
 62
     7
100
AcDbLine
 10
555.0491776413191
 20
395.6145751084168
 30
0.0
 11
684.9999999999983
 21
367.1001833695848
 31
0.0
  0
LINE
  5
1AE
330
5C
100
AcDbEntity
  8
1
  6
Continuous
 62
     7
100
AcDbLine
 10
497.9961307151234
 20
413.9383468981304
 30
0.0
 11
533.6166219698196
 21
413.9383468981304
 31
0.0
  0
LINE
  5
1AF
330
5C
100
AcDbEntity
  8
1
  6
Continuous
 62
     7
100
AcDbLine
 10
521.4999999999982
 20
397.9383468981304
 30
0.0
 11
533.6166219698196
 21
397.9383468981304
 31
0.0
  0
LINE
  5
1B0
330
5C
100
AcDbEntity
  8
1
  6
Continuous
 62
     7
100
AcDbLine
 10
684.9999999999983
 20
367.1001833695848
 30
0.0
 11
684.9999999999982
 21
383.4808322676503
 31
0.0
  0
LINE
  5
1B1
330
5C
100
AcDbEntity
  8
1
  6
Continuous
 62
     7
100
AcDbLine
 10
685.4999999999982
 20
386.8001833695855
 30
0.0
 11
726.9999999999982
 21
386.8001833695855
 31
0.0
  0
LINE
  5
1B2
330
5C
100
AcDbEntity
  8
1
  6
PHANTOM
 62
     4
100
AcDbLine
 10
707.4999999999982
 20
390.2501833695855
 30
0.0
 11
707.4999999999982
 21
354.2501833695851
 31
0.0
  0
LINE
  5
1B3
330
5C
100
AcDbEntity
  8
1
  6
PHANTOM
 62
     4
100
AcDbLine
 10
273.9809834395709
 20
417.9014973408225
 30
0.0
 11
273.9809834395698
 21
355.8448306741577
 31
0.0
  0
LINE
  5
1B4
330
5C
100
AcDbEntity
  8
1
  6
Continuous
 62
     7
100
AcDbLine
 10
558.4783865487593
 20
411.2427716220627
 30
0.0
 11
684.9999999999982
 21
383.4808322676503
 31
0.0
  0
LINE
  5
1B5
330
5C
100
AcDbEntity
  8
1
  6
Continuous
 62
     7
100
AcDbLine
 10
493.4961307151242
 20
397.9383468981304
 30
0.0
 11
493.4961307151243
 21
396.9383468981307
 31
0.0
  0
LINE
  5
1B6
330
5C
100
AcDbEntity
  8
1
  6
Continuous
 62
     7
100
AcDbLine
 10
497.4999999999973
 20
396.9383468981307
 30
0.0
 11
517.4999999999973
 21
396.9383468981307
 31
0.0
  0
LINE
  5
1B7
330
5C
100
AcDbEntity
  8
1
  6
Continuous
 62
     7
100
AcDbLine
 10
251.4809834395745
 20
365.6088160945263
 30
0.0
 11
251.4809834395707
 21
365.4158186879392
 31
0.0
  0
LINE
  5
1B8
330
5C
100
AcDbEntity
  8
1
  6
Continuous
 62
     7
100
AcDbLine
 10
261.4809834395734
 20
670.7876883734348
 30
0.0
 11
261.4809834395734
 21
550.5563140847103
 31
0.0
  0
LINE
  5
1B9
330
5C
100
AcDbEntity
  8
1
  6
Continuous
 62
     7
100
AcDbLine
 10
251.4809834395745
 20
365.6088160945263
 30
0.0
 11
251.4809834395753
 21
364.0
 31
0.0
  0
LINE
  5
1BA
330
5C
100
AcDbEntity
  8
1
  6
Continuous
 62
     7
100
AcDbLine
 10
296.4809834395755
 20
363.3706423936548
 30
0.0
 11
296.4809834395707
 21
374.9014973408227
 31
0.0
  0
ARC
  5
1BB
330
5C
100
AcDbEntity
  8
1
  6
Continuous
 62
     7
100
AcDbCircle
 10
273.980983439571
 20
295.5291500614517
 30
0.0
 40
72.89999999999914
100
AcDbArc
 50
81.6669170037091
 51
98.33308299629081
  0
ARC
  5
1BC
330
5C
100
AcDbEntity
  8
1
  6
Continuous
 62
     7
100
AcDbCircle
 10
533.6166219698196
 20
297.9383468981303
 30
0.0
 40
99.99999999999946
100
AcDbArc
 50
77.62403778207236
 51
90.0
  0
ARC
  5
1BD
330
5C
100
AcDbEntity
  8
1
  6
Continuous
 62
     7
100
AcDbCircle
 10
533.6166219698196
 20
297.9383468981303
 30
0.0
 40
115.9999999999995
100
AcDbArc
 50
77.62403778207226
 51
90.0
  0
ARC
  5
1BE
330
5C
100
AcDbEntity
  8
1
  6
Continuous
 62
     7
100
AcDbCircle
 10
269.2409834395734
 20
550.5563140847103
 30
0.0
 40
7.760000000000048
100
AcDbArc
 50
180.0
 51
270.0000000000034
  0
ARC
  5
1BF
330
5C
100
AcDbEntity
  8
1
  6
Continuous
 62
     7
100
AcDbCircle
 10
278.7209834395734
 20
550.556314084711
 30
0.0
 40
7.759999999999991
100
AcDbArc
 50
270.0000000000047
 51
0.0
  0
ARC
  5
1C0
330
5C
100
AcDbEntity
  8
1
  6
Continuous
 62
     7
100
AcDbCircle
 10
267.7409834395706
 20
406.1414973408232
 30
0.0
 40
7.759999999999366
100
AcDbArc
 50
90.00000000000043
 51
180.0
  0
ARC
  5
1C1
330
5C
100
AcDbEntity
  8
1
  6
Continuous
 62
     7
100
AcDbCircle
 10
280.2209834395705
 20
406.1414973408232
 30
0.0
 40
7.759999999999707
100
AcDbArc
 50
0.0
 51
90.00000000000084
  0
ARC
  5
1C2
330
5C
100
AcDbEntity
  8
1
  6
Continuous
 62
     7
100
AcDbCircle
 10
295.9809834395707
 20
386.2614973408225
 30
0.0
 40
0.5
100
AcDbArc
 50
0.0
 51
90.0
  0
ARC
  5
1C3
330
5C
100
AcDbEntity
  8
1
  6
Continuous
 62
     7
100
AcDbCircle
 10
295.9809834395707
 20
386.2614973408225
 30
0.0
 40
0.5
100
AcDbArc
 50
0.0
 51
90.0
  0
ARC
  5
1C4
330
5C
100
AcDbEntity
  8
1
  6
Continuous
 62
     7
100
AcDbCircle
 10
251.9809834395707
 20
386.2614973408225
 30
0.0
 40
0.5
100
AcDbArc
 50
90.0
 51
180.0
  0
ARC
  5
1C5
330
5C
100
AcDbEntity
  8
1
  6
Continuous
 62
     7
100
AcDbCircle
 10
262.9809834395712
 20
370.6278184917235
 30
0.0
 40
3.0
100
AcDbArc
 50
180.0
 51
278.3330829962887
  0
ARC
  5
1C6
330
5C
100
AcDbEntity
  8
1
  6
Continuous
 62
     7
100
AcDbCircle
 10
284.9809834395709
 20
370.6278184917235
 30
0.0
 40
3.000000000000194
100
AcDbArc
 50
261.6669170037113
 51
0.0
  0
ARC
  5
1C7
330
5C
100
AcDbEntity
  8
1
  6
Continuous
 62
     7
100
AcDbCircle
 10
729.4999999999982
 20
386.3001833695855
 30
0.0
 40
0.5
100
AcDbArc
 50
0.0
 51
90.0
  0
ARC
  5
1C8
330
5C
100
AcDbEntity
  8
1
  6
Continuous
 62
     7
100
AcDbCircle
 10
729.4999999999982
 20
386.3001833695855
 30
0.0
 40
0.5000000000227374
100
AcDbArc
 50
359.9999999999414
 51
90.0
  0
ARC
  5
1C9
330
5C
100
AcDbEntity
  8
1
  6
Continuous
 62
     7
100
AcDbCircle
 10
685.4999999999982
 20
386.3001833695855
 30
0.0
 40
0.5
100
AcDbArc
 50
90.0
 51
180.0
  0
ARC
  5
1CA
330
5C
100
AcDbEntity
  8
1
  6
Continuous
 62
     7
100
AcDbCircle
 10
497.9961307151234
 20
409.4383468981304
 30
0.0
 40
4.5
100
AcDbArc
 50
90.0
 51
180.0
  0
ARC
  5
1CB
330
5C
100
AcDbEntity
  8
1
  6
PHANTOM
 62
     4
100
AcDbCircle
 10
533.6166219698182
 20
297.9383468981301
 30
0.0
 40
108.0000000000002
100
AcDbArc
 50
77.62403778207226
 51
89.99999999999989
  0
ENDBLK
  5
5E
330
5C
100
AcDbEntity
  8
0
100
AcDbBlockEnd
  0
BLOCK
  5
60
330
5F
100
AcDbEntity
  8
0
100
AcDbBlockBegin
  2
開示A4
 70
     0
 10
2.5
 20
0.0
 30
0.0
  3
開示A4
  1

  0
POINT
  5
1CC
330
5F
100
AcDbEntity
  8
1
 62
     4
100
AcDbPoint
 10
36.5
 20
34.00000000000001
 30
0.0
  0
POINT
  5
1CD
330
5F
100
AcDbEntity
  8
1
 62
     4
100
AcDbPoint
 10
59.5
 20
12.25
 30
0.0
  0
POINT
  5
1CE
330
5F
100
AcDbEntity
  8
1
 62
     4
100
AcDbPoint
 10
59.5
 20
20.75000000000001
 30
0.0
  0
POINT
  5
1CF
330
5F
100
AcDbEntity
  8
1
 62
     4
100
AcDbPoint
 10
59.5
 20
24.75000000000001
 30
0.0
  0
POINT
  5
1D0
330
5F
100
AcDbEntity
  8
1
 62
     4
100
AcDbPoint
 10
59.5
 20
16.25
 30
0.0
  0
POINT
  5
1D1
330
5F
100
AcDbEntity
  8
1
 62
     4
100
AcDbPoint
 10
160.0
 20
19.00000000000001
 30
0.0
  0
POINT
  5
1D2
330
5F
100
AcDbEntity
  8
1
 62
     4
100
AcDbPoint
 10
50.0
 20
282.0000000000003
 30
0.0
  0
POINT
  5
1D3
330
5F
100
AcDbEntity
  8
1
 62
     4
100
AcDbPoint
 10
59.5
 20
22.75000000000001
 30
0.0
  0
POINT
  5
1D4
330
5F
100
AcDbEntity
  8
1
 62
     4
100
AcDbPoint
 10
59.5
 20
14.25
 30
0.0
  0
POINT
  5
1D5
330
5F
100
AcDbEntity
  8
1
 62
     4
100
AcDbPoint
 10
160.0
 20
12.5
 30
0.0
  0
POINT
  5
1D6
330
5F
100
AcDbEntity
  8
1
 62
     4
100
AcDbPoint
 10
165.75
 20
12.5
 30
0.0
  0
POINT
  5
1D7
330
5F
100
AcDbEntity
  8
1
 62
     4
100
AcDbPoint
 10
154.25
 20
12.5
 30
0.0
  0
POINT
  5
1D8
330
5F
100
AcDbEntity
  8
1
 62
     4
100
AcDbPoint
 10
137.25
 20
12.5
 30
0.0
  0
POINT
  5
1D9
330
5F
100
AcDbEntity
  8
1
 62
     4
100
AcDbPoint
 10
148.75
 20
12.5
 30
0.0
  0
POINT
  5
1DA
330
5F
100
AcDbEntity
  8
1
 62
     4
100
AcDbPoint
 10
143.0
 20
12.5
 30
0.0
  0
POINT
  5
1DB
330
5F
100
AcDbEntity
  8
1
 62
     4
100
AcDbPoint
 10
143.0
 20
19.00000000000001
 30
0.0
  0
POINT
  5
1DC
330
5F
100
AcDbEntity
  8
1
 62
     4
100
AcDbPoint
 10
120.25
 20
12.5
 30
0.0
  0
POINT
  5
1DD
330
5F
100
AcDbEntity
  8
1
 62
     4
100
AcDbPoint
 10
131.75
 20
12.5
 30
0.0
  0
POINT
  5
1DE
330
5F
100
AcDbEntity
  8
1
 62
     4
100
AcDbPoint
 10
126.0
 20
12.5
 30
0.0
  0
POINT
  5
1DF
330
5F
100
AcDbEntity
  8
1
 62
     4
100
AcDbPoint
 10
126.0
 20
19.00000000000001
 30
0.0
  0
POINT
  5
1E0
330
5F
100
AcDbEntity
  8
1
 62
     4
100
AcDbPoint
 10
103.25
 20
12.5
 30
0.0
  0
POINT
  5
1E1
330
5F
100
AcDbEntity
  8
1
 62
     4
100
AcDbPoint
 10
114.75
 20
12.5
 30
0.0
  0
POINT
  5
1E2
330
5F
100
AcDbEntity
  8
1
 62
     4
100
AcDbPoint
 10
109.0
 20
12.5
 30
0.0
  0
POINT
  5
1E3
330
5F
100
AcDbEntity
  8
1
 62
     4
100
AcDbPoint
 10
109.0
 20
19.00000000000001
 30
0.0
  0
POINT
  5
1E4
330
5F
100
AcDbEntity
  8
1
 62
     4
100
AcDbPoint
 10
87.75
 20
17.0
 30
0.0
  0
POINT
  5
1E5
330
5F
100
AcDbEntity
  8
1
 62
     4
100
AcDbPoint
 10
96.25
 20
17.0
 30
0.0
  0
LINE
  5
1E6
330
5F
100
AcDbEntity
  8
1
  6
Continuous
 62
     2
100
AcDbLine
 10
83.5
 20
27.00000000000001
 30
0.0
 11
83.5
 21
10.0
 31
0.0
  0
LINE
  5
1E7
330
5F
100
AcDbEntity
  8
1
  6
DOT_CENTER
 62
     2
100
AcDbLine
 10
189.5
 20
26.50000000000001
 30
0.0
 11
189.5
 21
20.50000000000001
 31
0.0
  0
LINE
  5
1E8
330
5F
100
AcDbEntity
  8
1
  6
DOT_CENTER
 62
     2
100
AcDbLine
 10
186.5
 20
23.50000000000001
 30
0.0
 11
199.5
 21
23.50000000000001
 31
0.0
  0
LINE
  5
1E9
330
5F
100
AcDbEntity
  8
1
  6
Continuous
 62
     7
100
AcDbLine
 10
198.5
 20
21.50000000000001
 30
0.0
 11
193.5
 21
22.30000000000001
 31
0.0
  0
LINE
  5
1EA
330
5F
100
AcDbEntity
  8
1
  6
Continuous
 62
     7
100
AcDbLine
 10
198.5
 20
25.50000000000001
 30
0.0
 11
198.5
 21
21.50000000000001
 31
0.0
  0
LINE
  5
1EB
330
5F
100
AcDbEntity
  8
1
  6
Continuous
 62
     7
100
AcDbLine
 10
193.5
 20
24.70000000000001
 30
0.0
 11
198.5
 21
25.50000000000001
 31
0.0
  0
LINE
  5
1EC
330
5F
100
AcDbEntity
  8
1
  6
Continuous
 62
     7
100
AcDbLine
 10
193.5
 20
24.70000000000001
 30
0.0
 11
193.5
 21
22.30000000000001
 31
0.0
  0
LINE
  5
1ED
330
5F
100
AcDbEntity
  8
1
  6
Continuous
 62
     2
100
AcDbLine
 10
35.5
 20
27.0
 30
0.0
 11
35.5
 21
10.0
 31
0.0
  0
LINE
  5
1EE
330
5F
100
AcDbEntity
  8
1
  6
Continuous
 62
     2
100
AcDbLine
 10
27.5
 20
18.50000000000001
 30
0.0
 11
83.5
 21
18.50000000000001
 31
0.0
  0
LINE
  5
1EF
330
5F
100
AcDbEntity
  8
1
  6
Continuous
 62
     7
100
AcDbLine
 10
202.5
 20
287.0000000000003
 30
0.0
 11
107.5
 21
287.0000000000003
 31
0.0
  0
LINE
  5
1F0
330
5F
100
AcDbEntity
  8
1
  6
Continuous
 62
     7
100
AcDbLine
 10
202.5
 20
10.0
 30
0.0
 11
202.5
 21
148.5
 31
0.0
  0
LINE
  5
1F1
330
5F
100
AcDbEntity
  8
1
  6
Continuous
 62
     7
100
AcDbLine
 10
27.5
 20
10.0
 30
0.0
 11
107.5
 21
10.0
 31
0.0
  0
LINE
  5
1F2
330
5F
100
AcDbEntity
  8
1
  6
PHANTOM
 62
     4
100
AcDbLine
 10
2.5
 20
297.0
 30
0.0
 11
2.5
 21
0.0
 31
0.0
  0
LINE
  5
1F3
330
5F
100
AcDbEntity
  8
1
  6
PHANTOM
 62
     4
100
AcDbLine
 10
212.5
 20
297.0
 30
0.0
 11
2.5
 21
297.0
 31
0.0
  0
LINE
  5
1F4
330
5F
100
AcDbEntity
  8
1
  6
PHANTOM
 62
     4
100
AcDbLine
 10
212.5
 20
0.0
 30
0.0
 11
212.5
 21
297.0
 31
0.0
  0
LINE
  5
1F5
330
5F
100
AcDbEntity
  8
1
  6
PHANTOM
 62
     4
100
AcDbLine
 10
2.5
 20
0.0
 30
0.0
 11
212.5
 21
0.0
 31
0.0
  0
LINE
  5
1F6
330
5F
100
AcDbEntity
  8
1
  6
Continuous
 62
     7
100
AcDbLine
 10
27.5
 20
41.0
 30
0.0
 11
202.5
 21
41.0
 31
0.0
  0
LINE
  5
1F7
330
5F
100
AcDbEntity
  8
1
  6
Continuous
 62
     7
100
AcDbLine
 10
202.5
 20
27.00000000000001
 30
0.0
 11
27.5
 21
27.00000000000001
 31
0.0
  0
LINE
  5
1F8
330
5F
100
AcDbEntity
  8
1
  6
Continuous
 62
     2
100
AcDbLine
 10
35.5
 20
41.00000000000001
 30
0.0
 11
35.5
 21
27.0
 31
0.0
  0
LINE
  5
1F9
330
5F
100
AcDbEntity
  8
1
  6
Continuous
 62
     2
100
AcDbLine
 10
57.5
 20
287.0000000000003
 30
0.0
 11
57.5
 21
277.0000000000003
 31
0.0
  0
LINE
  5
1FA
330
5F
100
AcDbEntity
  8
1
  6
Continuous
 62
     2
100
AcDbLine
 10
42.5
 20
287.0000000000003
 30
0.0
 11
42.5
 21
277.0000000000003
 31
0.0
  0
LINE
  5
1FB
330
5F
100
AcDbEntity
  8
1
  6
Continuous
 62
     7
100
AcDbLine
 10
27.5
 20
10.0
 30
0.0
 11
27.5
 21
148.5
 31
0.0
  0
LINE
  5
1FC
330
5F
100
AcDbEntity
  8
1
  6
Continuous
 62
     2
100
AcDbLine
 10
57.5
 20
277.0000000000003
 30
0.0
 11
27.5
 21
277.0000000000003
 31
0.0
  0
LINE
  5
1FD
330
5F
100
AcDbEntity
  8
1
  6
Continuous
 62
     2
100
AcDbLine
 10
168.5
 20
27.00000000000001
 30
0.0
 11
168.5
 21
10.0
 31
0.0
  0
LINE
  5
1FE
330
5F
100
AcDbEntity
  8
1
  6
Continuous
 62
     2
100
AcDbLine
 10
134.5
 20
27.00000000000001
 30
0.0
 11
134.5
 21
9.99999999999999
 31
0.0
  0
LINE
  5
1FF
330
5F
100
AcDbEntity
  8
1
  6
Continuous
 62
     2
100
AcDbLine
 10
151.5
 20
27.00000000000001
 30
0.0
 11
151.5
 21
10.0
 31
0.0
  0
LINE
  5
200
330
5F
100
AcDbEntity
  8
1
  6
Continuous
 62
     2
100
AcDbLine
 10
117.5
 20
27.00000000000001
 30
0.0
 11
117.5
 21
9.99999999999999
 31
0.0
  0
LINE
  5
201
330
5F
100
AcDbEntity
  8
1
  6
Continuous
 62
     2
100
AcDbLine
 10
100.5
 20
27.00000000000001
 30
0.0
 11
100.5
 21
9.99999999999999
 31
0.0
  0
LINE
  5
202
330
5F
100
AcDbEntity
  8
1
  6
Continuous
 62
     2
100
AcDbLine
 10
168.5
 20
20.00000000000001
 30
0.0
 11
202.5
 21
20.00000000000001
 31
0.0
  0
LINE
  5
203
330
5F
100
AcDbEntity
  8
1
  6
Continuous
 62
     2
100
AcDbLine
 10
107.5
 20
287.0000000000003
 30
0.0
 11
107.5
 21
292.0000000000003
 31
0.0
  0
LINE
  5
204
330
5F
100
AcDbEntity
  8
1
  6
Continuous
 62
     7
100
AcDbLine
 10
107.5
 20
287.0000000000003
 30
0.0
 11
27.5
 21
287.0000000000003
 31
0.0
  0
LINE
  5
205
330
5F
100
AcDbEntity
  8
1
  6
Continuous
 62
     2
100
AcDbLine
 10
27.5
 20
148.5
 30
0.0
 11
22.5
 21
148.5
 31
0.0
  0
LINE
  5
206
330
5F
100
AcDbEntity
  8
1
  6
Continuous
 62
     7
100
AcDbLine
 10
27.5
 20
148.5
 30
0.0
 11
27.5
 21
287.0000000000003
 31
0.0
  0
LINE
  5
207
330
5F
100
AcDbEntity
  8
1
  6
Continuous
 62
     2
100
AcDbLine
 10
202.5
 20
148.5
 30
0.0
 11
207.5
 21
148.5
 31
0.0
  0
LINE
  5
208
330
5F
100
AcDbEntity
  8
1
  6
Continuous
 62
     7
100
AcDbLine
 10
202.5
 20
148.5
 30
0.0
 11
202.5
 21
287.0000000000003
 31
0.0
  0
LINE
  5
209
330
5F
100
AcDbEntity
  8
1
  6
Continuous
 62
     2
100
AcDbLine
 10
107.5
 20
10.0
 30
0.0
 11
107.5
 21
5.0
 31
0.0
  0
LINE
  5
20A
330
5F
100
AcDbEntity
  8
1
  6
Continuous
 62
     7
100
AcDbLine
 10
107.5
 20
10.0
 30
0.0
 11
202.5
 21
10.0
 31
0.0
  0
CIRCLE
  5
20B
330
5F
100
AcDbEntity
  8
1
  6
DOT_CENTER
 62
     7
100
AcDbCircle
 10
92.0
 20
18.0
 30
0.0
 40
0.1000000000000227
  0
CIRCLE
  5
20C
330
5F
100
AcDbEntity
  8
1
  6
DOT_CENTER
 62
     7
100
AcDbCircle
 10
92.0
 20
16.0
 30
0.0
 40
0.1000000000000227
  0
CIRCLE
  5
20D
330
5F
100
AcDbEntity
  8
1
  6
Continuous
 62
     7
100
AcDbCircle
 10
189.5
 20
23.50000000000001
 30
0.0
 40
2.0
  0
CIRCLE
  5
20E
330
5F
100
AcDbEntity
  8
1
  6
Continuous
 62
     7
100
AcDbCircle
 10
189.5
 20
23.50000000000001
 30
0.0
 40
1.200000000000102
  0
CIRCLE
  5
20F
330
5F
100
AcDbEntity
  8
1
  6
Continuous
 62
     7
100
AcDbCircle
 10
157.0
 20
12.5
 30
0.0
 40
0.3000000000000114
  0
CIRCLE
  5
210
330
5F
100
AcDbEntity
  8
1
  6
Continuous
 62
     7
100
AcDbCircle
 10
163.0
 20
12.5
 30
0.0
 40
0.3000000000000114
  0
CIRCLE
  5
211
330
5F
100
AcDbEntity
  8
1
  6
Continuous
 62
     7
100
AcDbCircle
 10
146.0
 20
12.5
 30
0.0
 40
0.3000000000000114
  0
CIRCLE
  5
212
330
5F
100
AcDbEntity
  8
1
  6
Continuous
 62
     7
100
AcDbCircle
 10
140.0
 20
12.5
 30
0.0
 40
0.3000000000000114
  0
CIRCLE
  5
213
330
5F
100
AcDbEntity
  8
1
  6
Continuous
 62
     7
100
AcDbCircle
 10
129.0
 20
12.5
 30
0.0
 40
0.3000000000000114
  0
CIRCLE
  5
214
330
5F
100
AcDbEntity
  8
1
  6
Continuous
 62
     7
100
AcDbCircle
 10
123.0
 20
12.5
 30
0.0
 40
0.2999999999999972
  0
CIRCLE
  5
215
330
5F
100
AcDbEntity
  8
1
  6
Continuous
 62
     7
100
AcDbCircle
 10
112.0
 20
12.5
 30
0.0
 40
0.2999999999999972
  0
CIRCLE
  5
216
330
5F
100
AcDbEntity
  8
1
  6
Continuous
 62
     7
100
AcDbCircle
 10
106.0
 20
12.5
 30
0.0
 40
0.2999999999999972
  0
MTEXT
  5
218
330
5F
100
AcDbEntity
  8
1
 62
   250
100
AcDbMText
 10
27.5
 20
5.0
 30
0.0
 40
3.5
 41
0.0
 71
     4
 72
     1
  1
備考欄の文字列 原点位置=4
  7
CONVERTER_11
 73
     1
 44
0.54545454545455
  0
MTEXT
  5
219
330
5F
100
AcDbEntity
  8
1
 62
     2
100
AcDbMText
 10
92.0
 20
24.00000000000001
 30
0.0
 40
3.5
 41
0.0
 71
     5
 72
     1
  1
尺度
  7
CONVERTER_11
 73
     1
 44
0.54545454545455
  0
MTEXT
  5
21A
330
5F
100
AcDbEntity
  8
1
 62
     2
100
AcDbMText
 10
138.0
 20
25.00000000000001
 30
0.0
 40
3.0
 41
0.0
 71
     5
 72
     1
  1
製図
  7
CONVERTER_11
 73
     1
 44
0.59090909090909
  0
MTEXT
  5
21B
330
5F
100
AcDbEntity
  8
1
 62
     2
100
AcDbMText
 10
155.0
 20
25.00000000000001
 30
0.0
 40
3.0
 41
0.0
 71
     5
 72
     1
  1
設計
  7
CONVERTER_11
 73
     1
 44
0.59090909090909
  0
MTEXT
  5
21C
330
5F
100
AcDbEntity
  8
1
 62
     2
100
AcDbMText
 10
121.0
 20
25.00000000000001
 30
0.0
 40
3.0
 41
0.0
 71
     5
 72
     1
  1
検図
  7
CONVERTER_11
 73
     1
 44
0.59090909090909
  0
MTEXT
  5
21D
330
5F
100
AcDbEntity
  8
1
 62
     2
100
AcDbMText
 10
177.5
 20
23.50000000000001
 30
0.0
 40
3.5
 41
0.0
 71
     5
 72
     1
  1
第三角法
  7
CONVERTER_11
 73
     1
 44
0.54545454545455
  0
MTEXT
  5
21E
330
5F
100
AcDbEntity
  8
1
 62
     2
100
AcDbMText
 10
104.0
 20
25.00000000000001
 30
0.0
 40
3.0
 41
0.0
 71
     5
 72
     1
  1
承認
  7
CONVERTER_11
 73
     1
 44
0.59090909090909
  0
MTEXT
  5
21F
330
5F
100
AcDbEntity
  8
1
 62
     2
100
AcDbMText
 10
31.5
 20
14.25
 30
0.0
 40
3.5
 41
0.0
 71
     5
 72
     1
  1
品番
  7
CONVERTER_11
 73
     1
 44
0.72727272727273
  0
MTEXT
  5
220
330
5F
100
AcDbEntity
  8
1
 62
     2
100
AcDbMText
 10
31.5
 20
22.75
 30
0.0
 40
3.5
 41
0.0
 71
     5
 72
     1
  1
品名
  7
CONVERTER_11
 73
     1
 44
0.72727272727273
  0
MTEXT
  5
221
330
5F
100
AcDbEntity
  8
1
 62
     2
100
AcDbMText
 10
31.5
 20
34.00000000000001
 30
0.0
 40
3.5
 41
0.0
 71
     5
 72
     1
  1
備考
  7
CONVERTER_11
 73
     1
 44
0.45454545454545
  0
MTEXT
  5
222
330
5F
100
AcDbEntity
  8
1
 62
     2
100
AcDbMText
 10
35.0
 20
282.0000000000003
 30
0.0
 40
5.0
 41
0.0
 71
     5
 72
     1
  1
図番
  7
CONVERTER_11
 73
     1
 44
0.45454545454545
  0
MTEXT
  5
223
330
5F
100
AcDbEntity
  8
1
 62
     7
100
AcDbMText
 10
174.0
 20
15.0
 30
0.0
 40
2.5
 41
0.0
 71
     5
 72
     1
  1
株式会社
  7
CONVERTER_11
 73
     1
 44
1.0
  0
MTEXT
  5
224
330
5F
100
AcDbEntity
  8
1
 62
     7
100
AcDbMText
 10
191.0
 20
15.0
 30
0.0
 40
3.0
 41
0.0
 71
     5
 72
     1
  1
三栄水栓製作所
  7
CONVERTER_11
 73
     1
 44
1.0
  0
ENDBLK
  5
61
330
5F
100
AcDbEntity
  8
0
100
AcDbBlockEnd
  0
BLOCK
  5
63
330
62
100
AcDbEntity
  8
0
100
AcDbBlockBegin
  2
32-3-M1K__1
 70
     0
 10
1200.928110202484
 20
979.5276473730491
 30
0.0
  3
32-3-M1K__1
  1

  0
LINE
  5
225
330
62
100
AcDbEntity
  8
1
  6
Continuous
 62
     7
100
AcDbLine
 10
348.9809789957875
 20
356.8001833695852
 30
0.0
 11
348.9809789957875
 21
356.541820509515
 31
0.0
  0
LINE
  5
226
330
62
100
AcDbEntity
  8
1
  6
Continuous
 62
     7
100
AcDbLine
 10
348.9809789957875
 20
356.541820509515
 30
0.0
 11
348.9809789957875
 21
349.3461576116474
 31
0.0
  0
LINE
  5
227
330
62
100
AcDbEntity
  8
1
  6
Continuous
 62
     7
100
AcDbLine
 10
329.96174110932
 20
371.8001833695847
 30
0.0
 11
332.9363546626252
 21
373.5175773053205
 31
0.0
  0
LINE
  5
228
330
62
100
AcDbEntity
  8
1
  6
Continuous
 62
     7
100
AcDbLine
 10
752.7831722646679
 20
342.5435196632506
 30
0.0
 11
752.7831722646679
 21
371.0568470759197
 31
0.0
  0
LINE
  5
229
330
62
100
AcDbEntity
  8
1
  6
Continuous
 62
     7
100
AcDbLine
 10
739.7831722646679
 20
342.5435196632506
 30
0.0
 11
739.7831722646679
 21
371.0568470759197
 31
0.0
  0
LINE
  5
22A
330
62
100
AcDbEntity
  8
1
  6
Continuous
 62
     7
100
AcDbLine
 10
319.7243197225363
 20
788.7521689694181
 30
0.0
 11
348.2376471352058
 21
788.7521689694181
 31
0.0
  0
LINE
  5
22B
330
62
100
AcDbEntity
  8
1
  6
Continuous
 62
     7
100
AcDbLine
 10
318.9809834288711
 20
800.9034962471464
 30
0.0
 11
318.9809834288711
 21
789.6008416916893
 31
0.0
  0
LINE
  5
22C
330
62
100
AcDbEntity
  8
1
  6
Continuous
 62
     7
100
AcDbLine
 10
348.9809834288707
 20
800.9034962471469
 30
0.0
 11
348.9809834288711
 21
789.6008416916893
 31
0.0
  0
LINE
  5
22D
330
62
100
AcDbEntity
  8
1
  6
Continuous
 62
     7
100
AcDbLine
 10
348.2376471352055
 20
801.7521689694181
 30
0.0
 11
319.7243197225367
 21
801.7521689694181
 31
0.0
  0
LINE
  5
22E
330
62
100
AcDbEntity
  8
1
  6
Continuous
 62
     7
100
AcDbLine
 10
347.9363546626252
 20
347.5368151917875
 30
0.0
 11
335.0256033289496
 21
340.0827894338497
 31
0.0
  0
LINE
  5
22F
330
62
100
AcDbEntity
  8
1
  6
Continuous
 62
     7
100
AcDbLine
 10
335.0256033289496
 20
373.5175773053205
 30
0.0
 11
338.0002168822548
 21
371.8001833695847
 31
0.0
  0
LINE
  5
230
330
62
100
AcDbEntity
  8
1
  6
Continuous
 62
     7
100
AcDbLine
 10
332.9363546626252
 20
340.0827894338497
 30
0.0
 11
329.9617411093212
 21
341.8001833695848
 31
0.0
  0
ARC
  5
231
330
62
100
AcDbEntity
  8
1
  6
Continuous
 62
     7
100
AcDbCircle
 10
746.2831722646679
 20
350.0501833695851
 30
0.0
 40
10.00000000000004
100
AcDbArc
 50
229.994799115139
 51
310.00520088486
  0
ARC
  5
232
330
62
100
AcDbEntity
  8
1
  6
Continuous
 62
     7
100
AcDbCircle
 10
746.2831722646679
 20
363.5501833695851
 30
0.0
 40
9.999999999999982
100
AcDbArc
 50
49.99479911514042
 51
130.0052008848606
  0
ARC
  5
233
330
62
100
AcDbEntity
  8
1
  6
Continuous
 62
     7
100
AcDbCircle
 10
327.2309834288707
 20
795.2521689694181
 30
0.0
 40
9.999999999999703
100
AcDbArc
 50
214.4115086697716
 51
220.005200884861
  0
ARC
  5
234
330
62
100
AcDbEntity
  8
1
  6
Continuous
 62
     7
100
AcDbCircle
 10
340.7309834288711
 20
795.2521689694181
 30
0.0
 40
9.999999999999703
100
AcDbArc
 50
34.41150866977158
 51
40.00520088486038
  0
ARC
  5
235
330
62
100
AcDbEntity
  8
1
  6
Continuous
 62
     7
100
AcDbCircle
 10
340.7309834288711
 20
795.2521689694181
 30
0.0
 40
10.00000000000017
100
AcDbArc
 50
319.9947991151396
 51
325.5884913302299
  0
ARC
  5
236
330
62
100
AcDbEntity
  8
1
  6
Continuous
 62
     7
100
AcDbCircle
 10
327.2309834288707
 20
795.2521689694181
 30
0.0
 40
9.999999999999634
100
AcDbArc
 50
139.9947991151387
 51
145.5884913302306
  0
ARC
  5
237
330
62
100
AcDbEntity
  8
1
  6
Continuous
 62
     7
100
AcDbCircle
 10
333.9809789957875
 20
356.8001833695852
 30
0.0
 40
16.75000000000004
100
AcDbArc
 50
326.424392078819
 51
333.5756079211809
  0
ARC
  5
238
330
62
100
AcDbEntity
  8
1
  6
Continuous
 62
     7
100
AcDbCircle
 10
333.9809789957875
 20
356.8001833695852
 30
0.0
 40
16.7499999999998
100
AcDbArc
 50
86.42439207881968
 51
93.57560792118092
  0
ARC
  5
239
330
62
100
AcDbEntity
  8
1
  6
Continuous
 62
     7
100
AcDbCircle
 10
333.9809789957875
 20
356.8001833695852
 30
0.0
 40
16.75000000000004
100
AcDbArc
 50
266.4243920788192
 51
273.5756079211803
  0
CIRCLE
  5
23A
330
62
100
AcDbEntity
  8
1
  6
Continuous
 62
     7
100
AcDbCircle
 10
326.4809834288711
 20
795.2521689694181
 30
0.0
 40
5.65102495703718
  0
CIRCLE
  5
23B
330
62
100
AcDbEntity
  8
1
  6
Continuous
 62
     7
100
AcDbCircle
 10
341.4809834288711
 20
795.2521689694181
 30
0.0
 40
5.65102495703718
  0
SPLINE
  5
23C
330
62
100
AcDbEntity
  8
1
  6
Continuous
 62
     7
100
AcDbSpline
210
0.0
220
0.0
230
1.0
 70
    11
 71
     3
 72
    79
 73
    75
 74
    73
 42
0.000000001
 43
0.0000000001
 44
0.00000001
 40
0.0
 40
0.0
 40
0.0
 40
0.0
 40
0.3271039934199264
 40
0.654247325421528
 40
0.993504142979847
 40
1.332838129440972
 40
1.693880152156895
 40
2.054986477061198
 40
2.443474106515729
 40
2.832004956629384
 40
3.249530212681326
 40
3.667083493975059
 40
4.111764055833501
 40
4.556462639420976
 40
5.023726657337574
 40
5.491001886973217
 40
5.974349176565958
 40
6.457702612079782
 40
6.949394829415894
 40
7.441089006478729
 40
7.932783183539599
 40
8.424475400869392
 40
8.907828836371097
 40
9.391176125944725
 40
9.858451355552774
 40
10.32571537342902
 40
10.77041395696185
 40
11.21509451874393
 40
11.63264779993891
 40
12.05017305585667
 40
12.43870390580277
 40
12.8271915350345
 40
13.18829785966363
 40
13.54933988201137
 40
13.88867386798973
 40
14.22793068476385
 40
14.55507401472041
 40
14.88217801572882
 40
15.20928201673712
 40
15.53642534669373
 40
15.87568216346794
 40
16.21501614944621
 40
16.576058171794
 40
16.93716449642315
 40
17.32565212565492
 40
17.71418297560098
 40
18.13170823151878
 40
18.54926151271378
 40
18.99394207449579
 40
19.43864065802864
 40
19.90590467590489
 40
20.37317990551293
 40
20.85652719508655
 40
21.33988063058847
 40
21.83157284791804
 40
22.32326702497891
 40
22.81496120204186
 40
23.30665341937809
 40
23.7900068548918
 40
24.27335414448463
 40
24.74062937412027
 40
25.20789339203687
 40
25.65259197562433
 40
26.09727253748254
 40
26.51482581877623
 40
26.93235107482827
 40
27.32088192494188
 40
27.70936955439661
 40
28.07047587930089
 40
28.4315179020168
 40
28.77085188847792
 40
29.11010870603634
 40
29.43725203803795
 40
29.76435603145776
 40
29.76435603145776
 40
29.76435603145776
 40
29.76435603145776
 10
751.9344995423965
 20
369.7905644263519
 30
0.0
 10
751.9302320470154
 20
369.8996729713367
 30
0.0
 10
751.9216965513342
 20
370.1179031835005
 30
0.0
 10
751.8540081603198
 20
370.4435267049465
 30
0.0
 10
751.7467204473322
 20
370.761867100558
 30
0.0
 10
751.5960525908145
 20
371.0748946420507
 30
0.0
 10
751.4066061328604
 20
371.3746115801523
 30
0.0
 10
751.1760274841772
 20
371.6650570983921
 30
0.0
 10
750.9113025380733
 20
371.9376617064515
 30
0.0
 10
750.6082823581648
 20
372.196743749598
 30
0.0
 10
750.2763459905569
 20
372.4346028414824
 30
0.0
 10
749.9104468158456
 20
372.6546901725277
 30
0.0
 10
749.5210893077128
 20
372.8509926544154
 30
0.0
 10
749.1035987389092
 20
373.0256560223459
 30
0.0
 10
748.6682973056444
 20
373.1746158562333
 30
0.0
 10
748.2119582336411
 20
373.298777313356
 30
0.0
 10
747.743630214944
 20
373.3958851782508
 30
0.0
 10
747.2622980770776
 20
373.4659731759609
 30
0.0
 10
746.7749344967785
 20
373.5082010358522
 30
0.0
 10
746.2831722745235
 20
373.5222654468355
 30
0.0
 10
745.7914100522721
 20
373.5082010359279
 30
0.0
 10
745.3040464719609
 20
373.4659731761167
 30
0.0
 10
744.822714334139
 20
373.3958851784948
 30
0.0
 10
744.354386315278
 20
373.2987773137014
 30
0.0
 10
743.8980472438627
 20
373.1746158566974
 30
0.0
 10
743.4627458084442
 20
373.0256560229496
 30
0.0
 10
743.0452552472848
 20
372.8509926551861
 30
0.0
 10
742.6558977114605
 20
372.654690173494
 30
0.0
 10
742.2899986340155
 20
372.4346028426822
 30
0.0
 10
741.9580619165012
 20
372.1967437510679
 30
0.0
 10
741.6550429558813
 20
371.937661708242
 30
0.0
 10
741.3903136350023
 20
371.6650571005513
 30
0.0
 10
741.1597502167872
 20
371.3746115827511
 30
0.0
 10
740.9702489382839
 20
371.07489464517
 30
0.0
 10
740.8197739565173
 20
370.7618671043803
 30
0.0
 10
740.7117845486442
 20
370.4435267099954
 30
0.0
 10
740.6466260000401
 20
370.1179031874327
 30
0.0
 10
740.6244549396557
 20
369.7905644263518
 30
0.0
 10
740.64662600004
 20
369.4632256652714
 30
0.0
 10
740.7117845486441
 20
369.1376021427084
 30
0.0
 10
740.8197739565176
 20
368.8192617483239
 30
0.0
 10
740.9702489382837
 20
368.5062342075336
 30
0.0
 10
741.1597502167876
 20
368.206517269953
 30
0.0
 10
741.3903136350021
 20
367.9160717521523
 30
0.0
 10
741.6550429558813
 20
367.6434671444619
 30
0.0
 10
741.9580619165013
 20
367.3843851016359
 30
0.0
 10
742.2899986340155
 20
367.1465260100214
 30
0.0
 10
742.6558977114605
 20
366.9264386792096
 30
0.0
 10
743.0452552472848
 20
366.7301361975178
 30
0.0
 10
743.4627458084442
 20
366.5554728297541
 30
0.0
 10
743.8980472438627
 20
366.4065129960065
 30
0.0
 10
744.3543863152779
 20
366.2823515390022
 30
0.0
 10
744.8227143341392
 20
366.1852436742091
 30
0.0
 10
745.3040464719611
 20
366.1151556765874
 30
0.0
 10
745.7914100522721
 20
366.0729278167759
 30
0.0
 10
746.2831722745234
 20
366.0588634058683
 30
0.0
 10
746.7749344967788
 20
366.0729278168517
 30
0.0
 10
747.2622980770776
 20
366.1151556767429
 30
0.0
 10
747.7436302149441
 20
366.1852436744532
 30
0.0
 10
748.2119582336411
 20
366.2823515393475
 30
0.0
 10
748.6682973056445
 20
366.4065129964706
 30
0.0
 10
749.1035987389095
 20
366.5554728303579
 30
0.0
 10
749.521089307713
 20
366.7301361982884
 30
0.0
 10
749.9104468158458
 20
366.9264386801759
 30
0.0
 10
750.2763459905568
 20
367.1465260112214
 30
0.0
 10
750.6082823581648
 20
367.3843851031059
 30
0.0
 10
750.9113025380734
 20
367.6434671462524
 30
0.0
 10
751.1760274841777
 20
367.9160717543116
 30
0.0
 10
751.4066061328599
 20
368.2065172725515
 30
0.0
 10
751.5960525908149
 20
368.5062342106534
 30
0.0
 10
751.7467204473323
 20
368.8192617521459
 30
0.0
 10
751.8540081603203
 20
369.1376021477572
 30
0.0
 10
751.9216965513338
 20
369.4632256692034
 30
0.0
 10
751.9302320470155
 20
369.6814558813671
 30
0.0
 10
751.9344995423965
 20
369.7905644263519
 30
0.0
 11
751.9344995423965
 21
369.7905644263519
 31
0.0
 11
751.9126883904948
 21
370.1169404383767
 31
0.0
 11
751.8486431825843
 21
370.4377534209261
 31
0.0
 11
751.740241446085
 21
370.7592254280208
 31
0.0
 11
751.5936828051956
 21
371.0652779053935
 31
0.0
 11
751.4013583950198
 21
371.3708309502757
 31
0.0
 11
751.1773652522807
 21
371.6540708658363
 31
0.0
 11
750.9072195558776
 21
371.9332552867003
 31
0.0
 11
750.6123401220186
 21
372.1862421260952
 31
0.0
 11
750.2732982099715
 21
372.4299179789442
 31
0.0
 11
749.9157754170753
 21
372.6456219317188
 31
0.0
 11
749.518911141671
 21
372.8462199102137
 31
0.0
 11
749.108835903532
 21
373.0182522597708
 31
0.0
 11
748.6668442892376
 21
373.1698407663382
 31
0.0
 11
748.2160400301768
 21
373.292810926293
 31
0.0
 11
747.7427987384335
 21
373.3911332642675
 31
0.0
 11
747.2645149478446
 21
373.4609556051369
 31
0.0
 11
746.7746639381537
 21
373.5034670729694
 31
0.0
 11
746.2831722646679
 21
373.5175773053208
 31
0.0
 11
745.7916805911818
 21
373.5034670729694
 31
0.0
 11
745.3018295814907
 21
373.4609556051369
 31
0.0
 11
744.823545790902
 21
373.3911332642674
 31
0.0
 11
744.3503044991587
 21
373.292810926293
 31
0.0
 11
743.899500240098
 21
373.1698407663381
 31
0.0
 11
743.4575086258035
 21
373.0182522597708
 31
0.0
 11
743.0474333876646
 21
372.8462199102137
 31
0.0
 11
742.6505691122602
 21
372.6456219317188
 31
0.0
 11
742.2930463193642
 21
372.4299179789442
 31
0.0
 11
741.9540044073171
 21
372.1862421260952
 31
0.0
 11
741.6591249734581
 21
371.9332552867003
 31
0.0
 11
741.3889792770549
 21
371.6540708658363
 31
0.0
 11
741.1649861343159
 21
371.3708309502757
 31
0.0
 11
740.9726617241402
 21
371.0652779053935
 31
0.0
 11
740.8261030832507
 21
370.7592254280208
 31
0.0
 11
740.7177013467513
 21
370.4377534209261
 31
0.0
 11
740.6536561388407
 21
370.1169404383767
 31
0.0
 11
740.6318449869391
 21
369.7905644263519
 31
0.0
 11
740.6536561388407
 21
369.4641884143273
 31
0.0
 11
740.7177013467513
 21
369.1433754317778
 31
0.0
 11
740.8261030832508
 21
368.821903424683
 31
0.0
 11
740.9726617241402
 21
368.5158509473104
 31
0.0
 11
741.164986134316
 21
368.2102979024282
 31
0.0
 11
741.3889792770549
 21
367.9270579868675
 31
0.0
 11
741.6591249734581
 21
367.6478735660034
 31
0.0
 11
741.9540044073171
 21
367.3948867266086
 31
0.0
 11
742.2930463193642
 21
367.1512108737596
 31
0.0
 11
742.6505691122602
 21
366.9355069209849
 31
0.0
 11
743.0474333876646
 21
366.7349089424902
 31
0.0
 11
743.4575086258035
 21
366.562876592933
 31
0.0
 11
743.899500240098
 21
366.4112880863657
 31
0.0
 11
744.3503044991587
 21
366.2883179264108
 31
0.0
 11
744.823545790902
 21
366.1899955884364
 31
0.0
 11
745.3018295814909
 21
366.120173247567
 31
0.0
 11
745.7916805911818
 21
366.0776617797344
 31
0.0
 11
746.2831722646679
 21
366.063551547383
 31
0.0
 11
746.7746639381538
 21
366.0776617797344
 31
0.0
 11
747.2645149478449
 21
366.120173247567
 31
0.0
 11
747.7427987384336
 21
366.1899955884364
 31
0.0
 11
748.216040030177
 21
366.2883179264108
 31
0.0
 11
748.6668442892378
 21
366.4112880863656
 31
0.0
 11
749.1088359035323
 21
366.562876592933
 31
0.0
 11
749.5189111416712
 21
366.7349089424901
 31
0.0
 11
749.9157754170753
 21
366.9355069209849
 31
0.0
 11
750.2732982099714
 21
367.1512108737596
 31
0.0
 11
750.6123401220186
 21
367.3948867266086
 31
0.0
 11
750.9072195558776
 21
367.6478735660034
 31
0.0
 11
751.1773652522809
 21
367.9270579868675
 31
0.0
 11
751.4013583950199
 21
368.2102979024282
 31
0.0
 11
751.5936828051956
 21
368.5158509473104
 31
0.0
 11
751.7402414460851
 21
368.821903424683
 31
0.0
 11
751.8486431825845
 21
369.1433754317778
 31
0.0
 11
751.9126883904948
 21
369.4641884143273
 31
0.0
 11
751.9344995423965
 21
369.7905644263519
 31
0.0
  0
SPLINE
  5
23D
330
62
100
AcDbEntity
  8
0
  6
Continuous
 62
     7
100
AcDbSpline
210
0.0
220
0.0
230
1.0
 70
     8
 71
     3
 72
    35
 73
    31
 74
    29
 42
0.000000001
 43
0.0000000001
 44
0.00000001
 40
0.0
 40
0.0
 40
0.0
 40
0.0
 40
1.034361711392066
 40
2.064477861668589
 40
2.99656100479893
 40
3.931160319342998
 40
4.713221113453311
 40
5.493982167567969
 40
6.169698045743758
 40
6.845974434361916
 40
7.640940389553286
 40
8.435511690145763
 40
9.088505778051406
 40
9.740424943618908
 40
10.0373774938201
 40
10.33431533699058
 40
10.87925795216786
 40
11.42470341601102
 40
12.03668979909388
 40
12.64892123204691
 40
13.50021429871205
 40
14.35262205048205
 40
15.09351978653323
 40
15.8334320289698
 40
16.42977860293135
 40
17.02694533956418
 40
18.0113783736383
 40
18.99331886545852
 40
19.8326340527616
 40
20.67444719389802
 40
20.67444719389802
 40
20.67444719389802
 40
20.67444719389802
 10
740.6321473076302
 20
356.8001833695851
 30
0.0
 10
740.6526613421746
 20
357.1443507305056
 30
0.0
 10
740.6936052230825
 20
357.8312728087315
 30
0.0
 10
740.8223447747762
 20
358.8239528099617
 30
0.0
 10
741.0730299934207
 20
359.7591494490967
 30
0.0
 10
741.3978664807495
 20
360.5819382718847
 30
0.0
 10
741.777478042606
 20
361.324105129688
 30
0.0
 10
742.183127382872
 20
361.9521608869245
 30
0.0
 10
742.6304687644107
 20
362.5062648100733
 30
0.0
 10
743.1375365230298
 20
363.0132817387972
 30
0.0
 10
743.7361348958287
 20
363.4779871125494
 30
0.0
 10
744.3913448978808
 20
363.8446525283445
 30
0.0
 10
745.0490688679838
 20
364.0900528299126
 30
0.0
 10
745.5728610771282
 20
364.2041977487491
 30
0.0
 10
745.9861651417782
 20
364.247398804067
 30
0.0
 10
746.3658292395849
 20
364.2605377305579
 30
0.0
 10
746.8286385095639
 20
364.2306138466385
 30
0.0
 10
747.3873633757026
 20
364.1236833028844
 30
0.0
 10
747.9489896717155
 20
363.9373059074807
 30
0.0
 10
748.5734799204754
 20
363.6355440122402
 30
0.0
 10
749.2149364889232
 20
363.1997011004004
 30
0.0
 10
749.814535424697
 20
362.6438810279691
 30
0.0
 10
750.3148007893784
 20
362.0463139503387
 30
0.0
 10
750.69999461505
 20
361.469408667262
 30
0.0
 10
751.0084278167225
 20
360.9028448429179
 30
0.0
 10
751.309872425799
 20
360.2419219701754
 30
0.0
 10
751.6019977054185
 20
359.4372263115139
 30
0.0
 10
751.8178362480398
 20
358.5243148480355
 30
0.0
 10
751.9112089271175
 20
357.6402261086805
 30
0.0
 10
751.9375063280161
 20
357.0804748571181
 30
0.0
 10
751.9506745598255
 20
356.8001833695851
 30
0.0
 11
740.6321473076302
 21
356.8001833695851
 31
0.0
 11
740.7056763436117
 21
357.8319283200605
 31
0.0
 11
740.8501221538031
 21
358.851866893192
 31
0.0
 11
741.0896133175619
 21
359.7526570851697
 31
0.0
 11
741.4315142849712
 21
360.6224729327636
 31
0.0
 11
741.7891072269883
 21
361.3179917135187
 31
0.0
 11
742.2141063678182
 21
361.9729448070671
 31
0.0
 11
742.639277521151
 21
362.4981318585308
 31
0.0
 11
743.1182108100795
 21
362.9755966836401
 31
0.0
 11
743.7473664130553
 21
363.4615329944036
 31
0.0
 11
744.4419146669513
 21
363.8474685793903
 31
0.0
 11
745.0538855903719
 21
364.0752686418501
 31
0.0
 11
745.6910661428462
 21
364.2131074706855
 31
0.0
 11
745.9864112324976
 21
364.243963511382
 31
0.0
 11
746.2831722646679
 21
364.2542091275231
 31
0.0
 11
746.827001506446
 21
364.2193923190208
 31
0.0
 11
747.3627380983605
 21
364.1169371647695
 31
0.0
 11
747.9438706676643
 21
363.9250719240246
 31
0.0
 11
748.4954263050452
 21
363.6593395267334
 31
0.0
 11
749.2011433618347
 21
363.1832478105803
 31
0.0
 11
749.8278106319096
 21
362.6054181567119
 31
0.0
 11
750.304274078396
 21
362.038045228076
 31
0.0
 11
750.7159999482299
 21
361.4232672719959
 31
0.0
 11
751.0020041664529
 21
360.8999788010183
 31
0.0
 11
751.2507580908045
 21
360.3570887597418
 31
0.0
 11
751.5840343531914
 21
359.4307867932347
 31
0.0
 11
751.8066431681175
 21
358.4744121557233
 31
0.0
 11
751.9029839823542
 21
357.6406445425727
 31
0.0
 11
751.9506745598255
 21
356.8001833695851
 31
0.0
  0
SPLINE
  5
23E
330
62
100
AcDbEntity
  8
0
  6
Continuous
 62
     7
100
AcDbSpline
210
0.0
220
0.0
230
1.0
 70
     8
 71
     3
 72
    35
 73
    31
 74
    29
 42
0.000000001
 43
0.0000000001
 44
0.00000001
 40
0.0
 40
0.0
 40
0.0
 40
0.0
 40
1.034361711392009
 40
2.06447786166842
 40
2.996561004798706
 40
3.931160319342774
 40
4.713221113453036
 40
5.493982167567694
 40
6.169698045743438
 40
6.845974434361636
 40
7.640940389552972
 40
8.435511690145477
 40
9.08850577805114
 40
9.740424943618654
 40
10.03737749381984
 40
10.33431533699032
 40
10.8792579521677
 40
11.42470341601077
 40
12.0366897990936
 40
12.64892123204668
 40
13.50021429871185
 40
14.35262205048181
 40
15.09351978653287
 40
15.83343202896946
 40
16.42977860293096
 40
17.02694533956394
 40
18.01137837363807
 40
18.99331886545817
 40
19.83263405276126
 40
20.67444719389751
 40
20.67444719389751
 40
20.67444719389751
 40
20.67444719389751
 10
740.6321473076302
 20
356.8001833695851
 30
0.0
 10
740.6526613421744
 20
356.4560160086647
 30
0.0
 10
740.6936052230825
 20
355.7690939304389
 30
0.0
 10
740.8223447747764
 20
354.7764139292087
 30
0.0
 10
741.073029993421
 20
353.8412172900736
 30
0.0
 10
741.3978664807493
 20
353.0184284672858
 30
0.0
 10
741.7774780426063
 20
352.2762616094826
 30
0.0
 10
742.1831273828723
 20
351.6482058522461
 30
0.0
 10
742.6304687644108
 20
351.0941019290971
 30
0.0
 10
743.1375365230298
 20
350.5870850003735
 30
0.0
 10
743.7361348958286
 20
350.1223796266211
 30
0.0
 10
744.3913448978807
 20
349.7557142108261
 30
0.0
 10
745.0490688679838
 20
349.5103139092581
 30
0.0
 10
745.5728610771278
 20
349.3961689904212
 30
0.0
 10
745.9861651417784
 20
349.3529679351036
 30
0.0
 10
746.365829239585
 20
349.3398290086127
 30
0.0
 10
746.8286385095639
 20
349.3697528925318
 30
0.0
 10
747.3873633757025
 20
349.4766834362862
 30
0.0
 10
747.9489896717157
 20
349.6630608316897
 30
0.0
 10
748.573479920475
 20
349.9648227269304
 30
0.0
 10
749.2149364889233
 20
350.4006656387701
 30
0.0
 10
749.8145354246968
 20
350.9564857112012
 30
0.0
 10
750.3148007893785
 20
351.5540527888319
 30
0.0
 10
750.6999946150497
 20
352.1309580719084
 30
0.0
 10
751.0084278167228
 20
352.6975218962524
 30
0.0
 10
751.3098724257989
 20
353.3584447689951
 30
0.0
 10
751.6019977054185
 20
354.1631404276565
 30
0.0
 10
751.8178362480401
 20
355.0760518911349
 30
0.0
 10
751.9112089271175
 20
355.9601406304899
 30
0.0
 10
751.9375063280158
 20
356.5198918820521
 30
0.0
 10
751.9506745598255
 20
356.8001833695851
 30
0.0
 11
740.6321473076302
 21
356.8001833695851
 31
0.0
 11
740.7056763436117
 21
355.7684384191098
 31
0.0
 11
740.8501221538031
 21
354.7484998459784
 31
0.0
 11
741.0896133175619
 21
353.8477096540008
 31
0.0
 11
741.4315142849712
 21
352.9778938064068
 31
0.0
 11
741.7891072269883
 21
352.2823750256518
 31
0.0
 11
742.2141063678182
 21
351.6274219321034
 31
0.0
 11
742.639277521151
 21
351.1022348806398
 31
0.0
 11
743.1182108100795
 21
350.6247700555304
 31
0.0
 11
743.7473664130553
 21
350.1388337447669
 31
0.0
 11
744.4419146669513
 21
349.7528981597802
 31
0.0
 11
745.0538855903719
 21
349.5250980973203
 31
0.0
 11
745.6910661428462
 21
349.3872592684849
 31
0.0
 11
745.9864112324976
 21
349.3564032277885
 31
0.0
 11
746.2831722646679
 21
349.3461576116474
 31
0.0
 11
746.8270015064461
 21
349.3809744201496
 31
0.0
 11
747.3627380983605
 21
349.483429574401
 31
0.0
 11
747.9438706676643
 21
349.6752948151458
 31
0.0
 11
748.4954263050452
 21
349.9410272124371
 31
0.0
 11
749.2011433618347
 21
350.4171189285902
 31
0.0
 11
749.8278106319096
 21
350.9949485824586
 31
0.0
 11
750.3042740783959
 21
351.5623215110945
 31
0.0
 11
750.7159999482299
 21
352.1770994671745
 31
0.0
 11
751.0020041664529
 21
352.7003879381521
 31
0.0
 11
751.2507580908045
 21
353.2432779794287
 31
0.0
 11
751.5840343531914
 21
354.1695799459358
 31
0.0
 11
751.8066431681175
 21
355.1259545834471
 31
0.0
 11
751.9029839823542
 21
355.9597221965977
 31
0.0
 11
751.9506745598255
 21
356.8001833695851
 31
0.0
  0
SPLINE
  5
23F
330
62
100
AcDbEntity
  8
1
  6
Continuous
 62
     7
100
AcDbSpline
210
0.0
220
0.0
230
1.0
 70
    11
 71
     3
 72
    79
 73
    75
 74
    73
 42
0.000000001
 43
0.0000000001
 44
0.00000001
 40
0.0
 40
0.0
 40
0.0
 40
0.0
 40
0.3271039934198697
 40
0.6542473254215827
 40
0.9935041429799019
 40
1.332838129441078
 40
1.693880152157049
 40
2.054986477061308
 40
2.44347410651588
 40
2.832004956629498
 40
3.24953021268144
 40
3.667083493975173
 40
4.111764055833589
 40
4.556462639421042
 40
5.023726657337639
 40
5.491001886973313
 40
5.974349176566054
 40
6.457702612079878
 40
6.949394829415985
 40
7.441089006478817
 40
7.932783183539686
 40
8.424475400869474
 40
8.907828836371179
 40
9.391176125944806
 40
9.85845135555298
 40
10.32571537342914
 40
10.77041395696194
 40
11.215094518744
 40
11.63264779993895
 40
12.05017305585674
 40
12.43870390580281
 40
12.82719153503457
 40
13.18829785966375
 40
13.54933988201144
 40
13.88867386798986
 40
14.22793068476398
 40
14.55507401472064
 40
14.882178015729
 40
15.20928201673724
 40
15.53642534669391
 40
15.87568216346806
 40
16.21501614944628
 40
16.57605817179412
 40
16.93716449642323
 40
17.32565212565504
 40
17.71418297560114
 40
18.13170823151894
 40
18.54926151271394
 40
18.99394207449595
 40
19.43864065802875
 40
19.90590467590504
 40
20.37317990551309
 40
20.8565271950867
 40
21.33988063058861
 40
21.83157284791829
 40
22.32326702497905
 40
22.814961202042
 40
23.30665341937823
 40
23.79000685489193
 40
24.27335414448475
 40
24.74062937412052
 40
25.20789339203703
 40
25.65259197562448
 40
26.09727253748264
 40
26.51482581877631
 40
26.93235107482837
 40
27.3208819249422
 40
27.70936955439681
 40
28.07047587930109
 40
28.431517902017
 40
28.77085188847807
 40
29.11010870603642
 40
29.43725203803806
 40
29.76435603145787
 40
29.76435603145787
 40
29.76435603145787
 40
29.76435603145787
 10
751.9344995423965
 20
343.8098023128186
 30
0.0
 10
751.9302320470156
 20
343.7006937678338
 30
0.0
 10
751.9216965513338
 20
343.4824635556699
 30
0.0
 10
751.8540081603203
 20
343.1568400342239
 30
0.0
 10
751.7467204473321
 20
342.8384996386124
 30
0.0
 10
751.5960525908147
 20
342.5254720971197
 30
0.0
 10
751.40660613286
 20
342.225755159018
 30
0.0
 10
751.1760274841772
 20
341.9353096407783
 30
0.0
 10
750.9113025380733
 20
341.6627050327188
 30
0.0
 10
750.6082823581648
 20
341.4036229895725
 30
0.0
 10
750.2763459905568
 20
341.1657638976878
 30
0.0
 10
749.9104468158457
 20
340.9456765666426
 30
0.0
 10
749.5210893077128
 20
340.7493740847551
 30
0.0
 10
749.1035987389091
 20
340.5747107168247
 30
0.0
 10
748.6682973056444
 20
340.4257508829373
 30
0.0
 10
748.2119582336409
 20
340.3015894258142
 30
0.0
 10
747.7436302149441
 20
340.2044815609196
 30
0.0
 10
747.2622980770777
 20
340.1343935632095
 30
0.0
 10
746.7749344967785
 20
340.0921657033183
 30
0.0
 10
746.2831722745235
 20
340.078101292335
 30
0.0
 10
745.7914100522722
 20
340.0921657032426
 30
0.0
 10
745.3040464719611
 20
340.1343935630538
 30
0.0
 10
744.8227143341389
 20
340.2044815606756
 30
0.0
 10
744.354386315278
 20
340.3015894254689
 30
0.0
 10
743.8980472438625
 20
340.425750882473
 30
0.0
 10
743.4627458084444
 20
340.574710716221
 30
0.0
 10
743.0452552472846
 20
340.7493740839843
 30
0.0
 10
742.655897711461
 20
340.9456765656765
 30
0.0
 10
742.2899986340153
 20
341.1657638964881
 30
0.0
 10
741.9580619165013
 20
341.4036229881025
 30
0.0
 10
741.6550429558811
 20
341.6627050309283
 30
0.0
 10
741.3903136350025
 20
341.9353096386191
 30
0.0
 10
741.1597502167873
 20
342.2257551564193
 30
0.0
 10
740.9702489382836
 20
342.5254720940003
 30
0.0
 10
740.8197739565175
 20
342.8384996347903
 30
0.0
 10
740.7117845486441
 20
343.156840029175
 30
0.0
 10
740.6466260000399
 20
343.482463551738
 30
0.0
 10
740.6244549396558
 20
343.8098023128186
 30
0.0
 10
740.64662600004
 20
344.1371410738991
 30
0.0
 10
740.7117845486443
 20
344.4627645964621
 30
0.0
 10
740.8197739565176
 20
344.7811049908466
 30
0.0
 10
740.9702489382839
 20
345.0941325316367
 30
0.0
 10
741.1597502167873
 20
345.3938494692175
 30
0.0
 10
741.3903136350023
 20
345.684294987018
 30
0.0
 10
741.6550429558811
 20
345.9568995947087
 30
0.0
 10
741.9580619165013
 20
346.2159816375346
 30
0.0
 10
742.2899986340153
 20
346.4538407291489
 30
0.0
 10
742.6558977114609
 20
346.673928059961
 30
0.0
 10
743.0452552472846
 20
346.8702305416527
 30
0.0
 10
743.4627458084443
 20
347.0448939094163
 30
0.0
 10
743.8980472438626
 20
347.1938537431641
 30
0.0
 10
744.3543863152781
 20
347.3180152001682
 30
0.0
 10
744.8227143341392
 20
347.4151230649616
 30
0.0
 10
745.3040464719611
 20
347.4852110625829
 30
0.0
 10
745.7914100522722
 20
347.5274389223944
 30
0.0
 10
746.2831722745235
 20
347.5415033333021
 30
0.0
 10
746.7749344967789
 20
347.5274389223187
 30
0.0
 10
747.2622980770777
 20
347.4852110624275
 30
0.0
 10
747.743630214944
 20
347.4151230647172
 30
0.0
 10
748.2119582336413
 20
347.318015199823
 30
0.0
 10
748.6682973056446
 20
347.1938537426998
 30
0.0
 10
749.1035987389095
 20
347.0448939088125
 30
0.0
 10
749.5210893077132
 20
346.8702305408821
 30
0.0
 10
749.9104468158457
 20
346.6739280589946
 30
0.0
 10
750.2763459905568
 20
346.4538407279492
 30
0.0
 10
750.6082823581648
 20
346.2159816360647
 30
0.0
 10
750.9113025380736
 20
345.9568995929183
 30
0.0
 10
751.1760274841773
 20
345.6842949848586
 30
0.0
 10
751.4066061328602
 20
345.3938494666189
 30
0.0
 10
751.5960525908143
 20
345.094132528517
 30
0.0
 10
751.7467204473323
 20
344.7811049870246
 30
0.0
 10
751.8540081603202
 20
344.4627645914131
 30
0.0
 10
751.9216965513344
 20
344.1371410699672
 30
0.0
 10
751.9302320470155
 20
343.9189108578033
 30
0.0
 10
751.9344995423965
 20
343.8098023128186
 30
0.0
 11
751.9344995423965
 21
343.8098023128186
 31
0.0
 11
751.9126883904948
 21
343.4834263007939
 31
0.0
 11
751.8486431825843
 21
343.1626133182444
 31
0.0
 11
751.740241446085
 21
342.8411413111496
 31
0.0
 11
751.5936828051956
 21
342.5350888337769
 31
0.0
 11
751.4013583950198
 21
342.2295357888947
 31
0.0
 11
751.1773652522807
 21
341.9462958733341
 31
0.0
 11
750.9072195558776
 21
341.66711145247
 31
0.0
 11
750.6123401220186
 21
341.4141246130752
 31
0.0
 11
750.2732982099715
 21
341.1704487602262
 31
0.0
 11
749.9157754170753
 21
340.9547448074516
 31
0.0
 11
749.518911141671
 21
340.7541468289568
 31
0.0
 11
749.108835903532
 21
340.5821144793997
 31
0.0
 11
748.6668442892376
 21
340.4305259728324
 31
0.0
 11
748.2160400301768
 21
340.3075558128774
 31
0.0
 11
747.7427987384335
 21
340.2092334749029
 31
0.0
 11
747.2645149478446
 21
340.1394111340335
 31
0.0
 11
746.7746639381537
 21
340.096899666201
 31
0.0
 11
746.2831722646679
 21
340.0827894338497
 31
0.0
 11
745.7916805911818
 21
340.096899666201
 31
0.0
 11
745.3018295814907
 21
340.1394111340335
 31
0.0
 11
744.823545790902
 21
340.209233474903
 31
0.0
 11
744.3503044991587
 21
340.3075558128774
 31
0.0
 11
743.8995002400978
 21
340.4305259728324
 31
0.0
 11
743.4575086258035
 21
340.5821144793997
 31
0.0
 11
743.0474333876646
 21
340.7541468289568
 31
0.0
 11
742.6505691122602
 21
340.9547448074516
 31
0.0
 11
742.2930463193642
 21
341.1704487602262
 31
0.0
 11
741.9540044073171
 21
341.4141246130752
 31
0.0
 11
741.6591249734581
 21
341.66711145247
 31
0.0
 11
741.3889792770549
 21
341.9462958733341
 31
0.0
 11
741.1649861343159
 21
342.2295357888947
 31
0.0
 11
740.9726617241402
 21
342.5350888337769
 31
0.0
 11
740.8261030832507
 21
342.8411413111496
 31
0.0
 11
740.7177013467513
 21
343.1626133182444
 31
0.0
 11
740.6536561388407
 21
343.4834263007939
 31
0.0
 11
740.6318449869391
 21
343.8098023128186
 31
0.0
 11
740.6536561388407
 21
344.1361783248432
 31
0.0
 11
740.7177013467513
 21
344.4569913073927
 31
0.0
 11
740.8261030832508
 21
344.7784633144875
 31
0.0
 11
740.9726617241402
 21
345.08451579186
 31
0.0
 11
741.164986134316
 21
345.3900688367423
 31
0.0
 11
741.3889792770549
 21
345.6733087523029
 31
0.0
 11
741.6591249734581
 21
345.9524931731671
 31
0.0
 11
741.9540044073171
 21
346.2054800125619
 31
0.0
 11
742.2930463193642
 21
346.4491558654109
 31
0.0
 11
742.6505691122602
 21
346.6648598181856
 31
0.0
 11
743.0474333876646
 21
346.8654577966803
 31
0.0
 11
743.4575086258035
 21
347.0374901462374
 31
0.0
 11
743.899500240098
 21
347.1890786528048
 31
0.0
 11
744.3503044991587
 21
347.3120488127597
 31
0.0
 11
744.823545790902
 21
347.4103711507341
 31
0.0
 11
745.3018295814909
 21
347.4801934916034
 31
0.0
 11
745.791680591182
 21
347.522704959436
 31
0.0
 11
746.2831722646679
 21
347.5368151917874
 31
0.0
 11
746.7746639381538
 21
347.522704959436
 31
0.0
 11
747.2645149478449
 21
347.4801934916034
 31
0.0
 11
747.7427987384336
 21
347.410371150734
 31
0.0
 11
748.216040030177
 21
347.3120488127597
 31
0.0
 11
748.6668442892379
 21
347.1890786528048
 31
0.0
 11
749.1088359035323
 21
347.0374901462374
 31
0.0
 11
749.5189111416712
 21
346.8654577966803
 31
0.0
 11
749.9157754170753
 21
346.6648598181856
 31
0.0
 11
750.2732982099714
 21
346.449155865411
 31
0.0
 11
750.6123401220186
 21
346.2054800125619
 31
0.0
 11
750.9072195558779
 21
345.9524931731671
 31
0.0
 11
751.1773652522809
 21
345.6733087523029
 31
0.0
 11
751.4013583950199
 21
345.3900688367422
 31
0.0
 11
751.5936828051956
 21
345.08451579186
 31
0.0
 11
751.7402414460851
 21
344.7784633144875
 31
0.0
 11
751.8486431825845
 21
344.4569913073927
 31
0.0
 11
751.912688390495
 21
344.1361783248432
 31
0.0
 11
751.9344995423965
 21
343.8098023128186
 31
0.0
  0
ARC
  5
240
330
62
100
AcDbEntity
  8
1
  6
Continuous
 62
     7
100
AcDbCircle
 10
752.5831722646678
 20
371.0568470759197
 30
0.0
 40
0.2000000000000455
100
AcDbArc
 50
0.0
 51
49.99479911515495
  0
ARC
  5
241
330
62
100
AcDbEntity
  8
1
  6
Continuous
 62
     7
100
AcDbCircle
 10
739.9831722646677
 20
371.0568470759197
 30
0.0
 40
0.1999999999999823
100
AcDbArc
 50
130.005200884845
 51
180.0
  0
ARC
  5
242
330
62
100
AcDbEntity
  8
1
  6
Continuous
 62
     7
100
AcDbCircle
 10
739.9831722646679
 20
342.5435196632506
 30
0.0
 40
0.2000000000000455
100
AcDbArc
 50
180.0
 51
229.9947991150947
  0
ARC
  5
243
330
62
100
AcDbEntity
  8
1
  6
Continuous
 62
     7
100
AcDbCircle
 10
752.5831722646678
 20
342.5435196632506
 30
0.0
 40
0.1999999999999388
100
AcDbArc
 50
310.0052008848555
 51
0.0
  0
ARC
  5
244
330
62
100
AcDbEntity
  8
1
  6
Continuous
 62
     7
100
AcDbCircle
 10
348.2376471352058
 20
801.5521689694181
 30
0.0
 40
0.2000000000000849
100
AcDbArc
 50
40.00520088490541
 51
90.00000000008141
  0
ARC
  5
245
330
62
100
AcDbEntity
  8
1
  6
Continuous
 62
     7
100
AcDbCircle
 10
348.2376471352058
 20
788.9521689694177
 30
0.0
 40
0.1999999999995907
100
AcDbArc
 50
270.0
 51
319.9947991151944
  0
ARC
  5
246
330
62
100
AcDbEntity
  8
1
  6
Continuous
 62
     7
100
AcDbCircle
 10
319.7243197225367
 20
801.5521689694181
 30
0.0
 40
0.2000000000000455
100
AcDbArc
 50
90.0
 51
139.9947991151759
  0
ARC
  5
247
330
62
100
AcDbEntity
  8
1
  6
Continuous
 62
     7
100
AcDbCircle
 10
319.7243197225367
 20
788.9521689694179
 30
0.0
 40
0.2000000000003306
100
AcDbArc
 50
220.0052008847613
 51
269.999999999886
  0
ENDBLK
  5
64
330
62
100
AcDbEntity
  8
0
100
AcDbBlockEnd
  0
BLOCK
  5
66
330
65
100
AcDbEntity
  8
0
100
AcDbBlockBegin
  2
78-3A-C4K__2
 70
     0
 10
1008.765751213934
 20
1008.321312482405
 30
0.0
  3
78-3A-C4K__2
  1

  0
LINE
  5
248
330
65
100
AcDbEntity
  8
1
  6
Continuous
 62
     7
100
AcDbLine
 10
784.0364373932323
 20
343.8146430664941
 30
0.0
 11
784.0364373932323
 21
299.0750455540227
 31
0.0
  0
LINE
  5
249
330
65
100
AcDbEntity
  8
1
  6
Continuous
 62
     7
100
AcDbLine
 10
784.1806248474784
 20
296.4448443102586
 30
0.0
 11
786.3999999999917
 21
296.4448443102586
 31
0.0
  0
LINE
  5
24A
330
65
100
AcDbEntity
  8
1
  6
Continuous
 62
     7
100
AcDbLine
 10
783.3997560380353
 20
346.0695393578126
 30
0.0
 11
775.9191311905488
 21
334.7187582984546
 31
0.0
  0
LINE
  5
24B
330
65
100
AcDbEntity
  8
1
  6
Continuous
 62
     7
100
AcDbLine
 10
786.3999999999917
 20
346.4448443102586
 30
0.0
 11
784.1806248474784
 21
346.4448443102586
 31
0.0
  0
LINE
  5
24C
330
65
100
AcDbEntity
  8
1
  6
Continuous
 62
     7
100
AcDbLine
 10
786.3999999999917
 20
346.4448443102586
 30
0.0
 11
786.3999999999917
 21
296.4448443102586
 31
0.0
  0
LINE
  5
24D
330
65
100
AcDbEntity
  8
1
  6
Continuous
 62
     7
100
AcDbLine
 10
783.3997560380353
 20
296.8201492627039
 30
0.0
 11
775.9191311905488
 21
308.1709303220621
 31
0.0
  0
LINE
  5
24E
330
65
100
AcDbEntity
  8
1
  6
Continuous
 62
     7
100
AcDbLine
 10
775.6999999999919
 20
334.0940632509001
 30
0.0
 11
775.6999999999919
 21
308.7956253696164
 31
0.0
  0
LINE
  5
24F
330
65
100
AcDbEntity
  8
1
  6
Continuous
 62
     7
100
AcDbLine
 10
356.6871025182646
 20
824.600179261894
 30
0.0
 11
381.9855403995483
 21
824.600179261894
 31
0.0
  0
LINE
  5
250
330
65
100
AcDbEntity
  8
1
  6
Continuous
 62
     7
100
AcDbLine
 10
393.9610165064608
 20
832.2999352999375
 30
0.0
 11
382.6102354471025
 21
824.819310452451
 31
0.0
  0
LINE
  5
251
330
65
100
AcDbEntity
  8
1
  6
Continuous
 62
     7
100
AcDbLine
 10
344.3363214589061
 20
835.3001792618938
 30
0.0
 11
394.3363214589061
 21
835.3001792618938
 31
0.0
  0
LINE
  5
252
330
65
100
AcDbEntity
  8
1
  6
Continuous
 62
     7
100
AcDbLine
 10
344.3363214589061
 20
835.3001792618938
 30
0.0
 11
344.3363214589061
 21
833.0808041093806
 31
0.0
  0
LINE
  5
253
330
65
100
AcDbEntity
  8
1
  6
Continuous
 62
     7
100
AcDbLine
 10
344.711626411352
 20
832.2999352999375
 30
0.0
 11
356.0624074707101
 21
824.819310452451
 31
0.0
  0
LINE
  5
254
330
65
100
AcDbEntity
  8
1
  6
Continuous
 62
     7
100
AcDbLine
 10
394.3363214589061
 20
833.0808041093806
 30
0.0
 11
394.3363214589061
 21
835.3001792618938
 31
0.0
  0
LINE
  5
255
330
65
100
AcDbEntity
  8
1
  6
Continuous
 62
     7
100
AcDbLine
 10
346.9665227026706
 20
832.9366166551345
 30
0.0
 11
391.706120215142
 21
832.9366166551345
 31
0.0
  0
ARC
  5
256
330
65
100
AcDbEntity
  8
1
  6
Continuous
 62
     7
100
AcDbCircle
 10
369.3363234836529
 20
321.4448466211724
 30
0.0
 40
25.00000000000005
100
AcDbArc
 50
162.3871075026541
 51
107.6128924973463
  0
ARC
  5
257
330
65
100
AcDbEntity
  8
1
  6
Continuous
 62
     7
100
AcDbCircle
 10
784.1806248474784
 20
297.4448443102586
 30
0.0
 40
1.000000000000177
100
AcDbArc
 50
218.6598082540997
 51
270.0
  0
ARC
  5
258
330
65
100
AcDbEntity
  8
1
  6
Continuous
 62
     7
100
AcDbCircle
 10
776.6999999999919
 20
308.7956253696164
 30
0.0
 40
1.0
100
AcDbArc
 50
180.0
 51
218.6598082540845
  0
ARC
  5
259
330
65
100
AcDbEntity
  8
1
  6
Continuous
 62
     7
100
AcDbCircle
 10
776.6999999999919
 20
334.0940632509001
 30
0.0
 40
1.000000000000071
100
AcDbArc
 50
141.3401917459079
 51
180.0
  0
ARC
  5
25A
330
65
100
AcDbEntity
  8
1
  6
Continuous
 62
     7
100
AcDbCircle
 10
784.1806248474784
 20
345.4448443102586
 30
0.0
 40
1.0
100
AcDbArc
 50
90.0
 51
141.3401917459308
  0
ARC
  5
25B
330
65
100
AcDbEntity
  8
1
  6
Continuous
 62
     7
100
AcDbCircle
 10
345.3363214589061
 20
833.0808041093806
 30
0.0
 40
1.0
100
AcDbArc
 50
180.0
 51
231.3401917459231
  0
ARC
  5
25C
330
65
100
AcDbEntity
  8
1
  6
Continuous
 62
     7
100
AcDbCircle
 10
356.6871025182646
 20
825.600179261894
 30
0.0
 40
1.000000000000071
100
AcDbArc
 50
231.3401917459079
 51
270.0
  0
ARC
  5
25D
330
65
100
AcDbEntity
  8
1
  6
Continuous
 62
     7
100
AcDbCircle
 10
381.9855403995483
 20
825.600179261894
 30
0.0
 40
1.0
100
AcDbArc
 50
270.0
 51
308.6598082540794
  0
ARC
  5
25E
330
65
100
AcDbEntity
  8
1
  6
Continuous
 62
     7
100
AcDbCircle
 10
393.3363214589061
 20
833.0808041093806
 30
0.0
 40
1.000000000000177
100
AcDbArc
 50
308.6598082540997
 51
0.0
  0
ENDBLK
  5
67
330
65
100
AcDbEntity
  8
0
100
AcDbBlockEnd
  0
BLOCK
  5
69
330
68
100
AcDbEntity
  8
0
100
AcDbBlockBegin
  2
35-6A-8-C2K__3
 70
     0
 10
1296.166601768763
 20
1027.890291586395
 30
0.0
  3
35-6A-8-C2K__3
  1

  0
LINE
  5
25F
330
68
100
AcDbEntity
  8
1
  6
Continuous
 62
     7
100
AcDbLine
 10
752.7805562780038
 20
365.2001778688391
 30
0.0
 11
753.3999999999912
 21
365.2001778688391
 31
0.0
  0
LINE
  5
260
330
68
100
AcDbEntity
  8
1
  6
Continuous
 62
     7
100
AcDbLine
 10
753.3999999999912
 20
348.4001778688394
 30
0.0
 11
752.7805562780038
 21
348.4001778688394
 31
0.0
  0
LINE
  5
261
330
68
100
AcDbEntity
  8
1
  6
Continuous
 62
     7
100
AcDbLine
 10
342.3809879003251
 20
802.3001841199771
 30
0.0
 11
342.3809879003251
 21
801.6807403979897
 31
0.0
  0
LINE
  5
262
330
68
100
AcDbEntity
  8
1
  6
Continuous
 62
     7
100
AcDbLine
 10
325.5809879003253
 20
801.6807403979897
 30
0.0
 11
325.5809879003253
 21
802.3001841199771
 31
0.0
  0
ENDBLK
  5
6A
330
68
100
AcDbEntity
  8
0
100
AcDbBlockEnd
  0
BLOCK
  5
6C
330
6B
100
AcDbEntity
  8
0
100
AcDbBlockBegin
  2
30-108-M11K__4
 70
     0
 10
1223.980987900325
 20
734.2001882276616
 30
0.0
  3
30-108-M11K__4
  1

  0
LINE
  5
263
330
6B
100
AcDbEntity
  8
1
  6
Continuous
 62
     2
100
AcDbLine
 10
752.3999999999915
 20
319.7951880704422
 30
0.0
 11
741.8999999999915
 21
319.7951880704422
 31
0.0
  0
LINE
  5
264
330
6B
100
AcDbEntity
  8
1
  6
Continuous
 62
     2
100
AcDbLine
 10
752.3999999999915
 20
318.1956543966841
 30
0.0
 11
741.8999999999915
 21
318.1956543966841
 31
0.0
  0
LINE
  5
265
330
6B
100
AcDbEntity
  8
1
  6
Continuous
 62
     2
100
AcDbLine
 10
752.3999999999915
 20
316.694845758278
 30
0.0
 11
741.8999999999915
 21
316.694845758278
 31
0.0
  0
LINE
  5
266
330
6B
100
AcDbEntity
  8
1
  6
Continuous
 62
     2
100
AcDbLine
 10
752.3999999999915
 20
315.3383634662559
 30
0.0
 11
741.8999999999915
 21
315.3383634662559
 31
0.0
  0
LINE
  5
267
330
6B
100
AcDbEntity
  8
1
  6
Continuous
 62
     2
100
AcDbLine
 10
752.3999999999915
 20
314.1674235486477
 30
0.0
 11
741.8999999999915
 21
314.1674235486477
 31
0.0
  0
LINE
  5
268
330
6B
100
AcDbEntity
  8
1
  6
Continuous
 62
     2
100
AcDbLine
 10
752.3999999999915
 20
313.217604422326
 30
0.0
 11
741.8999999999915
 21
313.217604422326
 31
0.0
  0
LINE
  5
269
330
6B
100
AcDbEntity
  8
1
  6
Continuous
 62
     2
100
AcDbLine
 10
752.3999999999915
 20
312.5177658608117
 30
0.0
 11
741.8999999999915
 21
312.5177658608117
 31
0.0
  0
LINE
  5
26A
330
6B
100
AcDbEntity
  8
1
  6
Continuous
 62
     2
100
AcDbLine
 10
752.3999999999915
 20
312.0891721046618
 30
0.0
 11
741.8999999999915
 21
312.0891721046618
 31
0.0
  0
LINE
  5
26B
330
6B
100
AcDbEntity
  8
1
  6
Continuous
 62
     2
100
AcDbLine
 10
741.8999999999915
 20
330.371925655744
 30
0.0
 11
752.3999999999915
 21
330.371925655744
 31
0.0
  0
LINE
  5
26C
330
6B
100
AcDbEntity
  8
1
  6
Continuous
 62
     2
100
AcDbLine
 10
741.8999999999915
 20
329.6720870942301
 30
0.0
 11
752.3999999999915
 21
329.6720870942301
 31
0.0
  0
LINE
  5
26D
330
6B
100
AcDbEntity
  8
1
  6
Continuous
 62
     2
100
AcDbLine
 10
741.8999999999915
 20
328.7222679679084
 30
0.0
 11
752.3999999999915
 21
328.7222679679084
 31
0.0
  0
LINE
  5
26E
330
6B
100
AcDbEntity
  8
1
  6
Continuous
 62
     2
100
AcDbLine
 10
741.8999999999915
 20
327.5513280503
 30
0.0
 11
752.3999999999915
 21
327.5513280503
 31
0.0
  0
LINE
  5
26F
330
6B
100
AcDbEntity
  8
1
  6
Continuous
 62
     2
100
AcDbLine
 10
741.8999999999915
 20
326.194845758278
 30
0.0
 11
752.3999999999915
 21
326.194845758278
 31
0.0
  0
LINE
  5
270
330
6B
100
AcDbEntity
  8
1
  6
Continuous
 62
     2
100
AcDbLine
 10
741.8999999999915
 20
324.6940371198718
 30
0.0
 11
752.3999999999915
 21
324.6940371198718
 31
0.0
  0
LINE
  5
271
330
6B
100
AcDbEntity
  8
1
  6
Continuous
 62
     2
100
AcDbLine
 10
741.8999999999915
 20
323.0945034461137
 30
0.0
 11
752.3999999999915
 21
323.0945034461137
 31
0.0
  0
LINE
  5
272
330
6B
100
AcDbEntity
  8
1
  6
Continuous
 62
     2
100
AcDbLine
 10
741.8999999999915
 20
330.8005194118938
 30
0.0
 11
752.3999999999915
 21
330.8005194118938
 31
0.0
  0
LINE
  5
273
330
6B
100
AcDbEntity
  8
0
  6
Continuous
 62
     7
100
AcDbLine
 10
740.8999999999915
 20
330.944845758278
 30
0.0
 11
740.8999999999915
 21
311.944845758278
 31
0.0
  0
LINE
  5
274
330
6B
100
AcDbEntity
  8
1
  6
Continuous
 62
     7
100
AcDbLine
 10
740.8999999999915
 20
330.944845758278
 30
0.0
 11
753.3999999999912
 21
330.944845758278
 31
0.0
  0
LINE
  5
275
330
6B
100
AcDbEntity
  8
1
  6
Continuous
 62
     7
100
AcDbLine
 10
740.8999999999915
 20
330.944845758278
 30
0.0
 11
739.8999999999915
 21
329.944845758278
 31
0.0
  0
LINE
  5
276
330
6B
100
AcDbEntity
  8
1
  6
Continuous
 62
     7
100
AcDbLine
 10
739.8999999999915
 20
312.944845758278
 30
0.0
 11
739.8999999999915
 21
329.944845758278
 31
0.0
  0
LINE
  5
277
330
6B
100
AcDbEntity
  8
1
  6
Continuous
 62
     7
100
AcDbLine
 10
753.3999999999915
 20
311.944845758278
 30
0.0
 11
740.8999999999915
 21
311.944845758278
 31
0.0
  0
LINE
  5
278
330
6B
100
AcDbEntity
  8
1
  6
Continuous
 62
     7
100
AcDbLine
 10
739.8999999999915
 20
312.944845758278
 30
0.0
 11
740.8999999999915
 21
311.944845758278
 31
0.0
  0
LINE
  5
279
330
6B
100
AcDbEntity
  8
1
  6
Continuous
 62
     7
100
AcDbLine
 10
377.8363210508776
 20
788.8001792618938
 30
0.0
 11
378.8363210508776
 21
789.8001792618938
 31
0.0
  0
LINE
  5
27A
330
6B
100
AcDbEntity
  8
1
  6
Continuous
 62
     7
100
AcDbLine
 10
378.8363210508776
 20
802.3001792618938
 30
0.0
 11
378.8363210508776
 21
789.8001792618938
 31
0.0
  0
LINE
  5
27B
330
6B
100
AcDbEntity
  8
1
  6
Continuous
 62
     7
100
AcDbLine
 10
377.8363210508776
 20
788.8001792618938
 30
0.0
 11
360.8363210508776
 21
788.8001792618938
 31
0.0
  0
LINE
  5
27C
330
6B
100
AcDbEntity
  8
1
  6
Continuous
 62
     7
100
AcDbLine
 10
359.8363210508776
 20
789.8001792618938
 30
0.0
 11
360.8363210508776
 21
788.8001792618938
 31
0.0
  0
LINE
  5
27D
330
6B
100
AcDbEntity
  8
1
  6
Continuous
 62
     7
100
AcDbLine
 10
359.8363210508776
 20
789.8001792618938
 30
0.0
 11
359.8363210508776
 21
802.3001792618936
 31
0.0
  0
LINE
  5
27E
330
6B
100
AcDbEntity
  8
0
  6
Continuous
 62
     7
100
AcDbLine
 10
359.8363210508776
 20
789.8001792618938
 30
0.0
 11
378.8363210508776
 21
789.8001792618938
 31
0.0
  0
LINE
  5
27F
330
6B
100
AcDbEntity
  8
1
  6
Continuous
 62
     2
100
AcDbLine
 10
359.9806473972618
 20
790.8001792618938
 30
0.0
 11
359.9806473972618
 21
801.3001792618938
 31
0.0
  0
LINE
  5
280
330
6B
100
AcDbEntity
  8
1
  6
Continuous
 62
     2
100
AcDbLine
 10
367.6866633630419
 20
790.8001792618938
 30
0.0
 11
367.6866633630419
 21
801.3001792618938
 31
0.0
  0
LINE
  5
281
330
6B
100
AcDbEntity
  8
1
  6
Continuous
 62
     2
100
AcDbLine
 10
366.0871296892838
 20
790.8001792618938
 30
0.0
 11
366.0871296892838
 21
801.3001792618938
 31
0.0
  0
LINE
  5
282
330
6B
100
AcDbEntity
  8
1
  6
Continuous
 62
     2
100
AcDbLine
 10
364.5863210508776
 20
790.8001792618938
 30
0.0
 11
364.5863210508776
 21
801.3001792618938
 31
0.0
  0
LINE
  5
283
330
6B
100
AcDbEntity
  8
1
  6
Continuous
 62
     2
100
AcDbLine
 10
363.2298387588556
 20
790.8001792618938
 30
0.0
 11
363.2298387588556
 21
801.3001792618938
 31
0.0
  0
LINE
  5
284
330
6B
100
AcDbEntity
  8
1
  6
Continuous
 62
     2
100
AcDbLine
 10
362.0588988412472
 20
790.8001792618938
 30
0.0
 11
362.0588988412472
 21
801.3001792618938
 31
0.0
  0
LINE
  5
285
330
6B
100
AcDbEntity
  8
1
  6
Continuous
 62
     2
100
AcDbLine
 10
361.1090797149255
 20
790.8001792618938
 30
0.0
 11
361.1090797149255
 21
801.3001792618938
 31
0.0
  0
LINE
  5
286
330
6B
100
AcDbEntity
  8
1
  6
Continuous
 62
     2
100
AcDbLine
 10
360.4092411534116
 20
790.8001792618938
 30
0.0
 11
360.4092411534116
 21
801.3001792618938
 31
0.0
  0
LINE
  5
287
330
6B
100
AcDbEntity
  8
1
  6
Continuous
 62
     2
100
AcDbLine
 10
378.6919947044938
 20
801.3001792618938
 30
0.0
 11
378.6919947044938
 21
790.8001792618938
 31
0.0
  0
LINE
  5
288
330
6B
100
AcDbEntity
  8
1
  6
Continuous
 62
     2
100
AcDbLine
 10
378.2634009483439
 20
801.3001792618938
 30
0.0
 11
378.2634009483439
 21
790.8001792618938
 31
0.0
  0
LINE
  5
289
330
6B
100
AcDbEntity
  8
1
  6
Continuous
 62
     2
100
AcDbLine
 10
377.5635623868296
 20
801.3001792618938
 30
0.0
 11
377.5635623868296
 21
790.8001792618938
 31
0.0
  0
LINE
  5
28A
330
6B
100
AcDbEntity
  8
1
  6
Continuous
 62
     2
100
AcDbLine
 10
376.6137432605079
 20
801.3001792618938
 30
0.0
 11
376.6137432605079
 21
790.8001792618938
 31
0.0
  0
LINE
  5
28B
330
6B
100
AcDbEntity
  8
1
  6
Continuous
 62
     2
100
AcDbLine
 10
375.4428033428997
 20
801.3001792618938
 30
0.0
 11
375.4428033428997
 21
790.8001792618938
 31
0.0
  0
LINE
  5
28C
330
6B
100
AcDbEntity
  8
1
  6
Continuous
 62
     2
100
AcDbLine
 10
374.0863210508776
 20
801.3001792618938
 30
0.0
 11
374.0863210508776
 21
790.8001792618938
 31
0.0
  0
LINE
  5
28D
330
6B
100
AcDbEntity
  8
1
  6
Continuous
 62
     2
100
AcDbLine
 10
372.5855124124715
 20
801.3001792618938
 30
0.0
 11
372.5855124124715
 21
790.8001792618938
 31
0.0
  0
LINE
  5
28E
330
6B
100
AcDbEntity
  8
1
  6
Continuous
 62
     2
100
AcDbLine
 10
370.9859787387134
 20
801.3001792618938
 30
0.0
 11
370.9859787387134
 21
790.8001792618938
 31
0.0
  0
CIRCLE
  5
28F
330
6B
100
AcDbEntity
  8
1
  6
Continuous
 62
     7
100
AcDbCircle
 10
369.3363234836529
 20
321.4448466211724
 30
0.0
 40
9.499999999999917
  0
CIRCLE
  5
290
330
6B
100
AcDbEntity
  8
1
  6
Continuous
 62
     7
100
AcDbCircle
 10
369.3363234836529
 20
321.4448466211724
 30
0.0
 40
8.499999999999988
  0
CIRCLE
  5
291
330
6B
100
AcDbEntity
  8
1
  6
Continuous
 62
     7
100
AcDbCircle
 10
369.3363234836529
 20
321.4448466211724
 30
0.0
 40
5.499999999999964
  0
ENDBLK
  5
6D
330
6B
100
AcDbEntity
  8
0
100
AcDbBlockEnd
  0
BLOCK
  5
6F
330
6E
100
AcDbEntity
  8
0
100
AcDbBlockBegin
  2
36-99-M11K__5
 70
     0
 10
1179.230987900325
 20
656.2001882276616
 30
0.0
  3
36-99-M11K__5
  1

  0
LINE
  5
292
330
6E
100
AcDbEntity
  8
1
  6
Continuous
 62
     7
100
AcDbLine
 10
366.0654799958467
 20
317.4668971060025
 30
0.0
 11
373.3142729988231
 21
324.7156901089789
 31
0.0
  0
LINE
  5
293
330
6E
100
AcDbEntity
  8
1
  6
Continuous
 62
     7
100
AcDbLine
 10
365.3583732146601
 20
318.174003887189
 30
0.0
 11
372.6071662176365
 21
325.4227968901654
 31
0.0
  0
ARC
  5
294
330
6E
100
AcDbEntity
  8
1
  6
Continuous
 62
     7
100
AcDbCircle
 10
369.3363231067415
 20
321.4448469980838
 30
0.0
 40
4.250000000000114
100
AcDbArc
 50
51.75632703058825
 51
218.2436729694115
  0
ARC
  5
295
330
6E
100
AcDbEntity
  8
1
  6
Continuous
 62
     7
100
AcDbCircle
 10
369.3363231067415
 20
321.4448469980838
 30
0.0
 40
4.249999999999865
100
AcDbArc
 50
231.7563270305876
 51
38.2436729694139
  0
ENDBLK
  5
70
330
6E
100
AcDbEntity
  8
0
100
AcDbBlockEnd
  0
BLOCK
  5
72
330
71
100
AcDbEntity
  8
0
100
AcDbBlockBegin
  2
78-78-C2K__6
 70
     0
 10
1179.830987900326
 20
640.9001882276616
 30
0.0
  3
78-78-C2K__6
  1

  0
LINE
  5
296
330
71
100
AcDbEntity
  8
1
  6
Continuous
 62
     7
100
AcDbLine
 10
374.094303076086
 20
319.4740269444924
 30
0.0
 11
374.417660912465
 21
319.3400877431644
 31
0.0
  0
LINE
  5
297
330
71
100
AcDbEntity
  8
1
  6
Continuous
 62
     7
100
AcDbLine
 10
371.3071431603332
 20
316.6868670287395
 30
0.0
 11
371.441082361661
 21
316.3635091923603
 31
0.0
  0
ARC
  5
298
330
71
100
AcDbEntity
  8
1
  6
Continuous
 62
     7
100
AcDbCircle
 10
369.3363234836529
 20
321.4448466211724
 30
0.0
 40
5.149999999999923
100
AcDbArc
 50
337.5000000000018
 51
292.5000000000021
  0
ENDBLK
  5
73
330
71
100
AcDbEntity
  8
0
100
AcDbBlockEnd
  0
BLOCK
  5
78
330
74
100
AcDbEntity
  8
0
100
AcDbBlockBegin
  2
30-108XK__7
 70
     0
 10
1228.980987900325
 20
744.2001882276616
 30
0.0
  3
30-108XK__7
  1

  0
INSERT
  5
75
330
74
100
AcDbEntity
  8
1
100
AcDbBlockReference
  2
30-108-M11K__4
 10
1223.980987900325
 20
734.2001882276616
 30
0.0
  0
INSERT
  5
76
330
74
100
AcDbEntity
  8
1
100
AcDbBlockReference
  2
36-99-M11K__5
 10
1179.230987900325
 20
656.2001882276616
 30
0.0
  0
INSERT
  5
77
330
74
100
AcDbEntity
  8
1
100
AcDbBlockReference
  2
78-78-C2K__6
 10
1179.830987900326
 20
640.9001882276616
 30
0.0
  0
ENDBLK
  5
79
330
74
100
AcDbEntity
  8
0
100
AcDbBlockEnd
  0
BLOCK
  5
7B
330
7A
100
AcDbEntity
  8
0
100
AcDbBlockBegin
  2
03-47-50-M1K__8
 70
     0
 10
1153.230987900326
 20
645.5945257949593
 30
0.0
  3
03-47-50-M1K__8
  1

  0
LINE
  5
299
330
7A
100
AcDbEntity
  8
0
  6
Continuous
 62
     7
100
AcDbLine
 10
770.8999999999912
 20
332.9448453502493
 30
0.0
 11
770.8999999999912
 21
309.9448453502493
 31
0.0
  0
LINE
  5
29A
330
7A
100
AcDbEntity
  8
1
  6
Continuous
 62
     7
100
AcDbLine
 10
763.5909059582639
 20
344.086273778792
 30
0.0
 11
763.5909059582639
 21
356.8250456405843
 31
0.0
  0
LINE
  5
29B
330
7A
100
AcDbEntity
  8
1
  6
Continuous
 62
     2
100
AcDbLine
 10
774.8999999999903
 20
312.1293453502489
 30
0.0
 11
772.8873569615964
 21
310.9673453502491
 31
0.0
  0
LINE
  5
29C
330
7A
100
AcDbEntity
  8
1
  6
Continuous
 62
     7
100
AcDbLine
 10
772.8483858184261
 20
331.9448453502491
 30
0.0
 11
772.8873569615955
 21
331.922345350249
 31
0.0
  0
LINE
  5
29D
330
7A
100
AcDbEntity
  8
1
  6
Continuous
 62
     7
100
AcDbLine
 10
772.8483858184261
 20
331.9448453502491
 30
0.0
 11
771.8999999999912
 21
331.9448453502493
 31
0.0
  0
LINE
  5
29E
330
7A
100
AcDbEntity
  8
0
  6
Continuous
 62
     7
100
AcDbLine
 10
799.237999999991
 20
331.922345350249
 30
0.0
 11
799.237999999991
 21
310.9673453502491
 31
0.0
  0
LINE
  5
29F
330
7A
100
AcDbEntity
  8
1
  6
Continuous
 62
     7
100
AcDbLine
 10
771.8999999999912
 20
310.9448453502493
 30
0.0
 11
772.8483858184252
 21
310.9448453502491
 31
0.0
  0
LINE
  5
2A0
330
7A
100
AcDbEntity
  8
1
  6
Continuous
 62
     7
100
AcDbLine
 10
770.8999999999912
 20
336.9448453502491
 30
0.0
 11
770.8999999999912
 21
332.9448453502493
 31
0.0
  0
LINE
  5
2A1
330
7A
100
AcDbEntity
  8
1
  6
Continuous
 62
     7
100
AcDbLine
 10
753.3999999999912
 20
364.4001789088301
 30
0.0
 11
753.3999999999912
 21
310.9448453502491
 31
0.0
  0
LINE
  5
2A2
330
7A
100
AcDbEntity
  8
1
  6
Continuous
 62
     7
100
AcDbLine
 10
753.3999999999912
 20
309.9448453502491
 30
0.0
 11
770.8999999999912
 21
309.9448453502493
 31
0.0
  0
LINE
  5
2A3
330
7A
100
AcDbEntity
  8
1
  6
Continuous
 62
     7
100
AcDbLine
 10
800.3999999999912
 20
330.7603453502492
 30
0.0
 11
800.3999999999912
 21
312.1293453502491
 31
0.0
  0
LINE
  5
2A4
330
7A
100
AcDbEntity
  8
1
  6
Continuous
 62
     2
100
AcDbLine
 10
786.3999999999912
 20
330.7603453502492
 30
0.0
 11
800.3999999999912
 21
330.7603453502492
 31
0.0
  0
LINE
  5
2A5
330
7A
100
AcDbEntity
  8
1
  6
Continuous
 62
     7
100
AcDbLine
 10
799.237999999991
 20
331.922345350249
 30
0.0
 11
800.3999999999912
 21
330.7603453502492
 31
0.0
  0
LINE
  5
2A6
330
7A
100
AcDbEntity
  8
1
  6
Continuous
 62
     7
100
AcDbLine
 10
799.237999999991
 20
310.9673453502491
 30
0.0
 11
800.3999999999912
 21
312.1293453502491
 31
0.0
  0
LINE
  5
2A7
330
7A
100
AcDbEntity
  8
1
  6
Continuous
 62
     7
100
AcDbLine
 10
767.8999999999912
 20
344.0862737787917
 30
0.0
 11
767.8999999999912
 21
368.3001789088299
 31
0.0
  0
LINE
  5
2A8
330
7A
100
AcDbEntity
  8
1
  6
Continuous
 62
     7
100
AcDbLine
 10
767.8999999999912
 20
368.3001789088299
 30
0.0
 11
753.3999999999912
 21
368.3001789088299
 31
0.0
  0
LINE
  5
2A9
330
7A
100
AcDbEntity
  8
1
  6
Continuous
 62
     7
100
AcDbLine
 10
753.3999999999912
 20
368.3001789088299
 30
0.0
 11
753.3999999999912
 21
364.4001789088301
 31
0.0
  0
LINE
  5
2AA
330
7A
100
AcDbEntity
  8
1
  6
Continuous
 62
     7
100
AcDbLine
 10
753.3999999999912
 20
310.9448453502491
 30
0.0
 11
753.3999999999912
 21
309.9448453502491
 31
0.0
  0
LINE
  5
2AB
330
7A
100
AcDbEntity
  8
1
  6
Continuous
 62
     7
100
AcDbLine
 10
774.8999999999912
 20
331.922345350249
 30
0.0
 11
772.8873569615955
 21
331.922345350249
 31
0.0
  0
LINE
  5
2AC
330
7A
100
AcDbEntity
  8
1
  6
Continuous
 62
     7
100
AcDbLine
 10
774.8999999999912
 20
310.9673453502491
 30
0.0
 11
772.8873569615964
 21
310.9673453502491
 31
0.0
  0
LINE
  5
2AD
330
7A
100
AcDbEntity
  8
1
  6
Continuous
 62
     2
100
AcDbLine
 10
775.6999999999914
 20
312.1293453502489
 30
0.0
 11
774.8999999999903
 21
312.1293453502489
 31
0.0
  0
LINE
  5
2AE
330
7A
100
AcDbEntity
  8
1
  6
Continuous
 62
     7
100
AcDbLine
 10
772.8873569615964
 20
310.9673453502491
 30
0.0
 11
772.8483858184252
 21
310.9448453502491
 31
0.0
  0
LINE
  5
2AF
330
7A
100
AcDbEntity
  8
1
  6
Continuous
 62
     2
100
AcDbLine
 10
772.8873569615955
 20
331.922345350249
 30
0.0
 11
774.8999999999912
 21
330.7603453502492
 31
0.0
  0
LINE
  5
2B0
330
7A
100
AcDbEntity
  8
1
  6
Continuous
 62
     7
100
AcDbLine
 10
774.8999999999912
 20
310.9673453502491
 30
0.0
 11
774.8999999999903
 21
312.1293453502489
 31
0.0
  0
LINE
  5
2B1
330
7A
100
AcDbEntity
  8
1
  6
Continuous
 62
     7
100
AcDbLine
 10
775.6999999999914
 20
310.9673453502491
 30
0.0
 11
774.8999999999912
 21
310.9673453502491
 31
0.0
  0
LINE
  5
2B2
330
7A
100
AcDbEntity
  8
1
  6
Continuous
 62
     7
100
AcDbLine
 10
774.8999999999912
 20
331.922345350249
 30
0.0
 11
774.8999999999903
 21
312.1293453502489
 31
0.0
  0
LINE
  5
2B3
330
7A
100
AcDbEntity
  8
1
  6
Continuous
 62
     7
100
AcDbLine
 10
775.6999999999914
 20
331.922345350249
 30
0.0
 11
774.8999999999912
 21
331.922345350249
 31
0.0
  0
LINE
  5
2B4
330
7A
100
AcDbEntity
  8
1
  6
Continuous
 62
     2
100
AcDbLine
 10
774.8999999999912
 20
330.7603453502492
 30
0.0
 11
775.6999999999914
 21
330.7603453502492
 31
0.0
  0
LINE
  5
2B5
330
7A
100
AcDbEntity
  8
1
  6
Continuous
 62
     7
100
AcDbLine
 10
799.237999999991
 20
331.922345350249
 30
0.0
 11
786.3999999999912
 21
331.922345350249
 31
0.0
  0
LINE
  5
2B6
330
7A
100
AcDbEntity
  8
1
  6
Continuous
 62
     7
100
AcDbLine
 10
799.237999999991
 20
310.9673453502491
 30
0.0
 11
786.3999999999912
 21
310.9673453502491
 31
0.0
  0
LINE
  5
2B7
330
7A
100
AcDbEntity
  8
1
  6
Continuous
 62
     2
100
AcDbLine
 10
800.3999999999912
 20
312.1293453502491
 30
0.0
 11
786.3999999999912
 21
312.1293453502491
 31
0.0
  0
LINE
  5
2B8
330
7A
100
AcDbEntity
  8
1
  6
Continuous
 62
     2
100
AcDbLine
 10
378.6518214589065
 20
849.3001792618938
 30
0.0
 11
378.6518214589065
 21
835.3001792618938
 31
0.0
  0
LINE
  5
2B9
330
7A
100
AcDbEntity
  8
1
  6
Continuous
 62
     7
100
AcDbLine
 10
379.8138214589065
 20
848.1381792618936
 30
0.0
 11
379.8138214589065
 21
835.3001792618938
 31
0.0
  0
LINE
  5
2BA
330
7A
100
AcDbEntity
  8
1
  6
Continuous
 62
     7
100
AcDbLine
 10
358.8588214589066
 20
848.1381792618936
 30
0.0
 11
358.8588214589066
 21
835.3001792618938
 31
0.0
  0
LINE
  5
2BB
330
7A
100
AcDbEntity
  8
1
  6
Continuous
 62
     2
100
AcDbLine
 10
360.0208214589064
 20
823.8001792618938
 30
0.0
 11
360.0208214589064
 21
824.600179261894
 31
0.0
  0
LINE
  5
2BC
330
7A
100
AcDbEntity
  8
1
  6
Continuous
 62
     7
100
AcDbLine
 10
358.8588214589066
 20
824.600179261894
 30
0.0
 11
358.8588214589066
 21
823.8001792618938
 31
0.0
  0
LINE
  5
2BD
330
7A
100
AcDbEntity
  8
1
  6
Continuous
 62
     7
100
AcDbLine
 10
358.8588214589066
 20
823.8001792618938
 30
0.0
 11
378.6518214589067
 21
823.8001792618929
 31
0.0
  0
LINE
  5
2BE
330
7A
100
AcDbEntity
  8
1
  6
Continuous
 62
     7
100
AcDbLine
 10
379.8138214589065
 20
824.600179261894
 30
0.0
 11
379.8138214589065
 21
823.8001792618938
 31
0.0
  0
LINE
  5
2BF
330
7A
100
AcDbEntity
  8
1
  6
Continuous
 62
     7
100
AcDbLine
 10
379.8138214589065
 20
823.8001792618938
 30
0.0
 11
378.6518214589067
 21
823.8001792618929
 31
0.0
  0
LINE
  5
2C0
330
7A
100
AcDbEntity
  8
1
  6
Continuous
 62
     2
100
AcDbLine
 10
358.8588214589066
 20
821.7875362234981
 30
0.0
 11
360.0208214589064
 21
823.8001792618938
 31
0.0
  0
LINE
  5
2C1
330
7A
100
AcDbEntity
  8
1
  6
Continuous
 62
     7
100
AcDbLine
 10
379.8138214589065
 20
821.787536223499
 30
0.0
 11
379.8363214589065
 21
821.7485650803278
 31
0.0
  0
LINE
  5
2C2
330
7A
100
AcDbEntity
  8
1
  6
Continuous
 62
     2
100
AcDbLine
 10
378.6518214589067
 20
824.600179261894
 30
0.0
 11
378.6518214589067
 21
823.8001792618929
 31
0.0
  0
LINE
  5
2C3
330
7A
100
AcDbEntity
  8
1
  6
Continuous
 62
     7
100
AcDbLine
 10
379.8138214589065
 20
823.8001792618938
 30
0.0
 11
379.8138214589065
 21
821.787536223499
 31
0.0
  0
LINE
  5
2C4
330
7A
100
AcDbEntity
  8
1
  6
Continuous
 62
     7
100
AcDbLine
 10
358.8588214589066
 20
823.8001792618938
 30
0.0
 11
358.8588214589066
 21
821.7875362234981
 31
0.0
  0
LINE
  5
2C5
330
7A
100
AcDbEntity
  8
1
  6
Continuous
 62
     7
100
AcDbLine
 10
379.8363214589065
 20
802.3001792618938
 30
0.0
 11
380.8363214589065
 21
802.3001792618938
 31
0.0
  0
LINE
  5
2C6
330
7A
100
AcDbEntity
  8
1
  6
Continuous
 62
     7
100
AcDbLine
 10
322.4809879003257
 20
802.3001792618938
 30
0.0
 11
326.3809879003255
 21
802.3001792618938
 31
0.0
  0
LINE
  5
2C7
330
7A
100
AcDbEntity
  8
1
  6
Continuous
 62
     7
100
AcDbLine
 10
322.4809879003257
 20
816.8001792618938
 30
0.0
 11
322.4809879003257
 21
802.3001792618938
 31
0.0
  0
LINE
  5
2C8
330
7A
100
AcDbEntity
  8
1
  6
Continuous
 62
     7
100
AcDbLine
 10
346.6948930303639
 20
816.8001792618938
 30
0.0
 11
322.4809879003257
 21
816.8001792618938
 31
0.0
  0
LINE
  5
2C9
330
7A
100
AcDbEntity
  8
1
  6
Continuous
 62
     7
100
AcDbLine
 10
379.8138214589065
 20
848.1381792618936
 30
0.0
 11
378.6518214589065
 21
849.3001792618938
 31
0.0
  0
LINE
  5
2CA
330
7A
100
AcDbEntity
  8
1
  6
Continuous
 62
     7
100
AcDbLine
 10
358.8588214589066
 20
848.1381792618936
 30
0.0
 11
360.0208214589064
 21
849.3001792618938
 31
0.0
  0
LINE
  5
2CB
330
7A
100
AcDbEntity
  8
1
  6
Continuous
 62
     2
100
AcDbLine
 10
360.0208214589064
 20
835.3001792618938
 30
0.0
 11
360.0208214589064
 21
849.3001792618938
 31
0.0
  0
LINE
  5
2CC
330
7A
100
AcDbEntity
  8
1
  6
Continuous
 62
     7
100
AcDbLine
 10
360.0208214589064
 20
849.3001792618938
 30
0.0
 11
378.6518214589065
 21
849.3001792618938
 31
0.0
  0
LINE
  5
2CD
330
7A
100
AcDbEntity
  8
1
  6
Continuous
 62
     7
100
AcDbLine
 10
380.8363214589065
 20
802.3001792618938
 30
0.0
 11
380.8363214589063
 21
819.8001792618938
 31
0.0
  0
LINE
  5
2CE
330
7A
100
AcDbEntity
  8
1
  6
Continuous
 62
     7
100
AcDbLine
 10
326.3809879003255
 20
802.3001792618938
 30
0.0
 11
379.8363214589065
 21
802.3001792618938
 31
0.0
  0
LINE
  5
2CF
330
7A
100
AcDbEntity
  8
1
  6
Continuous
 62
     7
100
AcDbLine
 10
353.8363214589065
 20
819.8001792618938
 30
0.0
 11
357.8363214589063
 21
819.8001792618938
 31
0.0
  0
LINE
  5
2D0
330
7A
100
AcDbEntity
  8
1
  6
Continuous
 62
     7
100
AcDbLine
 10
379.8363214589063
 20
820.8001792618938
 30
0.0
 11
379.8363214589065
 21
821.7485650803278
 31
0.0
  0
LINE
  5
2D1
330
7A
100
AcDbEntity
  8
0
  6
Continuous
 62
     7
100
AcDbLine
 10
358.8588214589066
 20
848.1381792618936
 30
0.0
 11
379.8138214589065
 21
848.1381792618936
 31
0.0
  0
LINE
  5
2D2
330
7A
100
AcDbEntity
  8
1
  6
Continuous
 62
     7
100
AcDbLine
 10
358.8363214589065
 20
821.7485650803287
 30
0.0
 11
358.8363214589063
 21
820.8001792618938
 31
0.0
  0
LINE
  5
2D3
330
7A
100
AcDbEntity
  8
1
  6
Continuous
 62
     7
100
AcDbLine
 10
358.8363214589065
 20
821.7485650803287
 30
0.0
 11
358.8588214589066
 21
821.7875362234981
 31
0.0
  0
LINE
  5
2D4
330
7A
100
AcDbEntity
  8
1
  6
Continuous
 62
     2
100
AcDbLine
 10
378.6518214589067
 20
823.8001792618929
 30
0.0
 11
379.8138214589065
 21
821.787536223499
 31
0.0
  0
LINE
  5
2D5
330
7A
100
AcDbEntity
  8
1
  6
Continuous
 62
     7
100
AcDbLine
 10
346.6948930303636
 20
812.4910852201665
 30
0.0
 11
333.9561211685713
 21
812.4910852201665
 31
0.0
  0
LINE
  5
2D6
330
7A
100
AcDbEntity
  8
0
  6
Continuous
 62
     7
100
AcDbLine
 10
357.8363214589063
 20
819.8001792618938
 30
0.0
 11
380.8363214589063
 21
819.8001792618938
 31
0.0
  0
LINE
  5
2D7
330
7A
100
AcDbEntity
  8
1
  6
Continuous
 62
     7
100
AcDbLine
 10
348.9809834389947
 20
358.0636411623514
 30
0.0
 11
377.4680502826968
 21
329.5765743186493
 31
0.0
  0
LINE
  5
2D8
330
7A
100
AcDbEntity
  8
1
  6
Continuous
 62
     7
100
AcDbLine
 10
361.2045943154063
 20
313.3131183513586
 30
0.0
 11
334.4581256031966
 21
340.0595870635684
 31
0.0
  0
LINE
  5
2D9
330
7A
100
AcDbEntity
  8
1
  6
Continuous
 62
     7
100
AcDbLine
 10
943.4809879003253
 20
672.1485740460964
 30
0.0
 11
943.5034879003256
 21
672.1875451892668
 31
0.0
  0
LINE
  5
2DA
330
7A
100
AcDbEntity
  8
1
  6
Continuous
 62
     7
100
AcDbLine
 10
964.4584879003254
 20
672.1875451892668
 30
0.0
 11
964.4809879003252
 21
672.1485740460964
 31
0.0
  0
ARC
  5
2DB
330
7A
100
AcDbEntity
  8
1
  6
Continuous
 62
     7
100
AcDbCircle
 10
777.5094492896276
 20
344.086273778792
 30
0.0
 40
13.91854333136371
100
AcDbArc
 50
180.0
 51
241.6493449074847
  0
ARC
  5
2DC
330
7A
100
AcDbEntity
  8
1
  6
Continuous
 62
     7
100
AcDbCircle
 10
777.8999999999912
 20
344.0862737787917
 30
0.0
 40
10.0
100
AcDbArc
 50
180.0
 51
225.5729959991931
  0
ARC
  5
2DD
330
7A
100
AcDbEntity
  8
1
  6
Continuous
 62
     7
100
AcDbCircle
 10
346.6948930303639
 20
826.8001792618938
 30
0.0
 40
10.0
100
AcDbArc
 50
270.0
 51
315.5729959991933
  0
ARC
  5
2DE
330
7A
100
AcDbEntity
  8
1
  6
Continuous
 62
     7
100
AcDbCircle
 10
346.6948930303636
 20
826.4096285515302
 30
0.0
 40
13.91854333136371
100
AcDbArc
 50
270.0
 51
331.6493449074847
  0
ARC
  5
2DF
330
7A
100
AcDbEntity
  8
1
  6
Continuous
 62
     7
100
AcDbCircle
 10
369.3363222990516
 20
321.4448463350039
 30
0.0
 40
11.49999999999997
100
AcDbArc
 50
225.0000000000002
 51
45.0000000000006
  0
CIRCLE
  5
2E0
330
7A
100
AcDbEntity
  8
1
  6
Continuous
 62
     7
100
AcDbCircle
 10
369.3363222990516
 20
321.4448463350039
 30
0.0
 40
10.50000000000004
  0
SPLINE
  5
2E1
330
7A
100
AcDbEntity
  8
1
  6
Continuous
 62
     7
100
AcDbSpline
210
0.0
220
0.0
230
1.0
 70
     8
 71
     3
 72
    13
 73
     9
 74
     7
 42
0.000000001
 43
0.0000000001
 44
0.00000001
 40
0.0
 40
0.0
 40
0.0
 40
0.0
 40
1.242270182297446
 40
2.484557005604338
 40
3.537999184442087
 40
4.591695590798347
 40
8.492417407580161
 40
12.41500542584195
 40
12.41500542584195
 40
12.41500542584195
 40
12.41500542584195
 10
767.8999999999912
 20
368.3001789088299
 30
0.0
 10
767.6749003652587
 20
367.9525774553007
 30
0.0
 10
767.2246980927987
 20
367.2573698839947
 30
0.0
 10
766.6179143301774
 20
366.2459612552381
 30
0.0
 10
766.0702747004708
 20
365.2724304650345
 30
0.0
 10
765.1515809669506
 20
363.4952627222261
 30
0.0
 10
763.9514616397587
 20
360.7469655122513
 30
0.0
 10
763.7113149177502
 20
358.1347859514455
 30
0.0
 10
763.5909059582639
 20
356.8250456405843
 30
0.0
 11
767.8999999999912
 21
368.3001789088299
 31
0.0
 11
767.2307232381288
 21
367.2536112704016
 31
0.0
 11
766.5909059582642
 21
366.188758979833
 31
0.0
 11
766.0758921226568
 21
365.2697915298576
 31
0.0
 11
765.590905958264
 21
364.3343426867878
 31
0.0
 11
764.1576566771888
 21
360.7064745517267
 31
0.0
 11
763.5909059582639
 21
356.8250456405843
 31
0.0
  0
SPLINE
  5
2E2
330
7A
100
AcDbEntity
  8
1
  6
Continuous
 62
     7
100
AcDbSpline
210
0.0
220
0.0
230
1.0
 70
     8
 71
     3
 72
    13
 73
     9
 74
     7
 42
0.000000001
 43
0.0000000001
 44
0.00000001
 40
0.0
 40
0.0
 40
0.0
 40
0.0
 40
1.242270182297494
 40
2.484557005604385
 40
3.537999184442084
 40
4.591695590798397
 40
8.492417407580223
 40
12.41500542584196
 40
12.41500542584196
 40
12.41500542584196
 40
12.41500542584196
 10
322.4809879003257
 20
816.8001792618938
 30
0.0
 10
322.828589353855
 20
816.5750796271614
 30
0.0
 10
323.5237969251611
 20
816.1248773547013
 30
0.0
 10
324.5352055539175
 20
815.5180935920802
 30
0.0
 10
325.5087363441212
 20
814.970453962373
 30
0.0
 10
327.2859040869296
 20
814.0517602288535
 30
0.0
 10
330.0342012969043
 20
812.8516409016612
 30
0.0
 10
332.6463808577101
 20
812.6114941796528
 30
0.0
 10
333.9561211685713
 20
812.4910852201665
 30
0.0
 11
322.4809879003257
 21
816.8001792618938
 31
0.0
 11
323.5275555387541
 21
816.1309025000314
 31
0.0
 11
324.5924078293226
 21
815.4910852201668
 31
0.0
 11
325.511375279298
 21
814.9760713845594
 31
0.0
 11
326.4468241223678
 21
814.4910852201665
 31
0.0
 11
330.0746922574289
 21
813.0578359390914
 31
0.0
 11
333.9561211685713
 21
812.4910852201665
 31
0.0
  0
ARC
  5
2E3
330
7A
100
AcDbEntity
  8
1
  6
Continuous
 62
     7
100
AcDbCircle
 10
771.8999999999912
 20
309.9448453502491
 30
0.0
 40
1.000000000000171
100
AcDbArc
 50
90.0
 51
179.9999999999902
  0
ARC
  5
2E4
330
7A
100
AcDbEntity
  8
1
  6
Continuous
 62
     7
100
AcDbCircle
 10
771.8999999999912
 20
332.9448453502493
 30
0.0
 40
1.0
100
AcDbArc
 50
180.0
 51
270.0
  0
ARC
  5
2E5
330
7A
100
AcDbEntity
  8
1
  6
Continuous
 62
     7
100
AcDbCircle
 10
357.8363214589063
 20
820.8001792618938
 30
0.0
 40
1.0
100
AcDbArc
 50
270.0
 51
0.0
  0
ARC
  5
2E6
330
7A
100
AcDbEntity
  8
1
  6
Continuous
 62
     7
100
AcDbCircle
 10
380.8363214589065
 20
820.8001792618938
 30
0.0
 40
1.000000000000227
100
AcDbArc
 50
180.0
 51
269.999999999987
  0
ENDBLK
  5
7C
330
7A
100
AcDbEntity
  8
0
100
AcDbBlockEnd
  0
BLOCK
  5
83
330
7D
100
AcDbEntity
  8
0
100
AcDbBlockBegin
  2
U3-48F-50__9
 70
     0
 10
930.2035966118116
 20
2696.202842304046
 30
0.0
  3
U3-48F-50__9
  1

  0
INSERT
  5
7E
330
7D
100
AcDbEntity
  8
0
100
AcDbBlockReference
  2
32-3-M1K__1
 10
1200.928110202484
 20
979.5276473730491
 30
0.0
  0
INSERT
  5
7F
330
7D
100
AcDbEntity
  8
0
100
AcDbBlockReference
  2
78-3A-C4K__2
 10
1008.765751213934
 20
1008.321312482405
 30
0.0
  0
INSERT
  5
80
330
7D
100
AcDbEntity
  8
1
100
AcDbBlockReference
  2
35-6A-8-C2K__3
 10
1296.166601768763
 20
1027.890291586395
 30
0.0
  0
INSERT
  5
81
330
7D
100
AcDbEntity
  8
1
100
AcDbBlockReference
  2
30-108XK__7
 10
1228.980987900325
 20
744.2001882276616
 30
0.0
  0
INSERT
  5
82
330
7D
100
AcDbEntity
  8
1
100
AcDbBlockReference
  2
03-47-50-M1K__8
 10
1153.230987900326
 20
645.5945257949593
 30
0.0
  0
LINE
  5
2E7
330
7D
100
AcDbEntity
  8
1
  6
PHANTOM
 62
     4
100
AcDbLine
 10
320.015623471145
 20
342.8348254811421
 30
0.0
 11
347.9463413280136
 21
370.7655433380107
 31
0.0
  0
LINE
  5
2E8
330
7D
100
AcDbEntity
  8
1
  6
PHANTOM
 62
     4
100
AcDbLine
 10
389.1353113321299
 20
301.6458554770259
 30
0.0
 11
321.2530603382215
 21
369.5281064709342
 31
0.0
  0
LINE
  5
2E9
330
7D
100
AcDbEntity
  8
1
  6
PHANTOM
 62
     4
100
AcDbLine
 10
349.5373315856832
 20
301.6458554770259
 30
0.0
 11
389.1353113321299
 21
341.2438352234725
 31
0.0
  0
ENDBLK
  5
84
330
7D
100
AcDbEntity
  8
0
100
AcDbBlockEnd
  0
BLOCK
  5
86
330
85
100
AcDbEntity
  8
0
100
AcDbBlockBegin
  2
03-47-50-M1K__10
 70
     0
 10
974.7309830422415
 20
645.5945209368763
 30
0.0
  3
03-47-50-M1K__10
  1

  0
LINE
  5
2EA
330
85
100
AcDbEntity
  8
1
  6
Continuous
 62
     7
100
AcDbLine
 10
213.50130808524
 20
340.0570556226622
 30
0.0
 11
186.7573712726811
 21
313.3131188101033
 31
0.0
  0
LINE
  5
2EB
330
85
100
AcDbEntity
  8
0
  6
Continuous
 62
     7
100
AcDbLine
 10
167.1256443802432
 20
819.8001792618941
 30
0.0
 11
190.1256443802434
 21
819.8001792618938
 31
0.0
  0
LINE
  5
2EC
330
85
100
AcDbEntity
  8
1
  6
Continuous
 62
     7
100
AcDbLine
 10
214.0058497739958
 20
812.4910852201667
 30
0.0
 11
201.2670728087863
 21
812.4910852201667
 31
0.0
  0
LINE
  5
2ED
330
85
100
AcDbEntity
  8
1
  6
Continuous
 62
     2
100
AcDbLine
 10
168.1481443802433
 20
821.7875362234984
 30
0.0
 11
169.3101443802431
 21
823.8001792618932
 31
0.0
  0
LINE
  5
2EE
330
85
100
AcDbEntity
  8
1
  6
Continuous
 62
     7
100
AcDbLine
 10
189.1031443802433
 20
821.7875362234993
 30
0.0
 11
189.1256443802434
 21
821.7485650803292
 31
0.0
  0
LINE
  5
2EF
330
85
100
AcDbEntity
  8
1
  6
Continuous
 62
     7
100
AcDbLine
 10
189.1256443802434
 20
820.8001792618938
 30
0.0
 11
189.1256443802434
 21
821.7485650803292
 31
0.0
  0
LINE
  5
2F0
330
85
100
AcDbEntity
  8
0
  6
Continuous
 62
     7
100
AcDbLine
 10
168.1481443802433
 20
848.138179261894
 30
0.0
 11
189.1031443802432
 21
848.138179261894
 31
0.0
  0
LINE
  5
2F1
330
85
100
AcDbEntity
  8
1
  6
Continuous
 62
     7
100
AcDbLine
 10
170.4939153053906
 20
329.5765747773938
 30
0.0
 11
198.9809834395757
 21
358.0636429115791
 31
0.0
  0
LINE
  5
2F2
330
85
100
AcDbEntity
  8
1
  6
Continuous
 62
     7
100
AcDbLine
 10
168.1256443802432
 20
821.748565080328
 30
0.0
 11
168.1256443802432
 21
820.8001792618938
 31
0.0
  0
LINE
  5
2F3
330
85
100
AcDbEntity
  8
1
  6
Continuous
 62
     7
100
AcDbLine
 10
190.1256443802434
 20
819.8001792618938
 30
0.0
 11
194.1256443802434
 21
819.8001792618938
 31
0.0
  0
LINE
  5
2F4
330
85
100
AcDbEntity
  8
1
  6
Continuous
 62
     7
100
AcDbLine
 10
168.1256443802432
 20
802.3001792618938
 30
0.0
 11
221.5809830422415
 21
802.3001792618938
 31
0.0
  0
LINE
  5
2F5
330
85
100
AcDbEntity
  8
1
  6
Continuous
 62
     7
100
AcDbLine
 10
167.1256443802432
 20
819.8001792618941
 30
0.0
 11
167.1256443802432
 21
802.3001792618938
 31
0.0
  0
LINE
  5
2F6
330
85
100
AcDbEntity
  8
1
  6
Continuous
 62
     7
100
AcDbLine
 10
169.3101443802431
 20
849.3001792618938
 30
0.0
 11
187.9411443802432
 21
849.3001792618938
 31
0.0
  0
LINE
  5
2F7
330
85
100
AcDbEntity
  8
1
  6
Continuous
 62
     2
100
AcDbLine
 10
187.9411443802432
 20
849.3001792618938
 30
0.0
 11
187.9411443802432
 21
835.3001792618938
 31
0.0
  0
LINE
  5
2F8
330
85
100
AcDbEntity
  8
1
  6
Continuous
 62
     7
100
AcDbLine
 10
187.9411443802432
 20
849.3001792618938
 30
0.0
 11
189.1031443802432
 21
848.138179261894
 31
0.0
  0
LINE
  5
2F9
330
85
100
AcDbEntity
  8
1
  6
Continuous
 62
     7
100
AcDbLine
 10
169.3101443802431
 20
849.3001792618938
 30
0.0
 11
168.1481443802433
 21
848.138179261894
 31
0.0
  0
LINE
  5
2FA
330
85
100
AcDbEntity
  8
1
  6
Continuous
 62
     7
100
AcDbLine
 10
225.4809830422415
 20
816.8001792618938
 30
0.0
 11
201.267072808786
 21
816.8001792618938
 31
0.0
  0
LINE
  5
2FB
330
85
100
AcDbEntity
  8
1
  6
Continuous
 62
     7
100
AcDbLine
 10
225.4809830422415
 20
802.3001792618938
 30
0.0
 11
225.4809830422415
 21
816.8001792618938
 31
0.0
  0
LINE
  5
2FC
330
85
100
AcDbEntity
  8
1
  6
Continuous
 62
     7
100
AcDbLine
 10
221.5809830422415
 20
802.3001792618938
 30
0.0
 11
225.4809830422415
 21
802.3001792618938
 31
0.0
  0
LINE
  5
2FD
330
85
100
AcDbEntity
  8
1
  6
Continuous
 62
     7
100
AcDbLine
 10
167.1256443802432
 20
802.3001792618938
 30
0.0
 11
168.1256443802432
 21
802.3001792618938
 31
0.0
  0
LINE
  5
2FE
330
85
100
AcDbEntity
  8
1
  6
Continuous
 62
     7
100
AcDbLine
 10
189.1031443802433
 20
821.7875362234993
 30
0.0
 11
189.1031443802433
 21
823.8001792618938
 31
0.0
  0
LINE
  5
2FF
330
85
100
AcDbEntity
  8
1
  6
Continuous
 62
     7
100
AcDbLine
 10
168.1481443802433
 20
821.7875362234984
 30
0.0
 11
168.1481443802433
 21
823.8001792618938
 31
0.0
  0
LINE
  5
300
330
85
100
AcDbEntity
  8
1
  6
Continuous
 62
     2
100
AcDbLine
 10
169.3101443802431
 20
823.8001792618943
 30
0.0
 11
169.3101443802431
 21
824.600179261894
 31
0.0
  0
LINE
  5
301
330
85
100
AcDbEntity
  8
1
  6
Continuous
 62
     7
100
AcDbLine
 10
168.1256443802432
 20
821.748565080328
 30
0.0
 11
168.1481443802433
 21
821.7875362234984
 31
0.0
  0
LINE
  5
302
330
85
100
AcDbEntity
  8
1
  6
Continuous
 62
     2
100
AcDbLine
 10
187.9411443802432
 20
823.8001792618943
 30
0.0
 11
189.1031443802433
 21
821.7875362234993
 31
0.0
  0
LINE
  5
303
330
85
100
AcDbEntity
  8
1
  6
Continuous
 62
     7
100
AcDbLine
 10
169.3101443802431
 20
823.8001792618943
 30
0.0
 11
168.1481443802433
 21
823.8001792618938
 31
0.0
  0
LINE
  5
304
330
85
100
AcDbEntity
  8
1
  6
Continuous
 62
     7
100
AcDbLine
 10
168.1481443802433
 20
823.8001792618938
 30
0.0
 11
168.1481443802433
 21
824.600179261894
 31
0.0
  0
LINE
  5
305
330
85
100
AcDbEntity
  8
1
  6
Continuous
 62
     7
100
AcDbLine
 10
169.3101443802431
 20
823.8001792618932
 30
0.0
 11
189.1031443802433
 21
823.8001792618938
 31
0.0
  0
LINE
  5
306
330
85
100
AcDbEntity
  8
1
  6
Continuous
 62
     7
100
AcDbLine
 10
189.1031443802433
 20
823.8001792618938
 30
0.0
 11
189.1031443802433
 21
824.600179261894
 31
0.0
  0
LINE
  5
307
330
85
100
AcDbEntity
  8
1
  6
Continuous
 62
     2
100
AcDbLine
 10
187.9411443802432
 20
824.600179261894
 30
0.0
 11
187.9411443802432
 21
823.8001792618943
 31
0.0
  0
LINE
  5
308
330
85
100
AcDbEntity
  8
1
  6
Continuous
 62
     7
100
AcDbLine
 10
189.1031443802433
 20
835.3001792618938
 30
0.0
 11
189.1031443802432
 21
848.138179261894
 31
0.0
  0
LINE
  5
309
330
85
100
AcDbEntity
  8
1
  6
Continuous
 62
     7
100
AcDbLine
 10
168.1481443802433
 20
835.3001792618938
 30
0.0
 11
168.1481443802433
 21
848.138179261894
 31
0.0
  0
LINE
  5
30A
330
85
100
AcDbEntity
  8
1
  6
Continuous
 62
     2
100
AcDbLine
 10
169.3101443802431
 20
835.3001792618938
 30
0.0
 11
169.3101443802431
 21
849.3001792618938
 31
0.0
  0
ARC
  5
30B
330
85
100
AcDbEntity
  8
1
  6
Continuous
 62
     7
100
AcDbCircle
 10
201.2670728087861
 20
826.4096285515307
 30
0.0
 40
13.918543331364
100
AcDbArc
 50
208.3506550925166
 51
270.0000000000008
  0
ARC
  5
30C
330
85
100
AcDbEntity
  8
1
  6
Continuous
 62
     7
100
AcDbCircle
 10
178.6256432890358
 20
321.4448467937486
 30
0.0
 40
11.49999999999985
100
AcDbArc
 50
135.0
 51
315.0
  0
ARC
  5
30D
330
85
100
AcDbEntity
  8
1
  6
Continuous
 62
     7
100
AcDbCircle
 10
201.267072808786
 20
826.8001792618938
 30
0.0
 40
9.99999999999983
100
AcDbArc
 50
224.4270040008066
 51
270.0
  0
CIRCLE
  5
30E
330
85
100
AcDbEntity
  8
1
  6
Continuous
 62
     7
100
AcDbCircle
 10
178.6256432890358
 20
321.4448467937486
 30
0.0
 40
10.49999999999984
  0
SPLINE
  5
30F
330
85
100
AcDbEntity
  8
1
  6
Continuous
 62
     7
100
AcDbSpline
210
0.0
220
0.0
230
1.0
 70
     8
 71
     3
 72
    13
 73
     9
 74
     7
 42
0.000000001
 43
0.0000000001
 44
0.00000001
 40
0.0
 40
0.0
 40
0.0
 40
0.0
 40
1.242270182297396
 40
2.484557005604428
 40
3.537999184442096
 40
4.591695590798407
 40
8.492417407580165
 40
12.41500542584189
 40
12.41500542584189
 40
12.41500542584189
 40
12.41500542584189
 10
225.4809830422415
 20
816.8001792618938
 30
0.0
 10
225.1333815887122
 20
816.5750796271612
 30
0.0
 10
224.4381740174059
 20
816.1248773547015
 30
0.0
 10
223.4267653886497
 20
815.51809359208
 30
0.0
 10
222.4532345984459
 20
814.9704539623733
 30
0.0
 10
220.6760668556377
 20
814.0517602288538
 30
0.0
 10
217.9277696456628
 20
812.8516409016618
 30
0.0
 10
215.3155900848569
 20
812.6114941796529
 30
0.0
 10
214.0058497739958
 20
812.4910852201667
 30
0.0
 11
225.4809830422415
 21
816.8001792618938
 31
0.0
 11
224.4344154038131
 21
816.1309025000317
 31
0.0
 11
223.3695631132445
 21
815.4910852201668
 31
0.0
 11
222.4505956632692
 21
814.9760713845595
 31
0.0
 11
221.5151468201993
 21
814.4910852201667
 31
0.0
 11
217.8872786851382
 21
813.0578359390918
 31
0.0
 11
214.0058497739958
 21
812.4910852201667
 31
0.0
  0
ARC
  5
310
330
85
100
AcDbEntity
  8
1
  6
Continuous
 62
     7
100
AcDbCircle
 10
167.1256443802432
 20
820.8001792618938
 30
0.0
 40
0.9999999999997726
100
AcDbArc
 50
270.0
 51
0.0
  0
ARC
  5
311
330
85
100
AcDbEntity
  8
1
  6
Continuous
 62
     7
100
AcDbCircle
 10
190.1256443802434
 20
820.8001792618938
 30
0.0
 40
1.0
100
AcDbArc
 50
180.0
 51
270.0
  0
ENDBLK
  5
87
330
85
100
AcDbEntity
  8
0
100
AcDbBlockEnd
  0
BLOCK
  5
89
330
88
100
AcDbEntity
  8
0
100
AcDbBlockBegin
  2
30-108-M11K__11
 70
     0
 10
903.9809830422416
 20
734.2001833695788
 30
0.0
  3
30-108-M11K__11
  1

  0
LINE
  5
312
330
88
100
AcDbEntity
  8
1
  6
Continuous
 62
     2
100
AcDbLine
 10
180.2753024654078
 20
801.3001792618941
 30
0.0
 11
180.2753024654078
 21
790.8001792618941
 31
0.0
  0
LINE
  5
313
330
88
100
AcDbEntity
  8
1
  6
Continuous
 62
     2
100
AcDbLine
 10
181.8748361391659
 20
801.3001792618941
 30
0.0
 11
181.8748361391659
 21
790.8001792618941
 31
0.0
  0
LINE
  5
314
330
88
100
AcDbEntity
  8
1
  6
Continuous
 62
     2
100
AcDbLine
 10
183.3756447775722
 20
801.3001792618941
 30
0.0
 11
183.3756447775722
 21
790.8001792618941
 31
0.0
  0
LINE
  5
315
330
88
100
AcDbEntity
  8
1
  6
Continuous
 62
     2
100
AcDbLine
 10
184.7321270695941
 20
801.3001792618941
 30
0.0
 11
184.7321270695941
 21
790.8001792618941
 31
0.0
  0
LINE
  5
316
330
88
100
AcDbEntity
  8
1
  6
Continuous
 62
     2
100
AcDbLine
 10
185.9030669872023
 20
801.3001792618941
 30
0.0
 11
185.9030669872023
 21
790.8001792618941
 31
0.0
  0
LINE
  5
317
330
88
100
AcDbEntity
  8
1
  6
Continuous
 62
     2
100
AcDbLine
 10
186.8528861135242
 20
801.3001792618941
 30
0.0
 11
186.8528861135242
 21
790.8001792618941
 31
0.0
  0
LINE
  5
318
330
88
100
AcDbEntity
  8
1
  6
Continuous
 62
     2
100
AcDbLine
 10
187.5527246750383
 20
801.3001792618941
 30
0.0
 11
187.5527246750383
 21
790.8001792618941
 31
0.0
  0
LINE
  5
319
330
88
100
AcDbEntity
  8
1
  6
Continuous
 62
     2
100
AcDbLine
 10
187.9813184311882
 20
801.3001792618941
 30
0.0
 11
187.9813184311882
 21
790.8001792618941
 31
0.0
  0
LINE
  5
31A
330
88
100
AcDbEntity
  8
1
  6
Continuous
 62
     2
100
AcDbLine
 10
169.6985648801059
 20
790.8001792618941
 30
0.0
 11
169.6985648801059
 21
801.3001792618941
 31
0.0
  0
LINE
  5
31B
330
88
100
AcDbEntity
  8
1
  6
Continuous
 62
     2
100
AcDbLine
 10
170.3984034416199
 20
790.8001792618941
 30
0.0
 11
170.3984034416199
 21
801.3001792618941
 31
0.0
  0
LINE
  5
31C
330
88
100
AcDbEntity
  8
1
  6
Continuous
 62
     2
100
AcDbLine
 10
171.3482225679417
 20
790.8001792618941
 30
0.0
 11
171.3482225679417
 21
801.3001792618941
 31
0.0
  0
LINE
  5
31D
330
88
100
AcDbEntity
  8
1
  6
Continuous
 62
     2
100
AcDbLine
 10
172.5191624855499
 20
790.8001792618941
 30
0.0
 11
172.5191624855499
 21
801.3001792618941
 31
0.0
  0
LINE
  5
31E
330
88
100
AcDbEntity
  8
1
  6
Continuous
 62
     2
100
AcDbLine
 10
173.875644777572
 20
790.8001792618941
 30
0.0
 11
173.875644777572
 21
801.3001792618941
 31
0.0
  0
LINE
  5
31F
330
88
100
AcDbEntity
  8
1
  6
Continuous
 62
     2
100
AcDbLine
 10
175.3764534159782
 20
790.8001792618941
 30
0.0
 11
175.3764534159782
 21
801.3001792618941
 31
0.0
  0
LINE
  5
320
330
88
100
AcDbEntity
  8
1
  6
Continuous
 62
     2
100
AcDbLine
 10
176.9759870897363
 20
790.8001792618941
 30
0.0
 11
176.9759870897363
 21
801.3001792618941
 31
0.0
  0
LINE
  5
321
330
88
100
AcDbEntity
  8
1
  6
Continuous
 62
     2
100
AcDbLine
 10
169.269971123956
 20
790.8001792618941
 30
0.0
 11
169.269971123956
 21
801.3001792618941
 31
0.0
  0
LINE
  5
322
330
88
100
AcDbEntity
  8
0
  6
Continuous
 62
     7
100
AcDbLine
 10
169.125644777572
 20
789.8001792618941
 30
0.0
 11
188.1256447775722
 21
789.8001792618941
 31
0.0
  0
LINE
  5
323
330
88
100
AcDbEntity
  8
1
  6
Continuous
 62
     7
100
AcDbLine
 10
169.125644777572
 20
789.8001792618941
 30
0.0
 11
169.125644777572
 21
802.3001792618938
 31
0.0
  0
LINE
  5
324
330
88
100
AcDbEntity
  8
1
  6
Continuous
 62
     7
100
AcDbLine
 10
169.125644777572
 20
789.8001792618941
 30
0.0
 11
170.125644777572
 21
788.8001792618941
 31
0.0
  0
LINE
  5
325
330
88
100
AcDbEntity
  8
1
  6
Continuous
 62
     7
100
AcDbLine
 10
187.1256447775722
 20
788.8001792618941
 30
0.0
 11
170.125644777572
 21
788.8001792618941
 31
0.0
  0
LINE
  5
326
330
88
100
AcDbEntity
  8
1
  6
Continuous
 62
     7
100
AcDbLine
 10
188.1256447775722
 20
802.3001792618941
 30
0.0
 11
188.1256447775722
 21
789.8001792618941
 31
0.0
  0
LINE
  5
327
330
88
100
AcDbEntity
  8
1
  6
Continuous
 62
     7
100
AcDbLine
 10
187.1256447775722
 20
788.8001792618941
 30
0.0
 11
188.1256447775722
 21
789.8001792618941
 31
0.0
  0
CIRCLE
  5
328
330
88
100
AcDbEntity
  8
1
  6
Continuous
 62
     7
100
AcDbCircle
 10
178.6256442206278
 20
321.4448441506423
 30
0.0
 40
5.500000000000124
  0
CIRCLE
  5
329
330
88
100
AcDbEntity
  8
1
  6
Continuous
 62
     7
100
AcDbCircle
 10
178.6256442206278
 20
321.4448441506423
 30
0.0
 40
8.50000000000007
  0
CIRCLE
  5
32A
330
88
100
AcDbEntity
  8
1
  6
Continuous
 62
     7
100
AcDbCircle
 10
178.6256442206278
 20
321.4448441506423
 30
0.0
 40
9.500000000000076
  0
ENDBLK
  5
8A
330
88
100
AcDbEntity
  8
0
100
AcDbBlockEnd
  0
BLOCK
  5
8C
330
8B
100
AcDbEntity
  8
0
100
AcDbBlockBegin
  2
78-78-C2K__12
 70
     0
 10
948.1309830422416
 20
640.9001833695786
 30
0.0
  3
78-78-C2K__12
  1

  0
LINE
  5
32B
330
8B
100
AcDbEntity
  8
1
  6
Continuous
 62
     7
100
AcDbLine
 10
176.5208853882493
 20
316.36350676746
 30
0.0
 11
176.6548245895768
 21
316.6868646038389
 31
0.0
  0
LINE
  5
32C
330
8B
100
AcDbEntity
  8
1
  6
Continuous
 62
     7
100
AcDbLine
 10
173.5443068374452
 20
319.340085318264
 30
0.0
 11
173.8676646738241
 21
319.4740245195917
 31
0.0
  0
ARC
  5
32D
330
8B
100
AcDbEntity
  8
1
  6
Continuous
 62
     7
100
AcDbCircle
 10
178.6256442662572
 20
321.444844196272
 30
0.0
 40
5.150000000000064
100
AcDbArc
 50
247.4999999999979
 51
202.5000000000012
  0
ENDBLK
  5
8D
330
8B
100
AcDbEntity
  8
0
100
AcDbBlockEnd
  0
BLOCK
  5
8F
330
8E
100
AcDbEntity
  8
0
100
AcDbBlockBegin
  2
36-99-M11K__13
 70
     0
 10
948.7309830422416
 20
656.2001833695788
 30
0.0
  3
36-99-M11K__13
  1

  0
LINE
  5
32E
330
8E
100
AcDbEntity
  8
1
  6
Continuous
 62
     7
100
AcDbLine
 10
175.3548006188353
 20
325.4227935518264
 30
0.0
 11
182.6035936218115
 21
318.1740005488502
 31
0.0
  0
LINE
  5
32F
330
8E
100
AcDbEntity
  8
1
  6
Continuous
 62
     7
100
AcDbLine
 10
174.6476938376487
 20
324.7156867706399
 30
0.0
 11
181.896486840625
 21
317.4668937676637
 31
0.0
  0
ARC
  5
330
330
8E
100
AcDbEntity
  8
1
  6
Continuous
 62
     7
100
AcDbCircle
 10
178.6256437297301
 20
321.4448436597451
 30
0.0
 40
4.249999999999865
100
AcDbArc
 50
141.7563270305876
 51
308.243672969413
  0
ARC
  5
331
330
8E
100
AcDbEntity
  8
1
  6
Continuous
 62
     7
100
AcDbCircle
 10
178.6256437297301
 20
321.4448436597451
 30
0.0
 40
4.250000000000185
100
AcDbArc
 50
321.756327030587
 51
128.2436729694112
  0
ENDBLK
  5
90
330
8E
100
AcDbEntity
  8
0
100
AcDbBlockEnd
  0
BLOCK
  5
95
330
91
100
AcDbEntity
  8
0
100
AcDbBlockBegin
  2
30-108XK__14
 70
     0
 10
898.9809830422416
 20
744.2001833695786
 30
0.0
  3
30-108XK__14
  1

  0
INSERT
  5
92
330
91
100
AcDbEntity
  8
1
100
AcDbBlockReference
  2
30-108-M11K__11
 10
903.9809830422416
 20
734.2001833695788
 30
0.0
  0
INSERT
  5
93
330
91
100
AcDbEntity
  8
1
100
AcDbBlockReference
  2
78-78-C2K__12
 10
948.1309830422416
 20
640.9001833695786
 30
0.0
  0
INSERT
  5
94
330
91
100
AcDbEntity
  8
1
100
AcDbBlockReference
  2
36-99-M11K__13
 10
948.7309830422416
 20
656.2001833695788
 30
0.0
  0
ENDBLK
  5
96
330
91
100
AcDbEntity
  8
0
100
AcDbBlockEnd
  0
BLOCK
  5
98
330
97
100
AcDbEntity
  8
0
100
AcDbBlockBegin
  2
35-6A-8-C2K__15
 70
     0
 10
831.7953691738038
 20
1027.890286728312
 30
0.0
  3
35-6A-8-C2K__15
  1

  0
LINE
  5
332
330
97
100
AcDbEntity
  8
1
  6
Continuous
 62
     7
100
AcDbLine
 10
222.3809830422415
 20
802.3001792618938
 30
0.0
 11
222.3809830422415
 21
801.6807403979897
 31
0.0
  0
LINE
  5
333
330
97
100
AcDbEntity
  8
1
  6
Continuous
 62
     7
100
AcDbLine
 10
205.580983042242
 20
801.6807403979897
 30
0.0
 11
205.580983042242
 21
802.3001792618938
 31
0.0
  0
ENDBLK
  5
99
330
97
100
AcDbEntity
  8
0
100
AcDbBlockEnd
  0
BLOCK
  5
9B
330
9A
100
AcDbEntity
  8
0
100
AcDbBlockBegin
  2
78-3A-C4K__16
 70
     0
 10
1119.196219728633
 20
1008.321307624323
 30
0.0
  3
78-3A-C4K__16
  1

  0
LINE
  5
334
330
9A
100
AcDbEntity
  8
1
  6
Continuous
 62
     7
100
AcDbLine
 10
156.2558456240073
 20
832.9366166551345
 30
0.0
 11
200.9954431364791
 21
832.9366166551345
 31
0.0
  0
LINE
  5
335
330
9A
100
AcDbEntity
  8
1
  6
Continuous
 62
     7
100
AcDbLine
 10
203.6256443802431
 20
833.0808041093806
 30
0.0
 11
203.6256443802431
 21
835.3001792618938
 31
0.0
  0
LINE
  5
336
330
9A
100
AcDbEntity
  8
1
  6
Continuous
 62
     7
100
AcDbLine
 10
154.0009493326889
 20
832.2999352999375
 30
0.0
 11
165.351730392047
 21
824.819310452451
 31
0.0
  0
LINE
  5
337
330
9A
100
AcDbEntity
  8
1
  6
Continuous
 62
     7
100
AcDbLine
 10
153.6256443802431
 20
835.3001792618938
 30
0.0
 11
153.6256443802431
 21
833.0808041093806
 31
0.0
  0
LINE
  5
338
330
9A
100
AcDbEntity
  8
1
  6
Continuous
 62
     7
100
AcDbLine
 10
153.6256443802431
 20
835.3001792618938
 30
0.0
 11
203.6256443802431
 21
835.3001792618938
 31
0.0
  0
LINE
  5
339
330
9A
100
AcDbEntity
  8
1
  6
Continuous
 62
     7
100
AcDbLine
 10
203.2503394277976
 20
832.2999352999375
 30
0.0
 11
191.8995583684395
 21
824.819310452451
 31
0.0
  0
LINE
  5
33A
330
9A
100
AcDbEntity
  8
1
  6
Continuous
 62
     7
100
AcDbLine
 10
165.9764254396014
 20
824.600179261894
 30
0.0
 11
191.274863320885
 21
824.600179261894
 31
0.0
  0
ARC
  5
33B
330
9A
100
AcDbEntity
  8
1
  6
Continuous
 62
     7
100
AcDbCircle
 10
178.6256432890361
 20
321.4448467937489
 30
0.0
 40
24.99999999999972
100
AcDbArc
 50
72.38710750265386
 51
17.61289249734607
  0
ARC
  5
33C
330
9A
100
AcDbEntity
  8
1
  6
Continuous
 62
     7
100
AcDbCircle
 10
202.6256443802431
 20
833.0808041093806
 30
0.0
 40
1.000000000000071
100
AcDbArc
 50
308.6598082540921
 51
0.0
  0
ARC
  5
33D
330
9A
100
AcDbEntity
  8
1
  6
Continuous
 62
     7
100
AcDbCircle
 10
191.274863320885
 20
825.600179261894
 30
0.0
 40
1.0
100
AcDbArc
 50
270.0
 51
308.6598082540921
  0
ARC
  5
33E
330
9A
100
AcDbEntity
  8
1
  6
Continuous
 62
     7
100
AcDbCircle
 10
165.9764254396014
 20
825.600179261894
 30
0.0
 40
1.000000000000018
100
AcDbArc
 50
231.3401917459116
 51
270.0
  0
ARC
  5
33F
330
9A
100
AcDbEntity
  8
1
  6
Continuous
 62
     7
100
AcDbCircle
 10
154.6256443802431
 20
833.0808041093806
 30
0.0
 40
1.0
100
AcDbArc
 50
180.0
 51
231.3401917459206
  0
ENDBLK
  5
9C
330
9A
100
AcDbEntity
  8
0
100
AcDbBlockEnd
  0
BLOCK
  5
9E
330
9D
100
AcDbEntity
  8
0
100
AcDbBlockBegin
  2
32-3-M1K__17
 70
     0
 10
927.0338607400832
 20
979.5276425149657
 30
0.0
  3
32-3-M1K__17
  1

  0
LINE
  5
340
330
9D
100
AcDbEntity
  8
1
  6
Continuous
 62
     7
100
AcDbLine
 10
218.0002171164805
 20
341.8001833695848
 30
0.0
 11
215.0256079412694
 21
340.0827919615427
 31
0.0
  0
LINE
  5
341
330
9D
100
AcDbEntity
  8
1
  6
Continuous
 62
     7
100
AcDbLine
 10
209.9617413435469
 20
371.8001833695847
 30
0.0
 11
212.9363592749448
 21
373.5175798330136
 31
0.0
  0
LINE
  5
342
330
9D
100
AcDbEntity
  8
1
  6
Continuous
 62
     7
100
AcDbLine
 10
228.2376467485764
 20
801.6807403979897
 30
0.0
 11
199.7243193359077
 21
801.6807403979897
 31
0.0
  0
LINE
  5
343
330
9D
100
AcDbEntity
  8
1
  6
Continuous
 62
     7
100
AcDbLine
 10
228.9809830422419
 20
800.8320676757185
 30
0.0
 11
228.9809830422421
 21
789.5294131202609
 31
0.0
  0
LINE
  5
344
330
9D
100
AcDbEntity
  8
1
  6
Continuous
 62
     7
100
AcDbLine
 10
198.980983042242
 20
800.832067675718
 30
0.0
 11
198.980983042242
 21
789.5294131202609
 31
0.0
  0
LINE
  5
345
330
9D
100
AcDbEntity
  8
1
  6
Continuous
 62
     7
100
AcDbLine
 10
199.7243193359071
 20
788.6807403979897
 30
0.0
 11
228.2376467485766
 21
788.6807403979897
 31
0.0
  0
LINE
  5
346
330
9D
100
AcDbEntity
  8
1
  6
Continuous
 62
     7
100
AcDbLine
 10
215.0256079412694
 20
373.5175798330136
 30
0.0
 11
218.0002258726674
 21
371.8001833695847
 31
0.0
  0
LINE
  5
347
330
9D
100
AcDbEntity
  8
1
  6
Continuous
 62
     7
100
AcDbLine
 10
198.9809836081072
 20
349.3461601393404
 30
0.0
 11
198.9809836081072
 21
356.7979348238869
 31
0.0
  0
LINE
  5
348
330
9D
100
AcDbEntity
  8
1
  6
Continuous
 62
     7
100
AcDbLine
 10
212.9363592749448
 20
340.0827919615427
 30
0.0
 11
200.0256079412694
 21
347.5368177194804
 31
0.0
  0
ARC
  5
349
330
9D
100
AcDbEntity
  8
1
  6
Continuous
 62
     7
100
AcDbCircle
 10
207.2309830422419
 20
795.1807403979897
 30
0.0
 40
9.999999999999808
100
AcDbArc
 50
139.9947991151396
 51
145.5884913302317
  0
ARC
  5
34A
330
9D
100
AcDbEntity
  8
1
  6
Continuous
 62
     7
100
AcDbCircle
 10
220.7309830422421
 20
795.1807403979897
 30
0.0
 40
10.00000000000006
100
AcDbArc
 50
319.9947991151391
 51
325.5884913302299
  0
ARC
  5
34B
330
9D
100
AcDbEntity
  8
1
  6
Continuous
 62
     7
100
AcDbCircle
 10
220.7309830422421
 20
795.1807403979897
 30
0.0
 40
9.999999999999915
100
AcDbArc
 50
34.41150866977075
 51
40.0052008848609
  0
ARC
  5
34C
330
9D
100
AcDbEntity
  8
1
  6
Continuous
 62
     7
100
AcDbCircle
 10
207.2309830422419
 20
795.1807403979897
 30
0.0
 40
9.999999999999984
100
AcDbArc
 50
214.4115086697705
 51
220.0052008848603
  0
ARC
  5
34D
330
9D
100
AcDbEntity
  8
1
  6
Continuous
 62
     7
100
AcDbCircle
 10
213.9809836081072
 20
356.8001858972783
 30
0.0
 40
16.74999999999981
100
AcDbArc
 50
86.42439207881938
 51
93.57560792118129
  0
ARC
  5
34E
330
9D
100
AcDbEntity
  8
1
  6
Continuous
 62
     7
100
AcDbCircle
 10
213.9809836081072
 20
356.8001858972783
 30
0.0
 40
16.75000000000006
100
AcDbArc
 50
206.4243920788194
 51
213.5756079211814
  0
ARC
  5
34F
330
9D
100
AcDbEntity
  8
1
  6
Continuous
 62
     7
100
AcDbCircle
 10
213.9809836081072
 20
356.8001858972783
 30
0.0
 40
16.75000000000016
100
AcDbArc
 50
266.4243920788188
 51
273.5756079211805
  0
CIRCLE
  5
350
330
9D
100
AcDbEntity
  8
1
  6
Continuous
 62
     7
100
AcDbCircle
 10
221.4809830422421
 20
795.1807403979897
 30
0.0
 40
5.65102495703718
  0
CIRCLE
  5
351
330
9D
100
AcDbEntity
  8
1
  6
Continuous
 62
     7
100
AcDbCircle
 10
206.4809830422421
 20
795.1807403979897
 30
0.0
 40
5.65102495703718
  0
ARC
  5
352
330
9D
100
AcDbEntity
  8
1
  6
Continuous
 62
     7
100
AcDbCircle
 10
199.7243193359077
 20
788.8807403979895
 30
0.0
 40
0.2000000000003306
100
AcDbArc
 50
220.0052008847613
 51
269.999999999829
  0
ARC
  5
353
330
9D
100
AcDbEntity
  8
1
  6
Continuous
 62
     7
100
AcDbCircle
 10
199.7243193359077
 20
801.4807403979896
 30
0.0
 40
0.2000000000000455
100
AcDbArc
 50
90.0
 51
139.9947991151811
  0
ARC
  5
354
330
9D
100
AcDbEntity
  8
1
  6
Continuous
 62
     7
100
AcDbCircle
 10
228.2376467485766
 20
788.8807403979893
 30
0.0
 40
0.1999999999995907
100
AcDbArc
 50
270.0
 51
319.9947991151996
  0
ARC
  5
355
330
9D
100
AcDbEntity
  8
1
  6
Continuous
 62
     7
100
AcDbCircle
 10
228.2376467485766
 20
801.4807403979896
 30
0.0
 40
0.2000000000001067
100
AcDbArc
 50
40.00520088490018
 51
90.000000000057
  0
ENDBLK
  5
9F
330
9D
100
AcDbEntity
  8
0
100
AcDbBlockEnd
  0
BLOCK
  5
A6
330
A0
100
AcDbEntity
  8
0
100
AcDbBlockBegin
  2
U3-48F-50__18
 70
     0
 10
1119.539262016475
 20
2696.202842304046
 30
0.0
  3
U3-48F-50__18
  1

  0
INSERT
  5
A1
330
A0
100
AcDbEntity
  8
1
100
AcDbBlockReference
  2
03-47-50-M1K__10
 10
974.7309830422415
 20
645.5945209368763
 30
0.0
  0
INSERT
  5
A2
330
A0
100
AcDbEntity
  8
1
100
AcDbBlockReference
  2
30-108XK__14
 10
898.9809830422416
 20
744.2001833695786
 30
0.0
  0
INSERT
  5
A3
330
A0
100
AcDbEntity
  8
1
100
AcDbBlockReference
  2
35-6A-8-C2K__15
 10
831.7953691738038
 20
1027.890286728312
 30
0.0
  0
INSERT
  5
A4
330
A0
100
AcDbEntity
  8
0
100
AcDbBlockReference
  2
78-3A-C4K__16
 10
1119.196219728633
 20
1008.321307624323
 30
0.0
  0
INSERT
  5
A5
330
A0
100
AcDbEntity
  8
0
100
AcDbBlockReference
  2
32-3-M1K__17
 10
927.0338607400832
 20
979.5276425149657
 30
0.0
  0
LINE
  5
356
330
A0
100
AcDbEntity
  8
1
  6
PHANTOM
 62
     4
100
AcDbLine
 10
158.8266545070198
 20
341.2438341834807
 30
0.0
 11
198.4246342534665
 21
301.645854437034
 31
0.0
  0
LINE
  5
357
330
A0
100
AcDbEntity
  8
1
  6
PHANTOM
 62
     4
100
AcDbLine
 10
226.7089055009284
 20
369.5281054309426
 30
0.0
 11
158.8266545070199
 21
301.6458544370341
 31
0.0
  0
LINE
  5
358
330
A0
100
AcDbEntity
  8
1
  6
PHANTOM
 62
     4
100
AcDbLine
 10
200.0156245111363
 20
370.765542298019
 30
0.0
 11
227.9463423680049
 21
342.8348244411504
 31
0.0
  0
ENDBLK
  5
A7
330
A0
100
AcDbEntity
  8
0
100
AcDbBlockEnd
  0
BLOCK
  5
A9
330
A8
100
AcDbEntity
  8
0
100
AcDbBlockBegin
  2
35-248
 70
     0
 10
861.4809834395658
 20
721.6000000001989
 30
0.0
  3
35-248
  1

  0
LINE
  5
359
330
A8
100
AcDbEntity
  8
1
  6
Continuous
 62
     7
100
AcDbLine
 10
710.4999999999981
 20
339.8001833695839
 30
0.0
 11
721.4999999999981
 21
339.8001833695839
 31
0.0
  0
LINE
  5
35A
330
A8
100
AcDbEntity
  8
1
  6
Continuous
 62
     7
100
AcDbLine
 10
721.9999999999981
 20
340.3001833695839
 30
0.0
 11
709.9999999999981
 21
340.3001833695839
 31
0.0
  0
LINE
  5
35B
330
A8
100
AcDbEntity
  8
1
  6
Continuous
 62
     7
100
AcDbLine
 10
709.9999999999983
 20
341.8001833695844
 30
0.0
 11
709.9999999999981
 21
340.3001833695839
 31
0.0
  0
LINE
  5
35C
330
A8
100
AcDbEntity
  8
1
  6
Continuous
 62
     7
100
AcDbLine
 10
267.9809834395657
 20
340.3001833695847
 30
0.0
 11
279.9809834395657
 21
340.3001833695847
 31
0.0
  0
LINE
  5
35D
330
A8
100
AcDbEntity
  8
1
  6
Continuous
 62
     7
100
AcDbLine
 10
267.9809834395657
 20
341.8001833695847
 30
0.0
 11
267.9809834395657
 21
340.3001833695847
 31
0.0
  0
LINE
  5
35E
330
A8
100
AcDbEntity
  8
1
  6
Continuous
 62
     7
100
AcDbLine
 10
268.4809834395657
 20
339.8001833695847
 30
0.0
 11
267.9809834395657
 21
340.3001833695847
 31
0.0
  0
LINE
  5
35F
330
A8
100
AcDbEntity
  8
1
  6
Continuous
 62
     7
100
AcDbLine
 10
279.9809834395657
 20
340.3001833695847
 30
0.0
 11
279.4809834395657
 21
339.8001833695847
 31
0.0
  0
LINE
  5
360
330
A8
100
AcDbEntity
  8
1
  6
Continuous
 62
     7
100
AcDbLine
 10
279.9809834395657
 20
340.3001833695847
 30
0.0
 11
279.9809834395657
 21
341.8001833695847
 31
0.0
  0
LINE
  5
361
330
A8
100
AcDbEntity
  8
1
  6
Continuous
 62
     7
100
AcDbLine
 10
279.4809834395657
 20
339.8001833695847
 30
0.0
 11
268.4809834395657
 21
339.8001833695847
 31
0.0
  0
LINE
  5
362
330
A8
100
AcDbEntity
  8
1
  6
Continuous
 62
     7
100
AcDbLine
 10
721.9999999999981
 20
340.3001833695839
 30
0.0
 11
721.4999999999981
 21
339.8001833695839
 31
0.0
  0
LINE
  5
363
330
A8
100
AcDbEntity
  8
1
  6
Continuous
 62
     7
100
AcDbLine
 10
710.4999999999981
 20
339.8001833695839
 30
0.0
 11
709.9999999999981
 21
340.3001833695839
 31
0.0
  0
LINE
  5
364
330
A8
100
AcDbEntity
  8
1
  6
Continuous
 62
     7
100
AcDbLine
 10
721.9999999999981
 20
340.3001833695839
 30
0.0
 11
721.9999999999983
 21
341.8001833695844
 31
0.0
  0
ENDBLK
  5
AA
330
A8
100
AcDbEntity
  8
0
100
AcDbBlockEnd
  0
BLOCK
  5
AC
330
AB
100
AcDbEntity
  8
0
100
AcDbBlockBegin
  2
31-17
 70
     0
 10
1482.889090247308
 20
501.009915266913
 30
0.0
  3
31-17
  1

  0
LINE
  5
365
330
AB
100
AcDbEntity
  8
1
  6
Continuous
 62
     7
100
AcDbLine
 10
715.9999999999982
 20
336.3001833695848
 30
0.0
 11
711.4999999999982
 21
336.3001833695848
 31
0.0
  0
LINE
  5
366
330
AB
100
AcDbEntity
  8
1
  6
Continuous
 62
     2
100
AcDbLine
 10
708.999999999998
 20
336.3001833695848
 30
0.0
 11
708.9999999999982
 21
332.3001833695848
 31
0.0
  0
LINE
  5
367
330
AB
100
AcDbEntity
  8
1
  6
Continuous
 62
     2
100
AcDbLine
 10
709.9999999999982
 20
335.8940227945359
 30
0.0
 11
709.9999999999982
 21
332.552451442805
 31
0.0
  0
LINE
  5
368
330
AB
100
AcDbEntity
  8
1
  6
Continuous
 62
     2
100
AcDbLine
 10
710.9999999999982
 20
335.6369788444029
 30
0.0
 11
710.9999999999982
 21
332.6952536373235
 31
0.0
  0
LINE
  5
369
330
AB
100
AcDbEntity
  8
1
  6
Continuous
 62
     2
100
AcDbLine
 10
711.9999999999982
 20
335.5227370887883
 30
0.0
 11
711.9999999999982
 21
332.8951767096492
 31
0.0
  0
LINE
  5
36A
330
AB
100
AcDbEntity
  8
1
  6
Continuous
 62
     2
100
AcDbLine
 10
712.9999999999982
 20
335.265693138655
 30
0.0
 11
712.9999999999982
 21
332.9237371485529
 31
0.0
  0
LINE
  5
36B
330
AB
100
AcDbEntity
  8
1
  6
Continuous
 62
     2
100
AcDbLine
 10
713.9999999999982
 20
334.9515283107144
 30
0.0
 11
713.9999999999982
 21
333.1522206597822
 31
0.0
  0
LINE
  5
36C
330
AB
100
AcDbEntity
  8
1
  6
Continuous
 62
     2
100
AcDbLine
 10
714.9999999999982
 20
334.8087261161959
 30
0.0
 11
714.9999999999982
 21
333.4663854877229
 31
0.0
  0
LINE
  5
36D
330
AB
100
AcDbEntity
  8
1
  6
Continuous
 62
     2
100
AcDbLine
 10
716.9999999999982
 20
333.4663854877229
 30
0.0
 11
716.999999999998
 21
334.8087261161959
 31
0.0
  0
LINE
  5
36E
330
AB
100
AcDbEntity
  8
1
  6
Continuous
 62
     2
100
AcDbLine
 10
717.9999999999982
 20
333.1522206597822
 30
0.0
 11
717.9999999999982
 21
334.9515283107144
 31
0.0
  0
LINE
  5
36F
330
AB
100
AcDbEntity
  8
1
  6
Continuous
 62
     2
100
AcDbLine
 10
718.9999999999982
 20
332.9237371485529
 30
0.0
 11
718.9999999999982
 21
335.265693138655
 31
0.0
  0
LINE
  5
370
330
AB
100
AcDbEntity
  8
1
  6
Continuous
 62
     2
100
AcDbLine
 10
719.9999999999982
 20
332.8951767096492
 30
0.0
 11
719.9999999999982
 21
335.5227370887883
 31
0.0
  0
LINE
  5
371
330
AB
100
AcDbEntity
  8
1
  6
Continuous
 62
     2
100
AcDbLine
 10
720.9999999999982
 20
332.6952536373235
 30
0.0
 11
720.9999999999982
 21
335.6369788444029
 31
0.0
  0
LINE
  5
372
330
AB
100
AcDbEntity
  8
1
  6
Continuous
 62
     2
100
AcDbLine
 10
721.9999999999982
 20
332.552451442805
 30
0.0
 11
721.9999999999982
 21
335.8940227945359
 31
0.0
  0
LINE
  5
373
330
AB
100
AcDbEntity
  8
1
  6
Continuous
 62
     2
100
AcDbLine
 10
722.9999999999982
 20
332.3001833695848
 30
0.0
 11
722.9999999999982
 21
336.3001833695848
 31
0.0
  0
LINE
  5
374
330
AB
100
AcDbEntity
  8
1
  6
Continuous
 62
     7
100
AcDbLine
 10
720.4999999999982
 20
336.3001833695848
 30
0.0
 11
715.9999999999982
 21
336.3001833695848
 31
0.0
  0
LINE
  5
375
330
AB
100
AcDbEntity
  8
1
  6
Continuous
 62
     7
100
AcDbLine
 10
711.4999999999982
 20
339.8001833695839
 30
0.0
 11
711.4999999999982
 21
336.3001833695848
 31
0.0
  0
LINE
  5
376
330
AB
100
AcDbEntity
  8
1
  6
Continuous
 62
     7
100
AcDbLine
 10
711.9999999999982
 20
337.1662087733694
 30
0.0
 11
719.9999999999982
 21
337.1662087733694
 31
0.0
  0
LINE
  5
377
330
AB
100
AcDbEntity
  8
1
  6
Continuous
 62
     7
100
AcDbLine
 10
269.4809834395658
 20
339.8001833695849
 30
0.0
 11
269.4809834395658
 21
337.5126189348831
 31
0.0
  0
LINE
  5
378
330
AB
100
AcDbEntity
  8
1
  6
Continuous
 62
     2
100
AcDbLine
 10
270.1809834395656
 20
339.8001833695849
 30
0.0
 11
270.1809834395656
 21
337.5126189348831
 31
0.0
  0
LINE
  5
379
330
AB
100
AcDbEntity
  8
1
  6
Continuous
 62
     7
100
AcDbLine
 10
266.9809834395658
 20
332.3001833695849
 30
0.0
 11
280.9809834395658
 21
332.3001833695849
 31
0.0
  0
LINE
  5
37A
330
AB
100
AcDbEntity
  8
1
  6
Continuous
 62
     7
100
AcDbLine
 10
269.4809834395658
 20
337.5126189348831
 30
0.0
 11
270.1809834395656
 21
337.5126189348831
 31
0.0
  0
LINE
  5
37B
330
AB
100
AcDbEntity
  8
1
  6
Continuous
 62
     7
100
AcDbLine
 10
273.9809834395658
 20
337.5126189348831
 30
0.0
 11
270.1809834395656
 21
337.5126189348831
 31
0.0
  0
LINE
  5
37C
330
AB
100
AcDbEntity
  8
1
  6
Continuous
 62
     2
100
AcDbLine
 10
270.1809834395656
 20
337.5126189348831
 30
0.0
 11
269.4809834395658
 21
336.3001833695847
 31
0.0
  0
LINE
  5
37D
330
AB
100
AcDbEntity
  8
1
  6
Continuous
 62
     7
100
AcDbLine
 10
273.9809834395658
 20
336.3001833695847
 30
0.0
 11
269.4809834395658
 21
336.3001833695847
 31
0.0
  0
LINE
  5
37E
330
AB
100
AcDbEntity
  8
1
  6
Continuous
 62
     7
100
AcDbLine
 10
269.4809834395658
 20
337.5126189348831
 30
0.0
 11
269.4809834395658
 21
336.3001833695847
 31
0.0
  0
LINE
  5
37F
330
AB
100
AcDbEntity
  8
1
  6
Continuous
 62
     7
100
AcDbLine
 10
266.9809834395658
 20
336.3001833695847
 30
0.0
 11
269.4809834395658
 21
336.3001833695847
 31
0.0
  0
LINE
  5
380
330
AB
100
AcDbEntity
  8
1
  6
Continuous
 62
     7
100
AcDbLine
 10
265.9809834395658
 20
332.8001833695849
 30
0.0
 11
265.9809834395658
 21
335.8001833695847
 31
0.0
  0
LINE
  5
381
330
AB
100
AcDbEntity
  8
1
  6
Continuous
 62
     2
100
AcDbLine
 10
266.9809834395658
 20
336.3001833695847
 30
0.0
 11
266.9809834395658
 21
332.3001833695849
 31
0.0
  0
LINE
  5
382
330
AB
100
AcDbEntity
  8
1
  6
Continuous
 62
     7
100
AcDbLine
 10
266.4809834395658
 20
332.3001833695849
 30
0.0
 11
266.9809834395658
 21
332.3001833695849
 31
0.0
  0
LINE
  5
383
330
AB
100
AcDbEntity
  8
1
  6
Continuous
 62
     7
100
AcDbLine
 10
266.4809834395658
 20
336.3001833695847
 30
0.0
 11
266.9809834395658
 21
336.3001833695847
 31
0.0
  0
LINE
  5
384
330
AB
100
AcDbEntity
  8
1
  6
Continuous
 62
     2
100
AcDbLine
 10
267.9809834395658
 20
335.894022794536
 30
0.0
 11
267.9809834395658
 21
332.5524514428049
 31
0.0
  0
LINE
  5
385
330
AB
100
AcDbEntity
  8
1
  6
Continuous
 62
     2
100
AcDbLine
 10
268.9809834395658
 20
335.6369788444029
 30
0.0
 11
268.9809834395658
 21
332.6952536373235
 31
0.0
  0
LINE
  5
386
330
AB
100
AcDbEntity
  8
1
  6
Continuous
 62
     2
100
AcDbLine
 10
269.9809834395658
 20
335.5227370887882
 30
0.0
 11
269.9809834395658
 21
332.8951767096492
 31
0.0
  0
LINE
  5
387
330
AB
100
AcDbEntity
  8
1
  6
Continuous
 62
     2
100
AcDbLine
 10
270.9809834395658
 20
335.2656931386549
 30
0.0
 11
270.9809834395658
 21
332.9237371485529
 31
0.0
  0
LINE
  5
388
330
AB
100
AcDbEntity
  8
1
  6
Continuous
 62
     2
100
AcDbLine
 10
271.9809834395658
 20
334.9515283107145
 30
0.0
 11
271.9809834395658
 21
333.1522206597823
 31
0.0
  0
LINE
  5
389
330
AB
100
AcDbEntity
  8
1
  6
Continuous
 62
     2
100
AcDbLine
 10
272.9809834395658
 20
334.808726116196
 30
0.0
 11
272.9809834395658
 21
333.4663854877229
 31
0.0
  0
LINE
  5
38A
330
AB
100
AcDbEntity
  8
1
  6
Continuous
 62
     2
100
AcDbLine
 10
274.9809834395658
 20
333.4663854877229
 30
0.0
 11
274.9809834395658
 21
334.808726116196
 31
0.0
  0
LINE
  5
38B
330
AB
100
AcDbEntity
  8
1
  6
Continuous
 62
     2
100
AcDbLine
 10
275.9809834395658
 20
333.1522206597823
 30
0.0
 11
275.9809834395658
 21
334.9515283107145
 31
0.0
  0
LINE
  5
38C
330
AB
100
AcDbEntity
  8
1
  6
Continuous
 62
     2
100
AcDbLine
 10
276.9809834395658
 20
332.9237371485529
 30
0.0
 11
276.9809834395658
 21
335.2656931386549
 31
0.0
  0
LINE
  5
38D
330
AB
100
AcDbEntity
  8
1
  6
Continuous
 62
     2
100
AcDbLine
 10
277.9809834395658
 20
332.8951767096492
 30
0.0
 11
277.9809834395658
 21
335.5227370887882
 31
0.0
  0
LINE
  5
38E
330
AB
100
AcDbEntity
  8
1
  6
Continuous
 62
     2
100
AcDbLine
 10
278.9809834395658
 20
332.6952536373235
 30
0.0
 11
278.9809834395658
 21
335.6369788444029
 31
0.0
  0
LINE
  5
38F
330
AB
100
AcDbEntity
  8
1
  6
Continuous
 62
     2
100
AcDbLine
 10
279.9809834395658
 20
332.5524514428049
 30
0.0
 11
279.9809834395658
 21
335.894022794536
 31
0.0
  0
LINE
  5
390
330
AB
100
AcDbEntity
  8
1
  6
Continuous
 62
     7
100
AcDbLine
 10
280.9809834395658
 20
336.3001833695847
 30
0.0
 11
281.4809834395658
 21
336.3001833695847
 31
0.0
  0
LINE
  5
391
330
AB
100
AcDbEntity
  8
1
  6
Continuous
 62
     7
100
AcDbLine
 10
280.9809834395658
 20
332.3001833695849
 30
0.0
 11
281.4809834395658
 21
332.3001833695849
 31
0.0
  0
LINE
  5
392
330
AB
100
AcDbEntity
  8
1
  6
Continuous
 62
     2
100
AcDbLine
 10
280.9809834395658
 20
332.3001833695849
 30
0.0
 11
280.9809834395658
 21
336.3001833695847
 31
0.0
  0
LINE
  5
393
330
AB
100
AcDbEntity
  8
1
  6
Continuous
 62
     7
100
AcDbLine
 10
281.9809834395658
 20
335.8001833695847
 30
0.0
 11
281.9809834395658
 21
332.8001833695849
 31
0.0
  0
LINE
  5
394
330
AB
100
AcDbEntity
  8
1
  6
Continuous
 62
     7
100
AcDbLine
 10
278.4809834395658
 20
336.3001833695847
 30
0.0
 11
280.9809834395658
 21
336.3001833695847
 31
0.0
  0
LINE
  5
395
330
AB
100
AcDbEntity
  8
1
  6
Continuous
 62
     7
100
AcDbLine
 10
278.4809834395658
 20
336.3001833695847
 30
0.0
 11
278.4809834395658
 21
337.5126189348831
 31
0.0
  0
LINE
  5
396
330
AB
100
AcDbEntity
  8
1
  6
Continuous
 62
     7
100
AcDbLine
 10
278.4809834395658
 20
336.3001833695847
 30
0.0
 11
273.9809834395658
 21
336.3001833695847
 31
0.0
  0
LINE
  5
397
330
AB
100
AcDbEntity
  8
1
  6
Continuous
 62
     2
100
AcDbLine
 10
278.4809834395658
 20
336.3001833695847
 30
0.0
 11
277.7809834395659
 21
337.5126189348831
 31
0.0
  0
LINE
  5
398
330
AB
100
AcDbEntity
  8
1
  6
Continuous
 62
     2
100
AcDbLine
 10
277.7809834395659
 20
337.5126189348831
 30
0.0
 11
277.7809834395659
 21
339.8001833695847
 31
0.0
  0
LINE
  5
399
330
AB
100
AcDbEntity
  8
1
  6
Continuous
 62
     7
100
AcDbLine
 10
277.7809834395659
 20
337.5126189348831
 30
0.0
 11
273.9809834395658
 21
337.5126189348831
 31
0.0
  0
LINE
  5
39A
330
AB
100
AcDbEntity
  8
1
  6
Continuous
 62
     7
100
AcDbLine
 10
277.7809834395659
 20
337.5126189348831
 30
0.0
 11
278.4809834395658
 21
337.5126189348831
 31
0.0
  0
LINE
  5
39B
330
AB
100
AcDbEntity
  8
1
  6
Continuous
 62
     7
100
AcDbLine
 10
278.4809834395658
 20
337.5126189348831
 30
0.0
 11
278.4809834395658
 21
339.8001833695847
 31
0.0
  0
LINE
  5
39C
330
AB
100
AcDbEntity
  8
1
  6
Continuous
 62
     7
100
AcDbLine
 10
711.9999999999982
 20
337.1662087733694
 30
0.0
 11
711.4999999999982
 21
337.1662087733694
 31
0.0
  0
LINE
  5
39D
330
AB
100
AcDbEntity
  8
1
  6
Continuous
 62
     2
100
AcDbLine
 10
711.9999999999982
 20
337.1662087733694
 30
0.0
 11
711.9999999999982
 21
339.8001833695839
 31
0.0
  0
LINE
  5
39E
330
AB
100
AcDbEntity
  8
1
  6
Continuous
 62
     7
100
AcDbLine
 10
719.9999999999982
 20
337.1662087733694
 30
0.0
 11
720.4999999999982
 21
337.1662087733694
 31
0.0
  0
LINE
  5
39F
330
AB
100
AcDbEntity
  8
1
  6
Continuous
 62
     2
100
AcDbLine
 10
719.9999999999982
 20
337.1662087733694
 30
0.0
 11
720.4999999999982
 21
336.3001833695848
 31
0.0
  0
LINE
  5
3A0
330
AB
100
AcDbEntity
  8
1
  6
Continuous
 62
     2
100
AcDbLine
 10
719.9999999999982
 20
337.1662087733694
 30
0.0
 11
719.9999999999982
 21
339.8001833695839
 31
0.0
  0
LINE
  5
3A1
330
AB
100
AcDbEntity
  8
1
  6
Continuous
 62
     7
100
AcDbLine
 10
723.4999999999982
 20
332.3001833695848
 30
0.0
 11
708.4999999999982
 21
332.3001833695848
 31
0.0
  0
LINE
  5
3A2
330
AB
100
AcDbEntity
  8
1
  6
Continuous
 62
     7
100
AcDbLine
 10
723.9999999999982
 20
335.8001833695848
 30
0.0
 11
723.9999999999982
 21
332.8001833695848
 31
0.0
  0
LINE
  5
3A3
330
AB
100
AcDbEntity
  8
1
  6
Continuous
 62
     7
100
AcDbLine
 10
723.4999999999982
 20
336.3001833695848
 30
0.0
 11
720.4999999999982
 21
336.3001833695848
 31
0.0
  0
LINE
  5
3A4
330
AB
100
AcDbEntity
  8
1
  6
Continuous
 62
     7
100
AcDbLine
 10
720.4999999999982
 20
336.3001833695848
 30
0.0
 11
720.4999999999982
 21
339.8001833695839
 31
0.0
  0
LINE
  5
3A5
330
AB
100
AcDbEntity
  8
1
  6
Continuous
 62
     2
100
AcDbLine
 10
711.4999999999982
 20
336.3001833695848
 30
0.0
 11
711.9999999999982
 21
337.1662087733694
 31
0.0
  0
LINE
  5
3A6
330
AB
100
AcDbEntity
  8
1
  6
Continuous
 62
     7
100
AcDbLine
 10
711.4999999999982
 20
336.3001833695848
 30
0.0
 11
708.4999999999982
 21
336.3001833695848
 31
0.0
  0
LINE
  5
3A7
330
AB
100
AcDbEntity
  8
1
  6
Continuous
 62
     7
100
AcDbLine
 10
707.9999999999982
 20
332.8001833695848
 30
0.0
 11
707.9999999999982
 21
335.8001833695848
 31
0.0
  0
ARC
  5
3A8
330
AB
100
AcDbEntity
  8
1
  6
Continuous
 62
     7
100
AcDbCircle
 10
266.4809834395658
 20
332.8001833695849
 30
0.0
 40
0.5
100
AcDbArc
 50
180.0
 51
270.0
  0
ARC
  5
3A9
330
AB
100
AcDbEntity
  8
1
  6
Continuous
 62
     7
100
AcDbCircle
 10
266.4809834395658
 20
335.8001833695847
 30
0.0
 40
0.5
100
AcDbArc
 50
90.0
 51
180.0
  0
ARC
  5
3AA
330
AB
100
AcDbEntity
  8
1
  6
Continuous
 62
     7
100
AcDbCircle
 10
281.4809834395658
 20
335.8001833695847
 30
0.0
 40
0.5
100
AcDbArc
 50
0.0
 51
90.0
  0
ARC
  5
3AB
330
AB
100
AcDbEntity
  8
1
  6
Continuous
 62
     7
100
AcDbCircle
 10
281.4809834395658
 20
332.8001833695849
 30
0.0
 40
0.5
100
AcDbArc
 50
270.0
 51
0.0
  0
ARC
  5
3AC
330
AB
100
AcDbEntity
  8
1
  6
Continuous
 62
     7
100
AcDbCircle
 10
723.4999999999982
 20
332.8001833695848
 30
0.0
 40
0.5
100
AcDbArc
 50
270.0
 51
0.0
  0
ARC
  5
3AD
330
AB
100
AcDbEntity
  8
1
  6
Continuous
 62
     7
100
AcDbCircle
 10
723.4999999999982
 20
335.8001833695848
 30
0.0
 40
0.5
100
AcDbArc
 50
0.0
 51
90.0
  0
ARC
  5
3AE
330
AB
100
AcDbEntity
  8
1
  6
Continuous
 62
     7
100
AcDbCircle
 10
708.4999999999982
 20
335.8001833695848
 30
0.0
 40
0.5
100
AcDbArc
 50
90.0
 51
180.0
  0
ARC
  5
3AF
330
AB
100
AcDbEntity
  8
1
  6
Continuous
 62
     7
100
AcDbCircle
 10
708.4999999999982
 20
332.8001833695848
 30
0.0
 40
0.5
100
AcDbArc
 50
180.0
 51
270.0
  0
ENDBLK
  5
AD
330
AB
100
AcDbEntity
  8
0
100
AcDbBlockEnd
  0
BLOCK
  5
3F3
330
3EC
100
AcDbEntity
  8
0
100
AcDbBlockBegin
  2
*D29
 70
     1
 10
0.0
 20
0.0
 30
0.0
  3
*D29
  1

  0
LINE
  5
3ED
330
3EC
100
AcDbEntity
  8
1
  6
Continuous
 62
     2
100
AcDbLine
 10
707.4999999999982
 20
256.4448443102586
 30
0.0
 11
786.3999999999917
 21
256.4448443102586
 31
0.0
  0
LINE
  5
3EE
330
3EC
100
AcDbEntity
  8
1
  6
Continuous
 62
     2
100
AcDbLine
 10
786.3999999999917
 20
296.4448443102586
 30
0.0
 11
786.3999999999917
 21
252.4448443102586
 31
0.0
  0
LINE
  5
3EF
330
3EC
100
AcDbEntity
  8
1
  6
Continuous
 62
     2
100
AcDbLine
 10
707.4999999999982
 20
332.8001833695848
 30
0.0
 11
707.4999999999982
 21
252.4448443102586
 31
0.0
  0
SOLID
  5
3F0
330
3EC
100
AcDbEntity
  8
1
 62
     2
100
AcDbTrace
 10
721.4999999999982
 20
258.2879792764821
 30
0.0
 11
721.4999999999982
 21
254.601709344035
 31
0.0
 12
707.4999999999982
 22
256.4448443102586
 32
0.0
 13
707.4999999999982
 23
256.4448443102586
 33
0.0
  0
SOLID
  5
3F1
330
3EC
100
AcDbEntity
  8
1
 62
     2
100
AcDbTrace
 10
772.3999999999917
 20
254.601709344035
 30
0.0
 11
772.3999999999917
 21
258.2879792764821
 31
0.0
 12
786.3999999999917
 22
256.4448443102586
 32
0.0
 13
786.3999999999917
 23
256.4448443102586
 33
0.0
  0
MTEXT
  5
3F2
330
3EC
100
AcDbEntity
  8
1
 62
     7
100
AcDbMText
 10
738.155526167789
 20
260.4448443102586
 30
0.0
 40
14.0
 41
0.0
 71
     7
 72
     1
  1
79
  7
CONVERTER_12
 11
0.9999999999970619
 21
2.424068405545306E-6
 31
0.0
 73
     1
 44
0.60024009603842
  0
ENDBLK
  5
3F4
330
3EC
100
AcDbEntity
  8
0
100
AcDbBlockEnd
  0
BLOCK
  5
3FF
330
3F7
100
AcDbEntity
  8
0
100
AcDbBlockBegin
  2
*D30
 70
     1
 10
0.0
 20
0.0
 30
0.0
  3
*D30
  1

  0
LINE
  5
3F8
330
3F7
100
AcDbEntity
  8
1
  6
Continuous
 62
     2
100
AcDbLine
 10
153.6256443802431
 20
889.3001792618938
 30
0.0
 11
113.076298627075
 21
889.3001792618938
 31
0.0
  0
LINE
  5
3F9
330
3F7
100
AcDbEntity
  8
1
  6
Continuous
 62
     2
100
AcDbLine
 10
203.6256443802431
 20
889.3001792618938
 30
0.0
 11
153.6256443802431
 21
889.3001792618938
 31
0.0
  0
LINE
  5
3FA
330
3F7
100
AcDbEntity
  8
1
  6
Continuous
 62
     2
100
AcDbLine
 10
153.6256443802431
 20
835.3001792618938
 30
0.0
 11
153.6256443802431
 21
893.3001792618938
 31
0.0
  0
LINE
  5
3FB
330
3F7
100
AcDbEntity
  8
1
  6
Continuous
 62
     2
100
AcDbLine
 10
203.6256443802431
 20
835.3001792618938
 30
0.0
 11
203.6256443802431
 21
893.3001792618938
 31
0.0
  0
SOLID
  5
3FC
330
3F7
100
AcDbEntity
  8
1
 62
     2
100
AcDbTrace
 10
189.6256443802431
 20
887.4570442956704
 30
0.0
 11
189.6256443802431
 21
891.1433142281173
 31
0.0
 12
203.6256443802431
 22
889.3001792618938
 32
0.0
 13
203.6256443802431
 23
889.3001792618938
 33
0.0
  0
SOLID
  5
3FD
330
3F7
100
AcDbEntity
  8
1
 62
     2
100
AcDbTrace
 10
167.6256443802431
 20
891.1433142281173
 30
0.0
 11
167.6256443802431
 21
887.4570442956704
 31
0.0
 12
153.6256443802431
 22
889.3001792618938
 32
0.0
 13
153.6256443802431
 23
889.3001792618938
 33
0.0
  0
MTEXT
  5
3FE
330
3F7
100
AcDbEntity
  8
1
 62
     7
100
AcDbMText
 10
118.3962986271087
 20
893.3001514335886
 30
0.0
 40
14.0
 41
0.0
 71
     7
 72
     1
  1
\C7;{\Fgdt;n}\C7;50
  7
CONVERTER_12
 11
0.9999999999970619
 21
2.424068405545306E-6
 31
0.0
 73
     1
 44
0.60024009603842
  0
ENDBLK
  5
400
330
3F7
100
AcDbEntity
  8
0
100
AcDbBlockEnd
  0
BLOCK
  5
40A
330
403
100
AcDbEntity
  8
0
100
AcDbBlockBegin
  2
*D31
 70
     1
 10
0.0
 20
0.0
 30
0.0
  3
*D31
  1

  0
LINE
  5
404
330
403
100
AcDbEntity
  8
1
  6
Continuous
 62
     2
100
AcDbLine
 10
507.4999999999982
 20
256.4401833695851
 30
0.0
 11
707.4999999999982
 21
256.4401833695851
 31
0.0
  0
LINE
  5
405
330
403
100
AcDbEntity
  8
1
  6
Continuous
 62
     2
100
AcDbLine
 10
707.4999999999982
 20
332.8001833695848
 30
0.0
 11
707.4999999999982
 21
252.4401833695851
 31
0.0
  0
LINE
  5
406
330
403
100
AcDbEntity
  8
1
  6
Continuous
 62
     2
100
AcDbLine
 10
507.4999999999982
 20
373.9383468981307
 30
0.0
 11
507.4999999999982
 21
252.4401833695851
 31
0.0
  0
SOLID
  5
407
330
403
100
AcDbEntity
  8
1
 62
     2
100
AcDbTrace
 10
521.4999999999982
 20
258.2833183358086
 30
0.0
 11
521.4999999999982
 21
254.5970484033616
 31
0.0
 12
507.4999999999982
 22
256.4401833695851
 32
0.0
 13
507.4999999999982
 23
256.4401833695851
 33
0.0
  0
SOLID
  5
408
330
403
100
AcDbEntity
  8
1
 62
     2
100
AcDbTrace
 10
693.4999999999982
 20
254.5970484033616
 30
0.0
 11
693.4999999999982
 21
258.2833183358086
 31
0.0
 12
707.4999999999982
 22
256.4401833695851
 32
0.0
 13
707.4999999999982
 23
256.4401833695851
 33
0.0
  0
MTEXT
  5
409
330
403
100
AcDbEntity
  8
1
 62
     7
100
AcDbMText
 10
592.6499609520461
 20
260.4401833695851
 30
0.0
 40
14.0
 41
0.0
 71
     7
 72
     1
  1
200
  7
CONVERTER_12
 11
0.9999999999970619
 21
2.424068405545306E-6
 31
0.0
 73
     1
 44
0.60024009603842
  0
ENDBLK
  5
40B
330
403
100
AcDbEntity
  8
0
100
AcDbBlockEnd
  0
BLOCK
  5
415
330
40E
100
AcDbEntity
  8
0
100
AcDbBlockBegin
  2
*D32
 70
     1
 10
0.0
 20
0.0
 30
0.0
  3
*D32
  1

  0
LINE
  5
40F
330
40E
100
AcDbEntity
  8
1
  6
Continuous
 62
     2
100
AcDbLine
 10
707.4999999999982
 20
541.5714695481076
 30
0.0
 11
617.4999999999978
 21
541.5714695481076
 31
0.0
  0
LINE
  5
410
330
40E
100
AcDbEntity
  8
1
  6
Continuous
 62
     2
100
AcDbLine
 10
617.4999999999978
 20
464.1966372257007
 30
0.0
 11
617.4999999999978
 21
545.5714695481076
 31
0.0
  0
LINE
  5
411
330
40E
100
AcDbEntity
  8
1
  6
Continuous
 62
     2
100
AcDbLine
 10
707.4999999999982
 20
472.128432059384
 30
0.0
 11
707.4999999999982
 21
545.5714695481076
 31
0.0
  0
SOLID
  5
412
330
40E
100
AcDbEntity
  8
1
 62
     2
100
AcDbTrace
 10
693.4999999999982
 20
539.7283345818842
 30
0.0
 11
693.4999999999982
 21
543.4146045143311
 31
0.0
 12
707.4999999999982
 22
541.5714695481076
 32
0.0
 13
707.4999999999982
 23
541.5714695481076
 33
0.0
  0
SOLID
  5
413
330
40E
100
AcDbEntity
  8
1
 62
     2
100
AcDbTrace
 10
631.4999999999978
 20
543.4146045143311
 30
0.0
 11
631.4999999999978
 21
539.7283345818842
 31
0.0
 12
617.4999999999978
 22
541.5714695481076
 32
0.0
 13
617.4999999999978
 23
541.5714695481076
 33
0.0
  0
MTEXT
  5
414
330
40E
100
AcDbEntity
  8
1
 62
     7
100
AcDbMText
 10
652.741172233592
 20
545.5714695481076
 30
0.0
 40
14.0
 41
0.0
 71
     7
 72
     1
  1
90
  7
CONVERTER_12
 11
0.9999999999970619
 21
2.424068405545306E-6
 31
0.0
 73
     1
 44
0.60024009603842
  0
ENDBLK
  5
416
330
40E
100
AcDbEntity
  8
0
100
AcDbBlockEnd
  0
BLOCK
  5
420
330
419
100
AcDbEntity
  8
0
100
AcDbBlockBegin
  2
*D33
 70
     1
 10
0.0
 20
0.0
 30
0.0
  3
*D33
  1

  0
LINE
  5
41A
330
419
100
AcDbEntity
  8
1
  6
Continuous
 62
     2
100
AcDbLine
 10
421.4961307151236
 20
356.8001833695848
 30
0.0
 11
421.4961307151236
 21
502.1754112398171
 31
0.0
  0
LINE
  5
41B
330
419
100
AcDbEntity
  8
1
  6
Continuous
 62
     2
100
AcDbLine
 10
668.8999999999917
 20
356.8001833695848
 30
0.0
 11
417.4961307151236
 21
356.8001833695848
 31
0.0
  0
LINE
  5
41C
330
419
100
AcDbEntity
  8
1
  6
Continuous
 62
     2
100
AcDbLine
 10
649.1161513831919
 20
502.1754112398171
 30
0.0
 11
417.4961307151236
 21
502.1754112398171
 31
0.0
  0
SOLID
  5
41D
330
419
100
AcDbEntity
  8
1
 62
     2
100
AcDbTrace
 10
419.6529957489001
 20
370.8001833695848
 30
0.0
 11
423.3392656813472
 21
370.8001833695848
 31
0.0
 12
421.4961307151236
 22
356.8001833695848
 32
0.0
 13
421.4961307151236
 23
356.8001833695848
 33
0.0
  0
SOLID
  5
41E
330
419
100
AcDbEntity
  8
1
 62
     2
100
AcDbTrace
 10
423.3392656813472
 20
488.1754112398171
 30
0.0
 11
419.6529957489001
 21
488.1754112398171
 31
0.0
 12
421.4961307151236
 22
502.1754112398171
 32
0.0
 13
421.4961307151236
 23
502.1754112398171
 33
0.0
  0
MTEXT
  5
41F
330
419
100
AcDbEntity
  8
1
 62
     7
100
AcDbMText
 10
417.4961307151236
 20
414.4636188540922
 30
0.0
 40
14.0
 41
0.0
 71
     7
 72
     1
  1
\C7;最大\C7;145
  7
CONVERTER_11
 11
0.0
 21
1.0
 31
0.0
 73
     1
 44
0.45454545454545
  0
ENDBLK
  5
421
330
419
100
AcDbEntity
  8
0
100
AcDbBlockEnd
  0
BLOCK
  5
42B
330
424
100
AcDbEntity
  8
0
100
AcDbBlockBegin
  2
*D34
 70
     1
 10
0.0
 20
0.0
 30
0.0
  3
*D34
  1

  0
LINE
  5
425
330
424
100
AcDbEntity
  8
1
  6
Continuous
 62
     2
100
AcDbLine
 10
453.4961307151236
 20
356.8001833695847
 30
0.0
 11
453.4961307151236
 21
470.1642685396154
 31
0.0
  0
LINE
  5
426
330
424
100
AcDbEntity
  8
1
  6
Continuous
 62
     2
100
AcDbLine
 10
668.8999999999917
 20
356.8001833695847
 30
0.0
 11
449.4961307151236
 21
356.8001833695847
 31
0.0
  0
LINE
  5
427
330
424
100
AcDbEntity
  8
1
  6
Continuous
 62
     2
100
AcDbLine
 10
621.6518463976591
 20
470.1642685396154
 30
0.0
 11
449.4961307151236
 21
470.1642685396154
 31
0.0
  0
SOLID
  5
428
330
424
100
AcDbEntity
  8
1
 62
     2
100
AcDbTrace
 10
451.6529957489001
 20
370.8001833695847
 30
0.0
 11
455.3392656813472
 21
370.8001833695847
 31
0.0
 12
453.4961307151236
 22
356.8001833695847
 32
0.0
 13
453.4961307151236
 23
356.8001833695847
 33
0.0
  0
SOLID
  5
429
330
424
100
AcDbEntity
  8
1
 62
     2
100
AcDbTrace
 10
455.3392656813472
 20
456.1642685396154
 30
0.0
 11
451.6529957489001
 21
456.1642685396154
 31
0.0
 12
453.4961307151236
 22
470.1642685396154
 32
0.0
 13
453.4961307151236
 23
470.1642685396154
 33
0.0
  0
MTEXT
  5
42A
330
424
100
AcDbEntity
  8
1
 62
     7
100
AcDbMText
 10
449.4961307151236
 20
398.2949652001422
 30
0.0
 40
14.0
 41
0.0
 71
     7
 72
     1
  1
\C7;最小\C7;113
  7
CONVERTER_11
 11
0.0
 21
1.0
 31
0.0
 73
     1
 44
0.45454545454545
  0
ENDBLK
  5
42C
330
424
100
AcDbEntity
  8
0
100
AcDbBlockEnd
  0
BLOCK
  5
438
330
42F
100
AcDbEntity
  8
0
100
AcDbBlockBegin
  2
*D35
 70
     1
 10
0.0
 20
0.0
 30
0.0
  3
*D35
  1

  0
LINE
  5
430
330
42F
100
AcDbEntity
  8
1
  6
Continuous
 62
     2
100
AcDbLine
 10
485.4961307151236
 20
382.9383468981306
 30
0.0
 11
485.4961307151236
 21
410.9383468981306
 31
0.0
  0
LINE
  5
431
330
42F
100
AcDbEntity
  8
1
  6
Continuous
 62
     2
100
AcDbLine
 10
485.4961307151236
 20
356.8001833695847
 30
0.0
 11
485.4961307151236
 21
382.9383468981306
 31
0.0
  0
LINE
  5
432
330
42F
100
AcDbEntity
  8
1
  6
Continuous
 62
     2
100
AcDbLine
 10
485.4961307151236
 20
303.742735402727
 30
0.0
 11
485.4961307151236
 21
356.8001833695847
 31
0.0
  0
LINE
  5
433
330
42F
100
AcDbEntity
  8
1
  6
Continuous
 62
     2
100
AcDbLine
 10
496.7543014127523
 20
382.9383468981306
 30
0.0
 11
481.4961307151236
 21
382.9383468981306
 31
0.0
  0
LINE
  5
434
330
42F
100
AcDbEntity
  8
1
  6
Continuous
 62
     2
100
AcDbLine
 10
668.8999999999917
 20
356.8001833695847
 30
0.0
 11
481.4961307151236
 21
356.8001833695847
 31
0.0
  0
SOLID
  5
435
330
42F
100
AcDbEntity
  8
1
 62
     2
100
AcDbTrace
 10
487.3392656813472
 20
342.8001833695847
 30
0.0
 11
483.6529957489001
 21
342.8001833695847
 31
0.0
 12
485.4961307151236
 22
356.8001833695847
 32
0.0
 13
485.4961307151236
 23
356.8001833695847
 33
0.0
  0
SOLID
  5
436
330
42F
100
AcDbEntity
  8
1
 62
     2
100
AcDbTrace
 10
483.6529957489001
 20
396.9383468981306
 30
0.0
 11
487.3392656813472
 21
396.9383468981306
 31
0.0
 12
485.4961307151236
 22
382.9383468981306
 32
0.0
 13
485.4961307151236
 23
382.9383468981306
 33
0.0
  0
MTEXT
  5
437
330
42F
100
AcDbEntity
  8
1
 62
     7
100
AcDbMText
 10
481.4961307151236
 20
303.742735402727
 30
0.0
 40
14.0
 41
0.0
 71
     7
 72
     1
  1
26
  7
CONVERTER_12
 11
0.0
 21
1.0
 31
0.0
 73
     1
 44
0.60024009603842
  0
ENDBLK
  5
439
330
42F
100
AcDbEntity
  8
0
100
AcDbBlockEnd
  0
BLOCK
  5
443
330
43C
100
AcDbEntity
  8
0
100
AcDbBlockBegin
  2
*D36
 70
     1
 10
0.0
 20
0.0
 30
0.0
  3
*D36
  1

  0
LINE
  5
43D
330
43C
100
AcDbEntity
  8
1
  6
Continuous
 62
     2
100
AcDbLine
 10
213.9809834395707
 20
889.3001792618938
 30
0.0
 11
333.9809834395704
 21
889.3001792618938
 31
0.0
  0
LINE
  5
43E
330
43C
100
AcDbEntity
  8
1
  6
Continuous
 62
     2
100
AcDbLine
 10
333.9809834395704
 20
819.8001833695847
 30
0.0
 11
333.9809834395704
 21
893.3001792618938
 31
0.0
  0
LINE
  5
43F
330
43C
100
AcDbEntity
  8
1
  6
Continuous
 62
     2
100
AcDbLine
 10
213.9809834395707
 20
819.8001833695847
 30
0.0
 11
213.9809834395707
 21
893.3001792618938
 31
0.0
  0
SOLID
  5
440
330
43C
100
AcDbEntity
  8
1
 62
     2
100
AcDbTrace
 10
227.9809834395707
 20
891.1433142281173
 30
0.0
 11
227.9809834395707
 21
887.4570442956704
 31
0.0
 12
213.9809834395707
 22
889.3001792618938
 32
0.0
 13
213.9809834395707
 23
889.3001792618938
 33
0.0
  0
SOLID
  5
441
330
43C
100
AcDbEntity
  8
1
 62
     2
100
AcDbTrace
 10
319.9809834395704
 20
887.4570442956704
 30
0.0
 11
319.9809834395704
 21
891.1433142281173
 31
0.0
 12
333.9809834395704
 22
889.3001792618938
 32
0.0
 13
333.9809834395704
 23
889.3001792618938
 33
0.0
  0
MTEXT
  5
442
330
43C
100
AcDbEntity
  8
1
 62
     7
100
AcDbMText
 10
260.586446451871
 20
893.3001792618938
 30
0.0
 40
14.0
 41
0.0
 71
     7
 72
     1
  1
120
  7
CONVERTER_12
 11
0.9999999999970619
 21
2.424068405545306E-6
 31
0.0
 73
     1
 44
0.60024009603842
  0
ENDBLK
  5
444
330
43C
100
AcDbEntity
  8
0
100
AcDbBlockEnd
  0
BLOCK
  5
44E
330
447
100
AcDbEntity
  8
0
100
AcDbBlockBegin
  2
*D37
 70
     1
 10
0.0
 20
0.0
 30
0.0
  3
*D37
  1

  0
LINE
  5
448
330
447
100
AcDbEntity
  8
1
  6
Continuous
 62
     2
100
AcDbLine
 10
369.3363224988977
 20
921.3001792618938
 30
0.0
 11
178.6256443802433
 21
921.3001792618938
 31
0.0
  0
LINE
  5
449
330
447
100
AcDbEntity
  8
1
  6
Continuous
 62
     2
100
AcDbLine
 10
178.6256443802433
 20
852.3001833695848
 30
0.0
 11
178.6256443802433
 21
925.3001792618938
 31
0.0
  0
LINE
  5
44A
330
447
100
AcDbEntity
  8
1
  6
Continuous
 62
     2
100
AcDbLine
 10
369.3363224988977
 20
852.3001833695848
 30
0.0
 11
369.3363224988977
 21
925.3001792618938
 31
0.0
  0
SOLID
  5
44B
330
447
100
AcDbEntity
  8
1
 62
     2
100
AcDbTrace
 10
355.3363224988977
 20
919.4570442956704
 30
0.0
 11
355.3363224988977
 21
923.1433142281173
 31
0.0
 12
369.3363224988977
 22
921.3001792618938
 32
0.0
 13
369.3363224988977
 23
921.3001792618938
 33
0.0
  0
SOLID
  5
44C
330
447
100
AcDbEntity
  8
1
 62
     2
100
AcDbTrace
 10
192.6256443802433
 20
923.1433142281173
 30
0.0
 11
192.6256443802433
 21
919.4570442956704
 31
0.0
 12
178.6256443802433
 22
921.3001792618938
 32
0.0
 13
178.6256443802433
 23
921.3001792618938
 33
0.0
  0
MTEXT
  5
44D
330
447
100
AcDbEntity
  8
1
 62
     7
100
AcDbMText
 10
201.554056714816
 20
925.3001792618938
 30
0.0
 40
14.0
 41
0.0
 71
     7
 72
     1
  1
取付寸法120～220
  7
CONVERTER_11
 11
0.9999999999970619
 21
2.424068405545306E-6
 31
0.0
 73
     1
 44
0.45454545454545
  0
ENDBLK
  5
44F
330
447
100
AcDbEntity
  8
0
100
AcDbBlockEnd
  0
BLOCK
  5
459
330
452
100
AcDbEntity
  8
0
100
AcDbBlockBegin
  2
*D38
 70
     1
 10
0.0
 20
0.0
 30
0.0
  3
*D38
  1

  0
LINE
  5
453
330
452
100
AcDbEntity
  8
1
  6
Continuous
 62
     2
100
AcDbLine
 10
204.0379832219769
 20
502.7963140847082
 30
0.0
 11
273.9809834395705
 21
502.7963140847082
 31
0.0
  0
LINE
  5
454
330
452
100
AcDbEntity
  8
1
  6
Continuous
 62
     2
100
AcDbLine
 10
204.0379832219769
 20
707.1206860408755
 30
0.0
 11
204.0379832219769
 21
498.7963140847082
 31
0.0
  0
LINE
  5
455
330
452
100
AcDbEntity
  8
1
  6
Continuous
 62
     2
100
AcDbLine
 10
273.9809834395705
 20
530.796314084711
 30
0.0
 11
273.9809834395705
 21
498.7963140847082
 31
0.0
  0
SOLID
  5
456
330
452
100
AcDbEntity
  8
1
 62
     2
100
AcDbTrace
 10
218.0379832219769
 20
504.6394490509318
 30
0.0
 11
218.0379832219769
 21
500.9531791184847
 31
0.0
 12
204.0379832219769
 22
502.7963140847082
 32
0.0
 13
204.0379832219769
 23
502.7963140847082
 33
0.0
  0
SOLID
  5
457
330
452
100
AcDbEntity
  8
1
 62
     2
100
AcDbTrace
 10
259.9809834395705
 20
500.9531791184847
 30
0.0
 11
259.9809834395705
 21
504.6394490509318
 31
0.0
 12
273.9809834395705
 22
502.7963140847082
 32
0.0
 13
273.9809834395705
 23
502.7963140847082
 33
0.0
  0
MTEXT
  5
458
330
452
100
AcDbEntity
  8
1
 62
     7
100
AcDbMText
 10
229.420728144147
 20
506.7963140847082
 30
0.0
 40
14.0
 41
0.0
 71
     7
 72
     1
  1
70
  7
CONVERTER_12
 11
0.9999999999970619
 21
2.424068405545306E-6
 31
0.0
 73
     1
 44
0.60024009603842
  0
ENDBLK
  5
45A
330
452
100
AcDbEntity
  8
0
100
AcDbBlockEnd
  0
BLOCK
  5
464
330
45D
100
AcDbEntity
  8
0
100
AcDbBlockBegin
  2
*D39
 70
     1
 10
0.0
 20
0.0
 30
0.0
  3
*D39
  1

  0
LINE
  5
45E
330
45D
100
AcDbEntity
  8
1
  6
Continuous
 62
     2
100
AcDbLine
 10
273.9809834395705
 20
502.7963140847133
 30
0.0
 11
343.6954797462726
 21
502.7963140847133
 31
0.0
  0
LINE
  5
45F
330
45D
100
AcDbEntity
  8
1
  6
Continuous
 62
     2
100
AcDbLine
 10
273.9809834395705
 20
530.796314084711
 30
0.0
 11
273.9809834395705
 21
498.7963140847133
 31
0.0
  0
LINE
  5
460
330
45D
100
AcDbEntity
  8
1
  6
Continuous
 62
     2
100
AcDbLine
 10
343.6954797462726
 20
707.1206860408754
 30
0.0
 11
343.6954797462726
 21
498.7963140847133
 31
0.0
  0
SOLID
  5
461
330
45D
100
AcDbEntity
  8
1
 62
     2
100
AcDbTrace
 10
287.9809834395705
 20
504.6394490509369
 30
0.0
 11
287.9809834395705
 21
500.9531791184898
 31
0.0
 12
273.9809834395705
 22
502.7963140847133
 32
0.0
 13
273.9809834395705
 23
502.7963140847133
 33
0.0
  0
SOLID
  5
462
330
45D
100
AcDbEntity
  8
1
 62
     2
100
AcDbTrace
 10
329.6954797462726
 20
500.9531791184898
 30
0.0
 11
329.6954797462726
 21
504.6394490509369
 31
0.0
 12
343.6954797462726
 22
502.7963140847133
 32
0.0
 13
343.6954797462726
 23
502.7963140847133
 33
0.0
  0
MTEXT
  5
463
330
45D
100
AcDbEntity
  8
1
 62
     7
100
AcDbMText
 10
302.2252209774849
 20
506.7963140847133
 30
0.0
 40
14.0
 41
0.0
 71
     7
 72
     1
  1
70
  7
CONVERTER_12
 11
0.9999999999970619
 21
2.424068405545306E-6
 31
0.0
 73
     1
 44
0.60024009603842
  0
ENDBLK
  5
465
330
45D
100
AcDbEntity
  8
0
100
AcDbBlockEnd
  0
BLOCK
  5
46F
330
468
100
AcDbEntity
  8
0
100
AcDbBlockBegin
  2
*D40
 70
     1
 10
0.0
 20
0.0
 30
0.0
  3
*D40
  1

  0
LINE
  5
469
330
468
100
AcDbEntity
  8
1
  6
Continuous
 62
     2
100
AcDbLine
 10
149.7292556776471
 20
350.3412330128541
 30
0.0
 11
185.0845947369745
 21
385.6965720721815
 31
0.0
  0
LINE
  5
46A
330
468
100
AcDbEntity
  8
1
  6
Continuous
 62
     2
100
AcDbLine
 10
178.6256443802433
 20
321.4448443102578
 30
0.0
 11
146.9008285529009
 21
353.1696601376003
 31
0.0
  0
LINE
  5
46B
330
468
100
AcDbEntity
  8
1
  6
Continuous
 62
     2
100
AcDbLine
 10
213.9809834395707
 20
356.8001833695852
 30
0.0
 11
182.2561676122283
 21
388.5249991969277
 31
0.0
  0
SOLID
  5
46C
330
468
100
AcDbEntity
  8
1
 62
     2
100
AcDbTrace
 10
158.3254573810001
 20
361.5440211827245
 30
0.0
 11
160.9320438475175
 21
358.9374347162071
 31
0.0
 12
149.7292556776471
 22
350.3412330128541
 32
0.0
 13
149.7292556776471
 23
350.3412330128541
 33
0.0
  0
SOLID
  5
46D
330
468
100
AcDbEntity
  8
1
 62
     2
100
AcDbTrace
 10
176.4883930336216
 20
374.4937839023111
 30
0.0
 11
173.8818065671042
 21
377.1003703688285
 31
0.0
 12
185.0845947369745
 22
385.6965720721815
 32
0.0
 13
185.0845947369745
 23
385.6965720721815
 33
0.0
  0
MTEXT
  5
46E
330
468
100
AcDbEntity
  8
1
 62
     7
100
AcDbMText
 10
158.9826083014811
 20
365.2514398861804
 30
0.0
 40
14.0
 41
0.0
 71
     7
 72
     1
  1
50
  7
CONVERTER_12
 11
0.7071067811865478
 21
0.7071067811865472
 31
0.0
 73
     1
 44
0.60024009603842
  0
ENDBLK
  5
470
330
468
100
AcDbEntity
  8
0
100
AcDbBlockEnd
  0
BLOCK
  5
47A
330
473
100
AcDbEntity
  8
0
100
AcDbBlockBegin
  2
*D41
 70
     1
 10
0.0
 20
0.0
 30
0.0
  3
*D41
  1

  0
LINE
  5
474
330
473
100
AcDbEntity
  8
1
  6
Continuous
 62
     2
100
AcDbLine
 10
194.6114597763464
 20
677.0306555984752
 30
0.0
 11
191.7830326516002
 21
674.202228473729
 31
0.0
  0
LINE
  5
475
330
473
100
AcDbEntity
  8
1
  6
Continuous
 62
     2
100
AcDbLine
 10
203.9774121024469
 20
686.3966079245756
 30
0.0
 11
194.6114597763464
 21
677.0306555984752
 31
0.0
  0
ARC
  5
476
330
473
100
AcDbEntity
  8
1
  6
Continuous
 62
     2
100
AcDbCircle
 10
273.9809834395705
 20
756.4001792616991
 30
0.0
 40
112.2454568036237
100
AcDbArc
 50
225.0
 51
270.0
  0
SOLID
  5
477
330
473
100
AcDbEntity
  8
1
 62
     2
100
AcDbTrace
 10
206.3282104561342
 20
669.1493549436716
 30
0.0
 11
203.8891411485013
 21
666.3853855286045
 31
0.0
 12
194.6114597763464
 22
677.0306555984752
 32
0.0
 13
194.6114597763464
 23
677.0306555984752
 33
0.0
  0
SOLID
  5
478
330
473
100
AcDbEntity
  8
1
 62
     2
100
AcDbTrace
 10
259.8933293736638
 20
643.1876912160465
 30
0.0
 11
260.1230684428388
 21
646.8667951796438
 31
0.0
 12
273.9809834395705
 22
644.1547224580754
 32
0.0
 13
273.9809834395705
 23
644.1547224580754
 33
0.0
  0
MTEXT
  5
479
330
473
100
AcDbEntity
  8
1
 62
     7
100
AcDbMText
 10
223.5534718107276
 20
659.3882985998539
 30
0.0
 40
14.0
 41
0.0
 71
     7
 72
     1
  1
45{\Fgdt;~}
  7
CONVERTER_12
 11
0.9434041843628519
 21
-0.3316452094131049
 31
0.0
 73
     1
 44
0.60024009603842
  0
ENDBLK
  5
47B
330
473
100
AcDbEntity
  8
0
100
AcDbBlockEnd
  0
BLOCK
  5
485
330
47E
100
AcDbEntity
  8
0
100
AcDbBlockBegin
  2
*D42
 70
     1
 10
0.0
 20
0.0
 30
0.0
  3
*D42
  1

  0
LINE
  5
47F
330
47E
100
AcDbEntity
  8
1
  6
Continuous
 62
     2
100
AcDbLine
 10
353.7596379431145
 20
676.6215247583573
 30
0.0
 11
356.5880650678607
 21
673.7930976336112
 31
0.0
  0
LINE
  5
480
330
47E
100
AcDbEntity
  8
1
  6
Continuous
 62
     2
100
AcDbLine
 10
343.9845547770377
 20
686.3966079244341
 30
0.0
 11
353.7596379431145
 21
676.6215247583573
 31
0.0
  0
ARC
  5
481
330
47E
100
AcDbEntity
  8
1
  6
Continuous
 62
     2
100
AcDbCircle
 10
273.9809834395704
 20
756.4001792619014
 30
0.0
 40
112.8240551867893
100
AcDbArc
 50
270.0
 51
315.0
  0
SOLID
  5
482
330
47E
100
AcDbEntity
  8
1
 62
     2
100
AcDbTrace
 10
287.8397651009823
 20
646.283764628256
 30
0.0
 11
288.068327509675
 21
642.6045873778105
 31
0.0
 12
273.9809834395704
 22
643.576124075112
 32
0.0
 13
273.9809834395704
 23
643.576124075112
 33
0.0
  0
SOLID
  5
483
330
47E
100
AcDbEntity
  8
1
 62
     2
100
AcDbTrace
 10
344.4853616090688
 20
665.9732880506447
 30
0.0
 11
342.0454084552025
 21
668.736477262733
 31
0.0
 12
353.7596379431145
 22
676.6215247583573
 32
0.0
 13
353.7596379431145
 23
676.6215247583573
 33
0.0
  0
MTEXT
  5
484
330
47E
100
AcDbEntity
  8
1
 62
     7
100
AcDbMText
 10
305.7383815344369
 20
651.1799214521927
 30
0.0
 40
14.0
 41
0.0
 71
     7
 72
     1
  1
45{\Fgdt;~}
  7
CONVERTER_12
 11
0.9074156413160902
 21
0.4202342845305569
 31
0.0
 73
     1
 44
0.60024009603842
  0
ENDBLK
  5
486
330
47E
100
AcDbEntity
  8
0
100
AcDbBlockEnd
  0
ENDSEC
  0
SECTION
  2
ENTITIES
  0
INSERT
  5
AE
330
1F
100
AcDbEntity
  8
1
100
AcDbBlockReference
  2
27-16-M1
 10
1088.48098343957
 20
868.8500000001989
 30
0.0
  0
INSERT
  5
AF
330
1F
100
AcDbEntity
  8
1
100
AcDbBlockReference
  2
84-208
 10
859.392248465429
 20
163.7307010766966
 30
0.0
  0
INSERT
  5
B0
330
1F
100
AcDbEntity
  8
1
100
AcDbBlockReference
  2
37-305-M11
 10
1121.84069620177
 20
436.450285395767
 30
0.0
  0
INSERT
  5
B1
330
1F
100
AcDbEntity
  8
1
100
AcDbBlockReference
  2
30-161C-M1
 10
1914.0
 20
743.9999999999999
 30
0.0
  0
INSERT
  5
B2
330
1F
100
AcDbEntity
  8
1
100
AcDbBlockReference
  2
K2710-0B
 10
1501.129084638862
 20
1746.061234659811
 30
0.0
  0
INSERT
  5
B3
330
1F
100
AcDbEntity
  8
0
100
AcDbBlockReference
  2
82-20-M21
 10
743.32081403103
 20
1078.922963702339
 30
0.0
  0
INSERT
  5
B4
330
1F
100
AcDbEntity
  8
1
100
AcDbBlockReference
  2
61-129B-M1
 10
60.0
 20
1461.0
 30
0.0
  0
INSERT
  5
B5
330
1F
100
AcDbEntity
  8
1
100
AcDbBlockReference
  2
開示A4
 10
10.0
 20
0.0
 30
0.0
 41
4.0
 42
4.0
 43
4.0
  0
INSERT
  5
B6
330
1F
100
AcDbEntity
  8
1
100
AcDbBlockReference
  2
U3-48F-50__9
 10
930.2035966118116
 20
2696.202842304046
 30
0.0
  0
INSERT
  5
B7
330
1F
100
AcDbEntity
  8
1
100
AcDbBlockReference
  2
U3-48F-50__18
 10
1119.539262016475
 20
2696.202842304046
 30
0.0
  0
INSERT
  5
B8
330
1F
100
AcDbEntity
  8
1
100
AcDbBlockReference
  2
35-248
 10
861.4809834395658
 20
721.6000000001989
 30
0.0
  0
INSERT
  5
B9
330
1F
100
AcDbEntity
  8
0
100
AcDbBlockReference
  2
31-17
 10
1482.889090247308
 20
501.009915266913
 30
0.0
  0
LINE
  5
3B0
330
1F
100
AcDbEntity
  8
1
  6
DASH_CENTER
 62
     2
100
AcDbLine
 10
715.9999999999983
 20
346.5501833695847
 30
0.0
 11
715.9999999999983
 21
327.5501833695848
 31
0.0
  0
LINE
  5
3B1
330
1F
100
AcDbEntity
  8
1
  6
DASH_CENTER
 62
     2
100
AcDbLine
 10
273.9809834395705
 20
481.924219613401
 30
0.0
 11
273.9809834395705
 21
320.3001833695849
 31
0.0
  0
LINE
  5
3B2
330
1F
100
AcDbEntity
  8
1
  6
DASH_CENTER
 62
     2
100
AcDbLine
 10
808.3999999999926
 20
321.4448443102579
 30
0.0
 11
727.8999999999915
 21
321.4448443102579
 31
0.0
  0
LINE
  5
3B3
330
1F
100
AcDbEntity
  8
1
  6
DASH_CENTER
 62
     2
100
AcDbLine
 10
298.4809834395734
 20
556.800183369585
 30
0.0
 11
249.4809834395734
 21
556.8001833695846
 31
0.0
  0
LINE
  5
3B4
330
1F
100
AcDbEntity
  8
1
  6
DASH_CENTER
 62
     2
100
AcDbLine
 10
779.5
 20
356.8001833695853
 30
0.0
 11
668.8999999999917
 21
356.8001833695847
 31
0.0
  0
LINE
  5
3B5
330
1F
100
AcDbEntity
  8
1
  6
DASH_CENTER
 62
     2
100
AcDbLine
 10
507.4999999999982
 20
373.9383468981307
 30
0.0
 11
507.4999999999982
 21
422.9383468981304
 31
0.0
  0
LINE
  5
3B6
330
1F
100
AcDbEntity
  8
1
  6
DASH_CENTER
 62
     2
100
AcDbLine
 10
707.4999999999982
 20
332.8001833695848
 30
0.0
 11
707.4999999999982
 21
472.128432059384
 31
0.0
  0
LINE
  5
3B7
330
1F
100
AcDbEntity
  8
1
  6
DASH_CENTER
 62
     2
100
AcDbLine
 10
313.4809834395704
 20
809.5501833695848
 30
0.0
 11
389.8363224988977
 21
809.5501833695848
 31
0.0
  0
LINE
  5
3B8
330
1F
100
AcDbEntity
  8
1
  6
DASH_CENTER
 62
     2
100
AcDbLine
 10
158.1256443802433
 20
809.5501833695848
 30
0.0
 11
234.4809834395707
 21
809.5501833695848
 31
0.0
  0
LINE
  5
3B9
330
1F
100
AcDbEntity
  8
1
  6
DASH_CENTER
 62
     2
100
AcDbLine
 10
189.9809834395757
 20
356.8001833695852
 30
0.0
 11
357.9809834395716
 21
356.8001833695852
 31
0.0
  0
LINE
  5
3BA
330
1F
100
AcDbEntity
  8
1
  6
DASH_CENTER
 62
     2
100
AcDbLine
 10
393.3779530592404
 20
297.4032137499153
 30
0.0
 11
327.6170224088915
 21
363.1641444002642
 31
0.0
  0
LINE
  5
3BB
330
1F
100
AcDbEntity
  8
1
  6
DASH_CENTER
 62
     2
100
AcDbLine
 10
154.5840138199008
 20
297.4032137499153
 30
0.0
 11
213.9809834395707
 21
356.8001833695852
 31
0.0
  0
LINE
  5
3BC
330
1F
100
AcDbEntity
  8
1
  6
DASH_CENTER
 62
     2
100
AcDbLine
 10
687.9302868463059
 20
374.6475311484725
 30
0.0
 11
556.763782095038
 21
403.4286733652402
 31
0.0
  0
LINE
  5
3BD
330
1F
100
AcDbEntity
  8
1
  6
DASH_CENTER
 62
     2
100
AcDbLine
 10
490.49806535756
 20
405.9383468981304
 30
0.0
 11
533.616621969818
 21
405.9383468981304
 31
0.0
  0
LINE
  5
3BE
330
1F
100
AcDbEntity
  8
1
  6
DASH_CENTER
 62
     2
100
AcDbLine
 10
369.3363224988977
 20
852.3001833695848
 30
0.0
 11
369.3363224988977
 21
776.8001792618941
 31
0.0
  0
LINE
  5
3BF
330
1F
100
AcDbEntity
  8
1
  6
DASH_CENTER
 62
     2
100
AcDbLine
 10
213.9809834395707
 20
819.8001833695847
 30
0.0
 11
213.9809834395707
 21
785.6807445056804
 31
0.0
  0
LINE
  5
3C0
330
1F
100
AcDbEntity
  8
1
  6
DASH_CENTER
 62
     2
100
AcDbLine
 10
178.6256443802433
 20
776.8001792618941
 30
0.0
 11
178.6256443802433
 21
852.3001833695848
 31
0.0
  0
LINE
  5
3C1
330
1F
100
AcDbEntity
  8
1
  6
DASH_CENTER
 62
     2
100
AcDbLine
 10
158.82665450702
 20
341.2438341834812
 30
0.0
 11
178.6256443802433
 21
321.4448443102579
 31
0.0
  0
LINE
  5
3C2
330
1F
100
AcDbEntity
  8
1
  6
DASH_CENTER
 62
     2
100
AcDbLine
 10
213.9809834395707
 20
376.5501833695853
 30
0.0
 11
213.9809834395707
 21
337.0501833695852
 31
0.0
  0
LINE
  5
3C3
330
1F
100
AcDbEntity
  8
1
  6
DASH_CENTER
 62
     2
100
AcDbLine
 10
349.5373326256746
 20
301.6458544370346
 30
0.0
 11
389.1353123721211
 21
341.2438341834812
 31
0.0
  0
LINE
  5
3C4
330
1F
100
AcDbEntity
  8
1
  6
DASH_CENTER
 62
     2
100
AcDbLine
 10
333.9809834395704
 20
337.0501833695852
 30
0.0
 11
333.9809834395704
 21
376.5501833695853
 31
0.0
  0
LINE
  5
3C5
330
1F
100
AcDbEntity
  8
1
  6
Continuous
 62
     2
100
AcDbLine
 10
627.7754867608187
 20
511.5496141318542
 30
0.0
 11
667.7754867608187
 21
511.5496141318542
 31
0.0
  0
LINE
  5
3C6
330
1F
100
AcDbEntity
  8
1
  6
DASH_CENTER
 62
     2
100
AcDbLine
 10
196.5254323166829
 20
756.4001792619001
 30
0.0
 11
351.4365345624569
 21
756.400179261901
 31
0.0
  0
LINE
  5
3C7
330
1F
100
AcDbEntity
  8
1
  6
DASH_CENTER
 62
     2
100
AcDbLine
 10
213.9809834395704
 20
786.1807445056783
 30
0.0
 11
213.9809834395704
 21
740.0388462088856
 31
0.0
  0
LINE
  5
3C8
330
1F
100
AcDbEntity
  8
1
  6
DASH_CENTER
 62
     2
100
AcDbLine
 10
333.9809834395704
 20
819.8001833695847
 30
0.0
 11
333.9809834395704
 21
739.5741673992702
 31
0.0
  0
LINE
  5
3C9
330
1F
100
AcDbEntity
  8
1
  6
Continuous
 62
     2
100
AcDbLine
 10
149.2757806172592
 20
643.6000000001995
 30
0.0
 11
190.7757806172592
 21
643.6000000001995
 31
0.0
  0
LINE
  5
3CA
330
1F
100
AcDbEntity
  8
1
  6
Continuous
 62
     2
100
AcDbLine
 10
358.7757806172592
 20
643.6000000001993
 30
0.0
 11
400.2757806172592
 21
643.6000000001993
 31
0.0
  0
LINE
  5
3CB
330
1F
100
AcDbEntity
  8
1
  6
Continuous
 62
     2
100
AcDbLine
 10
584.5209225311223
 20
430.100000000202
 30
0.0
 11
625.5209225311223
 21
430.100000000202
 31
0.0
  0
LINE
  5
3CC
330
1F
100
AcDbEntity
  8
1
  6
DASH_CENTER
 62
     2
100
AcDbLine
 10
273.9809834395705
 20
792.800183369585
 30
0.0
 11
273.9809834395705
 21
530.796314084711
 31
0.0
  0
LINE
  5
3CD
330
1F
100
AcDbEntity
  8
1
  6
DASH_CENTER
 62
     2
100
AcDbLine
 10
248.5251393168539
 20
781.856023384618
 30
0.0
 11
343.9845547770378
 21
686.3966079244341
 31
0.0
  0
LINE
  5
3CE
330
1F
100
AcDbEntity
  8
1
  6
DASH_CENTER
 62
     2
100
AcDbLine
 10
299.4368275626308
 20
781.8560233847595
 30
0.0
 11
203.9774121024469
 21
686.3966079245756
 31
0.0
  0
LINE
  5
3CF
330
1F
100
AcDbEntity
  8
1
  6
DASH_CENTER
 62
     2
100
AcDbLine
 10
178.6256443802433
 20
321.4448443102579
 30
0.0
 11
198.4246342534665
 21
301.6458544370346
 31
0.0
  0
LINE
  5
3D0
330
1F
100
AcDbEntity
  8
1
  6
DASH_CENTER
 62
     2
100
AcDbLine
 10
213.9809834395707
 20
356.8001833695852
 30
0.0
 11
220.3449444702496
 21
363.1641444002642
 31
0.0
  0
ARC
  5
3D1
330
1F
100
AcDbEntity
  8
1
  6
Continuous
 62
     2
100
AcDbCircle
 10
299.743807449735
 20
808.0949961710552
 30
0.0
 40
194.4222366294432
100
AcDbArc
 50
286.7679721465574
 51
295.8173698183219
  0
ARC
  5
3D2
330
1F
100
AcDbEntity
  8
1
  6
Continuous
 62
     2
100
AcDbCircle
 10
766.5837868215287
 20
431.2718102888837
 30
0.0
 40
177.8024163897052
100
AcDbArc
 50
151.1802470799836
 51
171.1802470799836
  0
ARC
  5
3D3
330
1F
100
AcDbEntity
  8
1
  6
Continuous
 62
     2
100
AcDbCircle
 10
248.0971797513997
 20
808.1163281524045
 30
0.0
 40
194.4222366294426
100
AcDbArc
 50
244.1826301816778
 51
253.2320278534424
  0
ARC
  5
3D4
330
1F
100
AcDbEntity
  8
1
  6
DASH_CENTER
 62
     2
100
AcDbCircle
 10
533.616621969818
 20
297.9383468981304
 30
0.0
 40
107.9999999999999
100
AcDbArc
 50
77.62403778207215
 51
90.0
  0
SOLID
  5
3D5
330
1F
100
AcDbEntity
  8
1
 62
     2
100
AcDbTrace
 10
385.2176197555536
 20
855.3461065056787
 30
0.0
 11
388.4100231622596
 21
853.5029715394551
 31
0.0
 12
379.8138214589065
 22
842.3001833695848
 32
0.0
 13
379.8138214589065
 23
842.3001833695848
 33
0.0
  0
LEADER
  5
3D6
330
1F
100
AcDbEntity
  8
1
  6
Continuous
 62
     2
100
AcDbLeader
  3
Standard
 71
     0
 76
     3
 10
379.8138214589065
 20
842.3001833695848
 30
0.0
 10
400.5984311497331
 20
878.3001833695848
 30
0.0
 10
458.1619989600088
 20
878.3001833695848
 30
0.0
  0
SOLID
  5
3D7
330
1F
100
AcDbEntity
  8
1
 62
     2
100
AcDbTrace
 10
372.4814739018095
 20
625.7464546598907
 30
0.0
 11
370.9889997654614
 21
629.1170787812064
 31
0.0
 12
384.5364528496027
 22
633.1000000001995
 32
0.0
 13
384.5364528496027
 23
633.1000000001995
 33
0.0
  0
LEADER
  5
3D8
330
1F
100
AcDbEntity
  8
1
  6
Continuous
 62
     2
100
AcDbLeader
  3
Standard
 71
     0
 76
     2
 10
384.5364528496027
 20
633.1000000001995
 30
0.0
 10
376.7931938865014
 20
629.6713727437839
 30
0.0
  0
SOLID
  5
3D9
330
1F
100
AcDbEntity
  8
1
 62
     2
100
AcDbTrace
 10
176.9729671136795
 20
629.1170787812063
 30
0.0
 11
175.4804929773314
 21
625.7464546598906
 31
0.0
 12
163.4255140295382
 22
633.1000000001995
 32
0.0
 13
163.4255140295382
 23
633.1000000001995
 33
0.0
  0
LEADER
  5
3DA
330
1F
100
AcDbEntity
  8
1
  6
Continuous
 62
     2
100
AcDbLeader
  3
Standard
 71
     0
 76
     2
 10
163.4255140295382
 20
633.1000000001995
 30
0.0
 10
171.1687729926396
 20
629.6713727437839
 30
0.0
  0
SOLID
  5
3DB
330
1F
100
AcDbEntity
  8
1
 62
     2
100
AcDbTrace
 10
604.2363320240426
 20
497.9089400452204
 30
0.0
 11
599.5235182687754
 21
500.2586623057788
 31
0.0
 12
610.8038814086083
 22
516.9824884075385
 32
0.0
 13
610.8038814086083
 23
516.9824884075385
 33
0.0
  0
LEADER
  5
3DC
330
1F
100
AcDbEntity
  8
1
  6
Continuous
 62
     2
100
AcDbLeader
  3
Standard
 71
     0
 76
     2
 10
610.8038814086083
 20
516.9824884075385
 30
0.0
 10
610.0251291975283
 20
515.4205531124919
 30
0.0
  0
SOLID
  5
3DD
330
1F
100
AcDbEntity
  8
1
 62
     2
100
AcDbTrace
 10
592.6419369479206
 20
478.6294529203885
 30
0.0
 11
597.7832092567983
 21
477.4896602903166
 31
0.0
 12
590.883780823598
 22
458.5336364629537
 32
0.0
 13
590.883780823598
 23
458.5336364629537
 33
0.0
  0
LEADER
  5
3DE
330
1F
100
AcDbEntity
  8
1
  6
Continuous
 62
     2
100
AcDbLeader
  3
Standard
 71
     0
 76
     2
 10
590.883780823598
 20
458.5336364629537
 30
0.0
 10
591.2615344184551
 20
460.2375728155643
 30
0.0
  0
MTEXT
  5
3DF
330
1F
100
AcDbEntity
  8
1
 62
     7
100
AcDbMText
 10
146.0
 20
122.0
 30
0.0
 40
14.0
 41
0.0
 71
     4
 72
     1
  1
吐水口は回転式(175{\Fgdt;~})
  7
CONVERTER_11
 73
     1
 44
0.54545454545455
  0
MTEXT
  5
3E1
330
1F
100
AcDbEntity
  8
1
 62
     7
100
AcDbMText
 10
146.0
 20
150.0
 30
0.0
 40
14.0
 41
0.0
 71
     4
 72
     1
  1
JIS
  7
CONVERTER_12
 73
     1
 44
0.7202881152461
  0
MTEXT
  5
3E2
330
1F
100
AcDbEntity
  8
1
 62
     7
100
AcDbMText
 10
238.0
 20
57.0
 30
0.0
 40
14.0
 41
0.0
 71
     5
 72
     1
  1
K2710K-13
  7
CONVERTER_12
 73
     1
 44
0.7202881152461
  0
MTEXT
  5
3E3
330
1F
100
AcDbEntity
  8
1
 62
     7
100
AcDbMText
 10
238.0
 20
91.00000000000004
 30
0.0
 40
14.0
 41
0.0
 71
     5
 72
     1
  1
シングル混合栓
  7
CONVERTER_11
 73
     1
 44
0.54545454545455
  0
MTEXT
  5
3E4
330
1F
100
AcDbEntity
  8
1
 62
     7
100
AcDbMText
 10
169.2757806172592
 20
657.6000000001995
 30
0.0
 40
20.0
 41
0.0
 71
     5
 72
     1
  1
湯側
  7
CONVERTER_11
 73
     1
 44
0.54545454545455
  0
MTEXT
  5
3E5
330
1F
100
AcDbEntity
  8
1
 62
     7
100
AcDbMText
 10
378.7757806172592
 20
657.6000000001995
 30
0.0
 40
20.0
 41
0.0
 71
     5
 72
     1
  1
水側
  7
CONVERTER_11
 73
     1
 44
0.54545454545455
  0
MTEXT
  5
3E6
330
1F
100
AcDbEntity
  8
1
 62
     7
100
AcDbMText
 10
647.7754867608187
 20
525.5496141318542
 30
0.0
 40
20.0
 41
0.0
 71
     5
 72
     1
  1
吐水
  7
CONVERTER_11
 73
     1
 44
0.54545454545455
  0
MTEXT
  5
3E7
330
1F
100
AcDbEntity
  8
1
 62
     7
100
AcDbMText
 10
604.5209225311223
 20
444.100000000202
 30
0.0
 40
20.0
 41
0.0
 71
     5
 72
     1
  1
止水
  7
CONVERTER_11
 73
     1
 44
0.54545454545455
  0
MTEXT
  5
3E8
330
1F
100
AcDbEntity
  8
1
 62
     7
100
AcDbMText
 10
431.1619989600088
 20
890.3001833695848
 30
0.0
 40
14.0
 41
0.0
 71
     5
 72
     1
  1
PJ1/2
  7
CONVERTER_12
 73
     1
 44
0.7202881152461
  0
MTEXT
  5
3E9
330
1F
100
AcDbEntity
  8
1
 62
     7
100
AcDbMText
 10
351.0
 20
68.0
 30
0.0
 40
14.0
 41
0.0
 71
     5
 72
     1
  1
1
  7
CONVERTER_12
 73
     1
 44
0.7202881152461
  0
MTEXT
  5
3EA
330
1F
100
AcDbEntity
  8
1
 62
     7
100
AcDbMText
 10
385.0
 20
68.0
 30
0.0
 40
14.0
 41
0.0
 71
     5
 72
     1
  1
4
  7
CONVERTER_12
 73
     1
 44
0.7202881152461
  0
MTEXT
  5
3EB
330
1F
100
AcDbEntity
  8
1
 62
     7
100
AcDbMText
 10
577.8491280879343
 20
489.1782558093402
 30
0.0
 40
14.0
 41
0.0
 71
     5
 72
     1
  1
25{\Fgdt;~}
  7
CONVERTER_12
 73
     1
 44
0.7202881152461
  0
DIMENSION
  5
3F6
330
1F
100
AcDbEntity
  8
1
100
AcDbDimension
  2
*D29
 10
707.4999999999982
 20
256.4448443102586
 30
0.0
 11
748.655526167789
 21
267.4448443102586
 31
0.0
 70
    32
  1
79
 71
     5
 42
-1.0
 53
0.00013888888889
  3
ME10_DIM_10
100
AcDbAlignedDimension
 13
786.3999999999917
 23
296.4448443102586
 33
0.0
 14
707.4999999999982
 24
332.8001833695848
 34
0.0
100
AcDbRotatedDimension
  0
DIMENSION
  5
402
330
1F
100
AcDbEntity
  8
1
100
AcDbDimension
  2
*D30
 10
203.6256443802431
 20
889.3001792618938
 30
0.0
 11
131.976298627075
 21
900.3001792618938
 31
0.0
 70
    32
  1
<>
 71
     5
 42
-1.0
 53
0.00013888888889
  3
ME10_DIM_11
100
AcDbAlignedDimension
 13
153.6256443802431
 23
835.3001792618938
 33
0.0
 14
203.6256443802431
 24
835.3001792618938
 34
0.0
100
AcDbRotatedDimension
  0
DIMENSION
  5
40D
330
1F
100
AcDbEntity
  8
1
100
AcDbDimension
  2
*D31
 10
507.4999999999982
 20
256.4401833695851
 30
0.0
 11
609.449960952046
 21
267.4401833695851
 31
0.0
 70
    32
  1
<>
 71
     5
 42
-1.0
 53
0.00013888888889
  3
ME10_DIM_12
100
AcDbAlignedDimension
 13
707.4999999999982
 23
332.8001833695848
 33
0.0
 14
507.4999999999982
 24
373.9383468981307
 34
0.0
100
AcDbRotatedDimension
  0
DIMENSION
  5
418
330
1F
100
AcDbEntity
  8
1
100
AcDbDimension
  2
*D32
 10
707.4999999999982
 20
541.5714695481076
 30
0.0
 11
663.241172233592
 21
552.5714695481076
 31
0.0
 70
    32
  1
<>
 71
     5
 42
-1.0
 53
0.00013888888889
  3
ME10_DIM_13
100
AcDbAlignedDimension
 13
617.4999999999978
 23
464.1966372257006
 33
0.0
 14
707.4999999999982
 24
472.128432059384
 34
0.0
100
AcDbRotatedDimension
  0
DIMENSION
  5
423
330
1F
100
AcDbEntity
  8
1
100
AcDbDimension
  2
*D33
 10
421.4961307151236
 20
356.8001833695848
 30
0.0
 11
410.4961307151236
 21
435.5861188540922
 31
0.0
 70
    32
  1
最大145
 71
     5
 42
-1.0
 53
90.0
  3
ME10_DIM_14
100
AcDbAlignedDimension
 13
649.1161513831918
 23
502.1754112398171
 33
0.0
 14
668.8999999999917
 24
356.8001833695847
 34
0.0
 50
90.0
100
AcDbRotatedDimension
  0
DIMENSION
  5
42E
330
1F
100
AcDbEntity
  8
1
100
AcDbDimension
  2
*D34
 10
453.4961307151236
 20
356.8001833695847
 30
0.0
 11
442.4961307151236
 21
417.3174652001422
 31
0.0
 70
    32
  1
最小113
 71
     5
 42
-1.0
 53
90.0
  3
ME10_DIM_15
100
AcDbAlignedDimension
 13
621.6518463976591
 23
470.1642685396154
 33
0.0
 14
668.8999999999917
 24
356.8001833695847
 34
0.0
 50
90.0
100
AcDbRotatedDimension
  0
DIMENSION
  5
43B
330
1F
100
AcDbEntity
  8
1
100
AcDbDimension
  2
*D35
 10
485.4961307151236
 20
356.8001833695847
 30
0.0
 11
474.4961307151236
 21
314.242735402727
 31
0.0
 70
    32
  1
26
 71
     5
 42
-1.0
 53
90.0
  3
ME10_DIM_16
100
AcDbAlignedDimension
 13
496.7543014127523
 23
382.9383468981307
 33
0.0
 14
668.8999999999917
 24
356.8001833695847
 34
0.0
 50
90.0
100
AcDbRotatedDimension
  0
DIMENSION
  5
446
330
1F
100
AcDbEntity
  8
1
100
AcDbDimension
  2
*D36
 10
213.9809834395707
 20
889.3001792618938
 30
0.0
 11
275.286446451871
 21
900.3001792618938
 31
0.0
 70
    32
  1
<>
 71
     5
 42
-1.0
 53
0.00013888888889
  3
ME10_DIM_17
100
AcDbAlignedDimension
 13
333.9809834395704
 23
819.8001833695847
 33
0.0
 14
213.9809834395707
 24
819.8001833695847
 34
0.0
100
AcDbRotatedDimension
  0
DIMENSION
  5
451
330
1F
100
AcDbEntity
  8
1
100
AcDbDimension
  2
*D37
 10
369.3363224988977
 20
921.3001792618938
 30
0.0
 11
269.454056714816
 21
932.3001792618938
 31
0.0
 70
    32
  1
取付寸法120～220
 71
     5
 42
-1.0
 53
0.00013888888889
  3
ME10_DIM_18
100
AcDbAlignedDimension
 13
178.6256443802433
 23
852.3001833695848
 33
0.0
 14
369.3363224988977
 24
852.3001833695848
 34
0.0
100
AcDbRotatedDimension
  0
DIMENSION
  5
45C
330
1F
100
AcDbEntity
  8
1
100
AcDbDimension
  2
*D38
 10
204.0379832219769
 20
502.7963140847082
 30
0.0
 11
239.920728144147
 21
513.7963140847082
 31
0.0
 70
    32
  1
70
 71
     5
 42
-1.0
 53
0.00013888888889
  3
ME10_DIM_19
100
AcDbAlignedDimension
 13
273.9809834395705
 23
530.796314084711
 33
0.0
 14
204.0379832219769
 24
707.1206860408755
 34
0.0
100
AcDbRotatedDimension
  0
DIMENSION
  5
467
330
1F
100
AcDbEntity
  8
1
100
AcDbDimension
  2
*D39
 10
273.9809834395705
 20
502.7963140847133
 30
0.0
 11
312.7252209774849
 21
513.7963140847133
 31
0.0
 70
    32
  1
70
 71
     5
 42
-1.0
 53
0.00013888888889
  3
ME10_DIM_20
100
AcDbAlignedDimension
 13
343.6954797462726
 23
707.1206860408754
 33
0.0
 14
273.9809834395705
 24
530.796314084711
 34
0.0
100
AcDbRotatedDimension
  0
DIMENSION
  5
472
330
1F
100
AcDbEntity
  8
1
100
AcDbDimension
  2
*D40
 10
149.7292556776471
 20
350.3412330128541
 30
0.0
 11
161.457482035634
 21
377.625808556945
 31
0.0
 70
    33
  1
<>
 71
     5
 42
-1.0
 53
44.99999999999993
  3
ME10_DIM_21
100
AcDbAlignedDimension
 13
213.9809834395707
 23
356.8001833695852
 33
0.0
 14
178.6256443802433
 24
321.4448443102579
 34
0.0
  0
DIMENSION
  5
47D
330
1F
100
AcDbEntity
  8
1
100
AcDbDimension
  2
*D41
 10
231.0265067625723
 20
652.6988991034515
 30
0.0
 11
240.4034127158072
 21
660.8847916654321
 31
0.0
 70
    37
  1
<>
 71
     5
 42
-1.0
  3
ME10_DIM_22
100
AcDb3PointAngularDimension
 13
203.9774121024469
 23
686.3966079245756
 33
0.0
 14
273.9809834395705
 24
644.1547224580754
 34
0.0
 15
273.9809834395705
 25
756.4001792616991
 35
0.0
  0
DIMENSION
  5
488
330
1F
100
AcDbEntity
  8
1
100
AcDbDimension
  2
*D42
 10
317.1568801317993
 20
652.1643438999029
 30
0.0
 11
316.7709424189908
 21
664.003438923176
 31
0.0
 70
    37
  1
<>
 71
     5
 42
-1.0
  3
ME10_DIM_23
100
AcDb3PointAngularDimension
 13
273.9809834395704
 23
643.576124075112
 33
0.0
 14
343.9845547770378
 24
686.3966079244341
 34
0.0
 15
273.9809834395704
 25
756.4001792619014
 35
0.0
  0
ENDSEC
  0
SECTION
  2
OBJECTS
  0
DICTIONARY
  5
C
330
0
100
AcDbDictionary
281
     1
  3
ACAD_GROUP
350
D
  3
ACAD_LAYOUT
350
1A
  3
ACAD_MATERIAL
350
3B
  3
ACAD_MLEADERSTYLE
350
48B
  3
ACAD_MLINESTYLE
350
17
  3
ACAD_PLOTSETTINGS
350
19
  3
ACAD_PLOTSTYLENAME
350
E
  3
ACAD_VISUALSTYLE
350
2A
  3
AcDbVariableDictionary
350
489
  0
DICTIONARY
  5
D
102
{ACAD_REACTORS
330
C
102
}
330
C
100
AcDbDictionary
281
     1
  0
DICTIONARY
  5
1A
102
{ACAD_REACTORS
330
C
102
}
330
C
100
AcDbDictionary
281
     1
  3
Layout1
350
1E
  3
Layout2
350
26
  3
Model
350
22
  0
DICTIONARY
  5
3B
102
{ACAD_REACTORS
330
C
102
}
330
C
100
AcDbDictionary
281
     1
  3
ByBlock
350
3D
  3
ByLayer
350
3C
  3
Global
350
3E
  0
DICTIONARY
  5
48B
102
{ACAD_REACTORS
330
C
102
}
330
C
100
AcDbDictionary
281
     1
  0
DICTIONARY
  5
17
102
{ACAD_REACTORS
330
C
102
}
330
C
100
AcDbDictionary
281
     1
  3
Standard
350
18
  0
DICTIONARY
  5
19
102
{ACAD_REACTORS
330
C
102
}
330
C
100
AcDbDictionary
281
     1
  0
ACDBDICTIONARYWDFLT
  5
E
102
{ACAD_REACTORS
330
C
102
}
330
C
100
AcDbDictionary
281
     1
  3
Normal
350
F
100
AcDbDictionaryWithDefault
340
F
  0
DICTIONARY
  5
2A
102
{ACAD_REACTORS
330
C
102
}
330
C
100
AcDbDictionary
281
     1
  3
2dWireframe
350
2F
  3
3D Hidden
350
31
  3
3dWireframe
350
30
  3
Basic
350
32
  3
Brighten
350
36
  3
ColorChange
350
3A
  3
Conceptual
350
34
  3
Dim
350
35
  3
Facepattern
350
39
  3
Flat
350
2B
  3
FlatWithEdges
350
2C
  3
Gouraud
350
2D
  3
GouraudWithEdges
350
2E
  3
Linepattern
350
38
  3
Realistic
350
33
  3
Thicken
350
37
  0
DICTIONARY
  5
489
102
{ACAD_REACTORS
330
C
102
}
330
C
100
AcDbDictionary
281
     1
  3
DIMASSOC
350
48C
  3
HIDETEXT
350
48D
  0
LAYOUT
  5
1E
102
{ACAD_REACTORS
330
1A
102
}
330
1A
100
AcDbPlotSettings
  1

  2
none_device
  4

  6

 40
0.0
 41
0.0
 42
0.0
 43
0.0
 44
0.0
 45
0.0
 46
0.0
 47
0.0
 48
0.0
 49
0.0
140
0.0
141
0.0
142
1.0
143
1.0
 70
   688
 72
     0
 73
     0
 74
     5
  7

 75
    16
147
1.0
148
0.0
149
0.0
100
AcDbLayout
  1
Layout1
 70
     1
 71
     1
 10
0.0
 20
0.0
 11
12.0
 21
9.0
 12
0.0
 22
0.0
 32
0.0
 14
1.00000000000000E+20
 24
1.00000000000000E+20
 34
1.00000000000000E+20
 15
-1.00000000000000E+20
 25
-1.00000000000000E+20
 35
-1.00000000000000E+20
146
0.0
 13
0.0
 23
0.0
 33
0.0
 16
1.0
 26
0.0
 36
0.0
 17
0.0
 27
1.0
 37
0.0
 76
     0
330
1B
  0
LAYOUT
  5
26
102
{ACAD_REACTORS
330
1A
102
}
330
1A
100
AcDbPlotSettings
  1

  2
none_device
  4

  6

 40
0.0
 41
0.0
 42
0.0
 43
0.0
 44
0.0
 45
0.0
 46
0.0
 47
0.0
 48
0.0
 49
0.0
140
0.0
141
0.0
142
1.0
143
1.0
 70
   688
 72
     0
 73
     0
 74
     5
  7

 75
    16
147
1.0
148
0.0
149
0.0
100
AcDbLayout
  1
Layout2
 70
     1
 71
     2
 10
0.0
 20
0.0
 11
0.0
 21
0.0
 12
0.0
 22
0.0
 32
0.0
 14
0.0
 24
0.0
 34
0.0
 15
0.0
 25
0.0
 35
0.0
146
0.0
 13
0.0
 23
0.0
 33
0.0
 16
1.0
 26
0.0
 36
0.0
 17
0.0
 27
1.0
 37
0.0
 76
     0
330
23
  0
LAYOUT
  5
22
102
{ACAD_REACTORS
330
1A
102
}
330
1A
100
AcDbPlotSettings
  1

  2
none_device
  4

  6

 40
0.0
 41
0.0
 42
0.0
 43
0.0
 44
0.0
 45
0.0
 46
0.0
 47
0.0
 48
0.0
 49
0.0
140
0.0
141
0.0
142
1.0
143
1.0
 70
  1712
 72
     0
 73
     0
 74
     0
  7

 75
     0
147
1.0
148
0.0
149
0.0
100
AcDbLayout
  1
Model
 70
     1
 71
     0
 10
0.0
 20
0.0
 11
12.0
 21
9.0
 12
0.0
 22
0.0
 32
0.0
 14
10.0
 24
0.0
 34
0.0
 15
964.4809879003252
 25
1188.0
 35
0.0
146
0.0
 13
0.0
 23
0.0
 33
0.0
 16
1.0
 26
0.0
 36
0.0
 17
0.0
 27
1.0
 37
0.0
 76
     0
330
1F
331
29
  0
MATERIAL
  5
3D
102
{ACAD_REACTORS
330
3B
102
}
102
{ACAD_XDICTIONARY
360
4B0
102
}
330
3B
100
AcDbMaterial
  1
ByBlock
  0
MATERIAL
  5
3C
102
{ACAD_REACTORS
330
3B
102
}
102
{ACAD_XDICTIONARY
360
4AE
102
}
330
3B
100
AcDbMaterial
  1
ByLayer
  0
MATERIAL
  5
3E
102
{ACAD_REACTORS
330
3B
102
}
102
{ACAD_XDICTIONARY
360
4B2
102
}
330
3B
100
AcDbMaterial
  1
Global
  0
MLINESTYLE
  5
18
102
{ACAD_REACTORS
330
17
102
}
330
17
100
AcDbMlineStyle
  2
Standard
 70
     0
  3

 62
   256
 51
90.0
 52
90.0
 71
     2
 49
0.5
 62
   256
  6
BYLAYER
 49
-0.5
 62
   256
  6
BYLAYER
  0
ACDBPLACEHOLDER
  5
F
102
{ACAD_REACTORS
330
E
102
}
330
E
  0
VISUALSTYLE
  5
2F
102
{ACAD_REACTORS
330
2A
102
}
102
{ACAD_XDICTIONARY
360
496
102
}
330
2A
100
AcDbVisualStyle
  2
2dWireframe
 70
     4
 71
     0
 72
     2
 73
     0
 90
        0
 40
-0.6
 41
-30.0
 62
     5
 63
     7
 74
     1
 91
        4
 64
     7
 65
   257
 75
     1
175
     1
 42
1.0
 92
        0
 66
   257
 43
1.0
 76
     1
 77
     6
 78
     2
 67
     7
 79
     5
170
     0
171
     0
290
     0
174
     0
 93
        1
 44
0.0
173
     0
291
     0
 45
0.0
1001
ACAD
1000
AcDbSavedByObjectVersion
1070
     0
  0
VISUALSTYLE
  5
31
102
{ACAD_REACTORS
330
2A
102
}
102
{ACAD_XDICTIONARY
360
49A
102
}
330
2A
100
AcDbVisualStyle
  2
3D Hidden
 70
     6
 71
     1
 72
     2
 73
     2
 90
        0
 40
-0.6
 41
-30.0
 62
     5
 63
     7
 74
     2
 91
        2
 64
     7
 65
   257
 75
     2
175
     1
 42
40.0
 92
        0
 66
   257
 43
1.0
 76
     1
 77
     6
 78
     2
 67
     7
 79
     3
170
     0
171
     0
290
     0
174
     0
 93
        1
 44
0.0
173
     0
291
     0
 45
0.0
1001
ACAD
1000
AcDbSavedByObjectVersion
1070
     0
  0
VISUALSTYLE
  5
30
102
{ACAD_REACTORS
330
2A
102
}
102
{ACAD_XDICTIONARY
360
498
102
}
330
2A
100
AcDbVisualStyle
  2
3dWireframe
 70
     5
 71
     0
 72
     2
 73
     0
 90
        0
 40
-0.6
 41
-30.0
 62
     5
 63
     7
 74
     1
 91
        4
 64
     7
 65
   257
 75
     1
175
     1
 42
1.0
 92
        0
 66
   257
 43
1.0
 76
     1
 77
     6
 78
     2
 67
     7
 79
     5
170
     0
171
     0
290
     0
174
     0
 93
        1
 44
0.0
173
     0
291
     0
 45
0.0
1001
ACAD
1000
AcDbSavedByObjectVersion
1070
     0
  0
VISUALSTYLE
  5
32
102
{ACAD_REACTORS
330
2A
102
}
102
{ACAD_XDICTIONARY
360
49C
102
}
330
2A
100
AcDbVisualStyle
  2
Basic
 70
     7
 71
     1
 72
     0
 73
     1
 90
        0
 40
-0.6
 41
-30.0
 62
     5
 63
     7
 74
     0
 91
        4
 64
     7
 65
   257
 75
     1
175
     1
 42
1.0
 92
        8
 66
     7
 43
1.0
 76
     1
 77
     6
 78
     2
 67
     7
 79
     5
170
     0
171
     0
290
     0
174
     0
 93
        1
 44
0.0
173
     0
291
     1
 45
0.0
1001
ACAD
1000
AcDbSavedByObjectVersion
1070
     0
  0
VISUALSTYLE
  5
36
102
{ACAD_REACTORS
330
2A
102
}
102
{ACAD_XDICTIONARY
360
4A4
102
}
330
2A
100
AcDbVisualStyle
  2
Brighten
 70
    12
 71
     2
 72
     2
 73
     0
 90
        0
 40
-0.6
 41
-30.0
 62
     5
 63
     7
 74
     1
 91
        4
 64
     7
 65
   257
 75
     1
175
     1
 42
1.0
 92
        8
 66
     7
 43
1.0
 76
     1
 77
     6
 78
     2
 67
     7
 79
     5
170
     0
171
     0
290
     0
174
     0
 93
        1
 44
50.0
173
     0
291
     1
 45
0.0
1001
ACAD
1000
AcDbSavedByObjectVersion
1070
     0
  0
VISUALSTYLE
  5
3A
102
{ACAD_REACTORS
330
2A
102
}
102
{ACAD_XDICTIONARY
360
4AC
102
}
330
2A
100
AcDbVisualStyle
  2
ColorChange
 70
    16
 71
     2
 72
     2
 73
     3
 90
        0
 40
-0.6
 41
-30.0
 62
     5
 63
     8
 74
     1
 91
        4
 64
     7
 65
   257
 75
     1
175
     1
 42
1.0
 92
        8
 66
     8
 43
1.0
 76
     1
 77
     6
 78
     2
 67
     7
 79
     5
170
     0
171
     0
290
     0
174
     0
 93
        1
 44
0.0
173
     0
291
     1
 45
0.0
1001
ACAD
1000
AcDbSavedByObjectVersion
1070
     0
  0
VISUALSTYLE
  5
34
102
{ACAD_REACTORS
330
2A
102
}
102
{ACAD_XDICTIONARY
360
4A0
102
}
330
2A
100
AcDbVisualStyle
  2
Conceptual
 70
     9
 71
     3
 72
     2
 73
     0
 90
        0
 40
-0.6
 41
-30.0
 62
     5
 63
     7
 74
     2
 91
        2
 64
     7
 65
   257
 75
     1
175
     1
 42
40.0
 92
        8
 66
     7
 43
1.0
 76
     1
 77
     6
 78
     2
 67
     7
 79
     3
170
     0
171
     0
290
     0
174
     0
 93
        1
 44
0.0
173
     0
291
     0
 45
0.0
1001
ACAD
1000
AcDbSavedByObjectVersion
1070
     0
  0
VISUALSTYLE
  5
35
102
{ACAD_REACTORS
330
2A
102
}
102
{ACAD_XDICTIONARY
360
4A2
102
}
330
2A
100
AcDbVisualStyle
  2
Dim
 70
    11
 71
     2
 72
     2
 73
     0
 90
        0
 40
-0.6
 41
-30.0
 62
     5
 63
     7
 74
     1
 91
        4
 64
     7
 65
   257
 75
     1
175
     1
 42
1.0
 92
        8
 66
     7
 43
1.0
 76
     1
 77
     6
 78
     2
 67
     7
 79
     5
170
     0
171
     0
290
     0
174
     0
 93
        1
 44
-50.0
173
     0
291
     1
 45
0.0
1001
ACAD
1000
AcDbSavedByObjectVersion
1070
     0
  0
VISUALSTYLE
  5
39
102
{ACAD_REACTORS
330
2A
102
}
102
{ACAD_XDICTIONARY
360
4AA
102
}
330
2A
100
AcDbVisualStyle
  2
Facepattern
 70
    15
 71
     2
 72
     2
 73
     0
 90
        0
 40
-0.6
 41
-30.0
 62
     5
 63
     7
 74
     1
 91
        4
 64
     7
 65
   257
 75
     1
175
     1
 42
1.0
 92
        8
 66
     7
 43
1.0
 76
     1
 77
     6
 78
     2
 67
     7
 79
     5
170
     0
171
     0
290
     0
174
     0
 93
        1
 44
0.0
173
     0
291
     1
 45
0.0
1001
ACAD
1000
AcDbSavedByObjectVersion
1070
     0
  0
VISUALSTYLE
  5
2B
102
{ACAD_REACTORS
330
2A
102
}
102
{ACAD_XDICTIONARY
360
48E
102
}
330
2A
100
AcDbVisualStyle
  2
Flat
 70
     0
 71
     2
 72
     1
 73
     1
 90
        2
 40
-0.6
 41
30.0
 62
     5
 63
     7
 74
     0
 91
        4
 64
     7
 65
   257
 75
     1
175
     1
 42
1.0
 92
        8
 66
     7
 43
1.0
 76
     1
 77
     6
 78
     2
 67
     7
 79
     5
170
     0
171
     0
290
     0
174
     0
 93
       13
 44
0.0
173
     0
291
     1
 45
0.0
1001
ACAD
1000
AcDbSavedByObjectVersion
1070
     0
  0
VISUALSTYLE
  5
2C
102
{ACAD_REACTORS
330
2A
102
}
102
{ACAD_XDICTIONARY
360
490
102
}
330
2A
100
AcDbVisualStyle
  2
FlatWithEdges
 70
     1
 71
     2
 72
     1
 73
     1
 90
        2
 40
-0.6
 41
30.0
 62
     5
 63
     7
 74
     1
 91
        4
 64
     7
 65
   257
 75
     1
175
     1
 42
1.0
 92
        0
 66
   257
 43
1.0
 76
     1
 77
     6
 78
     2
 67
     7
 79
     5
170
     0
171
     0
290
     0
174
     0
 93
       13
 44
0.0
173
     0
291
     1
 45
0.0
1001
ACAD
1000
AcDbSavedByObjectVersion
1070
     0
  0
VISUALSTYLE
  5
2D
102
{ACAD_REACTORS
330
2A
102
}
102
{ACAD_XDICTIONARY
360
492
102
}
330
2A
100
AcDbVisualStyle
  2
Gouraud
 70
     2
 71
     2
 72
     2
 73
     1
 90
        2
 40
-0.6
 41
30.0
 62
     5
 63
     7
 74
     0
 91
        4
 64
     7
 65
   257
 75
     1
175
     1
 42
1.0
 92
        0
 66
     7
 43
1.0
 76
     1
 77
     6
 78
     2
 67
     7
 79
     5
170
     0
171
     0
290
     0
174
     0
 93
       13
 44
0.0
173
     0
291
     1
 45
0.0
1001
ACAD
1000
AcDbSavedByObjectVersion
1070
     0
  0
VISUALSTYLE
  5
2E
102
{ACAD_REACTORS
330
2A
102
}
102
{ACAD_XDICTIONARY
360
494
102
}
330
2A
100
AcDbVisualStyle
  2
GouraudWithEdges
 70
     3
 71
     2
 72
     2
 73
     1
 90
        2
 40
-0.6
 41
30.0
 62
     5
 63
     7
 74
     1
 91
        4
 64
     7
 65
   257
 75
     1
175
     1
 42
1.0
 92
        0
 66
   257
 43
1.0
 76
     1
 77
     6
 78
     2
 67
     7
 79
     5
170
     0
171
     0
290
     0
174
     0
 93
       13
 44
0.0
173
     0
291
     1
 45
0.0
1001
ACAD
1000
AcDbSavedByObjectVersion
1070
     0
  0
VISUALSTYLE
  5
38
102
{ACAD_REACTORS
330
2A
102
}
102
{ACAD_XDICTIONARY
360
4A8
102
}
330
2A
100
AcDbVisualStyle
  2
Linepattern
 70
    14
 71
     2
 72
     2
 73
     0
 90
        0
 40
-0.6
 41
-30.0
 62
     5
 63
     7
 74
     1
 91
        4
 64
     7
 65
   257
 75
     7
175
     7
 42
1.0
 92
        8
 66
     7
 43
1.0
 76
     1
 77
     6
 78
     2
 67
     7
 79
     5
170
     0
171
     0
290
     0
174
     0
 93
        1
 44
0.0
173
     0
291
     1
 45
0.0
1001
ACAD
1000
AcDbSavedByObjectVersion
1070
     0
  0
VISUALSTYLE
  5
33
102
{ACAD_REACTORS
330
2A
102
}
102
{ACAD_XDICTIONARY
360
49E
102
}
330
2A
100
AcDbVisualStyle
  2
Realistic
 70
     8
 71
     2
 72
     2
 73
     0
 90
        0
 40
-0.6
 41
-30.0
 62
     5
 63
     7
 74
     1
 91
        0
 64
     7
 65
   257
 75
     1
175
     1
 42
1.0
 92
        8
 66
     8
 43
1.0
 76
     1
 77
     6
 78
     2
 67
     7
 79
     5
170
     0
171
     0
290
     0
174
     0
 93
       13
 44
0.0
173
     0
291
     0
 45
0.0
1001
ACAD
1000
AcDbSavedByObjectVersion
1070
     0
  0
VISUALSTYLE
  5
37
102
{ACAD_REACTORS
330
2A
102
}
102
{ACAD_XDICTIONARY
360
4A6
102
}
330
2A
100
AcDbVisualStyle
  2
Thicken
 70
    13
 71
     2
 72
     2
 73
     0
 90
        0
 40
-0.6
 41
-30.0
 62
     5
 63
     7
 74
     1
 91
        4
 64
     7
 65
   257
 75
     1
175
     1
 42
1.0
 92
       12
 66
     7
 43
1.0
 76
     1
 77
     6
 78
     2
 67
     7
 79
     5
170
     0
171
     0
290
     0
174
     0
 93
        1
 44
0.0
173
     0
291
     1
 45
0.0
1001
ACAD
1000
AcDbSavedByObjectVersion
1070
     0
  0
DICTIONARYVAR
  5
48C
102
{ACAD_REACTORS
330
489
102
}
330
489
100
DictionaryVariables
280
     0
  1
2
  0
DICTIONARYVAR
  5
48D
102
{ACAD_REACTORS
330
489
102
}
330
489
100
DictionaryVariables
280
     0
  1
1
  0
DICTIONARY
  5
4B0
330
3D
100
AcDbDictionary
280
     1
281
     1
  3
ACAD_XREC_ROUNDTRIP
360
4B1
  0
DICTIONARY
  5
4AE
330
3C
100
AcDbDictionary
280
     1
281
     1
  3
ACAD_XREC_ROUNDTRIP
360
4AF
  0
DICTIONARY
  5
4B2
330
3E
100
AcDbDictionary
280
     1
281
     1
  3
ACAD_XREC_ROUNDTRIP
360
4B3
  0
DICTIONARY
  5
496
330
2F
100
AcDbDictionary
280
     1
281
     1
  3
ACAD_XREC_ROUNDTRIP
360
497
  0
DICTIONARY
  5
49A
330
31
100
AcDbDictionary
280
     1
281
     1
  3
ACAD_XREC_ROUNDTRIP
360
49B
  0
DICTIONARY
  5
498
330
30
100
AcDbDictionary
280
     1
281
     1
  3
ACAD_XREC_ROUNDTRIP
360
499
  0
DICTIONARY
  5
49C
330
32
100
AcDbDictionary
280
     1
281
     1
  3
ACAD_XREC_ROUNDTRIP
360
49D
  0
DICTIONARY
  5
4A4
330
36
100
AcDbDictionary
280
     1
281
     1
  3
ACAD_XREC_ROUNDTRIP
360
4A5
  0
DICTIONARY
  5
4AC
330
3A
100
AcDbDictionary
280
     1
281
     1
  3
ACAD_XREC_ROUNDTRIP
360
4AD
  0
DICTIONARY
  5
4A0
330
34
100
AcDbDictionary
280
     1
281
     1
  3
ACAD_XREC_ROUNDTRIP
360
4A1
  0
DICTIONARY
  5
4A2
330
35
100
AcDbDictionary
280
     1
281
     1
  3
ACAD_XREC_ROUNDTRIP
360
4A3
  0
DICTIONARY
  5
4AA
330
39
100
AcDbDictionary
280
     1
281
     1
  3
ACAD_XREC_ROUNDTRIP
360
4AB
  0
DICTIONARY
  5
48E
330
2B
100
AcDbDictionary
280
     1
281
     1
  3
ACAD_XREC_ROUNDTRIP
360
48F
  0
DICTIONARY
  5
490
330
2C
100
AcDbDictionary
280
     1
281
     1
  3
ACAD_XREC_ROUNDTRIP
360
491
  0
DICTIONARY
  5
492
330
2D
100
AcDbDictionary
280
     1
281
     1
  3
ACAD_XREC_ROUNDTRIP
360
493
  0
DICTIONARY
  5
494
330
2E
100
AcDbDictionary
280
     1
281
     1
  3
ACAD_XREC_ROUNDTRIP
360
495
  0
DICTIONARY
  5
4A8
330
38
100
AcDbDictionary
280
     1
281
     1
  3
ACAD_XREC_ROUNDTRIP
360
4A9
  0
DICTIONARY
  5
49E
330
33
100
AcDbDictionary
280
     1
281
     1
  3
ACAD_XREC_ROUNDTRIP
360
49F
  0
DICTIONARY
  5
4A6
330
37
100
AcDbDictionary
280
     1
281
     1
  3
ACAD_XREC_ROUNDTRIP
360
4A7
  0
XRECORD
  5
4B1
102
{ACAD_REACTORS
330
4B0
102
}
330
4B0
100
AcDbXrecord
280
     1
102
MATERIAL
148
0.0
149
0.0
149
0.0
 93
        0
 94
      127
282
     0
 72
     1
 77
     1
171
     1
175
     1
179
     1
273
     0
  0
XRECORD
  5
4AF
102
{ACAD_REACTORS
330
4AE
102
}
330
4AE
100
AcDbXrecord
280
     1
102
MATERIAL
148
0.0
149
0.0
149
0.0
 93
        0
 94
      127
282
     0
 72
     1
 77
     1
171
     1
175
     1
179
     1
273
     0
  0
XRECORD
  5
4B3
102
{ACAD_REACTORS
330
4B2
102
}
330
4B2
100
AcDbXrecord
280
     1
102
MATERIAL
148
0.0
149
0.0
149
0.0
 93
        0
 94
      127
282
     0
 72
     1
 77
     1
171
     1
175
     1
179
     1
273
     0
  0
XRECORD
  5
497
102
{ACAD_REACTORS
330
496
102
}
330
496
100
AcDbXrecord
280
     1
102
RTVSPropertyOp0
 70
     1
102
RTVSPropertyOp1
 70
     1
102
RTVSPropertyOp2
 70
     1
102
RTVSPropertyOp3
 70
     1
102
RTVSPropertyOp4
 70
     1
102
RTVSPropertyOp5
 70
     1
102
RTVSPropertyOp6
 70
     1
102
RTVSPropertyOp7
 70
     1
102
RTVSPropertyOp8
 70
     1
102
RTVSPropertyOp9
 70
     1
102
RTVSPropertyOp10
 70
     1
102
RTVSPropertyOp11
 70
     1
102
RTVSPropertyOp12
 70
     1
102
RTVSPropertyOp13
 70
     1
102
RTVSPropertyOp14
 70
     1
102
RTVSPropertyOp15
 70
     1
102
RTVSPropertyOp16
 70
     1
102
RTVSPropertyOp17
 70
     1
102
RTVSPropertyOp18
 70
     1
102
RTVSPropertyOp19
 70
     1
102
RTVSPropertyOp20
 70
     1
102
RTVSPropertyOp21
 70
     1
102
RTVSPropertyOp22
 70
     1
102
RTVSPropertyOp23
 70
     1
102
RTVSPropertyOp24
 70
     1
102
RTVSPropertyOp25
 70
     1
102
RTVSPropertyOp26
 70
     1
102
RTVSPropertyOp27
 70
     1
102
RTVSPropertyOp28
 70
     1
102
RTVSPropertyOp29
 70
     1
102
RTVSPropertyOp30
 70
     1
102
RTVSPropertyOp31
 70
     1
102
RTVSPropertyOp32
 70
     1
  0
XRECORD
  5
49B
102
{ACAD_REACTORS
330
49A
102
}
330
49A
100
AcDbXrecord
280
     1
102
RTVSPropertyOp0
 70
     1
102
RTVSPropertyOp1
 70
     1
102
RTVSPropertyOp2
 70
     1
102
RTVSPropertyOp3
 70
     1
102
RTVSPropertyOp4
 70
     1
102
RTVSPropertyOp5
 70
     1
102
RTVSPropertyOp6
 70
     1
102
RTVSPropertyOp7
 70
     1
102
RTVSPropertyOp8
 70
     1
102
RTVSPropertyOp9
 70
     1
102
RTVSPropertyOp10
 70
     1
102
RTVSPropertyOp11
 70
     1
102
RTVSPropertyOp12
 70
     1
102
RTVSPropertyOp13
 70
     1
102
RTVSPropertyOp14
 70
     1
102
RTVSPropertyOp15
 70
     1
102
RTVSPropertyOp16
 70
     1
102
RTVSPropertyOp17
 70
     1
102
RTVSPropertyOp18
 70
     1
102
RTVSPropertyOp19
 70
     1
102
RTVSPropertyOp20
 70
     1
102
RTVSPropertyOp21
 70
     1
102
RTVSPropertyOp22
 70
     1
102
RTVSPropertyOp23
 70
     1
102
RTVSPropertyOp24
 70
     1
102
RTVSPropertyOp25
 70
     1
102
RTVSPropertyOp26
 70
     1
102
RTVSPropertyOp27
 70
     1
102
RTVSPropertyOp28
 70
     1
102
RTVSPropertyOp29
 70
     1
102
RTVSPropertyOp30
 70
     1
102
RTVSPropertyOp31
 70
     1
102
RTVSPropertyOp32
 70
     1
  0
XRECORD
  5
499
102
{ACAD_REACTORS
330
498
102
}
330
498
100
AcDbXrecord
280
     1
102
RTVSPropertyOp0
 70
     1
102
RTVSPropertyOp1
 70
     1
102
RTVSPropertyOp2
 70
     1
102
RTVSPropertyOp3
 70
     1
102
RTVSPropertyOp4
 70
     1
102
RTVSPropertyOp5
 70
     1
102
RTVSPropertyOp6
 70
     1
102
RTVSPropertyOp7
 70
     1
102
RTVSPropertyOp8
 70
     1
102
RTVSPropertyOp9
 70
     1
102
RTVSPropertyOp10
 70
     1
102
RTVSPropertyOp11
 70
     1
102
RTVSPropertyOp12
 70
     1
102
RTVSPropertyOp13
 70
     1
102
RTVSPropertyOp14
 70
     1
102
RTVSPropertyOp15
 70
     1
102
RTVSPropertyOp16
 70
     1
102
RTVSPropertyOp17
 70
     1
102
RTVSPropertyOp18
 70
     1
102
RTVSPropertyOp19
 70
     1
102
RTVSPropertyOp20
 70
     1
102
RTVSPropertyOp21
 70
     1
102
RTVSPropertyOp22
 70
     1
102
RTVSPropertyOp23
 70
     1
102
RTVSPropertyOp24
 70
     1
102
RTVSPropertyOp25
 70
     1
102
RTVSPropertyOp26
 70
     1
102
RTVSPropertyOp27
 70
     1
102
RTVSPropertyOp28
 70
     1
102
RTVSPropertyOp29
 70
     1
102
RTVSPropertyOp30
 70
     1
102
RTVSPropertyOp31
 70
     1
102
RTVSPropertyOp32
 70
     1
  0
XRECORD
  5
49D
102
{ACAD_REACTORS
330
49C
102
}
330
49C
100
AcDbXrecord
280
     1
102
RTVSPropertyOp0
 70
     1
102
RTVSPropertyOp1
 70
     1
102
RTVSPropertyOp2
 70
     1
102
RTVSPropertyOp3
 70
     1
102
RTVSPropertyOp4
 70
     1
102
RTVSPropertyOp5
 70
     1
102
RTVSPropertyOp6
 70
     1
102
RTVSPropertyOp7
 70
     1
102
RTVSPropertyOp8
 70
     1
102
RTVSPropertyOp9
 70
     1
102
RTVSPropertyOp10
 70
     1
102
RTVSPropertyOp11
 70
     1
102
RTVSPropertyOp12
 70
     1
102
RTVSPropertyOp13
 70
     1
102
RTVSPropertyOp14
 70
     1
102
RTVSPropertyOp15
 70
     1
102
RTVSPropertyOp16
 70
     1
102
RTVSPropertyOp17
 70
     1
102
RTVSPropertyOp18
 70
     1
102
RTVSPropertyOp19
 70
     1
102
RTVSPropertyOp20
 70
     1
102
RTVSPropertyOp21
 70
     1
102
RTVSPropertyOp22
 70
     1
102
RTVSPropertyOp23
 70
     1
102
RTVSPropertyOp24
 70
     1
102
RTVSPropertyOp25
 70
     1
102
RTVSPropertyOp26
 70
     1
102
RTVSPropertyOp27
 70
     1
102
RTVSPropertyOp28
 70
     1
102
RTVSPropertyOp29
 70
     1
102
RTVSPropertyOp30
 70
     1
102
RTVSPropertyOp31
 70
     1
102
RTVSPropertyOp32
 70
     1
  0
XRECORD
  5
4A5
102
{ACAD_REACTORS
330
4A4
102
}
330
4A4
100
AcDbXrecord
280
     1
102
RTVSPropertyOp0
 70
     1
102
RTVSPropertyOp1
 70
     1
102
RTVSPropertyOp2
 70
     1
102
RTVSPropertyOp3
 70
     1
102
RTVSPropertyOp4
 70
     1
102
RTVSPropertyOp5
 70
     1
102
RTVSPropertyOp6
 70
     1
102
RTVSPropertyOp7
 70
     1
102
RTVSPropertyOp8
 70
     1
102
RTVSPropertyOp9
 70
     1
102
RTVSPropertyOp10
 70
     1
102
RTVSPropertyOp11
 70
     1
102
RTVSPropertyOp12
 70
     1
102
RTVSPropertyOp13
 70
     1
102
RTVSPropertyOp14
 70
     1
102
RTVSPropertyOp15
 70
     1
102
RTVSPropertyOp16
 70
     1
102
RTVSPropertyOp17
 70
     1
102
RTVSPropertyOp18
 70
     1
102
RTVSPropertyOp19
 70
     1
102
RTVSPropertyOp20
 70
     1
102
RTVSPropertyOp21
 70
     1
102
RTVSPropertyOp22
 70
     1
102
RTVSPropertyOp23
 70
     1
102
RTVSPropertyOp24
 70
     1
102
RTVSPropertyOp25
 70
     1
102
RTVSPropertyOp26
 70
     1
102
RTVSPropertyOp27
 70
     1
102
RTVSPropertyOp28
 70
     1
102
RTVSPropertyOp29
 70
     1
102
RTVSPropertyOp30
 70
     1
102
RTVSPropertyOp31
 70
     1
102
RTVSPropertyOp32
 70
     1
  0
XRECORD
  5
4AD
102
{ACAD_REACTORS
330
4AC
102
}
330
4AC
100
AcDbXrecord
280
     1
102
RTVSPropertyOp0
 70
     1
102
RTVSPropertyOp1
 70
     1
102
RTVSPropertyOp2
 70
     1
102
RTVSPropertyOp3
 70
     1
102
RTVSPropertyOp4
 70
     1
102
RTVSPropertyOp5
 70
     1
102
RTVSPropertyOp6
 70
     1
102
RTVSPropertyOp7
 70
     1
102
RTVSPropertyOp8
 70
     1
102
RTVSPropertyOp9
 70
     1
102
RTVSPropertyOp10
 70
     1
102
RTVSPropertyOp11
 70
     1
102
RTVSPropertyOp12
 70
     1
102
RTVSPropertyOp13
 70
     1
102
RTVSPropertyOp14
 70
     1
102
RTVSPropertyOp15
 70
     1
102
RTVSPropertyOp16
 70
     1
102
RTVSPropertyOp17
 70
     1
102
RTVSPropertyOp18
 70
     1
102
RTVSPropertyOp19
 70
     1
102
RTVSPropertyOp20
 70
     1
102
RTVSPropertyOp21
 70
     1
102
RTVSPropertyOp22
 70
     1
102
RTVSPropertyOp23
 70
     1
102
RTVSPropertyOp24
 70
     1
102
RTVSPropertyOp25
 70
     1
102
RTVSPropertyOp26
 70
     1
102
RTVSPropertyOp27
 70
     1
102
RTVSPropertyOp28
 70
     1
102
RTVSPropertyOp29
 70
     1
102
RTVSPropertyOp30
 70
     1
102
RTVSPropertyOp31
 70
     1
102
RTVSPropertyOp32
 70
     1
  0
XRECORD
  5
4A1
102
{ACAD_REACTORS
330
4A0
102
}
330
4A0
100
AcDbXrecord
280
     1
102
RTVSPropertyOp0
 70
     1
102
RTVSPropertyOp1
 70
     1
102
RTVSPropertyOp2
 70
     1
102
RTVSPropertyOp3
 70
     1
102
RTVSPropertyOp4
 70
     1
102
RTVSPropertyOp5
 70
     1
102
RTVSPropertyOp6
 70
     1
102
RTVSPropertyOp7
 70
     1
102
RTVSPropertyOp8
 70
     1
102
RTVSPropertyOp9
 70
     1
102
RTVSPropertyOp10
 70
     1
102
RTVSPropertyOp11
 70
     1
102
RTVSPropertyOp12
 70
     1
102
RTVSPropertyOp13
 70
     1
102
RTVSPropertyOp14
 70
     1
102
RTVSPropertyOp15
 70
     1
102
RTVSPropertyOp16
 70
     1
102
RTVSPropertyOp17
 70
     1
102
RTVSPropertyOp18
 70
     1
102
RTVSPropertyOp19
 70
     1
102
RTVSPropertyOp20
 70
     1
102
RTVSPropertyOp21
 70
     1
102
RTVSPropertyOp22
 70
     1
102
RTVSPropertyOp23
 70
     1
102
RTVSPropertyOp24
 70
     1
102
RTVSPropertyOp25
 70
     1
102
RTVSPropertyOp26
 70
     1
102
RTVSPropertyOp27
 70
     1
102
RTVSPropertyOp28
 70
     1
102
RTVSPropertyOp29
 70
     1
102
RTVSPropertyOp30
 70
     1
102
RTVSPropertyOp31
 70
     1
102
RTVSPropertyOp32
 70
     1
  0
XRECORD
  5
4A3
102
{ACAD_REACTORS
330
4A2
102
}
330
4A2
100
AcDbXrecord
280
     1
102
RTVSPropertyOp0
 70
     1
102
RTVSPropertyOp1
 70
     1
102
RTVSPropertyOp2
 70
     1
102
RTVSPropertyOp3
 70
     1
102
RTVSPropertyOp4
 70
     1
102
RTVSPropertyOp5
 70
     1
102
RTVSPropertyOp6
 70
     1
102
RTVSPropertyOp7
 70
     1
102
RTVSPropertyOp8
 70
     1
102
RTVSPropertyOp9
 70
     1
102
RTVSPropertyOp10
 70
     1
102
RTVSPropertyOp11
 70
     1
102
RTVSPropertyOp12
 70
     1
102
RTVSPropertyOp13
 70
     1
102
RTVSPropertyOp14
 70
     1
102
RTVSPropertyOp15
 70
     1
102
RTVSPropertyOp16
 70
     1
102
RTVSPropertyOp17
 70
     1
102
RTVSPropertyOp18
 70
     1
102
RTVSPropertyOp19
 70
     1
102
RTVSPropertyOp20
 70
     1
102
RTVSPropertyOp21
 70
     1
102
RTVSPropertyOp22
 70
     1
102
RTVSPropertyOp23
 70
     1
102
RTVSPropertyOp24
 70
     1
102
RTVSPropertyOp25
 70
     1
102
RTVSPropertyOp26
 70
     1
102
RTVSPropertyOp27
 70
     1
102
RTVSPropertyOp28
 70
     1
102
RTVSPropertyOp29
 70
     1
102
RTVSPropertyOp30
 70
     1
102
RTVSPropertyOp31
 70
     1
102
RTVSPropertyOp32
 70
     1
  0
XRECORD
  5
4AB
102
{ACAD_REACTORS
330
4AA
102
}
330
4AA
100
AcDbXrecord
280
     1
102
RTVSPropertyOp0
 70
     1
102
RTVSPropertyOp1
 70
     1
102
RTVSPropertyOp2
 70
     1
102
RTVSPropertyOp3
 70
     1
102
RTVSPropertyOp4
 70
     1
102
RTVSPropertyOp5
 70
     1
102
RTVSPropertyOp6
 70
     1
102
RTVSPropertyOp7
 70
     1
102
RTVSPropertyOp8
 70
     1
102
RTVSPropertyOp9
 70
     1
102
RTVSPropertyOp10
 70
     1
102
RTVSPropertyOp11
 70
     1
102
RTVSPropertyOp12
 70
     1
102
RTVSPropertyOp13
 70
     1
102
RTVSPropertyOp14
 70
     1
102
RTVSPropertyOp15
 70
     1
102
RTVSPropertyOp16
 70
     1
102
RTVSPropertyOp17
 70
     1
102
RTVSPropertyOp18
 70
     1
102
RTVSPropertyOp19
 70
     1
102
RTVSPropertyOp20
 70
     1
102
RTVSPropertyOp21
 70
     1
102
RTVSPropertyOp22
 70
     1
102
RTVSPropertyOp23
 70
     1
102
RTVSPropertyOp24
 70
     1
102
RTVSPropertyOp25
 70
     1
102
RTVSPropertyOp26
 70
     1
102
RTVSPropertyOp27
 70
     1
102
RTVSPropertyOp28
 70
     1
102
RTVSPropertyOp29
 70
     1
102
RTVSPropertyOp30
 70
     1
102
RTVSPropertyOp31
 70
     1
102
RTVSPropertyOp32
 70
     1
  0
XRECORD
  5
48F
102
{ACAD_REACTORS
330
48E
102
}
330
48E
100
AcDbXrecord
280
     1
102
RTVSPropertyOp0
 70
     1
102
RTVSPropertyOp1
 70
     1
102
RTVSPropertyOp2
 70
     1
102
RTVSPropertyOp3
 70
     1
102
RTVSPropertyOp4
 70
     1
102
RTVSPropertyOp5
 70
     1
102
RTVSPropertyOp6
 70
     1
102
RTVSPropertyOp7
 70
     1
102
RTVSPropertyOp8
 70
     1
102
RTVSPropertyOp9
 70
     1
102
RTVSPropertyOp10
 70
     1
102
RTVSPropertyOp11
 70
     1
102
RTVSPropertyOp12
 70
     1
102
RTVSPropertyOp13
 70
     1
102
RTVSPropertyOp14
 70
     1
102
RTVSPropertyOp15
 70
     1
102
RTVSPropertyOp16
 70
     1
102
RTVSPropertyOp17
 70
     1
102
RTVSPropertyOp18
 70
     1
102
RTVSPropertyOp19
 70
     1
102
RTVSPropertyOp20
 70
     1
102
RTVSPropertyOp21
 70
     1
102
RTVSPropertyOp22
 70
     1
102
RTVSPropertyOp23
 70
     1
102
RTVSPropertyOp24
 70
     1
102
RTVSPropertyOp25
 70
     1
102
RTVSPropertyOp26
 70
     1
102
RTVSPropertyOp27
 70
     1
102
RTVSPropertyOp28
 70
     1
102
RTVSPropertyOp29
 70
     1
102
RTVSPropertyOp30
 70
     1
102
RTVSPropertyOp31
 70
     1
102
RTVSPropertyOp32
 70
     1
  0
XRECORD
  5
491
102
{ACAD_REACTORS
330
490
102
}
330
490
100
AcDbXrecord
280
     1
102
RTVSPropertyOp0
 70
     1
102
RTVSPropertyOp1
 70
     1
102
RTVSPropertyOp2
 70
     1
102
RTVSPropertyOp3
 70
     1
102
RTVSPropertyOp4
 70
     1
102
RTVSPropertyOp5
 70
     1
102
RTVSPropertyOp6
 70
     1
102
RTVSPropertyOp7
 70
     1
102
RTVSPropertyOp8
 70
     1
102
RTVSPropertyOp9
 70
     1
102
RTVSPropertyOp10
 70
     1
102
RTVSPropertyOp11
 70
     1
102
RTVSPropertyOp12
 70
     1
102
RTVSPropertyOp13
 70
     1
102
RTVSPropertyOp14
 70
     1
102
RTVSPropertyOp15
 70
     1
102
RTVSPropertyOp16
 70
     1
102
RTVSPropertyOp17
 70
     1
102
RTVSPropertyOp18
 70
     1
102
RTVSPropertyOp19
 70
     1
102
RTVSPropertyOp20
 70
     1
102
RTVSPropertyOp21
 70
     1
102
RTVSPropertyOp22
 70
     1
102
RTVSPropertyOp23
 70
     1
102
RTVSPropertyOp24
 70
     1
102
RTVSPropertyOp25
 70
     1
102
RTVSPropertyOp26
 70
     1
102
RTVSPropertyOp27
 70
     1
102
RTVSPropertyOp28
 70
     1
102
RTVSPropertyOp29
 70
     1
102
RTVSPropertyOp30
 70
     1
102
RTVSPropertyOp31
 70
     1
102
RTVSPropertyOp32
 70
     1
  0
XRECORD
  5
493
102
{ACAD_REACTORS
330
492
102
}
330
492
100
AcDbXrecord
280
     1
102
RTVSPropertyOp0
 70
     1
102
RTVSPropertyOp1
 70
     1
102
RTVSPropertyOp2
 70
     1
102
RTVSPropertyOp3
 70
     1
102
RTVSPropertyOp4
 70
     1
102
RTVSPropertyOp5
 70
     1
102
RTVSPropertyOp6
 70
     1
102
RTVSPropertyOp7
 70
     1
102
RTVSPropertyOp8
 70
     1
102
RTVSPropertyOp9
 70
     1
102
RTVSPropertyOp10
 70
     1
102
RTVSPropertyOp11
 70
     1
102
RTVSPropertyOp12
 70
     1
102
RTVSPropertyOp13
 70
     1
102
RTVSPropertyOp14
 70
     1
102
RTVSPropertyOp15
 70
     1
102
RTVSPropertyOp16
 70
     1
102
RTVSPropertyOp17
 70
     1
102
RTVSPropertyOp18
 70
     1
102
RTVSPropertyOp19
 70
     1
102
RTVSPropertyOp20
 70
     1
102
RTVSPropertyOp21
 70
     1
102
RTVSPropertyOp22
 70
     1
102
RTVSPropertyOp23
 70
     1
102
RTVSPropertyOp24
 70
     1
102
RTVSPropertyOp25
 70
     1
102
RTVSPropertyOp26
 70
     1
102
RTVSPropertyOp27
 70
     1
102
RTVSPropertyOp28
 70
     1
102
RTVSPropertyOp29
 70
     1
102
RTVSPropertyOp30
 70
     1
102
RTVSPropertyOp31
 70
     1
102
RTVSPropertyOp32
 70
     1
  0
XRECORD
  5
495
102
{ACAD_REACTORS
330
494
102
}
330
494
100
AcDbXrecord
280
     1
102
RTVSPropertyOp0
 70
     1
102
RTVSPropertyOp1
 70
     1
102
RTVSPropertyOp2
 70
     1
102
RTVSPropertyOp3
 70
     1
102
RTVSPropertyOp4
 70
     1
102
RTVSPropertyOp5
 70
     1
102
RTVSPropertyOp6
 70
     1
102
RTVSPropertyOp7
 70
     1
102
RTVSPropertyOp8
 70
     1
102
RTVSPropertyOp9
 70
     1
102
RTVSPropertyOp10
 70
     1
102
RTVSPropertyOp11
 70
     1
102
RTVSPropertyOp12
 70
     1
102
RTVSPropertyOp13
 70
     1
102
RTVSPropertyOp14
 70
     1
102
RTVSPropertyOp15
 70
     1
102
RTVSPropertyOp16
 70
     1
102
RTVSPropertyOp17
 70
     1
102
RTVSPropertyOp18
 70
     1
102
RTVSPropertyOp19
 70
     1
102
RTVSPropertyOp20
 70
     1
102
RTVSPropertyOp21
 70
     1
102
RTVSPropertyOp22
 70
     1
102
RTVSPropertyOp23
 70
     1
102
RTVSPropertyOp24
 70
     1
102
RTVSPropertyOp25
 70
     1
102
RTVSPropertyOp26
 70
     1
102
RTVSPropertyOp27
 70
     1
102
RTVSPropertyOp28
 70
     1
102
RTVSPropertyOp29
 70
     1
102
RTVSPropertyOp30
 70
     1
102
RTVSPropertyOp31
 70
     1
102
RTVSPropertyOp32
 70
     1
  0
XRECORD
  5
4A9
102
{ACAD_REACTORS
330
4A8
102
}
330
4A8
100
AcDbXrecord
280
     1
102
RTVSPropertyOp0
 70
     1
102
RTVSPropertyOp1
 70
     1
102
RTVSPropertyOp2
 70
     1
102
RTVSPropertyOp3
 70
     1
102
RTVSPropertyOp4
 70
     1
102
RTVSPropertyOp5
 70
     1
102
RTVSPropertyOp6
 70
     1
102
RTVSPropertyOp7
 70
     1
102
RTVSPropertyOp8
 70
     1
102
RTVSPropertyOp9
 70
     1
102
RTVSPropertyOp10
 70
     1
102
RTVSPropertyOp11
 70
     1
102
RTVSPropertyOp12
 70
     1
102
RTVSPropertyOp13
 70
     1
102
RTVSPropertyOp14
 70
     1
102
RTVSPropertyOp15
 70
     1
102
RTVSPropertyOp16
 70
     1
102
RTVSPropertyOp17
 70
     1
102
RTVSPropertyOp18
 70
     1
102
RTVSPropertyOp19
 70
     1
102
RTVSPropertyOp20
 70
     1
102
RTVSPropertyOp21
 70
     1
102
RTVSPropertyOp22
 70
     1
102
RTVSPropertyOp23
 70
     1
102
RTVSPropertyOp24
 70
     1
102
RTVSPropertyOp25
 70
     1
102
RTVSPropertyOp26
 70
     1
102
RTVSPropertyOp27
 70
     1
102
RTVSPropertyOp28
 70
     1
102
RTVSPropertyOp29
 70
     1
102
RTVSPropertyOp30
 70
     1
102
RTVSPropertyOp31
 70
     1
102
RTVSPropertyOp32
 70
     1
  0
XRECORD
  5
49F
102
{ACAD_REACTORS
330
49E
102
}
330
49E
100
AcDbXrecord
280
     1
102
RTVSPropertyOp0
 70
     1
102
RTVSPropertyOp1
 70
     1
102
RTVSPropertyOp2
 70
     1
102
RTVSPropertyOp3
 70
     1
102
RTVSPropertyOp4
 70
     1
102
RTVSPropertyOp5
 70
     1
102
RTVSPropertyOp6
 70
     1
102
RTVSPropertyOp7
 70
     1
102
RTVSPropertyOp8
 70
     1
102
RTVSPropertyOp9
 70
     1
102
RTVSPropertyOp10
 70
     1
102
RTVSPropertyOp11
 70
     1
102
RTVSPropertyOp12
 70
     1
102
RTVSPropertyOp13
 70
     1
102
RTVSPropertyOp14
 70
     1
102
RTVSPropertyOp15
 70
     1
102
RTVSPropertyOp16
 70
     1
102
RTVSPropertyOp17
 70
     1
102
RTVSPropertyOp18
 70
     1
102
RTVSPropertyOp19
 70
     1
102
RTVSPropertyOp20
 70
     1
102
RTVSPropertyOp21
 70
     1
102
RTVSPropertyOp22
 70
     1
102
RTVSPropertyOp23
 70
     1
102
RTVSPropertyOp24
 70
     1
102
RTVSPropertyOp25
 70
     1
102
RTVSPropertyOp26
 70
     1
102
RTVSPropertyOp27
 70
     1
102
RTVSPropertyOp28
 70
     1
102
RTVSPropertyOp29
 70
     1
102
RTVSPropertyOp30
 70
     1
102
RTVSPropertyOp31
 70
     1
102
RTVSPropertyOp32
 70
     1
  0
XRECORD
  5
4A7
102
{ACAD_REACTORS
330
4A6
102
}
330
4A6
100
AcDbXrecord
280
     1
102
RTVSPropertyOp0
 70
     1
102
RTVSPropertyOp1
 70
     1
102
RTVSPropertyOp2
 70
     1
102
RTVSPropertyOp3
 70
     1
102
RTVSPropertyOp4
 70
     1
102
RTVSPropertyOp5
 70
     1
102
RTVSPropertyOp6
 70
     1
102
RTVSPropertyOp7
 70
     1
102
RTVSPropertyOp8
 70
     1
102
RTVSPropertyOp9
 70
     1
102
RTVSPropertyOp10
 70
     1
102
RTVSPropertyOp11
 70
     1
102
RTVSPropertyOp12
 70
     1
102
RTVSPropertyOp13
 70
     1
102
RTVSPropertyOp14
 70
     1
102
RTVSPropertyOp15
 70
     1
102
RTVSPropertyOp16
 70
     1
102
RTVSPropertyOp17
 70
     1
102
RTVSPropertyOp18
 70
     1
102
RTVSPropertyOp19
 70
     1
102
RTVSPropertyOp20
 70
     1
102
RTVSPropertyOp21
 70
     1
102
RTVSPropertyOp22
 70
     1
102
RTVSPropertyOp23
 70
     1
102
RTVSPropertyOp24
 70
     1
102
RTVSPropertyOp25
 70
     1
102
RTVSPropertyOp26
 70
     1
102
RTVSPropertyOp27
 70
     1
102
RTVSPropertyOp28
 70
     1
102
RTVSPropertyOp29
 70
     1
102
RTVSPropertyOp30
 70
     1
102
RTVSPropertyOp31
 70
     1
102
RTVSPropertyOp32
 70
     1
  0
ENDSEC
  0
EOF
