  0
SECTION
  2
HEADER
  9
$ACADVER
  1
AC1015
  9
$ACADMAINTVER
 70
     6
  9
$DWGCODEPAGE
  3
ANSI_932
  9
$INSBASE
 10
0.0
 20
0.0
 30
0.0
  9
$EXTMIN
 10
0.0
 20
0.0
 30
0.0
  9
$EXTMAX
 10
1050.0
 20
1485.0
 30
0.0
  9
$LIMMIN
 10
0.0
 20
0.0
  9
$LIMMAX
 10
12.0
 20
9.0
  9
$ORTHOMODE
 70
     0
  9
$REGENMODE
 70
     1
  9
$FILLMODE
 70
     1
  9
$QTEXTMODE
 70
     0
  9
$MIRRTEXT
 70
     1
  9
$LTSCALE
 40
1.0
  9
$ATTMODE
 70
     1
  9
$TEXTSIZE
 40
0.2
  9
$TRACEWID
 40
0.05
  9
$TEXTSTYLE
  7
Standard
  9
$CLAYER
  8
0
  9
$CELTYPE
  6
ByLayer
  9
$CECOLOR
 62
   256
  9
$CELTSCALE
 40
1.0
  9
$DISPSILH
 70
     0
  9
$DIMSCALE
 40
1.0
  9
$DIMASZ
 40
0.18
  9
$DIMEXO
 40
0.0625
  9
$DIMDLI
 40
0.38
  9
$DIMRND
 40
0.0
  9
$DIMDLE
 40
0.0
  9
$DIMEXE
 40
0.18
  9
$DIMTP
 40
0.0
  9
$DIMTM
 40
0.0
  9
$DIMTXT
 40
0.18
  9
$DIMCEN
 40
0.09
  9
$DIMTSZ
 40
0.0
  9
$DIMTOL
 70
     0
  9
$DIMLIM
 70
     0
  9
$DIMTIH
 70
     1
  9
$DIMTOH
 70
     1
  9
$DIMSE1
 70
     0
  9
$DIMSE2
 70
     0
  9
$DIMTAD
 70
     0
  9
$DIMZIN
 70
     0
  9
$DIMBLK
  1

  9
$DIMASO
 70
     1
  9
$DIMSHO
 70
     1
  9
$DIMPOST
  1

  9
$DIMAPOST
  1

  9
$DIMALT
 70
     0
  9
$DIMALTD
 70
     2
  9
$DIMALTF
 40
25.4
  9
$DIMLFAC
 40
1.0
  9
$DIMTOFL
 70
     0
  9
$DIMTVP
 40
0.0
  9
$DIMTIX
 70
     0
  9
$DIMSOXD
 70
     0
  9
$DIMSAH
 70
     0
  9
$DIMBLK1
  1

  9
$DIMBLK2
  1

  9
$DIMSTYLE
  2
Standard
  9
$DIMCLRD
 70
     0
  9
$DIMCLRE
 70
     0
  9
$DIMCLRT
 70
     0
  9
$DIMTFAC
 40
1.0
  9
$DIMGAP
 40
0.09
  9
$DIMJUST
 70
     0
  9
$DIMSD1
 70
     0
  9
$DIMSD2
 70
     0
  9
$DIMTOLJ
 70
     1
  9
$DIMTZIN
 70
     0
  9
$DIMALTZ
 70
     0
  9
$DIMALTTZ
 70
     0
  9
$DIMUPT
 70
     0
  9
$DIMDEC
 70
     4
  9
$DIMTDEC
 70
     4
  9
$DIMALTU
 70
     2
  9
$DIMALTTD
 70
     2
  9
$DIMTXSTY
  7
Standard
  9
$DIMAUNIT
 70
     0
  9
$DIMADEC
 70
     0
  9
$DIMALTRND
 40
0.0
  9
$DIMAZIN
 70
     0
  9
$DIMDSEP
 70
    46
  9
$DIMATFIT
 70
     3
  9
$DIMFRAC
 70
     0
  9
$DIMLDRBLK
  1

  9
$DIMLUNIT
 70
     2
  9
$DIMLWD
 70
    -2
  9
$DIMLWE
 70
    -2
  9
$DIMTMOVE
 70
     0
  9
$LUNITS
 70
     2
  9
$LUPREC
 70
     4
  9
$SKETCHINC
 40
0.1
  9
$FILLETRAD
 40
0.5
  9
$AUNITS
 70
     0
  9
$AUPREC
 70
     0
  9
$MENU
  1
.
  9
$ELEVATION
 40
0.0
  9
$PELEVATION
 40
0.0
  9
$THICKNESS
 40
0.0
  9
$LIMCHECK
 70
     0
  9
$CHAMFERA
 40
0.5
  9
$CHAMFERB
 40
0.5
  9
$CHAMFERC
 40
1.0
  9
$CHAMFERD
 40
0.0
  9
$SKPOLY
 70
     0
  9
$TDCREATE
 40
2456549.455971123
  9
$TDUCREATE
 40
2456549.080971123
  9
$TDUPDATE
 40
2456549.455972026
  9
$TDUUPDATE
 40
2456549.080972026
  9
$TDINDWG
 40
0.0000000116
  9
$TDUSRTIMER
 40
0.0000000116
  9
$USRTIMER
 70
     1
  9
$ANGBASE
 50
0.0
  9
$ANGDIR
 70
     0
  9
$PDMODE
 70
     0
  9
$PDSIZE
 40
0.0
  9
$PLINEWID
 40
0.0
  9
$SPLFRAME
 70
     0
  9
$SPLINETYPE
 70
     6
  9
$SPLINESEGS
 70
     8
  9
$HANDSEED
  5
3C1
  9
$SURFTAB1
 70
     6
  9
$SURFTAB2
 70
     6
  9
$SURFTYPE
 70
     6
  9
$SURFU
 70
     6
  9
$SURFV
 70
     6
  9
$UCSBASE
  2

  9
$UCSNAME
  2

  9
$UCSORG
 10
0.0
 20
0.0
 30
0.0
  9
$UCSXDIR
 10
1.0
 20
0.0
 30
0.0
  9
$UCSYDIR
 10
0.0
 20
1.0
 30
0.0
  9
$UCSORTHOREF
  2

  9
$UCSORTHOVIEW
 70
     0
  9
$UCSORGTOP
 10
0.0
 20
0.0
 30
0.0
  9
$UCSORGBOTTOM
 10
0.0
 20
0.0
 30
0.0
  9
$UCSORGLEFT
 10
0.0
 20
0.0
 30
0.0
  9
$UCSORGRIGHT
 10
0.0
 20
0.0
 30
0.0
  9
$UCSORGFRONT
 10
0.0
 20
0.0
 30
0.0
  9
$UCSORGBACK
 10
0.0
 20
0.0
 30
0.0
  9
$PUCSBASE
  2

  9
$PUCSNAME
  2

  9
$PUCSORG
 10
0.0
 20
0.0
 30
0.0
  9
$PUCSXDIR
 10
1.0
 20
0.0
 30
0.0
  9
$PUCSYDIR
 10
0.0
 20
1.0
 30
0.0
  9
$PUCSORTHOREF
  2

  9
$PUCSORTHOVIEW
 70
     0
  9
$PUCSORGTOP
 10
0.0
 20
0.0
 30
0.0
  9
$PUCSORGBOTTOM
 10
0.0
 20
0.0
 30
0.0
  9
$PUCSORGLEFT
 10
0.0
 20
0.0
 30
0.0
  9
$PUCSORGRIGHT
 10
0.0
 20
0.0
 30
0.0
  9
$PUCSORGFRONT
 10
0.0
 20
0.0
 30
0.0
  9
$PUCSORGBACK
 10
0.0
 20
0.0
 30
0.0
  9
$USERI1
 70
     0
  9
$USERI2
 70
     0
  9
$USERI3
 70
     0
  9
$USERI4
 70
     0
  9
$USERI5
 70
     0
  9
$USERR1
 40
18.1
  9
$USERR2
 40
0.0
  9
$USERR3
 40
0.0
  9
$USERR4
 40
0.0
  9
$USERR5
 40
0.0
  9
$WORLDVIEW
 70
     1
  9
$SHADEDGE
 70
     3
  9
$SHADEDIF
 70
    70
  9
$TILEMODE
 70
     1
  9
$MAXACTVP
 70
    64
  9
$PINSBASE
 10
0.0
 20
0.0
 30
0.0
  9
$PLIMCHECK
 70
     0
  9
$PEXTMIN
 10
1.00000000000000E+20
 20
1.00000000000000E+20
 30
1.00000000000000E+20
  9
$PEXTMAX
 10
-1.00000000000000E+20
 20
-1.00000000000000E+20
 30
-1.00000000000000E+20
  9
$PLIMMIN
 10
0.0
 20
0.0
  9
$PLIMMAX
 10
12.0
 20
9.0
  9
$UNITMODE
 70
     0
  9
$VISRETAIN
 70
     1
  9
$PLINEGEN
 70
     0
  9
$PSLTSCALE
 70
     1
  9
$TREEDEPTH
 70
  3020
  9
$CMLSTYLE
  2
Standard
  9
$CMLJUST
 70
     0
  9
$CMLSCALE
 40
1.0
  9
$PROXYGRAPHICS
 70
     1
  9
$MEASUREMENT
 70
     1
  9
$CELWEIGHT
370
    -1
  9
$ENDCAPS
280
     0
  9
$JOINSTYLE
280
     0
  9
$LWDISPLAY
290
     0
  9
$INSUNITS
 70
     4
  9
$HYPERLINKBASE
  1

  9
$STYLESHEET
  1

  9
$XEDIT
290
     1
  9
$CEPSNTYPE
380
     0
  9
$PSTYLEMODE
290
     1
  9
$FINGERPRINTGUID
  2
{9A0D3D6D-5FBD-426E-AD95-1126AB375DEB}
  9
$VERSIONGUID
  2
{FAEB1C32-E019-11D5-929B-00C0DF256EC4}
  9
$EXTNAMES
290
     1
  9
$PSVPSCALE
 40
0.0
  9
$OLESTARTUP
290
     0
  0
ENDSEC
  0
SECTION
  2
CLASSES
  0
CLASS
  1
ACDBDICTIONARYWDFLT
  2
AcDbDictionaryWithDefault
  3
ObjectDBX Classes
 90
        0
280
     0
281
     0
  0
CLASS
  1
VISUALSTYLE
  2
AcDbVisualStyle
  3
ObjectDBX Classes
 90
     4095
280
     0
281
     0
  0
CLASS
  1
MATERIAL
  2
AcDbMaterial
  3
ObjectDBX Classes
 90
     1153
280
     0
281
     0
  0
CLASS
  1
DICTIONARYVAR
  2
AcDbDictionaryVar
  3
ObjectDBX Classes
 90
        0
280
     0
281
     0
  0
CLASS
  1
ACDBPLACEHOLDER
  2
AcDbPlaceHolder
  3
ObjectDBX Classes
 90
        0
280
     0
281
     0
  0
CLASS
  1
LAYOUT
  2
AcDbLayout
  3
ObjectDBX Classes
 90
        0
280
     0
281
     0
  0
ENDSEC
  0
SECTION
  2
TABLES
  0
TABLE
  2
VPORT
  5
8
330
0
100
AcDbSymbolTable
 70
     1
  0
VPORT
  5
29
330
8
100
AcDbSymbolTableRecord
100
AcDbViewportTableRecord
  2
*Active
 70
     0
 10
0.0
 20
0.0
 11
1.0
 21
1.0
 12
525.0
 22
742.5
 13
0.0
 23
0.0
 14
0.5
 24
0.5
 15
0.5
 25
0.5
 16
0.0
 26
0.0
 36
1.0
 17
0.0
 27
0.0
 37
0.0
 40
1633.5
 41
1.60267857142857
 42
50.0
 43
0.0
 44
0.0
 50
0.0
 51
0.0
 71
     0
 72
   100
 73
     1
 74
     3
 75
     0
 76
     0
 77
     0
 78
     0
281
     0
 65
     1
110
0.0
120
0.0
130
0.0
111
1.0
121
0.0
131
0.0
112
0.0
122
1.0
132
0.0
 79
     0
146
0.0
  0
ENDTAB
  0
TABLE
  2
LTYPE
  5
5
330
0
100
AcDbSymbolTable
 70
     8
  0
LTYPE
  5
14
330
5
100
AcDbSymbolTableRecord
100
AcDbLinetypeTableRecord
  2
ByBlock
 70
     0
  3

 72
    65
 73
     0
 40
0.0
  0
LTYPE
  5
15
330
5
100
AcDbSymbolTableRecord
100
AcDbLinetypeTableRecord
  2
ByLayer
 70
     0
  3

 72
    65
 73
     0
 40
0.0
  0
LTYPE
  5
16
330
5
100
AcDbSymbolTableRecord
100
AcDbLinetypeTableRecord
  2
Continuous
 70
     0
  3
Solid line
 72
    65
 73
     0
 40
0.0
  0
LTYPE
  5
3F
330
5
100
AcDbSymbolTableRecord
100
AcDbLinetypeTableRecord
  2
DASHED
 70
     0
  3
Dashed
 72
    65
 73
     2
 40
15.0
 49
7.0
 74
     0
 49
-8.0
 74
     0
  0
LTYPE
  5
40
330
5
100
AcDbSymbolTableRecord
100
AcDbLinetypeTableRecord
  2
DOTTED
 70
     0
  3
Dotted
 72
    65
 73
     2
 40
1.0
 49
0.0
 74
     0
 49
-1.0
 74
     0
  0
LTYPE
  5
41
330
5
100
AcDbSymbolTableRecord
100
AcDbLinetypeTableRecord
  2
DOT_CENTER
 70
     0
  3
Dot_Center
 72
    65
 73
     4
 40
14.0
 49
12.0
 74
     0
 49
-1.0
 74
     0
 49
0.0
 74
     0
 49
-1.0
 74
     0
  0
LTYPE
  5
42
330
5
100
AcDbSymbolTableRecord
100
AcDbLinetypeTableRecord
  2
LONG_DASHED
 70
     0
  3
Long_Dashed
 72
    65
 73
     2
 40
15.0
 49
10.0
 74
     0
 49
-5.0
 74
     0
  0
LTYPE
  5
43
330
5
100
AcDbSymbolTableRecord
100
AcDbLinetypeTableRecord
  2
DASH_CENTER
 70
     0
  3
Dash_Center
 72
    65
 73
     4
 40
14.0
 49
11.0
 74
     0
 49
-1.0
 74
     0
 49
1.0
 74
     0
 49
-1.0
 74
     0
  0
LTYPE
  5
44
330
5
100
AcDbSymbolTableRecord
100
AcDbLinetypeTableRecord
  2
PHANTOM
 70
     0
  3
Phantom
 72
    65
 73
     6
 40
13.0
 49
10.0
 74
     0
 49
-1.0
 74
     0
 49
0.0
 74
     0
 49
-1.0
 74
     0
 49
0.0
 74
     0
 49
-1.0
 74
     0
  0
LTYPE
  5
45
330
5
100
AcDbSymbolTableRecord
100
AcDbLinetypeTableRecord
  2
CENTER_DASH_DASH
 70
     0
  3
Center_Dash_Dash
 72
    65
 73
     6
 40
14.0
 49
9.0
 74
     0
 49
-1.0
 74
     0
 49
1.0
 74
     0
 49
-1.0
 74
     0
 49
1.0
 74
     0
 49
-1.0
 74
     0
  0
ENDTAB
  0
TABLE
  2
LAYER
  5
2
330
0
100
AcDbSymbolTable
 70
     2
  0
LAYER
  5
10
330
2
100
AcDbSymbolTableRecord
100
AcDbLayerTableRecord
  2
0
 70
     0
 62
     7
  6
Continuous
370
    -3
390
F
  0
LAYER
  5
46
330
2
100
AcDbSymbolTableRecord
100
AcDbLayerTableRecord
  2
1
 70
     0
 62
     7
  6
Continuous
370
    -3
390
F
  0
ENDTAB
  0
TABLE
  2
STYLE
  5
3
330
0
100
AcDbSymbolTable
 70
     3
  0
STYLE
  5
11
330
3
100
AcDbSymbolTableRecord
100
AcDbTextStyleTableRecord
  2
Standard
 70
     0
 40
0.0
 41
1.0
 50
0.0
 71
     0
 42
0.2
  3
txt
  4

  0
STYLE
  5
2B2
330
3
100
AcDbSymbolTableRecord
100
AcDbTextStyleTableRecord
  2
CONVERTER_11
 70
     0
 40
0.0
 41
0.89
 50
0.0
 71
     0
 42
0.2
  3
MS Mincho.ttf
  4

1001
ACAD
1000
MS Mincho
1071
    32785
  0
STYLE
  5
2F5
330
3
100
AcDbSymbolTableRecord
100
AcDbTextStyleTableRecord
  2
CONVERTER_12
 70
     0
 40
0.0
 41
0.9
 50
0.0
 71
     0
 42
0.2
  3
txt.shx
  4

  0
ENDTAB
  0
TABLE
  2
VIEW
  5
6
330
0
100
AcDbSymbolTable
 70
     0
  0
ENDTAB
  0
TABLE
  2
UCS
  5
7
330
0
100
AcDbSymbolTable
 70
     0
  0
ENDTAB
  0
TABLE
  2
APPID
  5
9
330
0
100
AcDbSymbolTable
 70
     1
  0
APPID
  5
12
330
9
100
AcDbSymbolTableRecord
100
AcDbRegAppTableRecord
  2
ACAD
 70
     0
  0
ENDTAB
  0
TABLE
  2
DIMSTYLE
  5
A
330
0
100
AcDbSymbolTable
 70
    14
100
AcDbDimStyleTable
  0
DIMSTYLE
105
27
330
A
100
AcDbSymbolTableRecord
100
AcDbDimStyleTableRecord
  2
Standard
 70
     0
178
     0
340
11
  0
DIMSTYLE
105
310
102
{ACAD_REACTORS
330
311
102
}
330
A
100
AcDbSymbolTableRecord
100
AcDbDimStyleTableRecord
  2
ME10_DIM_10
 70
     0
 41
17.5
 42
0.0
 44
5.0
 73
     0
 74
     0
 77
     1
 78
     8
140
17.5
147
5.0
172
     1
173
     1
174
     1
175
     1
176
     2
177
     2
271
     2
178
     7
271
     2
340
2F5
  0
DIMSTYLE
105
31B
102
{ACAD_REACTORS
330
31C
102
}
330
A
100
AcDbSymbolTableRecord
100
AcDbDimStyleTableRecord
  2
ME10_DIM_11
 70
     0
 41
17.5
 42
0.0
 44
5.0
 73
     0
 74
     0
 77
     1
 78
     8
140
17.5
147
5.0
172
     1
173
     1
174
     1
175
     1
176
     2
177
     2
271
     2
178
     7
271
     2
340
2F5
  0
DIMSTYLE
105
326
102
{ACAD_REACTORS
330
327
102
}
330
A
100
AcDbSymbolTableRecord
100
AcDbDimStyleTableRecord
  2
ME10_DIM_12
 70
     0
 41
17.5
 42
0.0
 44
5.0
 47
2.0
 48
3.0
 71
     1
 73
     0
 74
     0
 77
     1
 78
     8
140
17.5
146
0.6
147
5.0
172
     1
173
     1
174
     1
175
     1
176
     2
177
     2
271
     2
178
     7
271
     2
272
     0
340
2F5
  0
DIMSTYLE
105
331
102
{ACAD_REACTORS
330
332
102
}
330
A
100
AcDbSymbolTableRecord
100
AcDbDimStyleTableRecord
  2
ME10_DIM_13
 70
     0
 41
17.5
 42
0.0
 44
5.0
 73
     0
 74
     0
 77
     1
 78
     8
140
17.5
147
5.0
172
     1
173
     1
174
     1
175
     1
176
     2
177
     2
271
     2
178
     7
271
     2
340
2F5
  0
DIMSTYLE
105
33C
102
{ACAD_REACTORS
330
33D
102
}
330
A
100
AcDbSymbolTableRecord
100
AcDbDimStyleTableRecord
  2
ME10_DIM_14
 70
     0
 41
17.5
 42
0.0
 44
5.0
 73
     0
 74
     0
 77
     1
 78
     8
140
17.5
147
5.0
172
     1
173
     1
174
     1
175
     1
176
     2
177
     2
271
     2
178
     7
271
     2
340
2F5
  0
DIMSTYLE
105
347
102
{ACAD_REACTORS
330
348
102
}
330
A
100
AcDbSymbolTableRecord
100
AcDbDimStyleTableRecord
  2
ME10_DIM_15
 70
     0
 41
17.5
 42
0.0
 44
5.0
 73
     0
 74
     0
 77
     1
 78
     8
140
17.5
147
5.0
172
     1
173
     1
174
     1
175
     1
176
     2
177
     2
271
     2
178
     7
271
     2
340
2F5
  0
DIMSTYLE
105
352
102
{ACAD_REACTORS
330
353
102
}
330
A
100
AcDbSymbolTableRecord
100
AcDbDimStyleTableRecord
  2
ME10_DIM_16
 70
     0
  3
最小<>
 41
17.5
 42
0.0
 44
5.0
 73
     0
 74
     0
 77
     1
 78
     8
140
17.5
147
5.0
172
     1
173
     1
174
     1
175
     1
176
     2
177
     2
271
     2
178
     7
271
     2
340
2B2
  0
DIMSTYLE
105
35D
102
{ACAD_REACTORS
330
35E
102
}
330
A
100
AcDbSymbolTableRecord
100
AcDbDimStyleTableRecord
  2
ME10_DIM_17
 70
     0
  3
最大<>
 41
17.5
 42
0.0
 44
5.0
 73
     0
 74
     0
 77
     1
 78
     8
140
17.5
147
5.0
172
     1
173
     1
174
     1
175
     1
176
     2
177
     2
271
     2
178
     7
271
     2
340
2B2
  0
DIMSTYLE
105
368
102
{ACAD_REACTORS
330
369
102
}
330
A
100
AcDbSymbolTableRecord
100
AcDbDimStyleTableRecord
  2
ME10_DIM_18
 70
     0
 41
17.5
 42
0.0
 44
5.0
 73
     0
 74
     0
 77
     1
 78
     8
140
17.5
147
5.0
172
     1
173
     1
174
     1
175
     1
176
     2
177
     2
271
     2
178
     7
271
     2
340
2F5
  0
DIMSTYLE
105
373
102
{ACAD_REACTORS
330
374
102
}
330
A
100
AcDbSymbolTableRecord
100
AcDbDimStyleTableRecord
  2
ME10_DIM_19
 70
     0
 41
17.5
 42
0.0
 44
5.0
 73
     0
 74
     0
 77
     1
 78
     8
140
17.5
147
5.0
172
     1
173
     1
174
     1
175
     1
176
     2
177
     2
271
     2
178
     7
271
     2
340
2F5
  0
DIMSTYLE
105
37E
102
{ACAD_REACTORS
330
37F
102
}
330
A
100
AcDbSymbolTableRecord
100
AcDbDimStyleTableRecord
  2
ME10_DIM_20
 70
     0
 41
17.5
 42
0.0
 44
5.0
 73
     0
 74
     0
 77
     1
 78
     8
140
17.5
147
5.0
172
     1
173
     1
174
     1
175
     1
176
     2
177
     2
271
     2
178
     7
271
     2
340
2F5
  0
DIMSTYLE
105
389
102
{ACAD_REACTORS
330
38A
102
}
330
A
100
AcDbSymbolTableRecord
100
AcDbDimStyleTableRecord
  2
ME10_DIM_21
 70
     0
 41
17.5
 42
0.0
 44
5.0
 73
     0
 74
     0
 77
     1
 78
     8
140
17.5
147
5.0
172
     1
173
     1
174
     1
175
     1
176
     2
177
     2
271
     2
178
     7
271
     2
340
2F5
  0
DIMSTYLE
105
394
102
{ACAD_REACTORS
330
395
102
}
330
A
100
AcDbSymbolTableRecord
100
AcDbDimStyleTableRecord
  2
ME10_DIM_22
 70
     0
 41
17.5
 42
0.0
 44
5.0
 73
     0
 74
     0
 77
     1
 78
     8
140
17.5
147
5.0
172
     1
173
     1
174
     1
175
     1
176
     2
177
     2
271
     2
178
     7
271
     2
340
2F5
  0
ENDTAB
  0
TABLE
  2
BLOCK_RECORD
  5
1
330
0
100
AcDbSymbolTable
 70
    27
  0
BLOCK_RECORD
  5
1F
330
1
100
AcDbSymbolTableRecord
100
AcDbBlockTableRecord
  2
*Model_Space
340
22
  0
BLOCK_RECORD
  5
1B
330
1
100
AcDbSymbolTableRecord
100
AcDbBlockTableRecord
  2
*Paper_Space
340
1E
  0
BLOCK_RECORD
  5
23
330
1
100
AcDbSymbolTableRecord
100
AcDbBlockTableRecord
  2
*Paper_Space0
340
26
  0
BLOCK_RECORD
  5
47
330
1
100
AcDbSymbolTableRecord
100
AcDbBlockTableRecord
  2
87-163A-M21
340
0
102
{BLKREFS
331
6E
102
}
  0
BLOCK_RECORD
  5
4A
330
1
100
AcDbSymbolTableRecord
100
AcDbBlockTableRecord
  2
84-360A-M22
340
0
102
{BLKREFS
331
6F
102
}
  0
BLOCK_RECORD
  5
4D
330
1
100
AcDbSymbolTableRecord
100
AcDbBlockTableRecord
  2
82-20-M21
340
0
102
{BLKREFS
331
70
102
}
  0
BLOCK_RECORD
  5
50
330
1
100
AcDbSymbolTableRecord
100
AcDbBlockTableRecord
  2
35-186
340
0
102
{BLKREFS
331
71
102
}
  0
BLOCK_RECORD
  5
53
330
1
100
AcDbSymbolTableRecord
100
AcDbBlockTableRecord
  2
35-180
340
0
102
{BLKREFS
331
72
102
}
  0
BLOCK_RECORD
  5
56
330
1
100
AcDbSymbolTableRecord
100
AcDbBlockTableRecord
  2
88-212__1
340
0
102
{BLKREFS
331
73
102
}
  0
BLOCK_RECORD
  5
59
330
1
100
AcDbSymbolTableRecord
100
AcDbBlockTableRecord
  2
88-212__2
340
0
102
{BLKREFS
331
74
102
}
  0
BLOCK_RECORD
  5
5C
330
1
100
AcDbSymbolTableRecord
100
AcDbBlockTableRecord
  2
35-178
340
0
102
{BLKREFS
331
75
102
}
  0
BLOCK_RECORD
  5
5F
330
1
100
AcDbSymbolTableRecord
100
AcDbBlockTableRecord
  2
34-86
340
0
102
{BLKREFS
331
76
102
}
  0
BLOCK_RECORD
  5
62
330
1
100
AcDbSymbolTableRecord
100
AcDbBlockTableRecord
  2
61-100
340
0
102
{BLKREFS
331
77
102
}
  0
BLOCK_RECORD
  5
65
330
1
100
AcDbSymbolTableRecord
100
AcDbBlockTableRecord
  2
38-44
340
0
102
{BLKREFS
331
78
102
}
  0
BLOCK_RECORD
  5
68
330
1
100
AcDbSymbolTableRecord
100
AcDbBlockTableRecord
  2
開示A4
340
0
102
{BLKREFS
331
79
102
}
  0
BLOCK_RECORD
  5
6B
330
1
100
AcDbSymbolTableRecord
100
AcDbBlockTableRecord
  2
88-546A-M21
340
0
102
{BLKREFS
331
7A
102
}
  0
BLOCK_RECORD
  5
305
330
1
100
AcDbSymbolTableRecord
100
AcDbBlockTableRecord
  2
*D14
340
0
  0
BLOCK_RECORD
  5
312
330
1
100
AcDbSymbolTableRecord
100
AcDbBlockTableRecord
  2
*D15
340
0
  0
BLOCK_RECORD
  5
31D
330
1
100
AcDbSymbolTableRecord
100
AcDbBlockTableRecord
  2
*D16
340
0
  0
BLOCK_RECORD
  5
328
330
1
100
AcDbSymbolTableRecord
100
AcDbBlockTableRecord
  2
*D17
340
0
  0
BLOCK_RECORD
  5
333
330
1
100
AcDbSymbolTableRecord
100
AcDbBlockTableRecord
  2
*D18
340
0
  0
BLOCK_RECORD
  5
33E
330
1
100
AcDbSymbolTableRecord
100
AcDbBlockTableRecord
  2
*D19
340
0
  0
BLOCK_RECORD
  5
349
330
1
100
AcDbSymbolTableRecord
100
AcDbBlockTableRecord
  2
*D20
340
0
  0
BLOCK_RECORD
  5
354
330
1
100
AcDbSymbolTableRecord
100
AcDbBlockTableRecord
  2
*D21
340
0
  0
BLOCK_RECORD
  5
35F
330
1
100
AcDbSymbolTableRecord
100
AcDbBlockTableRecord
  2
*D22
340
0
  0
BLOCK_RECORD
  5
36A
330
1
100
AcDbSymbolTableRecord
100
AcDbBlockTableRecord
  2
*D23
340
0
  0
BLOCK_RECORD
  5
375
330
1
100
AcDbSymbolTableRecord
100
AcDbBlockTableRecord
  2
*D24
340
0
  0
BLOCK_RECORD
  5
380
330
1
100
AcDbSymbolTableRecord
100
AcDbBlockTableRecord
  2
*D25
340
0
  0
BLOCK_RECORD
  5
38B
330
1
100
AcDbSymbolTableRecord
100
AcDbBlockTableRecord
  2
*D26
340
0
  0
ENDTAB
  0
ENDSEC
  0
SECTION
  2
BLOCKS
  0
BLOCK
  5
20
330
1F
100
AcDbEntity
  8
0
100
AcDbBlockBegin
  2
*Model_Space
 70
     0
 10
0.0
 20
0.0
 30
0.0
  3
*Model_Space
  1

  0
ENDBLK
  5
21
330
1F
100
AcDbEntity
  8
0
100
AcDbBlockEnd
  0
BLOCK
  5
1C
330
1B
100
AcDbEntity
 67
     1
  8
0
100
AcDbBlockBegin
  2
*Paper_Space
 70
     0
 10
0.0
 20
0.0
 30
0.0
  3
*Paper_Space
  1

  0
ENDBLK
  5
1D
330
1B
100
AcDbEntity
 67
     1
  8
0
100
AcDbBlockEnd
  0
BLOCK
  5
24
330
23
100
AcDbEntity
  8
0
100
AcDbBlockBegin
  2
*Paper_Space0
 70
     0
 10
0.0
 20
0.0
 30
0.0
  3
*Paper_Space0
  1

  0
ENDBLK
  5
25
330
23
100
AcDbEntity
  8
0
100
AcDbBlockEnd
  0
BLOCK
  5
48
330
47
100
AcDbEntity
  8
0
100
AcDbBlockBegin
  2
87-163A-M21
 70
     0
 10
4289.914153234306
 20
2260.4099997565
 30
0.0
  3
87-163A-M21
  1

  0
LINE
  5
7B
330
47
100
AcDbEntity
  8
1
  6
Continuous
 62
     7
100
AcDbLine
 10
322.494076637365
 20
621.9792738047195
 30
0.0
 11
346.7173936789052
 21
621.9792738047195
 31
0.0
  0
LINE
  5
7C
330
47
100
AcDbEntity
  8
1
  6
Continuous
 62
     7
100
AcDbLine
 10
320.2493324669752
 20
613.3278346477039
 30
0.0
 11
348.962137849295
 21
613.3278346477039
 31
0.0
  0
LINE
  5
7D
330
47
100
AcDbEntity
  8
1
  6
Continuous
 62
     7
100
AcDbLine
 10
309.6057351581351
 20
593.136331486334
 30
0.0
 11
309.6057351581351
 21
571.636331486334
 31
0.0
  0
LINE
  5
7E
330
47
100
AcDbEntity
  8
1
  6
Continuous
 62
     7
100
AcDbLine
 10
359.6057351581351
 20
571.636331486334
 30
0.0
 11
359.6057351581351
 21
593.136331486334
 31
0.0
  0
LINE
  5
7F
330
47
100
AcDbEntity
  8
1
  6
Continuous
 62
     7
100
AcDbLine
 10
359.1057351581351
 20
571.136331486334
 30
0.0
 11
349.9306374594479
 21
571.136331486334
 31
0.0
  0
LINE
  5
80
330
47
100
AcDbEntity
  8
1
  6
Continuous
 62
     7
100
AcDbLine
 10
319.2808328568203
 20
571.136331486334
 30
0.0
 11
310.1057351581351
 21
571.136331486334
 31
0.0
  0
LINE
  5
81
330
47
100
AcDbEntity
  8
1
  6
PHANTOM
 62
     5
100
AcDbLine
 10
855.1241295024286
 20
572.8281997816969
 30
0.0
 11
851.2477583039611
 21
564.5152949201204
 31
0.0
  0
LINE
  5
82
330
47
100
AcDbEntity
  8
1
  6
PHANTOM
 62
     5
100
AcDbLine
 10
850.6651948878916
 20
564.2436411378465
 30
0.0
 11
847.3156565078275
 21
565.141147241802
 31
0.0
  0
LINE
  5
83
330
47
100
AcDbEntity
  8
1
  6
PHANTOM
 62
     5
100
AcDbLine
 10
759.1630048542195
 20
662.8141017677906
 30
0.0
 11
758.6827024558363
 21
661.7840899505206
 31
0.0
  0
LINE
  5
84
330
47
100
AcDbEntity
  8
1
  6
PHANTOM
 62
     5
100
AcDbLine
 10
849.6057351581351
 20
586.136331486334
 30
0.0
 11
849.6057351581351
 21
585.136331486334
 31
0.0
  0
LINE
  5
85
330
47
100
AcDbEntity
  8
1
  6
Continuous
 62
     7
100
AcDbLine
 10
849.6057351581351
 20
585.136331486334
 30
0.0
 11
846.6261695542855
 21
585.136331486334
 31
0.0
  0
LINE
  5
86
330
47
100
AcDbEntity
  8
1
  6
Continuous
 62
     7
100
AcDbLine
 10
724.6057351581351
 20
626.136331486334
 30
0.0
 11
724.6057351581351
 21
624.9998391908882
 31
0.0
  0
LINE
  5
87
330
47
100
AcDbEntity
  8
1
  6
PHANTOM
 62
     4
100
AcDbLine
 10
824.6057351581351
 20
610.1820930663846
 30
0.0
 11
824.6057351581351
 21
568.136331486334
 31
0.0
  0
LINE
  5
88
330
47
100
AcDbEntity
  8
1
  6
Continuous
 62
     7
100
AcDbLine
 10
799.6057351581351
 20
571.636331486334
 30
0.0
 11
799.6057351581351
 21
594.136331486334
 31
0.0
  0
LINE
  5
89
330
47
100
AcDbEntity
  8
1
  6
Continuous
 62
     7
100
AcDbLine
 10
821.9810752523574
 20
571.136331486334
 30
0.0
 11
800.1057351581351
 21
571.136331486334
 31
0.0
  0
LINE
  5
8A
330
47
100
AcDbEntity
  8
1
  6
Continuous
 62
     7
100
AcDbLine
 10
849.6057351581351
 20
585.136331486334
 30
0.0
 11
849.6057351581351
 21
575.9640558196345
 31
0.0
  0
LINE
  5
8B
330
47
100
AcDbEntity
  8
1
  6
Continuous
 62
     7
100
AcDbLine
 10
849.1925592469686
 20
575.4716519431283
 30
0.0
 11
827.1905205823653
 21
571.5920988959681
 31
0.0
  0
LINE
  5
8C
330
47
100
AcDbEntity
  8
1
  6
Continuous
 62
     7
100
AcDbLine
 10
824.6057351581351
 20
571.136331486334
 30
0.0
 11
821.9810752523574
 21
571.136331486334
 31
0.0
  0
LINE
  5
8D
330
47
100
AcDbEntity
  8
1
  6
Continuous
 62
     7
100
AcDbLine
 10
820.6057351581351
 20
607.0210521524666
 30
0.0
 11
818.6057351581351
 21
607.5363314863341
 31
0.0
  0
LINE
  5
8E
330
47
100
AcDbEntity
  8
1
  6
Continuous
 62
     7
100
AcDbLine
 10
791.6057351581351
 20
618.9407315902502
 30
0.0
 11
790.1057351581351
 21
619.9265398759169
 31
0.0
  0
LINE
  5
8F
330
47
100
AcDbEntity
  8
1
  6
Continuous
 62
     7
100
AcDbLine
 10
352.7846640529558
 20
1106.305056013177
 30
0.0
 11
350.2730473767633
 21
1108.305056013177
 31
0.0
  0
LINE
  5
90
330
47
100
AcDbEntity
  8
1
  6
Continuous
 62
     7
100
AcDbLine
 10
352.2808633498091
 20
1079.305056013177
 30
0.0
 11
349.7143983573626
 21
1077.805056013177
 31
0.0
  0
LINE
  5
91
330
47
100
AcDbEntity
  8
1
  6
Continuous
 62
     7
100
AcDbLine
 10
316.9306069664601
 20
1079.305056013177
 30
0.0
 11
319.4970719589066
 21
1077.805056013177
 31
0.0
  0
LINE
  5
92
330
47
100
AcDbEntity
  8
1
  6
Continuous
 62
     7
100
AcDbLine
 10
318.9384229395057
 20
1108.305056013177
 30
0.0
 11
316.426806263313
 21
1106.305056013177
 31
0.0
  0
ARC
  5
93
330
47
100
AcDbEntity
  8
1
  6
Continuous
 62
     7
100
AcDbCircle
 10
320.2493324669752
 20
614.3278346477039
 30
0.0
 40
1.000000000000097
100
AcDbArc
 50
177.8211701324962
 51
270.0
  0
ARC
  5
94
330
47
100
AcDbEntity
  8
1
  6
Continuous
 62
     7
100
AcDbCircle
 10
348.962137849295
 20
614.3278346477039
 30
0.0
 40
1.0
100
AcDbArc
 50
270.0
 51
2.17882986750383
  0
ARC
  5
95
330
47
100
AcDbEntity
  8
1
  6
Continuous
 62
     7
100
AcDbCircle
 10
346.7173936789052
 20
618.9792738047195
 30
0.0
 40
2.999999999999976
100
AcDbArc
 50
5.66184217333672
 51
90.0
  0
ARC
  5
96
330
47
100
AcDbEntity
  8
1
  6
Continuous
 62
     7
100
AcDbCircle
 10
322.494076637365
 20
618.9792738047195
 30
0.0
 40
3.0
100
AcDbArc
 50
90.0
 51
174.3381578266629
  0
ARC
  5
97
330
47
100
AcDbEntity
  8
1
  6
Continuous
 62
     7
100
AcDbCircle
 10
100.1421568677704
 20
604.8612056619596
 30
0.0
 40
250.0000000000001
100
AcDbArc
 50
2.17882986749693
 51
3.04386631985166
  0
ARC
  5
98
330
47
100
AcDbEntity
  8
1
  6
Continuous
 62
     7
100
AcDbCircle
 10
569.0693134484998
 20
604.8612056619596
 30
0.0
 40
250.0000000000001
100
AcDbArc
 50
176.9561336801484
 51
177.8211701325031
  0
ARC
  5
99
330
47
100
AcDbEntity
  8
1
  6
Continuous
 62
     7
100
AcDbCircle
 10
344.3867495103498
 20
616.8088189038965
 30
0.0
 40
25.0000000000004
100
AcDbArc
 50
174.3381578266604
 51
176.9561336801485
  0
ARC
  5
9A
330
47
100
AcDbEntity
  8
1
  6
Continuous
 62
     7
100
AcDbCircle
 10
324.8247208059206
 20
616.8088189038965
 30
0.0
 40
25.00000000000011
100
AcDbArc
 50
3.04386631985159
 51
5.66184217333954
  0
ARC
  5
9B
330
47
100
AcDbEntity
  8
1
  6
Continuous
 62
     7
100
AcDbCircle
 10
399.6057351581351
 20
593.136331486334
 30
0.0
 40
89.99999999999989
100
AcDbArc
 50
160.1874855212811
 51
180.0
  0
ARC
  5
9C
330
47
100
AcDbEntity
  8
1
  6
Continuous
 62
     7
100
AcDbCircle
 10
334.6057351581351
 20
561.136331486334
 30
0.0
 40
70.0000000000001
100
AcDbArc
 50
80.1496327738922
 51
99.85036722610776
  0
ARC
  5
9D
330
47
100
AcDbEntity
  8
1
  6
Continuous
 62
     7
100
AcDbCircle
 10
269.6057351581351
 20
593.136331486334
 30
0.0
 40
90.0
100
AcDbArc
 50
0.0
 51
19.81251447871888
  0
ARC
  5
9E
330
47
100
AcDbEntity
  8
1
  6
PHANTOM
 62
     5
100
AcDbCircle
 10
763.6945437894026
 20
660.7010104590875
 30
0.0
 40
4.999999999999909
100
AcDbArc
 50
64.99999999999837
 51
90.0
  0
ARC
  5
9F
330
47
100
AcDbEntity
  8
1
  6
PHANTOM
 62
     5
100
AcDbCircle
 10
800.9239954877505
 20
608.0325386164338
 30
0.0
 40
14.00000000000035
100
AcDbArc
 50
20.27842980764776
 51
41.49354248247101
  0
ARC
  5
A0
330
47
100
AcDbEntity
  8
1
  6
PHANTOM
 62
     5
100
AcDbCircle
 10
661.6043417226736
 20
484.8009108791554
 30
0.0
 40
200.0000000000005
100
AcDbArc
 50
41.49354248247091
 51
60.68838098644657
  0
ARC
  5
A1
330
47
100
AcDbEntity
  8
1
  6
PHANTOM
 62
     5
100
AcDbCircle
 10
681.1330476564806
 20
483.6473106344303
 30
0.0
 40
200.3571428571429
100
AcDbArc
 50
64.4280540212621
 51
64.99999999999788
  0
ARC
  5
A2
330
47
100
AcDbEntity
  8
1
  6
PHANTOM
 62
     5
100
AcDbCircle
 10
763.6945437894026
 20
660.7010104590875
 30
0.0
 40
5.0
100
AcDbArc
 50
90.0
 51
155.0000000000031
  0
ARC
  5
A3
330
47
100
AcDbEntity
  8
1
  6
PHANTOM
 62
     5
100
AcDbCircle
 10
664.1352138532563
 20
470.2347098351131
 30
0.0
 40
220.0000000000005
100
AcDbArc
 50
47.95175246216937
 51
61.94185502721909
  0
ARC
  5
A4
330
47
100
AcDbEntity
  8
1
  6
Continuous
 62
     7
100
AcDbCircle
 10
785.6057351581351
 20
594.136331486334
 30
0.0
 40
14.0
100
AcDbArc
 50
0.0
 51
66.49354248247339
  0
ARC
  5
A5
330
47
100
AcDbEntity
  8
1
  6
Continuous
 62
     7
100
AcDbCircle
 10
729.6057351581351
 20
430.7791886291913
 30
0.0
 40
200.3571428571429
100
AcDbArc
 50
89.42805402126429
 51
90.0
  0
ARC
  5
A6
330
47
100
AcDbEntity
  8
1
  6
Continuous
 62
     7
100
AcDbCircle
 10
729.6057351581351
 20
626.136331486334
 30
0.0
 40
5.0
100
AcDbArc
 50
90.0
 51
180.0
  0
ARC
  5
A7
330
47
100
AcDbEntity
  8
1
  6
Continuous
 62
     7
100
AcDbCircle
 10
711.4191843694077
 20
423.5715177583217
 30
0.0
 40
200.0000000000001
100
AcDbArc
 50
66.49354248247299
 51
85.68838098644866
  0
ARC
  5
A8
330
47
100
AcDbEntity
  8
1
  6
Continuous
 62
     7
100
AcDbCircle
 10
719.8688760547482
 20
411.4396491050799
 30
0.0
 40
219.9999999999998
100
AcDbArc
 50
71.38191495189238
 51
86.94185502722127
  0
ARC
  5
A9
330
47
100
AcDbEntity
  8
1
  6
Continuous
 62
     7
100
AcDbCircle
 10
846.6261695542855
 20
587.636331486334
 30
0.0
 40
2.5
100
AcDbArc
 50
180.0
 51
270.0
  0
ARC
  5
AA
330
47
100
AcDbEntity
  8
1
  6
Continuous
 62
     7
100
AcDbCircle
 10
834.1261695542855
 20
587.636331486334
 30
0.0
 40
10.0
100
AcDbArc
 50
0.0
 51
57.03802307375533
  0
ARC
  5
AB
330
47
100
AcDbEntity
  8
1
  6
Continuous
 62
     7
100
AcDbCircle
 10
719.8688760547482
 20
411.4396491050799
 30
0.0
 40
219.5515342386306
100
AcDbArc
 50
63.27423731996624
 51
70.9288111281871
  0
ARC
  5
AC
330
47
100
AcDbEntity
  8
1
  6
Continuous
 62
     7
100
AcDbCircle
 10
719.8688760547482
 20
411.4396491050799
 30
0.0
 40
220.0000000000003
100
AcDbArc
 50
57.03802307375565
 51
62.74865308431202
  0
ARC
  5
AD
330
47
100
AcDbEntity
  8
1
  6
PHANTOM
 62
     5
100
AcDbCircle
 10
-78.28017923382947
 20
1513.272795736488
 30
0.0
 40
591.1653293443069
100
AcDbArc
 50
307.9451402673781
 51
310.9954473632212
  0
ARC
  5
AE
330
47
100
AcDbEntity
  8
1
  6
PHANTOM
 62
     5
100
AcDbCircle
 10
735.5734748814464
 20
699.4191416212127
 30
0.0
 40
591.1653293443078
100
AcDbArc
 50
142.0548597326218
 51
142.2854734842087
  0
ARC
  5
AF
330
47
100
AcDbEntity
  8
1
  6
PHANTOM
 62
     5
100
AcDbCircle
 10
276.6229791008375
 20
1054.32229995588
 30
0.0
 40
10.99999999999951
100
AcDbArc
 50
142.2854734842109
 51
307.7145265157923
  0
ARC
  5
B0
330
47
100
AcDbEntity
  8
1
  6
PHANTOM
 62
     5
100
AcDbCircle
 10
276.6229791008375
 20
1054.32229995588
 30
0.0
 40
18.00000000000033
100
AcDbArc
 50
179.7956120592387
 51
307.7145265157902
  0
ARC
  5
B1
330
47
100
AcDbEntity
  8
1
  6
PHANTOM
 62
     5
100
AcDbCircle
 10
281.2191731785513
 20
1058.918494033593
 30
0.0
 40
12.49999999999968
100
AcDbArc
 50
161.2782275840379
 51
288.7217724159567
  0
ARC
  5
B2
330
47
100
AcDbEntity
  8
1
  6
PHANTOM
 62
     5
100
AcDbCircle
 10
-78.28017923382947
 20
1513.272795736488
 30
0.0
 40
591.165329344307
100
AcDbArc
 50
307.7145265157914
 51
307.9451402673781
  0
ARC
  5
B3
330
47
100
AcDbEntity
  8
1
  6
PHANTOM
 62
     5
100
AcDbCircle
 10
1053.452210461353
 20
453.6057733779674
 30
0.0
 40
1000.000000000001
100
AcDbArc
 50
138.3405795102229
 51
142.2854734842087
  0
ARC
  5
B4
330
47
100
AcDbEntity
  8
1
  6
PHANTOM
 62
     5
100
AcDbCircle
 10
735.5734748814464
 20
699.4191416212127
 30
0.0
 40
591.1653293443065
100
AcDbArc
 50
138.8032659793444
 51
142.0548597326218
  0
ARC
  5
B5
330
47
100
AcDbEntity
  8
1
  6
PHANTOM
 62
     5
100
AcDbCircle
 10
331.0702012522013
 20
1108.769522107243
 30
0.0
 40
44.99999999999992
100
AcDbArc
 50
206.3613151914894
 51
241.104225044566
  0
ARC
  5
B6
330
47
100
AcDbEntity
  8
1
  6
PHANTOM
 62
     5
100
AcDbCircle
 10
-324.0935474770716
 20
1831.151531316393
 30
0.0
 40
999.9999999999967
100
AcDbArc
 50
307.7145265157912
 51
309.3784162572703
  0
ARC
  5
B7
330
47
100
AcDbEntity
  8
1
  6
PHANTOM
 62
     5
100
AcDbCircle
 10
338.1412690640675
 20
1108.769522107243
 30
0.0
 40
44.99999999999933
100
AcDbArc
 50
298.8957749554346
 51
333.6386848085121
  0
ARC
  5
B8
330
47
100
AcDbEntity
  8
1
  6
PHANTOM
 62
     5
100
AcDbCircle
 10
747.4916495500977
 20
1513.272795736488
 30
0.0
 40
591.1653293443064
100
AcDbArc
 50
229.0045526367788
 51
232.0548597326218
  0
ARC
  5
B9
330
47
100
AcDbEntity
  8
1
  6
PHANTOM
 62
     5
100
AcDbCircle
 10
-66.36200456517793
 20
699.4191416212127
 30
0.0
 40
591.1653293443071
100
AcDbArc
 50
37.94514026737801
 51
41.19673402065567
  0
ARC
  5
BA
330
47
100
AcDbEntity
  8
1
  6
PHANTOM
 62
     5
100
AcDbCircle
 10
-66.36200456517793
 20
699.4191416212127
 30
0.0
 40
591.1653293443073
100
AcDbArc
 50
37.7145265157913
 51
37.94514026737801
  0
ARC
  5
BB
330
47
100
AcDbEntity
  8
1
  6
PHANTOM
 62
     5
100
AcDbCircle
 10
387.9922971377175
 20
1058.918494033593
 30
0.0
 40
12.49999999999915
100
AcDbArc
 50
251.2782275840426
 51
18.7217724159527
  0
ARC
  5
BC
330
47
100
AcDbEntity
  8
1
  6
PHANTOM
 62
     5
100
AcDbCircle
 10
392.5884912154313
 20
1054.32229995588
 30
0.0
 40
18.00000000000011
100
AcDbArc
 50
0.0
 51
37.71452651579264
  0
ARC
  5
BD
330
47
100
AcDbEntity
  8
1
  6
PHANTOM
 62
     5
100
AcDbCircle
 10
392.5884912154313
 20
1054.32229995588
 30
0.0
 40
11.00000000000056
100
AcDbArc
 50
232.2854734842077
 51
37.71452651578837
  0
ARC
  5
BE
330
47
100
AcDbEntity
  8
1
  6
PHANTOM
 62
     5
100
AcDbCircle
 10
747.4916495500977
 20
1513.272795736488
 30
0.0
 40
591.1653293443067
100
AcDbArc
 50
232.0548597326218
 51
232.2854734842086
  0
ARC
  5
BF
330
47
100
AcDbEntity
  8
1
  6
PHANTOM
 62
     5
100
AcDbCircle
 10
-384.2407401450807
 20
453.6057733779701
 30
0.0
 40
999.9999999999964
100
AcDbArc
 50
37.71452651579134
 51
41.65942048977717
  0
ARC
  5
C0
330
47
100
AcDbEntity
  8
1
  6
PHANTOM
 62
     5
100
AcDbCircle
 10
993.3050177933435
 20
1831.151531316395
 30
0.0
 40
1000.000000000001
100
AcDbArc
 50
230.6215837427296
 51
232.2854734842087
  0
ARC
  5
C1
330
47
100
AcDbEntity
  8
1
  6
Continuous
 62
     7
100
AcDbCircle
 10
334.6057351581346
 20
1112.305056013177
 30
0.0
 40
25.00000000000067
100
AcDbArc
 50
53.13010235415828
 51
53.87015686343634
  0
ARC
  5
C2
330
47
100
AcDbEntity
  8
1
  6
Continuous
 62
     7
100
AcDbCircle
 10
910.0871728764967
 20
1103.877633885608
 30
0.0
 40
593.6653293443075
100
AcDbArc
 50
179.7657241821592
 51
182.3722243114999
  0
ARC
  5
C3
330
47
100
AcDbEntity
  8
1
  6
Continuous
 62
     7
100
AcDbCircle
 10
-240.8757025602282
 20
1103.877633885608
 30
0.0
 40
591.1653293443075
100
AcDbArc
 50
0.42911003218281
 51
2.75625041500966
  0
ARC
  5
C4
330
47
100
AcDbEntity
  8
1
  6
Continuous
 62
     7
100
AcDbCircle
 10
910.0871728764967
 20
1103.877633885608
 30
0.0
 40
591.1653293443075
100
AcDbArc
 50
187.054859732622
 51
187.2854734842088
  0
ARC
  5
C5
330
47
100
AcDbEntity
  8
1
  6
Continuous
 62
     7
100
AcDbCircle
 10
334.6057351581346
 20
1030.305056013177
 30
0.0
 40
11.00000000000048
100
AcDbArc
 50
187.2854734842126
 51
352.7145265157873
  0
ARC
  5
C6
330
47
100
AcDbEntity
  8
1
  6
Continuous
 62
     7
100
AcDbCircle
 10
334.6057351581346
 20
1112.305056013177
 30
0.0
 40
25.00000000000115
100
AcDbArc
 50
126.8698976458432
 51
182.5000932383824
  0
ARC
  5
C7
330
47
100
AcDbEntity
  8
1
  6
Continuous
 62
     7
100
AcDbCircle
 10
334.6057351581346
 20
1107.305056013177
 30
0.0
 40
45.00000000000092
100
AcDbArc
 50
251.3613151914888
 51
288.6386848085104
  0
ARC
  5
C8
330
47
100
AcDbEntity
  8
1
  6
Continuous
 62
     7
100
AcDbCircle
 10
334.6057351581346
 20
1030.305056013177
 30
0.0
 40
18.00000000000033
100
AcDbArc
 50
187.2854734842082
 51
352.7145265157916
  0
ARC
  5
C9
330
47
100
AcDbEntity
  8
1
  6
Continuous
 62
     7
100
AcDbCircle
 10
334.6057351581346
 20
1036.805056013179
 30
0.0
 40
12.50000000000034
100
AcDbArc
 50
206.2782275840483
 51
333.7217724159509
  0
ARC
  5
CA
330
47
100
AcDbEntity
  8
1
  6
Continuous
 62
     7
100
AcDbCircle
 10
1308.67768199116
 20
1154.83554381806
 30
0.0
 40
1000.000000000002
100
AcDbArc
 50
182.5000932383834
 51
187.2854734842086
  0
ARC
  5
CB
330
47
100
AcDbEntity
  8
1
  6
Continuous
 62
     7
100
AcDbCircle
 10
-639.4662116748856
 20
1154.83554381806
 30
0.0
 40
999.9999999999959
100
AcDbArc
 50
352.7145265157912
 51
357.4999067616166
  0
ARC
  5
CC
330
47
100
AcDbEntity
  8
1
  6
Continuous
 62
     7
100
AcDbCircle
 10
910.0871728764967
 20
1103.877633885608
 30
0.0
 40
591.1653293443075
100
AcDbArc
 50
177.2437495849904
 51
179.5708899678172
  0
ARC
  5
CD
330
47
100
AcDbEntity
  8
1
  6
Continuous
 62
     7
100
AcDbCircle
 10
334.6057351581346
 20
1112.305056013177
 30
0.0
 40
25.00000000000042
100
AcDbArc
 50
357.4999067616176
 51
53.13010235415828
  0
ARC
  5
CE
330
47
100
AcDbEntity
  8
1
  6
Continuous
 62
     7
100
AcDbCircle
 10
334.6057351581346
 20
1112.305056013177
 30
0.0
 40
25.00000000000078
100
AcDbArc
 50
126.1298431365658
 51
126.8698976458432
  0
ARC
  5
CF
330
47
100
AcDbEntity
  8
1
  6
Continuous
 62
     7
100
AcDbCircle
 10
910.0871728764967
 20
1103.877633885608
 30
0.0
 40
591.1653293443071
100
AcDbArc
 50
182.5277757561427
 51
183.8032659793444
  0
ARC
  5
D0
330
47
100
AcDbEntity
  8
1
  6
Continuous
 62
     7
100
AcDbCircle
 10
910.0871728764967
 20
1103.877633885608
 30
0.0
 40
591.1653293443072
100
AcDbArc
 50
183.8032659793444
 51
187.054859732622
  0
ARC
  5
D1
330
47
100
AcDbEntity
  8
1
  6
Continuous
 62
     7
100
AcDbCircle
 10
-240.8757025602282
 20
1103.877633885608
 30
0.0
 40
591.1653293443075
100
AcDbArc
 50
356.1967340206556
 51
357.4722242438573
  0
ARC
  5
D2
330
47
100
AcDbEntity
  8
1
  6
Continuous
 62
     7
100
AcDbCircle
 10
-240.8757025602282
 20
1103.877633885608
 30
0.0
 40
591.1653293443078
100
AcDbArc
 50
352.945140267378
 51
356.1967340206556
  0
ARC
  5
D3
330
47
100
AcDbEntity
  8
1
  6
Continuous
 62
     7
100
AcDbCircle
 10
-240.8757025602282
 20
1103.877633885608
 30
0.0
 40
591.165329344308
100
AcDbArc
 50
352.7145265157912
 51
352.945140267378
  0
ARC
  5
D4
330
47
100
AcDbEntity
  8
1
  6
Continuous
 62
     7
100
AcDbCircle
 10
-240.8757025602282
 20
1103.877633885608
 30
0.0
 40
593.6653293443076
100
AcDbArc
 50
357.6277756885001
 51
0.23427581784082
  0
ARC
  5
D5
330
47
100
AcDbEntity
  8
1
  6
PHANTOM
 62
     5
100
AcDbCircle
 10
392.5884912154313
 20
1054.32229995588
 30
0.0
 40
18.00000000000042
100
AcDbArc
 50
232.2854734842094
 51
0.0
  0
ARC
  5
D6
330
47
100
AcDbEntity
  8
1
  6
PHANTOM
 62
     5
100
AcDbCircle
 10
276.6229791008375
 20
1054.32229995588
 30
0.0
 40
18.00000000000019
100
AcDbArc
 50
142.2854734842077
 51
179.7956120592387
  0
ARC
  5
D7
330
47
100
AcDbEntity
  8
1
  6
Continuous
 62
     7
100
AcDbCircle
 10
310.1057351581351
 20
571.636331486334
 30
0.0
 40
0.5
100
AcDbArc
 50
180.0
 51
270.0
  0
ARC
  5
D8
330
47
100
AcDbEntity
  8
1
  6
Continuous
 62
     7
100
AcDbCircle
 10
359.1057351581351
 20
571.636331486334
 30
0.0
 40
0.5
100
AcDbArc
 50
270.0
 51
0.0
  0
ARC
  5
D9
330
47
100
AcDbEntity
  8
1
  6
Continuous
 62
     7
100
AcDbCircle
 10
324.3411943771775
 20
620.2518049476544
 30
0.0
 40
9.999999999999998
100
AcDbArc
 50
99.85036722610839
 51
160.1874855212817
  0
ARC
  5
DA
330
47
100
AcDbEntity
  8
1
  6
Continuous
 62
     7
100
AcDbCircle
 10
344.8702759390928
 20
620.2518049476544
 30
0.0
 40
10.00000000000007
100
AcDbArc
 50
19.81251447871799
 51
80.14963277389194
  0
ARC
  5
DB
330
47
100
AcDbEntity
  8
1
  6
PHANTOM
 62
     5
100
AcDbCircle
 10
850.7946044104428
 20
564.726604050991
 30
0.0
 40
0.5000000000000006
100
AcDbArc
 50
255.0000000000056
 51
334.9999999999656
  0
ARC
  5
DC
330
47
100
AcDbEntity
  8
1
  6
PHANTOM
 62
     5
100
AcDbCircle
 10
760.4953180299096
 20
660.9388534270395
 30
0.0
 40
1.999999999999931
100
AcDbArc
 50
155.0000000000066
 51
240.6883809864366
  0
ARC
  5
DD
330
47
100
AcDbEntity
  8
1
  6
Continuous
 62
     7
100
AcDbCircle
 10
726.6057351581351
 20
624.9998391908882
 30
0.0
 40
2.0
100
AcDbArc
 50
180.0
 51
265.688380986446
  0
ARC
  5
DE
330
47
100
AcDbEntity
  8
1
  6
Continuous
 62
     7
100
AcDbCircle
 10
821.9810752523574
 20
601.136331486334
 30
0.0
 40
30.0
100
AcDbArc
 50
270.0
 51
280.0
  0
ARC
  5
DF
330
47
100
AcDbEntity
  8
1
  6
Continuous
 62
     7
100
AcDbCircle
 10
849.1057351581351
 20
575.9640558196345
 30
0.0
 40
0.5000000000000624
100
AcDbArc
 50
280.0000000000039
 51
0.0
  0
ARC
  5
E0
330
47
100
AcDbEntity
  8
1
  6
Continuous
 62
     7
100
AcDbCircle
 10
800.1057351581351
 20
571.636331486334
 30
0.0
 40
0.5
100
AcDbArc
 50
180.0
 51
270.0
  0
ENDBLK
  5
49
330
47
100
AcDbEntity
  8
0
100
AcDbBlockEnd
  0
BLOCK
  5
4B
330
4A
100
AcDbEntity
  8
0
100
AcDbBlockBegin
  2
84-360A-M22
 70
     0
 10
1488.018548786913
 20
634.2544017576058
 30
0.0
  3
84-360A-M22
  1

  0
LINE
  5
E1
330
4A
100
AcDbEntity
  8
1
  6
PHANTOM
 62
     5
100
AcDbLine
 10
813.782907691691
 20
633.8038933290184
 30
0.0
 11
811.4815680071572
 21
633.6025521956997
 31
0.0
  0
LINE
  5
E2
330
4A
100
AcDbEntity
  8
1
  6
PHANTOM
 62
     5
100
AcDbLine
 10
855.5467477641691
 20
573.7345075687338
 30
0.0
 11
855.1241295024286
 21
572.8281997816973
 31
0.0
  0
LINE
  5
E3
330
4A
100
AcDbEntity
  8
1
  6
Continuous
 62
     7
100
AcDbLine
 10
786.3684222900504
 20
622.9275220683387
 30
0.0
 11
788.8727658368623
 21
620.3378616272023
 31
0.0
  0
LINE
  5
E4
330
4A
100
AcDbEntity
  8
1
  6
Continuous
 62
     7
100
AcDbLine
 10
820.6057351581351
 20
607.0210521524666
 30
0.0
 11
818.6057351581351
 21
607.5363314863341
 31
0.0
  0
LINE
  5
E5
330
4A
100
AcDbEntity
  8
1
  6
Continuous
 62
     7
100
AcDbLine
 10
791.6057351581351
 20
618.9407315902502
 30
0.0
 11
790.1057351581351
 21
619.9265398759169
 31
0.0
  0
LINE
  5
E6
330
4A
100
AcDbEntity
  8
1
  6
Continuous
 62
     7
100
AcDbLine
 10
786.3684222900504
 20
622.9275220683387
 30
0.0
 11
784.3677906531209
 21
621.7724568542087
 31
0.0
  0
LINE
  5
E7
102
{ACAD_REACTORS
330
112
102
}
330
4A
100
AcDbEntity
  8
1
  6
Continuous
 62
     7
100
AcDbLine
 10
791.6057351581351
 20
618.9407315902502
 30
0.0
 11
790.1057351581351
 21
619.9265398759169
 31
0.0
  0
LINE
  5
E8
102
{ACAD_REACTORS
330
112
102
}
330
4A
100
AcDbEntity
  8
1
  6
Continuous
 62
     7
100
AcDbLine
 10
820.6057351581351
 20
607.0210521524666
 30
0.0
 11
818.6057351581351
 21
607.5363314863341
 31
0.0
  0
LINE
  5
E9
330
4A
100
AcDbEntity
  8
1
  6
PHANTOM
 62
     4
100
AcDbLine
 10
824.6057351581351
 20
610.1820930663846
 30
0.0
 11
824.6057351581351
 21
568.136331486334
 31
0.0
  0
LINE
  5
EA
330
4A
100
AcDbEntity
  8
1
  6
Continuous
 62
     7
100
AcDbLine
 10
849.6057351581351
 20
586.136331486334
 30
0.0
 11
849.6057351581351
 21
585.136331486334
 31
0.0
  0
LINE
  5
EB
330
4A
100
AcDbEntity
  8
1
  6
Continuous
 62
     7
100
AcDbLine
 10
849.6057351581351
 20
585.136331486334
 30
0.0
 11
846.6261695542855
 21
585.136331486334
 31
0.0
  0
LINE
  5
EC
330
4A
100
AcDbEntity
  8
1
  6
Continuous
 62
     7
100
AcDbLine
 10
349.8877705182297
 20
616.1363314863345
 30
0.0
 11
319.3236997980405
 21
616.1363314863345
 31
0.0
  0
LINE
  5
ED
330
4A
100
AcDbEntity
  8
1
  6
Continuous
 62
     7
100
AcDbLine
 10
319.28055911938
 20
615.1363314863345
 30
0.0
 11
349.9309111968901
 21
615.1363314863345
 31
0.0
  0
LINE
  5
EE
330
4A
100
AcDbEntity
  8
1
  6
Continuous
 62
     7
100
AcDbLine
 10
349.977812992536
 20
1078.105266078691
 30
0.0
 11
349.4641547568747
 21
1077.805056013177
 31
0.0
  0
LINE
  5
EF
102
{ACAD_REACTORS
330
114
102
}
330
4A
100
AcDbEntity
  8
1
  6
Continuous
 62
     7
100
AcDbLine
 10
350.5259166416038
 20
1107.90461648889
 30
0.0
 11
352.5346619621885
 21
1106.305056013176
 31
0.0
  0
LINE
  5
F0
330
4A
100
AcDbEntity
  8
1
  6
Continuous
 62
     7
100
AcDbLine
 10
319.2336573237333
 20
1078.105266078691
 30
0.0
 11
319.7473155593941
 21
1077.805056013177
 31
0.0
  0
LINE
  5
F1
102
{ACAD_REACTORS
330
113
102
}
330
4A
100
AcDbEntity
  8
1
  6
Continuous
 62
     7
100
AcDbLine
 10
318.6855536746655
 20
1107.90461648889
 30
0.0
 11
316.6768083540808
 21
1106.305056013176
 31
0.0
  0
LINE
  5
F2
102
{ACAD_REACTORS
330
114
102
}
330
4A
100
AcDbEntity
  8
1
  6
Continuous
 62
     7
100
AcDbLine
 10
352.0306488288561
 20
1079.305056013176
 30
0.0
 11
349.977812992536
 21
1078.105266078691
 31
0.0
  0
LINE
  5
F3
330
4A
100
AcDbEntity
  8
1
  6
Continuous
 62
     7
100
AcDbLine
 10
350.0230403622761
 20
1108.305056013177
 30
0.0
 11
350.5259166416038
 21
1107.90461648889
 31
0.0
  0
LINE
  5
F4
102
{ACAD_REACTORS
330
113
102
}
330
4A
100
AcDbEntity
  8
1
  6
Continuous
 62
     7
100
AcDbLine
 10
317.1808214874129
 20
1079.305056013177
 30
0.0
 11
319.2336573237333
 21
1078.105266078691
 31
0.0
  0
LINE
  5
F5
330
4A
100
AcDbEntity
  8
1
  6
Continuous
 62
     7
100
AcDbLine
 10
319.1884299539927
 20
1108.305056013177
 30
0.0
 11
318.6855536746655
 21
1107.90461648889
 31
0.0
  0
ARC
  5
F6
330
4A
100
AcDbEntity
  8
1
  6
PHANTOM
 62
     5
100
AcDbCircle
 10
846.4836698938029
 20
577.9606901861409
 30
0.0
 40
9.999999999999819
100
AcDbArc
 50
334.9999999999984
 51
29.69975156013895
  0
ARC
  5
F7
330
4A
100
AcDbEntity
  8
1
  6
PHANTOM
 62
     5
100
AcDbCircle
 10
846.4836698938029
 20
577.9606901861409
 30
0.0
 40
9.999999999999819
100
AcDbArc
 50
334.9999999999984
 51
29.69975156013895
  0
ARC
  5
F8
330
4A
100
AcDbEntity
  8
1
  6
PHANTOM
 62
     5
100
AcDbCircle
 10
846.4836698938029
 20
577.9606901861409
 30
0.0
 40
9.999999999999819
100
AcDbArc
 50
334.9999999999984
 51
29.69975156013895
  0
ARC
  5
F9
330
4A
100
AcDbEntity
  8
1
  6
PHANTOM
 62
     5
100
AcDbCircle
 10
681.1330476564806
 20
483.6473106344303
 30
0.0
 40
200.3571428571431
100
AcDbArc
 50
29.69975156013765
 51
48.54229199834968
  0
ARC
  5
FA
330
4A
100
AcDbEntity
  8
1
  6
Continuous
 62
     7
100
AcDbCircle
 10
719.8688760547482
 20
411.4396491050799
 30
0.0
 40
219.9999999999998
100
AcDbArc
 50
71.38191495189238
 51
71.7204212010843
  0
ARC
  5
FB
330
4A
100
AcDbEntity
  8
1
  6
Continuous
 62
     7
100
AcDbCircle
 10
729.6057351581351
 20
430.7791886291913
 30
0.0
 40
200.3571428571429
100
AcDbArc
 50
54.69975156013975
 51
73.54229199835181
  0
ARC
  5
FC
330
4A
100
AcDbEntity
  8
1
  6
Continuous
 62
     7
100
AcDbCircle
 10
719.8688760547482
 20
411.4396491050799
 30
0.0
 40
219.5515342386306
100
AcDbArc
 50
63.27423731996624
 51
70.9288111281871
  0
ARC
  5
FD
102
{ACAD_REACTORS
330
112
102
}
330
4A
100
AcDbEntity
  8
1
  6
Continuous
 62
     7
100
AcDbCircle
 10
719.8688760547482
 20
411.4396491050799
 30
0.0
 40
219.9999999999999
100
AcDbArc
 50
62.74865308431202
 51
71.38191495189238
  0
ARC
  5
FE
330
4A
100
AcDbEntity
  8
1
  6
Continuous
 62
     7
100
AcDbCircle
 10
719.8688760547482
 20
411.4396491050799
 30
0.0
 40
219.9999999999998
100
AcDbArc
 50
57.03802307375565
 51
62.74865308431202
  0
ARC
  5
FF
102
{ACAD_REACTORS
330
112
102
}
330
4A
100
AcDbEntity
  8
1
  6
Continuous
 62
     7
100
AcDbCircle
 10
719.8688760547482
 20
411.4396491050799
 30
0.0
 40
219.5515342386306
100
AcDbArc
 50
63.27423731996624
 51
70.9288111281871
  0
ARC
  5
100
330
4A
100
AcDbEntity
  8
1
  6
Continuous
 62
     7
100
AcDbCircle
 10
834.1261695542855
 20
587.636331486334
 30
0.0
 40
10.0
100
AcDbArc
 50
0.0
 51
57.03802307375501
  0
ARC
  5
101
330
4A
100
AcDbEntity
  8
1
  6
Continuous
 62
     7
100
AcDbCircle
 10
846.6261695542855
 20
587.636331486334
 30
0.0
 40
2.5
100
AcDbArc
 50
180.0
 51
270.0
  0
ARC
  5
102
330
4A
100
AcDbEntity
  8
1
  6
Continuous
 62
     7
100
AcDbCircle
 10
839.6057351581351
 20
586.136331486334
 30
0.0
 40
10.0
100
AcDbArc
 50
0.0
 51
54.69975156014022
  0
ARC
  5
103
102
{ACAD_REACTORS
330
114
102
}
330
4A
100
AcDbEntity
  8
1
  6
Continuous
 62
     7
100
AcDbCircle
 10
-240.8757025602282
 20
1103.877633885607
 30
0.0
 40
591.4153293443073
100
AcDbArc
 50
357.502405522131
 51
0.39013342878274
  0
ARC
  5
104
102
{ACAD_REACTORS
330
113
102
}
330
4A
100
AcDbEntity
  8
1
  6
Continuous
 62
     7
100
AcDbCircle
 10
910.0871728764967
 20
1103.877633885607
 30
0.0
 40
591.4153293443068
100
AcDbArc
 50
179.6098665712173
 51
182.497594477869
  0
ARC
  5
105
330
4A
100
AcDbEntity
  8
1
  6
Continuous
 62
     7
100
AcDbCircle
 10
334.6057351581342
 20
1107.305056013177
 30
0.0
 40
45.000000000001
100
AcDbArc
 50
251.7052947919981
 51
288.2947052080023
  0
ARC
  5
106
330
4A
100
AcDbEntity
  8
1
  6
Continuous
 62
     7
100
AcDbCircle
 10
-240.8757025602282
 20
1103.877633885607
 30
0.0
 40
590.9153293443072
100
AcDbArc
 50
357.3514819526911
 51
357.4711541167296
  0
ARC
  5
107
330
4A
100
AcDbEntity
  8
1
  6
Continuous
 62
     7
100
AcDbCircle
 10
-240.8757025602282
 20
1103.877633885607
 30
0.0
 40
590.9153293443075
100
AcDbArc
 50
357.4711541167296
 51
0.42929158021491
  0
ARC
  5
108
330
4A
100
AcDbEntity
  8
1
  6
Continuous
 62
     7
100
AcDbCircle
 10
910.0871728764967
 20
1103.877633885607
 30
0.0
 40
590.9153293443073
100
AcDbArc
 50
179.5707084197851
 51
182.5288458832704
  0
ARC
  5
109
330
4A
100
AcDbEntity
  8
1
  6
Continuous
 62
     7
100
AcDbCircle
 10
910.0871728764967
 20
1103.877633885607
 30
0.0
 40
590.915329344307
100
AcDbArc
 50
177.2239373385471
 51
179.5707084197851
  0
ARC
  5
10A
102
{ACAD_REACTORS
330
113
102
}
330
4A
100
AcDbEntity
  8
1
  6
Continuous
 62
     7
100
AcDbCircle
 10
910.0871728764967
 20
1103.877633885607
 30
0.0
 40
593.4153293443067
100
AcDbArc
 50
179.7656254835274
 51
182.3732242779172
  0
ARC
  5
10B
102
{ACAD_REACTORS
330
114
102
}
330
4A
100
AcDbEntity
  8
1
  6
Continuous
 62
     7
100
AcDbCircle
 10
-240.8757025602282
 20
1103.877633885607
 30
0.0
 40
593.4153293443076
100
AcDbArc
 50
357.6267757220828
 51
0.23437451647258
  0
ARC
  5
10C
330
4A
100
AcDbEntity
  8
1
  6
Continuous
 62
     7
100
AcDbCircle
 10
-240.8757025602282
 20
1103.877633885607
 30
0.0
 40
590.9153293443076
100
AcDbArc
 50
0.42929158021491
 51
2.77606266145281
  0
ARC
  5
10D
330
4A
100
AcDbEntity
  8
1
  6
Continuous
 62
     7
100
AcDbCircle
 10
-240.8757025602282
 20
1103.877633885607
 30
0.0
 40
590.9153293443075
100
AcDbArc
 50
356.1868068539001
 51
357.3514819526911
  0
ARC
  5
10E
330
4A
100
AcDbEntity
  8
1
  6
Continuous
 62
     7
100
AcDbCircle
 10
910.0871728764967
 20
1103.877633885607
 30
0.0
 40
590.9153293443071
100
AcDbArc
 50
182.5288458832704
 51
182.6485180473089
  0
ARC
  5
10F
330
4A
100
AcDbEntity
  8
1
  6
Continuous
 62
     7
100
AcDbCircle
 10
334.6057351581346
 20
1112.305056013177
 30
0.0
 40
24.99999999999937
100
AcDbArc
 50
53.87015686343511
 51
126.1298431365648
  0
ARC
  5
110
330
4A
100
AcDbEntity
  8
1
  6
Continuous
 62
     7
100
AcDbCircle
 10
910.0871728764967
 20
1103.877633885607
 30
0.0
 40
590.915329344307
100
AcDbArc
 50
182.6485180473089
 51
183.8131931461
  0
ARC
  5
111
330
4A
100
AcDbEntity
  8
1
  6
Continuous
 62
     7
100
AcDbCircle
 10
334.6057351581342
 20
1119.067743145092
 30
0.0
 40
44.99999999999996
100
AcDbArc
 50
250.7950441663099
 51
289.2049558336903
  0
HATCH
  5
112
330
4A
100
AcDbEntity
  8
1
  6
Continuous
 62
     2
100
AcDbHatch
 10
0.0
 20
0.0
 30
0.0
210
0.0
220
0.0
230
1.0
  2
CUSTOM0
 70
     0
 71
     1
 91
        1
 92
        1
 93
        4
 72
     1
 10
820.6057351581351
 20
607.0210521524666
 11
818.6057351581351
 21
607.5363314863341
 72
     2
 10
719.8688760547482
 20
411.4396491050799
 40
219.5515342386306
 50
63.27423731996624
 51
70.9288111281871
 73
     1
 72
     1
 10
791.6057351581351
 20
618.9407315902502
 11
790.1057351581351
 21
619.9265398759169
 72
     2
 10
719.8688760547482
 20
411.4396491050799
 40
219.9999999999999
 50
288.6180850481076
 51
297.251346915688
 73
     0
 97
        4
330
E8
330
FF
330
E7
330
FD
 75
     1
 76
     2
 52
45.0
 41
0.5
 77
     0
 78
     1
 53
45.0
 43
0.0
 44
0.0
 45
-1.414213562373095
 46
0.0000000000000001
 79
     0
 98
        1
 10
0.0
 20
0.0
  0
HATCH
  5
113
330
4A
100
AcDbEntity
  8
1
  6
Continuous
 62
     2
100
AcDbHatch
 10
0.0
 20
0.0
 30
0.0
210
0.0
220
0.0
230
1.0
  2
CUSTOM1
 70
     0
 71
     1
 91
        1
 92
        1
 93
        4
 72
     2
 10
910.0871728764967
 20
1103.877633885607
 40
593.4153293443067
 50
179.7656254835274
 51
182.3732242779172
 73
     1
 72
     1
 10
317.1808214874129
 20
1079.305056013177
 11
319.2336573237333
 21
1078.105266078691
 72
     2
 10
910.0871728764967
 20
1103.877633885607
 40
591.4153293443068
 50
177.502405522131
 51
180.3901334287827
 73
     0
 72
     1
 10
318.6855536746655
 20
1107.90461648889
 11
316.6768083540808
 21
1106.305056013176
 97
        4
330
10A
330
F4
330
104
330
F1
 75
     1
 76
     2
 52
45.0
 41
0.5
 77
     0
 78
     1
 53
45.0
 43
0.0
 44
0.0
 45
-1.414213562373095
 46
0.0000000000000001
 79
     0
 98
        1
 10
0.0
 20
0.0
  0
HATCH
  5
114
330
4A
100
AcDbEntity
  8
1
  6
Continuous
 62
     2
100
AcDbHatch
 10
0.0
 20
0.0
 30
0.0
210
0.0
220
0.0
230
1.0
  2
CUSTOM2
 70
     0
 71
     1
 91
        1
 92
        1
 93
        4
 72
     2
 10
-240.8757025602282
 20
1103.877633885607
 40
593.4153293443076
 50
359.7656254835274
 51
362.3732242779172
 73
     0
 72
     1
 10
352.0306488288561
 20
1079.305056013176
 11
349.977812992536
 21
1078.105266078691
 72
     2
 10
-240.8757025602282
 20
1103.877633885607
 40
591.4153293443073
 50
357.502405522131
 51
360.3901334287827
 73
     1
 72
     1
 10
350.5259166416038
 20
1107.90461648889
 11
352.5346619621885
 21
1106.305056013176
 97
        4
330
103
330
F2
330
10B
330
EF
 75
     1
 76
     2
 52
45.0
 41
0.5
 77
     0
 78
     1
 53
45.0
 43
0.0
 44
0.0
 45
-1.414213562373095
 46
0.0000000000000001
 79
     0
 98
        1
 10
0.0
 20
0.0
  0
ENDBLK
  5
4C
330
4A
100
AcDbEntity
  8
0
100
AcDbBlockEnd
  0
BLOCK
  5
4E
330
4D
100
AcDbEntity
  8
0
100
AcDbBlockBegin
  2
82-20-M21
 70
     0
 10
281.0144168478065
 20
1725.778919447515
 30
0.0
  3
82-20-M21
  1

  0
LINE
  5
115
330
4D
100
AcDbEntity
  8
1
  6
Continuous
 62
     7
100
AcDbLine
 10
322.1131296403967
 20
544.4674214756576
 30
0.0
 11
323.1156154730934
 21
541.0015802542447
 31
0.0
  0
LINE
  5
116
330
4D
100
AcDbEntity
  8
1
  6
Continuous
 62
     7
100
AcDbLine
 10
347.0984317260275
 20
544.4677372335653
 30
0.0
 11
346.1021294588946
 21
541.0018699766858
 31
0.0
  0
LINE
  5
117
330
4D
100
AcDbEntity
  8
1
  6
Continuous
 62
     7
100
AcDbLine
 10
322.1057351581341
 20
544.5185505801325
 30
0.0
 11
322.1057351581341
 21
554.4329991938707
 31
0.0
  0
LINE
  5
118
330
4D
100
AcDbEntity
  8
1
  6
Continuous
 62
     7
100
AcDbLine
 10
347.1057351581341
 20
554.4329991938707
 30
0.0
 11
347.1057351581341
 21
544.5185505801325
 31
0.0
  0
LINE
  5
119
330
4D
100
AcDbEntity
  8
1
  6
Continuous
 62
     7
100
AcDbLine
 10
585.4317852321835
 20
542.8632573510957
 30
0.0
 11
560.6456636978381
 21
546.1264121565948
 31
0.0
  0
LINE
  5
11A
330
4D
100
AcDbEntity
  8
1
  6
Continuous
 62
     7
100
AcDbLine
 10
562.1492145923123
 20
556.014755531889
 30
0.0
 11
585.4907231449529
 21
552.9417876334785
 31
0.0
  0
LINE
  5
11B
330
4D
100
AcDbEntity
  8
1
  6
Continuous
 62
     7
100
AcDbLine
 10
572.5818827922408
 20
541.0247777390371
 30
0.0
 11
583.2356504384375
 21
539.6221826197004
 31
0.0
  0
LINE
  5
11C
330
4D
100
AcDbEntity
  8
1
  6
Continuous
 62
     7
100
AcDbLine
 10
561.9281151460443
 20
542.4273728583735
 30
0.0
 11
572.5818827922408
 21
541.0247777390371
 31
0.0
  0
LINE
  5
11D
330
4D
100
AcDbEntity
  8
1
  6
Continuous
 62
     7
100
AcDbLine
 10
585.4907231449529
 20
552.9417876334785
 30
0.0
 11
586.5387581821085
 21
552.803811203278
 31
0.0
  0
LINE
  5
11E
330
4D
100
AcDbEntity
  8
1
  6
Continuous
 62
     7
100
AcDbLine
 10
585.4317852321835
 20
542.8632573510957
 30
0.0
 11
586.7109419159392
 21
552.5794169925592
 31
0.0
  0
LINE
  5
11F
330
4D
100
AcDbEntity
  8
1
  6
Continuous
 62
     7
100
AcDbLine
 10
584.2836163048869
 20
540.2157525708958
 30
0.0
 11
585.4317852321835
 21
542.8632573510957
 31
0.0
  0
LINE
  5
120
330
4D
100
AcDbEntity
  8
1
  6
Continuous
 62
     7
100
AcDbLine
 10
561.069485058541
 20
543.2719509287966
 30
0.0
 11
560.6456636978381
 21
546.1264121565948
 31
0.0
  0
LINE
  5
121
330
4D
100
AcDbEntity
  8
1
  6
Continuous
 62
     7
100
AcDbLine
 10
560.6456636978381
 20
546.1264121565948
 30
0.0
 11
561.9248203815937
 21
555.8425717980583
 31
0.0
  0
SPLINE
  5
122
330
4D
100
AcDbEntity
  8
1
  6
Continuous
 62
     7
100
AcDbSpline
210
0.0
220
0.0
230
1.0
 70
     8
 71
     3
 72
    45
 73
    41
 74
    39
 42
0.000000001
 43
0.0000000001
 44
0.00000001
 40
0.0
 40
0.0
 40
0.0
 40
0.0
 40
0.0479912735346461
 40
0.1018385385123739
 40
0.3400721908444496
 40
0.5628249038148896
 40
0.9256422078897919
 40
1.289157809735326
 40
1.801530476662889
 40
2.313521621398018
 40
2.963162634986582
 40
3.612717204423957
 40
4.382215557632056
 40
5.151683772249066
 40
6.018901084687353
 40
6.886097855971178
 40
7.8254847471547
 40
8.764863082761735
 40
9.7485089749762
 40
10.73215085059461
 40
11.73070765491148
 40
12.72926445922841
 40
13.71290633484649
 40
14.69655222706031
 40
15.63593056266641
 40
16.575317453849
 40
17.44251422513177
 40
18.30973153756902
 40
19.07919975218504
 40
19.84869810539217
 40
20.49825267482865
 40
21.14789368841643
 40
21.65988483315085
 40
22.17225750007778
 40
22.53577310192288
 40
22.89859040599716
 40
23.12134311896685
 40
23.35957677129919
 40
23.41358934978495
 40
23.46171484197789
 40
23.46171484197789
 40
23.46171484197789
 40
23.46171484197789
 10
323.1156154730902
 20
541.0015802542559
 30
0.0
 10
323.1212223922259
 20
540.9865043229692
 30
0.0
 10
323.1331203842579
 20
540.95451285917
 30
0.0
 10
323.2024009373055
 20
540.8637140703358
 30
0.0
 10
323.3267042122151
 20
540.7424313223903
 30
0.0
 10
323.5724734536115
 20
540.6144756687441
 30
0.0
 10
323.874283741962
 20
540.51849748361
 30
0.0
 10
324.2693798885958
 20
540.3986400975222
 30
0.0
 10
324.7195239091863
 20
540.2904733799231
 30
0.0
 10
325.2670365471199
 20
540.1824297016159
 30
0.0
 10
325.863254586154
 20
540.0867718192281
 30
0.0
 10
326.5463530316221
 20
539.9923148514486
 30
0.0
 10
327.2711076850046
 20
539.9086352484576
 30
0.0
 10
328.0694179798596
 20
539.8308218728916
 30
0.0
 10
328.9013946717287
 20
539.7638843163209
 30
0.0
 10
329.7907362633694
 20
539.7049443583605
 30
0.0
 10
330.7048263200095
 20
539.6569650241315
 30
0.0
 10
331.6582152151757
 20
539.6186331165056
 30
0.0
 10
332.6267444833228
 20
539.5914206181127
 30
0.0
 10
333.6152397025481
 20
539.5747735227178
 30
0.0
 10
334.6088306946427
 20
539.5693368130376
 30
0.0
 10
335.6024216867373
 20
539.5747735227189
 30
0.0
 10
336.5909169059623
 20
539.5914206181153
 30
0.0
 10
337.5594461741086
 20
539.6186331165084
 30
0.0
 10
338.5128350692743
 20
539.6569650241379
 30
0.0
 10
339.4269251259124
 20
539.7049443583581
 30
0.0
 10
340.3162667175556
 20
539.7638843163506
 30
0.0
 10
341.1482434094108
 20
539.8308218728092
 30
0.0
 10
341.9465537043079
 20
539.9086352487515
 30
0.0
 10
342.6713083575402
 20
539.9923148504463
 30
0.0
 10
343.3544068034827
 20
540.0867718223506
 30
0.0
 10
343.950624840929
 20
540.1824296909692
 30
0.0
 10
344.4981374836081
 20
540.290473410455
 30
0.0
 10
344.9482814890569
 20
540.3986399966877
 30
0.0
 10
345.343377676922
 20
540.5184977405132
 30
0.0
 10
345.6451878422799
 20
540.6144748585384
 30
0.0
 10
345.890957385645
 20
540.7424331321495
 30
0.0
 10
346.0152997923564
 20
540.8637480385216
 30
0.0
 10
346.0846350789084
 20
540.9546413456703
 30
0.0
 10
346.0965264617753
 20
540.9867438823172
 30
0.0
 10
346.1021294588946
 20
541.0018699766858
 30
0.0
 11
323.1156154730902
 21
541.0015802542559
 31
0.0
 11
323.1344013412938
 21
540.9574185808607
 31
0.0
 11
323.1652116405966
 21
540.9132569074653
 31
0.0
 11
323.3374462628638
 21
540.7486649647885
 31
0.0
 11
323.5323537785594
 21
540.6408232701099
 31
0.0
 11
323.8742352695089
 21
540.5193595236353
 31
0.0
 11
324.2227123652002
 21
540.4158834092409
 31
0.0
 11
324.7203468222919
 21
540.2938764567181
 31
0.0
 11
325.2224938935776
 21
540.1939602383601
 31
0.0
 11
325.8636147745495
 21
540.0890914539533
 31
0.0
 11
326.5070304065765
 21
539.99999901543
 31
0.0
 11
327.2713533761203
 21
539.9109029263968
 31
0.0
 11
328.0371683001996
 21
539.8360107730862
 31
0.0
 11
328.9015483025591
 21
539.7659174241512
 31
0.0
 11
329.7668380809589
 21
539.7084383971016
 31
0.0
 11
330.7049169022554
 21
539.6588818113594
 31
0.0
 11
331.64353412739
 21
539.6210749219915
 31
0.0
 11
332.6267868016332
 21
539.5932645190636
 31
0.0
 11
333.6102893069316
 21
539.5767067364426
 31
0.0
 11
334.6088306946344
 21
539.5711581275605
 31
0.0
 11
335.6073720823373
 21
539.5767067364426
 31
0.0
 11
336.5908745876358
 21
539.5932645190637
 31
0.0
 11
337.5741272618791
 21
539.6210749219915
 31
0.0
 11
338.5127444870135
 21
539.6588818113595
 31
0.0
 11
339.4508233083101
 21
539.7084383971016
 31
0.0
 11
340.3161130867098
 21
539.7659174241511
 31
0.0
 11
341.1804930890694
 21
539.8360107730862
 31
0.0
 11
341.9463080131487
 21
539.9109029263968
 31
0.0
 11
342.7106309826925
 21
539.9999990154299
 31
0.0
 11
343.3540466147193
 21
540.0890914539533
 31
0.0
 11
343.9951674956913
 21
540.1939602383601
 31
0.0
 11
344.497314566977
 21
540.2938764567181
 31
0.0
 11
344.9949490240687
 21
540.4158834092409
 31
0.0
 11
345.34342611976
 21
540.5193595236353
 31
0.0
 11
345.6853076107096
 21
540.6408232701099
 31
0.0
 11
345.8802151264052
 21
540.7486649647885
 31
0.0
 11
346.0524497486725
 21
540.9132569074652
 31
0.0
 11
346.0833413271349
 21
540.9575634420769
 31
0.0
 11
346.1021294588946
 21
541.0018699766858
 31
0.0
  0
SPLINE
  5
123
330
4D
100
AcDbEntity
  8
1
  6
Continuous
 62
     7
100
AcDbSpline
210
0.0
220
0.0
230
1.0
 70
     8
 71
     3
 72
     9
 73
     5
 74
     3
 42
0.000000001
 43
0.0000000001
 44
0.00000001
 40
0.0
 40
0.0
 40
0.0
 40
0.0
 40
0.0909324404089371
 40
0.1948618271825586
 40
0.1948618271825586
 40
0.1948618271825586
 40
0.1948618271825586
 10
346.1021294588962
 20
541.0018699766915
 30
0.0
 10
346.1058213286611
 20
541.0330644226539
 30
0.0
 10
346.1137327271023
 20
541.0999119254141
 30
0.0
 10
346.0737659852521
 20
541.1545754716861
 30
0.0
 10
346.0524497486724
 20
541.183730223183
 30
0.0
 11
346.1021294588962
 21
541.0018699766915
 31
0.0
 11
346.1027789712834
 21
541.0928000999372
 31
0.0
 11
346.0524497486724
 21
541.183730223183
 31
0.0
  0
SPLINE
  5
124
330
4D
100
AcDbEntity
  8
1
  6
Continuous
 62
     7
100
AcDbSpline
210
0.0
220
0.0
230
1.0
 70
     8
 71
     3
 72
     9
 73
     5
 74
     3
 42
0.000000001
 43
0.0000000001
 44
0.00000001
 40
0.0
 40
0.0
 40
0.0
 40
0.0
 40
0.0259904372544079
 40
0.0514626332574008
 40
0.0514626332574008
 40
0.0514626332574008
 40
0.0514626332574008
 10
347.0984317260264
 20
544.4677372335618
 30
0.0
 10
347.1005618313183
 20
544.4761626149668
 30
0.0
 10
347.1047795486586
 20
544.4928453817845
 30
0.0
 10
347.1054187738952
 20
544.510039897641
 30
0.0
 10
347.1057351581341
 20
544.5185505801325
 30
0.0
 11
347.0984317260264
 21
544.4677372335618
 31
0.0
 11
347.1039093001058
 21
544.4931439068465
 31
0.0
 11
347.1057351581341
 21
544.5185505801325
 31
0.0
  0
SPLINE
  5
125
330
4D
100
AcDbEntity
  8
1
  6
Continuous
 62
     7
100
AcDbSpline
210
0.0
220
0.0
230
1.0
 70
     8
 71
     3
 72
    47
 73
    43
 74
    41
 42
0.000000001
 43
0.0000000001
 44
0.00000001
 40
0.0
 40
0.0
 40
0.0
 40
0.0
 40
0.2382336546079801
 40
0.4609863660941648
 40
0.8238036700205299
 40
1.187319271968526
 40
1.699691939130592
 40
2.21168308412246
 40
2.861324098034655
 40
3.510878667781559
 40
4.280377021323535
 40
5.049845236228591
 40
5.708827206551331
 40
6.367771743233662
 40
6.576016289900712
 40
6.784267733548509
 40
7.723654624848201
 40
8.66303296048411
 40
9.646678852641978
 40
10.63032072812517
 40
11.62887753223712
 40
12.62743433629514
 40
13.61107621161903
 40
14.5947221035127
 40
15.53410043879891
 40
16.47348732965607
 40
16.68284411852261
 40
16.89219395069221
 40
17.55003318184295
 40
18.20790985640214
 40
18.97737807076193
 40
19.74687642371871
 40
20.39643099294801
 40
21.04607200633048
 40
21.55806315090304
 40
22.07043581766663
 40
22.43395141938665
 40
22.79676872325098
 40
23.01952143602585
 40
23.2577550884258
 40
23.36183035860258
 40
23.45290862171657
 40
23.45290862171657
 40
23.45290862171657
 40
23.45290862171657
 10
346.0524497486724
 20
541.183730223183
 30
0.0
 10
345.9980375433343
 20
541.242441341914
 30
0.0
 10
345.892748966008
 20
541.3560484125512
 30
0.0
 10
345.6443857613228
 20
541.4818432388402
 30
0.0
 10
345.343631991794
 20
541.5787015238404
 30
0.0
 10
344.9481816585781
 20
541.6982638761717
 30
0.0
 10
344.4981676958616
 20
541.8065388751914
 30
0.0
 10
343.9506143075914
 20
541.9145488654403
 30
0.0
 10
343.3544098083563
 20
542.0102168124826
 30
0.0
 10
342.6713076607616
 20
542.1046757238797
 30
0.0
 10
341.9465526096163
 20
542.1883328681868
 30
0.0
 10
341.2173353054956
 20
542.25949821107
 30
0.0
 10
340.5238599437408
 20
542.3165125235918
 30
0.0
 10
340.0164357684073
 20
542.3529887635458
 30
0.0
 10
339.6586956282112
 20
542.3760230958123
 30
0.0
 10
339.2075656423453
 20
542.403424581807
 30
0.0
 10
338.5128375923643
 20
542.4400746204905
 30
0.0
 10
337.5594454556762
 20
542.4783391982734
 30
0.0
 10
336.5909170941651
 20
542.5055705758659
 30
0.0
 10
335.6024216320856
 20
542.522212426902
 30
0.0
 10
334.608830689508
 20
542.5276509099867
 30
0.0
 10
333.6152397468031
 20
542.5222124285335
 30
0.0
 10
332.6267442854343
 20
542.5055705660179
 30
0.0
 10
331.6582159222459
 20
542.4783392285989
 30
0.0
 10
330.7048237928852
 20
542.4400745047521
 30
0.0
 10
330.0097277758002
 20
542.4034054534194
 30
0.0
 10
329.5578625013608
 20
542.3759553365586
 30
0.0
 10
329.1997553139534
 20
542.3528873255448
 30
0.0
 10
328.6926996949392
 20
542.3164235081574
 30
0.0
 10
327.9999592854351
 20
542.2594628247577
 30
0.0
 10
327.2711090429447
 20
542.1883323875855
 30
0.0
 10
326.5463528069261
 20
542.1046770785647
 30
0.0
 10
325.8632543968977
 20
542.010212668598
 30
0.0
 10
325.2670374314166
 20
541.9145629953056
 30
0.0
 10
324.7195213254947
 20
541.806498371983
 30
0.0
 10
324.2693884274744
 20
541.6983976582663
 30
0.0
 10
323.8742619808243
 20
541.5783606915577
 30
0.0
 10
323.5725420786655
 20
541.4829181503844
 30
0.0
 10
323.3265509214611
 20
541.3536473902951
 30
0.0
 10
323.1907510386753
 20
541.2242692525906
 30
0.0
 10
323.1041159100093
 20
541.0993666879828
 30
0.0
 10
323.1119563447875
 20
541.0326956602361
 30
0.0
 10
323.1156154730902
 20
541.0015802542559
 30
0.0
 11
346.0524497486724
 21
541.183730223183
 31
0.0
 11
345.8802151264052
 21
541.3483221658598
 31
0.0
 11
345.6853076107096
 21
541.4561638605384
 31
0.0
 11
345.34342611976
 21
541.5776276070129
 31
0.0
 11
344.9949490240687
 21
541.6811037214075
 31
0.0
 11
344.497314566977
 21
541.8031106739303
 31
0.0
 11
343.9951674956913
 21
541.9030268922884
 31
0.0
 11
343.3540466147193
 21
542.0078956766951
 31
0.0
 11
342.7106309826925
 21
542.0969881152184
 31
0.0
 11
341.9463080131487
 21
542.1860842042515
 31
0.0
 11
341.1804930890694
 21
542.2609763575622
 31
0.0
 11
340.5237614005536
 21
542.3153889084479
 31
0.0
 11
339.8665044079382
 21
542.3625179580033
 31
0.0
 11
339.6586900885069
 21
542.3758970380202
 31
0.0
 11
339.4508233083102
 21
542.3885487335467
 31
0.0
 11
338.5127444870135
 21
542.4381053192888
 31
0.0
 11
337.574127261879
 21
542.4759122086568
 31
0.0
 11
336.5908745876357
 21
542.5037226115847
 31
0.0
 11
335.6073720823373
 21
542.5202803942058
 31
0.0
 11
334.6088306946345
 21
542.5258290030877
 31
0.0
 11
333.6102893069316
 21
542.5202803942058
 31
0.0
 11
332.6267868016332
 21
542.5037226115849
 31
0.0
 11
331.6435341273899
 21
542.4759122086568
 31
0.0
 11
330.7049169022554
 21
542.4381053192888
 31
0.0
 11
329.7668380809589
 21
542.3885487335467
 31
0.0
 11
329.5578681153352
 21
542.3758279440663
 31
0.0
 11
329.3489511688625
 21
542.3623720279095
 31
0.0
 11
328.6927979628749
 21
542.3153037364765
 31
0.0
 11
328.0371683001996
 21
542.2609763575622
 31
0.0
 11
327.2713533761203
 21
542.1860842042515
 31
0.0
 11
326.5070304065765
 21
542.0969881152184
 31
0.0
 11
325.8636147745497
 21
542.0078956766952
 31
0.0
 11
325.2224938935776
 21
541.9030268922884
 31
0.0
 11
324.720346822292
 21
541.8031106739304
 31
0.0
 11
324.2227123652002
 21
541.6811037214075
 31
0.0
 11
323.8742352695089
 21
541.5776276070131
 31
0.0
 11
323.5323537785594
 21
541.4561638605385
 31
0.0
 11
323.3374462628638
 21
541.3483221658599
 31
0.0
 11
323.1652116405965
 21
541.1837302231831
 31
0.0
 11
323.1148429101841
 21
541.0926552387195
 31
0.0
 11
323.1156154730902
 21
541.0015802542559
 31
0.0
  0
SPLINE
  5
126
330
4D
100
AcDbEntity
  8
1
  6
Continuous
 62
     7
100
AcDbSpline
210
0.0
220
0.0
230
1.0
 70
     8
 71
     3
 72
     9
 73
     5
 74
     3
 42
0.000000001
 43
0.0000000001
 44
0.00000001
 40
0.0
 40
0.0
 40
0.0
 40
0.0
 40
0.0256313029829286
 40
0.0517904863759537
 40
0.0517904863759537
 40
0.0517904863759537
 40
0.0517904863759537
 10
322.1057351581341
 20
544.5185505801325
 30
0.0
 10
322.1060556329547
 20
544.5099865110551
 30
0.0
 10
322.1067032026235
 20
544.492681996775
 30
0.0
 10
322.1109729811362
 20
544.4758986701733
 30
0.0
 10
322.1131296403937
 20
544.4674214756683
 30
0.0
 11
322.1057351581341
 21
544.5185505801325
 31
0.0
 11
322.107583778699
 21
544.4929860279003
 31
0.0
 11
322.1131296403937
 21
544.4674214756683
 31
0.0
  0
SPLINE
  5
127
330
4D
100
AcDbEntity
  8
1
  6
Continuous
 62
     7
100
AcDbSpline
210
0.0
220
0.0
230
1.0
 70
     8
 71
     3
 72
     9
 73
     5
 74
     3
 42
0.000000001
 43
0.0000000001
 44
0.00000001
 40
0.0
 40
0.0
 40
0.0
 40
0.0
 40
0.0751686916401147
 40
0.1619306996267251
 40
0.1619306996267251
 40
0.1619306996267251
 40
0.1619306996267251
 10
347.1057351581341
 20
554.4329991938645
 30
0.0
 10
347.1025241494555
 20
554.4582903839889
 30
0.0
 10
347.0956068773071
 20
554.5127734355616
 30
0.0
 10
347.0623038288715
 20
554.5566647857526
 30
0.0
 10
347.0444601409172
 20
554.5801816416426
 30
0.0
 11
347.1057351581341
 21
554.4329991938645
 31
0.0
 11
347.0904164038312
 21
554.5065904177534
 31
0.0
 11
347.0444601409172
 21
554.5801816416426
 31
0.0
  0
SPLINE
  5
128
330
4D
100
AcDbEntity
  8
1
  6
Continuous
 62
     7
100
AcDbSpline
210
0.0
220
0.0
230
1.0
 70
     8
 71
     3
 72
     9
 73
     5
 74
     3
 42
0.000000001
 43
0.0000000001
 44
0.00000001
 40
0.0
 40
0.0
 40
0.0
 40
0.0
 40
0.0751686916457265
 40
0.1619306996387725
 40
0.1619306996387725
 40
0.1619306996387725
 40
0.1619306996387725
 10
347.1057351581341
 20
544.5185505801139
 30
0.0
 10
347.1025241494566
 20
544.5438417702404
 30
0.0
 10
347.095606877311
 20
544.5983248218178
 30
0.0
 10
347.0623038288728
 20
544.6422161720126
 30
0.0
 10
347.0444601409172
 20
544.6657330279044
 30
0.0
 11
347.1057351581341
 21
544.5185505801139
 31
0.0
 11
347.0904164038337
 21
544.5921418040091
 31
0.0
 11
347.0444601409172
 21
544.6657330279044
 31
0.0
  0
SPLINE
  5
129
330
4D
100
AcDbEntity
  8
1
  6
Continuous
 62
     7
100
AcDbSpline
210
0.0
220
0.0
230
1.0
 70
     8
 71
     3
 72
    43
 73
    39
 74
    37
 42
0.000000001
 43
0.0000000001
 44
0.00000001
 40
0.0
 40
0.0
 40
0.0
 40
0.0
 40
0.2590315400659052
 40
0.5012625895931753
 40
0.895705699248666
 40
1.290892858425037
 40
1.847850836254497
 40
2.404397399877831
 40
3.110551712951741
 40
3.816610934482409
 40
4.653034836529161
 40
5.489426079304168
 40
6.432060634146938
 40
7.374672771867312
 40
8.395748613521429
 40
9.416815138242836
 40
10.48599640070251
 40
11.55517328520078
 40
12.64056133832549
 40
13.72594939140757
 40
14.79512627578087
 40
15.86430753803529
 40
16.88537406248852
 40
17.90644990380851
 40
18.84906204116674
 40
19.79169659560191
 40
20.62808783798271
 40
21.46451173961125
 40
22.1705709607754
 40
22.87672527347785
 40
23.43327183681134
 40
23.9902298143749
 40
24.38541697341912
 40
24.77986008310775
 40
25.02209113379512
 40
25.28112267204533
 40
25.36788468199134
 40
25.44305337676901
 40
25.44305337676901
 40
25.44305337676901
 40
25.44305337676901
 10
347.0444601409172
 20
554.5801816416426
 30
0.0
 10
346.98533901761
 20
554.6440570213582
 30
0.0
 10
346.8709313092415
 20
554.7676649064473
 30
0.0
 10
346.6009616908457
 20
554.9045857084786
 30
0.0
 10
346.2740299678849
 20
555.0100550867974
 30
0.0
 10
345.84418319603
 20
555.1401798911076
 30
0.0
 10
345.3550280682716
 20
555.2580139759922
 30
0.0
 10
344.7598610275724
 20
555.3755672713261
 30
0.0
 10
344.1118080114024
 20
555.4796937499578
 30
0.0
 10
343.3693041801322
 20
555.5824925350339
 30
0.0
 10
342.5815262947776
 20
555.6735663299118
 30
0.0
 10
341.7137969597981
 20
555.7582544715158
 30
0.0
 10
340.8094730954591
 20
555.8311065975042
 30
0.0
 10
339.8427970829622
 20
555.895254052173
 30
0.0
 10
338.8492199816279
 20
555.9474725447207
 30
0.0
 10
337.8129273930414
 20
555.9891911906611
 30
0.0
 10
336.7601775296299
 20
556.01880802486
 30
0.0
 10
335.6857258383991
 20
556.0369259381185
 30
0.0
 10
334.605735154279
 20
556.0428430034376
 30
0.0
 10
333.5257444701335
 20
556.0369259377342
 30
0.0
 10
332.4512927792392
 20
556.0188080238466
 30
0.0
 10
331.3985429152996
 20
555.9891911900572
 30
0.0
 10
330.3622503296316
 20
555.9474725409084
 30
0.0
 10
329.3686732191488
 20
555.8952540583296
 30
0.0
 10
328.4019972398468
 20
555.8311065678581
 30
0.0
 10
327.4976732600942
 20
555.758254567129
 30
0.0
 10
326.6299443115188
 20
555.6735660072338
 30
0.0
 10
325.8421650964968
 20
555.5824936531023
 30
0.0
 10
325.0996654987574
 20
555.47969028222
 30
0.0
 10
324.4515983512385
 20
555.3755791123049
 30
0.0
 10
323.8564735749401
 20
555.2579800325233
 30
0.0
 10
323.367183613399
 20
555.1402920123701
 30
0.0
 10
322.937704058105
 20
555.0097694048793
 30
0.0
 10
322.6096768148362
 20
554.905486795689
 30
0.0
 10
322.34239741112
 20
554.7656517021323
 30
0.0
 10
322.2008712125204
 20
554.6285742905834
 30
0.0
 10
322.11604369809
 20
554.5125781374352
 30
0.0
 10
322.1090033258593
 20
554.4582284652234
 30
0.0
 10
322.1057351581341
 20
554.4329991938707
 30
0.0
 11
347.0444601409172
 21
554.5801816416426
 31
0.0
 11
346.8573031123977
 21
554.7592614675168
 31
0.0
 11
346.6454168074247
 21
554.8766500332395
 31
0.0
 11
346.2737977745907
 21
555.0088796089714
 31
0.0
 11
345.8950000970834
 21
555.1215082461877
 31
0.0
 11
345.3541003099034
 21
555.2542847826572
 31
0.0
 11
344.8082809966663
 21
555.3630292269763
 31
0.0
 11
344.1114117533146
 21
555.4771658583882
 31
0.0
 11
343.4120424658265
 21
555.5741309199636
 31
0.0
 11
342.5812583256569
 21
555.6710982093325
 31
0.0
 11
341.7488482403944
 21
555.7526074716673
 31
0.0
 11
340.8093056417948
 21
555.8288938274126
 31
0.0
 11
339.8687716502376
 21
555.8914514140527
 31
0.0
 11
338.8491212745093
 21
555.9453864147408
 31
0.0
 11
337.8288841701356
 21
555.9865336803769
 31
0.0
 11
336.7601314169938
 21
556.0168012096334
 31
0.0
 11
335.6911064112356
 21
556.0348219252322
 31
0.0
 11
334.6057351581341
 21
556.0408607703329
 31
0.0
 11
333.5203639050325
 21
556.0348219252322
 31
0.0
 11
332.4513388992743
 21
556.0168012096333
 31
0.0
 11
331.3825861461326
 21
555.9865336803769
 31
0.0
 11
330.3623490417588
 21
555.9453864147409
 31
0.0
 11
329.3426986660306
 21
555.8914514140527
 31
0.0
 11
328.4021646744733
 21
555.8288938274126
 31
0.0
 11
327.4626220758738
 21
555.7526074716673
 31
0.0
 11
326.6302119906113
 21
555.6710982093324
 31
0.0
 11
325.7994278504416
 21
555.5741309199635
 31
0.0
 11
325.1000585629534
 21
555.4771658583882
 31
0.0
 11
324.4031893196018
 21
555.3630292269763
 31
0.0
 11
323.8573700063646
 21
555.2542847826574
 31
0.0
 11
323.3164702191845
 21
555.1215082461877
 31
0.0
 11
322.9376725416771
 21
555.0088796089714
 31
0.0
 11
322.5660535088432
 21
554.8766500332395
 31
0.0
 11
322.3541672038702
 21
554.7592614675168
 31
0.0
 11
322.1670101753508
 21
554.5801816416424
 31
0.0
 11
322.1210539124383
 21
554.5065904177566
 31
0.0
 11
322.1057351581341
 21
554.4329991938707
 31
0.0
  0
SPLINE
  5
12A
330
4D
100
AcDbEntity
  8
1
  6
Continuous
 62
     7
100
AcDbSpline
210
0.0
220
0.0
230
1.0
 70
     8
 71
     3
 72
    43
 73
    39
 74
    37
 42
0.000000001
 43
0.0000000001
 44
0.00000001
 40
0.0
 40
0.0
 40
0.0
 40
0.0
 40
0.2590315400659838
 40
0.5012625895932539
 40
0.8957056992487447
 40
1.290892858425116
 40
1.847850836254576
 40
2.40439739987791
 40
3.110551712951801
 40
3.816610934482485
 40
4.653034836529237
 40
5.489426079304255
 40
6.432060634147023
 40
7.37467277186739
 40
8.395748613521514
 40
9.41681513824292
 40
10.48599640070259
 40
11.55517328520086
 40
12.64056133832557
 40
13.72594939140765
 40
14.79512627578095
 40
15.86430753803537
 40
16.8853740624886
 40
17.9064499038086
 40
18.84906204116683
 40
19.79169659560199
 40
20.62808783798279
 40
21.46451173961133
 40
22.17057096077549
 40
22.87672527347793
 40
23.43327183681145
 40
23.99022981437498
 40
24.3854169734192
 40
24.77986008310783
 40
25.0220911337952
 40
25.28112267204542
 40
25.36788468199143
 40
25.44305337676921
 40
25.44305337676921
 40
25.44305337676921
 40
25.44305337676921
 10
347.0444601409172
 20
544.6657330279044
 30
0.0
 10
346.98533901761
 20
544.7296084076199
 30
0.0
 10
346.8709313092415
 20
544.8532162927091
 30
0.0
 10
346.6009616908457
 20
544.9901370947405
 30
0.0
 10
346.2740299678848
 20
545.0956064730592
 30
0.0
 10
345.8441831960301
 20
545.2257312773693
 30
0.0
 10
345.3550280682715
 20
545.3435653622541
 30
0.0
 10
344.7598610275725
 20
545.461118657588
 30
0.0
 10
344.1118080114023
 20
545.5652451362195
 30
0.0
 10
343.3693041801322
 20
545.6680439212959
 30
0.0
 10
342.5815262947776
 20
545.7591177161738
 30
0.0
 10
341.713796959798
 20
545.8438058577776
 30
0.0
 10
340.8094730954592
 20
545.9166579837663
 30
0.0
 10
339.8427970829621
 20
545.9808054384347
 30
0.0
 10
338.849219981628
 20
546.0330239309826
 30
0.0
 10
337.8129273930412
 20
546.0747425769229
 30
0.0
 10
336.7601775296301
 20
546.1043594111222
 30
0.0
 10
335.6857258383991
 20
546.12247732438
 30
0.0
 10
334.6057351542789
 20
546.1283943896996
 30
0.0
 10
333.5257444701335
 20
546.122477323996
 30
0.0
 10
332.4512927792392
 20
546.1043594101084
 30
0.0
 10
331.3985429152996
 20
546.0747425763193
 30
0.0
 10
330.3622503296316
 20
546.0330239271701
 30
0.0
 10
329.3686732191488
 20
545.9808054445913
 30
0.0
 10
328.4019972398468
 20
545.9166579541201
 30
0.0
 10
327.4976732600941
 20
545.8438059533904
 30
0.0
 10
326.6299443115188
 20
545.7591173934961
 30
0.0
 10
325.8421650964968
 20
545.6680450393641
 30
0.0
 10
325.0996654987574
 20
545.565241668482
 30
0.0
 10
324.4515983512384
 20
545.4611304985667
 30
0.0
 10
323.8564735749402
 20
545.3435314187849
 30
0.0
 10
323.3671836133989
 20
545.2258433986319
 30
0.0
 10
322.9377040581051
 20
545.095320791141
 30
0.0
 10
322.6096768148362
 20
544.9910381819508
 30
0.0
 10
322.34239741112
 20
544.8512030883941
 30
0.0
 10
322.2008712125204
 20
544.7141256768454
 30
0.0
 10
322.11604369809
 20
544.598129523697
 30
0.0
 10
322.1090033258592
 20
544.5437798514852
 30
0.0
 10
322.1057351581341
 20
544.5185505801325
 30
0.0
 11
347.0444601409172
 21
544.6657330279044
 31
0.0
 11
346.8573031123977
 21
544.8448128537786
 31
0.0
 11
346.6454168074247
 21
544.9622014195013
 31
0.0
 11
346.2737977745907
 21
545.0944309952332
 31
0.0
 11
345.8950000970834
 21
545.2070596324495
 31
0.0
 11
345.3541003099034
 21
545.3398361689191
 31
0.0
 11
344.8082809966663
 21
545.4485806132382
 31
0.0
 11
344.1114117533146
 21
545.5627172446499
 31
0.0
 11
343.4120424658265
 21
545.6596823062255
 31
0.0
 11
342.5812583256569
 21
545.7566495955944
 31
0.0
 11
341.7488482403944
 21
545.8381588579292
 31
0.0
 11
340.8093056417948
 21
545.9144452136745
 31
0.0
 11
339.8687716502376
 21
545.9770028003145
 31
0.0
 11
338.8491212745093
 21
546.0309378010028
 31
0.0
 11
337.8288841701356
 21
546.0720850666388
 31
0.0
 11
336.7601314169938
 21
546.1023525958952
 31
0.0
 11
335.6911064112356
 21
546.120373311494
 31
0.0
 11
334.6057351581341
 21
546.1264121565947
 31
0.0
 11
333.5203639050325
 21
546.1203733114941
 31
0.0
 11
332.4513388992743
 21
546.1023525958951
 31
0.0
 11
331.3825861461326
 21
546.0720850666388
 31
0.0
 11
330.3623490417588
 21
546.0309378010028
 31
0.0
 11
329.3426986660306
 21
545.9770028003145
 31
0.0
 11
328.4021646744733
 21
545.9144452136744
 31
0.0
 11
327.4626220758738
 21
545.8381588579291
 31
0.0
 11
326.6302119906113
 21
545.7566495955944
 31
0.0
 11
325.7994278504416
 21
545.6596823062255
 31
0.0
 11
325.1000585629534
 21
545.56271724465
 31
0.0
 11
324.4031893196018
 21
545.4485806132382
 31
0.0
 11
323.8573700063646
 21
545.3398361689191
 31
0.0
 11
323.3164702191845
 21
545.2070596324495
 31
0.0
 11
322.9376725416771
 21
545.0944309952332
 31
0.0
 11
322.5660535088432
 21
544.9622014195013
 31
0.0
 11
322.3541672038702
 21
544.8448128537786
 31
0.0
 11
322.1670101753508
 21
544.6657330279043
 31
0.0
 11
322.1210539124383
 21
544.5921418040184
 31
0.0
 11
322.1057351581341
 21
544.5185505801325
 31
0.0
  0
ARC
  5
12B
330
4D
100
AcDbEntity
  8
1
  6
Continuous
 62
     7
100
AcDbCircle
 10
562.0586413382642
 20
543.4188177197475
 30
0.0
 40
1.000000000000084
100
AcDbArc
 50
188.4453959009304
 51
262.5000000000092
  0
ARC
  5
12C
330
4D
100
AcDbEntity
  8
1
  6
Continuous
 62
     7
100
AcDbCircle
 10
583.3661766306575
 20
540.6136274810742
 30
0.0
 40
0.9999999999999803
100
AcDbArc
 50
262.500000000001
 51
336.5546040990854
  0
ARC
  5
12D
330
4D
100
AcDbEntity
  8
1
  6
Continuous
 62
     7
100
AcDbCircle
 10
562.1231093538685
 20
555.8164665596142
 30
0.0
 40
0.1999999999999978
100
AcDbArc
 50
82.50000000004707
 51
172.4999999999825
  0
ARC
  5
12E
330
4D
100
AcDbEntity
  8
1
  6
Continuous
 62
     7
100
AcDbCircle
 10
586.5126529436644
 20
552.6055222310033
 30
0.0
 40
0.2000000000000275
100
AcDbArc
 50
352.4999999999825
 51
82.49999999997824
  0
ENDBLK
  5
4F
330
4D
100
AcDbEntity
  8
0
100
AcDbBlockEnd
  0
BLOCK
  5
51
330
50
100
AcDbEntity
  8
0
100
AcDbBlockBegin
  2
35-186
 70
     0
 10
630.6848994267418
 20
1436.712394063146
 30
0.0
  3
35-186
  1

  0
LINE
  5
12F
330
50
100
AcDbEntity
  8
1
  6
Continuous
 62
     7
100
AcDbLine
 10
817.0506291437821
 20
1176.989437435504
 30
0.0
 11
817.0506291437821
 21
1177.385884044911
 31
0.0
  0
LINE
  5
130
330
50
100
AcDbEntity
  8
0
  6
Continuous
 62
     7
100
AcDbLine
 10
817.0506291437821
 20
1177.385884044911
 30
0.0
 11
817.3006291437821
 21
1177.489437435504
 31
0.0
  0
LINE
  5
131
330
50
100
AcDbEntity
  8
0
  6
Continuous
 62
     7
100
AcDbLine
 10
817.0506291437821
 20
1177.592990826097
 30
0.0
 11
817.3006291437821
 21
1177.489437435504
 31
0.0
  0
LINE
  5
132
330
50
100
AcDbEntity
  8
1
  6
Continuous
 62
     7
100
AcDbLine
 10
817.5506291437821
 20
1176.489437435504
 30
0.0
 11
817.0506291437821
 21
1176.989437435504
 31
0.0
  0
LINE
  5
133
330
50
100
AcDbEntity
  8
1
  6
Continuous
 62
     7
100
AcDbLine
 10
817.0506291437821
 20
1177.592990826097
 30
0.0
 11
817.0506291437821
 21
1178.489437435504
 31
0.0
  0
LINE
  5
134
330
50
100
AcDbEntity
  8
1
  6
Continuous
 62
     7
100
AcDbLine
 10
849.0506291437821
 20
1179.897594742058
 30
0.0
 11
819.0506291437821
 21
1179.897594742058
 31
0.0
  0
LINE
  5
135
330
50
100
AcDbEntity
  8
1
  6
Continuous
 62
     2
100
AcDbLine
 10
819.8636291437822
 20
1179.897594742058
 30
0.0
 11
819.0506291437821
 21
1178.489437435504
 31
0.0
  0
LINE
  5
136
330
50
100
AcDbEntity
  8
1
  6
Continuous
 62
     7
100
AcDbLine
 10
817.0506291437821
 20
1178.489437435504
 30
0.0
 11
819.0506291437821
 21
1178.489437435504
 31
0.0
  0
LINE
  5
137
330
50
100
AcDbEntity
  8
1
  6
Continuous
 62
     7
100
AcDbLine
 10
819.0506291437821
 20
1183.676437435504
 30
0.0
 11
819.8636291437822
 21
1184.489437435504
 31
0.0
  0
LINE
  5
138
330
50
100
AcDbEntity
  8
1
  6
Continuous
 62
     7
100
AcDbLine
 10
849.0506291437821
 20
1183.676437435504
 30
0.0
 11
819.0506291437821
 21
1183.676437435504
 31
0.0
  0
LINE
  5
139
330
50
100
AcDbEntity
  8
1
  6
Continuous
 62
     7
100
AcDbLine
 10
820.3636291437822
 20
1184.489437435504
 30
0.0
 11
819.8636291437822
 21
1184.489437435504
 31
0.0
  0
LINE
  5
13A
330
50
100
AcDbEntity
  8
1
  6
Continuous
 62
     2
100
AcDbLine
 10
819.8636291437822
 20
1179.897594742058
 30
0.0
 11
819.8636291437822
 21
1183.676437435504
 31
0.0
  0
LINE
  5
13B
330
50
100
AcDbEntity
  8
1
  6
Continuous
 62
     2
100
AcDbLine
 10
819.8636291437822
 20
1183.676437435504
 30
0.0
 11
819.8636291437822
 21
1184.489437435504
 31
0.0
  0
LINE
  5
13C
330
50
100
AcDbEntity
  8
1
  6
Continuous
 62
     7
100
AcDbLine
 10
817.5506291437821
 20
1176.489437435504
 30
0.0
 11
834.0506291437821
 21
1176.489437435504
 31
0.0
  0
LINE
  5
13D
330
50
100
AcDbEntity
  8
1
  6
Continuous
 62
     7
100
AcDbLine
 10
819.0506291437821
 20
1178.489437435504
 30
0.0
 11
819.0506291437821
 21
1183.676437435504
 31
0.0
  0
LINE
  5
13E
330
50
100
AcDbEntity
  8
1
  6
Continuous
 62
     7
100
AcDbLine
 10
834.0506291437821
 20
1184.489437435504
 30
0.0
 11
820.3636291437822
 21
1184.489437435504
 31
0.0
  0
LINE
  5
13F
330
50
100
AcDbEntity
  8
1
  6
Continuous
 62
     7
100
AcDbLine
 10
851.0506291437821
 20
1177.385884044911
 30
0.0
 11
851.0506291437821
 21
1176.989437435504
 31
0.0
  0
LINE
  5
140
330
50
100
AcDbEntity
  8
0
  6
Continuous
 62
     7
100
AcDbLine
 10
850.8006291437821
 20
1177.489437435504
 30
0.0
 11
851.0506291437821
 21
1177.385884044911
 31
0.0
  0
LINE
  5
141
330
50
100
AcDbEntity
  8
0
  6
Continuous
 62
     7
100
AcDbLine
 10
850.8006291437821
 20
1177.489437435504
 30
0.0
 11
851.0506291437821
 21
1177.592990826097
 31
0.0
  0
LINE
  5
142
330
50
100
AcDbEntity
  8
1
  6
Continuous
 62
     7
100
AcDbLine
 10
851.0506291437821
 20
1176.989437435504
 30
0.0
 11
850.5506291437821
 21
1176.489437435504
 31
0.0
  0
LINE
  5
143
330
50
100
AcDbEntity
  8
1
  6
Continuous
 62
     7
100
AcDbLine
 10
851.0506291437821
 20
1178.489437435504
 30
0.0
 11
851.0506291437821
 21
1177.592990826097
 31
0.0
  0
LINE
  5
144
330
50
100
AcDbEntity
  8
1
  6
PHANTOM
 62
     4
100
AcDbLine
 10
834.0506291437821
 20
1186.562514358581
 30
0.0
 11
834.0506291437821
 21
1174.489437435504
 31
0.0
  0
LINE
  5
145
330
50
100
AcDbEntity
  8
1
  6
Continuous
 62
     2
100
AcDbLine
 10
849.0506291437821
 20
1178.489437435504
 30
0.0
 11
848.2376291437822
 21
1179.897594742058
 31
0.0
  0
LINE
  5
146
330
50
100
AcDbEntity
  8
1
  6
Continuous
 62
     7
100
AcDbLine
 10
849.0506291437821
 20
1178.489437435504
 30
0.0
 11
851.0506291437821
 21
1178.489437435504
 31
0.0
  0
LINE
  5
147
330
50
100
AcDbEntity
  8
1
  6
Continuous
 62
     7
100
AcDbLine
 10
848.2376291437822
 20
1184.489437435504
 30
0.0
 11
849.0506291437821
 21
1183.676437435504
 31
0.0
  0
LINE
  5
148
330
50
100
AcDbEntity
  8
1
  6
Continuous
 62
     7
100
AcDbLine
 10
848.2376291437822
 20
1184.489437435504
 30
0.0
 11
847.7376291437822
 21
1184.489437435504
 31
0.0
  0
LINE
  5
149
330
50
100
AcDbEntity
  8
1
  6
Continuous
 62
     2
100
AcDbLine
 10
848.2376291437822
 20
1184.489437435504
 30
0.0
 11
848.2376291437822
 21
1179.897594742058
 31
0.0
  0
LINE
  5
14A
330
50
100
AcDbEntity
  8
1
  6
Continuous
 62
     7
100
AcDbLine
 10
834.0506291437821
 20
1176.489437435504
 30
0.0
 11
850.5506291437821
 21
1176.489437435504
 31
0.0
  0
LINE
  5
14B
330
50
100
AcDbEntity
  8
1
  6
Continuous
 62
     7
100
AcDbLine
 10
849.0506291437821
 20
1183.676437435504
 30
0.0
 11
849.0506291437821
 21
1179.897594742058
 31
0.0
  0
LINE
  5
14C
330
50
100
AcDbEntity
  8
1
  6
Continuous
 62
     7
100
AcDbLine
 10
847.7376291437822
 20
1184.489437435504
 30
0.0
 11
834.0506291437821
 21
1184.489437435504
 31
0.0
  0
LINE
  5
14D
330
50
100
AcDbEntity
  8
1
  6
Continuous
 62
     7
100
AcDbLine
 10
849.0506291437821
 20
1179.897594742058
 30
0.0
 11
849.0506291437821
 21
1178.489437435504
 31
0.0
  0
LINE
  5
14E
330
50
100
AcDbEntity
  8
1
  6
Continuous
 62
     7
100
AcDbLine
 10
849.0506291437821
 20
1178.489437435504
 30
0.0
 11
819.0506291437821
 21
1178.489437435504
 31
0.0
  0
LINE
  5
14F
330
50
100
AcDbEntity
  8
1
  6
Continuous
 62
     7
100
AcDbLine
 10
817.3006291437821
 20
1177.489437435504
 30
0.0
 11
850.8006291437821
 21
1177.489437435504
 31
0.0
  0
LINE
  5
150
330
50
100
AcDbEntity
  8
1
  6
Continuous
 62
     7
100
AcDbLine
 10
851.0506291437821
 20
1177.592990826097
 30
0.0
 11
817.0506291437821
 21
1177.592990826097
 31
0.0
  0
LINE
  5
151
330
50
100
AcDbEntity
  8
1
  6
Continuous
 62
     7
100
AcDbLine
 10
817.0506291437821
 20
1177.385884044911
 30
0.0
 11
851.0506291437821
 21
1177.385884044911
 31
0.0
  0
LINE
  5
152
330
50
100
AcDbEntity
  8
1
  6
Continuous
 62
     7
100
AcDbLine
 10
851.0506291437821
 20
1176.989437435504
 30
0.0
 11
817.0506291437821
 21
1176.989437435504
 31
0.0
  0
ENDBLK
  5
52
330
50
100
AcDbEntity
  8
0
100
AcDbBlockEnd
  0
BLOCK
  5
54
330
53
100
AcDbEntity
  8
0
100
AcDbBlockBegin
  2
35-180
 70
     0
 10
365.1057351581342
 20
892.4493314863337
 30
0.0
  3
35-180
  1

  0
LINE
  5
153
330
53
100
AcDbEntity
  8
1
  6
Continuous
 62
     2
100
AcDbLine
 10
662.1557866049602
 20
1177.239437435504
 30
0.0
 11
662.1557866049602
 21
1182.406905680773
 31
0.0
  0
LINE
  5
154
330
53
100
AcDbEntity
  8
1
  6
Continuous
 62
     7
100
AcDbLine
 10
661.5307866049602
 20
1177.239437435504
 30
0.0
 11
682.5307866049603
 21
1177.239437435504
 31
0.0
  0
LINE
  5
155
330
53
100
AcDbEntity
  8
1
  6
Continuous
 62
     7
100
AcDbLine
 10
661.5307866049602
 20
1182.406905680773
 30
0.0
 11
661.5307866049602
 21
1177.239437435504
 31
0.0
  0
LINE
  5
156
330
53
100
AcDbEntity
  8
1
  6
Continuous
 62
     7
100
AcDbLine
 10
682.5307866049603
 20
1182.406905680773
 30
0.0
 11
661.5307866049602
 21
1182.406905680773
 31
0.0
  0
LINE
  5
157
330
53
100
AcDbEntity
  8
1
  6
Continuous
 62
     2
100
AcDbLine
 10
661.5307866049602
 20
1183.489437435504
 30
0.0
 11
662.1557866049602
 21
1182.406905680773
 31
0.0
  0
LINE
  5
158
330
53
100
AcDbEntity
  8
1
  6
Continuous
 62
     7
100
AcDbLine
 10
662.1557866049602
 20
1176.614437435504
 30
0.0
 11
662.2807866049602
 21
1176.489437435504
 31
0.0
  0
LINE
  5
159
330
53
100
AcDbEntity
  8
1
  6
Continuous
 62
     2
100
AcDbLine
 10
662.1557866049602
 20
1176.614437435504
 30
0.0
 11
662.1557866049602
 21
1177.239437435504
 31
0.0
  0
LINE
  5
15A
330
53
100
AcDbEntity
  8
1
  6
Continuous
 62
     7
100
AcDbLine
 10
661.5307866049602
 20
1177.239437435504
 30
0.0
 11
662.1557866049602
 21
1176.614437435504
 31
0.0
  0
LINE
  5
15B
330
53
100
AcDbEntity
  8
1
  6
Continuous
 62
     7
100
AcDbLine
 10
660.0307866049602
 20
1187.489437435504
 30
0.0
 11
660.7807866049602
 21
1188.239437435504
 31
0.0
  0
LINE
  5
15C
330
53
100
AcDbEntity
  8
1
  6
Continuous
 62
     7
100
AcDbLine
 10
661.5307866049602
 20
1183.489437435504
 30
0.0
 11
661.5307866049602
 21
1182.406905680773
 31
0.0
  0
LINE
  5
15D
330
53
100
AcDbEntity
  8
1
  6
Continuous
 62
     7
100
AcDbLine
 10
660.0307866049602
 20
1186.989437435504
 30
0.0
 11
660.0307866049602
 21
1184.489437435504
 31
0.0
  0
LINE
  5
15E
330
53
100
AcDbEntity
  8
1
  6
Continuous
 62
     2
100
AcDbLine
 10
660.7807866049602
 20
1188.239437435504
 30
0.0
 11
660.7807866049602
 21
1184.489437435504
 31
0.0
  0
LINE
  5
15F
330
53
100
AcDbEntity
  8
1
  6
Continuous
 62
     7
100
AcDbLine
 10
660.7807866049602
 20
1188.239437435504
 30
0.0
 11
661.0307866049602
 21
1188.489437435504
 31
0.0
  0
LINE
  5
160
330
53
100
AcDbEntity
  8
1
  6
Continuous
 62
     7
100
AcDbLine
 10
684.0307866049603
 20
1187.489437435504
 30
0.0
 11
660.0307866049602
 21
1187.489437435504
 31
0.0
  0
LINE
  5
161
330
53
100
AcDbEntity
  8
1
  6
Continuous
 62
     7
100
AcDbLine
 10
661.0307866049602
 20
1188.489437435504
 30
0.0
 11
672.0307866049603
 21
1188.489437435504
 31
0.0
  0
LINE
  5
162
330
53
100
AcDbEntity
  8
1
  6
Continuous
 62
     7
100
AcDbLine
 10
662.2807866049602
 20
1176.489437435504
 30
0.0
 11
672.0307866049603
 21
1176.489437435504
 31
0.0
  0
LINE
  5
163
330
53
100
AcDbEntity
  8
1
  6
PHANTOM
 62
     4
100
AcDbLine
 10
672.0307866049603
 20
1190.286196635288
 30
0.0
 11
672.0307866049603
 21
1174.286196635288
 31
0.0
  0
LINE
  5
164
330
53
100
AcDbEntity
  8
1
  6
Continuous
 62
     7
100
AcDbLine
 10
660.0307866049602
 20
1184.489437435504
 30
0.0
 11
660.7807866049602
 21
1183.739437435504
 31
0.0
  0
LINE
  5
165
330
53
100
AcDbEntity
  8
1
  6
Continuous
 62
     7
100
AcDbLine
 10
660.0307866049602
 20
1184.489437435504
 30
0.0
 11
660.0307866049602
 21
1187.489437435504
 31
0.0
  0
LINE
  5
166
330
53
100
AcDbEntity
  8
1
  6
Continuous
 62
     7
100
AcDbLine
 10
661.0307866049602
 20
1183.489437435504
 30
0.0
 11
661.5307866049602
 21
1183.489437435504
 31
0.0
  0
LINE
  5
167
330
53
100
AcDbEntity
  8
1
  6
Continuous
 62
     7
100
AcDbLine
 10
660.7807866049602
 20
1183.739437435504
 30
0.0
 11
661.0307866049602
 21
1183.489437435504
 31
0.0
  0
LINE
  5
168
330
53
100
AcDbEntity
  8
1
  6
Continuous
 62
     7
100
AcDbLine
 10
660.0307866049602
 20
1184.489437435504
 30
0.0
 11
684.0307866049603
 21
1184.489437435504
 31
0.0
  0
LINE
  5
169
330
53
100
AcDbEntity
  8
1
  6
Continuous
 62
     2
100
AcDbLine
 10
660.7807866049602
 20
1184.489437435504
 30
0.0
 11
660.7807866049602
 21
1183.739437435504
 31
0.0
  0
LINE
  5
16A
330
53
100
AcDbEntity
  8
1
  6
Continuous
 62
     2
100
AcDbLine
 10
681.9057866049603
 20
1182.406905680773
 30
0.0
 11
682.5307866049603
 21
1183.489437435504
 31
0.0
  0
LINE
  5
16B
330
53
100
AcDbEntity
  8
1
  6
Continuous
 62
     7
100
AcDbLine
 10
681.7807866049603
 20
1176.489437435504
 30
0.0
 11
681.9057866049603
 21
1176.614437435504
 31
0.0
  0
LINE
  5
16C
330
53
100
AcDbEntity
  8
1
  6
Continuous
 62
     2
100
AcDbLine
 10
681.9057866049603
 20
1182.406905680773
 30
0.0
 11
681.9057866049603
 21
1176.614437435504
 31
0.0
  0
LINE
  5
16D
330
53
100
AcDbEntity
  8
1
  6
Continuous
 62
     7
100
AcDbLine
 10
681.9057866049603
 20
1176.614437435504
 30
0.0
 11
682.5307866049603
 21
1177.239437435504
 31
0.0
  0
LINE
  5
16E
330
53
100
AcDbEntity
  8
1
  6
Continuous
 62
     7
100
AcDbLine
 10
683.2807866049603
 20
1188.239437435504
 30
0.0
 11
684.0307866049603
 21
1187.489437435504
 31
0.0
  0
LINE
  5
16F
330
53
100
AcDbEntity
  8
1
  6
Continuous
 62
     7
100
AcDbLine
 10
682.5307866049603
 20
1177.239437435504
 30
0.0
 11
682.5307866049603
 21
1182.406905680773
 31
0.0
  0
LINE
  5
170
330
53
100
AcDbEntity
  8
1
  6
Continuous
 62
     7
100
AcDbLine
 10
684.0307866049603
 20
1184.489437435504
 30
0.0
 11
684.0307866049603
 21
1186.989437435504
 31
0.0
  0
LINE
  5
171
330
53
100
AcDbEntity
  8
1
  6
Continuous
 62
     7
100
AcDbLine
 10
683.0307866049603
 20
1188.489437435504
 30
0.0
 11
683.2807866049603
 21
1188.239437435504
 31
0.0
  0
LINE
  5
172
330
53
100
AcDbEntity
  8
1
  6
Continuous
 62
     7
100
AcDbLine
 10
672.0307866049603
 20
1188.489437435504
 30
0.0
 11
683.0307866049603
 21
1188.489437435504
 31
0.0
  0
LINE
  5
173
330
53
100
AcDbEntity
  8
1
  6
Continuous
 62
     7
100
AcDbLine
 10
672.0307866049603
 20
1176.489437435504
 30
0.0
 11
681.7807866049603
 21
1176.489437435504
 31
0.0
  0
LINE
  5
174
330
53
100
AcDbEntity
  8
1
  6
Continuous
 62
     7
100
AcDbLine
 10
683.2807866049603
 20
1183.739437435504
 30
0.0
 11
684.0307866049603
 21
1184.489437435504
 31
0.0
  0
LINE
  5
175
330
53
100
AcDbEntity
  8
1
  6
Continuous
 62
     7
100
AcDbLine
 10
684.0307866049603
 20
1187.489437435504
 30
0.0
 11
684.0307866049603
 21
1184.489437435504
 31
0.0
  0
LINE
  5
176
330
53
100
AcDbEntity
  8
1
  6
Continuous
 62
     7
100
AcDbLine
 10
682.5307866049603
 20
1183.489437435504
 30
0.0
 11
683.0307866049603
 21
1183.489437435504
 31
0.0
  0
LINE
  5
177
330
53
100
AcDbEntity
  8
1
  6
Continuous
 62
     7
100
AcDbLine
 10
683.0307866049603
 20
1183.489437435504
 30
0.0
 11
683.2807866049603
 21
1183.739437435504
 31
0.0
  0
LINE
  5
178
330
53
100
AcDbEntity
  8
1
  6
Continuous
 62
     2
100
AcDbLine
 10
683.2807866049603
 20
1183.739437435504
 30
0.0
 11
683.2807866049603
 21
1188.239437435504
 31
0.0
  0
LINE
  5
179
330
53
100
AcDbEntity
  8
1
  6
Continuous
 62
     7
100
AcDbLine
 10
682.5307866049603
 20
1182.406905680773
 30
0.0
 11
682.5307866049603
 21
1183.489437435504
 31
0.0
  0
LINE
  5
17A
330
53
100
AcDbEntity
  8
1
  6
Continuous
 62
     7
100
AcDbLine
 10
682.5307866049603
 20
1183.489437435504
 30
0.0
 11
661.5307866049602
 21
1183.489437435504
 31
0.0
  0
ENDBLK
  5
55
330
53
100
AcDbEntity
  8
0
100
AcDbBlockEnd
  0
BLOCK
  5
57
330
56
100
AcDbEntity
  8
0
100
AcDbBlockBegin
  2
88-212__1
 70
     0
 10
122.0456392297633
 20
1082.708744523989
 30
0.0
  3
88-212__1
  1

  0
LINE
  5
17B
330
56
100
AcDbEntity
  8
1
  6
Continuous
 62
     7
100
AcDbLine
 10
856.9888747178206
 20
451.692972628131
 30
0.0
 11
858.8557351581344
 21
379.8188456760497
 31
0.0
  0
LINE
  5
17C
330
56
100
AcDbEntity
  8
1
  6
Continuous
 62
     7
100
AcDbLine
 10
853.8557351581344
 20
455.0994233935861
 30
0.0
 11
853.8557351581344
 21
456.6188456760498
 31
0.0
  0
LINE
  5
17D
330
56
100
AcDbEntity
  8
1
  6
Continuous
 62
     7
100
AcDbLine
 10
790.3557351581344
 20
379.8188456760497
 30
0.0
 11
792.2225955984482
 21
451.692972628131
 31
0.0
  0
LINE
  5
17E
330
56
100
AcDbEntity
  8
1
  6
Continuous
 62
     7
100
AcDbLine
 10
795.3557351581344
 20
456.3188456760498
 30
0.0
 11
795.3557351581344
 21
455.0994233935862
 31
0.0
  0
LINE
  5
17F
330
56
100
AcDbEntity
  8
1
  6
Continuous
 62
     7
100
AcDbLine
 10
795.8557351581344
 20
456.8188456760498
 30
0.0
 11
796.6057351581344
 21
456.8188456760497
 31
0.0
  0
LINE
  5
180
330
56
100
AcDbEntity
  8
1
  6
Continuous
 62
     7
100
AcDbLine
 10
852.6057351581344
 20
456.8188456760497
 30
0.0
 11
853.6557351581343
 21
456.8188456760498
 31
0.0
  0
LINE
  5
181
330
56
100
AcDbEntity
  8
1
  6
Continuous
 62
     7
100
AcDbLine
 10
790.3557351581344
 20
379.8188456760497
 30
0.0
 11
858.8557351581344
 21
379.8188456760497
 31
0.0
  0
LINE
  5
182
330
56
100
AcDbEntity
  8
1
  6
Continuous
 62
     7
100
AcDbLine
 10
852.1057351581344
 20
456.8188456760497
 30
0.0
 11
852.6057351581344
 21
456.8188456760497
 31
0.0
  0
LINE
  5
183
330
56
100
AcDbEntity
  8
1
  6
Continuous
 62
     7
100
AcDbLine
 10
203.6057351581341
 20
1128.213903621554
 30
0.0
 11
203.6057351581341
 21
1112.320539400002
 31
0.0
  0
LINE
  5
184
330
56
100
AcDbEntity
  8
1
  6
Continuous
 62
     7
100
AcDbLine
 10
203.6057351581341
 20
1112.320539400002
 30
0.0
 11
203.6057351581341
 21
1096.427175178449
 31
0.0
  0
LINE
  5
185
330
56
100
AcDbEntity
  8
1
  6
PHANTOM
 62
     4
100
AcDbLine
 10
197.7307220619894
 20
1112.320539400002
 30
0.0
 11
334.6057351581341
 21
1112.320539400002
 31
0.0
  0
LINE
  5
186
330
56
100
AcDbEntity
  8
1
  6
Continuous
 62
     7
100
AcDbLine
 10
334.3557351581341
 20
1146.570523937865
 30
0.0
 11
334.3557351581341
 21
1141.819684733625
 31
0.0
  0
LINE
  5
187
330
56
100
AcDbEntity
  8
1
  6
Continuous
 62
     7
100
AcDbLine
 10
204.640742079119
 20
391.6490289166276
 30
0.0
 11
203.6057351581341
 21
379.8188456760497
 31
0.0
  0
LINE
  5
188
330
56
100
AcDbEntity
  8
1
  6
Continuous
 62
     7
100
AcDbLine
 10
205.2896155308069
 20
399.0656864072932
 30
0.0
 11
204.640742079119
 21
391.6490289166276
 31
0.0
  0
LINE
  5
189
330
56
100
AcDbEntity
  8
1
  6
Continuous
 62
     7
100
AcDbLine
 10
306.905735158134
 20
456.8188456760497
 30
0.0
 11
305.8557351581341
 21
456.8188456760497
 31
0.0
  0
LINE
  5
18A
330
56
100
AcDbEntity
  8
1
  6
Continuous
 62
     7
100
AcDbLine
 10
334.3557351581341
 20
379.8188456760497
 30
0.0
 11
203.6057351581341
 21
379.8188456760497
 31
0.0
  0
LINE
  5
18B
330
56
100
AcDbEntity
  8
1
  6
Continuous
 62
     7
100
AcDbLine
 10
334.3557351581341
 20
379.8188456760497
 30
0.0
 11
334.3557351581341
 21
456.8188456760497
 31
0.0
  0
LINE
  5
18C
330
56
100
AcDbEntity
  8
1
  6
Continuous
 62
     7
100
AcDbLine
 10
306.905735158134
 20
456.8188456760497
 30
0.0
 11
334.3557351581341
 21
456.8188456760497
 31
0.0
  0
LINE
  5
18D
330
56
100
AcDbEntity
  8
1
  6
Continuous
 62
     7
100
AcDbLine
 10
334.3557351581341
 20
456.8188456760497
 30
0.0
 11
334.3557351581341
 21
457.3188456760465
 31
0.0
  0
LINE
  5
18E
330
56
100
AcDbEntity
  8
1
  6
Continuous
 62
     7
100
AcDbLine
 10
307.1057351581341
 20
457.3188456760433
 30
0.0
 11
307.1057351581341
 21
457.0188456760496
 31
0.0
  0
LINE
  5
18F
330
56
100
AcDbEntity
  8
1
  6
Continuous
 62
     7
100
AcDbLine
 10
796.6057351581344
 20
456.8188456760497
 30
0.0
 11
852.6057351581344
 21
456.8188456760497
 31
0.0
  0
LINE
  5
190
330
56
100
AcDbEntity
  8
1
  6
Continuous
 62
     7
100
AcDbLine
 10
854.2815456319497
 20
454.6049581124951
 30
0.0
 11
794.929924684319
 21
454.6049581124952
 31
0.0
  0
ARC
  5
191
330
56
100
AcDbEntity
  8
1
  6
Continuous
 62
     7
100
AcDbCircle
 10
824.6057351581344
 20
256.8188456760495
 30
0.0
 40
200.0000000000003
100
AcDbArc
 50
81.42185804967227
 51
81.4669980566368
  0
ARC
  5
192
330
56
100
AcDbEntity
  8
1
  6
Continuous
 62
     7
100
AcDbCircle
 10
824.6057351581344
 20
256.8188456760495
 30
0.0
 40
200.0000000000004
100
AcDbArc
 50
98.53300194336323
 51
98.57814195032773
  0
ARC
  5
193
330
56
100
AcDbEntity
  8
1
  6
Continuous
 62
     7
100
AcDbCircle
 10
334.6057351581328
 20
-874.49563707055
 30
0.0
 40
2021.066176470551
100
AcDbArc
 50
90.0070873210791
 51
93.31495538284642
  0
ARC
  5
194
330
56
100
AcDbEntity
  8
1
  6
Continuous
 62
     7
100
AcDbCircle
 10
334.6057351581328
 20
3099.136715870553
 30
0.0
 40
2021.066176470551
100
AcDbArc
 50
266.6850446171536
 51
269.3490062713767
  0
ARC
  5
195
330
56
100
AcDbEntity
  8
1
  6
Continuous
 62
     7
100
AcDbCircle
 10
334.6057351581341
 20
-243.1811543239505
 30
0.0
 40
700.0000000000003
100
AcDbArc
 50
92.42822176161356
 51
96.06535456026205
  0
ARC
  5
196
330
56
100
AcDbEntity
  8
1
  6
Continuous
 62
     7
100
AcDbCircle
 10
304.9271058081247
 20
456.6898544768893
 30
0.0
 40
0.4999999999999945
100
AcDbArc
 50
272.428221761621
 51
338.2221539014928
  0
ARC
  5
197
330
56
100
AcDbEntity
  8
1
  6
Continuous
 62
     7
100
AcDbCircle
 10
272.8650745454373
 20
252.9922940054699
 30
0.0
 40
200.0000000000001
100
AcDbArc
 50
97.09306245043271
 51
106.0132022199253
  0
ARC
  5
198
330
56
100
AcDbEntity
  8
1
  6
Continuous
 62
     7
100
AcDbCircle
 10
334.6057351581341
 20
-243.1811543239505
 30
0.0
 40
700.0000000000003
100
AcDbArc
 50
96.06535456026205
 51
97.09306245043481
  0
ARC
  5
199
330
56
100
AcDbEntity
  8
1
  6
Continuous
 62
     7
100
AcDbCircle
 10
404.5285551491559
 20
381.6345378577618
 30
0.0
 40
199.9999999999999
100
AcDbArc
 50
162.6568512891585
 51
175.0000000000001
  0
ARC
  5
19A
330
56
100
AcDbEntity
  8
1
  6
Continuous
 62
     7
100
AcDbCircle
 10
334.1057351581326
 20
-874.49563707055
 30
0.0
 40
2019.136176470553
100
AcDbArc
 50
90.00709409552546
 51
92.91516709563822
  0
ARC
  5
19B
330
56
100
AcDbEntity
  8
1
  6
Continuous
 62
     7
100
AcDbCircle
 10
229.2787660844134
 20
1126.897158058088
 30
0.0
 40
15.00000000000012
100
AcDbArc
 50
92.99824183679712
 51
178.6398112726111
  0
ARC
  5
19C
330
56
100
AcDbEntity
  8
1
  6
Continuous
 62
     7
100
AcDbCircle
 10
229.2787660844134
 20
1097.743920741915
 30
0.0
 40
15.00000000000021
100
AcDbArc
 50
181.3601887273889
 51
267.0017581632029
  0
ARC
  5
19D
330
56
100
AcDbEntity
  8
1
  6
Continuous
 62
     7
100
AcDbCircle
 10
843.1802124022842
 20
1112.320539400001
 30
0.0
 40
629.0744772441502
100
AcDbArc
 50
179.9999999999999
 51
181.221656725829
  0
ARC
  5
19E
330
56
100
AcDbEntity
  8
1
  6
Continuous
 62
     7
100
AcDbCircle
 10
334.1057351581326
 20
3099.136715870553
 30
0.0
 40
2019.136176470552
100
AcDbArc
 50
267.0479813458669
 51
269.3449997034263
  0
ARC
  5
19F
330
56
100
AcDbEntity
  8
1
  6
Continuous
 62
     7
100
AcDbCircle
 10
843.1802124022842
 20
1112.320539400001
 30
0.0
 40
629.0744772441508
100
AcDbArc
 50
178.7783432741709
 51
179.9999999999999
  0
ARC
  5
1A0
330
56
100
AcDbEntity
  8
1
  6
Continuous
 62
     7
100
AcDbCircle
 10
853.6557351581343
 20
456.6188456760498
 30
0.0
 40
0.2000000000000455
100
AcDbArc
 50
0.0
 51
90.0
  0
ARC
  5
1A1
330
56
100
AcDbEntity
  8
1
  6
Continuous
 62
     7
100
AcDbCircle
 10
853.9898861810996
 20
451.6150768219824
 30
0.0
 40
2.999999999999988
100
AcDbArc
 50
1.48786752882678
 51
81.42185804967217
  0
ARC
  5
1A2
330
56
100
AcDbEntity
  8
1
  6
Continuous
 62
     7
100
AcDbCircle
 10
795.8557351581344
 20
456.3188456760498
 30
0.0
 40
0.5
100
AcDbArc
 50
90.0
 51
180.0
  0
ARC
  5
1A3
330
56
100
AcDbEntity
  8
1
  6
Continuous
 62
     7
100
AcDbCircle
 10
795.2215841351691
 20
451.6150768219824
 30
0.0
 40
2.999999999999892
100
AcDbArc
 50
98.57814195032567
 51
178.5121324711732
  0
ARC
  5
1A4
330
56
100
AcDbEntity
  8
1
  6
Continuous
 62
     7
100
AcDbCircle
 10
854.3557351581344
 20
455.0994233935861
 30
0.0
 40
0.5
100
AcDbArc
 50
180.0
 51
261.4669980566182
  0
ARC
  5
1A5
330
56
100
AcDbEntity
  8
1
  6
Continuous
 62
     7
100
AcDbCircle
 10
794.8557351581344
 20
455.0994233935862
 30
0.0
 40
0.4999999999999303
100
AcDbArc
 50
278.5330019433679
 51
0.0
  0
ARC
  5
1A6
330
56
100
AcDbEntity
  8
1
  6
Continuous
 62
     7
100
AcDbCircle
 10
796.6057351581344
 20
457.3188456760497
 30
0.0
 40
0.5
100
AcDbArc
 50
270.0
 51
0.0
  0
ARC
  5
1A7
330
56
100
AcDbEntity
  8
1
  6
Continuous
 62
     7
100
AcDbCircle
 10
852.6057351581344
 20
457.3188456760497
 30
0.0
 40
0.5
100
AcDbArc
 50
180.0
 51
270.0
  0
ARC
  5
1A8
330
56
100
AcDbEntity
  8
1
  6
Continuous
 62
     7
100
AcDbCircle
 10
218.6057351581341
 20
1128.213903621554
 30
0.0
 40
14.99999999999973
100
AcDbArc
 50
93.3149553828467
 51
180.0
  0
ARC
  5
1A9
330
56
100
AcDbEntity
  8
1
  6
Continuous
 62
     7
100
AcDbCircle
 10
218.6057351581341
 20
1096.427175178449
 30
0.0
 40
15.0
100
AcDbArc
 50
180.0
 51
266.6850446171533
  0
ARC
  5
1AA
330
56
100
AcDbEntity
  8
1
  6
Continuous
 62
     7
100
AcDbCircle
 10
305.8557351581341
 20
456.3188456760497
 30
0.0
 40
0.5
100
AcDbArc
 50
90.0
 51
158.2221539015146
  0
ARC
  5
1AB
330
56
100
AcDbEntity
  8
1
  6
Continuous
 62
     7
100
AcDbCircle
 10
219.3484587049838
 20
439.4647365512395
 30
0.0
 40
5.99999999999991
100
AcDbArc
 50
106.0132022199244
 51
162.6568512891588
  0
ARC
  5
1AC
330
56
100
AcDbEntity
  8
1
  6
Continuous
 62
     7
100
AcDbCircle
 10
306.905735158134
 20
457.0188456760496
 30
0.0
 40
0.1999999999998749
100
AcDbArc
 50
270.0
 51
0.0
  0
ENDBLK
  5
58
330
56
100
AcDbEntity
  8
0
100
AcDbBlockEnd
  0
BLOCK
  5
5A
330
59
100
AcDbEntity
  8
0
100
AcDbBlockBegin
  2
88-212__2
 70
     0
 10
23.78628416150855
 20
756.9157175226694
 30
0.0
  3
88-212__2
  1

  0
LINE
  5
1AD
330
59
100
AcDbEntity
  8
1
  6
Continuous
 62
     7
100
AcDbLine
 10
334.8557351581341
 20
1141.819480058947
 30
0.0
 11
334.8557351581341
 21
1142.244852270913
 31
0.0
  0
LINE
  5
1AE
330
59
100
AcDbEntity
  8
1
  6
Continuous
 62
     7
100
AcDbLine
 10
334.8557351581341
 20
1143.296800322861
 30
0.0
 11
334.3557351581341
 21
1143.296800322861
 31
0.0
  0
LINE
  5
1AF
330
59
100
AcDbEntity
  8
1
  6
Continuous
 62
     7
100
AcDbLine
 10
334.8557351581341
 20
1143.089008115069
 30
0.0
 11
334.3557351581341
 21
1143.089008115069
 31
0.0
  0
LINE
  5
1B0
330
59
100
AcDbEntity
  8
1
  6
Continuous
 62
     7
100
AcDbLine
 10
334.8557351581341
 20
1142.452644478705
 30
0.0
 11
334.3557351581341
 21
1142.452644478705
 31
0.0
  0
LINE
  5
1B1
330
59
100
AcDbEntity
  8
1
  6
Continuous
 62
     7
100
AcDbLine
 10
334.8557351581341
 20
1142.244852270913
 30
0.0
 11
334.3557351581341
 21
1142.244852270913
 31
0.0
  0
LINE
  5
1B2
330
59
100
AcDbEntity
  8
1
  6
Continuous
 62
     7
100
AcDbLine
 10
334.8557351581341
 20
1142.244852270913
 30
0.0
 11
334.8557351581341
 21
1146.570523937865
 31
0.0
  0
LINE
  5
1B3
330
59
100
AcDbEntity
  8
1
  6
PHANTOM
 62
     4
100
AcDbLine
 10
334.6057351581341
 20
1112.320539400002
 30
0.0
 11
471.4807482542786
 21
1112.320539400002
 31
0.0
  0
LINE
  5
1B4
330
59
100
AcDbEntity
  8
1
  6
Continuous
 62
     7
100
AcDbLine
 10
465.6057351581339
 20
1096.427175178449
 30
0.0
 11
465.6057351581339
 21
1112.320539400002
 31
0.0
  0
LINE
  5
1B5
330
59
100
AcDbEntity
  8
1
  6
Continuous
 62
     7
100
AcDbLine
 10
465.6057351581339
 20
1112.320539400002
 30
0.0
 11
465.6057351581339
 21
1128.213903621554
 31
0.0
  0
LINE
  5
1B6
330
59
100
AcDbEntity
  8
1
  6
Continuous
 62
     7
100
AcDbLine
 10
334.8557351581339
 20
379.8188456760497
 30
0.0
 11
465.6057351581338
 21
379.8188456760497
 31
0.0
  0
LINE
  5
1B7
330
59
100
AcDbEntity
  8
1
  6
Continuous
 62
     7
100
AcDbLine
 10
362.1057351581339
 20
457.0188456760496
 30
0.0
 11
362.1057351581339
 21
457.3188456760497
 31
0.0
  0
LINE
  5
1B8
330
59
100
AcDbEntity
  8
1
  6
Continuous
 62
     7
100
AcDbLine
 10
363.3557351581339
 20
456.8188456760497
 30
0.0
 11
362.305735158134
 21
456.8188456760497
 31
0.0
  0
LINE
  5
1B9
330
59
100
AcDbEntity
  8
1
  6
Continuous
 62
     7
100
AcDbLine
 10
464.5707282371491
 20
391.6490289166276
 30
0.0
 11
463.9218547854609
 21
399.0656864072932
 31
0.0
  0
LINE
  5
1BA
330
59
100
AcDbEntity
  8
1
  6
Continuous
 62
     7
100
AcDbLine
 10
465.6057351581338
 20
379.8188456760497
 30
0.0
 11
464.5707282371491
 21
391.6490289166276
 31
0.0
  0
LINE
  5
1BB
330
59
100
AcDbEntity
  8
1
  6
Continuous
 62
     7
100
AcDbLine
 10
334.8557351581339
 20
379.8188456760497
 30
0.0
 11
334.8557351581339
 21
456.8188456760497
 31
0.0
  0
LINE
  5
1BC
330
59
100
AcDbEntity
  8
1
  6
Continuous
 62
     7
100
AcDbLine
 10
362.305735158134
 20
456.8188456760497
 30
0.0
 11
334.8557351581339
 21
456.8188456760497
 31
0.0
  0
LINE
  5
1BD
330
59
100
AcDbEntity
  8
1
  6
Continuous
 62
     7
100
AcDbLine
 10
334.8557351581339
 20
456.8188456760497
 30
0.0
 11
334.8557351581339
 21
457.3188456760465
 31
0.0
  0
ARC
  5
1BE
330
59
100
AcDbEntity
  8
1
  6
Continuous
 62
     7
100
AcDbCircle
 10
334.6057351581353
 20
3099.136715870553
 30
0.0
 40
2021.066176470552
100
AcDbArc
 50
270.6509937551181
 51
273.3149553828464
  0
ARC
  5
1BF
330
59
100
AcDbEntity
  8
1
  6
Continuous
 62
     7
100
AcDbCircle
 10
334.6057351581353
 20
3099.136715870553
 30
0.0
 40
2019.136176470552
100
AcDbArc
 50
270.6550002965737
 51
272.9520186541331
  0
ARC
  5
1C0
330
59
100
AcDbEntity
  8
1
  6
Continuous
 62
     7
100
AcDbCircle
 10
334.6057351581353
 20
-874.49563707055
 30
0.0
 40
2021.066176470551
100
AcDbArc
 50
86.68504461715357
 51
89.9929126789209
  0
ARC
  5
1C1
330
59
100
AcDbEntity
  8
1
  6
Continuous
 62
     7
100
AcDbCircle
 10
439.4327042318545
 20
1097.743920741915
 30
0.0
 40
15.00000000000012
100
AcDbArc
 50
272.9982418367977
 51
358.639811272611
  0
ARC
  5
1C2
330
59
100
AcDbEntity
  8
1
  6
Continuous
 62
     7
100
AcDbCircle
 10
-174.4687420860164
 20
1112.320539400001
 30
0.0
 40
629.0744772441503
100
AcDbArc
 50
0.00000000000008
 51
1.1423215457537
  0
ARC
  5
1C3
330
59
100
AcDbEntity
  8
1
  6
Continuous
 62
     7
100
AcDbCircle
 10
439.4327042318545
 20
1126.897158058088
 30
0.0
 40
15.00000000000013
100
AcDbArc
 50
1.36018872738892
 51
87.00175816320234
  0
ARC
  5
1C4
330
59
100
AcDbEntity
  8
1
  6
Continuous
 62
     7
100
AcDbCircle
 10
-174.4687420860164
 20
1112.320539400001
 30
0.0
 40
629.074477244151
100
AcDbArc
 50
358.778343274171
 51
0.00000000000008
  0
ARC
  5
1C5
330
59
100
AcDbEntity
  8
1
  6
Continuous
 62
     7
100
AcDbCircle
 10
334.6057351581353
 20
-874.49563707055
 30
0.0
 40
2019.136176470551
100
AcDbArc
 50
87.08483290436178
 51
89.99290590447453
  0
ARC
  5
1C6
330
59
100
AcDbEntity
  8
1
  6
Continuous
 62
     7
100
AcDbCircle
 10
264.682915167112
 20
381.6345378577618
 30
0.0
 40
199.9999999999997
100
AcDbArc
 50
4.99999999999993
 51
17.34314871084156
  0
ARC
  5
1C7
330
59
100
AcDbEntity
  8
1
  6
Continuous
 62
     7
100
AcDbCircle
 10
334.6057351581341
 20
-243.1811543239505
 30
0.0
 40
700.0000000000002
100
AcDbArc
 50
82.90693754956523
 51
83.93464543973796
  0
ARC
  5
1C8
330
59
100
AcDbEntity
  8
1
  6
Continuous
 62
     7
100
AcDbCircle
 10
364.2843645081433
 20
456.6898544768893
 30
0.0
 40
0.5000000000002192
100
AcDbArc
 50
201.7778460985072
 51
267.571778238379
  0
ARC
  5
1C9
330
59
100
AcDbEntity
  8
1
  6
Continuous
 62
     7
100
AcDbCircle
 10
334.6057351581341
 20
-243.1811543239505
 30
0.0
 40
700.0000000000003
100
AcDbArc
 50
83.93464543973796
 51
87.57177823838647
  0
ARC
  5
1CA
330
59
100
AcDbEntity
  8
1
  6
Continuous
 62
     7
100
AcDbCircle
 10
396.3463957708307
 20
252.9922940054699
 30
0.0
 40
200.0
100
AcDbArc
 50
73.98679778007471
 51
82.90693754956733
  0
ARC
  5
1CB
330
59
100
AcDbEntity
  8
1
  6
Continuous
 62
     7
100
AcDbCircle
 10
450.6057351581339
 20
1096.427175178449
 30
0.0
 40
14.99999999999974
100
AcDbArc
 50
273.3149553828476
 51
0.0
  0
ARC
  5
1CC
330
59
100
AcDbEntity
  8
1
  6
Continuous
 62
     7
100
AcDbCircle
 10
450.6057351581339
 20
1128.213903621554
 30
0.0
 40
15.0
100
AcDbArc
 50
0.0
 51
86.68504461715244
  0
ARC
  5
1CD
330
59
100
AcDbEntity
  8
1
  6
Continuous
 62
     7
100
AcDbCircle
 10
362.305735158134
 20
457.0188456760496
 30
0.0
 40
0.2000000000001023
100
AcDbArc
 50
180.0
 51
270.0
  0
ARC
  5
1CE
330
59
100
AcDbEntity
  8
1
  6
Continuous
 62
     7
100
AcDbCircle
 10
363.3557351581339
 20
456.3188456760497
 30
0.0
 40
0.4999999999994698
100
AcDbArc
 50
21.77784609848539
 51
90.0
  0
ARC
  5
1CF
330
59
100
AcDbEntity
  8
1
  6
Continuous
 62
     7
100
AcDbCircle
 10
449.863011611284
 20
439.4647365512395
 30
0.0
 40
6.000000000000012
100
AcDbArc
 50
17.34314871084083
 51
73.98679778007251
  0
ENDBLK
  5
5B
330
59
100
AcDbEntity
  8
0
100
AcDbBlockEnd
  0
BLOCK
  5
5D
330
5C
100
AcDbEntity
  8
0
100
AcDbBlockBegin
  2
35-178
 70
     0
 10
439.0773418230552
 20
728.0514724041603
 30
0.0
  3
35-178
  1

  0
LINE
  5
1D0
330
5C
100
AcDbEntity
  8
1
  6
Continuous
 62
     7
100
AcDbLine
 10
308.8128419393206
 20
473.5259524572372
 30
0.0
 11
305.3986283769475
 21
470.1117388948641
 31
0.0
  0
LINE
  5
1D1
330
5C
100
AcDbEntity
  8
1
  6
Continuous
 62
     7
100
AcDbLine
 10
305.1057351581341
 20
469.4046321136775
 30
0.0
 11
305.1057351581341
 21
457.3188456760498
 31
0.0
  0
LINE
  5
1D2
330
5C
100
AcDbEntity
  8
1
  6
Continuous
 62
     7
100
AcDbLine
 10
363.8128419393205
 20
470.1117388948641
 30
0.0
 11
360.3986283769474
 21
473.5259524572372
 31
0.0
  0
LINE
  5
1D3
330
5C
100
AcDbEntity
  8
1
  6
Continuous
 62
     7
100
AcDbLine
 10
309.5199487205071
 20
473.8188456760506
 30
0.0
 11
359.6915215957611
 21
473.8188456760506
 31
0.0
  0
LINE
  5
1D4
330
5C
100
AcDbEntity
  8
1
  6
Continuous
 62
     7
100
AcDbLine
 10
305.1057351581341
 20
457.3188456760432
 30
0.0
 11
364.1057351581341
 21
457.3188456760498
 31
0.0
  0
LINE
  5
1D5
330
5C
100
AcDbEntity
  8
1
  6
Continuous
 62
     7
100
AcDbLine
 10
364.1057351581341
 20
457.3188456760498
 30
0.0
 11
364.1057351581341
 21
469.4046321136775
 31
0.0
  0
LINE
  5
1D6
330
5C
100
AcDbEntity
  8
1
  6
Continuous
 62
     7
100
AcDbLine
 10
363.1057351581341
 20
469.4046321136775
 30
0.0
 11
306.1057351581341
 21
469.4046321136775
 31
0.0
  0
LINE
  5
1D7
330
5C
100
AcDbEntity
  8
1
  6
Continuous
 62
     2
100
AcDbLine
 10
332.6057351581339
 20
469.0519781522605
 30
0.0
 11
332.6057351581339
 21
457.6714996374636
 31
0.0
  0
LINE
  5
1D8
330
5C
100
AcDbEntity
  8
1
  6
Continuous
 62
     2
100
AcDbLine
 10
330.6057351581339
 20
458.0241535988806
 30
0.0
 11
330.6057351581339
 21
468.6993241908435
 31
0.0
  0
LINE
  5
1D9
330
5C
100
AcDbEntity
  8
1
  6
Continuous
 62
     2
100
AcDbLine
 10
328.6057351581338
 20
468.3466702294265
 30
0.0
 11
328.6057351581338
 21
458.3768075602976
 31
0.0
  0
LINE
  5
1DA
330
5C
100
AcDbEntity
  8
1
  6
Continuous
 62
     2
100
AcDbLine
 10
326.6057351581338
 20
458.7294615217144
 30
0.0
 11
326.6057351581338
 21
467.9940162680098
 31
0.0
  0
LINE
  5
1DB
330
5C
100
AcDbEntity
  8
1
  6
Continuous
 62
     2
100
AcDbLine
 10
324.6057351581337
 20
467.6413623065928
 30
0.0
 11
324.6057351581337
 21
459.0821154831314
 31
0.0
  0
LINE
  5
1DC
330
5C
100
AcDbEntity
  8
1
  6
Continuous
 62
     2
100
AcDbLine
 10
322.6057351581336
 20
467.2887083451769
 30
0.0
 11
322.6057351581336
 21
459.4347694445489
 31
0.0
  0
LINE
  5
1DD
330
5C
100
AcDbEntity
  8
1
  6
Continuous
 62
     2
100
AcDbLine
 10
320.6057351581336
 20
466.9360543837599
 30
0.0
 11
320.6057351581336
 21
459.7874234059658
 31
0.0
  0
LINE
  5
1DE
330
5C
100
AcDbEntity
  8
1
  6
Continuous
 62
     2
100
AcDbLine
 10
318.6057351581335
 20
466.583400422343
 30
0.0
 11
318.6057351581335
 21
460.1400773673827
 31
0.0
  0
LINE
  5
1DF
330
5C
100
AcDbEntity
  8
1
  6
Continuous
 62
     2
100
AcDbLine
 10
316.6057351581335
 20
466.230746460926
 30
0.0
 11
316.6057351581335
 21
460.4927313287994
 31
0.0
  0
LINE
  5
1E0
330
5C
100
AcDbEntity
  8
1
  6
Continuous
 62
     2
100
AcDbLine
 10
314.6057351581334
 20
465.8780924995087
 30
0.0
 11
314.6057351581334
 21
460.8453852902164
 31
0.0
  0
LINE
  5
1E1
330
5C
100
AcDbEntity
  8
1
  6
Continuous
 62
     2
100
AcDbLine
 10
312.6057351581334
 20
465.5254385380919
 30
0.0
 11
312.6057351581334
 21
461.1980392516333
 31
0.0
  0
LINE
  5
1E2
330
5C
100
AcDbEntity
  8
1
  6
Continuous
 62
     2
100
AcDbLine
 10
310.6057351581334
 20
465.1727845766748
 30
0.0
 11
310.6057351581334
 21
461.5506932130502
 31
0.0
  0
LINE
  5
1E3
330
5C
100
AcDbEntity
  8
1
  6
Continuous
 62
     2
100
AcDbLine
 10
308.6057351581334
 20
464.8201306152578
 30
0.0
 11
308.6057351581334
 21
461.9033471744669
 31
0.0
  0
LINE
  5
1E4
330
5C
100
AcDbEntity
  8
1
  6
Continuous
 62
     2
100
AcDbLine
 10
306.6057351581334
 20
464.4674766538407
 30
0.0
 11
306.6057351581334
 21
462.2560011358838
 31
0.0
  0
LINE
  5
1E5
330
5C
100
AcDbEntity
  8
1
  6
Continuous
 62
     2
100
AcDbLine
 10
336.6057351581341
 20
457.6714996374636
 30
0.0
 11
336.6057351581341
 21
469.0519781522605
 31
0.0
  0
LINE
  5
1E6
330
5C
100
AcDbEntity
  8
1
  6
Continuous
 62
     2
100
AcDbLine
 10
338.6057351581342
 20
468.6993241908435
 30
0.0
 11
338.6057351581342
 21
458.0241535988806
 31
0.0
  0
LINE
  5
1E7
330
5C
100
AcDbEntity
  8
1
  6
Continuous
 62
     2
100
AcDbLine
 10
340.6057351581342
 20
458.3768075602976
 30
0.0
 11
340.6057351581342
 21
468.3466702294265
 31
0.0
  0
LINE
  5
1E8
330
5C
100
AcDbEntity
  8
1
  6
Continuous
 62
     2
100
AcDbLine
 10
342.6057351581342
 20
467.9940162680098
 30
0.0
 11
342.6057351581342
 21
458.7294615217144
 31
0.0
  0
LINE
  5
1E9
330
5C
100
AcDbEntity
  8
1
  6
Continuous
 62
     2
100
AcDbLine
 10
344.6057351581343
 20
459.0821154831314
 30
0.0
 11
344.6057351581343
 21
467.6413623065928
 31
0.0
  0
LINE
  5
1EA
330
5C
100
AcDbEntity
  8
1
  6
Continuous
 62
     2
100
AcDbLine
 10
346.6057351581343
 20
459.4347694445489
 30
0.0
 11
346.6057351581343
 21
467.2887083451769
 31
0.0
  0
LINE
  5
1EB
330
5C
100
AcDbEntity
  8
1
  6
Continuous
 62
     2
100
AcDbLine
 10
348.6057351581344
 20
459.7874234059658
 30
0.0
 11
348.6057351581344
 21
466.9360543837599
 31
0.0
  0
LINE
  5
1EC
330
5C
100
AcDbEntity
  8
1
  6
Continuous
 62
     2
100
AcDbLine
 10
350.6057351581344
 20
460.1400773673827
 30
0.0
 11
350.6057351581344
 21
466.583400422343
 31
0.0
  0
LINE
  5
1ED
330
5C
100
AcDbEntity
  8
1
  6
Continuous
 62
     2
100
AcDbLine
 10
352.6057351581345
 20
460.4927313287994
 30
0.0
 11
352.6057351581345
 21
466.230746460926
 31
0.0
  0
LINE
  5
1EE
330
5C
100
AcDbEntity
  8
1
  6
Continuous
 62
     2
100
AcDbLine
 10
354.6057351581346
 20
460.8453852902164
 30
0.0
 11
354.6057351581346
 21
465.8780924995087
 31
0.0
  0
LINE
  5
1EF
330
5C
100
AcDbEntity
  8
1
  6
Continuous
 62
     2
100
AcDbLine
 10
356.6057351581346
 20
461.1980392516333
 30
0.0
 11
356.6057351581346
 21
465.5254385380919
 31
0.0
  0
LINE
  5
1F0
330
5C
100
AcDbEntity
  8
1
  6
Continuous
 62
     2
100
AcDbLine
 10
358.6057351581346
 20
461.5506932130502
 30
0.0
 11
358.6057351581346
 21
465.1727845766748
 31
0.0
  0
LINE
  5
1F1
330
5C
100
AcDbEntity
  8
1
  6
Continuous
 62
     2
100
AcDbLine
 10
360.6057351581346
 20
461.9033471744669
 30
0.0
 11
360.6057351581346
 21
464.8201306152578
 31
0.0
  0
LINE
  5
1F2
330
5C
100
AcDbEntity
  8
1
  6
Continuous
 62
     2
100
AcDbLine
 10
362.6057351581346
 20
462.2560011358838
 30
0.0
 11
362.6057351581346
 21
464.4674766538407
 31
0.0
  0
LINE
  5
1F3
330
5C
100
AcDbEntity
  8
1
  6
Continuous
 62
     7
100
AcDbLine
 10
798.812841939321
 20
473.5259524572372
 30
0.0
 11
795.3986283769478
 21
470.1117388948641
 31
0.0
  0
LINE
  5
1F4
330
5C
100
AcDbEntity
  8
1
  6
Continuous
 62
     7
100
AcDbLine
 10
795.1057351581344
 20
469.4046321136775
 30
0.0
 11
795.1057351581344
 21
457.3188456760498
 31
0.0
  0
LINE
  5
1F5
330
5C
100
AcDbEntity
  8
1
  6
Continuous
 62
     7
100
AcDbLine
 10
853.8128419393208
 20
470.1117388948641
 30
0.0
 11
850.3986283769477
 21
473.5259524572372
 31
0.0
  0
LINE
  5
1F6
330
5C
100
AcDbEntity
  8
1
  6
Continuous
 62
     7
100
AcDbLine
 10
799.5199487205075
 20
473.8188456760506
 30
0.0
 11
849.6915215957613
 21
473.8188456760506
 31
0.0
  0
LINE
  5
1F7
330
5C
100
AcDbEntity
  8
1
  6
Continuous
 62
     7
100
AcDbLine
 10
795.1057351581344
 20
457.3188456760432
 30
0.0
 11
854.1057351581344
 21
457.3188456760498
 31
0.0
  0
LINE
  5
1F8
330
5C
100
AcDbEntity
  8
1
  6
Continuous
 62
     7
100
AcDbLine
 10
854.1057351581344
 20
457.3188456760498
 30
0.0
 11
854.1057351581344
 21
469.4046321136775
 31
0.0
  0
LINE
  5
1F9
330
5C
100
AcDbEntity
  8
1
  6
Continuous
 62
     7
100
AcDbLine
 10
853.1057351581344
 20
469.4046321136775
 30
0.0
 11
796.1057351581344
 21
469.4046321136775
 31
0.0
  0
LINE
  5
1FA
330
5C
100
AcDbEntity
  8
1
  6
Continuous
 62
     2
100
AcDbLine
 10
822.6057351581343
 20
469.0519781522605
 30
0.0
 11
822.6057351581343
 21
457.6714996374636
 31
0.0
  0
LINE
  5
1FB
330
5C
100
AcDbEntity
  8
1
  6
Continuous
 62
     2
100
AcDbLine
 10
820.6057351581343
 20
458.0241535988806
 30
0.0
 11
820.6057351581343
 21
468.6993241908435
 31
0.0
  0
LINE
  5
1FC
330
5C
100
AcDbEntity
  8
1
  6
Continuous
 62
     2
100
AcDbLine
 10
818.6057351581342
 20
468.3466702294265
 30
0.0
 11
818.6057351581342
 21
458.3768075602976
 31
0.0
  0
LINE
  5
1FD
330
5C
100
AcDbEntity
  8
1
  6
Continuous
 62
     2
100
AcDbLine
 10
816.6057351581342
 20
458.7294615217144
 30
0.0
 11
816.6057351581342
 21
467.9940162680098
 31
0.0
  0
LINE
  5
1FE
330
5C
100
AcDbEntity
  8
1
  6
Continuous
 62
     2
100
AcDbLine
 10
814.605735158134
 20
467.6413623065928
 30
0.0
 11
814.605735158134
 21
459.0821154831314
 31
0.0
  0
LINE
  5
1FF
330
5C
100
AcDbEntity
  8
1
  6
Continuous
 62
     2
100
AcDbLine
 10
812.605735158134
 20
467.2887083451769
 30
0.0
 11
812.605735158134
 21
459.4347694445489
 31
0.0
  0
LINE
  5
200
330
5C
100
AcDbEntity
  8
1
  6
Continuous
 62
     2
100
AcDbLine
 10
810.6057351581339
 20
466.9360543837599
 30
0.0
 11
810.6057351581339
 21
459.7874234059658
 31
0.0
  0
LINE
  5
201
330
5C
100
AcDbEntity
  8
1
  6
Continuous
 62
     2
100
AcDbLine
 10
808.6057351581339
 20
466.583400422343
 30
0.0
 11
808.6057351581339
 21
460.1400773673827
 31
0.0
  0
LINE
  5
202
330
5C
100
AcDbEntity
  8
1
  6
Continuous
 62
     2
100
AcDbLine
 10
806.6057351581338
 20
466.230746460926
 30
0.0
 11
806.6057351581338
 21
460.4927313287994
 31
0.0
  0
LINE
  5
203
330
5C
100
AcDbEntity
  8
1
  6
Continuous
 62
     2
100
AcDbLine
 10
804.6057351581338
 20
465.8780924995087
 30
0.0
 11
804.6057351581338
 21
460.8453852902164
 31
0.0
  0
LINE
  5
204
330
5C
100
AcDbEntity
  8
1
  6
Continuous
 62
     2
100
AcDbLine
 10
802.6057351581337
 20
465.5254385380919
 30
0.0
 11
802.6057351581337
 21
461.1980392516333
 31
0.0
  0
LINE
  5
205
330
5C
100
AcDbEntity
  8
1
  6
Continuous
 62
     2
100
AcDbLine
 10
800.6057351581338
 20
465.1727845766748
 30
0.0
 11
800.6057351581338
 21
461.5506932130502
 31
0.0
  0
LINE
  5
206
330
5C
100
AcDbEntity
  8
1
  6
Continuous
 62
     2
100
AcDbLine
 10
798.6057351581338
 20
464.8201306152578
 30
0.0
 11
798.6057351581338
 21
461.9033471744669
 31
0.0
  0
LINE
  5
207
330
5C
100
AcDbEntity
  8
1
  6
Continuous
 62
     2
100
AcDbLine
 10
796.6057351581337
 20
464.4674766538407
 30
0.0
 11
796.6057351581337
 21
462.2560011358838
 31
0.0
  0
LINE
  5
208
330
5C
100
AcDbEntity
  8
1
  6
Continuous
 62
     2
100
AcDbLine
 10
826.6057351581344
 20
457.6714996374636
 30
0.0
 11
826.6057351581344
 21
469.0519781522605
 31
0.0
  0
LINE
  5
209
330
5C
100
AcDbEntity
  8
1
  6
Continuous
 62
     2
100
AcDbLine
 10
828.6057351581345
 20
468.6993241908435
 30
0.0
 11
828.6057351581345
 21
458.0241535988806
 31
0.0
  0
LINE
  5
20A
330
5C
100
AcDbEntity
  8
1
  6
Continuous
 62
     2
100
AcDbLine
 10
830.6057351581345
 20
458.3768075602976
 30
0.0
 11
830.6057351581345
 21
468.3466702294265
 31
0.0
  0
LINE
  5
20B
330
5C
100
AcDbEntity
  8
1
  6
Continuous
 62
     2
100
AcDbLine
 10
832.6057351581346
 20
467.9940162680098
 30
0.0
 11
832.6057351581346
 21
458.7294615217144
 31
0.0
  0
LINE
  5
20C
330
5C
100
AcDbEntity
  8
1
  6
Continuous
 62
     2
100
AcDbLine
 10
834.6057351581346
 20
459.0821154831314
 30
0.0
 11
834.6057351581346
 21
467.6413623065928
 31
0.0
  0
LINE
  5
20D
330
5C
100
AcDbEntity
  8
1
  6
Continuous
 62
     2
100
AcDbLine
 10
836.6057351581347
 20
459.4347694445489
 30
0.0
 11
836.6057351581347
 21
467.2887083451769
 31
0.0
  0
LINE
  5
20E
330
5C
100
AcDbEntity
  8
1
  6
Continuous
 62
     2
100
AcDbLine
 10
838.6057351581347
 20
459.7874234059658
 30
0.0
 11
838.6057351581347
 21
466.9360543837599
 31
0.0
  0
LINE
  5
20F
330
5C
100
AcDbEntity
  8
1
  6
Continuous
 62
     2
100
AcDbLine
 10
840.6057351581348
 20
460.1400773673827
 30
0.0
 11
840.6057351581348
 21
466.583400422343
 31
0.0
  0
LINE
  5
210
330
5C
100
AcDbEntity
  8
1
  6
Continuous
 62
     2
100
AcDbLine
 10
842.6057351581348
 20
460.4927313287994
 30
0.0
 11
842.6057351581348
 21
466.230746460926
 31
0.0
  0
LINE
  5
211
330
5C
100
AcDbEntity
  8
1
  6
Continuous
 62
     2
100
AcDbLine
 10
844.605735158135
 20
460.8453852902164
 30
0.0
 11
844.605735158135
 21
465.8780924995087
 31
0.0
  0
LINE
  5
212
330
5C
100
AcDbEntity
  8
1
  6
Continuous
 62
     2
100
AcDbLine
 10
846.605735158135
 20
461.1980392516333
 30
0.0
 11
846.605735158135
 21
465.5254385380919
 31
0.0
  0
LINE
  5
213
330
5C
100
AcDbEntity
  8
1
  6
Continuous
 62
     2
100
AcDbLine
 10
848.605735158135
 20
461.5506932130502
 30
0.0
 11
848.605735158135
 21
465.1727845766748
 31
0.0
  0
LINE
  5
214
330
5C
100
AcDbEntity
  8
1
  6
Continuous
 62
     2
100
AcDbLine
 10
850.605735158135
 20
461.9033471744669
 30
0.0
 11
850.605735158135
 21
464.8201306152578
 31
0.0
  0
LINE
  5
215
330
5C
100
AcDbEntity
  8
1
  6
Continuous
 62
     2
100
AcDbLine
 10
852.605735158135
 20
462.2560011358838
 30
0.0
 11
852.605735158135
 21
464.4674766538407
 31
0.0
  0
ARC
  5
216
330
5C
100
AcDbEntity
  8
1
  6
Continuous
 62
     7
100
AcDbCircle
 10
334.6057351581339
 20
1112.320539400002
 30
0.0
 40
29.50000000000054
100
AcDbArc
 50
323.6218708308116
 51
0.0
  0
ARC
  5
217
330
5C
100
AcDbEntity
  8
1
  6
Continuous
 62
     7
100
AcDbCircle
 10
334.6057351581339
 20
1112.320539400002
 30
0.0
 40
29.5
100
AcDbArc
 50
0.0
 51
216.3781291691887
  0
ARC
  5
218
330
5C
100
AcDbEntity
  8
1
  6
Continuous
 62
     7
100
AcDbCircle
 10
306.1057351581341
 20
469.4046321136775
 30
0.0
 40
1.000000000000088
100
AcDbArc
 50
135.0
 51
180.0
  0
ARC
  5
219
330
5C
100
AcDbEntity
  8
1
  6
Continuous
 62
     7
100
AcDbCircle
 10
309.5199487205071
 20
472.8188456760506
 30
0.0
 40
1.0
100
AcDbArc
 50
90.0
 51
134.9999999999954
  0
ARC
  5
21A
330
5C
100
AcDbEntity
  8
1
  6
Continuous
 62
     7
100
AcDbCircle
 10
363.1057351581341
 20
469.4046321136775
 30
0.0
 40
1.0
100
AcDbArc
 50
0.0
 51
45.00000000000922
  0
ARC
  5
21B
330
5C
100
AcDbEntity
  8
1
  6
Continuous
 62
     7
100
AcDbCircle
 10
359.6915215957611
 20
472.8188456760506
 30
0.0
 40
0.9999999999998473
100
AcDbArc
 50
45.00000000001382
 51
90.0
  0
ARC
  5
21C
330
5C
100
AcDbEntity
  8
1
  6
Continuous
 62
     7
100
AcDbCircle
 10
796.1057351581344
 20
469.4046321136775
 30
0.0
 40
1.000000000000048
100
AcDbArc
 50
134.9999999999977
 51
180.0
  0
ARC
  5
21D
330
5C
100
AcDbEntity
  8
1
  6
Continuous
 62
     7
100
AcDbCircle
 10
799.5199487205075
 20
472.8188456760506
 30
0.0
 40
1.0
100
AcDbArc
 50
90.0
 51
134.9999999999977
  0
ARC
  5
21E
330
5C
100
AcDbEntity
  8
1
  6
Continuous
 62
     7
100
AcDbCircle
 10
853.1057351581344
 20
469.4046321136775
 30
0.0
 40
1.0
100
AcDbArc
 50
0.0
 51
45.00000000000691
  0
ARC
  5
21F
330
5C
100
AcDbEntity
  8
1
  6
Continuous
 62
     7
100
AcDbCircle
 10
849.6915215957613
 20
472.8188456760506
 30
0.0
 40
0.9999999999999679
100
AcDbArc
 50
45.00000000000691
 51
90.0
  0
ENDBLK
  5
5E
330
5C
100
AcDbEntity
  8
0
100
AcDbBlockEnd
  0
BLOCK
  5
60
330
5F
100
AcDbEntity
  8
0
100
AcDbBlockBegin
  2
34-86
 70
     0
 10
1109.94019910456
 20
1405.777324047026
 30
0.0
  3
34-86
  1

  0
LINE
  5
220
330
5F
100
AcDbEntity
  8
1
  6
Continuous
 62
     7
100
AcDbLine
 10
359.1057351581341
 20
476.6623545707627
 30
0.0
 11
359.1057351581341
 21
473.8188456760507
 31
0.0
  0
LINE
  5
221
330
5F
100
AcDbEntity
  8
1
  6
Continuous
 62
     7
100
AcDbLine
 10
357.6057351581341
 20
478.1623545707627
 30
0.0
 11
311.6057351581342
 21
478.1623545707627
 31
0.0
  0
LINE
  5
222
330
5F
100
AcDbEntity
  8
1
  6
Continuous
 62
     7
100
AcDbLine
 10
310.1057351581342
 20
473.8188456760507
 30
0.0
 11
310.1057351581342
 21
476.6623545707627
 31
0.0
  0
LINE
  5
223
330
5F
100
AcDbEntity
  8
1
  6
Continuous
 62
     7
100
AcDbLine
 10
849.1057351581344
 20
476.6623545707627
 30
0.0
 11
849.1057351581344
 21
473.8188456760507
 31
0.0
  0
LINE
  5
224
330
5F
100
AcDbEntity
  8
1
  6
Continuous
 62
     7
100
AcDbLine
 10
847.6057351581344
 20
478.1623545707627
 30
0.0
 11
801.6057351581345
 21
478.1623545707627
 31
0.0
  0
LINE
  5
225
330
5F
100
AcDbEntity
  8
1
  6
Continuous
 62
     7
100
AcDbLine
 10
800.1057351581345
 20
473.8188456760507
 30
0.0
 11
800.1057351581345
 21
476.6623545707627
 31
0.0
  0
ARC
  5
226
330
5F
100
AcDbEntity
  8
1
  6
Continuous
 62
     7
100
AcDbCircle
 10
311.6057351581342
 20
476.6623545707627
 30
0.0
 40
1.5
100
AcDbArc
 50
90.0
 51
180.0
  0
ARC
  5
227
330
5F
100
AcDbEntity
  8
1
  6
Continuous
 62
     7
100
AcDbCircle
 10
357.6057351581341
 20
476.6623545707627
 30
0.0
 40
1.5
100
AcDbArc
 50
0.0
 51
90.0
  0
ARC
  5
228
330
5F
100
AcDbEntity
  8
1
  6
Continuous
 62
     7
100
AcDbCircle
 10
801.6057351581345
 20
476.6623545707627
 30
0.0
 40
1.5
100
AcDbArc
 50
90.0
 51
180.0
  0
ARC
  5
229
330
5F
100
AcDbEntity
  8
1
  6
Continuous
 62
     7
100
AcDbCircle
 10
847.6057351581344
 20
476.6623545707627
 30
0.0
 40
1.5
100
AcDbArc
 50
0.0
 51
90.0
  0
ENDBLK
  5
61
330
5F
100
AcDbEntity
  8
0
100
AcDbBlockEnd
  0
BLOCK
  5
63
330
62
100
AcDbEntity
  8
0
100
AcDbBlockBegin
  2
61-100
 70
     0
 10
717.1679186220657
 20
2440.522047793099
 30
0.0
  3
61-100
  1

  0
LINE
  5
22A
330
62
100
AcDbEntity
  8
1
  6
Continuous
 62
     7
100
AcDbLine
 10
350.6057351581341
 20
521.436331486334
 30
0.0
 11
350.6057351581341
 21
554.9782938676237
 31
0.0
  0
LINE
  5
22B
330
62
100
AcDbEntity
  8
1
  6
Continuous
 62
     7
100
AcDbLine
 10
318.6057351581341
 20
521.436331486334
 30
0.0
 11
318.6057351581341
 21
554.9782938676237
 31
0.0
  0
LINE
  5
22C
330
62
100
AcDbEntity
  8
1
  6
Continuous
 62
     7
100
AcDbLine
 10
318.6057351581341
 20
521.436331486334
 30
0.0
 11
311.1057351581341
 21
521.436331486334
 31
0.0
  0
LINE
  5
22D
330
62
100
AcDbEntity
  8
1
  6
Continuous
 62
     7
100
AcDbLine
 10
326.6057351581341
 20
575.9198417418752
 30
0.0
 11
342.6057351581341
 21
575.9198417418752
 31
0.0
  0
LINE
  5
22E
330
62
100
AcDbEntity
  8
1
  6
Continuous
 62
     7
100
AcDbLine
 10
318.6057351581341
 20
554.9782938676237
 30
0.0
 11
318.6057351581341
 21
567.9198417418752
 31
0.0
  0
LINE
  5
22F
330
62
100
AcDbEntity
  8
1
  6
Continuous
 62
     7
100
AcDbLine
 10
350.6057351581341
 20
554.9782938676237
 30
0.0
 11
350.6057351581341
 21
567.9198417418752
 31
0.0
  0
LINE
  5
230
330
62
100
AcDbEntity
  8
1
  6
Continuous
 62
     7
100
AcDbLine
 10
326.6057351581341
 20
481.436331486334
 30
0.0
 11
342.6057351581341
 21
481.436331486334
 31
0.0
  0
LINE
  5
231
330
62
100
AcDbEntity
  8
1
  6
Continuous
 62
     7
100
AcDbLine
 10
350.6057351581341
 20
489.436331486334
 30
0.0
 11
350.6057351581341
 21
521.436331486334
 31
0.0
  0
LINE
  5
232
330
62
100
AcDbEntity
  8
1
  6
Continuous
 62
     7
100
AcDbLine
 10
318.6057351581341
 20
489.436331486334
 30
0.0
 11
318.6057351581341
 21
521.436331486334
 31
0.0
  0
LINE
  5
233
330
62
100
AcDbEntity
  8
1
  6
Continuous
 62
     7
100
AcDbLine
 10
356.7557351581341
 20
522.8363314863336
 30
0.0
 11
356.7557351581341
 21
521.436331486334
 31
0.0
  0
LINE
  5
234
330
62
100
AcDbEntity
  8
1
  6
Continuous
 62
     7
100
AcDbLine
 10
311.3557351581341
 20
478.436331486334
 30
0.0
 11
357.8557351581341
 21
478.436331486334
 31
0.0
  0
LINE
  5
235
330
62
100
AcDbEntity
  8
1
  6
Continuous
 62
     7
100
AcDbLine
 10
311.1057351581341
 20
478.436331486334
 30
0.0
 11
311.3557351581341
 21
478.436331486334
 31
0.0
  0
LINE
  5
236
330
62
100
AcDbEntity
  8
1
  6
Continuous
 62
     7
100
AcDbLine
 10
310.6057351581341
 20
478.936331486334
 30
0.0
 11
310.6057351581341
 21
520.936331486334
 31
0.0
  0
LINE
  5
237
330
62
100
AcDbEntity
  8
1
  6
Continuous
 62
     7
100
AcDbLine
 10
312.4557351581341
 20
521.436331486334
 30
0.0
 11
312.4557351581341
 21
522.8363314863336
 31
0.0
  0
LINE
  5
238
330
62
100
AcDbEntity
  8
1
  6
Continuous
 62
     7
100
AcDbLine
 10
358.1057351581341
 20
521.436331486334
 30
0.0
 11
350.6057351581341
 21
521.436331486334
 31
0.0
  0
LINE
  5
239
330
62
100
AcDbEntity
  8
1
  6
Continuous
 62
     7
100
AcDbLine
 10
357.8557351581341
 20
478.436331486334
 30
0.0
 11
358.1057351581341
 21
478.436331486334
 31
0.0
  0
LINE
  5
23A
330
62
100
AcDbEntity
  8
1
  6
Continuous
 62
     7
100
AcDbLine
 10
358.6057351581341
 20
520.936331486334
 30
0.0
 11
358.6057351581341
 21
478.936331486334
 31
0.0
  0
LINE
  5
23B
330
62
100
AcDbEntity
  8
1
  6
PHANTOM
 62
     4
100
AcDbLine
 10
824.6057351581344
 20
418.8188456760497
 30
0.0
 11
824.6057351581344
 21
524.936331486334
 31
0.0
  0
LINE
  5
23C
330
62
100
AcDbEntity
  8
1
  6
PHANTOM
 62
     2
100
AcDbLine
 10
798.6057351581344
 20
501.436331486334
 30
0.0
 11
804.7587546452149
 21
501.436331486334
 31
0.0
  0
LINE
  5
23D
330
62
100
AcDbEntity
  8
1
  6
Continuous
 62
     7
100
AcDbLine
 10
590.0987539898567
 20
552.8898747921169
 30
0.0
 11
590.1640170859687
 21
553.385597222806
 31
0.0
  0
LINE
  5
23E
330
62
100
AcDbEntity
  8
1
  6
Continuous
 62
     7
100
AcDbLine
 10
559.9388327325298
 20
568.964051279632
 30
0.0
 11
558.3725184258939
 21
557.0667129431458
 31
0.0
  0
LINE
  5
23F
330
62
100
AcDbEntity
  8
1
  6
Continuous
 62
     7
100
AcDbLine
 10
558.3725184258939
 20
557.0667129431458
 30
0.0
 11
590.0987539898547
 21
552.8898747921014
 31
0.0
  0
LINE
  5
240
330
62
100
AcDbEntity
  8
1
  6
Continuous
 62
     7
100
AcDbLine
 10
800.6057351581343
 20
520.936331486334
 30
0.0
 11
800.6057351581343
 21
478.936331486334
 31
0.0
  0
LINE
  5
241
330
62
100
AcDbEntity
  8
1
  6
Continuous
 62
     7
100
AcDbLine
 10
802.4557351581344
 20
521.436331486334
 30
0.0
 11
802.4557351581341
 21
522.7363314863338
 31
0.0
  0
LINE
  5
242
330
62
100
AcDbEntity
  8
1
  6
Continuous
 62
     7
100
AcDbLine
 10
846.7557351581341
 20
521.436331486334
 30
0.0
 11
846.7557351581343
 21
522.8363314863336
 31
0.0
  0
LINE
  5
243
330
62
100
AcDbEntity
  8
1
  6
PHANTOM
 62
     2
100
AcDbLine
 10
798.6057351581344
 20
501.436331486334
 30
0.0
 11
804.7587546452149
 21
501.436331486334
 31
0.0
  0
LINE
  5
244
330
62
100
AcDbEntity
  8
1
  6
Continuous
 62
     7
100
AcDbLine
 10
802.4557351581344
 20
521.436331486334
 30
0.0
 11
848.1057351581344
 21
521.436331486334
 31
0.0
  0
LINE
  5
245
330
62
100
AcDbEntity
  8
1
  6
Continuous
 62
     7
100
AcDbLine
 10
848.6057351581344
 20
520.936331486334
 30
0.0
 11
848.6057351581344
 21
478.936331486334
 31
0.0
  0
LINE
  5
246
330
62
100
AcDbEntity
  8
1
  6
Continuous
 62
     7
100
AcDbLine
 10
802.4557351581344
 20
521.436331486334
 30
0.0
 11
801.1057351581343
 21
521.436331486334
 31
0.0
  0
LINE
  5
247
330
62
100
AcDbEntity
  8
1
  6
Continuous
 62
     7
100
AcDbLine
 10
848.1057351581344
 20
478.436331486334
 30
0.0
 11
801.1057351581343
 21
478.436331486334
 31
0.0
  0
LINE
  5
248
330
62
100
AcDbEntity
  8
1
  6
Continuous
 62
     7
100
AcDbLine
 10
714.4472546106729
 20
556.6916633257945
 30
0.0
 11
568.9146011612779
 21
575.8514006328658
 31
0.0
  0
LINE
  5
249
330
62
100
AcDbEntity
  8
1
  6
PHANTOM
 62
     4
100
AcDbLine
 10
714.8695989746678
 20
546.9466730022241
 30
0.0
 11
556.0340684569388
 21
567.9609934646651
 31
0.0
  0
LINE
  5
24A
330
62
100
AcDbEntity
  8
1
  6
Continuous
 62
     7
100
AcDbLine
 10
590.8581037358999
 20
553.779302139224
 30
0.0
 11
706.2583852149527
 21
538.7762463181582
 31
0.0
  0
LINE
  5
24B
330
62
100
AcDbEntity
  8
1
  6
Continuous
 62
     7
100
AcDbLine
 10
349.6057351581342
 20
1020.35518164211
 30
0.0
 11
349.6057351581345
 21
864.6647897985049
 31
0.0
  0
LINE
  5
24C
330
62
100
AcDbEntity
  8
1
  6
Continuous
 62
     7
100
AcDbLine
 10
319.6057351581341
 20
864.6647897985049
 30
0.0
 11
319.6057351581341
 21
1020.35518164211
 31
0.0
  0
ARC
  5
24D
330
62
100
AcDbEntity
  8
1
  6
Continuous
 62
     7
100
AcDbCircle
 10
686.0479688450928
 20
399.2322064233749
 30
0.0
 40
159.9999999999998
100
AcDbArc
 50
78.99069183521179
 51
79.77608428131013
  0
ARC
  5
24E
330
62
100
AcDbEntity
  8
1
  6
Continuous
 62
     7
100
AcDbCircle
 10
686.0479688450928
 20
399.2322064233749
 30
0.0
 40
160.0000000000001
100
AcDbArc
 50
44.27593294393685
 51
78.99069183521179
  0
ARC
  5
24F
330
62
100
AcDbEntity
  8
1
  6
PHANTOM
 62
     4
100
AcDbCircle
 10
686.0479688450928
 20
399.2322064233749
 30
0.0
 40
150.5000000000001
100
AcDbArc
 50
36.87285091051805
 51
78.9593231773378
  0
ARC
  5
250
330
62
100
AcDbEntity
  8
1
  6
Continuous
 62
     7
100
AcDbCircle
 10
686.0479688450928
 20
399.2322064233749
 30
0.0
 40
141.0000000000001
100
AcDbArc
 50
35.66238717980323
 51
81.75905093675834
  0
SPLINE
  5
251
330
62
100
AcDbEntity
  8
1
  6
Continuous
 62
     7
100
AcDbSpline
210
0.0
220
0.0
230
1.0
 70
     8
 71
     3
 72
    43
 73
    39
 74
    37
 42
0.000000001
 43
0.0000000001
 44
0.00000001
 40
0.0
 40
0.0
 40
0.0
 40
0.0
 40
1.375031497453398
 40
2.746591129772422
 40
4.115636816947164
 40
5.487428997179584
 40
6.850952294817411
 40
8.213262311490624
 40
9.566265893632723
 40
10.91968968964412
 40
12.2617662778369
 40
13.60368263573951
 40
14.93437601705685
 40
16.26509662391859
 40
17.58580613186797
 40
18.90648784728978
 40
20.21970770172005
 40
21.53292133627905
 40
22.84214369567728
 40
24.1513611905008
 40
25.46057868532468
 40
26.76980104472312
 40
28.08301467928215
 40
29.39623453371245
 40
30.71691624913425
 40
32.03762575708353
 40
33.36834636394566
 40
34.69903974526302
 40
36.04095610316555
 40
37.38303269135818
 40
38.73645648736921
 40
40.08946006951095
 40
41.45177008618462
 40
42.81529338382287
 40
44.18708556405526
 40
45.55613125123001
 40
46.92769088354903
 40
48.30272238100244
 40
48.30272238100244
 40
48.30272238100244
 40
48.30272238100244
 10
319.6057351581341
 20
864.6647897985049
 30
0.0
 10
319.6276941519269
 20
864.2069786603755
 30
0.0
 10
319.6715567070453
 20
863.2925123281947
 30
0.0
 10
319.8095745889383
 20
861.9259000862105
 30
0.0
 10
320.0910323131958
 20
860.5817120568872
 30
0.0
 10
320.4925907204718
 20
859.2723002444044
 30
0.0
 10
320.9944232130656
 20
858.0004294801954
 30
0.0
 10
321.5966563788076
 20
856.7796201144915
 30
0.0
 10
322.3005241175736
 20
855.618345022337
 30
0.0
 10
323.0975643737354
 20
854.5272944631447
 30
0.0
 10
323.9831453265732
 20
853.5117016960272
 30
0.0
 10
324.948112152396
 20
852.582018351475
 30
0.0
 10
325.9882521458222
 20
851.7432946342068
 30
0.0
 10
327.0926046980814
 20
851.0036881196485
 30
0.0
 10
328.2557608692815
 20
850.3674309999501
 30
0.0
 10
329.4659772465686
 20
849.840369258557
 30
0.0
 10
330.7166498232417
 20
849.4260647901127
 30
0.0
 10
331.9960489699455
 20
849.1277685369266
 30
0.0
 10
333.296065342319
 20
848.9480518733471
 30
0.0
 10
334.6057351581339
 20
848.8877727411202
 30
0.0
 10
335.9154049739492
 20
848.9480518733474
 30
0.0
 10
337.2154213463227
 20
849.1277685369266
 30
0.0
 10
338.4948204930267
 20
849.4260647901126
 30
0.0
 10
339.7454930696996
 20
849.840369258557
 30
0.0
 10
340.9557094469869
 20
850.3674309999502
 30
0.0
 10
342.118865618187
 20
851.0036881196485
 30
0.0
 10
343.2232181704463
 20
851.743294634207
 30
0.0
 10
344.2633581638729
 20
852.5820183514751
 30
0.0
 10
345.2283249896954
 20
853.5117016960271
 30
0.0
 10
346.1139059425331
 20
854.5272944631447
 30
0.0
 10
346.9109461986949
 20
855.6183450223364
 30
0.0
 10
347.6148139374611
 20
856.7796201144911
 30
0.0
 10
348.2170471032031
 20
858.000429480195
 30
0.0
 10
348.7188795957967
 20
859.2723002444038
 30
0.0
 10
349.1204380030727
 20
860.5817120568876
 30
0.0
 10
349.4018957273304
 20
861.9259000862103
 30
0.0
 10
349.5399136092229
 20
863.2925123281943
 30
0.0
 10
349.5837761643417
 20
864.2069786603754
 30
0.0
 10
349.6057351581345
 20
864.6647897985049
 30
0.0
 11
319.6057351581341
 21
864.6647897985049
 31
0.0
 11
319.6837037500106
 21
863.2919706070791
 31
0.0
 11
319.8336188629511
 21
861.9286286518998
 31
0.0
 11
320.1109462197013
 21
860.5879662656571
 31
0.0
 11
320.5103458463456
 21
859.2756043771699
 31
0.0
 11
321.0117456255234
 21
858.0076161886291
 31
0.0
 11
321.6153541013674
 21
856.7863277744077
 31
0.0
 11
322.3166028559716
 21
855.6292327573151
 31
0.0
 11
323.1150685113494
 21
854.5364342535538
 31
0.0
 11
323.9972836833302
 21
853.5250658934322
 31
0.0
 11
324.9639210128362
 21
852.5942856907368
 31
0.0
 11
325.9998944213129
 21
851.7591186578053
 31
0.0
 11
327.1057351581339
 21
851.0188932872659
 31
0.0
 11
328.2644831250246
 21
850.3851924473767
 31
0.0
 11
329.4754330082492
 21
849.8581245441319
 31
0.0
 11
330.7220502172929
 21
849.4452178706053
 31
0.0
 11
332.00101249313
 21
849.1472488322179
 31
0.0
 11
333.2978960888166
 21
848.9679275383199
 31
0.0
 11
334.6057351581339
 21
848.9078657503098
 31
0.0
 11
335.9135742274515
 21
848.96792753832
 31
0.0
 11
337.2104578231383
 21
849.1472488322179
 31
0.0
 11
338.4894200989755
 21
849.4452178706052
 31
0.0
 11
339.7360373080192
 21
849.8581245441319
 31
0.0
 11
340.9469871912437
 21
850.3851924473768
 31
0.0
 11
342.1057351581344
 21
851.0188932872659
 31
0.0
 11
343.2115758949558
 21
851.7591186578054
 31
0.0
 11
344.2475493034326
 21
852.5942856907368
 31
0.0
 11
345.2141866329384
 21
853.5250658934322
 31
0.0
 11
346.096401804919
 21
854.5364342535538
 31
0.0
 11
346.8948674602968
 21
855.6292327573146
 31
0.0
 11
347.5961162149011
 21
856.7863277744068
 31
0.0
 11
348.1997246907452
 21
858.0076161886286
 31
0.0
 11
348.701124469923
 21
859.2756043771699
 31
0.0
 11
349.1005240965672
 21
860.5879662656571
 31
0.0
 11
349.3778514533175
 21
861.9286286518998
 31
0.0
 11
349.5277665662579
 21
863.2919706070791
 31
0.0
 11
349.6057351581345
 21
864.6647897985049
 31
0.0
  0
SPLINE
  5
252
330
62
100
AcDbEntity
  8
1
  6
Continuous
 62
     7
100
AcDbSpline
210
0.0
220
0.0
230
1.0
 70
     8
 71
     3
 72
    35
 73
    31
 74
    29
 42
0.000000001
 43
0.0000000001
 44
0.00000001
 40
0.0
 40
0.0
 40
0.0
 40
0.0
 40
1.364035335613028
 40
2.724508496129233
 40
4.076559928967857
 40
5.43139035619664
 40
6.773950050513426
 40
8.115276736395497
 40
9.445786196358057
 40
10.77671875750675
 40
12.09749143910326
 40
13.41810433808276
 40
14.73130395566895
 40
16.04453942986415
 40
17.35376957154022
 40
18.66297909034697
 40
19.97218860915405
 40
21.28141875083034
 40
22.59465422502535
 40
23.90785384261128
 40
25.22846674159094
 40
26.54923942318765
 40
27.88017198433644
 40
29.21068144429909
 40
30.55200813018084
 40
31.89456782449768
 40
33.24939825172662
 40
34.6014496845653
 40
35.96192284508152
 40
37.32595818069458
 40
37.32595818069458
 40
37.32595818069458
 40
37.32595818069458
 10
320.5103458463451
 20
862.5749322181268
 30
0.0
 10
320.6797814114763
 20
862.1530101992912
 30
0.0
 10
321.0182100739091
 20
861.3102680152464
 30
0.0
 10
321.5924451326312
 20
860.0767914147983
 30
0.0
 10
322.2948684205954
 20
858.9141096213713
 30
0.0
 10
323.0983593700795
 20
857.8275613067627
 30
0.0
 10
323.9844401166879
 20
856.8120689571045
 30
0.0
 10
324.9480002104385
 20
855.8810368376987
 30
0.0
 10
325.9879737360659
 20
855.0423262302282
 30
0.0
 10
327.0926030831713
 20
854.3030906892948
 30
0.0
 10
328.2558177545073
 20
853.6668207088069
 30
0.0
 10
329.4659856483337
 20
853.1396651188263
 30
0.0
 10
330.7166384428939
 20
852.7253640927988
 30
0.0
 10
331.9960451804355
 20
852.4270884918193
 30
0.0
 10
333.2960680726162
 20
852.2473701658148
 30
0.0
 10
334.6057351581339
 20
852.1870867793299
 30
0.0
 10
335.9154022436519
 20
852.2473701658146
 30
0.0
 10
337.2154251358328
 20
852.4270884918196
 30
0.0
 10
338.4948318733742
 20
852.7253640927989
 30
0.0
 10
339.7454846679342
 20
853.1396651188268
 30
0.0
 10
340.9556525617606
 20
853.6668207088069
 30
0.0
 10
342.118867233097
 20
854.3030906892949
 30
0.0
 10
343.2234965802026
 20
855.042326230228
 30
0.0
 10
344.26347010583
 20
855.8810368376986
 30
0.0
 10
345.2270301995803
 20
856.812068957104
 30
0.0
 10
346.1131109461886
 20
857.8275613067628
 30
0.0
 10
346.9166018956728
 20
858.9141096213714
 30
0.0
 10
347.6190251836372
 20
860.0767914147984
 30
0.0
 10
348.1932602423595
 20
861.3102680152464
 30
0.0
 10
348.5316889047922
 20
862.1530101992914
 30
0.0
 10
348.7011244699235
 20
862.5749322181268
 30
0.0
 11
320.5103458463451
 21
862.5749322181268
 31
0.0
 11
321.0300204251369
 21
861.313769762842
 31
0.0
 11
321.6153541013674
 21
860.0856526224698
 31
0.0
 11
322.3117596273845
 21
858.9267469216859
 31
0.0
 11
323.115068511349
 21
857.8357563965358
 31
0.0
 11
323.9985652111586
 21
856.8248656427447
 31
0.0
 11
324.9639210128358
 21
855.8936054986457
 31
0.0
 11
325.9995552363518
 21
855.0583108323635
 31
0.0
 11
327.1057351581339
 21
854.3182112010568
 31
0.0
 11
328.2645730567608
 21
853.6845431472943
 31
0.0
 11
329.4754330082487
 21
853.1574410623139
 31
0.0
 11
330.7220258401337
 21
852.7445251529099
 31
0.0
 11
332.00101249313
 21
852.4465644957038
 31
0.0
 11
333.297904156572
 21
852.2672447303341
 31
0.0
 11
334.6057351581339
 21
852.2071811259818
 31
0.0
 11
335.9135661596961
 21
852.2672447303341
 31
0.0
 11
337.2104578231383
 21
852.4465644957038
 31
0.0
 11
338.4894444761344
 21
852.74452515291
 31
0.0
 11
339.7360373080192
 21
853.1574410623139
 31
0.0
 11
340.9468972595072
 21
853.6845431472943
 31
0.0
 11
342.1057351581344
 21
854.3182112010568
 31
0.0
 11
343.2119150799166
 21
855.0583108323635
 31
0.0
 11
344.2475493034327
 21
855.8936054986457
 31
0.0
 11
345.2129051051097
 21
856.8248656427445
 31
0.0
 11
346.0964018049191
 21
857.8357563965358
 31
0.0
 11
346.8997106888837
 21
858.926746921686
 31
0.0
 11
347.5961162149011
 21
860.0856526224698
 31
0.0
 11
348.1814498911317
 21
861.313769762842
 31
0.0
 11
348.7011244699235
 21
862.5749322181268
 31
0.0
  0
SPLINE
  5
253
330
62
100
AcDbEntity
  8
1
  6
Continuous
 62
     7
100
AcDbSpline
210
0.0
220
0.0
230
1.0
 70
     8
 71
     3
 72
    19
 73
    15
 74
    13
 42
0.000000001
 43
0.0000000001
 44
0.00000001
 40
0.0
 40
0.0
 40
0.0
 40
0.0
 40
0.2837092316242821
 40
0.5674700692097701
 40
1.280360953013226
 40
1.993731687850775
 40
2.500481933886975
 40
3.006495828297602
 40
3.207468677510664
 40
3.414073620819001
 40
3.530972814551742
 40
3.652113431491195
 40
3.764282407566228
 40
3.861832655468617
 40
3.861832655468617
 40
3.861832655468617
 40
3.861832655468617
 10
347.1057351581321
 20
553.6746856895467
 30
0.0
 10
347.1990334739673
 20
553.6901404570882
 30
0.0
 10
347.3856470778007
 20
553.7210527947
 30
0.0
 10
347.8061464551602
 20
553.7941138637096
 30
0.0
 10
348.3649896569904
 20
553.9069288825735
 30
0.0
 10
348.9913027008627
 20
554.0599595815645
 30
0.0
 10
349.5416216805788
 20
554.2280456370402
 30
0.0
 10
349.9254998560454
 20
554.3569447140142
 30
0.0
 10
350.2019074176317
 20
554.4874359917249
 30
0.0
 10
350.3422255735754
 20
554.5936222115653
 30
0.0
 10
350.4491680165027
 20
554.6966516623032
 30
0.0
 10
350.5269138806548
 20
554.7828675827863
 30
0.0
 10
350.5926040989335
 20
554.8752927221014
 30
0.0
 10
350.6015663761783
 20
554.9455936226016
 30
0.0
 10
350.6057351581341
 20
554.978293867638
 30
0.0
 11
347.1057351581321
 21
553.6746856895467
 31
0.0
 11
347.3855691966401
 21
553.7214172045127
 31
0.0
 11
347.6650797594617
 21
553.7703463190892
 31
0.0
 11
348.3638366513347
 21
553.9115986407274
 31
0.0
 11
349.0560835680482
 21
554.0839123414512
 31
0.0
 11
349.5412129350162
 21
554.2303545106653
 31
0.0
 11
350.0170058990333
 21
554.4026075688002
 31
0.0
 11
350.1967338777302
 21
554.4925405417066
 31
0.0
 11
350.3626592063415
 21
554.6156437009652
 31
0.0
 11
350.4470850684085
 21
554.6964997167054
 31
0.0
 11
350.5274302767099
 21
554.7871622583666
 31
0.0
 11
350.5861589377809
 21
554.8827280630022
 31
0.0
 11
350.6057351581341
 21
554.978293867638
 31
0.0
  0
SPLINE
  5
254
330
62
100
AcDbEntity
  8
1
  6
Continuous
 62
     7
100
AcDbSpline
210
0.0
220
0.0
230
1.0
 70
     8
 71
     3
 72
     9
 73
     5
 74
     3
 42
0.000000001
 43
0.0000000001
 44
0.00000001
 40
0.0
 40
0.0
 40
0.0
 40
0.0
 40
0.0975502489887616
 40
0.209719220874785
 40
0.209719220874785
 40
0.209719220874785
 40
0.209719220874785
 10
350.6057351581341
 20
554.978293867638
 30
0.0
 10
350.6016516541354
 20
555.0111146926808
 30
0.0
 10
350.5928726799654
 20
555.081674813286
 30
0.0
 10
350.5502351177307
 20
555.1388468443547
 30
0.0
 10
350.5274302767099
 20
555.1694254768807
 30
0.0
 11
350.6057351581341
 21
554.978293867638
 31
0.0
 11
350.5861589377751
 21
555.0738596722593
 31
0.0
 11
350.5274302767099
 21
555.1694254768807
 31
0.0
  0
SPLINE
  5
255
330
62
100
AcDbEntity
  8
1
  6
Continuous
 62
     7
100
AcDbSpline
210
0.0
220
0.0
230
1.0
 70
     8
 71
     3
 72
    17
 73
    13
 74
    11
 42
0.000000001
 43
0.0000000001
 44
0.00000001
 40
0.0
 40
0.0
 40
0.0
 40
0.0
 40
0.0975502482143429
 40
0.2097192240704514
 40
0.54249674927078
 40
0.8541569308467456
 40
1.360170825262594
 40
1.866921071300866
 40
2.580291806139737
 40
3.293182689943931
 40
3.576943527527775
 40
3.860652759148562
 40
3.860652759148562
 40
3.860652759148562
 40
3.860652759148562
 10
318.6057351581341
 20
554.9782938676237
 30
0.0
 10
318.6098950832609
 20
554.9455534810911
 30
0.0
 10
318.6188383194878
 20
554.875166282207
 30
0.0
 10
318.726816181126
 20
554.7248372619333
 30
0.0
 10
318.907738741107
 20
554.5470998952543
 30
0.0
 10
319.2499029881377
 20
554.3653608159794
 30
0.0
 10
319.6701841546842
 20
554.2291029767156
 30
0.0
 10
320.2200358550832
 20
554.059544357937
 30
0.0
 10
320.8465220342315
 20
553.9070592697626
 30
0.0
 10
321.4053198994669
 20
553.7941013791662
 30
0.0
 10
321.8258238459011
 20
553.7210547089396
 30
0.0
 10
322.0124370447646
 20
553.690141095131
 30
0.0
 10
322.1057351581326
 20
553.6746856895472
 30
0.0
 11
318.6057351581341
 21
554.9782938676237
 31
0.0
 11
318.6253113784901
 21
554.8827280629952
 31
0.0
 11
318.6840400395582
 21
554.7871622583666
 31
0.0
 11
318.9228056556818
 21
554.5553609179443
 31
0.0
 11
319.1944644172347
 21
554.4026075688002
 31
0.0
 11
319.6702573812518
 21
554.2303545106653
 31
0.0
 11
320.1553867482199
 21
554.0839123414511
 31
0.0
 11
320.8476336649333
 21
553.9115986407274
 31
0.0
 11
321.5463905568063
 21
553.7703463190894
 31
0.0
 11
321.8259011196262
 21
553.7214172045132
 31
0.0
 11
322.1057351581326
 21
553.6746856895472
 31
0.0
  0
SPLINE
  5
256
330
62
100
AcDbEntity
  8
1
  6
Continuous
 62
     7
100
AcDbSpline
210
0.0
220
0.0
230
1.0
 70
     8
 71
     3
 72
    43
 73
    39
 74
    37
 42
0.000000001
 43
0.0000000001
 44
0.00000001
 40
0.0
 40
0.0
 40
0.0
 40
0.0
 40
0.3327775272598786
 40
0.6444377077319191
 40
1.150451602086149
 40
1.657201848359518
 40
2.370572583674305
 40
3.083463468094135
 40
3.987678269345707
 40
4.891755102217489
 40
5.96256549848777
 40
7.033335459410377
 40
8.240012134336293
 40
9.44665880960216
 40
10.75368239282187
 40
12.06069378856644
 40
13.42925982489087
 40
14.79782007982909
 40
16.18712009082263
 40
17.57642010177342
 40
18.94498035658596
 40
20.313546392704
 40
21.620557788179
 40
22.92758137106328
 40
24.13422804596603
 40
25.34090472048378
 40
26.4116746810123
 40
27.48248507686497
 40
28.38656190937139
 40
29.29077671025313
 40
30.00366759438467
 40
30.71703832943543
 40
31.22378857557787
 40
31.72980246996573
 40
32.04146265160205
 40
32.37424017704856
 40
32.48640915088914
 40
32.58395940297716
 40
32.58395940297716
 40
32.58395940297716
 40
32.58395940297716
 10
350.5274302767099
 20
555.1694254768807
 30
0.0
 10
350.4520848407172
 20
555.2520514809044
 30
0.0
 10
350.3061752378236
 20
555.4120602302283
 30
0.0
 10
349.9604761617706
 20
555.5900771681166
 30
0.0
 10
349.5416333313012
 20
555.7278581809543
 30
0.0
 10
348.9912913753001
 20
555.8968582582326
 30
0.0
 10
348.3650313171446
 20
556.0498040567064
 30
0.0
 10
347.6032125649638
 20
556.202501586709
 30
0.0
 10
346.7736345631437
 20
556.3378178283693
 30
0.0
 10
345.8232138059758
 20
556.4713414414653
 30
0.0
 10
344.8148212806873
 20
556.589631650948
 30
0.0
 10
343.7041225204993
 20
556.6996329485258
 30
0.0
 10
342.5465658147122
 20
556.7942646800145
 30
0.0
 10
341.3092155610773
 20
556.8775851028962
 30
0.0
 10
340.0374225884923
 20
556.9454115803296
 30
0.0
 10
338.7109634961616
 20
556.9995994622726
 30
0.0
 10
337.3634338817327
 20
557.0380688595236
 30
0.0
 10
335.988130287307
 20
557.0616019643396
 30
0.0
 10
334.6057351542992
 20
557.0692876643927
 30
0.0
 10
333.2233400212448
 20
557.0616019639647
 30
0.0
 10
331.8480364272195
 20
557.0380688584594
 30
0.0
 10
330.5005068120373
 20
556.9995994618307
 30
0.0
 10
329.1740477234334
 20
556.9454115759105
 30
0.0
 10
327.902254738797
 20
556.8775851112107
 30
0.0
 10
326.6649045284047
 20
556.7942646429602
 30
0.0
 10
325.5073476717332
 20
556.6996330705073
 30
0.0
 10
324.396649416203
 20
556.5896312420357
 30
0.0
 10
323.3882551536202
 20
556.4713428614638
 30
0.0
 10
322.4378399282485
 20
556.3378134261905
 30
0.0
 10
321.6082434580687
 20
556.2025166237836
 30
0.0
 10
320.8464799573582
 20
556.0497609389145
 30
0.0
 10
320.2200435754058
 20
555.8970007309267
 30
0.0
 10
319.6701823670152
 20
555.7274946409367
 30
0.0
 10
319.249903268475
 20
555.5912253769588
 30
0.0
 10
318.9077386755961
 20
555.4094882050827
 30
0.0
 10
318.7268161885722
 20
555.2317504446594
 30
0.0
 10
318.6188383182193
 20
555.0814214587987
 30
0.0
 10
318.6098950832254
 20
555.011034256566
 30
0.0
 10
318.6057351581341
 20
554.9782938676237
 30
0.0
 11
350.5274302767099
 21
555.1694254768807
 31
0.0
 11
350.2886646605862
 21
555.401226817303
 31
0.0
 11
350.0170058990333
 21
555.5539801664471
 31
0.0
 11
349.5412129350161
 21
555.7262332245822
 31
0.0
 11
349.0560835680481
 21
555.8726753937963
 31
0.0
 11
348.3638366513347
 21
556.0449890945199
 31
0.0
 11
347.6650797594617
 21
556.186241416158
 31
0.0
 11
346.7731067643065
 21
556.3345268892974
 31
0.0
 11
345.8778479018545
 21
556.4604891369428
 31
0.0
 11
344.8144692261108
 21
556.5864283891897
 31
0.0
 11
343.748946337585
 21
556.6923022850777
 31
0.0
 11
342.546344933196
 21
556.7913904188936
 31
0.0
 11
341.3424373403575
 21
556.8726474506874
 31
0.0
 11
340.0372925250485
 21
556.9427021177291
 31
0.0
 11
338.7313743401807
 21
556.9961481780487
 31
0.0
 11
337.363373097349
 21
557.0354622173508
 31
0.0
 11
335.9950130259851
 21
557.0588691590018
 31
0.0
 11
334.6057351581342
 21
557.0667129431458
 31
0.0
 11
333.216457290283
 21
557.0588691590019
 31
0.0
 11
331.848097218919
 21
557.0354622173509
 31
0.0
 11
330.4800959760872
 21
556.9961481780487
 31
0.0
 11
329.1741777912195
 21
556.9427021177291
 31
0.0
 11
327.8690329759105
 21
556.8726474506874
 31
0.0
 11
326.6651253830719
 21
556.7913904188936
 31
0.0
 11
325.462523978683
 21
556.6923022850777
 31
0.0
 11
324.3970010901572
 21
556.5864283891897
 31
0.0
 11
323.3336224144135
 21
556.4604891369429
 31
0.0
 11
322.4383635519615
 21
556.3345268892973
 31
0.0
 11
321.5463905568063
 21
556.186241416158
 31
0.0
 11
320.8476336649333
 21
556.0449890945198
 31
0.0
 11
320.1553867482199
 21
555.8726753937963
 31
0.0
 11
319.6702573812518
 21
555.7262332245821
 31
0.0
 11
319.1944644172347
 21
555.5539801664471
 31
0.0
 11
318.9228056556818
 21
555.401226817303
 31
0.0
 11
318.6840400395582
 21
555.1694254768807
 31
0.0
 11
318.6253113784901
 21
555.0738596722522
 31
0.0
 11
318.6057351581341
 21
554.9782938676237
 31
0.0
  0
ARC
  5
257
330
62
100
AcDbEntity
  8
1
  6
Continuous
 62
     7
100
AcDbCircle
 10
342.6057351581341
 20
567.9198417418752
 30
0.0
 40
8.0
100
AcDbArc
 50
0.0
 51
90.0
  0
ARC
  5
258
330
62
100
AcDbEntity
  8
1
  6
Continuous
 62
     7
100
AcDbCircle
 10
326.6057351581341
 20
567.9198417418752
 30
0.0
 40
8.0
100
AcDbArc
 50
90.0
 51
180.0
  0
ARC
  5
259
330
62
100
AcDbEntity
  8
1
  6
Continuous
 62
     7
100
AcDbCircle
 10
311.1057351581341
 20
478.936331486334
 30
0.0
 40
0.5
100
AcDbArc
 50
180.0
 51
270.0
  0
ARC
  5
25A
330
62
100
AcDbEntity
  8
1
  6
Continuous
 62
     7
100
AcDbCircle
 10
311.1057351581341
 20
520.936331486334
 30
0.0
 40
0.5
100
AcDbArc
 50
90.0
 51
180.0
  0
ARC
  5
25B
330
62
100
AcDbEntity
  8
1
  6
Continuous
 62
     7
100
AcDbCircle
 10
358.1057351581341
 20
478.936331486334
 30
0.0
 40
0.5
100
AcDbArc
 50
270.0
 51
0.0
  0
ARC
  5
25C
330
62
100
AcDbEntity
  8
1
  6
Continuous
 62
     7
100
AcDbCircle
 10
358.1057351581341
 20
520.936331486334
 30
0.0
 40
0.5
100
AcDbArc
 50
0.0
 51
90.0
  0
ARC
  5
25D
330
62
100
AcDbEntity
  8
1
  6
Continuous
 62
     7
100
AcDbCircle
 10
567.8703916235207
 20
567.9198417418752
 30
0.0
 40
7.999999999999667
100
AcDbArc
 50
82.50000000002302
 51
172.5000000000258
  0
ARC
  5
25E
330
62
100
AcDbEntity
  8
1
  6
Continuous
 62
     7
100
AcDbCircle
 10
590.6597395166559
 20
553.3203341266961
 30
0.0
 40
0.5000000000002778
100
AcDbArc
 50
82.50000000014988
 51
172.500000000019
  0
ARC
  5
25F
330
62
100
AcDbEntity
  8
1
  6
Continuous
 62
     7
100
AcDbCircle
 10
848.1057351581344
 20
520.936331486334
 30
0.0
 40
0.5
100
AcDbArc
 50
0.0
 51
90.0
  0
ARC
  5
260
330
62
100
AcDbEntity
  8
1
  6
Continuous
 62
     7
100
AcDbCircle
 10
801.1057351581343
 20
520.936331486334
 30
0.0
 40
0.5
100
AcDbArc
 50
90.0
 51
180.0
  0
ARC
  5
261
330
62
100
AcDbEntity
  8
1
  6
Continuous
 62
     7
100
AcDbCircle
 10
801.1057351581343
 20
478.936331486334
 30
0.0
 40
0.5
100
AcDbArc
 50
180.0
 51
270.0
  0
ARC
  5
262
330
62
100
AcDbEntity
  8
1
  6
Continuous
 62
     7
100
AcDbCircle
 10
848.1057351581344
 20
478.936331486334
 30
0.0
 40
0.5
100
AcDbArc
 50
270.0
 51
0.0
  0
ARC
  5
263
330
62
100
AcDbEntity
  8
1
  6
Continuous
 62
     7
100
AcDbCircle
 10
326.6057351581341
 20
489.436331486334
 30
0.0
 40
8.0
100
AcDbArc
 50
180.0
 51
270.0
  0
ARC
  5
264
330
62
100
AcDbEntity
  8
1
  6
Continuous
 62
     7
100
AcDbCircle
 10
342.6057351581341
 20
489.436331486334
 30
0.0
 40
8.0
100
AcDbArc
 50
270.0
 51
0.0
  0
ENDBLK
  5
64
330
62
100
AcDbEntity
  8
0
100
AcDbBlockEnd
  0
BLOCK
  5
66
330
65
100
AcDbEntity
  8
0
100
AcDbBlockBegin
  2
38-44
 70
     0
 10
2359.565147536536
 20
2355.291337331662
 30
0.0
  3
38-44
  1

  0
LINE
  5
265
330
65
100
AcDbEntity
  8
1
  6
Continuous
 62
     7
100
AcDbLine
 10
584.150084821614
 20
553.6730319454268
 30
0.0
 11
584.078295415893
 21
553.1277372716706
 31
0.0
  0
LINE
  5
266
330
65
100
AcDbEntity
  8
1
  6
Continuous
 62
     7
100
AcDbLine
 10
564.3211875941356
 20
556.2835557898261
 30
0.0
 11
564.2493981884147
 21
555.7382611160701
 31
0.0
  0
ENDBLK
  5
67
330
65
100
AcDbEntity
  8
0
100
AcDbBlockEnd
  0
BLOCK
  5
69
330
68
100
AcDbEntity
  8
0
100
AcDbBlockBegin
  2
開示A4
 70
     0
 10
0.0
 20
0.0
 30
0.0
  3
開示A4
  1

  0
POINT
  5
267
330
68
100
AcDbEntity
  8
1
 62
     4
100
AcDbPoint
 10
93.75
 20
17.0
 30
0.0
  0
POINT
  5
268
330
68
100
AcDbEntity
  8
1
 62
     4
100
AcDbPoint
 10
85.25
 20
17.0
 30
0.0
  0
POINT
  5
269
330
68
100
AcDbEntity
  8
1
 62
     4
100
AcDbPoint
 10
106.5
 20
19.00000000000001
 30
0.0
  0
POINT
  5
26A
330
68
100
AcDbEntity
  8
1
 62
     4
100
AcDbPoint
 10
106.5
 20
12.5
 30
0.0
  0
POINT
  5
26B
330
68
100
AcDbEntity
  8
1
 62
     4
100
AcDbPoint
 10
112.25
 20
12.5
 30
0.0
  0
POINT
  5
26C
330
68
100
AcDbEntity
  8
1
 62
     4
100
AcDbPoint
 10
100.75
 20
12.5
 30
0.0
  0
POINT
  5
26D
330
68
100
AcDbEntity
  8
1
 62
     4
100
AcDbPoint
 10
123.5
 20
19.00000000000001
 30
0.0
  0
POINT
  5
26E
330
68
100
AcDbEntity
  8
1
 62
     4
100
AcDbPoint
 10
123.5
 20
12.5
 30
0.0
  0
POINT
  5
26F
330
68
100
AcDbEntity
  8
1
 62
     4
100
AcDbPoint
 10
129.25
 20
12.5
 30
0.0
  0
POINT
  5
270
330
68
100
AcDbEntity
  8
1
 62
     4
100
AcDbPoint
 10
117.75
 20
12.5
 30
0.0
  0
POINT
  5
271
330
68
100
AcDbEntity
  8
1
 62
     4
100
AcDbPoint
 10
140.5
 20
19.00000000000001
 30
0.0
  0
POINT
  5
272
330
68
100
AcDbEntity
  8
1
 62
     4
100
AcDbPoint
 10
140.5
 20
12.5
 30
0.0
  0
POINT
  5
273
330
68
100
AcDbEntity
  8
1
 62
     4
100
AcDbPoint
 10
146.25
 20
12.5
 30
0.0
  0
POINT
  5
274
330
68
100
AcDbEntity
  8
1
 62
     4
100
AcDbPoint
 10
134.75
 20
12.5
 30
0.0
  0
POINT
  5
275
330
68
100
AcDbEntity
  8
1
 62
     4
100
AcDbPoint
 10
151.75
 20
12.5
 30
0.0
  0
POINT
  5
276
330
68
100
AcDbEntity
  8
1
 62
     4
100
AcDbPoint
 10
163.25
 20
12.5
 30
0.0
  0
POINT
  5
277
330
68
100
AcDbEntity
  8
1
 62
     4
100
AcDbPoint
 10
157.5
 20
12.5
 30
0.0
  0
POINT
  5
278
330
68
100
AcDbEntity
  8
1
 62
     4
100
AcDbPoint
 10
57.0
 20
14.25
 30
0.0
  0
POINT
  5
279
330
68
100
AcDbEntity
  8
1
 62
     4
100
AcDbPoint
 10
57.0
 20
22.75000000000001
 30
0.0
  0
POINT
  5
27A
330
68
100
AcDbEntity
  8
1
 62
     4
100
AcDbPoint
 10
47.5
 20
282.0000000000003
 30
0.0
  0
POINT
  5
27B
330
68
100
AcDbEntity
  8
1
 62
     4
100
AcDbPoint
 10
157.5
 20
19.00000000000001
 30
0.0
  0
POINT
  5
27C
330
68
100
AcDbEntity
  8
1
 62
     4
100
AcDbPoint
 10
57.0
 20
16.25
 30
0.0
  0
POINT
  5
27D
330
68
100
AcDbEntity
  8
1
 62
     4
100
AcDbPoint
 10
57.0
 20
24.75000000000001
 30
0.0
  0
POINT
  5
27E
330
68
100
AcDbEntity
  8
1
 62
     4
100
AcDbPoint
 10
57.0
 20
20.75000000000001
 30
0.0
  0
POINT
  5
27F
330
68
100
AcDbEntity
  8
1
 62
     4
100
AcDbPoint
 10
57.0
 20
12.25
 30
0.0
  0
POINT
  5
280
330
68
100
AcDbEntity
  8
1
 62
     4
100
AcDbPoint
 10
34.0
 20
34.00000000000001
 30
0.0
  0
LINE
  5
281
330
68
100
AcDbEntity
  8
1
  6
Continuous
 62
     7
100
AcDbLine
 10
105.0
 20
10.0
 30
0.0
 11
200.0
 21
10.0
 31
0.0
  0
LINE
  5
282
330
68
100
AcDbEntity
  8
1
  6
Continuous
 62
     2
100
AcDbLine
 10
105.0
 20
10.0
 30
0.0
 11
105.0
 21
5.0
 31
0.0
  0
LINE
  5
283
330
68
100
AcDbEntity
  8
1
  6
Continuous
 62
     7
100
AcDbLine
 10
200.0
 20
148.5
 30
0.0
 11
200.0
 21
287.0000000000003
 31
0.0
  0
LINE
  5
284
330
68
100
AcDbEntity
  8
1
  6
Continuous
 62
     2
100
AcDbLine
 10
200.0
 20
148.5
 30
0.0
 11
205.0
 21
148.5
 31
0.0
  0
LINE
  5
285
330
68
100
AcDbEntity
  8
1
  6
Continuous
 62
     7
100
AcDbLine
 10
25.0
 20
148.5
 30
0.0
 11
25.0
 21
287.0000000000003
 31
0.0
  0
LINE
  5
286
330
68
100
AcDbEntity
  8
1
  6
Continuous
 62
     2
100
AcDbLine
 10
25.0
 20
148.5
 30
0.0
 11
20.0
 21
148.5
 31
0.0
  0
LINE
  5
287
330
68
100
AcDbEntity
  8
1
  6
Continuous
 62
     7
100
AcDbLine
 10
105.0
 20
287.0000000000003
 30
0.0
 11
25.0
 21
287.0000000000003
 31
0.0
  0
LINE
  5
288
330
68
100
AcDbEntity
  8
1
  6
Continuous
 62
     2
100
AcDbLine
 10
105.0
 20
287.0000000000003
 30
0.0
 11
105.0
 21
292.0000000000003
 31
0.0
  0
LINE
  5
289
330
68
100
AcDbEntity
  8
1
  6
Continuous
 62
     2
100
AcDbLine
 10
166.0
 20
20.00000000000001
 30
0.0
 11
200.0
 21
20.00000000000001
 31
0.0
  0
LINE
  5
28A
330
68
100
AcDbEntity
  8
1
  6
Continuous
 62
     2
100
AcDbLine
 10
98.0
 20
27.00000000000001
 30
0.0
 11
98.0
 21
9.99999999999999
 31
0.0
  0
LINE
  5
28B
330
68
100
AcDbEntity
  8
1
  6
Continuous
 62
     2
100
AcDbLine
 10
115.0
 20
27.00000000000001
 30
0.0
 11
115.0
 21
9.99999999999999
 31
0.0
  0
LINE
  5
28C
330
68
100
AcDbEntity
  8
1
  6
Continuous
 62
     2
100
AcDbLine
 10
149.0
 20
27.00000000000001
 30
0.0
 11
149.0
 21
10.0
 31
0.0
  0
LINE
  5
28D
330
68
100
AcDbEntity
  8
1
  6
Continuous
 62
     2
100
AcDbLine
 10
132.0
 20
27.00000000000001
 30
0.0
 11
132.0
 21
9.99999999999999
 31
0.0
  0
LINE
  5
28E
330
68
100
AcDbEntity
  8
1
  6
Continuous
 62
     2
100
AcDbLine
 10
166.0
 20
27.00000000000001
 30
0.0
 11
166.0
 21
10.0
 31
0.0
  0
LINE
  5
28F
330
68
100
AcDbEntity
  8
1
  6
Continuous
 62
     2
100
AcDbLine
 10
55.0
 20
277.0000000000003
 30
0.0
 11
25.0
 21
277.0000000000003
 31
0.0
  0
LINE
  5
290
330
68
100
AcDbEntity
  8
1
  6
Continuous
 62
     7
100
AcDbLine
 10
25.0
 20
10.0
 30
0.0
 11
25.0
 21
148.5
 31
0.0
  0
LINE
  5
291
330
68
100
AcDbEntity
  8
1
  6
Continuous
 62
     2
100
AcDbLine
 10
40.0
 20
287.0000000000003
 30
0.0
 11
40.0
 21
277.0000000000003
 31
0.0
  0
LINE
  5
292
330
68
100
AcDbEntity
  8
1
  6
Continuous
 62
     2
100
AcDbLine
 10
55.0
 20
287.0000000000003
 30
0.0
 11
55.0
 21
277.0000000000003
 31
0.0
  0
LINE
  5
293
330
68
100
AcDbEntity
  8
1
  6
Continuous
 62
     2
100
AcDbLine
 10
33.0
 20
41.00000000000001
 30
0.0
 11
33.0
 21
27.0
 31
0.0
  0
LINE
  5
294
330
68
100
AcDbEntity
  8
1
  6
Continuous
 62
     7
100
AcDbLine
 10
200.0
 20
27.00000000000001
 30
0.0
 11
25.0
 21
27.00000000000001
 31
0.0
  0
LINE
  5
295
330
68
100
AcDbEntity
  8
1
  6
Continuous
 62
     7
100
AcDbLine
 10
25.0
 20
41.0
 30
0.0
 11
200.0
 21
41.0
 31
0.0
  0
LINE
  5
296
330
68
100
AcDbEntity
  8
1
  6
PHANTOM
 62
     4
100
AcDbLine
 10
0.0
 20
0.0
 30
0.0
 11
210.0
 21
0.0
 31
0.0
  0
LINE
  5
297
330
68
100
AcDbEntity
  8
1
  6
PHANTOM
 62
     4
100
AcDbLine
 10
210.0
 20
0.0
 30
0.0
 11
210.0
 21
297.0
 31
0.0
  0
LINE
  5
298
330
68
100
AcDbEntity
  8
1
  6
PHANTOM
 62
     4
100
AcDbLine
 10
210.0
 20
297.0
 30
0.0
 11
0.0
 21
297.0
 31
0.0
  0
LINE
  5
299
330
68
100
AcDbEntity
  8
1
  6
PHANTOM
 62
     4
100
AcDbLine
 10
0.0
 20
297.0
 30
0.0
 11
0.0
 21
0.0
 31
0.0
  0
LINE
  5
29A
330
68
100
AcDbEntity
  8
1
  6
Continuous
 62
     7
100
AcDbLine
 10
25.0
 20
10.0
 30
0.0
 11
105.0
 21
10.0
 31
0.0
  0
LINE
  5
29B
330
68
100
AcDbEntity
  8
1
  6
Continuous
 62
     7
100
AcDbLine
 10
200.0
 20
10.0
 30
0.0
 11
200.0
 21
148.5
 31
0.0
  0
LINE
  5
29C
330
68
100
AcDbEntity
  8
1
  6
Continuous
 62
     7
100
AcDbLine
 10
200.0
 20
287.0000000000003
 30
0.0
 11
105.0
 21
287.0000000000003
 31
0.0
  0
LINE
  5
29D
330
68
100
AcDbEntity
  8
1
  6
Continuous
 62
     2
100
AcDbLine
 10
25.0
 20
18.50000000000001
 30
0.0
 11
81.0
 21
18.50000000000001
 31
0.0
  0
LINE
  5
29E
330
68
100
AcDbEntity
  8
1
  6
Continuous
 62
     2
100
AcDbLine
 10
33.0
 20
27.0
 30
0.0
 11
33.0
 21
10.0
 31
0.0
  0
LINE
  5
29F
330
68
100
AcDbEntity
  8
1
  6
Continuous
 62
     7
100
AcDbLine
 10
191.0
 20
24.70000000000001
 30
0.0
 11
191.0
 21
22.30000000000001
 31
0.0
  0
LINE
  5
2A0
330
68
100
AcDbEntity
  8
1
  6
Continuous
 62
     7
100
AcDbLine
 10
191.0
 20
24.70000000000001
 30
0.0
 11
196.0
 21
25.50000000000001
 31
0.0
  0
LINE
  5
2A1
330
68
100
AcDbEntity
  8
1
  6
Continuous
 62
     7
100
AcDbLine
 10
196.0
 20
25.50000000000001
 30
0.0
 11
196.0
 21
21.50000000000001
 31
0.0
  0
LINE
  5
2A2
330
68
100
AcDbEntity
  8
1
  6
Continuous
 62
     7
100
AcDbLine
 10
196.0
 20
21.50000000000001
 30
0.0
 11
191.0
 21
22.30000000000001
 31
0.0
  0
LINE
  5
2A3
330
68
100
AcDbEntity
  8
1
  6
DOT_CENTER
 62
     2
100
AcDbLine
 10
184.0
 20
23.50000000000001
 30
0.0
 11
197.0
 21
23.50000000000001
 31
0.0
  0
LINE
  5
2A4
330
68
100
AcDbEntity
  8
1
  6
DOT_CENTER
 62
     2
100
AcDbLine
 10
187.0
 20
26.50000000000001
 30
0.0
 11
187.0
 21
20.50000000000001
 31
0.0
  0
LINE
  5
2A5
330
68
100
AcDbEntity
  8
1
  6
Continuous
 62
     2
100
AcDbLine
 10
81.0
 20
27.00000000000001
 30
0.0
 11
81.0
 21
10.0
 31
0.0
  0
CIRCLE
  5
2A6
330
68
100
AcDbEntity
  8
1
  6
Continuous
 62
     7
100
AcDbCircle
 10
103.5
 20
12.5
 30
0.0
 40
0.2999999999999972
  0
CIRCLE
  5
2A7
330
68
100
AcDbEntity
  8
1
  6
Continuous
 62
     7
100
AcDbCircle
 10
109.5
 20
12.5
 30
0.0
 40
0.2999999999999972
  0
CIRCLE
  5
2A8
330
68
100
AcDbEntity
  8
1
  6
Continuous
 62
     7
100
AcDbCircle
 10
120.5
 20
12.5
 30
0.0
 40
0.2999999999999972
  0
CIRCLE
  5
2A9
330
68
100
AcDbEntity
  8
1
  6
Continuous
 62
     7
100
AcDbCircle
 10
126.5
 20
12.5
 30
0.0
 40
0.2999999999999972
  0
CIRCLE
  5
2AA
330
68
100
AcDbEntity
  8
1
  6
Continuous
 62
     7
100
AcDbCircle
 10
137.5
 20
12.5
 30
0.0
 40
0.3000000000000114
  0
CIRCLE
  5
2AB
330
68
100
AcDbEntity
  8
1
  6
Continuous
 62
     7
100
AcDbCircle
 10
143.5
 20
12.5
 30
0.0
 40
0.3000000000000114
  0
CIRCLE
  5
2AC
330
68
100
AcDbEntity
  8
1
  6
Continuous
 62
     7
100
AcDbCircle
 10
160.5
 20
12.5
 30
0.0
 40
0.3000000000000114
  0
CIRCLE
  5
2AD
330
68
100
AcDbEntity
  8
1
  6
Continuous
 62
     7
100
AcDbCircle
 10
154.5
 20
12.5
 30
0.0
 40
0.3000000000000114
  0
CIRCLE
  5
2AE
330
68
100
AcDbEntity
  8
1
  6
Continuous
 62
     7
100
AcDbCircle
 10
187.0
 20
23.50000000000001
 30
0.0
 40
1.200000000000102
  0
CIRCLE
  5
2AF
330
68
100
AcDbEntity
  8
1
  6
Continuous
 62
     7
100
AcDbCircle
 10
187.0
 20
23.50000000000001
 30
0.0
 40
2.0
  0
CIRCLE
  5
2B0
330
68
100
AcDbEntity
  8
1
  6
DOT_CENTER
 62
     7
100
AcDbCircle
 10
89.5
 20
16.0
 30
0.0
 40
0.1000000000000227
  0
CIRCLE
  5
2B1
330
68
100
AcDbEntity
  8
1
  6
DOT_CENTER
 62
     7
100
AcDbCircle
 10
89.5
 20
18.0
 30
0.0
 40
0.1000000000000227
  0
MTEXT
  5
2B3
330
68
100
AcDbEntity
  8
1
 62
     7
100
AcDbMText
 10
188.5
 20
15.0
 30
0.0
 40
3.0
 41
0.0
 71
     5
 72
     1
  1
三栄水栓製作所
  7
CONVERTER_11
 73
     1
 44
1.0
  0
MTEXT
  5
2B4
330
68
100
AcDbEntity
  8
1
 62
     7
100
AcDbMText
 10
171.5
 20
15.0
 30
0.0
 40
2.5
 41
0.0
 71
     5
 72
     1
  1
株式会社
  7
CONVERTER_11
 73
     1
 44
1.0
  0
MTEXT
  5
2B5
330
68
100
AcDbEntity
  8
1
 62
     2
100
AcDbMText
 10
32.5
 20
282.0000000000003
 30
0.0
 40
5.0
 41
0.0
 71
     5
 72
     1
  1
図番
  7
CONVERTER_11
 73
     1
 44
0.45454545454545
  0
MTEXT
  5
2B6
330
68
100
AcDbEntity
  8
1
 62
     2
100
AcDbMText
 10
29.0
 20
34.00000000000001
 30
0.0
 40
3.5
 41
0.0
 71
     5
 72
     1
  1
備考
  7
CONVERTER_11
 73
     1
 44
0.45454545454545
  0
MTEXT
  5
2B7
330
68
100
AcDbEntity
  8
1
 62
     2
100
AcDbMText
 10
29.0
 20
22.75
 30
0.0
 40
3.5
 41
0.0
 71
     5
 72
     1
  1
品名
  7
CONVERTER_11
 73
     1
 44
0.72727272727273
  0
MTEXT
  5
2B8
330
68
100
AcDbEntity
  8
1
 62
     2
100
AcDbMText
 10
29.0
 20
14.25
 30
0.0
 40
3.5
 41
0.0
 71
     5
 72
     1
  1
品番
  7
CONVERTER_11
 73
     1
 44
0.72727272727273
  0
MTEXT
  5
2B9
330
68
100
AcDbEntity
  8
1
 62
     2
100
AcDbMText
 10
101.5
 20
25.00000000000001
 30
0.0
 40
3.0
 41
0.0
 71
     5
 72
     1
  1
承認
  7
CONVERTER_11
 73
     1
 44
0.59090909090909
  0
MTEXT
  5
2BA
330
68
100
AcDbEntity
  8
1
 62
     2
100
AcDbMText
 10
175.0
 20
23.50000000000001
 30
0.0
 40
3.5
 41
0.0
 71
     5
 72
     1
  1
第三角法
  7
CONVERTER_11
 73
     1
 44
0.54545454545455
  0
MTEXT
  5
2BB
330
68
100
AcDbEntity
  8
1
 62
     2
100
AcDbMText
 10
118.5
 20
25.00000000000001
 30
0.0
 40
3.0
 41
0.0
 71
     5
 72
     1
  1
検図
  7
CONVERTER_11
 73
     1
 44
0.59090909090909
  0
MTEXT
  5
2BC
330
68
100
AcDbEntity
  8
1
 62
     2
100
AcDbMText
 10
152.5
 20
25.00000000000001
 30
0.0
 40
3.0
 41
0.0
 71
     5
 72
     1
  1
設計
  7
CONVERTER_11
 73
     1
 44
0.59090909090909
  0
MTEXT
  5
2BD
330
68
100
AcDbEntity
  8
1
 62
     2
100
AcDbMText
 10
135.5
 20
25.00000000000001
 30
0.0
 40
3.0
 41
0.0
 71
     5
 72
     1
  1
製図
  7
CONVERTER_11
 73
     1
 44
0.59090909090909
  0
MTEXT
  5
2BE
330
68
100
AcDbEntity
  8
1
 62
     2
100
AcDbMText
 10
89.5
 20
24.00000000000001
 30
0.0
 40
3.5
 41
0.0
 71
     5
 72
     1
  1
尺度
  7
CONVERTER_11
 73
     1
 44
0.54545454545455
  0
MTEXT
  5
2BF
330
68
100
AcDbEntity
  8
1
 62
   250
100
AcDbMText
 10
25.0
 20
5.0
 30
0.0
 40
3.5
 41
0.0
 71
     4
 72
     1
  1
備考欄の文字列 原点位置=4
  7
CONVERTER_11
 73
     1
 44
0.54545454545455
  0
ENDBLK
  5
6A
330
68
100
AcDbEntity
  8
0
100
AcDbBlockEnd
  0
BLOCK
  5
6C
330
6B
100
AcDbEntity
  8
0
100
AcDbBlockBegin
  2
88-546A-M21
 70
     0
 10
975.241233832396
 20
2283.832489051739
 30
0.0
  3
88-546A-M21
  1

  0
LINE
  5
2C0
330
6B
100
AcDbEntity
  8
1
  6
Continuous
 62
     7
100
AcDbLine
 10
310.6057351581343
 20
552.8363314863336
 30
0.0
 11
310.6057351581348
 21
522.8363314863336
 31
0.0
  0
LINE
  5
2C1
330
6B
100
AcDbEntity
  8
1
  6
Continuous
 62
     7
100
AcDbLine
 10
358.6057351581343
 20
522.8363314863336
 30
0.0
 11
358.6057351581343
 21
552.8363314863336
 31
0.0
  0
LINE
  5
2C2
330
6B
100
AcDbEntity
  8
1
  6
Continuous
 62
     7
100
AcDbLine
 10
358.6057351581343
 20
522.8363314863336
 30
0.0
 11
350.6057351581341
 21
522.8363314863336
 31
0.0
  0
LINE
  5
2C3
330
6B
100
AcDbEntity
  8
1
  6
PHANTOM
 62
     4
100
AcDbLine
 10
334.6057351581341
 20
582.8363314863337
 30
0.0
 11
334.6057351581343
 21
519.8363314863336
 31
0.0
  0
LINE
  5
2C4
330
6B
100
AcDbEntity
  8
1
  6
PHANTOM
 62
     4
100
AcDbLine
 10
824.6057351581348
 20
582.8363314863336
 30
0.0
 11
824.6057351581348
 21
519.8363314863336
 31
0.0
  0
LINE
  5
2C5
330
6B
100
AcDbEntity
  8
1
  6
Continuous
 62
     7
100
AcDbLine
 10
800.6057351581348
 20
552.8363314863336
 30
0.0
 11
800.6057351581351
 21
522.8363314863336
 31
0.0
  0
LINE
  5
2C6
330
6B
100
AcDbEntity
  8
1
  6
Continuous
 62
     7
100
AcDbLine
 10
848.6057351581348
 20
522.8363314863336
 30
0.0
 11
848.6057351581348
 21
552.8363314863336
 31
0.0
  0
LINE
  5
2C7
330
6B
100
AcDbEntity
  8
1
  6
Continuous
 62
     7
100
AcDbLine
 10
848.6057351581348
 20
522.8363314863336
 30
0.0
 11
800.6057351581351
 21
522.8363314863336
 31
0.0
  0
LINE
  5
2C8
330
6B
100
AcDbEntity
  8
1
  6
Continuous
 62
     7
100
AcDbLine
 10
318.6057351581342
 20
522.8363314863336
 30
0.0
 11
310.6057351581348
 21
522.8363314863336
 31
0.0
  0
ARC
  5
2C9
330
6B
100
AcDbEntity
  8
1
  6
Continuous
 62
     7
100
AcDbCircle
 10
369.9326582350581
 20
552.8363314863336
 30
0.0
 40
59.32692307692376
100
AcDbArc
 50
162.0335350006594
 51
180.0
  0
ARC
  5
2CA
330
6B
100
AcDbEntity
  8
1
  6
Continuous
 62
     7
100
AcDbCircle
 10
859.9326582350584
 20
552.8363314863336
 30
0.0
 40
59.32692307692355
100
AcDbArc
 50
162.0335350006594
 51
180.0
  0
ARC
  5
2CB
330
6B
100
AcDbEntity
  8
1
  6
Continuous
 62
     7
100
AcDbCircle
 10
299.2788120812106
 20
552.8363314863336
 30
0.0
 40
59.32692307692366
100
AcDbArc
 50
0.0
 51
17.96646499934065
  0
ARC
  5
2CC
330
6B
100
AcDbEntity
  8
1
  6
Continuous
 62
     7
100
AcDbCircle
 10
789.2788120812108
 20
552.8363314863336
 30
0.0
 40
59.326923076924
100
AcDbArc
 50
0.0
 51
21.55878422828429
  0
ENDBLK
  5
6D
330
6B
100
AcDbEntity
  8
0
100
AcDbBlockEnd
  0
BLOCK
  5
30E
330
305
100
AcDbEntity
  8
0
100
AcDbBlockBegin
  2
*D14
 70
     1
 10
0.0
 20
0.0
 30
0.0
  3
*D14
  1

  0
LINE
  5
306
330
305
100
AcDbEntity
  8
1
  6
Continuous
 62
     2
100
AcDbLine
 10
858.8557351581344
 20
715.7010104590875
 30
0.0
 11
893.8557351581344
 21
715.7010104590875
 31
0.0
  0
LINE
  5
307
330
305
100
AcDbEntity
  8
1
  6
Continuous
 62
     2
100
AcDbLine
 10
824.6057351581344
 20
715.7010104590875
 30
0.0
 11
858.8557351581344
 21
715.7010104590875
 31
0.0
  0
LINE
  5
308
330
305
100
AcDbEntity
  8
1
  6
Continuous
 62
     2
100
AcDbLine
 10
789.6057351581344
 20
715.7010104590875
 30
0.0
 11
824.6057351581344
 21
715.7010104590875
 31
0.0
  0
LINE
  5
309
330
305
100
AcDbEntity
  8
1
  6
Continuous
 62
     2
100
AcDbLine
 10
824.6057351581344
 20
619.4363314863339
 30
0.0
 11
824.6057351581344
 21
720.7010104590875
 31
0.0
  0
LINE
  5
30A
330
305
100
AcDbEntity
  8
1
  6
Continuous
 62
     2
100
AcDbLine
 10
858.8557351581344
 20
379.8188456760496
 30
0.0
 11
858.8557351581344
 21
720.7010104590875
 31
0.0
  0
SOLID
  5
30B
330
305
100
AcDbEntity
  8
1
 62
     2
100
AcDbTrace
 10
807.1057351581344
 20
713.397091751308
 30
0.0
 11
807.1057351581344
 21
718.0049291668669
 31
0.0
 12
824.6057351581344
 22
715.7010104590875
 32
0.0
 13
824.6057351581344
 23
715.7010104590875
 33
0.0
  0
SOLID
  5
30C
330
305
100
AcDbEntity
  8
1
 62
     2
100
AcDbTrace
 10
876.3557351581344
 20
718.0049291668669
 30
0.0
 11
876.3557351581344
 21
713.397091751308
 31
0.0
 12
858.8557351581344
 22
715.7010104590875
 32
0.0
 13
858.8557351581344
 23
715.7010104590875
 33
0.0
  0
MTEXT
  5
30D
330
305
100
AcDbEntity
  8
1
 62
     7
100
AcDbMText
 10
828.6057351581348
 20
720.7010104590875
 30
0.0
 40
17.5
 41
0.0
 71
     7
 72
     1
  1
34
  7
CONVERTER_12
 11
0.9999999999970619
 21
2.424068405545306E-6
 31
0.0
 73
     1
 44
0.60024009603842
  0
ENDBLK
  5
30F
330
305
100
AcDbEntity
  8
0
100
AcDbBlockEnd
  0
BLOCK
  5
319
330
312
100
AcDbEntity
  8
0
100
AcDbBlockBegin
  2
*D15
 70
     1
 10
0.0
 20
0.0
 30
0.0
  3
*D15
  1

  0
LINE
  5
313
330
312
100
AcDbEntity
  8
1
  6
Continuous
 62
     2
100
AcDbLine
 10
203.6057351581341
 20
1236.570523937865
 30
0.0
 11
465.6057351581339
 21
1236.570523937865
 31
0.0
  0
LINE
  5
314
330
312
100
AcDbEntity
  8
1
  6
Continuous
 62
     2
100
AcDbLine
 10
203.6057351581341
 20
1128.213903621554
 30
0.0
 11
203.6057351581341
 21
1241.570523937865
 31
0.0
  0
LINE
  5
315
330
312
100
AcDbEntity
  8
1
  6
Continuous
 62
     2
100
AcDbLine
 10
465.6057351581339
 20
1128.213903621554
 30
0.0
 11
465.6057351581339
 21
1241.570523937865
 31
0.0
  0
SOLID
  5
316
330
312
100
AcDbEntity
  8
1
 62
     2
100
AcDbTrace
 10
221.1057351581341
 20
1238.874442645644
 30
0.0
 11
221.1057351581341
 21
1234.266605230085
 31
0.0
 12
203.6057351581341
 22
1236.570523937865
 32
0.0
 13
203.6057351581341
 23
1236.570523937865
 33
0.0
  0
SOLID
  5
317
330
312
100
AcDbEntity
  8
1
 62
     2
100
AcDbTrace
 10
448.1057351581339
 20
1234.266605230085
 30
0.0
 11
448.1057351581339
 21
1238.874442645644
 31
0.0
 12
465.6057351581339
 22
1236.570523937865
 32
0.0
 13
465.6057351581339
 23
1236.570523937865
 33
0.0
  0
MTEXT
  5
318
330
312
100
AcDbEntity
  8
1
 62
     7
100
AcDbMText
 10
313.6057351581342
 20
1241.570523937865
 30
0.0
 40
17.5
 41
0.0
 71
     7
 72
     1
  1
262
  7
CONVERTER_12
 11
0.9999999999970619
 21
2.424068405545306E-6
 31
0.0
 73
     1
 44
0.60024009603842
  0
ENDBLK
  5
31A
330
312
100
AcDbEntity
  8
0
100
AcDbBlockEnd
  0
BLOCK
  5
324
330
31D
100
AcDbEntity
  8
0
100
AcDbBlockBegin
  2
*D16
 70
     1
 10
0.0
 20
0.0
 30
0.0
  3
*D16
  1

  0
LINE
  5
31E
330
31D
100
AcDbEntity
  8
1
  6
Continuous
 62
     2
100
AcDbLine
 10
233.1057351581341
 20
329.8188456760497
 30
0.0
 11
436.1057351581338
 21
329.8188456760497
 31
0.0
  0
LINE
  5
31F
330
31D
100
AcDbEntity
  8
1
  6
Continuous
 62
     2
100
AcDbLine
 10
436.1057351581338
 20
380.8524789266118
 30
0.0
 11
436.1057351581338
 21
324.8188456760497
 31
0.0
  0
LINE
  5
320
330
31D
100
AcDbEntity
  8
1
  6
Continuous
 62
     2
100
AcDbLine
 10
233.1057351581341
 20
365.8205394000016
 30
0.0
 11
233.1057351581341
 21
324.8188456760497
 31
0.0
  0
SOLID
  5
321
330
31D
100
AcDbEntity
  8
1
 62
     2
100
AcDbTrace
 10
250.6057351581341
 20
332.1227643838291
 30
0.0
 11
250.6057351581341
 21
327.5149269682703
 31
0.0
 12
233.1057351581341
 22
329.8188456760497
 32
0.0
 13
233.1057351581341
 23
329.8188456760497
 33
0.0
  0
SOLID
  5
322
330
31D
100
AcDbEntity
  8
1
 62
     2
100
AcDbTrace
 10
418.6057351581338
 20
327.5149269682703
 30
0.0
 11
418.6057351581338
 21
332.1227643838291
 31
0.0
 12
436.1057351581338
 22
329.8188456760497
 32
0.0
 13
436.1057351581338
 23
329.8188456760497
 33
0.0
  0
MTEXT
  5
323
330
31D
100
AcDbEntity
  8
1
 62
     7
100
AcDbMText
 10
305.65113278754
 20
339.1938456760497
 30
0.0
 40
17.5
 41
0.0
 71
     7
 72
     1
  1
\C7;203\C2;\H10.5;\S+2^ -3;
  7
CONVERTER_12
 11
0.9999999999970619
 21
2.424068405545306E-6
 31
0.0
 73
     1
 44
0.60024009603842
  0
ENDBLK
  5
325
330
31D
100
AcDbEntity
  8
0
100
AcDbBlockEnd
  0
BLOCK
  5
32F
330
328
100
AcDbEntity
  8
0
100
AcDbBlockBegin
  2
*D17
 70
     1
 10
0.0
 20
0.0
 30
0.0
  3
*D17
  1

  0
LINE
  5
329
330
328
100
AcDbEntity
  8
1
  6
Continuous
 62
     2
100
AcDbLine
 10
858.8557351581344
 20
329.8188456760497
 30
0.0
 11
790.3557351581343
 21
329.8188456760497
 31
0.0
  0
LINE
  5
32A
330
328
100
AcDbEntity
  8
1
  6
Continuous
 62
     2
100
AcDbLine
 10
790.3557351581344
 20
379.8188456760497
 30
0.0
 11
790.3557351581344
 21
324.8188456760497
 31
0.0
  0
LINE
  5
32B
330
328
100
AcDbEntity
  8
1
  6
Continuous
 62
     2
100
AcDbLine
 10
858.8557351581344
 20
379.8188456760497
 30
0.0
 11
858.8557351581344
 21
324.8188456760497
 31
0.0
  0
SOLID
  5
32C
330
328
100
AcDbEntity
  8
1
 62
     2
100
AcDbTrace
 10
841.3557351581344
 20
327.5149269682703
 30
0.0
 11
841.3557351581344
 21
332.1227643838291
 31
0.0
 12
858.8557351581344
 22
329.8188456760497
 32
0.0
 13
858.8557351581344
 23
329.8188456760497
 33
0.0
  0
SOLID
  5
32D
330
328
100
AcDbEntity
  8
1
 62
     2
100
AcDbTrace
 10
807.8557351581343
 20
332.1227643838291
 30
0.0
 11
807.8557351581343
 21
327.5149269682703
 31
0.0
 12
790.3557351581343
 22
329.8188456760497
 32
0.0
 13
790.3557351581343
 23
329.8188456760497
 33
0.0
  0
MTEXT
  5
32E
330
328
100
AcDbEntity
  8
1
 62
     7
100
AcDbMText
 10
812.6507583111662
 20
334.8188456760497
 30
0.0
 40
17.5
 41
0.0
 71
     7
 72
     1
  1
69
  7
CONVERTER_12
 11
0.9999999999970619
 21
2.424068405545306E-6
 31
0.0
 73
     1
 44
0.60024009603842
  0
ENDBLK
  5
330
330
328
100
AcDbEntity
  8
0
100
AcDbBlockEnd
  0
BLOCK
  5
33A
330
333
100
AcDbEntity
  8
0
100
AcDbBlockBegin
  2
*D18
 70
     1
 10
0.0
 20
0.0
 30
0.0
  3
*D18
  1

  0
LINE
  5
334
330
333
100
AcDbEntity
  8
1
  6
Continuous
 62
     2
100
AcDbLine
 10
508.3725184258939
 20
379.8188456760496
 30
0.0
 11
508.3725184258939
 21
541.0484935653242
 31
0.0
  0
LINE
  5
335
330
333
100
AcDbEntity
  8
1
  6
Continuous
 62
     2
100
AcDbLine
 10
572.4017432071831
 20
541.0484935653242
 30
0.0
 11
503.3725184258939
 21
541.0484935653242
 31
0.0
  0
LINE
  5
336
330
333
100
AcDbEntity
  8
1
  6
Continuous
 62
     2
100
AcDbLine
 10
790.3557351581344
 20
379.8188456760496
 30
0.0
 11
503.3725184258939
 21
379.8188456760496
 31
0.0
  0
SOLID
  5
337
330
333
100
AcDbEntity
  8
1
 62
     2
100
AcDbTrace
 10
506.0685997181145
 20
397.3188456760496
 30
0.0
 11
510.6764371336733
 21
397.3188456760496
 31
0.0
 12
508.3725184258939
 22
379.8188456760496
 32
0.0
 13
508.3725184258939
 23
379.8188456760496
 33
0.0
  0
SOLID
  5
338
330
333
100
AcDbEntity
  8
1
 62
     2
100
AcDbTrace
 10
510.6764371336733
 20
523.5484935653242
 30
0.0
 11
506.0685997181145
 21
523.5484935653242
 31
0.0
 12
508.3725184258939
 22
541.0484935653242
 32
0.0
 13
508.3725184258939
 23
541.0484935653242
 33
0.0
  0
MTEXT
  5
339
330
333
100
AcDbEntity
  8
1
 62
     7
100
AcDbMText
 10
503.3725184258939
 20
444.6836696206869
 30
0.0
 40
17.5
 41
0.0
 71
     7
 72
     1
  1
161
  7
CONVERTER_12
 11
0.0
 21
1.0
 31
0.0
 73
     1
 44
0.60024009603842
  0
ENDBLK
  5
33B
330
333
100
AcDbEntity
  8
0
100
AcDbBlockEnd
  0
BLOCK
  5
345
330
33E
100
AcDbEntity
  8
0
100
AcDbBlockBegin
  2
*D19
 70
     1
 10
0.0
 20
0.0
 30
0.0
  3
*D19
  1

  0
LINE
  5
33F
330
33E
100
AcDbEntity
  8
1
  6
Continuous
 62
     2
100
AcDbLine
 10
153.6057351581341
 20
457.3188456760432
 30
0.0
 11
153.6057351581341
 21
379.8188456760497
 31
0.0
  0
LINE
  5
340
330
33E
100
AcDbEntity
  8
1
  6
Continuous
 62
     2
100
AcDbLine
 10
203.6057351581341
 20
379.8188456760497
 30
0.0
 11
148.6057351581341
 21
379.8188456760497
 31
0.0
  0
LINE
  5
341
330
33E
100
AcDbEntity
  8
1
  6
Continuous
 62
     2
100
AcDbLine
 10
305.1057351581341
 20
457.3188456760432
 30
0.0
 11
148.6057351581341
 21
457.3188456760432
 31
0.0
  0
SOLID
  5
342
330
33E
100
AcDbEntity
  8
1
 62
     2
100
AcDbTrace
 10
155.9096538659135
 20
439.8188456760432
 30
0.0
 11
151.3018164503547
 21
439.8188456760432
 31
0.0
 12
153.6057351581341
 22
457.3188456760432
 32
0.0
 13
153.6057351581341
 23
457.3188456760432
 33
0.0
  0
SOLID
  5
343
330
33E
100
AcDbEntity
  8
1
 62
     2
100
AcDbTrace
 10
151.3018164503547
 20
397.3188456760497
 30
0.0
 11
155.9096538659135
 21
397.3188456760497
 31
0.0
 12
153.6057351581341
 22
379.8188456760497
 32
0.0
 13
153.6057351581341
 23
379.8188456760497
 33
0.0
  0
MTEXT
  5
344
330
33E
100
AcDbEntity
  8
1
 62
     7
100
AcDbMText
 10
148.6057351581341
 20
400.768189851126
 30
0.0
 40
17.5
 41
0.0
 71
     7
 72
     1
  1
78
  7
CONVERTER_12
 11
0.0
 21
1.0
 31
0.0
 73
     1
 44
0.60024009603842
  0
ENDBLK
  5
346
330
33E
100
AcDbEntity
  8
0
100
AcDbBlockEnd
  0
BLOCK
  5
350
330
349
100
AcDbEntity
  8
0
100
AcDbBlockBegin
  2
*D20
 70
     1
 10
0.0
 20
0.0
 30
0.0
  3
*D20
  1

  0
LINE
  5
34A
330
349
100
AcDbEntity
  8
1
  6
Continuous
 62
     2
100
AcDbLine
 10
908.8557351581346
 20
631.136331486334
 30
0.0
 11
908.8557351581346
 21
379.8188456760497
 31
0.0
  0
LINE
  5
34B
330
349
100
AcDbEntity
  8
1
  6
Continuous
 62
     2
100
AcDbLine
 10
858.8557351581344
 20
379.8188456760497
 30
0.0
 11
913.8557351581346
 21
379.8188456760497
 31
0.0
  0
LINE
  5
34C
330
349
100
AcDbEntity
  8
1
  6
Continuous
 62
     2
100
AcDbLine
 10
729.6057351581351
 20
631.136331486334
 30
0.0
 11
913.8557351581346
 21
631.136331486334
 31
0.0
  0
SOLID
  5
34D
330
349
100
AcDbEntity
  8
1
 62
     2
100
AcDbTrace
 10
911.159653865914
 20
613.636331486334
 30
0.0
 11
906.5518164503552
 21
613.636331486334
 31
0.0
 12
908.8557351581346
 22
631.136331486334
 32
0.0
 13
908.8557351581346
 23
631.136331486334
 33
0.0
  0
SOLID
  5
34E
330
349
100
AcDbEntity
  8
1
 62
     2
100
AcDbTrace
 10
906.5518164503552
 20
397.3188456760497
 30
0.0
 11
911.159653865914
 21
397.3188456760497
 31
0.0
 12
908.8557351581346
 22
379.8188456760497
 32
0.0
 13
908.8557351581346
 23
379.8188456760497
 33
0.0
  0
MTEXT
  5
34F
330
349
100
AcDbEntity
  8
1
 62
     7
100
AcDbMText
 10
903.8557351581346
 20
483.999534754008
 30
0.0
 40
17.5
 41
0.0
 71
     7
 72
     1
  1
\C7;最小\C7;251
  7
CONVERTER_11
 11
0.0
 21
1.0
 31
0.0
 73
     1
 44
0.45454545454545
  0
ENDBLK
  5
351
330
349
100
AcDbEntity
  8
0
100
AcDbBlockEnd
  0
BLOCK
  5
35B
330
354
100
AcDbEntity
  8
0
100
AcDbBlockBegin
  2
*D21
 70
     1
 10
0.0
 20
0.0
 30
0.0
  3
*D21
  1

  0
LINE
  5
355
330
354
100
AcDbEntity
  8
1
  6
Continuous
 62
     2
100
AcDbLine
 10
948.8557351581346
 20
665.7010104590875
 30
0.0
 11
948.8557351581346
 21
379.8188456760497
 31
0.0
  0
LINE
  5
356
330
354
100
AcDbEntity
  8
1
  6
Continuous
 62
     2
100
AcDbLine
 10
858.8557351581344
 20
379.8188456760497
 30
0.0
 11
953.8557351581346
 21
379.8188456760497
 31
0.0
  0
LINE
  5
357
330
354
100
AcDbEntity
  8
1
  6
Continuous
 62
     2
100
AcDbLine
 10
763.6945437894026
 20
665.7010104590875
 30
0.0
 11
953.8557351581346
 21
665.7010104590875
 31
0.0
  0
SOLID
  5
358
330
354
100
AcDbEntity
  8
1
 62
     2
100
AcDbTrace
 10
951.159653865914
 20
648.2010104590875
 30
0.0
 11
946.5518164503552
 21
648.2010104590875
 31
0.0
 12
948.8557351581346
 22
665.7010104590875
 32
0.0
 13
948.8557351581346
 23
665.7010104590875
 33
0.0
  0
SOLID
  5
359
330
354
100
AcDbEntity
  8
1
 62
     2
100
AcDbTrace
 10
946.5518164503552
 20
397.3188456760497
 30
0.0
 11
951.159653865914
 21
397.3188456760497
 31
0.0
 12
948.8557351581346
 22
379.8188456760497
 32
0.0
 13
948.8557351581346
 23
379.8188456760497
 33
0.0
  0
MTEXT
  5
35A
330
354
100
AcDbEntity
  8
1
 62
     7
100
AcDbMText
 10
943.8557351581346
 20
501.62038987611
 30
0.0
 40
17.5
 41
0.0
 71
     7
 72
     1
  1
\C7;最大\C7;286
  7
CONVERTER_11
 11
0.0
 21
1.0
 31
0.0
 73
     1
 44
0.45454545454545
  0
ENDBLK
  5
35C
330
354
100
AcDbEntity
  8
0
100
AcDbBlockEnd
  0
BLOCK
  5
366
330
35F
100
AcDbEntity
  8
0
100
AcDbBlockBegin
  2
*D22
 70
     1
 10
0.0
 20
0.0
 30
0.0
  3
*D22
  1

  0
LINE
  5
360
330
35F
100
AcDbEntity
  8
1
  6
Continuous
 62
     2
100
AcDbLine
 10
572.4017432071831
 20
433.050901222531
 30
0.0
 11
824.6057351581344
 21
433.050901222531
 31
0.0
  0
LINE
  5
361
330
35F
100
AcDbEntity
  8
1
  6
Continuous
 62
     2
100
AcDbLine
 10
824.6057351581344
 20
418.8188456760497
 30
0.0
 11
824.6057351581344
 21
438.050901222531
 31
0.0
  0
LINE
  5
362
330
35F
100
AcDbEntity
  8
1
  6
Continuous
 62
     2
100
AcDbLine
 10
572.4017432071831
 20
541.0484935653242
 30
0.0
 11
572.4017432071831
 21
428.050901222531
 31
0.0
  0
SOLID
  5
363
330
35F
100
AcDbEntity
  8
1
 62
     2
100
AcDbTrace
 10
589.9017432071831
 20
435.3548199303104
 30
0.0
 11
589.9017432071831
 21
430.7469825147516
 31
0.0
 12
572.4017432071831
 22
433.050901222531
 32
0.0
 13
572.4017432071831
 23
433.050901222531
 33
0.0
  0
SOLID
  5
364
330
35F
100
AcDbEntity
  8
1
 62
     2
100
AcDbTrace
 10
807.1057351581344
 20
430.7469825147516
 30
0.0
 11
807.1057351581344
 21
435.3548199303104
 31
0.0
 12
824.6057351581344
 22
433.050901222531
 32
0.0
 13
824.6057351581344
 23
433.050901222531
 33
0.0
  0
MTEXT
  5
365
330
35F
100
AcDbEntity
  8
1
 62
     7
100
AcDbMText
 10
665.71152254345
 20
438.050901222531
 30
0.0
 40
17.5
 41
0.0
 71
     7
 72
     1
  1
252
  7
CONVERTER_12
 11
0.9999999999970619
 21
2.424068405545306E-6
 31
0.0
 73
     1
 44
0.60024009603842
  0
ENDBLK
  5
367
330
35F
100
AcDbEntity
  8
0
100
AcDbBlockEnd
  0
BLOCK
  5
371
330
36A
100
AcDbEntity
  8
0
100
AcDbBlockBegin
  2
*D23
 70
     1
 10
0.0
 20
0.0
 30
0.0
  3
*D23
  1

  0
LINE
  5
36B
330
36A
100
AcDbEntity
  8
1
  6
Continuous
 62
     2
100
AcDbLine
 10
334.6057351581343
 20
1196.570523937865
 30
0.0
 11
410.5884912154314
 21
1196.570523937865
 31
0.0
  0
LINE
  5
36C
330
36A
100
AcDbEntity
  8
1
  6
Continuous
 62
     2
100
AcDbLine
 10
410.5884912154314
 20
1054.32229995588
 30
0.0
 11
410.5884912154314
 21
1201.570523937865
 31
0.0
  0
LINE
  5
36D
330
36A
100
AcDbEntity
  8
1
  6
Continuous
 62
     2
100
AcDbLine
 10
334.6057351581343
 20
1158.296800322861
 30
0.0
 11
334.6057351581343
 21
1201.570523937865
 31
0.0
  0
SOLID
  5
36E
330
36A
100
AcDbEntity
  8
1
 62
     2
100
AcDbTrace
 10
352.1057351581343
 20
1198.874442645644
 30
0.0
 11
352.1057351581343
 21
1194.266605230085
 31
0.0
 12
334.6057351581343
 22
1196.570523937865
 32
0.0
 13
334.6057351581343
 23
1196.570523937865
 33
0.0
  0
SOLID
  5
36F
330
36A
100
AcDbEntity
  8
1
 62
     2
100
AcDbTrace
 10
393.0884912154314
 20
1194.266605230085
 30
0.0
 11
393.0884912154314
 21
1198.874442645644
 31
0.0
 12
410.5884912154314
 22
1196.570523937865
 32
0.0
 13
410.5884912154314
 23
1196.570523937865
 33
0.0
  0
MTEXT
  5
370
330
36A
100
AcDbEntity
  8
1
 62
     7
100
AcDbMText
 10
359.4549435678337
 20
1201.570523937865
 30
0.0
 40
17.5
 41
0.0
 71
     7
 72
     1
  1
76
  7
CONVERTER_12
 11
0.9999999999970619
 21
2.424068405545306E-6
 31
0.0
 73
     1
 44
0.60024009603842
  0
ENDBLK
  5
372
330
36A
100
AcDbEntity
  8
0
100
AcDbBlockEnd
  0
BLOCK
  5
37C
330
375
100
AcDbEntity
  8
0
100
AcDbBlockBegin
  2
*D24
 70
     1
 10
0.0
 20
0.0
 30
0.0
  3
*D24
  1

  0
LINE
  5
376
330
375
100
AcDbEntity
  8
1
  6
Continuous
 62
     2
100
AcDbLine
 10
334.6057351581343
 20
1196.570523937865
 30
0.0
 11
258.6230936276884
 21
1196.570523937865
 31
0.0
  0
LINE
  5
377
330
375
100
AcDbEntity
  8
1
  6
Continuous
 62
     2
100
AcDbLine
 10
258.6230936276884
 20
1054.386510185016
 30
0.0
 11
258.6230936276884
 21
1201.570523937865
 31
0.0
  0
LINE
  5
378
330
375
100
AcDbEntity
  8
1
  6
Continuous
 62
     2
100
AcDbLine
 10
334.6057351581343
 20
1158.296800322861
 30
0.0
 11
334.6057351581343
 21
1201.570523937865
 31
0.0
  0
SOLID
  5
379
330
375
100
AcDbEntity
  8
1
 62
     2
100
AcDbTrace
 10
317.1057351581343
 20
1194.266605230085
 30
0.0
 11
317.1057351581343
 21
1198.874442645644
 31
0.0
 12
334.6057351581343
 22
1196.570523937865
 32
0.0
 13
334.6057351581343
 23
1196.570523937865
 33
0.0
  0
SOLID
  5
37A
330
375
100
AcDbEntity
  8
1
 62
     2
100
AcDbTrace
 10
276.1230936276884
 20
1198.874442645644
 30
0.0
 11
276.1230936276884
 21
1194.266605230085
 31
0.0
 12
258.6230936276884
 22
1196.570523937865
 32
0.0
 13
258.6230936276884
 23
1196.570523937865
 33
0.0
  0
MTEXT
  5
37B
330
375
100
AcDbEntity
  8
1
 62
     7
100
AcDbMText
 10
283.5403413652239
 20
1201.570523937865
 30
0.0
 40
17.5
 41
0.0
 71
     7
 72
     1
  1
76
  7
CONVERTER_12
 11
0.9999999999970619
 21
2.424068405545306E-6
 31
0.0
 73
     1
 44
0.60024009603842
  0
ENDBLK
  5
37D
330
375
100
AcDbEntity
  8
0
100
AcDbBlockEnd
  0
BLOCK
  5
387
330
380
100
AcDbEntity
  8
0
100
AcDbBlockBegin
  2
*D25
 70
     1
 10
0.0
 20
0.0
 30
0.0
  3
*D25
  1

  0
LINE
  5
381
330
380
100
AcDbEntity
  8
1
  6
Continuous
 62
     2
100
AcDbLine
 10
415.9230149945876
 20
1030.987776176724
 30
0.0
 11
440.5887148537032
 21
1006.322076317609
 31
0.0
  0
LINE
  5
382
330
380
100
AcDbEntity
  8
1
  6
Continuous
 62
     2
100
AcDbLine
 10
440.5887148537032
 20
1006.322076317609
 30
0.0
 11
444.124248759636
 21
1002.786542411676
 31
0.0
  0
ARC
  5
383
330
380
100
AcDbEntity
  8
1
  6
Continuous
 62
     2
100
AcDbCircle
 10
334.6057351581341
 20
1112.305056013176
 30
0.0
 40
149.882567266185
100
AcDbArc
 50
269.9999999999999
 51
315.0000000000005
  0
SOLID
  5
384
330
380
100
AcDbEntity
  8
1
 62
     2
100
AcDbTrace
 10
351.9414984759428
 20
965.7435355098311
 30
0.0
 11
352.2103468171392
 21
961.1435478774933
 31
0.0
 12
334.6057351581339
 22
962.4224887469912
 32
0.0
 13
334.6057351581339
 23
962.4224887469912
 33
0.0
  0
SOLID
  5
385
330
380
100
AcDbEntity
  8
1
 62
     2
100
AcDbTrace
 10
429.0447223310235
 20
992.9693882718118
 30
0.0
 11
425.982144367994
 21
996.4121752051827
 31
0.0
 12
440.5887148537032
 22
1006.322076317609
 32
0.0
 13
440.5887148537032
 23
1006.322076317609
 33
0.0
  0
MTEXT
  5
386
330
380
100
AcDbEntity
  8
1
 62
     7
100
AcDbMText
 10
375.8283260780438
 20
972.0830220973526
 30
0.0
 40
17.5
 41
0.0
 71
     7
 72
     1
  1
45{\Fgdt;~}
  7
CONVERTER_12
 11
0.9138952966288132
 21
0.4059499806623149
 31
0.0
 73
     1
 44
0.60024009603842
  0
ENDBLK
  5
388
330
380
100
AcDbEntity
  8
0
100
AcDbBlockEnd
  0
BLOCK
  5
392
330
38B
100
AcDbEntity
  8
0
100
AcDbBlockBegin
  2
*D26
 70
     1
 10
0.0
 20
0.0
 30
0.0
  3
*D26
  1

  0
LINE
  5
38C
330
38B
100
AcDbEntity
  8
1
  6
Continuous
 62
     2
100
AcDbLine
 10
253.2884553216814
 20
1030.987776176724
 30
0.0
 11
228.6245116778838
 21
1006.323832532927
 31
0.0
  0
LINE
  5
38D
330
38B
100
AcDbEntity
  8
1
  6
Continuous
 62
     2
100
AcDbLine
 10
228.6245116778838
 20
1006.323832532927
 30
0.0
 11
225.088977771951
 21
1002.788298626994
 31
0.0
  0
ARC
  5
38E
330
38B
100
AcDbEntity
  8
1
  6
Continuous
 62
     2
100
AcDbCircle
 10
334.6057351581342
 20
1112.305056013176
 30
0.0
 40
149.8800836026629
100
AcDbArc
 50
224.9999999999996
 51
269.9999999999999
  0
SOLID
  5
38F
330
38B
100
AcDbEntity
  8
1
 62
     2
100
AcDbTrace
 10
243.2310917504174
 20
996.4139455508912
 30
0.0
 11
240.1685171179389
 21
992.9711556547861
 31
0.0
 12
228.6245116778838
 22
1006.323832532927
 32
0.0
 13
228.6245116778838
 23
1006.323832532927
 33
0.0
  0
SOLID
  5
390
330
38B
100
AcDbEntity
  8
1
 62
     2
100
AcDbTrace
 10
317.0011222618904
 20
961.146048571705
 30
0.0
 11
317.2699750531117
 21
965.7460359439568
 31
0.0
 12
334.605735158134
 22
962.4249724105127
 32
0.0
 13
334.605735158134
 23
962.4249724105127
 33
0.0
  0
MTEXT
  5
391
330
38B
100
AcDbEntity
  8
1
 62
     7
100
AcDbMText
 10
258.2627226019266
 20
987.6754224641785
 30
0.0
 40
17.5
 41
0.0
 71
     7
 72
     1
  1
45{\Fgdt;~}
  7
CONVERTER_12
 11
0.9141021727440403
 21
-0.4054839303654646
 31
0.0
 73
     1
 44
0.60024009603842
  0
ENDBLK
  5
393
330
38B
100
AcDbEntity
  8
0
100
AcDbBlockEnd
  0
ENDSEC
  0
SECTION
  2
ENTITIES
  0
INSERT
  5
6E
330
1F
100
AcDbEntity
  8
1
100
AcDbBlockReference
  2
87-163A-M21
 10
4289.914153234305
 20
2260.409999756499
 30
0.0
 41
1.0
 42
1.0
 43
1.0
  0
INSERT
  5
6F
330
1F
100
AcDbEntity
  8
1
100
AcDbBlockReference
  2
84-360A-M22
 10
1488.018548786913
 20
634.2544017576057
 30
0.0
 41
1.0
 42
1.0
 43
1.0
  0
INSERT
  5
70
330
1F
100
AcDbEntity
  8
0
100
AcDbBlockReference
  2
82-20-M21
 10
281.0144168478064
 20
1725.778919447515
 30
0.0
 41
1.0
 42
1.0
 43
1.0
  0
INSERT
  5
71
330
1F
100
AcDbEntity
  8
1
100
AcDbBlockReference
  2
35-186
 10
630.6848994267417
 20
1436.712394063146
 30
0.0
 41
1.0
 42
1.0
 43
1.0
  0
INSERT
  5
72
330
1F
100
AcDbEntity
  8
0
100
AcDbBlockReference
  2
35-180
 10
365.1057351581342
 20
892.4493314863336
 30
0.0
 41
1.0
 42
1.0
 43
1.0
  0
INSERT
  5
73
330
1F
100
AcDbEntity
  8
0
100
AcDbBlockReference
  2
88-212__1
 10
122.0456392297633
 20
1082.708744523989
 30
0.0
 41
1.0
 42
1.0
 43
1.0
  0
INSERT
  5
74
330
1F
100
AcDbEntity
  8
0
100
AcDbBlockReference
  2
88-212__2
 10
23.78628416150855
 20
756.9157175226693
 30
0.0
 41
1.0
 42
1.0
 43
1.0
  0
INSERT
  5
75
330
1F
100
AcDbEntity
  8
0
100
AcDbBlockReference
  2
35-178
 10
439.0773418230551
 20
728.0514724041602
 30
0.0
 41
1.0
 42
1.0
 43
1.0
  0
INSERT
  5
76
330
1F
100
AcDbEntity
  8
0
100
AcDbBlockReference
  2
34-86
 10
1109.94019910456
 20
1405.777324047026
 30
0.0
 41
1.0
 42
1.0
 43
1.0
  0
INSERT
  5
77
330
1F
100
AcDbEntity
  8
0
100
AcDbBlockReference
  2
61-100
 10
717.1679186220656
 20
2440.522047793098
 30
0.0
 41
1.0
 42
1.0
 43
1.0
  0
INSERT
  5
78
330
1F
100
AcDbEntity
  8
0
100
AcDbBlockReference
  2
38-44
 10
2359.565147536536
 20
2355.291337331661
 30
0.0
 41
1.0
 42
1.0
 43
1.0
  0
INSERT
  5
79
330
1F
100
AcDbEntity
  8
1
100
AcDbBlockReference
  2
開示A4
 10
0.0
 20
0.0
 30
0.0
 41
5.0
 42
5.0
 43
5.0
  0
INSERT
  5
7A
330
1F
100
AcDbEntity
  8
0
100
AcDbBlockReference
  2
88-546A-M21
 10
975.2412338323959
 20
2283.832489051738
 30
0.0
 41
1.0
 42
1.0
 43
1.0
  0
LINE
  5
2CD
330
1F
100
AcDbEntity
  8
1
  6
DASH_CENTER
 62
     2
100
AcDbLine
 10
823.3378803729129
 20
563.8174081252239
 30
0.0
 11
836.4813083130487
 21
592.0035803020638
 31
0.0
  0
LINE
  5
2CE
330
1F
100
AcDbEntity
  8
1
  6
DASH_CENTER
 62
     2
100
AcDbLine
 10
572.4017432071831
 20
541.0484935653242
 30
0.0
 11
574.7254636567666
 21
558.6989027270795
 31
0.0
  0
LINE
  5
2CF
330
1F
100
AcDbEntity
  8
1
  6
DASH_CENTER
 62
     2
100
AcDbLine
 10
572.21255035379
 20
539.6114311710637
 30
0.0
 11
572.4017432071831
 21
541.0484935653242
 31
0.0
  0
LINE
  5
2D0
330
1F
100
AcDbEntity
  8
1
  6
DASH_CENTER
 62
     2
100
AcDbLine
 10
824.6057351581344
 20
370.8188456760497
 30
0.0
 11
824.6057351581344
 21
512.6573886106794
 31
0.0
  0
LINE
  5
2D1
330
1F
100
AcDbEntity
  8
1
  6
DASH_CENTER
 62
     2
100
AcDbLine
 10
334.6057351581341
 20
375.3205394000015
 30
0.0
 11
334.6057351581341
 21
639.4855039564795
 31
0.0
  0
LINE
  5
2D2
330
1F
100
AcDbEntity
  8
1
  6
Continuous
 62
     2
100
AcDbLine
 10
665.4421926084699
 20
637.3877885739873
 30
0.0
 11
704.342293577746
 21
637.3877885739873
 31
0.0
  0
LINE
  5
2D3
330
1F
100
AcDbEntity
  8
1
  6
Continuous
 62
     2
100
AcDbLine
 10
755.5425225561153
 20
682.7167263375895
 30
0.0
 11
794.4426235253916
 21
682.7167263375895
 31
0.0
  0
LINE
  5
2D4
330
1F
100
AcDbEntity
  8
1
  6
Continuous
 62
     2
100
AcDbLine
 10
390.5042097780392
 20
928.685328212634
 30
0.0
 11
428.3229097389221
 21
928.685328212634
 31
0.0
  0
LINE
  5
2D5
330
1F
100
AcDbEntity
  8
1
  6
Continuous
 62
     2
100
AcDbLine
 10
239.388560577346
 20
928.685328212634
 30
0.0
 11
276.7072605382289
 21
928.685328212634
 31
0.0
  0
LINE
  5
2D6
330
1F
100
AcDbEntity
  8
1
  6
DASH_CENTER
 62
     2
100
AcDbLine
 10
436.1057351581339
 20
441.1920277967487
 30
0.0
 11
436.1057351581342
 21
378.8527383949319
 31
0.0
  0
LINE
  5
2D7
330
1F
100
AcDbEntity
  8
1
  6
DASH_CENTER
 62
     2
100
AcDbLine
 10
233.1057351581341
 20
447.8245123460713
 30
0.0
 11
233.1057351581341
 21
365.8205394000015
 31
0.0
  0
LINE
  5
2D8
330
1F
100
AcDbEntity
  8
1
  6
DASH_CENTER
 62
     2
100
AcDbLine
 10
436.1057351581338
 20
367.8188456760496
 30
0.0
 11
436.1057351581338
 21
380.8524789266118
 31
0.0
  0
LINE
  5
2D9
330
1F
100
AcDbEntity
  8
1
  6
DASH_CENTER
 62
     2
100
AcDbLine
 10
824.6057351581344
 20
512.6573886106794
 30
0.0
 11
824.6057351581344
 21
619.4363314863339
 31
0.0
  0
LINE
  5
2DA
330
1F
100
AcDbEntity
  8
1
  6
DASH_CENTER
 62
     2
100
AcDbLine
 10
672.0307866049603
 20
1170.489437435504
 30
0.0
 11
672.0307866049603
 21
1194.489437435504
 31
0.0
  0
LINE
  5
2DB
330
1F
100
AcDbEntity
  8
1
  6
DASH_CENTER
 62
     2
100
AcDbLine
 10
834.0506291437823
 20
1188.489437435504
 30
0.0
 11
834.0506291437823
 21
1172.489437435504
 31
0.0
  0
LINE
  5
2DC
330
1F
100
AcDbEntity
  8
1
  6
DASH_CENTER
 62
     2
100
AcDbLine
 10
334.6057351581342
 20
1158.296800322861
 30
0.0
 11
334.6057351581339
 21
833.9078657503098
 31
0.0
  0
LINE
  5
2DD
330
1F
100
AcDbEntity
  8
1
  6
DASH_CENTER
 62
     2
100
AcDbLine
 10
188.6057351843275
 20
1112.304169559734
 30
0.0
 11
480.6057351319406
 21
1112.321425853445
 31
0.0
  0
LINE
  5
2DE
330
1F
100
AcDbEntity
  8
1
  6
DASH_CENTER
 62
     2
100
AcDbLine
 10
323.9836500535104
 20
1122.9271411178
 30
0.0
 11
415.9230149945876
 21
1030.987776176724
 31
0.0
  0
LINE
  5
2DF
330
1F
100
AcDbEntity
  8
1
  6
DASH_CENTER
 62
     2
100
AcDbLine
 10
253.2884553216814
 20
1030.987776176724
 30
0.0
 11
345.2123368759325
 21
1122.911657730974
 31
0.0
  0
LINE
  5
2E0
330
1F
100
AcDbEntity
  8
1
  6
DASH_CENTER
 62
     2
100
AcDbLine
 10
544.8717705808725
 20
569.4377921626663
 30
0.0
 11
714.869598974668
 21
546.9466730022242
 31
0.0
  0
ARC
  5
2E1
330
1F
100
AcDbEntity
  8
0
  6
Continuous
 62
     2
100
AcDbCircle
 10
810.8089405990991
 20
576.27708535405
 30
0.0
 40
119.9699063448837
100
AcDbArc
 50
122.4917928673681
 51
142.4081536712766
  0
ARC
  5
2E2
330
1F
100
AcDbEntity
  8
1
  6
Continuous
 62
     2
100
AcDbCircle
 10
334.6057351581339
 20
1002.026624748253
 30
0.0
 40
97.00000000000028
100
AcDbArc
 50
284.9104056335879
 51
300.0000000000002
  0
ARC
  5
2E3
330
1F
100
AcDbEntity
  8
1
  6
Continuous
 62
     2
100
AcDbCircle
 10
334.6057351581339
 20
1002.026624748253
 30
0.0
 40
96.99999999999932
100
AcDbArc
 50
240.0
 51
255.0895943664123
  0
ARC
  5
2E4
330
1F
100
AcDbEntity
  8
1
  6
DASH_CENTER
 62
     2
100
AcDbCircle
 10
686.0479688450928
 20
399.232206423375
 30
0.0
 40
150.5
100
AcDbArc
 50
36.87285091051803
 51
78.95932317733775
  0
SOLID
  5
2E5
330
1F
100
AcDbEntity
  8
0
 62
     2
100
AcDbTrace
 10
733.3772231792218
 20
666.4824878684609
 30
0.0
 11
730.9055097410362
 21
670.371292096976
 31
0.0
 12
746.9105668162924
 22
677.8141537395063
 32
0.0
 13
746.9105668162924
 23
677.8141537395063
 33
0.0
  0
LEADER
  5
2E6
330
1F
100
AcDbEntity
  8
0
  6
Continuous
 62
     2
100
AcDbLeader
  3
Standard
 71
     0
 76
     2
 10
746.9105668162924
 20
677.8141537395063
 30
0.0
 10
746.0012801078358
 20
677.2362135696269
 30
0.0
  0
SOLID
  5
2E7
330
1F
100
AcDbEntity
  8
0
 62
     2
100
AcDbTrace
 10
723.6784394836868
 20
663.621340056711
 30
0.0
 11
727.338838689641
 21
660.8224754116675
 31
0.0
 12
714.8788952673885
 22
648.3201615727685
 32
0.0
 13
714.8788952673885
 23
648.3201615727685
 33
0.0
  0
LEADER
  5
2E8
330
1F
100
AcDbEntity
  8
0
  6
Continuous
 62
     2
100
AcDbLeader
  3
Standard
 71
     0
 76
     2
 10
714.8788952673885
 20
648.3201615727685
 30
0.0
 10
716.1414310309435
 20
649.9713257026913
 30
0.0
  0
SOLID
  5
2E9
330
1F
100
AcDbEntity
  8
1
 62
     2
100
AcDbTrace
 10
368.8229574426775
 20
907.651032284641
 30
0.0
 11
366.625385769287
 21
911.7010748015211
 31
0.0
 12
383.1057351581339
 22
918.022160581163
 32
0.0
 13
383.1057351581339
 23
918.022160581163
 33
0.0
  0
LEADER
  5
2EA
330
1F
100
AcDbEntity
  8
1
  6
Continuous
 62
     2
100
AcDbLeader
  3
Standard
 71
     0
 76
     2
 10
383.1057351581339
 20
918.022160581163
 30
0.0
 10
378.5959277591926
 20
915.575118370852
 30
0.0
  0
SOLID
  5
2EB
330
1F
100
AcDbEntity
  8
1
 62
     2
100
AcDbTrace
 10
302.5860845469811
 20
911.7010748015211
 30
0.0
 11
300.3885128735906
 21
907.651032284641
 31
0.0
 12
286.1057351581342
 22
918.022160581163
 32
0.0
 13
286.1057351581342
 23
918.022160581163
 33
0.0
  0
LEADER
  5
2EC
330
1F
100
AcDbEntity
  8
1
  6
Continuous
 62
     2
100
AcDbLeader
  3
Standard
 71
     0
 76
     2
 10
286.1057351581342
 20
918.022160581163
 30
0.0
 10
290.6155425570755
 20
915.575118370852
 30
0.0
  0
SOLID
  5
2ED
330
1F
100
AcDbEntity
  8
1
 62
     2
100
AcDbTrace
 10
654.7760387341522
 20
1164.057033515386
 30
0.0
 11
650.7855344757697
 21
1166.360952223165
 31
0.0
 12
661.5307866049602
 22
1180.364437435504
 32
0.0
 13
661.5307866049602
 23
1180.364437435504
 33
0.0
  0
LEADER
  5
2EE
330
1F
100
AcDbEntity
  8
1
  6
Continuous
 62
     2
100
AcDbLeader
  3
Standard
 71
     0
 76
     3
 10
661.5307866049602
 20
1180.364437435504
 30
0.0
 10
631.8972381231977
 20
1129.037625856536
 30
0.0
 10
526.4450293328335
 20
1129.037625856536
 30
0.0
  0
SOLID
  5
2EF
330
1F
100
AcDbEntity
  8
1
 62
     2
100
AcDbTrace
 10
649.2855344757699
 20
1199.992922647843
 30
0.0
 11
653.2760387341523
 21
1202.296841355622
 31
0.0
 12
660.0307866049603
 22
1185.989437435504
 32
0.0
 13
660.0307866049603
 23
1185.989437435504
 33
0.0
  0
LEADER
  5
2F0
330
1F
100
AcDbEntity
  8
1
  6
Continuous
 62
     2
100
AcDbLeader
  3
Standard
 71
     0
 76
     3
 10
660.0307866049603
 20
1185.989437435504
 30
0.0
 10
637.04299906505
 20
1225.805453408228
 30
0.0
 10
538.5311830807275
 20
1225.805453408228
 30
0.0
  0
SOLID
  5
2F1
330
1F
100
AcDbEntity
  8
1
 62
     2
100
AcDbTrace
 10
855.8053770145902
 20
1197.390341355622
 30
0.0
 11
859.7958812729728
 21
1195.086422647842
 31
0.0
 12
849.0506291437822
 22
1181.082937435504
 32
0.0
 13
849.0506291437822
 23
1181.082937435504
 33
0.0
  0
LEADER
  5
2F2
330
1F
100
AcDbEntity
  8
1
  6
Continuous
 62
     2
100
AcDbLeader
  3
Standard
 71
     0
 76
     3
 10
849.0506291437822
 20
1181.082937435504
 30
0.0
 10
874.8711857794717
 20
1225.805453408228
 30
0.0
 10
972.6111876908184
 20
1225.805453408228
 30
0.0
  0
SOLID
  5
2F3
330
1F
100
AcDbEntity
  8
1
 62
     2
100
AcDbTrace
 10
835.9953770145918
 20
1198.492922647843
 30
0.0
 11
839.9858812729742
 21
1200.796841355622
 31
0.0
 12
846.7406291437823
 22
1184.489437435504
 32
0.0
 13
846.7406291437823
 23
1184.489437435504
 33
0.0
  0
LEADER
  5
2F4
330
1F
100
AcDbEntity
  8
1
  6
Continuous
 62
     2
100
AcDbLeader
  3
Standard
 71
     0
 76
     3
 10
846.7406291437823
 20
1184.489437435504
 30
0.0
 10
822.8868162000873
 20
1225.805453408228
 30
0.0
 10
720.76752501503
 20
1225.805453408228
 30
0.0
  0
MTEXT
  5
2F6
330
1F
100
AcDbEntity
  8
1
 62
     7
100
AcDbMText
 10
720.3420094175003
 20
685.2335426938636
 30
0.0
 40
17.50000000000001
 41
0.0
 71
     5
 72
     1
  1
25{\Fgdt;~}
  7
CONVERTER_12
 11
0.8660254037844386
 21
0.5
 31
0.0
 73
     1
 44
0.7202881152461
  0
MTEXT
  5
2F7
330
1F
100
AcDbEntity
  8
0
 62
     7
100
AcDbMText
 10
285.0
 20
113.7500000000001
 30
0.0
 40
17.5
 41
0.0
 71
     5
 72
     1
  1
シングル取替用台付混合栓
  7
CONVERTER_11
 73
     1
 44
0.54545454545455
  0
MTEXT
  5
2F8
330
1F
100
AcDbEntity
  8
0
 62
     7
100
AcDbMText
 10
284.9999999999999
 20
71.25
 30
0.0
 40
17.5
 41
0.0
 71
     5
 72
     1
  1
K676-2-13
  7
CONVERTER_12
 73
     1
 44
1.32052821128451
  0
MTEXT
  5
2F9
330
1F
100
AcDbEntity
  8
1
 62
     7
100
AcDbMText
 10
923.7411867351449
 20
1240.805453408228
 30
0.0
 40
17.5
 41
0.0
 71
     5
 72
     1
  1
W30山20
  7
CONVERTER_11
 73
     1
 44
1.0
  0
MTEXT
  5
2FA
330
1F
100
AcDbEntity
  8
1
 62
     7
100
AcDbMText
 10
771.8271706075586
 20
1240.805453408228
 30
0.0
 40
17.5
 41
0.0
 71
     5
 72
     1
  1
W27山20
  7
CONVERTER_11
 73
     1
 44
1.0
  0
MTEXT
  5
2FB
330
1F
100
AcDbEntity
  8
0
 62
     7
100
AcDbMText
 10
684.9097119618577
 20
652.3877885739873
 30
0.0
 40
17.5
 41
0.0
 71
     5
 72
     1
  1
止水
  7
CONVERTER_11
 73
     1
 44
1.0
  0
MTEXT
  5
2FC
330
1F
100
AcDbEntity
  8
0
 62
     7
100
AcDbMText
 10
775.0100419095032
 20
697.7167263375895
 30
0.0
 40
17.5
 41
0.0
 71
     5
 72
     1
  1
吐水
  7
CONVERTER_11
 73
     1
 44
1.0
  0
MTEXT
  5
2FD
330
1F
100
AcDbEntity
  8
1
 62
     7
100
AcDbMText
 10
409.4135597584807
 20
943.685328212634
 30
0.0
 40
17.5
 41
0.0
 71
     5
 72
     1
  1
水側
  7
CONVERTER_11
 73
     1
 44
1.0
  0
MTEXT
  5
2FE
330
1F
100
AcDbEntity
  8
1
 62
     7
100
AcDbMText
 10
256.0479105577877
 20
943.685328212634
 30
0.0
 40
17.5
 41
0.0
 71
     5
 72
     1
  1
湯側
  7
CONVERTER_11
 73
     1
 44
1.0
  0
MTEXT
  5
2FF
330
1F
100
AcDbEntity
  8
1
 62
     7
100
AcDbMText
 10
581.1711337280155
 20
1144.037625856536
 30
0.0
 40
17.5
 41
0.0
 71
     5
 72
     1
  1
M21X1,25
  7
CONVERTER_12
 73
     1
 44
0.7202881152461
  0
MTEXT
  5
300
330
1F
100
AcDbEntity
  8
1
 62
     7
100
AcDbMText
 10
587.7870910728888
 20
1240.805453408228
 30
0.0
 40
17.5
 41
0.0
 71
     5
 72
     1
  1
W24山20
  7
CONVERTER_11
 73
     1
 44
1.0
  0
MTEXT
  5
301
330
1F
100
AcDbEntity
  8
1
 62
     7
100
AcDbMText
 10
426.25
 20
85.0
 30
0.0
 40
17.5
 41
0.0
 71
     5
 72
     1
  1
1
  7
CONVERTER_12
 73
     1
 44
0.7202881152461
  0
MTEXT
  5
302
330
1F
100
AcDbEntity
  8
1
 62
     7
100
AcDbMText
 10
468.75
 20
85.0
 30
0.0
 40
17.5
 41
0.0
 71
     5
 72
     1
  1
5
  7
CONVERTER_12
 73
     1
 44
0.7202881152461
  0
MTEXT
  5
303
330
1F
100
AcDbEntity
  8
1
 62
     7
100
AcDbMText
 10
170.0
 20
187.5
 30
0.0
 40
17.5
 41
0.0
 71
     4
 72
     1
  1
JIS
  7
CONVERTER_12
 73
     1
 44
0.7202881152461
  0
MTEXT
  5
304
330
1F
100
AcDbEntity
  8
1
 62
     7
100
AcDbMText
 10
170.0
 20
152.5000000000001
 30
0.0
 40
17.5
 41
0.0
 71
     4
 72
     1
  1
吐水口は回転式(角度制限無し)
  7
CONVERTER_11
 73
     1
 44
0.54545454545455
  0
DIMENSION
  5
311
330
1F
100
AcDbEntity
  8
1
100
AcDbDimension
  2
*D14
 10
824.6057351581344
 20
715.7010104590875
 30
0.0
 11
841.7307351581348
 21
729.4510104590875
 31
0.0
 70
    32
  1
34
 71
     5
 42
-1.0
 53
0.00013888888889
  3
ME10_DIM_10
100
AcDbAlignedDimension
 13
858.8557351581342
 23
379.8188456760496
 33
0.0
 14
824.6057351581344
 24
619.4363314863339
 34
0.0
100
AcDbRotatedDimension
  0
DIMENSION
  5
31C
330
1F
100
AcDbEntity
  8
1
100
AcDbDimension
  2
*D15
 10
203.6057351581341
 20
1236.570523937865
 30
0.0
 11
334.6057351581342
 21
1250.320523937865
 31
0.0
 70
    32
  1
<>
 71
     5
 42
-1.0
 53
0.00013888888889
  3
ME10_DIM_11
100
AcDbAlignedDimension
 13
465.6057351581337
 23
1128.213903621554
 33
0.0
 14
203.6057351581341
 24
1128.213903621554
 34
0.0
100
AcDbRotatedDimension
  0
DIMENSION
  5
327
330
1F
100
AcDbEntity
  8
1
100
AcDbDimension
  2
*D16
 10
233.1057351581341
 20
329.8188456760497
 30
0.0
 11
338.37613278754
 21
347.9438456760497
 31
0.0
 70
    32
  1
<>
 71
     5
 42
-1.0
 53
0.00013888888889
  3
ME10_DIM_12
100
AcDbAlignedDimension
 13
436.1057351581338
 23
380.8524789266118
 33
0.0
 14
233.1057351581341
 24
365.8205394000015
 34
0.0
100
AcDbRotatedDimension
  0
DIMENSION
  5
332
330
1F
100
AcDbEntity
  8
1
100
AcDbDimension
  2
*D17
 10
858.8557351581344
 20
329.8188456760497
 30
0.0
 11
825.7757583111662
 21
343.5688456760497
 31
0.0
 70
    32
  1
69
 71
     5
 42
-1.0
 53
0.00013888888889
  3
ME10_DIM_13
100
AcDbAlignedDimension
 13
790.3557351581343
 23
379.8188456760496
 33
0.0
 14
858.8557351581342
 24
379.8188456760496
 34
0.0
100
AcDbRotatedDimension
  0
DIMENSION
  5
33D
330
1F
100
AcDbEntity
  8
1
100
AcDbDimension
  2
*D18
 10
508.3725184258939
 20
379.8188456760496
 30
0.0
 11
494.6225184258939
 21
460.4336696206869
 31
0.0
 70
    32
  1
161
 71
     5
 42
-1.0
 53
90.0
  3
ME10_DIM_14
100
AcDbAlignedDimension
 13
572.4017432071831
 23
541.0484935653242
 33
0.0
 14
790.3557351581343
 24
379.8188456760496
 34
0.0
 50
90.0
100
AcDbRotatedDimension
  0
DIMENSION
  5
348
330
1F
100
AcDbEntity
  8
1
100
AcDbDimension
  2
*D19
 10
153.6057351581341
 20
457.3188456760432
 30
0.0
 11
139.8557351581341
 21
413.893189851126
 31
0.0
 70
    32
  1
78
 71
     5
 42
-1.0
 53
90.0
  3
ME10_DIM_15
100
AcDbAlignedDimension
 13
203.6057351581341
 23
379.8188456760496
 33
0.0
 14
305.1057351581341
 24
457.3188456760431
 34
0.0
 50
90.0
100
AcDbRotatedDimension
  0
DIMENSION
  5
353
330
1F
100
AcDbEntity
  8
1
100
AcDbDimension
  2
*D20
 10
908.8557351581346
 20
631.136331486334
 30
0.0
 11
895.1057351581346
 21
510.4026597540081
 31
0.0
 70
    32
  1
最小251
 71
     5
 42
-1.0
 53
90.0
  3
ME10_DIM_16
100
AcDbAlignedDimension
 13
858.8557351581342
 23
379.8188456760496
 33
0.0
 14
729.605735158135
 24
631.1363314863339
 34
0.0
 50
90.0
100
AcDbRotatedDimension
  0
DIMENSION
  5
35E
330
1F
100
AcDbEntity
  8
1
100
AcDbDimension
  2
*D21
 10
948.8557351581346
 20
665.7010104590875
 30
0.0
 11
935.1057351581346
 21
530.64851487611
 31
0.0
 70
    32
  1
最大286
 71
     5
 42
-1.0
 53
90.0
  3
ME10_DIM_17
100
AcDbAlignedDimension
 13
858.8557351581342
 23
379.8188456760496
 33
0.0
 14
763.6945437894024
 24
665.7010104590873
 34
0.0
 50
90.0
100
AcDbRotatedDimension
  0
DIMENSION
  5
369
330
1F
100
AcDbEntity
  8
1
100
AcDbDimension
  2
*D22
 10
572.4017432071831
 20
433.050901222531
 30
0.0
 11
686.71152254345
 21
446.800901222531
 31
0.0
 70
    32
  1
252
 71
     5
 42
-1.0
 53
0.00013888888889
  3
ME10_DIM_18
100
AcDbAlignedDimension
 13
824.6057351581342
 23
418.8188456760496
 33
0.0
 14
572.4017432071831
 24
541.0484935653242
 34
0.0
100
AcDbRotatedDimension
  0
DIMENSION
  5
374
330
1F
100
AcDbEntity
  8
1
100
AcDbDimension
  2
*D23
 10
334.6057351581343
 20
1196.570523937865
 30
0.0
 11
372.5799435678337
 21
1210.320523937865
 31
0.0
 70
    32
  1
76
 71
     5
 42
-1.0
 53
0.00013888888889
  3
ME10_DIM_19
100
AcDbAlignedDimension
 13
410.5884912154313
 23
1054.32229995588
 33
0.0
 14
334.6057351581342
 24
1158.296800322861
 34
0.0
100
AcDbRotatedDimension
  0
DIMENSION
  5
37F
330
1F
100
AcDbEntity
  8
1
100
AcDbDimension
  2
*D24
 10
334.6057351581343
 20
1196.570523937865
 30
0.0
 11
296.6653413652239
 21
1210.320523937865
 31
0.0
 70
    32
  1
76
 71
     5
 42
-1.0
 53
0.00013888888889
  3
ME10_DIM_20
100
AcDbAlignedDimension
 13
258.6230936276883
 23
1054.386510185016
 33
0.0
 14
334.6057351581342
 24
1158.296800322861
 34
0.0
100
AcDbRotatedDimension
  0
DIMENSION
  5
38A
330
1F
100
AcDbEntity
  8
1
100
AcDbDimension
  2
*D25
 10
391.9633104512498
 20
973.831619835702
 30
0.0
 11
389.8687482073532
 21
987.8941430706043
 31
0.0
 70
    37
  1
<>
 71
     5
 42
-1.0
  3
ME10_DIM_21
100
AcDb3PointAngularDimension
 13
334.605735158134
 23
962.4224887469912
 33
0.0
 14
415.9230149945876
 24
1030.987776176724
 34
0.0
 15
334.6057351581341
 25
1112.305056013176
 35
0.0
  0
DIMENSION
  5
395
330
1F
100
AcDbEntity
  8
1
100
AcDbDimension
  2
*D26
 10
277.2491103218999
 20
973.8339144415952
 30
0.0
 11
279.4071738179471
 21
987.8682508161537
 31
0.0
 70
    37
  1
<>
 71
     5
 42
-1.0
  3
ME10_DIM_22
100
AcDb3PointAngularDimension
 13
253.2884553216814
 23
1030.987776176724
 33
0.0
 14
334.605735158134
 24
962.4249724105129
 34
0.0
 15
334.6057351581342
 25
1112.305056013176
 35
0.0
  0
ENDSEC
  0
SECTION
  2
OBJECTS
  0
DICTIONARY
  5
C
330
0
100
AcDbDictionary
281
     1
  3
ACAD_GROUP
350
D
  3
ACAD_LAYOUT
350
1A
  3
ACAD_MATERIAL
350
3B
  3
ACAD_MLEADERSTYLE
350
398
  3
ACAD_MLINESTYLE
350
17
  3
ACAD_PLOTSETTINGS
350
19
  3
ACAD_PLOTSTYLENAME
350
E
  3
ACAD_VISUALSTYLE
350
2A
  3
AcDbVariableDictionary
350
396
  0
DICTIONARY
  5
D
102
{ACAD_REACTORS
330
C
102
}
330
C
100
AcDbDictionary
281
     1
  0
DICTIONARY
  5
1A
102
{ACAD_REACTORS
330
C
102
}
330
C
100
AcDbDictionary
281
     1
  3
Layout1
350
1E
  3
Layout2
350
26
  3
Model
350
22
  0
DICTIONARY
  5
3B
102
{ACAD_REACTORS
330
C
102
}
330
C
100
AcDbDictionary
281
     1
  3
ByBlock
350
3D
  3
ByLayer
350
3C
  3
Global
350
3E
  0
DICTIONARY
  5
398
102
{ACAD_REACTORS
330
C
102
}
330
C
100
AcDbDictionary
281
     1
  0
DICTIONARY
  5
17
102
{ACAD_REACTORS
330
C
102
}
330
C
100
AcDbDictionary
281
     1
  3
Standard
350
18
  0
DICTIONARY
  5
19
102
{ACAD_REACTORS
330
C
102
}
330
C
100
AcDbDictionary
281
     1
  0
ACDBDICTIONARYWDFLT
  5
E
102
{ACAD_REACTORS
330
C
102
}
330
C
100
AcDbDictionary
281
     1
  3
Normal
350
F
100
AcDbDictionaryWithDefault
340
F
  0
DICTIONARY
  5
2A
102
{ACAD_REACTORS
330
C
102
}
330
C
100
AcDbDictionary
281
     1
  3
2dWireframe
350
2F
  3
3D Hidden
350
31
  3
3dWireframe
350
30
  3
Basic
350
32
  3
Brighten
350
36
  3
ColorChange
350
3A
  3
Conceptual
350
34
  3
Dim
350
35
  3
Facepattern
350
39
  3
Flat
350
2B
  3
FlatWithEdges
350
2C
  3
Gouraud
350
2D
  3
GouraudWithEdges
350
2E
  3
Linepattern
350
38
  3
Realistic
350
33
  3
Thicken
350
37
  0
DICTIONARY
  5
396
102
{ACAD_REACTORS
330
C
102
}
330
C
100
AcDbDictionary
281
     1
  3
DIMASSOC
350
399
  3
HIDETEXT
350
39A
  0
LAYOUT
  5
1E
102
{ACAD_REACTORS
330
1A
102
}
330
1A
100
AcDbPlotSettings
  1

  2
none_device
  4

  6

 40
0.0
 41
0.0
 42
0.0
 43
0.0
 44
0.0
 45
0.0
 46
0.0
 47
0.0
 48
0.0
 49
0.0
140
0.0
141
0.0
142
1.0
143
1.0
 70
   688
 72
     0
 73
     0
 74
     5
  7

 75
    16
147
1.0
148
0.0
149
0.0
100
AcDbLayout
  1
Layout1
 70
     1
 71
     1
 10
0.0
 20
0.0
 11
12.0
 21
9.0
 12
0.0
 22
0.0
 32
0.0
 14
1.00000000000000E+20
 24
1.00000000000000E+20
 34
1.00000000000000E+20
 15
-1.00000000000000E+20
 25
-1.00000000000000E+20
 35
-1.00000000000000E+20
146
0.0
 13
0.0
 23
0.0
 33
0.0
 16
1.0
 26
0.0
 36
0.0
 17
0.0
 27
1.0
 37
0.0
 76
     0
330
1B
  0
LAYOUT
  5
26
102
{ACAD_REACTORS
330
1A
102
}
330
1A
100
AcDbPlotSettings
  1

  2
none_device
  4

  6

 40
0.0
 41
0.0
 42
0.0
 43
0.0
 44
0.0
 45
0.0
 46
0.0
 47
0.0
 48
0.0
 49
0.0
140
0.0
141
0.0
142
1.0
143
1.0
 70
   688
 72
     0
 73
     0
 74
     5
  7

 75
    16
147
1.0
148
0.0
149
0.0
100
AcDbLayout
  1
Layout2
 70
     1
 71
     2
 10
0.0
 20
0.0
 11
0.0
 21
0.0
 12
0.0
 22
0.0
 32
0.0
 14
0.0
 24
0.0
 34
0.0
 15
0.0
 25
0.0
 35
0.0
146
0.0
 13
0.0
 23
0.0
 33
0.0
 16
1.0
 26
0.0
 36
0.0
 17
0.0
 27
1.0
 37
0.0
 76
     0
330
23
  0
LAYOUT
  5
22
102
{ACAD_REACTORS
330
1A
102
}
330
1A
100
AcDbPlotSettings
  1

  2
none_device
  4

  6

 40
0.0
 41
0.0
 42
0.0
 43
0.0
 44
0.0
 45
0.0
 46
0.0
 47
0.0
 48
0.0
 49
0.0
140
0.0
141
0.0
142
1.0
143
1.0
 70
  1712
 72
     0
 73
     0
 74
     0
  7

 75
     0
147
1.0
148
0.0
149
0.0
100
AcDbLayout
  1
Model
 70
     1
 71
     0
 10
0.0
 20
0.0
 11
12.0
 21
9.0
 12
0.0
 22
0.0
 32
0.0
 14
0.0
 24
0.0
 34
0.0
 15
1050.0
 25
1485.0
 35
0.0
146
0.0
 13
0.0
 23
0.0
 33
0.0
 16
1.0
 26
0.0
 36
0.0
 17
0.0
 27
1.0
 37
0.0
 76
     0
330
1F
331
29
  0
MATERIAL
  5
3D
102
{ACAD_REACTORS
330
3B
102
}
102
{ACAD_XDICTIONARY
360
3BD
102
}
330
3B
100
AcDbMaterial
  1
ByBlock
  0
MATERIAL
  5
3C
102
{ACAD_REACTORS
330
3B
102
}
102
{ACAD_XDICTIONARY
360
3BB
102
}
330
3B
100
AcDbMaterial
  1
ByLayer
  0
MATERIAL
  5
3E
102
{ACAD_REACTORS
330
3B
102
}
102
{ACAD_XDICTIONARY
360
3BF
102
}
330
3B
100
AcDbMaterial
  1
Global
  0
MLINESTYLE
  5
18
102
{ACAD_REACTORS
330
17
102
}
330
17
100
AcDbMlineStyle
  2
Standard
 70
     0
  3

 62
   256
 51
90.0
 52
90.0
 71
     2
 49
0.5
 62
   256
  6
BYLAYER
 49
-0.5
 62
   256
  6
BYLAYER
  0
ACDBPLACEHOLDER
  5
F
102
{ACAD_REACTORS
330
E
102
}
330
E
  0
VISUALSTYLE
  5
2F
102
{ACAD_REACTORS
330
2A
102
}
102
{ACAD_XDICTIONARY
360
3A3
102
}
330
2A
100
AcDbVisualStyle
  2
2dWireframe
 70
     4
 71
     0
 72
     2
 73
     0
 90
        0
 40
-0.6
 41
-30.0
 62
     5
 63
     7
 74
     1
 91
        4
 64
     7
 65
   257
 75
     1
175
     1
 42
1.0
 92
        0
 66
   257
 43
1.0
 76
     1
 77
     6
 78
     2
 67
     7
 79
     5
170
     0
171
     0
290
     0
174
     0
 93
        1
 44
0.0
173
     0
291
     0
 45
0.0
1001
ACAD
1000
AcDbSavedByObjectVersion
1070
     0
  0
VISUALSTYLE
  5
31
102
{ACAD_REACTORS
330
2A
102
}
102
{ACAD_XDICTIONARY
360
3A7
102
}
330
2A
100
AcDbVisualStyle
  2
3D Hidden
 70
     6
 71
     1
 72
     2
 73
     2
 90
        0
 40
-0.6
 41
-30.0
 62
     5
 63
     7
 74
     2
 91
        2
 64
     7
 65
   257
 75
     2
175
     1
 42
40.0
 92
        0
 66
   257
 43
1.0
 76
     1
 77
     6
 78
     2
 67
     7
 79
     3
170
     0
171
     0
290
     0
174
     0
 93
        1
 44
0.0
173
     0
291
     0
 45
0.0
1001
ACAD
1000
AcDbSavedByObjectVersion
1070
     0
  0
VISUALSTYLE
  5
30
102
{ACAD_REACTORS
330
2A
102
}
102
{ACAD_XDICTIONARY
360
3A5
102
}
330
2A
100
AcDbVisualStyle
  2
3dWireframe
 70
     5
 71
     0
 72
     2
 73
     0
 90
        0
 40
-0.6
 41
-30.0
 62
     5
 63
     7
 74
     1
 91
        4
 64
     7
 65
   257
 75
     1
175
     1
 42
1.0
 92
        0
 66
   257
 43
1.0
 76
     1
 77
     6
 78
     2
 67
     7
 79
     5
170
     0
171
     0
290
     0
174
     0
 93
        1
 44
0.0
173
     0
291
     0
 45
0.0
1001
ACAD
1000
AcDbSavedByObjectVersion
1070
     0
  0
VISUALSTYLE
  5
32
102
{ACAD_REACTORS
330
2A
102
}
102
{ACAD_XDICTIONARY
360
3A9
102
}
330
2A
100
AcDbVisualStyle
  2
Basic
 70
     7
 71
     1
 72
     0
 73
     1
 90
        0
 40
-0.6
 41
-30.0
 62
     5
 63
     7
 74
     0
 91
        4
 64
     7
 65
   257
 75
     1
175
     1
 42
1.0
 92
        8
 66
     7
 43
1.0
 76
     1
 77
     6
 78
     2
 67
     7
 79
     5
170
     0
171
     0
290
     0
174
     0
 93
        1
 44
0.0
173
     0
291
     1
 45
0.0
1001
ACAD
1000
AcDbSavedByObjectVersion
1070
     0
  0
VISUALSTYLE
  5
36
102
{ACAD_REACTORS
330
2A
102
}
102
{ACAD_XDICTIONARY
360
3B1
102
}
330
2A
100
AcDbVisualStyle
  2
Brighten
 70
    12
 71
     2
 72
     2
 73
     0
 90
        0
 40
-0.6
 41
-30.0
 62
     5
 63
     7
 74
     1
 91
        4
 64
     7
 65
   257
 75
     1
175
     1
 42
1.0
 92
        8
 66
     7
 43
1.0
 76
     1
 77
     6
 78
     2
 67
     7
 79
     5
170
     0
171
     0
290
     0
174
     0
 93
        1
 44
50.0
173
     0
291
     1
 45
0.0
1001
ACAD
1000
AcDbSavedByObjectVersion
1070
     0
  0
VISUALSTYLE
  5
3A
102
{ACAD_REACTORS
330
2A
102
}
102
{ACAD_XDICTIONARY
360
3B9
102
}
330
2A
100
AcDbVisualStyle
  2
ColorChange
 70
    16
 71
     2
 72
     2
 73
     3
 90
        0
 40
-0.6
 41
-30.0
 62
     5
 63
     8
 74
     1
 91
        4
 64
     7
 65
   257
 75
     1
175
     1
 42
1.0
 92
        8
 66
     8
 43
1.0
 76
     1
 77
     6
 78
     2
 67
     7
 79
     5
170
     0
171
     0
290
     0
174
     0
 93
        1
 44
0.0
173
     0
291
     1
 45
0.0
1001
ACAD
1000
AcDbSavedByObjectVersion
1070
     0
  0
VISUALSTYLE
  5
34
102
{ACAD_REACTORS
330
2A
102
}
102
{ACAD_XDICTIONARY
360
3AD
102
}
330
2A
100
AcDbVisualStyle
  2
Conceptual
 70
     9
 71
     3
 72
     2
 73
     0
 90
        0
 40
-0.6
 41
-30.0
 62
     5
 63
     7
 74
     2
 91
        2
 64
     7
 65
   257
 75
     1
175
     1
 42
40.0
 92
        8
 66
     7
 43
1.0
 76
     1
 77
     6
 78
     2
 67
     7
 79
     3
170
     0
171
     0
290
     0
174
     0
 93
        1
 44
0.0
173
     0
291
     0
 45
0.0
1001
ACAD
1000
AcDbSavedByObjectVersion
1070
     0
  0
VISUALSTYLE
  5
35
102
{ACAD_REACTORS
330
2A
102
}
102
{ACAD_XDICTIONARY
360
3AF
102
}
330
2A
100
AcDbVisualStyle
  2
Dim
 70
    11
 71
     2
 72
     2
 73
     0
 90
        0
 40
-0.6
 41
-30.0
 62
     5
 63
     7
 74
     1
 91
        4
 64
     7
 65
   257
 75
     1
175
     1
 42
1.0
 92
        8
 66
     7
 43
1.0
 76
     1
 77
     6
 78
     2
 67
     7
 79
     5
170
     0
171
     0
290
     0
174
     0
 93
        1
 44
-50.0
173
     0
291
     1
 45
0.0
1001
ACAD
1000
AcDbSavedByObjectVersion
1070
     0
  0
VISUALSTYLE
  5
39
102
{ACAD_REACTORS
330
2A
102
}
102
{ACAD_XDICTIONARY
360
3B7
102
}
330
2A
100
AcDbVisualStyle
  2
Facepattern
 70
    15
 71
     2
 72
     2
 73
     0
 90
        0
 40
-0.6
 41
-30.0
 62
     5
 63
     7
 74
     1
 91
        4
 64
     7
 65
   257
 75
     1
175
     1
 42
1.0
 92
        8
 66
     7
 43
1.0
 76
     1
 77
     6
 78
     2
 67
     7
 79
     5
170
     0
171
     0
290
     0
174
     0
 93
        1
 44
0.0
173
     0
291
     1
 45
0.0
1001
ACAD
1000
AcDbSavedByObjectVersion
1070
     0
  0
VISUALSTYLE
  5
2B
102
{ACAD_REACTORS
330
2A
102
}
102
{ACAD_XDICTIONARY
360
39B
102
}
330
2A
100
AcDbVisualStyle
  2
Flat
 70
     0
 71
     2
 72
     1
 73
     1
 90
        2
 40
-0.6
 41
30.0
 62
     5
 63
     7
 74
     0
 91
        4
 64
     7
 65
   257
 75
     1
175
     1
 42
1.0
 92
        8
 66
     7
 43
1.0
 76
     1
 77
     6
 78
     2
 67
     7
 79
     5
170
     0
171
     0
290
     0
174
     0
 93
       13
 44
0.0
173
     0
291
     1
 45
0.0
1001
ACAD
1000
AcDbSavedByObjectVersion
1070
     0
  0
VISUALSTYLE
  5
2C
102
{ACAD_REACTORS
330
2A
102
}
102
{ACAD_XDICTIONARY
360
39D
102
}
330
2A
100
AcDbVisualStyle
  2
FlatWithEdges
 70
     1
 71
     2
 72
     1
 73
     1
 90
        2
 40
-0.6
 41
30.0
 62
     5
 63
     7
 74
     1
 91
        4
 64
     7
 65
   257
 75
     1
175
     1
 42
1.0
 92
        0
 66
   257
 43
1.0
 76
     1
 77
     6
 78
     2
 67
     7
 79
     5
170
     0
171
     0
290
     0
174
     0
 93
       13
 44
0.0
173
     0
291
     1
 45
0.0
1001
ACAD
1000
AcDbSavedByObjectVersion
1070
     0
  0
VISUALSTYLE
  5
2D
102
{ACAD_REACTORS
330
2A
102
}
102
{ACAD_XDICTIONARY
360
39F
102
}
330
2A
100
AcDbVisualStyle
  2
Gouraud
 70
     2
 71
     2
 72
     2
 73
     1
 90
        2
 40
-0.6
 41
30.0
 62
     5
 63
     7
 74
     0
 91
        4
 64
     7
 65
   257
 75
     1
175
     1
 42
1.0
 92
        0
 66
     7
 43
1.0
 76
     1
 77
     6
 78
     2
 67
     7
 79
     5
170
     0
171
     0
290
     0
174
     0
 93
       13
 44
0.0
173
     0
291
     1
 45
0.0
1001
ACAD
1000
AcDbSavedByObjectVersion
1070
     0
  0
VISUALSTYLE
  5
2E
102
{ACAD_REACTORS
330
2A
102
}
102
{ACAD_XDICTIONARY
360
3A1
102
}
330
2A
100
AcDbVisualStyle
  2
GouraudWithEdges
 70
     3
 71
     2
 72
     2
 73
     1
 90
        2
 40
-0.6
 41
30.0
 62
     5
 63
     7
 74
     1
 91
        4
 64
     7
 65
   257
 75
     1
175
     1
 42
1.0
 92
        0
 66
   257
 43
1.0
 76
     1
 77
     6
 78
     2
 67
     7
 79
     5
170
     0
171
     0
290
     0
174
     0
 93
       13
 44
0.0
173
     0
291
     1
 45
0.0
1001
ACAD
1000
AcDbSavedByObjectVersion
1070
     0
  0
VISUALSTYLE
  5
38
102
{ACAD_REACTORS
330
2A
102
}
102
{ACAD_XDICTIONARY
360
3B5
102
}
330
2A
100
AcDbVisualStyle
  2
Linepattern
 70
    14
 71
     2
 72
     2
 73
     0
 90
        0
 40
-0.6
 41
-30.0
 62
     5
 63
     7
 74
     1
 91
        4
 64
     7
 65
   257
 75
     7
175
     7
 42
1.0
 92
        8
 66
     7
 43
1.0
 76
     1
 77
     6
 78
     2
 67
     7
 79
     5
170
     0
171
     0
290
     0
174
     0
 93
        1
 44
0.0
173
     0
291
     1
 45
0.0
1001
ACAD
1000
AcDbSavedByObjectVersion
1070
     0
  0
VISUALSTYLE
  5
33
102
{ACAD_REACTORS
330
2A
102
}
102
{ACAD_XDICTIONARY
360
3AB
102
}
330
2A
100
AcDbVisualStyle
  2
Realistic
 70
     8
 71
     2
 72
     2
 73
     0
 90
        0
 40
-0.6
 41
-30.0
 62
     5
 63
     7
 74
     1
 91
        0
 64
     7
 65
   257
 75
     1
175
     1
 42
1.0
 92
        8
 66
     8
 43
1.0
 76
     1
 77
     6
 78
     2
 67
     7
 79
     5
170
     0
171
     0
290
     0
174
     0
 93
       13
 44
0.0
173
     0
291
     0
 45
0.0
1001
ACAD
1000
AcDbSavedByObjectVersion
1070
     0
  0
VISUALSTYLE
  5
37
102
{ACAD_REACTORS
330
2A
102
}
102
{ACAD_XDICTIONARY
360
3B3
102
}
330
2A
100
AcDbVisualStyle
  2
Thicken
 70
    13
 71
     2
 72
     2
 73
     0
 90
        0
 40
-0.6
 41
-30.0
 62
     5
 63
     7
 74
     1
 91
        4
 64
     7
 65
   257
 75
     1
175
     1
 42
1.0
 92
       12
 66
     7
 43
1.0
 76
     1
 77
     6
 78
     2
 67
     7
 79
     5
170
     0
171
     0
290
     0
174
     0
 93
        1
 44
0.0
173
     0
291
     1
 45
0.0
1001
ACAD
1000
AcDbSavedByObjectVersion
1070
     0
  0
DICTIONARYVAR
  5
399
102
{ACAD_REACTORS
330
396
102
}
330
396
100
DictionaryVariables
280
     0
  1
2
  0
DICTIONARYVAR
  5
39A
102
{ACAD_REACTORS
330
396
102
}
330
396
100
DictionaryVariables
280
     0
  1
1
  0
DICTIONARY
  5
3BD
330
3D
100
AcDbDictionary
280
     1
281
     1
  3
ACAD_XREC_ROUNDTRIP
360
3BE
  0
DICTIONARY
  5
3BB
330
3C
100
AcDbDictionary
280
     1
281
     1
  3
ACAD_XREC_ROUNDTRIP
360
3BC
  0
DICTIONARY
  5
3BF
330
3E
100
AcDbDictionary
280
     1
281
     1
  3
ACAD_XREC_ROUNDTRIP
360
3C0
  0
DICTIONARY
  5
3A3
330
2F
100
AcDbDictionary
280
     1
281
     1
  3
ACAD_XREC_ROUNDTRIP
360
3A4
  0
DICTIONARY
  5
3A7
330
31
100
AcDbDictionary
280
     1
281
     1
  3
ACAD_XREC_ROUNDTRIP
360
3A8
  0
DICTIONARY
  5
3A5
330
30
100
AcDbDictionary
280
     1
281
     1
  3
ACAD_XREC_ROUNDTRIP
360
3A6
  0
DICTIONARY
  5
3A9
330
32
100
AcDbDictionary
280
     1
281
     1
  3
ACAD_XREC_ROUNDTRIP
360
3AA
  0
DICTIONARY
  5
3B1
330
36
100
AcDbDictionary
280
     1
281
     1
  3
ACAD_XREC_ROUNDTRIP
360
3B2
  0
DICTIONARY
  5
3B9
330
3A
100
AcDbDictionary
280
     1
281
     1
  3
ACAD_XREC_ROUNDTRIP
360
3BA
  0
DICTIONARY
  5
3AD
330
34
100
AcDbDictionary
280
     1
281
     1
  3
ACAD_XREC_ROUNDTRIP
360
3AE
  0
DICTIONARY
  5
3AF
330
35
100
AcDbDictionary
280
     1
281
     1
  3
ACAD_XREC_ROUNDTRIP
360
3B0
  0
DICTIONARY
  5
3B7
330
39
100
AcDbDictionary
280
     1
281
     1
  3
ACAD_XREC_ROUNDTRIP
360
3B8
  0
DICTIONARY
  5
39B
330
2B
100
AcDbDictionary
280
     1
281
     1
  3
ACAD_XREC_ROUNDTRIP
360
39C
  0
DICTIONARY
  5
39D
330
2C
100
AcDbDictionary
280
     1
281
     1
  3
ACAD_XREC_ROUNDTRIP
360
39E
  0
DICTIONARY
  5
39F
330
2D
100
AcDbDictionary
280
     1
281
     1
  3
ACAD_XREC_ROUNDTRIP
360
3A0
  0
DICTIONARY
  5
3A1
330
2E
100
AcDbDictionary
280
     1
281
     1
  3
ACAD_XREC_ROUNDTRIP
360
3A2
  0
DICTIONARY
  5
3B5
330
38
100
AcDbDictionary
280
     1
281
     1
  3
ACAD_XREC_ROUNDTRIP
360
3B6
  0
DICTIONARY
  5
3AB
330
33
100
AcDbDictionary
280
     1
281
     1
  3
ACAD_XREC_ROUNDTRIP
360
3AC
  0
DICTIONARY
  5
3B3
330
37
100
AcDbDictionary
280
     1
281
     1
  3
ACAD_XREC_ROUNDTRIP
360
3B4
  0
XRECORD
  5
3BE
102
{ACAD_REACTORS
330
3BD
102
}
330
3BD
100
AcDbXrecord
280
     1
102
MATERIAL
148
0.0
149
0.0
149
0.0
 93
        0
 94
      127
282
     0
 72
     1
 77
     1
171
     1
175
     1
179
     1
273
     0
  0
XRECORD
  5
3BC
102
{ACAD_REACTORS
330
3BB
102
}
330
3BB
100
AcDbXrecord
280
     1
102
MATERIAL
148
0.0
149
0.0
149
0.0
 93
        0
 94
      127
282
     0
 72
     1
 77
     1
171
     1
175
     1
179
     1
273
     0
  0
XRECORD
  5
3C0
102
{ACAD_REACTORS
330
3BF
102
}
330
3BF
100
AcDbXrecord
280
     1
102
MATERIAL
148
0.0
149
0.0
149
0.0
 93
        0
 94
      127
282
     0
 72
     1
 77
     1
171
     1
175
     1
179
     1
273
     0
  0
XRECORD
  5
3A4
102
{ACAD_REACTORS
330
3A3
102
}
330
3A3
100
AcDbXrecord
280
     1
102
RTVSPropertyOp0
 70
     1
102
RTVSPropertyOp1
 70
     1
102
RTVSPropertyOp2
 70
     1
102
RTVSPropertyOp3
 70
     1
102
RTVSPropertyOp4
 70
     1
102
RTVSPropertyOp5
 70
     1
102
RTVSPropertyOp6
 70
     1
102
RTVSPropertyOp7
 70
     1
102
RTVSPropertyOp8
 70
     1
102
RTVSPropertyOp9
 70
     1
102
RTVSPropertyOp10
 70
     1
102
RTVSPropertyOp11
 70
     1
102
RTVSPropertyOp12
 70
     1
102
RTVSPropertyOp13
 70
     1
102
RTVSPropertyOp14
 70
     1
102
RTVSPropertyOp15
 70
     1
102
RTVSPropertyOp16
 70
     1
102
RTVSPropertyOp17
 70
     1
102
RTVSPropertyOp18
 70
     1
102
RTVSPropertyOp19
 70
     1
102
RTVSPropertyOp20
 70
     1
102
RTVSPropertyOp21
 70
     1
102
RTVSPropertyOp22
 70
     1
102
RTVSPropertyOp23
 70
     1
102
RTVSPropertyOp24
 70
     1
102
RTVSPropertyOp25
 70
     1
102
RTVSPropertyOp26
 70
     1
102
RTVSPropertyOp27
 70
     1
102
RTVSPropertyOp28
 70
     1
102
RTVSPropertyOp29
 70
     1
102
RTVSPropertyOp30
 70
     1
102
RTVSPropertyOp31
 70
     1
102
RTVSPropertyOp32
 70
     1
  0
XRECORD
  5
3A8
102
{ACAD_REACTORS
330
3A7
102
}
330
3A7
100
AcDbXrecord
280
     1
102
RTVSPropertyOp0
 70
     1
102
RTVSPropertyOp1
 70
     1
102
RTVSPropertyOp2
 70
     1
102
RTVSPropertyOp3
 70
     1
102
RTVSPropertyOp4
 70
     1
102
RTVSPropertyOp5
 70
     1
102
RTVSPropertyOp6
 70
     1
102
RTVSPropertyOp7
 70
     1
102
RTVSPropertyOp8
 70
     1
102
RTVSPropertyOp9
 70
     1
102
RTVSPropertyOp10
 70
     1
102
RTVSPropertyOp11
 70
     1
102
RTVSPropertyOp12
 70
     1
102
RTVSPropertyOp13
 70
     1
102
RTVSPropertyOp14
 70
     1
102
RTVSPropertyOp15
 70
     1
102
RTVSPropertyOp16
 70
     1
102
RTVSPropertyOp17
 70
     1
102
RTVSPropertyOp18
 70
     1
102
RTVSPropertyOp19
 70
     1
102
RTVSPropertyOp20
 70
     1
102
RTVSPropertyOp21
 70
     1
102
RTVSPropertyOp22
 70
     1
102
RTVSPropertyOp23
 70
     1
102
RTVSPropertyOp24
 70
     1
102
RTVSPropertyOp25
 70
     1
102
RTVSPropertyOp26
 70
     1
102
RTVSPropertyOp27
 70
     1
102
RTVSPropertyOp28
 70
     1
102
RTVSPropertyOp29
 70
     1
102
RTVSPropertyOp30
 70
     1
102
RTVSPropertyOp31
 70
     1
102
RTVSPropertyOp32
 70
     1
  0
XRECORD
  5
3A6
102
{ACAD_REACTORS
330
3A5
102
}
330
3A5
100
AcDbXrecord
280
     1
102
RTVSPropertyOp0
 70
     1
102
RTVSPropertyOp1
 70
     1
102
RTVSPropertyOp2
 70
     1
102
RTVSPropertyOp3
 70
     1
102
RTVSPropertyOp4
 70
     1
102
RTVSPropertyOp5
 70
     1
102
RTVSPropertyOp6
 70
     1
102
RTVSPropertyOp7
 70
     1
102
RTVSPropertyOp8
 70
     1
102
RTVSPropertyOp9
 70
     1
102
RTVSPropertyOp10
 70
     1
102
RTVSPropertyOp11
 70
     1
102
RTVSPropertyOp12
 70
     1
102
RTVSPropertyOp13
 70
     1
102
RTVSPropertyOp14
 70
     1
102
RTVSPropertyOp15
 70
     1
102
RTVSPropertyOp16
 70
     1
102
RTVSPropertyOp17
 70
     1
102
RTVSPropertyOp18
 70
     1
102
RTVSPropertyOp19
 70
     1
102
RTVSPropertyOp20
 70
     1
102
RTVSPropertyOp21
 70
     1
102
RTVSPropertyOp22
 70
     1
102
RTVSPropertyOp23
 70
     1
102
RTVSPropertyOp24
 70
     1
102
RTVSPropertyOp25
 70
     1
102
RTVSPropertyOp26
 70
     1
102
RTVSPropertyOp27
 70
     1
102
RTVSPropertyOp28
 70
     1
102
RTVSPropertyOp29
 70
     1
102
RTVSPropertyOp30
 70
     1
102
RTVSPropertyOp31
 70
     1
102
RTVSPropertyOp32
 70
     1
  0
XRECORD
  5
3AA
102
{ACAD_REACTORS
330
3A9
102
}
330
3A9
100
AcDbXrecord
280
     1
102
RTVSPropertyOp0
 70
     1
102
RTVSPropertyOp1
 70
     1
102
RTVSPropertyOp2
 70
     1
102
RTVSPropertyOp3
 70
     1
102
RTVSPropertyOp4
 70
     1
102
RTVSPropertyOp5
 70
     1
102
RTVSPropertyOp6
 70
     1
102
RTVSPropertyOp7
 70
     1
102
RTVSPropertyOp8
 70
     1
102
RTVSPropertyOp9
 70
     1
102
RTVSPropertyOp10
 70
     1
102
RTVSPropertyOp11
 70
     1
102
RTVSPropertyOp12
 70
     1
102
RTVSPropertyOp13
 70
     1
102
RTVSPropertyOp14
 70
     1
102
RTVSPropertyOp15
 70
     1
102
RTVSPropertyOp16
 70
     1
102
RTVSPropertyOp17
 70
     1
102
RTVSPropertyOp18
 70
     1
102
RTVSPropertyOp19
 70
     1
102
RTVSPropertyOp20
 70
     1
102
RTVSPropertyOp21
 70
     1
102
RTVSPropertyOp22
 70
     1
102
RTVSPropertyOp23
 70
     1
102
RTVSPropertyOp24
 70
     1
102
RTVSPropertyOp25
 70
     1
102
RTVSPropertyOp26
 70
     1
102
RTVSPropertyOp27
 70
     1
102
RTVSPropertyOp28
 70
     1
102
RTVSPropertyOp29
 70
     1
102
RTVSPropertyOp30
 70
     1
102
RTVSPropertyOp31
 70
     1
102
RTVSPropertyOp32
 70
     1
  0
XRECORD
  5
3B2
102
{ACAD_REACTORS
330
3B1
102
}
330
3B1
100
AcDbXrecord
280
     1
102
RTVSPropertyOp0
 70
     1
102
RTVSPropertyOp1
 70
     1
102
RTVSPropertyOp2
 70
     1
102
RTVSPropertyOp3
 70
     1
102
RTVSPropertyOp4
 70
     1
102
RTVSPropertyOp5
 70
     1
102
RTVSPropertyOp6
 70
     1
102
RTVSPropertyOp7
 70
     1
102
RTVSPropertyOp8
 70
     1
102
RTVSPropertyOp9
 70
     1
102
RTVSPropertyOp10
 70
     1
102
RTVSPropertyOp11
 70
     1
102
RTVSPropertyOp12
 70
     1
102
RTVSPropertyOp13
 70
     1
102
RTVSPropertyOp14
 70
     1
102
RTVSPropertyOp15
 70
     1
102
RTVSPropertyOp16
 70
     1
102
RTVSPropertyOp17
 70
     1
102
RTVSPropertyOp18
 70
     1
102
RTVSPropertyOp19
 70
     1
102
RTVSPropertyOp20
 70
     1
102
RTVSPropertyOp21
 70
     1
102
RTVSPropertyOp22
 70
     1
102
RTVSPropertyOp23
 70
     1
102
RTVSPropertyOp24
 70
     1
102
RTVSPropertyOp25
 70
     1
102
RTVSPropertyOp26
 70
     1
102
RTVSPropertyOp27
 70
     1
102
RTVSPropertyOp28
 70
     1
102
RTVSPropertyOp29
 70
     1
102
RTVSPropertyOp30
 70
     1
102
RTVSPropertyOp31
 70
     1
102
RTVSPropertyOp32
 70
     1
  0
XRECORD
  5
3BA
102
{ACAD_REACTORS
330
3B9
102
}
330
3B9
100
AcDbXrecord
280
     1
102
RTVSPropertyOp0
 70
     1
102
RTVSPropertyOp1
 70
     1
102
RTVSPropertyOp2
 70
     1
102
RTVSPropertyOp3
 70
     1
102
RTVSPropertyOp4
 70
     1
102
RTVSPropertyOp5
 70
     1
102
RTVSPropertyOp6
 70
     1
102
RTVSPropertyOp7
 70
     1
102
RTVSPropertyOp8
 70
     1
102
RTVSPropertyOp9
 70
     1
102
RTVSPropertyOp10
 70
     1
102
RTVSPropertyOp11
 70
     1
102
RTVSPropertyOp12
 70
     1
102
RTVSPropertyOp13
 70
     1
102
RTVSPropertyOp14
 70
     1
102
RTVSPropertyOp15
 70
     1
102
RTVSPropertyOp16
 70
     1
102
RTVSPropertyOp17
 70
     1
102
RTVSPropertyOp18
 70
     1
102
RTVSPropertyOp19
 70
     1
102
RTVSPropertyOp20
 70
     1
102
RTVSPropertyOp21
 70
     1
102
RTVSPropertyOp22
 70
     1
102
RTVSPropertyOp23
 70
     1
102
RTVSPropertyOp24
 70
     1
102
RTVSPropertyOp25
 70
     1
102
RTVSPropertyOp26
 70
     1
102
RTVSPropertyOp27
 70
     1
102
RTVSPropertyOp28
 70
     1
102
RTVSPropertyOp29
 70
     1
102
RTVSPropertyOp30
 70
     1
102
RTVSPropertyOp31
 70
     1
102
RTVSPropertyOp32
 70
     1
  0
XRECORD
  5
3AE
102
{ACAD_REACTORS
330
3AD
102
}
330
3AD
100
AcDbXrecord
280
     1
102
RTVSPropertyOp0
 70
     1
102
RTVSPropertyOp1
 70
     1
102
RTVSPropertyOp2
 70
     1
102
RTVSPropertyOp3
 70
     1
102
RTVSPropertyOp4
 70
     1
102
RTVSPropertyOp5
 70
     1
102
RTVSPropertyOp6
 70
     1
102
RTVSPropertyOp7
 70
     1
102
RTVSPropertyOp8
 70
     1
102
RTVSPropertyOp9
 70
     1
102
RTVSPropertyOp10
 70
     1
102
RTVSPropertyOp11
 70
     1
102
RTVSPropertyOp12
 70
     1
102
RTVSPropertyOp13
 70
     1
102
RTVSPropertyOp14
 70
     1
102
RTVSPropertyOp15
 70
     1
102
RTVSPropertyOp16
 70
     1
102
RTVSPropertyOp17
 70
     1
102
RTVSPropertyOp18
 70
     1
102
RTVSPropertyOp19
 70
     1
102
RTVSPropertyOp20
 70
     1
102
RTVSPropertyOp21
 70
     1
102
RTVSPropertyOp22
 70
     1
102
RTVSPropertyOp23
 70
     1
102
RTVSPropertyOp24
 70
     1
102
RTVSPropertyOp25
 70
     1
102
RTVSPropertyOp26
 70
     1
102
RTVSPropertyOp27
 70
     1
102
RTVSPropertyOp28
 70
     1
102
RTVSPropertyOp29
 70
     1
102
RTVSPropertyOp30
 70
     1
102
RTVSPropertyOp31
 70
     1
102
RTVSPropertyOp32
 70
     1
  0
XRECORD
  5
3B0
102
{ACAD_REACTORS
330
3AF
102
}
330
3AF
100
AcDbXrecord
280
     1
102
RTVSPropertyOp0
 70
     1
102
RTVSPropertyOp1
 70
     1
102
RTVSPropertyOp2
 70
     1
102
RTVSPropertyOp3
 70
     1
102
RTVSPropertyOp4
 70
     1
102
RTVSPropertyOp5
 70
     1
102
RTVSPropertyOp6
 70
     1
102
RTVSPropertyOp7
 70
     1
102
RTVSPropertyOp8
 70
     1
102
RTVSPropertyOp9
 70
     1
102
RTVSPropertyOp10
 70
     1
102
RTVSPropertyOp11
 70
     1
102
RTVSPropertyOp12
 70
     1
102
RTVSPropertyOp13
 70
     1
102
RTVSPropertyOp14
 70
     1
102
RTVSPropertyOp15
 70
     1
102
RTVSPropertyOp16
 70
     1
102
RTVSPropertyOp17
 70
     1
102
RTVSPropertyOp18
 70
     1
102
RTVSPropertyOp19
 70
     1
102
RTVSPropertyOp20
 70
     1
102
RTVSPropertyOp21
 70
     1
102
RTVSPropertyOp22
 70
     1
102
RTVSPropertyOp23
 70
     1
102
RTVSPropertyOp24
 70
     1
102
RTVSPropertyOp25
 70
     1
102
RTVSPropertyOp26
 70
     1
102
RTVSPropertyOp27
 70
     1
102
RTVSPropertyOp28
 70
     1
102
RTVSPropertyOp29
 70
     1
102
RTVSPropertyOp30
 70
     1
102
RTVSPropertyOp31
 70
     1
102
RTVSPropertyOp32
 70
     1
  0
XRECORD
  5
3B8
102
{ACAD_REACTORS
330
3B7
102
}
330
3B7
100
AcDbXrecord
280
     1
102
RTVSPropertyOp0
 70
     1
102
RTVSPropertyOp1
 70
     1
102
RTVSPropertyOp2
 70
     1
102
RTVSPropertyOp3
 70
     1
102
RTVSPropertyOp4
 70
     1
102
RTVSPropertyOp5
 70
     1
102
RTVSPropertyOp6
 70
     1
102
RTVSPropertyOp7
 70
     1
102
RTVSPropertyOp8
 70
     1
102
RTVSPropertyOp9
 70
     1
102
RTVSPropertyOp10
 70
     1
102
RTVSPropertyOp11
 70
     1
102
RTVSPropertyOp12
 70
     1
102
RTVSPropertyOp13
 70
     1
102
RTVSPropertyOp14
 70
     1
102
RTVSPropertyOp15
 70
     1
102
RTVSPropertyOp16
 70
     1
102
RTVSPropertyOp17
 70
     1
102
RTVSPropertyOp18
 70
     1
102
RTVSPropertyOp19
 70
     1
102
RTVSPropertyOp20
 70
     1
102
RTVSPropertyOp21
 70
     1
102
RTVSPropertyOp22
 70
     1
102
RTVSPropertyOp23
 70
     1
102
RTVSPropertyOp24
 70
     1
102
RTVSPropertyOp25
 70
     1
102
RTVSPropertyOp26
 70
     1
102
RTVSPropertyOp27
 70
     1
102
RTVSPropertyOp28
 70
     1
102
RTVSPropertyOp29
 70
     1
102
RTVSPropertyOp30
 70
     1
102
RTVSPropertyOp31
 70
     1
102
RTVSPropertyOp32
 70
     1
  0
XRECORD
  5
39C
102
{ACAD_REACTORS
330
39B
102
}
330
39B
100
AcDbXrecord
280
     1
102
RTVSPropertyOp0
 70
     1
102
RTVSPropertyOp1
 70
     1
102
RTVSPropertyOp2
 70
     1
102
RTVSPropertyOp3
 70
     1
102
RTVSPropertyOp4
 70
     1
102
RTVSPropertyOp5
 70
     1
102
RTVSPropertyOp6
 70
     1
102
RTVSPropertyOp7
 70
     1
102
RTVSPropertyOp8
 70
     1
102
RTVSPropertyOp9
 70
     1
102
RTVSPropertyOp10
 70
     1
102
RTVSPropertyOp11
 70
     1
102
RTVSPropertyOp12
 70
     1
102
RTVSPropertyOp13
 70
     1
102
RTVSPropertyOp14
 70
     1
102
RTVSPropertyOp15
 70
     1
102
RTVSPropertyOp16
 70
     1
102
RTVSPropertyOp17
 70
     1
102
RTVSPropertyOp18
 70
     1
102
RTVSPropertyOp19
 70
     1
102
RTVSPropertyOp20
 70
     1
102
RTVSPropertyOp21
 70
     1
102
RTVSPropertyOp22
 70
     1
102
RTVSPropertyOp23
 70
     1
102
RTVSPropertyOp24
 70
     1
102
RTVSPropertyOp25
 70
     1
102
RTVSPropertyOp26
 70
     1
102
RTVSPropertyOp27
 70
     1
102
RTVSPropertyOp28
 70
     1
102
RTVSPropertyOp29
 70
     1
102
RTVSPropertyOp30
 70
     1
102
RTVSPropertyOp31
 70
     1
102
RTVSPropertyOp32
 70
     1
  0
XRECORD
  5
39E
102
{ACAD_REACTORS
330
39D
102
}
330
39D
100
AcDbXrecord
280
     1
102
RTVSPropertyOp0
 70
     1
102
RTVSPropertyOp1
 70
     1
102
RTVSPropertyOp2
 70
     1
102
RTVSPropertyOp3
 70
     1
102
RTVSPropertyOp4
 70
     1
102
RTVSPropertyOp5
 70
     1
102
RTVSPropertyOp6
 70
     1
102
RTVSPropertyOp7
 70
     1
102
RTVSPropertyOp8
 70
     1
102
RTVSPropertyOp9
 70
     1
102
RTVSPropertyOp10
 70
     1
102
RTVSPropertyOp11
 70
     1
102
RTVSPropertyOp12
 70
     1
102
RTVSPropertyOp13
 70
     1
102
RTVSPropertyOp14
 70
     1
102
RTVSPropertyOp15
 70
     1
102
RTVSPropertyOp16
 70
     1
102
RTVSPropertyOp17
 70
     1
102
RTVSPropertyOp18
 70
     1
102
RTVSPropertyOp19
 70
     1
102
RTVSPropertyOp20
 70
     1
102
RTVSPropertyOp21
 70
     1
102
RTVSPropertyOp22
 70
     1
102
RTVSPropertyOp23
 70
     1
102
RTVSPropertyOp24
 70
     1
102
RTVSPropertyOp25
 70
     1
102
RTVSPropertyOp26
 70
     1
102
RTVSPropertyOp27
 70
     1
102
RTVSPropertyOp28
 70
     1
102
RTVSPropertyOp29
 70
     1
102
RTVSPropertyOp30
 70
     1
102
RTVSPropertyOp31
 70
     1
102
RTVSPropertyOp32
 70
     1
  0
XRECORD
  5
3A0
102
{ACAD_REACTORS
330
39F
102
}
330
39F
100
AcDbXrecord
280
     1
102
RTVSPropertyOp0
 70
     1
102
RTVSPropertyOp1
 70
     1
102
RTVSPropertyOp2
 70
     1
102
RTVSPropertyOp3
 70
     1
102
RTVSPropertyOp4
 70
     1
102
RTVSPropertyOp5
 70
     1
102
RTVSPropertyOp6
 70
     1
102
RTVSPropertyOp7
 70
     1
102
RTVSPropertyOp8
 70
     1
102
RTVSPropertyOp9
 70
     1
102
RTVSPropertyOp10
 70
     1
102
RTVSPropertyOp11
 70
     1
102
RTVSPropertyOp12
 70
     1
102
RTVSPropertyOp13
 70
     1
102
RTVSPropertyOp14
 70
     1
102
RTVSPropertyOp15
 70
     1
102
RTVSPropertyOp16
 70
     1
102
RTVSPropertyOp17
 70
     1
102
RTVSPropertyOp18
 70
     1
102
RTVSPropertyOp19
 70
     1
102
RTVSPropertyOp20
 70
     1
102
RTVSPropertyOp21
 70
     1
102
RTVSPropertyOp22
 70
     1
102
RTVSPropertyOp23
 70
     1
102
RTVSPropertyOp24
 70
     1
102
RTVSPropertyOp25
 70
     1
102
RTVSPropertyOp26
 70
     1
102
RTVSPropertyOp27
 70
     1
102
RTVSPropertyOp28
 70
     1
102
RTVSPropertyOp29
 70
     1
102
RTVSPropertyOp30
 70
     1
102
RTVSPropertyOp31
 70
     1
102
RTVSPropertyOp32
 70
     1
  0
XRECORD
  5
3A2
102
{ACAD_REACTORS
330
3A1
102
}
330
3A1
100
AcDbXrecord
280
     1
102
RTVSPropertyOp0
 70
     1
102
RTVSPropertyOp1
 70
     1
102
RTVSPropertyOp2
 70
     1
102
RTVSPropertyOp3
 70
     1
102
RTVSPropertyOp4
 70
     1
102
RTVSPropertyOp5
 70
     1
102
RTVSPropertyOp6
 70
     1
102
RTVSPropertyOp7
 70
     1
102
RTVSPropertyOp8
 70
     1
102
RTVSPropertyOp9
 70
     1
102
RTVSPropertyOp10
 70
     1
102
RTVSPropertyOp11
 70
     1
102
RTVSPropertyOp12
 70
     1
102
RTVSPropertyOp13
 70
     1
102
RTVSPropertyOp14
 70
     1
102
RTVSPropertyOp15
 70
     1
102
RTVSPropertyOp16
 70
     1
102
RTVSPropertyOp17
 70
     1
102
RTVSPropertyOp18
 70
     1
102
RTVSPropertyOp19
 70
     1
102
RTVSPropertyOp20
 70
     1
102
RTVSPropertyOp21
 70
     1
102
RTVSPropertyOp22
 70
     1
102
RTVSPropertyOp23
 70
     1
102
RTVSPropertyOp24
 70
     1
102
RTVSPropertyOp25
 70
     1
102
RTVSPropertyOp26
 70
     1
102
RTVSPropertyOp27
 70
     1
102
RTVSPropertyOp28
 70
     1
102
RTVSPropertyOp29
 70
     1
102
RTVSPropertyOp30
 70
     1
102
RTVSPropertyOp31
 70
     1
102
RTVSPropertyOp32
 70
     1
  0
XRECORD
  5
3B6
102
{ACAD_REACTORS
330
3B5
102
}
330
3B5
100
AcDbXrecord
280
     1
102
RTVSPropertyOp0
 70
     1
102
RTVSPropertyOp1
 70
     1
102
RTVSPropertyOp2
 70
     1
102
RTVSPropertyOp3
 70
     1
102
RTVSPropertyOp4
 70
     1
102
RTVSPropertyOp5
 70
     1
102
RTVSPropertyOp6
 70
     1
102
RTVSPropertyOp7
 70
     1
102
RTVSPropertyOp8
 70
     1
102
RTVSPropertyOp9
 70
     1
102
RTVSPropertyOp10
 70
     1
102
RTVSPropertyOp11
 70
     1
102
RTVSPropertyOp12
 70
     1
102
RTVSPropertyOp13
 70
     1
102
RTVSPropertyOp14
 70
     1
102
RTVSPropertyOp15
 70
     1
102
RTVSPropertyOp16
 70
     1
102
RTVSPropertyOp17
 70
     1
102
RTVSPropertyOp18
 70
     1
102
RTVSPropertyOp19
 70
     1
102
RTVSPropertyOp20
 70
     1
102
RTVSPropertyOp21
 70
     1
102
RTVSPropertyOp22
 70
     1
102
RTVSPropertyOp23
 70
     1
102
RTVSPropertyOp24
 70
     1
102
RTVSPropertyOp25
 70
     1
102
RTVSPropertyOp26
 70
     1
102
RTVSPropertyOp27
 70
     1
102
RTVSPropertyOp28
 70
     1
102
RTVSPropertyOp29
 70
     1
102
RTVSPropertyOp30
 70
     1
102
RTVSPropertyOp31
 70
     1
102
RTVSPropertyOp32
 70
     1
  0
XRECORD
  5
3AC
102
{ACAD_REACTORS
330
3AB
102
}
330
3AB
100
AcDbXrecord
280
     1
102
RTVSPropertyOp0
 70
     1
102
RTVSPropertyOp1
 70
     1
102
RTVSPropertyOp2
 70
     1
102
RTVSPropertyOp3
 70
     1
102
RTVSPropertyOp4
 70
     1
102
RTVSPropertyOp5
 70
     1
102
RTVSPropertyOp6
 70
     1
102
RTVSPropertyOp7
 70
     1
102
RTVSPropertyOp8
 70
     1
102
RTVSPropertyOp9
 70
     1
102
RTVSPropertyOp10
 70
     1
102
RTVSPropertyOp11
 70
     1
102
RTVSPropertyOp12
 70
     1
102
RTVSPropertyOp13
 70
     1
102
RTVSPropertyOp14
 70
     1
102
RTVSPropertyOp15
 70
     1
102
RTVSPropertyOp16
 70
     1
102
RTVSPropertyOp17
 70
     1
102
RTVSPropertyOp18
 70
     1
102
RTVSPropertyOp19
 70
     1
102
RTVSPropertyOp20
 70
     1
102
RTVSPropertyOp21
 70
     1
102
RTVSPropertyOp22
 70
     1
102
RTVSPropertyOp23
 70
     1
102
RTVSPropertyOp24
 70
     1
102
RTVSPropertyOp25
 70
     1
102
RTVSPropertyOp26
 70
     1
102
RTVSPropertyOp27
 70
     1
102
RTVSPropertyOp28
 70
     1
102
RTVSPropertyOp29
 70
     1
102
RTVSPropertyOp30
 70
     1
102
RTVSPropertyOp31
 70
     1
102
RTVSPropertyOp32
 70
     1
  0
XRECORD
  5
3B4
102
{ACAD_REACTORS
330
3B3
102
}
330
3B3
100
AcDbXrecord
280
     1
102
RTVSPropertyOp0
 70
     1
102
RTVSPropertyOp1
 70
     1
102
RTVSPropertyOp2
 70
     1
102
RTVSPropertyOp3
 70
     1
102
RTVSPropertyOp4
 70
     1
102
RTVSPropertyOp5
 70
     1
102
RTVSPropertyOp6
 70
     1
102
RTVSPropertyOp7
 70
     1
102
RTVSPropertyOp8
 70
     1
102
RTVSPropertyOp9
 70
     1
102
RTVSPropertyOp10
 70
     1
102
RTVSPropertyOp11
 70
     1
102
RTVSPropertyOp12
 70
     1
102
RTVSPropertyOp13
 70
     1
102
RTVSPropertyOp14
 70
     1
102
RTVSPropertyOp15
 70
     1
102
RTVSPropertyOp16
 70
     1
102
RTVSPropertyOp17
 70
     1
102
RTVSPropertyOp18
 70
     1
102
RTVSPropertyOp19
 70
     1
102
RTVSPropertyOp20
 70
     1
102
RTVSPropertyOp21
 70
     1
102
RTVSPropertyOp22
 70
     1
102
RTVSPropertyOp23
 70
     1
102
RTVSPropertyOp24
 70
     1
102
RTVSPropertyOp25
 70
     1
102
RTVSPropertyOp26
 70
     1
102
RTVSPropertyOp27
 70
     1
102
RTVSPropertyOp28
 70
     1
102
RTVSPropertyOp29
 70
     1
102
RTVSPropertyOp30
 70
     1
102
RTVSPropertyOp31
 70
     1
102
RTVSPropertyOp32
 70
     1
  0
ENDSEC
  0
EOF
