  0
SECTION
  2
HEADER
  9
$ACADVER
  1
AC1015
  9
$ACADMAINTVER
 70
     6
  9
$DWGCODEPAGE
  3
ANSI_932
  9
$INSBASE
 10
0.0
 20
0.0
 30
0.0
  9
$EXTMIN
 10
0.0
 20
0.0
 30
0.0
  9
$EXTMAX
 10
630.0000000000007
 20
891.0000000000009
 30
0.0
  9
$LIMMIN
 10
0.0
 20
0.0
  9
$LIMMAX
 10
12.0
 20
9.0
  9
$ORTHOMODE
 70
     0
  9
$REGENMODE
 70
     1
  9
$FILLMODE
 70
     1
  9
$QTEXTMODE
 70
     0
  9
$MIRRTEXT
 70
     1
  9
$LTSCALE
 40
1.0
  9
$ATTMODE
 70
     1
  9
$TEXTSIZE
 40
0.2
  9
$TRACEWID
 40
0.05
  9
$TEXTSTYLE
  7
Standard
  9
$CLAYER
  8
0
  9
$CELTYPE
  6
ByLayer
  9
$CECOLOR
 62
   256
  9
$CELTSCALE
 40
1.0
  9
$DISPSILH
 70
     0
  9
$DIMSCALE
 40
1.0
  9
$DIMASZ
 40
0.18
  9
$DIMEXO
 40
0.0625
  9
$DIMDLI
 40
0.38
  9
$DIMRND
 40
0.0
  9
$DIMDLE
 40
0.0
  9
$DIMEXE
 40
0.18
  9
$DIMTP
 40
0.0
  9
$DIMTM
 40
0.0
  9
$DIMTXT
 40
0.18
  9
$DIMCEN
 40
0.09
  9
$DIMTSZ
 40
0.0
  9
$DIMTOL
 70
     0
  9
$DIMLIM
 70
     0
  9
$DIMTIH
 70
     1
  9
$DIMTOH
 70
     1
  9
$DIMSE1
 70
     0
  9
$DIMSE2
 70
     0
  9
$DIMTAD
 70
     0
  9
$DIMZIN
 70
     0
  9
$DIMBLK
  1

  9
$DIMASO
 70
     1
  9
$DIMSHO
 70
     1
  9
$DIMPOST
  1

  9
$DIMAPOST
  1

  9
$DIMALT
 70
     0
  9
$DIMALTD
 70
     2
  9
$DIMALTF
 40
25.4
  9
$DIMLFAC
 40
1.0
  9
$DIMTOFL
 70
     0
  9
$DIMTVP
 40
0.0
  9
$DIMTIX
 70
     0
  9
$DIMSOXD
 70
     0
  9
$DIMSAH
 70
     0
  9
$DIMBLK1
  1

  9
$DIMBLK2
  1

  9
$DIMSTYLE
  2
Standard
  9
$DIMCLRD
 70
     0
  9
$DIMCLRE
 70
     0
  9
$DIMCLRT
 70
     0
  9
$DIMTFAC
 40
1.0
  9
$DIMGAP
 40
0.09
  9
$DIMJUST
 70
     0
  9
$DIMSD1
 70
     0
  9
$DIMSD2
 70
     0
  9
$DIMTOLJ
 70
     1
  9
$DIMTZIN
 70
     0
  9
$DIMALTZ
 70
     0
  9
$DIMALTTZ
 70
     0
  9
$DIMUPT
 70
     0
  9
$DIMDEC
 70
     4
  9
$DIMTDEC
 70
     4
  9
$DIMALTU
 70
     2
  9
$DIMALTTD
 70
     2
  9
$DIMTXSTY
  7
Standard
  9
$DIMAUNIT
 70
     0
  9
$DIMADEC
 70
     0
  9
$DIMALTRND
 40
0.0
  9
$DIMAZIN
 70
     0
  9
$DIMDSEP
 70
    46
  9
$DIMATFIT
 70
     3
  9
$DIMFRAC
 70
     0
  9
$DIMLDRBLK
  1

  9
$DIMLUNIT
 70
     2
  9
$DIMLWD
 70
    -2
  9
$DIMLWE
 70
    -2
  9
$DIMTMOVE
 70
     0
  9
$LUNITS
 70
     2
  9
$LUPREC
 70
     4
  9
$SKETCHINC
 40
0.1
  9
$FILLETRAD
 40
0.5
  9
$AUNITS
 70
     0
  9
$AUPREC
 70
     0
  9
$MENU
  1
.
  9
$ELEVATION
 40
0.0
  9
$PELEVATION
 40
0.0
  9
$THICKNESS
 40
0.0
  9
$LIMCHECK
 70
     0
  9
$CHAMFERA
 40
0.5
  9
$CHAMFERB
 40
0.5
  9
$CHAMFERC
 40
1.0
  9
$CHAMFERD
 40
0.0
  9
$SKPOLY
 70
     0
  9
$TDCREATE
 40
2457186.577258935
  9
$TDUCREATE
 40
2457186.202258935
  9
$TDUPDATE
 40
2457186.577260197
  9
$TDUUPDATE
 40
2457186.202260197
  9
$TDINDWG
 40
0.0000000116
  9
$TDUSRTIMER
 40
0.0000000116
  9
$USRTIMER
 70
     1
  9
$ANGBASE
 50
0.0
  9
$ANGDIR
 70
     0
  9
$PDMODE
 70
     0
  9
$PDSIZE
 40
0.0
  9
$PLINEWID
 40
0.0
  9
$SPLFRAME
 70
     0
  9
$SPLINETYPE
 70
     6
  9
$SPLINESEGS
 70
     8
  9
$HANDSEED
  5
442
  9
$SURFTAB1
 70
     6
  9
$SURFTAB2
 70
     6
  9
$SURFTYPE
 70
     6
  9
$SURFU
 70
     6
  9
$SURFV
 70
     6
  9
$UCSBASE
  2

  9
$UCSNAME
  2

  9
$UCSORG
 10
0.0
 20
0.0
 30
0.0
  9
$UCSXDIR
 10
1.0
 20
0.0
 30
0.0
  9
$UCSYDIR
 10
0.0
 20
1.0
 30
0.0
  9
$UCSORTHOREF
  2

  9
$UCSORTHOVIEW
 70
     0
  9
$UCSORGTOP
 10
0.0
 20
0.0
 30
0.0
  9
$UCSORGBOTTOM
 10
0.0
 20
0.0
 30
0.0
  9
$UCSORGLEFT
 10
0.0
 20
0.0
 30
0.0
  9
$UCSORGRIGHT
 10
0.0
 20
0.0
 30
0.0
  9
$UCSORGFRONT
 10
0.0
 20
0.0
 30
0.0
  9
$UCSORGBACK
 10
0.0
 20
0.0
 30
0.0
  9
$PUCSBASE
  2

  9
$PUCSNAME
  2

  9
$PUCSORG
 10
0.0
 20
0.0
 30
0.0
  9
$PUCSXDIR
 10
1.0
 20
0.0
 30
0.0
  9
$PUCSYDIR
 10
0.0
 20
1.0
 30
0.0
  9
$PUCSORTHOREF
  2

  9
$PUCSORTHOVIEW
 70
     0
  9
$PUCSORGTOP
 10
0.0
 20
0.0
 30
0.0
  9
$PUCSORGBOTTOM
 10
0.0
 20
0.0
 30
0.0
  9
$PUCSORGLEFT
 10
0.0
 20
0.0
 30
0.0
  9
$PUCSORGRIGHT
 10
0.0
 20
0.0
 30
0.0
  9
$PUCSORGFRONT
 10
0.0
 20
0.0
 30
0.0
  9
$PUCSORGBACK
 10
0.0
 20
0.0
 30
0.0
  9
$USERI1
 70
     0
  9
$USERI2
 70
     0
  9
$USERI3
 70
     0
  9
$USERI4
 70
     0
  9
$USERI5
 70
     0
  9
$USERR1
 40
18.1
  9
$USERR2
 40
0.0
  9
$USERR3
 40
0.0
  9
$USERR4
 40
0.0
  9
$USERR5
 40
0.0
  9
$WORLDVIEW
 70
     1
  9
$SHADEDGE
 70
     3
  9
$SHADEDIF
 70
    70
  9
$TILEMODE
 70
     1
  9
$MAXACTVP
 70
    64
  9
$PINSBASE
 10
0.0
 20
0.0
 30
0.0
  9
$PLIMCHECK
 70
     0
  9
$PEXTMIN
 10
1.00000000000000E+20
 20
1.00000000000000E+20
 30
1.00000000000000E+20
  9
$PEXTMAX
 10
-1.00000000000000E+20
 20
-1.00000000000000E+20
 30
-1.00000000000000E+20
  9
$PLIMMIN
 10
0.0
 20
0.0
  9
$PLIMMAX
 10
12.0
 20
9.0
  9
$UNITMODE
 70
     0
  9
$VISRETAIN
 70
     1
  9
$PLINEGEN
 70
     0
  9
$PSLTSCALE
 70
     1
  9
$TREEDEPTH
 70
  3020
  9
$CMLSTYLE
  2
Standard
  9
$CMLJUST
 70
     0
  9
$CMLSCALE
 40
1.0
  9
$PROXYGRAPHICS
 70
     1
  9
$MEASUREMENT
 70
     1
  9
$CELWEIGHT
370
    -1
  9
$ENDCAPS
280
     0
  9
$JOINSTYLE
280
     0
  9
$LWDISPLAY
290
     0
  9
$INSUNITS
 70
     4
  9
$HYPERLINKBASE
  1

  9
$STYLESHEET
  1

  9
$XEDIT
290
     1
  9
$CEPSNTYPE
380
     0
  9
$PSTYLEMODE
290
     1
  9
$FINGERPRINTGUID
  2
{6473569B-7F16-4DD2-8BDD-3939463CF251}
  9
$VERSIONGUID
  2
{FAEB1C32-E019-11D5-929B-00C0DF256EC4}
  9
$EXTNAMES
290
     1
  9
$PSVPSCALE
 40
0.0
  9
$OLESTARTUP
290
     0
  0
ENDSEC
  0
SECTION
  2
CLASSES
  0
CLASS
  1
ACDBDICTIONARYWDFLT
  2
AcDbDictionaryWithDefault
  3
ObjectDBX Classes
 90
        0
280
     0
281
     0
  0
CLASS
  1
VISUALSTYLE
  2
AcDbVisualStyle
  3
ObjectDBX Classes
 90
     4095
280
     0
281
     0
  0
CLASS
  1
MATERIAL
  2
AcDbMaterial
  3
ObjectDBX Classes
 90
     1153
280
     0
281
     0
  0
CLASS
  1
DICTIONARYVAR
  2
AcDbDictionaryVar
  3
ObjectDBX Classes
 90
        0
280
     0
281
     0
  0
CLASS
  1
ACDBPLACEHOLDER
  2
AcDbPlaceHolder
  3
ObjectDBX Classes
 90
        0
280
     0
281
     0
  0
CLASS
  1
LAYOUT
  2
AcDbLayout
  3
ObjectDBX Classes
 90
        0
280
     0
281
     0
  0
ENDSEC
  0
SECTION
  2
TABLES
  0
TABLE
  2
VPORT
  5
8
330
0
100
AcDbSymbolTable
 70
     1
  0
VPORT
  5
29
330
8
100
AcDbSymbolTableRecord
100
AcDbViewportTableRecord
  2
*Active
 70
     0
 10
0.0
 20
0.0
 11
1.0
 21
1.0
 12
315.0000000000003
 22
445.5000000000005
 13
0.0
 23
0.0
 14
0.5
 24
0.5
 15
0.5
 25
0.5
 16
0.0
 26
0.0
 36
1.0
 17
0.0
 27
0.0
 37
0.0
 40
980.100000000001
 41
1.60267857142857
 42
50.0
 43
0.0
 44
0.0
 50
0.0
 51
0.0
 71
     0
 72
   100
 73
     1
 74
     3
 75
     0
 76
     0
 77
     0
 78
     0
281
     0
 65
     1
110
0.0
120
0.0
130
0.0
111
1.0
121
0.0
131
0.0
112
0.0
122
1.0
132
0.0
 79
     0
146
0.0
  0
ENDTAB
  0
TABLE
  2
LTYPE
  5
5
330
0
100
AcDbSymbolTable
 70
     8
  0
LTYPE
  5
14
330
5
100
AcDbSymbolTableRecord
100
AcDbLinetypeTableRecord
  2
ByBlock
 70
     0
  3

 72
    65
 73
     0
 40
0.0
  0
LTYPE
  5
15
330
5
100
AcDbSymbolTableRecord
100
AcDbLinetypeTableRecord
  2
ByLayer
 70
     0
  3

 72
    65
 73
     0
 40
0.0
  0
LTYPE
  5
16
330
5
100
AcDbSymbolTableRecord
100
AcDbLinetypeTableRecord
  2
Continuous
 70
     0
  3
Solid line
 72
    65
 73
     0
 40
0.0
  0
LTYPE
  5
3F
330
5
100
AcDbSymbolTableRecord
100
AcDbLinetypeTableRecord
  2
DASHED
 70
     0
  3
Dashed
 72
    65
 73
     2
 40
15.0
 49
7.0
 74
     0
 49
-8.0
 74
     0
  0
LTYPE
  5
40
330
5
100
AcDbSymbolTableRecord
100
AcDbLinetypeTableRecord
  2
DOTTED
 70
     0
  3
Dotted
 72
    65
 73
     2
 40
1.0
 49
0.0
 74
     0
 49
-1.0
 74
     0
  0
LTYPE
  5
41
330
5
100
AcDbSymbolTableRecord
100
AcDbLinetypeTableRecord
  2
DOT_CENTER
 70
     0
  3
Dot_Center
 72
    65
 73
     4
 40
14.0
 49
12.0
 74
     0
 49
-1.0
 74
     0
 49
0.0
 74
     0
 49
-1.0
 74
     0
  0
LTYPE
  5
42
330
5
100
AcDbSymbolTableRecord
100
AcDbLinetypeTableRecord
  2
LONG_DASHED
 70
     0
  3
Long_Dashed
 72
    65
 73
     2
 40
15.0
 49
10.0
 74
     0
 49
-5.0
 74
     0
  0
LTYPE
  5
43
330
5
100
AcDbSymbolTableRecord
100
AcDbLinetypeTableRecord
  2
DASH_CENTER
 70
     0
  3
Dash_Center
 72
    65
 73
     4
 40
14.0
 49
11.0
 74
     0
 49
-1.0
 74
     0
 49
1.0
 74
     0
 49
-1.0
 74
     0
  0
LTYPE
  5
44
330
5
100
AcDbSymbolTableRecord
100
AcDbLinetypeTableRecord
  2
PHANTOM
 70
     0
  3
Phantom
 72
    65
 73
     6
 40
13.0
 49
10.0
 74
     0
 49
-1.0
 74
     0
 49
0.0
 74
     0
 49
-1.0
 74
     0
 49
0.0
 74
     0
 49
-1.0
 74
     0
  0
LTYPE
  5
45
330
5
100
AcDbSymbolTableRecord
100
AcDbLinetypeTableRecord
  2
CENTER_DASH_DASH
 70
     0
  3
Center_Dash_Dash
 72
    65
 73
     6
 40
14.0
 49
9.0
 74
     0
 49
-1.0
 74
     0
 49
1.0
 74
     0
 49
-1.0
 74
     0
 49
1.0
 74
     0
 49
-1.0
 74
     0
  0
ENDTAB
  0
TABLE
  2
LAYER
  5
2
330
0
100
AcDbSymbolTable
 70
     2
  0
LAYER
  5
10
330
2
100
AcDbSymbolTableRecord
100
AcDbLayerTableRecord
  2
0
 70
     0
 62
     7
  6
Continuous
370
    -3
390
F
  0
LAYER
  5
46
330
2
100
AcDbSymbolTableRecord
100
AcDbLayerTableRecord
  2
1
 70
     0
 62
     7
  6
Continuous
370
    -3
390
F
  0
ENDTAB
  0
TABLE
  2
STYLE
  5
3
330
0
100
AcDbSymbolTable
 70
     3
  0
STYLE
  5
11
330
3
100
AcDbSymbolTableRecord
100
AcDbTextStyleTableRecord
  2
Standard
 70
     0
 40
0.0
 41
1.0
 50
0.0
 71
     0
 42
0.2
  3
txt
  4

  0
STYLE
  5
F2
330
3
100
AcDbSymbolTableRecord
100
AcDbTextStyleTableRecord
  2
CONVERTER_11
 70
     0
 40
0.0
 41
0.89
 50
0.0
 71
     0
 42
0.2
  3
MS Mincho.ttf
  4

1001
ACAD
1000
MS Mincho
1071
    32785
  0
STYLE
  5
393
330
3
100
AcDbSymbolTableRecord
100
AcDbTextStyleTableRecord
  2
CONVERTER_12
 70
     0
 40
0.0
 41
0.9
 50
0.0
 71
     0
 42
0.2
  3
txt.shx
  4

  0
ENDTAB
  0
TABLE
  2
VIEW
  5
6
330
0
100
AcDbSymbolTable
 70
     0
  0
ENDTAB
  0
TABLE
  2
UCS
  5
7
330
0
100
AcDbSymbolTable
 70
     0
  0
ENDTAB
  0
TABLE
  2
APPID
  5
9
330
0
100
AcDbSymbolTable
 70
     1
  0
APPID
  5
12
330
9
100
AcDbSymbolTableRecord
100
AcDbRegAppTableRecord
  2
ACAD
 70
     0
  0
ENDTAB
  0
TABLE
  2
DIMSTYLE
  5
A
330
0
100
AcDbSymbolTable
 70
    12
100
AcDbDimStyleTable
  0
DIMSTYLE
105
27
330
A
100
AcDbSymbolTableRecord
100
AcDbDimStyleTableRecord
  2
Standard
 70
     0
178
     0
340
11
  0
DIMSTYLE
105
3A3
102
{ACAD_REACTORS
330
3A4
102
}
330
A
100
AcDbSymbolTableRecord
100
AcDbDimStyleTableRecord
  2
ME10_DIM_10
 70
     0
 41
10.50000000000001
 42
0.0
 44
3.0
 73
     0
 74
     0
 77
     1
 78
     8
140
10.50000000000001
147
3.0
172
     1
173
     1
174
     1
175
     1
176
     2
177
     2
271
     2
178
     7
271
     2
340
393
  0
DIMSTYLE
105
3AE
102
{ACAD_REACTORS
330
3AF
102
}
330
A
100
AcDbSymbolTableRecord
100
AcDbDimStyleTableRecord
  2
ME10_DIM_11
 70
     0
 41
10.50000000000002
 42
0.0
 44
3.0
 73
     0
 74
     0
 77
     1
 78
     8
140
10.50000000000001
147
3.0
172
     1
173
     1
174
     1
175
     1
176
     2
177
     2
271
     2
178
     7
271
     2
340
393
  0
DIMSTYLE
105
3B9
102
{ACAD_REACTORS
330
3BA
102
}
330
A
100
AcDbSymbolTableRecord
100
AcDbDimStyleTableRecord
  2
ME10_DIM_12
 70
     0
 41
10.50000000000002
 42
0.0
 44
3.0
 73
     0
 74
     0
 77
     1
 78
     8
140
10.50000000000001
147
3.0
172
     1
173
     1
174
     1
175
     1
176
     2
177
     2
271
     2
178
     7
271
     2
340
393
  0
DIMSTYLE
105
3C6
102
{ACAD_REACTORS
330
3C7
102
}
330
A
100
AcDbSymbolTableRecord
100
AcDbDimStyleTableRecord
  2
ME10_DIM_13
 70
     0
 41
10.50000000000001
 42
0.0
 44
3.0
 73
     0
 74
     0
 77
     1
 78
     8
140
10.50000000000001
147
3.0
172
     1
173
     1
174
     1
175
     1
176
     2
177
     2
271
     2
178
     7
271
     2
340
393
  0
DIMSTYLE
105
3D1
102
{ACAD_REACTORS
330
3D2
102
}
330
A
100
AcDbSymbolTableRecord
100
AcDbDimStyleTableRecord
  2
ME10_DIM_14
 70
     0
 41
10.50000000000001
 42
0.0
 44
3.0
 73
     0
 74
     0
 77
     1
 78
     8
140
10.50000000000001
147
3.0
172
     1
173
     1
174
     1
175
     1
176
     2
177
     2
271
     2
178
     7
271
     2
340
F2
  0
DIMSTYLE
105
3DC
102
{ACAD_REACTORS
330
3DD
102
}
330
A
100
AcDbSymbolTableRecord
100
AcDbDimStyleTableRecord
  2
ME10_DIM_15
 70
     0
  3
{\Fgdt;n}<>
 41
10.50000000000001
 42
0.0
 44
3.0
 73
     0
 74
     0
 77
     1
 78
     8
140
10.50000000000001
147
3.0
172
     1
173
     1
174
     1
175
     1
176
     2
177
     2
271
     2
178
     7
271
     2
340
393
  0
DIMSTYLE
105
3E7
102
{ACAD_REACTORS
330
3E8
102
}
330
A
100
AcDbSymbolTableRecord
100
AcDbDimStyleTableRecord
  2
ME10_DIM_16
 70
     0
 41
10.50000000000001
 42
0.0
 44
3.0
 73
     0
 74
     0
 77
     1
 78
     8
140
10.50000000000001
147
3.0
172
     1
173
     1
174
     1
175
     1
176
     2
177
     2
271
     2
178
     7
271
     2
340
393
  0
DIMSTYLE
105
3F2
102
{ACAD_REACTORS
330
3F3
102
}
330
A
100
AcDbSymbolTableRecord
100
AcDbDimStyleTableRecord
  2
ME10_DIM_17
 70
     0
 41
10.50000000000001
 42
0.0
 44
3.0
 73
     0
 74
     0
 77
     1
 78
     8
140
10.50000000000001
147
3.0
172
     1
173
     1
174
     1
175
     1
176
     2
177
     2
271
     2
178
     7
271
     2
340
393
  0
DIMSTYLE
105
3FD
102
{ACAD_REACTORS
330
3FE
102
}
330
A
100
AcDbSymbolTableRecord
100
AcDbDimStyleTableRecord
  2
ME10_DIM_18
 70
     0
 41
10.50000000000001
 42
0.0
 44
3.0
 73
     0
 74
     0
 77
     1
 78
     8
140
10.50000000000001
147
3.0
172
     1
173
     1
174
     1
175
     1
176
     2
177
     2
271
     2
178
     7
271
     2
340
393
  0
DIMSTYLE
105
40A
102
{ACAD_REACTORS
330
40B
102
}
330
A
100
AcDbSymbolTableRecord
100
AcDbDimStyleTableRecord
  2
ME10_DIM_19
 70
     0
 41
10.50000000000001
 42
0.0
 44
3.0
 73
     0
 74
     0
 77
     1
 78
     8
140
10.50000000000001
147
3.0
172
     1
173
     1
174
     1
175
     1
176
     2
177
     2
271
     2
178
     7
271
     2
340
393
  0
DIMSTYLE
105
415
102
{ACAD_REACTORS
330
416
102
}
330
A
100
AcDbSymbolTableRecord
100
AcDbDimStyleTableRecord
  2
ME10_DIM_20
 70
     0
 41
10.50000000000001
 42
0.0
 44
3.0
 73
     0
 74
     0
 77
     1
 78
     8
140
10.50000000000001
147
3.0
172
     1
173
     1
174
     1
175
     1
176
     2
177
     2
271
     2
178
     7
271
     2
340
393
  0
ENDTAB
  0
TABLE
  2
BLOCK_RECORD
  5
1
330
0
100
AcDbSymbolTable
 70
    36
  0
BLOCK_RECORD
  5
1F
330
1
100
AcDbSymbolTableRecord
100
AcDbBlockTableRecord
  2
*Model_Space
340
22
  0
BLOCK_RECORD
  5
1B
330
1
100
AcDbSymbolTableRecord
100
AcDbBlockTableRecord
  2
*Paper_Space
340
1E
  0
BLOCK_RECORD
  5
23
330
1
100
AcDbSymbolTableRecord
100
AcDbBlockTableRecord
  2
*Paper_Space0
340
26
  0
BLOCK_RECORD
  5
47
330
1
100
AcDbSymbolTableRecord
100
AcDbBlockTableRecord
  2
開示A4
340
0
102
{BLKREFS
331
9A
102
}
  0
BLOCK_RECORD
  5
4A
330
1
100
AcDbSymbolTableRecord
100
AcDbBlockTableRecord
  2
EA10-15B-M11
340
0
102
{BLKREFS
331
4E
102
}
  0
BLOCK_RECORD
  5
4D
330
1
100
AcDbSymbolTableRecord
100
AcDbBlockTableRecord
  2
EA10-15BX
340
0
102
{BLKREFS
331
52
102
}
  0
BLOCK_RECORD
  5
51
330
1
100
AcDbSymbolTableRecord
100
AcDbBlockTableRecord
  2
EA10-61X-16
340
0
102
{BLKREFS
331
56
102
}
  0
BLOCK_RECORD
  5
55
330
1
100
AcDbSymbolTableRecord
100
AcDbBlockTableRecord
  2
EA10-61X-16_K
340
0
102
{BLKREFS
331
9B
102
}
  0
BLOCK_RECORD
  5
59
330
1
100
AcDbSymbolTableRecord
100
AcDbBlockTableRecord
  2
36-1A-13-M4
340
0
102
{BLKREFS
331
9C
102
}
  0
BLOCK_RECORD
  5
5C
330
1
100
AcDbSymbolTableRecord
100
AcDbBlockTableRecord
  2
42-1
340
0
102
{BLKREFS
331
9D
102
}
  0
BLOCK_RECORD
  5
5F
330
1
100
AcDbSymbolTableRecord
100
AcDbBlockTableRecord
  2
21-1A
340
0
102
{BLKREFS
331
9E
102
}
  0
BLOCK_RECORD
  5
62
330
1
100
AcDbSymbolTableRecord
100
AcDbBlockTableRecord
  2
37-1-13
340
0
102
{BLKREFS
331
9F
102
}
  0
BLOCK_RECORD
  5
65
330
1
100
AcDbSymbolTableRecord
100
AcDbBlockTableRecord
  2
A10-0A-13
340
0
102
{BLKREFS
331
A0
102
}
  0
BLOCK_RECORD
  5
68
330
1
100
AcDbSymbolTableRecord
100
AcDbBlockTableRecord
  2
M280__1
340
0
102
{BLKREFS
331
6C
102
}
  0
BLOCK_RECORD
  5
6B
330
1
100
AcDbSymbolTableRecord
100
AcDbBlockTableRecord
  2
EA10
340
0
102
{BLKREFS
331
70
102
}
  0
BLOCK_RECORD
  5
6F
330
1
100
AcDbSymbolTableRecord
100
AcDbBlockTableRecord
  2
EA10-61VX
340
0
102
{BLKREFS
331
74
102
}
  0
BLOCK_RECORD
  5
73
330
1
100
AcDbSymbolTableRecord
100
AcDbBlockTableRecord
  2
EA10-13_K__2
340
0
102
{BLKREFS
331
A1
102
}
  0
BLOCK_RECORD
  5
77
330
1
100
AcDbSymbolTableRecord
100
AcDbBlockTableRecord
  2
30-18A
340
0
102
{BLKREFS
331
7B
102
}
  0
BLOCK_RECORD
  5
7A
330
1
100
AcDbSymbolTableRecord
100
AcDbBlockTableRecord
  2
M280__3
340
0
102
{BLKREFS
331
A2
102
}
  0
BLOCK_RECORD
  5
7E
330
1
100
AcDbSymbolTableRecord
100
AcDbBlockTableRecord
  2
EA10-9
340
0
102
{BLKREFS
331
A3
102
}
  0
BLOCK_RECORD
  5
81
330
1
100
AcDbSymbolTableRecord
100
AcDbBlockTableRecord
  2
EA10-2
340
0
102
{BLKREFS
331
A4
102
}
  0
BLOCK_RECORD
  5
84
330
1
100
AcDbSymbolTableRecord
100
AcDbBlockTableRecord
  2
EA10-1
340
0
102
{BLKREFS
331
A5
102
}
  0
BLOCK_RECORD
  5
87
330
1
100
AcDbSymbolTableRecord
100
AcDbBlockTableRecord
  2
32-215
340
0
102
{BLKREFS
331
94
102
}
  0
BLOCK_RECORD
  5
8A
330
1
100
AcDbSymbolTableRecord
100
AcDbBlockTableRecord
  2
39-434
340
0
102
{BLKREFS
331
95
102
}
  0
BLOCK_RECORD
  5
8D
330
1
100
AcDbSymbolTableRecord
100
AcDbBlockTableRecord
  2
35-208
340
0
102
{BLKREFS
331
96
102
}
  0
BLOCK_RECORD
  5
90
330
1
100
AcDbSymbolTableRecord
100
AcDbBlockTableRecord
  2
_4
340
0
102
{BLKREFS
331
97
102
}
  0
BLOCK_RECORD
  5
93
330
1
100
AcDbSymbolTableRecord
100
AcDbBlockTableRecord
  2
EA10-61DF1
340
0
102
{BLKREFS
331
A6
102
}
  0
BLOCK_RECORD
  5
39A
330
1
100
AcDbSymbolTableRecord
100
AcDbBlockTableRecord
  2
*D25
340
0
  0
BLOCK_RECORD
  5
3A5
330
1
100
AcDbSymbolTableRecord
100
AcDbBlockTableRecord
  2
*D26
340
0
  0
BLOCK_RECORD
  5
3B0
330
1
100
AcDbSymbolTableRecord
100
AcDbBlockTableRecord
  2
*D27
340
0
  0
BLOCK_RECORD
  5
3BB
330
1
100
AcDbSymbolTableRecord
100
AcDbBlockTableRecord
  2
*D28
340
0
  0
BLOCK_RECORD
  5
3C8
330
1
100
AcDbSymbolTableRecord
100
AcDbBlockTableRecord
  2
*D29
340
0
  0
BLOCK_RECORD
  5
3D3
330
1
100
AcDbSymbolTableRecord
100
AcDbBlockTableRecord
  2
*D30
340
0
  0
BLOCK_RECORD
  5
3DE
330
1
100
AcDbSymbolTableRecord
100
AcDbBlockTableRecord
  2
*D31
340
0
  0
BLOCK_RECORD
  5
3E9
330
1
100
AcDbSymbolTableRecord
100
AcDbBlockTableRecord
  2
*D32
340
0
  0
BLOCK_RECORD
  5
3F4
330
1
100
AcDbSymbolTableRecord
100
AcDbBlockTableRecord
  2
*D33
340
0
  0
BLOCK_RECORD
  5
3FF
330
1
100
AcDbSymbolTableRecord
100
AcDbBlockTableRecord
  2
*D34
340
0
  0
BLOCK_RECORD
  5
40C
330
1
100
AcDbSymbolTableRecord
100
AcDbBlockTableRecord
  2
*D35
340
0
  0
ENDTAB
  0
ENDSEC
  0
SECTION
  2
BLOCKS
  0
BLOCK
  5
20
330
1F
100
AcDbEntity
  8
0
100
AcDbBlockBegin
  2
*Model_Space
 70
     0
 10
0.0
 20
0.0
 30
0.0
  3
*Model_Space
  1

  0
ENDBLK
  5
21
330
1F
100
AcDbEntity
  8
0
100
AcDbBlockEnd
  0
BLOCK
  5
1C
330
1B
100
AcDbEntity
 67
     1
  8
0
100
AcDbBlockBegin
  2
*Paper_Space
 70
     0
 10
0.0
 20
0.0
 30
0.0
  3
*Paper_Space
  1

  0
ENDBLK
  5
1D
330
1B
100
AcDbEntity
 67
     1
  8
0
100
AcDbBlockEnd
  0
BLOCK
  5
24
330
23
100
AcDbEntity
  8
0
100
AcDbBlockBegin
  2
*Paper_Space0
 70
     0
 10
0.0
 20
0.0
 30
0.0
  3
*Paper_Space0
  1

  0
ENDBLK
  5
25
330
23
100
AcDbEntity
  8
0
100
AcDbBlockEnd
  0
BLOCK
  5
48
330
47
100
AcDbEntity
  8
0
100
AcDbBlockBegin
  2
開示A4
 70
     0
 10
0.0
 20
0.0
 30
0.0
  3
開示A4
  1

  0
POINT
  5
A7
330
47
100
AcDbEntity
  8
1
 62
     4
100
AcDbPoint
 10
34.0
 20
34.00000000000001
 30
0.0
  0
POINT
  5
A8
330
47
100
AcDbEntity
  8
1
 62
     4
100
AcDbPoint
 10
57.0
 20
12.25
 30
0.0
  0
POINT
  5
A9
330
47
100
AcDbEntity
  8
1
 62
     4
100
AcDbPoint
 10
57.0
 20
20.75000000000001
 30
0.0
  0
POINT
  5
AA
330
47
100
AcDbEntity
  8
1
 62
     4
100
AcDbPoint
 10
57.0
 20
24.75000000000001
 30
0.0
  0
POINT
  5
AB
330
47
100
AcDbEntity
  8
1
 62
     4
100
AcDbPoint
 10
57.0
 20
16.25
 30
0.0
  0
POINT
  5
AC
330
47
100
AcDbEntity
  8
1
 62
     4
100
AcDbPoint
 10
157.5
 20
19.00000000000001
 30
0.0
  0
POINT
  5
AD
330
47
100
AcDbEntity
  8
1
 62
     4
100
AcDbPoint
 10
47.5
 20
282.0000000000003
 30
0.0
  0
POINT
  5
AE
330
47
100
AcDbEntity
  8
1
 62
     4
100
AcDbPoint
 10
57.0
 20
22.75000000000001
 30
0.0
  0
POINT
  5
AF
330
47
100
AcDbEntity
  8
1
 62
     4
100
AcDbPoint
 10
57.0
 20
14.25
 30
0.0
  0
POINT
  5
B0
330
47
100
AcDbEntity
  8
1
 62
     4
100
AcDbPoint
 10
157.5
 20
12.5
 30
0.0
  0
POINT
  5
B1
330
47
100
AcDbEntity
  8
1
 62
     4
100
AcDbPoint
 10
163.25
 20
12.5
 30
0.0
  0
POINT
  5
B2
330
47
100
AcDbEntity
  8
1
 62
     4
100
AcDbPoint
 10
151.75
 20
12.5
 30
0.0
  0
POINT
  5
B3
330
47
100
AcDbEntity
  8
1
 62
     4
100
AcDbPoint
 10
134.75
 20
12.5
 30
0.0
  0
POINT
  5
B4
330
47
100
AcDbEntity
  8
1
 62
     4
100
AcDbPoint
 10
146.25
 20
12.5
 30
0.0
  0
POINT
  5
B5
330
47
100
AcDbEntity
  8
1
 62
     4
100
AcDbPoint
 10
140.5
 20
12.5
 30
0.0
  0
POINT
  5
B6
330
47
100
AcDbEntity
  8
1
 62
     4
100
AcDbPoint
 10
140.5
 20
19.00000000000001
 30
0.0
  0
POINT
  5
B7
330
47
100
AcDbEntity
  8
1
 62
     4
100
AcDbPoint
 10
117.75
 20
12.5
 30
0.0
  0
POINT
  5
B8
330
47
100
AcDbEntity
  8
1
 62
     4
100
AcDbPoint
 10
129.25
 20
12.5
 30
0.0
  0
POINT
  5
B9
330
47
100
AcDbEntity
  8
1
 62
     4
100
AcDbPoint
 10
123.5
 20
12.5
 30
0.0
  0
POINT
  5
BA
330
47
100
AcDbEntity
  8
1
 62
     4
100
AcDbPoint
 10
123.5
 20
19.00000000000001
 30
0.0
  0
POINT
  5
BB
330
47
100
AcDbEntity
  8
1
 62
     4
100
AcDbPoint
 10
100.75
 20
12.5
 30
0.0
  0
POINT
  5
BC
330
47
100
AcDbEntity
  8
1
 62
     4
100
AcDbPoint
 10
112.25
 20
12.5
 30
0.0
  0
POINT
  5
BD
330
47
100
AcDbEntity
  8
1
 62
     4
100
AcDbPoint
 10
106.5
 20
12.5
 30
0.0
  0
POINT
  5
BE
330
47
100
AcDbEntity
  8
1
 62
     4
100
AcDbPoint
 10
106.5
 20
19.00000000000001
 30
0.0
  0
POINT
  5
BF
330
47
100
AcDbEntity
  8
1
 62
     4
100
AcDbPoint
 10
85.25
 20
17.0
 30
0.0
  0
POINT
  5
C0
330
47
100
AcDbEntity
  8
1
 62
     4
100
AcDbPoint
 10
93.75
 20
17.0
 30
0.0
  0
LINE
  5
C1
330
47
100
AcDbEntity
  8
1
  6
Continuous
 62
     2
100
AcDbLine
 10
81.0
 20
27.00000000000001
 30
0.0
 11
81.0
 21
10.0
 31
0.0
  0
LINE
  5
C2
330
47
100
AcDbEntity
  8
1
  6
DOT_CENTER
 62
     2
100
AcDbLine
 10
187.0
 20
26.50000000000001
 30
0.0
 11
187.0
 21
20.50000000000001
 31
0.0
  0
LINE
  5
C3
330
47
100
AcDbEntity
  8
1
  6
DOT_CENTER
 62
     2
100
AcDbLine
 10
184.0
 20
23.50000000000001
 30
0.0
 11
197.0
 21
23.50000000000001
 31
0.0
  0
LINE
  5
C4
330
47
100
AcDbEntity
  8
1
  6
Continuous
 62
     7
100
AcDbLine
 10
196.0
 20
21.50000000000001
 30
0.0
 11
191.0
 21
22.30000000000001
 31
0.0
  0
LINE
  5
C5
330
47
100
AcDbEntity
  8
1
  6
Continuous
 62
     7
100
AcDbLine
 10
196.0
 20
25.50000000000001
 30
0.0
 11
196.0
 21
21.50000000000001
 31
0.0
  0
LINE
  5
C6
330
47
100
AcDbEntity
  8
1
  6
Continuous
 62
     7
100
AcDbLine
 10
191.0
 20
24.70000000000001
 30
0.0
 11
196.0
 21
25.50000000000001
 31
0.0
  0
LINE
  5
C7
330
47
100
AcDbEntity
  8
1
  6
Continuous
 62
     7
100
AcDbLine
 10
191.0
 20
24.70000000000001
 30
0.0
 11
191.0
 21
22.30000000000001
 31
0.0
  0
LINE
  5
C8
330
47
100
AcDbEntity
  8
1
  6
Continuous
 62
     2
100
AcDbLine
 10
33.0
 20
27.0
 30
0.0
 11
33.0
 21
10.0
 31
0.0
  0
LINE
  5
C9
330
47
100
AcDbEntity
  8
1
  6
Continuous
 62
     2
100
AcDbLine
 10
25.0
 20
18.50000000000001
 30
0.0
 11
81.0
 21
18.50000000000001
 31
0.0
  0
LINE
  5
CA
330
47
100
AcDbEntity
  8
1
  6
Continuous
 62
     7
100
AcDbLine
 10
200.0
 20
287.0000000000003
 30
0.0
 11
105.0
 21
287.0000000000003
 31
0.0
  0
LINE
  5
CB
330
47
100
AcDbEntity
  8
1
  6
Continuous
 62
     7
100
AcDbLine
 10
200.0
 20
10.0
 30
0.0
 11
200.0
 21
148.5
 31
0.0
  0
LINE
  5
CC
330
47
100
AcDbEntity
  8
1
  6
Continuous
 62
     7
100
AcDbLine
 10
25.0
 20
10.0
 30
0.0
 11
105.0
 21
10.0
 31
0.0
  0
LINE
  5
CD
330
47
100
AcDbEntity
  8
1
  6
PHANTOM
 62
     4
100
AcDbLine
 10
0.0
 20
297.0
 30
0.0
 11
0.0
 21
0.0
 31
0.0
  0
LINE
  5
CE
330
47
100
AcDbEntity
  8
1
  6
PHANTOM
 62
     4
100
AcDbLine
 10
210.0
 20
297.0
 30
0.0
 11
0.0
 21
297.0
 31
0.0
  0
LINE
  5
CF
330
47
100
AcDbEntity
  8
1
  6
PHANTOM
 62
     4
100
AcDbLine
 10
210.0
 20
0.0
 30
0.0
 11
210.0
 21
297.0
 31
0.0
  0
LINE
  5
D0
330
47
100
AcDbEntity
  8
1
  6
PHANTOM
 62
     4
100
AcDbLine
 10
0.0
 20
0.0
 30
0.0
 11
210.0
 21
0.0
 31
0.0
  0
LINE
  5
D1
330
47
100
AcDbEntity
  8
1
  6
Continuous
 62
     7
100
AcDbLine
 10
25.0
 20
41.0
 30
0.0
 11
200.0
 21
41.0
 31
0.0
  0
LINE
  5
D2
330
47
100
AcDbEntity
  8
1
  6
Continuous
 62
     7
100
AcDbLine
 10
200.0
 20
27.00000000000001
 30
0.0
 11
25.0
 21
27.00000000000001
 31
0.0
  0
LINE
  5
D3
330
47
100
AcDbEntity
  8
1
  6
Continuous
 62
     2
100
AcDbLine
 10
33.0
 20
41.00000000000001
 30
0.0
 11
33.0
 21
27.0
 31
0.0
  0
LINE
  5
D4
330
47
100
AcDbEntity
  8
1
  6
Continuous
 62
     2
100
AcDbLine
 10
55.0
 20
287.0000000000003
 30
0.0
 11
55.0
 21
277.0000000000003
 31
0.0
  0
LINE
  5
D5
330
47
100
AcDbEntity
  8
1
  6
Continuous
 62
     2
100
AcDbLine
 10
40.0
 20
287.0000000000003
 30
0.0
 11
40.0
 21
277.0000000000003
 31
0.0
  0
LINE
  5
D6
330
47
100
AcDbEntity
  8
1
  6
Continuous
 62
     7
100
AcDbLine
 10
25.0
 20
10.0
 30
0.0
 11
25.0
 21
148.5
 31
0.0
  0
LINE
  5
D7
330
47
100
AcDbEntity
  8
1
  6
Continuous
 62
     2
100
AcDbLine
 10
55.0
 20
277.0000000000003
 30
0.0
 11
25.0
 21
277.0000000000003
 31
0.0
  0
LINE
  5
D8
330
47
100
AcDbEntity
  8
1
  6
Continuous
 62
     2
100
AcDbLine
 10
166.0
 20
27.00000000000001
 30
0.0
 11
166.0
 21
10.0
 31
0.0
  0
LINE
  5
D9
330
47
100
AcDbEntity
  8
1
  6
Continuous
 62
     2
100
AcDbLine
 10
132.0
 20
27.00000000000001
 30
0.0
 11
132.0
 21
9.99999999999999
 31
0.0
  0
LINE
  5
DA
330
47
100
AcDbEntity
  8
1
  6
Continuous
 62
     2
100
AcDbLine
 10
149.0
 20
27.00000000000001
 30
0.0
 11
149.0
 21
10.0
 31
0.0
  0
LINE
  5
DB
330
47
100
AcDbEntity
  8
1
  6
Continuous
 62
     2
100
AcDbLine
 10
115.0
 20
27.00000000000001
 30
0.0
 11
115.0
 21
9.99999999999999
 31
0.0
  0
LINE
  5
DC
330
47
100
AcDbEntity
  8
1
  6
Continuous
 62
     2
100
AcDbLine
 10
98.0
 20
27.00000000000001
 30
0.0
 11
98.0
 21
9.99999999999999
 31
0.0
  0
LINE
  5
DD
330
47
100
AcDbEntity
  8
1
  6
Continuous
 62
     2
100
AcDbLine
 10
166.0
 20
20.00000000000001
 30
0.0
 11
200.0
 21
20.00000000000001
 31
0.0
  0
LINE
  5
DE
330
47
100
AcDbEntity
  8
1
  6
Continuous
 62
     2
100
AcDbLine
 10
105.0
 20
287.0000000000003
 30
0.0
 11
105.0
 21
292.0000000000003
 31
0.0
  0
LINE
  5
DF
330
47
100
AcDbEntity
  8
1
  6
Continuous
 62
     7
100
AcDbLine
 10
105.0
 20
287.0000000000003
 30
0.0
 11
25.0
 21
287.0000000000003
 31
0.0
  0
LINE
  5
E0
330
47
100
AcDbEntity
  8
1
  6
Continuous
 62
     2
100
AcDbLine
 10
25.0
 20
148.5
 30
0.0
 11
20.0
 21
148.5
 31
0.0
  0
LINE
  5
E1
330
47
100
AcDbEntity
  8
1
  6
Continuous
 62
     7
100
AcDbLine
 10
25.0
 20
148.5
 30
0.0
 11
25.0
 21
287.0000000000003
 31
0.0
  0
LINE
  5
E2
330
47
100
AcDbEntity
  8
1
  6
Continuous
 62
     2
100
AcDbLine
 10
200.0
 20
148.5
 30
0.0
 11
205.0
 21
148.5
 31
0.0
  0
LINE
  5
E3
330
47
100
AcDbEntity
  8
1
  6
Continuous
 62
     7
100
AcDbLine
 10
200.0
 20
148.5
 30
0.0
 11
200.0
 21
287.0000000000003
 31
0.0
  0
LINE
  5
E4
330
47
100
AcDbEntity
  8
1
  6
Continuous
 62
     2
100
AcDbLine
 10
105.0
 20
10.0
 30
0.0
 11
105.0
 21
5.0
 31
0.0
  0
LINE
  5
E5
330
47
100
AcDbEntity
  8
1
  6
Continuous
 62
     7
100
AcDbLine
 10
105.0
 20
10.0
 30
0.0
 11
200.0
 21
10.0
 31
0.0
  0
CIRCLE
  5
E6
330
47
100
AcDbEntity
  8
1
  6
DOT_CENTER
 62
     7
100
AcDbCircle
 10
89.5
 20
18.0
 30
0.0
 40
0.1000000000000227
  0
CIRCLE
  5
E7
330
47
100
AcDbEntity
  8
1
  6
DOT_CENTER
 62
     7
100
AcDbCircle
 10
89.5
 20
16.0
 30
0.0
 40
0.1000000000000227
  0
CIRCLE
  5
E8
330
47
100
AcDbEntity
  8
1
  6
Continuous
 62
     7
100
AcDbCircle
 10
187.0
 20
23.50000000000001
 30
0.0
 40
2.0
  0
CIRCLE
  5
E9
330
47
100
AcDbEntity
  8
1
  6
Continuous
 62
     7
100
AcDbCircle
 10
187.0
 20
23.50000000000001
 30
0.0
 40
1.200000000000102
  0
CIRCLE
  5
EA
330
47
100
AcDbEntity
  8
1
  6
Continuous
 62
     7
100
AcDbCircle
 10
154.5
 20
12.5
 30
0.0
 40
0.3000000000000114
  0
CIRCLE
  5
EB
330
47
100
AcDbEntity
  8
1
  6
Continuous
 62
     7
100
AcDbCircle
 10
160.5
 20
12.5
 30
0.0
 40
0.3000000000000114
  0
CIRCLE
  5
EC
330
47
100
AcDbEntity
  8
1
  6
Continuous
 62
     7
100
AcDbCircle
 10
143.5
 20
12.5
 30
0.0
 40
0.3000000000000114
  0
CIRCLE
  5
ED
330
47
100
AcDbEntity
  8
1
  6
Continuous
 62
     7
100
AcDbCircle
 10
137.5
 20
12.5
 30
0.0
 40
0.3000000000000114
  0
CIRCLE
  5
EE
330
47
100
AcDbEntity
  8
1
  6
Continuous
 62
     7
100
AcDbCircle
 10
126.5
 20
12.5
 30
0.0
 40
0.2999999999999972
  0
CIRCLE
  5
EF
330
47
100
AcDbEntity
  8
1
  6
Continuous
 62
     7
100
AcDbCircle
 10
120.5
 20
12.5
 30
0.0
 40
0.2999999999999972
  0
CIRCLE
  5
F0
330
47
100
AcDbEntity
  8
1
  6
Continuous
 62
     7
100
AcDbCircle
 10
109.5
 20
12.5
 30
0.0
 40
0.2999999999999972
  0
CIRCLE
  5
F1
330
47
100
AcDbEntity
  8
1
  6
Continuous
 62
     7
100
AcDbCircle
 10
103.5
 20
12.5
 30
0.0
 40
0.2999999999999972
  0
MTEXT
  5
F3
330
47
100
AcDbEntity
  8
1
 62
   250
100
AcDbMText
 10
25.0
 20
5.0
 30
0.0
 40
3.5
 41
0.0
 71
     4
 72
     1
  1
備考欄の文字列 原点位置=4
  7
CONVERTER_11
 73
     1
 44
0.54545454545455
  0
MTEXT
  5
F4
330
47
100
AcDbEntity
  8
1
 62
     2
100
AcDbMText
 10
89.5
 20
24.00000000000001
 30
0.0
 40
3.5
 41
0.0
 71
     5
 72
     1
  1
尺度
  7
CONVERTER_11
 73
     1
 44
0.54545454545455
  0
MTEXT
  5
F5
330
47
100
AcDbEntity
  8
1
 62
     2
100
AcDbMText
 10
135.5
 20
25.00000000000001
 30
0.0
 40
3.0
 41
0.0
 71
     5
 72
     1
  1
製図
  7
CONVERTER_11
 73
     1
 44
0.59090909090909
  0
MTEXT
  5
F6
330
47
100
AcDbEntity
  8
1
 62
     2
100
AcDbMText
 10
152.5
 20
25.00000000000001
 30
0.0
 40
3.0
 41
0.0
 71
     5
 72
     1
  1
設計
  7
CONVERTER_11
 73
     1
 44
0.59090909090909
  0
MTEXT
  5
F7
330
47
100
AcDbEntity
  8
1
 62
     2
100
AcDbMText
 10
118.5
 20
25.00000000000001
 30
0.0
 40
3.0
 41
0.0
 71
     5
 72
     1
  1
検図
  7
CONVERTER_11
 73
     1
 44
0.59090909090909
  0
MTEXT
  5
F8
330
47
100
AcDbEntity
  8
1
 62
     2
100
AcDbMText
 10
175.0
 20
23.50000000000001
 30
0.0
 40
3.5
 41
0.0
 71
     5
 72
     1
  1
第三角法
  7
CONVERTER_11
 73
     1
 44
0.54545454545455
  0
MTEXT
  5
F9
330
47
100
AcDbEntity
  8
1
 62
     2
100
AcDbMText
 10
101.5
 20
25.00000000000001
 30
0.0
 40
3.0
 41
0.0
 71
     5
 72
     1
  1
承認
  7
CONVERTER_11
 73
     1
 44
0.59090909090909
  0
MTEXT
  5
FA
330
47
100
AcDbEntity
  8
1
 62
     2
100
AcDbMText
 10
29.0
 20
14.25
 30
0.0
 40
3.5
 41
0.0
 71
     5
 72
     1
  1
品番
  7
CONVERTER_11
 73
     1
 44
0.72727272727273
  0
MTEXT
  5
FB
330
47
100
AcDbEntity
  8
1
 62
     2
100
AcDbMText
 10
29.0
 20
22.75
 30
0.0
 40
3.5
 41
0.0
 71
     5
 72
     1
  1
品名
  7
CONVERTER_11
 73
     1
 44
0.72727272727273
  0
MTEXT
  5
FC
330
47
100
AcDbEntity
  8
1
 62
     2
100
AcDbMText
 10
29.0
 20
34.00000000000001
 30
0.0
 40
3.5
 41
0.0
 71
     5
 72
     1
  1
備考
  7
CONVERTER_11
 73
     1
 44
0.45454545454545
  0
MTEXT
  5
FD
330
47
100
AcDbEntity
  8
1
 62
     2
100
AcDbMText
 10
32.5
 20
282.0000000000003
 30
0.0
 40
5.0
 41
0.0
 71
     5
 72
     1
  1
図番
  7
CONVERTER_11
 73
     1
 44
0.45454545454545
  0
MTEXT
  5
FE
330
47
100
AcDbEntity
  8
1
 62
     7
100
AcDbMText
 10
171.5
 20
15.0
 30
0.0
 40
2.5
 41
0.0
 71
     5
 72
     1
  1
株式会社
  7
CONVERTER_11
 73
     1
 44
1.0
  0
MTEXT
  5
FF
330
47
100
AcDbEntity
  8
1
 62
     7
100
AcDbMText
 10
188.5
 20
15.0
 30
0.0
 40
3.0
 41
0.0
 71
     5
 72
     1
  1
三栄水栓製作所
  7
CONVERTER_11
 73
     1
 44
1.0
  0
ENDBLK
  5
49
330
47
100
AcDbEntity
  8
0
100
AcDbBlockEnd
  0
BLOCK
  5
4B
330
4A
100
AcDbEntity
  8
0
100
AcDbBlockBegin
  2
EA10-15B-M11
 70
     0
 10
1225.472946772812
 20
547.219439361867
 30
0.0
  3
EA10-15B-M11
  1

  0
LINE
  5
100
330
4A
100
AcDbEntity
  8
1
  6
Continuous
 62
     7
100
AcDbLine
 10
127.7538814216433
 20
220.6181440488416
 30
0.0
 11
129.9038814216432
 21
220.6181440488416
 31
0.0
  0
LINE
  5
101
330
4A
100
AcDbEntity
  8
1
  6
Continuous
 62
     7
100
AcDbLine
 10
124.9038814216432
 20
215.6181440488416
 30
0.0
 11
131.4038814216432
 21
215.6181440488416
 31
0.0
  0
LINE
  5
102
330
4A
100
AcDbEntity
  8
1
  6
Continuous
 62
     7
100
AcDbLine
 10
129.9038814216432
 20
220.6181440488416
 30
0.0
 11
131.4038814216432
 21
220.6181440488416
 31
0.0
  0
LINE
  5
103
330
4A
100
AcDbEntity
  8
1
  6
Continuous
 62
     7
100
AcDbLine
 10
127.7538814216433
 20
220.6181440488416
 30
0.0
 11
124.9038814216432
 21
220.6181440488416
 31
0.0
  0
LINE
  5
104
330
4A
100
AcDbEntity
  8
1
  6
Continuous
 62
     7
100
AcDbLine
 10
131.6092611625023
 20
221.6181440488416
 30
0.0
 11
128.053881421643
 21
221.6181440488416
 31
0.0
  0
LINE
  5
105
330
4A
100
AcDbEntity
  8
1
  6
Continuous
 62
     7
100
AcDbLine
 10
124.4281104789822
 20
215.9068191834365
 30
0.0
 11
124.4281104789822
 21
220.3294689142468
 31
0.0
  0
LINE
  5
106
330
4A
100
AcDbEntity
  8
1
  6
Continuous
 62
     7
100
AcDbLine
 10
124.4038814216432
 20
220.3294689142468
 30
0.0
 11
124.4281104789822
 21
220.3294689142468
 31
0.0
  0
ARC
  5
107
330
4A
100
AcDbEntity
  8
1
  6
Continuous
 62
     7
100
AcDbCircle
 10
129.9038814216432
 20
211.3805397418079
 30
0.0
 40
9.237604307033667
100
AcDbArc
 50
80.65494673211498
 51
90.0
  0
ENDBLK
  5
4C
330
4A
100
AcDbEntity
  8
0
100
AcDbBlockEnd
  0
BLOCK
  5
4F
330
4D
100
AcDbEntity
  8
0
100
AcDbBlockBegin
  2
EA10-15BX
 70
     0
 10
1482.730423916552
 20
275.0931453053205
 30
0.0
  3
EA10-15BX
  1

  0
INSERT
  5
4E
330
4D
100
AcDbEntity
  8
1
100
AcDbBlockReference
  2
EA10-15B-M11
 10
1225.472946772812
 20
547.219439361867
 30
0.0
  0
LINE
  5
108
330
4D
100
AcDbEntity
  8
1
  6
Continuous
 62
     7
100
AcDbLine
 10
324.903881421644
 20
217.8110372676549
 30
0.0
 11
324.903881421644
 21
215.6181440488416
 31
0.0
  0
LINE
  5
109
330
4D
100
AcDbEntity
  8
1
  6
Continuous
 62
     7
100
AcDbLine
 10
324.903881421644
 20
215.6181440488416
 30
0.0
 11
327.2193983264609
 21
215.6181440488416
 31
0.0
  0
LINE
  5
10A
330
4D
100
AcDbEntity
  8
1
  6
Continuous
 62
     7
100
AcDbLine
 10
327.2193983264609
 20
215.6181440488416
 30
0.0
 11
328.1125935741662
 21
215.6181440488416
 31
0.0
  0
LINE
  5
10B
330
4D
100
AcDbEntity
  8
1
  6
Continuous
 62
     7
100
AcDbLine
 10
327.2193983264609
 20
215.6181440488416
 30
0.0
 11
327.2193983264609
 21
217.8110372676549
 31
0.0
  0
LINE
  5
10C
330
4D
100
AcDbEntity
  8
1
  6
Continuous
 62
     7
100
AcDbLine
 10
328.1125935741662
 20
215.6181440488416
 30
0.0
 11
328.1125935741662
 21
217.8110372676549
 31
0.0
  0
LINE
  5
10D
330
4D
100
AcDbEntity
  8
1
  6
Continuous
 62
     7
100
AcDbLine
 10
328.1125935741662
 20
215.6181440488416
 30
0.0
 11
332.695169269122
 21
215.6181440488416
 31
0.0
  0
LINE
  5
10E
330
4D
100
AcDbEntity
  8
1
  6
Continuous
 62
     7
100
AcDbLine
 10
332.695169269122
 20
215.6181440488416
 30
0.0
 11
333.5883645168274
 21
215.6181440488416
 31
0.0
  0
LINE
  5
10F
330
4D
100
AcDbEntity
  8
1
  6
Continuous
 62
     7
100
AcDbLine
 10
332.695169269122
 20
215.6181440488416
 30
0.0
 11
332.695169269122
 21
217.8110372676549
 31
0.0
  0
LINE
  5
110
330
4D
100
AcDbEntity
  8
1
  6
Continuous
 62
     7
100
AcDbLine
 10
333.5883645168274
 20
215.6181440488416
 30
0.0
 11
333.5883645168274
 21
217.8110372676549
 31
0.0
  0
LINE
  5
111
330
4D
100
AcDbEntity
  8
1
  6
Continuous
 62
     7
100
AcDbLine
 10
333.5883645168274
 20
215.6181440488416
 30
0.0
 11
335.8796523643052
 21
215.6181440488416
 31
0.0
  0
LINE
  5
112
330
4D
100
AcDbEntity
  8
1
  6
Continuous
 62
     7
100
AcDbLine
 10
335.8796523643052
 20
215.6181440488416
 30
0.0
 11
335.8796523643052
 21
217.8110372676549
 31
0.0
  0
LINE
  5
113
330
4D
100
AcDbEntity
  8
1
  6
Continuous
 62
     7
100
AcDbLine
 10
126.71939832646
 20
220.3294689142468
 30
0.0
 11
126.71939832646
 21
215.9068191834365
 31
0.0
  0
LINE
  5
114
330
4D
100
AcDbEntity
  8
1
  6
Continuous
 62
     7
100
AcDbLine
 10
126.71939832646
 20
215.9068191834365
 30
0.0
 11
127.6125935741653
 21
215.9068191834365
 31
0.0
  0
LINE
  5
115
330
4D
100
AcDbEntity
  8
1
  6
Continuous
 62
     7
100
AcDbLine
 10
124.4038814216432
 20
215.9068191834365
 30
0.0
 11
124.9038814216432
 21
215.6181440488416
 31
0.0
  0
LINE
  5
116
330
4D
100
AcDbEntity
  8
1
  6
Continuous
 62
     7
100
AcDbLine
 10
124.4038814216432
 20
220.3294689142468
 30
0.0
 11
124.4038814216432
 21
215.9068191834365
 31
0.0
  0
LINE
  5
117
330
4D
100
AcDbEntity
  8
1
  6
Continuous
 62
     7
100
AcDbLine
 10
124.9038814216432
 20
220.6181440488416
 30
0.0
 11
124.4038814216432
 21
220.3294689142468
 31
0.0
  0
LINE
  5
118
330
4D
100
AcDbEntity
  8
1
  6
Continuous
 62
     7
100
AcDbLine
 10
126.71939832646
 20
220.3294689142468
 30
0.0
 11
127.6125935741653
 21
220.3294689142468
 31
0.0
  0
LINE
  5
119
330
4D
100
AcDbEntity
  8
1
  6
Continuous
 62
     7
100
AcDbLine
 10
131.4038814216432
 20
220.6181440488416
 30
0.0
 11
129.9038814216432
 21
220.6181440488416
 31
0.0
  0
LINE
  5
11A
330
4D
100
AcDbEntity
  8
1
  6
Continuous
 62
     7
100
AcDbLine
 10
129.9038814216432
 20
220.6181440488416
 30
0.0
 11
124.9038814216432
 21
220.6181440488416
 31
0.0
  0
LINE
  5
11B
330
4D
100
AcDbEntity
  8
1
  6
Continuous
 62
     7
100
AcDbLine
 10
128.053881421643
 20
220.9181440488417
 30
0.0
 11
128.053881421643
 21
221.6181440488416
 31
0.0
  0
LINE
  5
11C
330
4D
100
AcDbEntity
  8
1
  6
Continuous
 62
     7
100
AcDbLine
 10
131.6092611625023
 20
221.6181440488416
 30
0.0
 11
128.053881421643
 21
221.6181440488416
 31
0.0
  0
LINE
  5
11D
330
4D
100
AcDbEntity
  8
1
  6
Continuous
 62
     7
100
AcDbLine
 10
128.053881421643
 20
221.6181440488416
 30
0.0
 11
127.66098820283
 21
222.0110372676548
 31
0.0
  0
LINE
  5
11E
330
4D
100
AcDbEntity
  8
1
  6
Continuous
 62
     7
100
AcDbLine
 10
127.6125935741653
 20
215.9068191834365
 30
0.0
 11
127.6125935741653
 21
220.3294689142468
 31
0.0
  0
LINE
  5
11F
330
4D
100
AcDbEntity
  8
1
  6
Continuous
 62
     7
100
AcDbLine
 10
131.4038814216432
 20
215.6181440488416
 30
0.0
 11
124.9038814216432
 21
215.6181440488416
 31
0.0
  0
ARC
  5
120
330
4D
100
AcDbEntity
  8
1
  6
Continuous
 62
     7
100
AcDbCircle
 10
125.573754402721
 20
218.0357983010742
 30
0.0
 40
2.417654252232316
100
AcDbArc
 50
241.7144650336502
 51
298.2855349663542
  0
ARC
  5
121
330
4D
100
AcDbEntity
  8
1
  6
Continuous
 62
     7
100
AcDbCircle
 10
125.573754402721
 20
218.2004897966107
 30
0.0
 40
2.417654252231015
100
AcDbArc
 50
61.71446503362785
 51
118.2855349663677
  0
ARC
  5
122
330
4D
100
AcDbEntity
  8
1
  6
Continuous
 62
     7
100
AcDbCircle
 10
129.9038814216432
 20
211.3805397418079
 30
0.0
 40
9.237604307033706
100
AcDbArc
 50
90.0
 51
104.3615115629169
  0
ARC
  5
123
330
4D
100
AcDbEntity
  8
1
  6
Continuous
 62
     7
100
AcDbCircle
 10
129.9038814216432
 20
211.3805397418079
 30
0.0
 40
9.237604307033667
100
AcDbArc
 50
80.65494673211498
 51
90.0
  0
ARC
  5
124
330
4D
100
AcDbEntity
  8
1
  6
Continuous
 62
     7
100
AcDbCircle
 10
129.9038814216432
 20
224.8557483558756
 30
0.0
 40
9.237604307033893
100
AcDbArc
 50
255.6384884370833
 51
279.3450532678847
  0
ARC
  5
125
330
4D
100
AcDbEntity
  8
1
  6
Continuous
 62
     7
100
AcDbCircle
 10
127.7538814216433
 20
220.9181440488417
 30
0.0
 40
0.3000000000000966
100
AcDbArc
 50
270.0
 51
0.0
  0
ENDBLK
  5
50
330
4D
100
AcDbEntity
  8
0
100
AcDbBlockEnd
  0
BLOCK
  5
53
330
51
100
AcDbEntity
  8
0
100
AcDbBlockBegin
  2
EA10-61X-16
 70
     0
 10
1296.472946772813
 20
237.710467587673
 30
0.0
  3
EA10-61X-16
  1

  0
INSERT
  5
52
330
51
100
AcDbEntity
  8
1
100
AcDbBlockReference
  2
EA10-15BX
 10
1482.730423916552
 20
275.0931453053205
 30
0.0
  0
ENDBLK
  5
54
330
51
100
AcDbEntity
  8
0
100
AcDbBlockEnd
  0
BLOCK
  5
57
330
55
100
AcDbEntity
  8
0
100
AcDbBlockBegin
  2
EA10-61X-16_K
 70
     0
 10
630.0000000000007
 20
0.0
 30
0.0
  3
EA10-61X-16_K
  1

  0
INSERT
  5
56
330
55
100
AcDbEntity
  8
1
100
AcDbBlockReference
  2
EA10-61X-16
 10
1296.472946772813
 20
237.710467587673
 30
0.0
  0
ENDBLK
  5
58
330
55
100
AcDbEntity
  8
0
100
AcDbBlockEnd
  0
BLOCK
  5
5A
330
59
100
AcDbEntity
  8
0
100
AcDbBlockBegin
  2
36-1A-13-M4
 70
     0
 10
245.0933987609433
 20
211.4409353055467
 30
0.0
  3
36-1A-13-M4
  1

  0
LINE
  5
126
330
59
100
AcDbEntity
  8
1
  6
Continuous
 62
     7
100
AcDbLine
 10
148.6572571828915
 20
340.910061314983
 30
0.0
 11
148.6572571828915
 21
345.410061314983
 31
0.0
  0
LINE
  5
127
330
59
100
AcDbEntity
  8
1
  6
Continuous
 62
     7
100
AcDbLine
 10
139.1572571828915
 20
340.910061314983
 30
0.0
 11
139.1572571828915
 21
345.410061314983
 31
0.0
  0
LINE
  5
128
330
59
100
AcDbEntity
  8
1
  6
Continuous
 62
     7
100
AcDbLine
 10
486.1572571828916
 20
340.910061314983
 30
0.0
 11
486.1572571828916
 21
345.410061314983
 31
0.0
  0
LINE
  5
129
330
59
100
AcDbEntity
  8
1
  6
Continuous
 62
     7
100
AcDbLine
 10
495.6572571828916
 20
345.410061314983
 30
0.0
 11
495.6572571828916
 21
340.910061314983
 31
0.0
  0
ENDBLK
  5
5B
330
59
100
AcDbEntity
  8
0
100
AcDbBlockEnd
  0
BLOCK
  5
5D
330
5C
100
AcDbEntity
  8
0
100
AcDbBlockBegin
  2
42-1
 70
     0
 10
402.802997096288
 20
157.7204123053982
 30
0.0
  3
42-1
  1

  0
LINE
  5
12A
330
5C
100
AcDbEntity
  8
1
  6
Continuous
 62
     7
100
AcDbLine
 10
138.9072571828915
 20
359.410061314983
 30
0.0
 11
148.9072571828915
 21
359.410061314983
 31
0.0
  0
LINE
  5
12B
330
5C
100
AcDbEntity
  8
1
  6
Continuous
 62
     7
100
AcDbLine
 10
138.1572571828915
 20
359.7398270351866
 30
0.0
 11
143.9072571828915
 21
359.7398270351866
 31
0.0
  0
LINE
  5
12C
330
5C
100
AcDbEntity
  8
1
  6
Continuous
 62
     2
100
AcDbLine
 10
142.9072571828915
 20
358.6523994171541
 30
0.0
 11
142.9072571828915
 21
357.3871603265437
 31
0.0
  0
LINE
  5
12D
330
5C
100
AcDbEntity
  8
1
  6
Continuous
 62
     2
100
AcDbLine
 10
141.9072571828915
 20
358.895714626887
 30
0.0
 11
141.9072571828915
 21
357.1276241028288
 31
0.0
  0
LINE
  5
12E
330
5C
100
AcDbEntity
  8
1
  6
Continuous
 62
     2
100
AcDbLine
 10
140.9072571828915
 20
359.1065878086554
 30
0.0
 11
140.9072571828915
 21
356.7707617952207
 31
0.0
  0
LINE
  5
12F
330
5C
100
AcDbEntity
  8
1
  6
Continuous
 62
     2
100
AcDbLine
 10
149.9072571828915
 20
359.2201349065306
 30
0.0
 11
149.9072571828915
 21
356.5761096274346
 31
0.0
  0
LINE
  5
130
330
5C
100
AcDbEntity
  8
1
  6
Continuous
 62
     2
100
AcDbLine
 10
148.9072571828915
 20
359.410061314983
 30
0.0
 11
148.9072571828915
 21
356.410061314983
 31
0.0
  0
LINE
  5
131
330
5C
100
AcDbEntity
  8
1
  6
Continuous
 62
     7
100
AcDbLine
 10
147.9072571828915
 20
356.410061314983
 30
0.0
 11
148.9072571828915
 21
356.410061314983
 31
0.0
  0
LINE
  5
132
330
5C
100
AcDbEntity
  8
1
  6
Continuous
 62
     7
100
AcDbLine
 10
137.9072571828915
 20
359.410061314983
 30
0.0
 11
138.9072571828915
 21
359.410061314983
 31
0.0
  0
LINE
  5
133
330
5C
100
AcDbEntity
  8
1
  6
Continuous
 62
     2
100
AcDbLine
 10
147.9072571828915
 20
359.410061314983
 30
0.0
 11
147.9072571828915
 21
356.410061314983
 31
0.0
  0
LINE
  5
134
330
5C
100
AcDbEntity
  8
1
  6
Continuous
 62
     7
100
AcDbLine
 10
136.9072571828915
 20
359.410061314983
 30
0.0
 11
137.9072571828915
 21
359.410061314983
 31
0.0
  0
LINE
  5
135
330
5C
100
AcDbEntity
  8
1
  6
Continuous
 62
     7
100
AcDbLine
 10
136.9072571828915
 20
359.410061314983
 30
0.0
 11
137.9072571828915
 21
359.6793835140061
 31
0.0
  0
LINE
  5
136
330
5C
100
AcDbEntity
  8
1
  6
Continuous
 62
     7
100
AcDbLine
 10
146.9072571828915
 20
356.410061314983
 30
0.0
 11
147.9072571828915
 21
356.410061314983
 31
0.0
  0
LINE
  5
137
330
5C
100
AcDbEntity
  8
1
  6
Continuous
 62
     7
100
AcDbLine
 10
136.9072571828915
 20
356.410061314983
 30
0.0
 11
136.9072571828915
 21
359.410061314983
 31
0.0
  0
LINE
  5
138
330
5C
100
AcDbEntity
  8
1
  6
Continuous
 62
     7
100
AcDbLine
 10
136.9072571828915
 20
356.410061314983
 30
0.0
 11
148.9072571828915
 21
356.410061314983
 31
0.0
  0
LINE
  5
139
330
5C
100
AcDbEntity
  8
1
  6
Continuous
 62
     7
100
AcDbLine
 10
150.9072571828915
 20
359.410061314983
 30
0.0
 11
150.9072571828915
 21
356.410061314983
 31
0.0
  0
LINE
  5
13A
330
5C
100
AcDbEntity
  8
1
  6
Continuous
 62
     7
100
AcDbLine
 10
149.9072571828915
 20
356.410061314983
 30
0.0
 11
150.9072571828915
 21
356.410061314983
 31
0.0
  0
LINE
  5
13B
330
5C
100
AcDbEntity
  8
1
  6
Continuous
 62
     7
100
AcDbLine
 10
149.9072571828917
 20
359.6793835140061
 30
0.0
 11
150.9072571828915
 21
359.410061314983
 31
0.0
  0
LINE
  5
13C
330
5C
100
AcDbEntity
  8
1
  6
Continuous
 62
     7
100
AcDbLine
 10
149.9072571828915
 20
359.410061314983
 30
0.0
 11
150.9072571828915
 21
359.410061314983
 31
0.0
  0
LINE
  5
13D
330
5C
100
AcDbEntity
  8
1
  6
Continuous
 62
     2
100
AcDbLine
 10
139.9072571828915
 20
356.410061314983
 30
0.0
 11
139.9072571828915
 21
359.410061314983
 31
0.0
  0
LINE
  5
13E
330
5C
100
AcDbEntity
  8
1
  6
Continuous
 62
     7
100
AcDbLine
 10
148.9072571828915
 20
359.410061314983
 30
0.0
 11
149.9072571828915
 21
359.410061314983
 31
0.0
  0
LINE
  5
13F
330
5C
100
AcDbEntity
  8
1
  6
Continuous
 62
     7
100
AcDbLine
 10
148.9072571828915
 20
356.410061314983
 30
0.0
 11
149.9072571828915
 21
356.410061314983
 31
0.0
  0
LINE
  5
140
330
5C
100
AcDbEntity
  8
1
  6
Continuous
 62
     2
100
AcDbLine
 10
138.9072571828915
 20
356.410061314983
 30
0.0
 11
138.9072571828915
 21
359.410061314983
 31
0.0
  0
LINE
  5
141
330
5C
100
AcDbEntity
  8
1
  6
Continuous
 62
     2
100
AcDbLine
 10
137.9072571828915
 20
356.5761096274346
 30
0.0
 11
137.9072571828915
 21
359.2201349065306
 31
0.0
  0
LINE
  5
142
330
5C
100
AcDbEntity
  8
1
  6
Continuous
 62
     2
100
AcDbLine
 10
146.9072571828915
 20
356.7707617952207
 30
0.0
 11
146.9072571828915
 21
359.1065878086554
 31
0.0
  0
LINE
  5
143
330
5C
100
AcDbEntity
  8
1
  6
Continuous
 62
     2
100
AcDbLine
 10
145.9072571828915
 20
357.1276241028288
 30
0.0
 11
145.9072571828915
 21
358.895714626887
 31
0.0
  0
LINE
  5
144
330
5C
100
AcDbEntity
  8
1
  6
Continuous
 62
     2
100
AcDbLine
 10
144.9072571828915
 20
357.3871603265437
 30
0.0
 11
144.9072571828915
 21
358.6523994171541
 31
0.0
  0
LINE
  5
145
330
5C
100
AcDbEntity
  8
1
  6
Continuous
 62
     7
100
AcDbLine
 10
143.9072571828915
 20
359.7398270351866
 30
0.0
 11
149.6572571828915
 21
359.7398270351866
 31
0.0
  0
LINE
  5
146
330
5C
100
AcDbEntity
  8
1
  6
Continuous
 62
     7
100
AcDbLine
 10
485.9072571828916
 20
359.410061314983
 30
0.0
 11
495.9072571828916
 21
359.410061314983
 31
0.0
  0
LINE
  5
147
330
5C
100
AcDbEntity
  8
1
  6
Continuous
 62
     7
100
AcDbLine
 10
485.1572571828916
 20
359.7398270351866
 30
0.0
 11
490.9072571828916
 21
359.7398270351866
 31
0.0
  0
LINE
  5
148
330
5C
100
AcDbEntity
  8
1
  6
Continuous
 62
     2
100
AcDbLine
 10
489.9072571828916
 20
358.6523994171541
 30
0.0
 11
489.9072571828916
 21
357.3871603265437
 31
0.0
  0
LINE
  5
149
330
5C
100
AcDbEntity
  8
1
  6
Continuous
 62
     2
100
AcDbLine
 10
488.9072571828916
 20
358.895714626887
 30
0.0
 11
488.9072571828916
 21
357.1276241028288
 31
0.0
  0
LINE
  5
14A
330
5C
100
AcDbEntity
  8
1
  6
Continuous
 62
     2
100
AcDbLine
 10
487.9072571828916
 20
359.1065878086554
 30
0.0
 11
487.9072571828916
 21
356.7707617952207
 31
0.0
  0
LINE
  5
14B
330
5C
100
AcDbEntity
  8
1
  6
Continuous
 62
     2
100
AcDbLine
 10
486.9072571828916
 20
359.2201349065306
 30
0.0
 11
486.9072571828916
 21
356.5761096274346
 31
0.0
  0
LINE
  5
14C
330
5C
100
AcDbEntity
  8
1
  6
Continuous
 62
     2
100
AcDbLine
 10
485.9072571828916
 20
359.410061314983
 30
0.0
 11
485.9072571828916
 21
356.410061314983
 31
0.0
  0
LINE
  5
14D
330
5C
100
AcDbEntity
  8
1
  6
Continuous
 62
     7
100
AcDbLine
 10
484.9072571828916
 20
356.410061314983
 30
0.0
 11
485.9072571828916
 21
356.410061314983
 31
0.0
  0
LINE
  5
14E
330
5C
100
AcDbEntity
  8
1
  6
Continuous
 62
     7
100
AcDbLine
 10
484.9072571828916
 20
359.410061314983
 30
0.0
 11
485.9072571828916
 21
359.410061314983
 31
0.0
  0
LINE
  5
14F
330
5C
100
AcDbEntity
  8
1
  6
Continuous
 62
     2
100
AcDbLine
 10
484.9072571828916
 20
359.410061314983
 30
0.0
 11
484.9072571828916
 21
356.410061314983
 31
0.0
  0
LINE
  5
150
330
5C
100
AcDbEntity
  8
1
  6
Continuous
 62
     7
100
AcDbLine
 10
483.9072571828916
 20
359.410061314983
 30
0.0
 11
484.9072571828916
 21
359.410061314983
 31
0.0
  0
LINE
  5
151
330
5C
100
AcDbEntity
  8
1
  6
Continuous
 62
     7
100
AcDbLine
 10
483.9072571828916
 20
359.410061314983
 30
0.0
 11
484.9072571828916
 21
359.6793835140061
 31
0.0
  0
LINE
  5
152
330
5C
100
AcDbEntity
  8
1
  6
Continuous
 62
     7
100
AcDbLine
 10
483.9072571828916
 20
356.410061314983
 30
0.0
 11
484.9072571828916
 21
356.410061314983
 31
0.0
  0
LINE
  5
153
330
5C
100
AcDbEntity
  8
1
  6
Continuous
 62
     7
100
AcDbLine
 10
483.9072571828916
 20
356.410061314983
 30
0.0
 11
483.9072571828916
 21
359.410061314983
 31
0.0
  0
LINE
  5
154
330
5C
100
AcDbEntity
  8
1
  6
Continuous
 62
     7
100
AcDbLine
 10
485.9072571828916
 20
356.410061314983
 30
0.0
 11
495.9072571828916
 21
356.410061314983
 31
0.0
  0
LINE
  5
155
330
5C
100
AcDbEntity
  8
1
  6
Continuous
 62
     7
100
AcDbLine
 10
497.9072571828916
 20
359.410061314983
 30
0.0
 11
497.9072571828916
 21
356.410061314983
 31
0.0
  0
LINE
  5
156
330
5C
100
AcDbEntity
  8
1
  6
Continuous
 62
     7
100
AcDbLine
 10
496.9072571828916
 20
356.410061314983
 30
0.0
 11
497.9072571828916
 21
356.410061314983
 31
0.0
  0
LINE
  5
157
330
5C
100
AcDbEntity
  8
1
  6
Continuous
 62
     7
100
AcDbLine
 10
496.9072571828916
 20
359.6793835140061
 30
0.0
 11
497.9072571828916
 21
359.410061314983
 31
0.0
  0
LINE
  5
158
330
5C
100
AcDbEntity
  8
1
  6
Continuous
 62
     7
100
AcDbLine
 10
496.9072571828916
 20
359.410061314983
 30
0.0
 11
497.9072571828916
 21
359.410061314983
 31
0.0
  0
LINE
  5
159
330
5C
100
AcDbEntity
  8
1
  6
Continuous
 62
     2
100
AcDbLine
 10
496.9072571828916
 20
356.410061314983
 30
0.0
 11
496.9072571828916
 21
359.410061314983
 31
0.0
  0
LINE
  5
15A
330
5C
100
AcDbEntity
  8
1
  6
Continuous
 62
     7
100
AcDbLine
 10
495.9072571828916
 20
359.410061314983
 30
0.0
 11
496.9072571828916
 21
359.410061314983
 31
0.0
  0
LINE
  5
15B
330
5C
100
AcDbEntity
  8
1
  6
Continuous
 62
     7
100
AcDbLine
 10
495.9072571828916
 20
356.410061314983
 30
0.0
 11
496.9072571828916
 21
356.410061314983
 31
0.0
  0
LINE
  5
15C
330
5C
100
AcDbEntity
  8
1
  6
Continuous
 62
     2
100
AcDbLine
 10
495.9072571828916
 20
356.410061314983
 30
0.0
 11
495.9072571828916
 21
359.410061314983
 31
0.0
  0
LINE
  5
15D
330
5C
100
AcDbEntity
  8
1
  6
Continuous
 62
     2
100
AcDbLine
 10
494.9072571828916
 20
356.5761096274346
 30
0.0
 11
494.9072571828916
 21
359.2201349065306
 31
0.0
  0
LINE
  5
15E
330
5C
100
AcDbEntity
  8
1
  6
Continuous
 62
     2
100
AcDbLine
 10
493.9072571828916
 20
356.7707617952207
 30
0.0
 11
493.9072571828916
 21
359.1065878086554
 31
0.0
  0
LINE
  5
15F
330
5C
100
AcDbEntity
  8
1
  6
Continuous
 62
     2
100
AcDbLine
 10
492.9072571828916
 20
357.1276241028288
 30
0.0
 11
492.9072571828916
 21
358.895714626887
 31
0.0
  0
LINE
  5
160
330
5C
100
AcDbEntity
  8
1
  6
Continuous
 62
     2
100
AcDbLine
 10
491.9072571828916
 20
357.3871603265437
 30
0.0
 11
491.9072571828916
 21
358.6523994171541
 31
0.0
  0
LINE
  5
161
330
5C
100
AcDbEntity
  8
1
  6
Continuous
 62
     7
100
AcDbLine
 10
490.9072571828916
 20
359.7398270351866
 30
0.0
 11
496.6572571828916
 21
359.7398270351866
 31
0.0
  0
ARC
  5
162
330
5C
100
AcDbEntity
  8
1
  6
Continuous
 62
     7
100
AcDbCircle
 10
143.9072571828915
 20
335.410061314983
 30
0.0
 40
25.0
100
AcDbArc
 50
90.0
 51
103.2970717472091
  0
ARC
  5
163
330
5C
100
AcDbEntity
  8
1
  6
Continuous
 62
     7
100
AcDbCircle
 10
143.9072571828915
 20
335.410061314983
 30
0.0
 40
24.99999999999985
100
AcDbArc
 50
103.2970717472091
 51
103.8865403626291
  0
ARC
  5
164
330
5C
100
AcDbEntity
  8
1
  6
Continuous
 62
     7
100
AcDbCircle
 10
143.9072571828915
 20
335.410061314983
 30
0.0
 40
24.99999999999992
100
AcDbArc
 50
76.1134596373705
 51
76.70292825279087
  0
ARC
  5
165
330
5C
100
AcDbEntity
  8
1
  6
Continuous
 62
     7
100
AcDbCircle
 10
143.9072571828915
 20
335.410061314983
 30
0.0
 40
24.99999999999985
100
AcDbArc
 50
76.70292825279087
 51
90.0
  0
ARC
  5
166
330
5C
100
AcDbEntity
  8
1
  6
Continuous
 62
     7
100
AcDbCircle
 10
490.9072571828916
 20
335.410061314983
 30
0.0
 40
25.0
100
AcDbArc
 50
90.0
 51
103.2970717472091
  0
ARC
  5
167
330
5C
100
AcDbEntity
  8
1
  6
Continuous
 62
     7
100
AcDbCircle
 10
490.9072571828916
 20
335.410061314983
 30
0.0
 40
24.99999999999985
100
AcDbArc
 50
103.2970717472091
 51
103.8865403626291
  0
ARC
  5
168
330
5C
100
AcDbEntity
  8
1
  6
Continuous
 62
     7
100
AcDbCircle
 10
490.9072571828916
 20
335.410061314983
 30
0.0
 40
24.99999999999988
100
AcDbArc
 50
76.11345963737095
 51
76.70292825279087
  0
ARC
  5
169
330
5C
100
AcDbEntity
  8
1
  6
Continuous
 62
     7
100
AcDbCircle
 10
490.9072571828916
 20
335.410061314983
 30
0.0
 40
24.99999999999985
100
AcDbArc
 50
76.70292825279087
 51
90.0
  0
CIRCLE
  5
16A
330
5C
100
AcDbEntity
  8
1
  6
Continuous
 62
     7
100
AcDbCircle
 10
143.9072571828917
 20
742.5100613149829
 30
0.0
 40
5.75
  0
CIRCLE
  5
16B
330
5C
100
AcDbEntity
  8
1
  6
Continuous
 62
     7
100
AcDbCircle
 10
143.9072571828917
 20
742.5100613149829
 30
0.0
 40
7.0
  0
ENDBLK
  5
5E
330
5C
100
AcDbEntity
  8
0
100
AcDbBlockEnd
  0
BLOCK
  5
60
330
5F
100
AcDbEntity
  8
0
100
AcDbBlockBegin
  2
21-1A
 70
     0
 10
535.9072571828916
 20
310.010061314983
 30
0.0
  3
21-1A
  1

  0
LINE
  5
16C
330
5F
100
AcDbEntity
  8
1
  6
Continuous
 62
     7
100
AcDbLine
 10
149.702812140626
 20
345.410061314983
 30
0.0
 11
171.0627582431317
 21
345.410061314983
 31
0.0
  0
LINE
  5
16D
330
5F
100
AcDbEntity
  8
1
  6
Continuous
 62
     7
100
AcDbLine
 10
149.702812140626
 20
346.6145063572487
 30
0.0
 11
149.702812140626
 21
345.410061314983
 31
0.0
  0
LINE
  5
16E
330
5F
100
AcDbEntity
  8
1
  6
Continuous
 62
     7
100
AcDbLine
 10
138.1117022251573
 20
345.410061314983
 30
0.0
 11
142.4265719190408
 21
345.410061314983
 31
0.0
  0
LINE
  5
16F
330
5F
100
AcDbEntity
  8
1
  6
Continuous
 62
     7
100
AcDbLine
 10
138.1117022251573
 20
346.6145063572487
 30
0.0
 11
138.1117022251573
 21
345.410061314983
 31
0.0
  0
LINE
  5
170
330
5F
100
AcDbEntity
  8
1
  6
Continuous
 62
     7
100
AcDbLine
 10
142.4265719190408
 20
345.410061314983
 30
0.0
 11
145.3879424467423
 21
345.410061314983
 31
0.0
  0
LINE
  5
171
330
5F
100
AcDbEntity
  8
1
  6
Continuous
 62
     7
100
AcDbLine
 10
145.3879424467423
 20
345.410061314983
 30
0.0
 11
149.702812140626
 21
345.410061314983
 31
0.0
  0
LINE
  5
172
330
5F
100
AcDbEntity
  8
1
  6
Continuous
 62
     7
100
AcDbLine
 10
171.5578922775025
 20
345.9796478654629
 30
0.0
 11
171.1059841785102
 21
349.1951410703335
 31
0.0
  0
LINE
  5
173
330
5F
100
AcDbEntity
  8
1
  6
Continuous
 62
     7
100
AcDbLine
 10
116.7517561226513
 20
345.410061314983
 30
0.0
 11
138.1117022251573
 21
345.410061314983
 31
0.0
  0
LINE
  5
174
330
5F
100
AcDbEntity
  8
1
  6
Continuous
 62
     7
100
AcDbLine
 10
116.7085301872728
 20
349.1951410703335
 30
0.0
 11
116.2566220882806
 21
345.9796478654629
 31
0.0
  0
LINE
  5
175
330
5F
100
AcDbEntity
  8
1
  6
Continuous
 62
     7
100
AcDbLine
 10
149.7028121406261
 20
715.9571470443677
 30
0.0
 11
153.3542213520966
 21
729.5843917408007
 31
0.0
  0
LINE
  5
176
330
5F
100
AcDbEntity
  8
1
  6
Continuous
 62
     7
100
AcDbLine
 10
169.800532964622
 20
750.7674206278635
 30
0.0
 11
159.8246974796596
 21
740.7915851429012
 31
0.0
  0
LINE
  5
177
330
5F
100
AcDbEntity
  8
1
  6
Continuous
 62
     7
100
AcDbLine
 10
164.765482909508
 20
761.0093929472143
 30
0.0
 11
150.3777333104547
 21
757.1542070612469
 31
0.0
  0
LINE
  5
178
330
5F
100
AcDbEntity
  8
1
  6
Continuous
 62
     7
100
AcDbLine
 10
123.8095363588958
 20
760.8056162727172
 30
0.0
 11
137.4367810553287
 21
757.1542070612469
 31
0.0
  0
LINE
  5
179
330
5F
100
AcDbEntity
  8
1
  6
Continuous
 62
     7
100
AcDbLine
 10
118.0139814011615
 20
750.7674206278635
 30
0.0
 11
127.9898168861238
 21
740.7915851429013
 31
0.0
  0
LINE
  5
17A
330
5F
100
AcDbEntity
  8
1
  6
Continuous
 62
     7
100
AcDbLine
 10
138.1117022251573
 20
715.9571470443677
 30
0.0
 11
134.4602930136869
 21
729.5843917408007
 31
0.0
  0
LINE
  5
17B
330
5F
100
AcDbEntity
  8
1
  6
Continuous
 62
     7
100
AcDbLine
 10
504.6995485863823
 20
345.410061314983
 30
0.0
 11
508.8320314708172
 21
345.410061314983
 31
0.0
  0
LINE
  5
17C
330
5F
100
AcDbEntity
  8
1
  6
Continuous
 62
     7
100
AcDbLine
 10
460.4392154511235
 20
349.1951410703335
 30
0.0
 11
459.9873073521313
 21
345.9796478654629
 31
0.0
  0
LINE
  5
17D
330
5F
100
AcDbEntity
  8
1
  6
Continuous
 62
     7
100
AcDbLine
 10
508.7099430372429
 20
350.3691379207265
 30
0.0
 11
509.3271605312503
 21
345.9796832476956
 31
0.0
  0
LINE
  5
17E
330
5F
100
AcDbEntity
  8
1
  6
Continuous
 62
     7
100
AcDbLine
 10
504.6995485863823
 20
345.410061314983
 30
0.0
 11
503.1341919552903
 21
345.410061314983
 31
0.0
  0
LINE
  5
17F
330
5F
100
AcDbEntity
  8
1
  6
Continuous
 62
     7
100
AcDbLine
 10
495.6572571828916
 20
345.410061314983
 30
0.0
 11
504.6995485863823
 21
345.410061314983
 31
0.0
  0
LINE
  5
180
330
5F
100
AcDbEntity
  8
1
  6
Continuous
 62
     7
100
AcDbLine
 10
460.4824413865018
 20
345.410061314983
 30
0.0
 11
495.6572571828916
 21
345.410061314983
 31
0.0
  0
ARC
  5
181
330
5F
100
AcDbEntity
  8
1
  6
Continuous
 62
     7
100
AcDbCircle
 10
143.9072571828915
 20
346.6145063572487
 30
0.0
 40
5.79555495773451
100
AcDbArc
 50
0.0
 51
180.0
  0
ARC
  5
182
330
5F
100
AcDbEntity
  8
1
  6
Continuous
 62
     7
100
AcDbCircle
 10
143.7725998148169
 20
249.7410955730161
 30
0.0
 40
106.9073037178504
100
AcDbArc
 50
77.89803937190942
 51
86.17341572346427
  0
ARC
  5
183
330
5F
100
AcDbEntity
  8
1
  6
Continuous
 62
     7
100
AcDbCircle
 10
144.0419145509661
 20
249.7410955730161
 30
0.0
 40
106.9073037178505
100
AcDbArc
 50
93.82658427653574
 51
102.1019606280906
  0
ARC
  5
184
330
5F
100
AcDbEntity
  8
1
  6
Continuous
 62
     7
100
AcDbCircle
 10
143.9072571828917
 20
717.5100613149829
 30
0.0
 40
6.0
100
AcDbArc
 50
270.0
 51
344.9999999999998
  0
ARC
  5
185
330
5F
100
AcDbEntity
  8
1
  6
Continuous
 62
     7
100
AcDbCircle
 10
165.5578922775027
 20
755.0100613149829
 30
0.0
 40
6.000000000000028
100
AcDbArc
 50
314.9999999999998
 51
97.52424107894208
  0
ARC
  5
186
330
5F
100
AcDbEntity
  8
1
  6
Continuous
 62
     7
100
AcDbCircle
 10
122.2566220882808
 20
755.0100613149829
 30
0.0
 40
5.999999999999898
100
AcDbArc
 50
75.00000000000107
 51
225.0000000000001
  0
ARC
  5
187
330
5F
100
AcDbEntity
  8
1
  6
Continuous
 62
     7
100
AcDbCircle
 10
143.9072571828917
 20
717.5100613149829
 30
0.0
 40
5.999999999999988
100
AcDbArc
 50
195.0000000000001
 51
270.0
  0
ARC
  5
188
330
5F
100
AcDbEntity
  8
1
  6
Continuous
 62
     7
100
AcDbCircle
 10
490.9072571828916
 20
206.410061314983
 30
0.0
 40
150.0533238552215
100
AcDbArc
 50
91.52752544221293
 51
99.8029017937678
  0
ARC
  5
189
330
5F
100
AcDbEntity
  8
1
  6
Continuous
 62
     7
100
AcDbCircle
 10
491.2714528481384
 20
281.4982403062838
 30
0.0
 40
74.99999999999989
100
AcDbArc
 50
80.40850751733493
 51
87.22136103403743
  0
ARC
  5
18A
330
5F
100
AcDbEntity
  8
1
  6
Continuous
 62
     7
100
AcDbCircle
 10
171.0627582431317
 20
345.910061314983
 30
0.0
 40
0.5
100
AcDbArc
 50
270.0
 51
7.99999999998107
  0
ARC
  5
18B
330
5F
100
AcDbEntity
  8
1
  6
Continuous
 62
     7
100
AcDbCircle
 10
165.1643757660607
 20
348.3601024645732
 30
0.0
 40
6.000000000000076
100
AcDbArc
 50
7.99999999999903
 51
80.19709820623196
  0
ARC
  5
18C
330
5F
100
AcDbEntity
  8
1
  6
Continuous
 62
     7
100
AcDbCircle
 10
116.7517561226513
 20
345.910061314983
 30
0.0
 40
0.4999999999999001
100
AcDbArc
 50
172.0000000000173
 51
270.0
  0
ARC
  5
18D
330
5F
100
AcDbEntity
  8
1
  6
Continuous
 62
     7
100
AcDbCircle
 10
122.6501385997224
 20
348.3601024645732
 30
0.0
 40
6.000000000000019
100
AcDbArc
 50
99.8029017937678
 51
172.0000000000011
  0
ARC
  5
18E
330
5F
100
AcDbEntity
  8
1
  6
Continuous
 62
     7
100
AcDbCircle
 10
177.5023670093233
 20
723.1139156132376
 30
0.0
 40
24.99999999999996
100
AcDbArc
 50
135.0000000000002
 51
164.9999999999999
  0
ARC
  5
18F
330
5F
100
AcDbEntity
  8
1
  6
Continuous
 62
     7
100
AcDbCircle
 10
143.9072571828917
 20
781.3023527184736
 30
0.0
 40
24.99999999999996
100
AcDbArc
 50
255.0
 51
284.9999999999999
  0
ARC
  5
190
330
5F
100
AcDbEntity
  8
1
  6
Continuous
 62
     7
100
AcDbCircle
 10
110.3121473564601
 20
723.1139156132376
 30
0.0
 40
25.00000000000011
100
AcDbArc
 50
15.00000000000007
 51
45.00000000000003
  0
ARC
  5
191
330
5F
100
AcDbEntity
  8
1
  6
Continuous
 62
     7
100
AcDbCircle
 10
466.380823863573
 20
348.3601024645732
 30
0.0
 40
6.000000000000004
100
AcDbArc
 50
99.80290179376699
 51
172.000000000001
  0
ARC
  5
192
330
5F
100
AcDbEntity
  8
1
  6
Continuous
 62
     7
100
AcDbCircle
 10
502.7683943120456
 20
349.5336747281751
 30
0.0
 40
6.000000000000175
100
AcDbArc
 50
8.00409437170076
 51
80.40850751733433
  0
ARC
  5
193
330
5F
100
AcDbEntity
  8
1
  6
Continuous
 62
     7
100
AcDbCircle
 10
460.4824413865018
 20
345.910061314983
 30
0.0
 40
0.4999999999996891
100
AcDbArc
 50
172.000000000014
 51
270.0
  0
ARC
  5
194
330
5F
100
AcDbEntity
  8
1
  6
Continuous
 62
     7
100
AcDbCircle
 10
508.8320314708172
 20
345.910061314983
 30
0.0
 40
0.5
100
AcDbArc
 50
270.0
 51
8.00409437169984
  0
ENDBLK
  5
61
330
5F
100
AcDbEntity
  8
0
100
AcDbBlockEnd
  0
BLOCK
  5
63
330
62
100
AcDbEntity
  8
0
100
AcDbBlockBegin
  2
37-1-13
 70
     0
 10
399.1060269661205
 20
193.5143554248384
 30
0.0
  3
37-1-13
  1

  0
LINE
  5
195
330
62
100
AcDbEntity
  8
1
  6
Continuous
 62
     7
100
AcDbLine
 10
156.977971397163
 20
326.9110372676554
 30
0.0
 11
156.9072571828914
 21
326.9110372676554
 31
0.0
  0
LINE
  5
196
330
62
100
AcDbEntity
  8
1
  6
Continuous
 62
     7
100
AcDbLine
 10
156.9072571828914
 20
333.9817514819269
 30
0.0
 11
156.9072571828914
 21
326.9110372676554
 31
0.0
  0
LINE
  5
197
330
62
100
AcDbEntity
  8
1
  6
Continuous
 62
     7
100
AcDbLine
 10
130.9072571828915
 20
326.9110372676554
 30
0.0
 11
130.8365429686201
 21
326.9110372676554
 31
0.0
  0
LINE
  5
198
330
62
100
AcDbEntity
  8
1
  6
Continuous
 62
     7
100
AcDbLine
 10
130.9072571828915
 20
326.9110372676554
 30
0.0
 11
130.9072571828915
 21
333.9817514819269
 31
0.0
  0
LINE
  5
199
330
62
100
AcDbEntity
  8
1
  6
Continuous
 62
     7
100
AcDbLine
 10
143.9072571828915
 20
334.4110372676554
 30
0.0
 11
156.4072571828915
 21
334.4110372676555
 31
0.0
  0
LINE
  5
19A
330
62
100
AcDbEntity
  8
1
  6
Continuous
 62
     7
100
AcDbLine
 10
149.9072571828915
 20
340.9110372676554
 30
0.0
 11
137.9072571828915
 21
340.9110372676554
 31
0.0
  0
LINE
  5
19B
330
62
100
AcDbEntity
  8
1
  6
Continuous
 62
     7
100
AcDbLine
 10
156.977971397163
 20
326.9110372676554
 30
0.0
 11
130.9072571828915
 21
326.9110372676554
 31
0.0
  0
LINE
  5
19C
330
62
100
AcDbEntity
  8
1
  6
Continuous
 62
     7
100
AcDbLine
 10
131.4072571828915
 20
334.4110372676555
 30
0.0
 11
143.9072571828915
 21
334.4110372676554
 31
0.0
  0
LINE
  5
19D
330
62
100
AcDbEntity
  8
1
  6
Continuous
 62
     7
100
AcDbLine
 10
156.9072571828917
 20
737.285769805164
 30
0.0
 11
156.9072571828917
 21
736.0874450256503
 31
0.0
  0
LINE
  5
19E
330
62
100
AcDbEntity
  8
1
  6
Continuous
 62
     7
100
AcDbLine
 10
490.9072571828916
 20
334.4110372676554
 30
0.0
 11
503.4072571828916
 21
334.4110372676555
 31
0.0
  0
LINE
  5
19F
330
62
100
AcDbEntity
  8
1
  6
Continuous
 62
     7
100
AcDbLine
 10
496.9072571828916
 20
340.9110372676554
 30
0.0
 11
484.9072571828916
 21
340.9110372676554
 31
0.0
  0
LINE
  5
1A0
330
62
100
AcDbEntity
  8
1
  6
Continuous
 62
     7
100
AcDbLine
 10
503.9779713971631
 20
326.9110372676554
 30
0.0
 11
477.8365429686202
 21
326.9110372676554
 31
0.0
  0
LINE
  5
1A1
330
62
100
AcDbEntity
  8
1
  6
Continuous
 62
     7
100
AcDbLine
 10
478.4072571828916
 20
334.4110372676555
 30
0.0
 11
490.9072571828916
 21
334.4110372676554
 31
0.0
  0
LINE
  5
1A2
330
62
100
AcDbEntity
  8
1
  6
Continuous
 62
     7
100
AcDbLine
 10
130.9072571828915
 20
736.0874450256503
 30
0.0
 11
130.9072571828915
 21
737.285769805164
 31
0.0
  0
ARC
  5
1A3
330
62
100
AcDbEntity
  8
1
  6
Continuous
 62
     7
100
AcDbCircle
 10
153.4072571828917
 20
330.4110372676554
 30
0.0
 40
4.999999999999858
100
AcDbArc
 50
45.57299599919726
 51
53.13010235415858
  0
ARC
  5
1A4
330
62
100
AcDbEntity
  8
1
  6
Continuous
 62
     7
100
AcDbCircle
 10
134.4072571828915
 20
330.4110372676554
 30
0.0
 40
5.000000000000091
100
AcDbArc
 50
126.8698976458433
 51
134.4270040008051
  0
ARC
  5
1A5
330
62
100
AcDbEntity
  8
1
  6
Continuous
 62
     7
100
AcDbCircle
 10
169.8137123880067
 20
354.3174924727703
 30
0.0
 40
24.00000000000024
100
AcDbArc
 50
213.9591925000971
 51
236.0408074999018
  0
ARC
  5
1A6
330
62
100
AcDbEntity
  8
1
  6
Continuous
 62
     7
100
AcDbCircle
 10
118.0008019777766
 20
354.3174924727703
 30
0.0
 40
23.99999999999989
100
AcDbArc
 50
303.9591925000976
 51
326.0408074999025
  0
ARC
  5
1A7
330
62
100
AcDbEntity
  8
1
  6
Continuous
 62
     7
100
AcDbCircle
 10
143.9072571828917
 20
742.5100613149829
 30
0.0
 40
14.5000000000002
100
AcDbArc
 50
206.2915552747292
 51
212.4489615404639
  0
ARC
  5
1A8
330
62
100
AcDbEntity
  8
1
  6
Continuous
 62
     7
100
AcDbCircle
 10
500.4072571828916
 20
330.4110372676554
 30
0.0
 40
5.000000000000057
100
AcDbArc
 50
315.572995999195
 51
53.13010235415676
  0
ARC
  5
1A9
330
62
100
AcDbEntity
  8
1
  6
Continuous
 62
     7
100
AcDbCircle
 10
516.8137123880066
 20
354.3174924727703
 30
0.0
 40
24.00000000000005
100
AcDbArc
 50
213.9591925000974
 51
236.0408074999022
  0
ARC
  5
1AA
330
62
100
AcDbEntity
  8
1
  6
Continuous
 62
     7
100
AcDbCircle
 10
481.4072571828916
 20
330.4110372676554
 30
0.0
 40
5.000000000000091
100
AcDbArc
 50
126.8698976458433
 51
224.427004000806
  0
ARC
  5
1AB
330
62
100
AcDbEntity
  8
1
  6
Continuous
 62
     7
100
AcDbCircle
 10
465.0008019777766
 20
354.3174924727703
 30
0.0
 40
23.99999999999997
100
AcDbArc
 50
303.9591925000979
 51
326.0408074999027
  0
ARC
  5
1AC
330
62
100
AcDbEntity
  8
1
  6
Continuous
 62
     7
100
AcDbCircle
 10
143.9072571828917
 20
742.5100613149829
 30
0.0
 40
14.50000000000001
100
AcDbArc
 50
327.5510384595359
 51
333.7084447252705
  0
SPLINE
  5
1AD
330
62
100
AcDbEntity
  8
1
  6
Continuous
 62
     7
100
AcDbSpline
210
0.0
220
0.0
230
1.0
 70
    11
 71
     3
 72
    79
 73
    75
 74
    73
 42
0.000000001
 43
0.0000000001
 44
0.00000001
 40
0.0
 40
0.0
 40
0.0
 40
0.0
 40
0.2803981055172402
 40
0.5607977780798322
 40
0.8427454767818622
 40
1.124697465943197
 40
1.409536444712202
 40
1.694381494092473
 40
1.983071303434024
 40
2.271767836809381
 40
2.564776135645615
 40
2.857790848031832
 40
3.155055692063646
 40
3.452325972452888
 40
3.753284820909727
 40
4.054247736388545
 40
4.357919800455449
 40
4.66159436177163
 40
4.966700742338235
 40
5.27180796317586
 40
5.576915184003132
 40
5.88202156453868
 40
6.185696125802848
 40
6.489368189796205
 40
6.790331105179945
 40
7.091289953518856
 40
7.388560233767707
 40
7.685825077633916
 40
7.978839789830682
 40
8.271848088449305
 40
8.560544621579842
 40
8.84923443064255
 40
9.134079479707356
 40
9.418918458106305
 40
9.700870446812761
 40
9.982818144855996
 40
10.26321781600901
 40
10.54361593035269
 40
10.82401404469621
 40
11.10441371584905
 40
11.38636141389229
 40
11.66831340259869
 40
11.95315238099766
 40
12.2379974300625
 40
12.52668723912512
 40
12.81538377225569
 40
13.10839207087432
 40
13.40140678307112
 40
13.69867162693737
 40
13.99594190718623
 40
14.29690075552504
 40
14.59786367090884
 40
14.90153573490227
 40
15.20521029616648
 40
15.51031667670205
 40
15.81542389752926
 40
16.12053111836687
 40
16.42563749893345
 40
16.72931206024966
 40
17.03298412431665
 40
17.33394703979545
 40
17.63490588825226
 40
17.93217616864153
 40
18.22944101267338
 40
18.52245572505963
 40
18.81546402389586
 40
19.10416055727121
 40
19.39285036661273
 40
19.67769541599298
 40
19.96253439476206
 40
20.24448638392337
 40
20.52643408262536
 40
20.80683375518779
 40
21.08723186070485
 40
21.08723186070485
 40
21.08723186070485
 40
21.08723186070485
 10
479.648926933694
 20
333.9110372676554
 30
0.0
 10
479.5554263936519
 20
333.9084558818493
 30
0.0
 10
479.3684247908495
 20
333.9032931011446
 30
0.0
 10
479.0899403796565
 20
333.8618207525814
 30
0.0
 10
478.8159981825036
 20
333.7959205927396
 30
0.0
 10
478.548070016735
 20
333.7036884837823
 30
0.0
 10
478.2890242288644
 20
333.5866062946535
 30
0.0
 10
478.0398649344474
 20
333.4451300132542
 30
0.0
 10
477.8035549140337
 20
333.2808476674182
 30
0.0
 10
477.5807799198957
 20
333.0943875193393
 30
0.0
 10
477.3743238873898
 20
332.8879630445265
 30
0.0
 10
477.1847111435498
 20
332.6622453502028
 30
0.0
 10
477.0143119674311
 20
332.419954551958
 30
0.0
 10
476.8635991596354
 20
332.161897059214
 30
0.0
 10
476.7343760229263
 20
331.8910698558213
 30
0.0
 10
476.6270963495613
 20
331.6085530024082
 30
0.0
 10
476.542941845828
 20
331.317365031893
 30
0.0
 10
476.4822985718204
 20
331.0189862590518
 30
0.0
 10
476.4457648093738
 20
330.7162252872409
 30
0.0
 10
476.4335457784618
 20
330.4110372770582
 30
0.0
 10
476.4457648090236
 20
330.1058492668736
 30
0.0
 10
476.4822985711192
 20
329.803088295047
 30
0.0
 10
476.5429418447736
 20
329.5047095222042
 30
0.0
 10
476.6270963481508
 20
329.2135215516002
 30
0.0
 10
476.734376021155
 20
328.9310046983842
 30
0.0
 10
476.8635991574985
 20
328.6601774940879
 30
0.0
 10
477.0143119649219
 20
328.4021200044614
 30
0.0
 10
477.1847111406613
 20
328.1598291944052
 30
0.0
 10
477.3743238841123
 20
327.9341115432433
 30
0.0
 10
477.5807799162191
 20
327.7276869082493
 30
0.0
 10
477.8035549099427
 20
327.5412273491011
 30
0.0
 10
478.0398649299244
 20
327.3769428214155
 30
0.0
 10
478.2890242238789
 20
327.2354745783675
 30
0.0
 10
478.548070011239
 20
327.1183625747834
 30
0.0
 10
478.8159981763731
 20
327.0262406563247
 30
0.0
 10
479.0899403725729
 20
326.9599308907669
 30
0.0
 10
479.3684247856096
 20
326.9199792256773
 30
0.0
 10
479.648926933694
 20
326.9065663160562
 30
0.0
 10
479.9294290817782
 20
326.9199792256772
 30
0.0
 10
480.2079134948148
 20
326.959930890767
 30
0.0
 10
480.4818556910147
 20
327.0262406563247
 30
0.0
 10
480.7497838561483
 20
327.1183625747836
 30
0.0
 10
481.0088296435088
 20
327.2354745783673
 30
0.0
 10
481.2579889374633
 20
327.3769428214155
 30
0.0
 10
481.4942989574448
 20
327.5412273491013
 30
0.0
 10
481.7170739511685
 20
327.7276869082491
 30
0.0
 10
481.9235299832752
 20
327.9341115432433
 30
0.0
 10
482.1131427267266
 20
328.1598291944052
 30
0.0
 10
482.2835419024655
 20
328.4021200044614
 30
0.0
 10
482.4342547098892
 20
328.660177494088
 30
0.0
 10
482.5634778462327
 20
328.9310046983841
 30
0.0
 10
482.6707575192369
 20
329.2135215516003
 30
0.0
 10
482.7549120226142
 20
329.5047095222042
 30
0.0
 10
482.8155552962689
 20
329.803088295047
 30
0.0
 10
482.8520890583643
 20
330.1058492668736
 30
0.0
 10
482.8643080889256
 20
330.4110372770583
 30
0.0
 10
482.8520890580141
 20
330.7162252872409
 30
0.0
 10
482.8155552955678
 20
331.0189862590519
 30
0.0
 10
482.7549120215599
 20
331.3173650318932
 30
0.0
 10
482.6707575178263
 20
331.6085530024081
 30
0.0
 10
482.5634778444614
 20
331.8910698558215
 30
0.0
 10
482.4342547077522
 20
332.1618970592139
 30
0.0
 10
482.2835418999566
 20
332.4199545519581
 30
0.0
 10
482.1131427238378
 20
332.6622453502029
 30
0.0
 10
481.9235299799977
 20
332.8879630445263
 30
0.0
 10
481.7170739474917
 20
333.0943875193394
 30
0.0
 10
481.4942989533542
 20
333.2808476674181
 30
0.0
 10
481.2579889329401
 20
333.4451300132544
 30
0.0
 10
481.0088296385231
 20
333.5866062946534
 30
0.0
 10
480.7497838506528
 20
333.7036884837825
 30
0.0
 10
480.4818556848837
 20
333.7959205927395
 30
0.0
 10
480.2079134877315
 20
333.8618207525813
 30
0.0
 10
479.9294290765381
 20
333.9032931011448
 30
0.0
 10
479.7424274737362
 20
333.9084558818493
 30
0.0
 10
479.648926933694
 20
333.9110372676554
 30
0.0
 11
479.648926933694
 21
333.9110372676554
 31
0.0
 11
479.3688469348242
 21
333.8976844823573
 31
0.0
 11
479.0912891264453
 21
333.8578644031981
 31
0.0
 11
478.8172377220665
 21
333.7916048204742
 31
0.0
 11
478.5505948617921
 21
333.6999614404061
 31
0.0
 11
478.2910064372561
 21
333.582713440121
 31
0.0
 11
478.0432728613606
 21
333.4421261809009
 31
0.0
 11
477.8061723767517
 21
333.2774289855489
 31
0.0
 11
477.5847378474169
 21
333.0921928185718
 31
0.0
 11
477.3774544581071
 21
332.8850999416566
 31
0.0
 11
477.1889221743296
 21
332.6607939015583
 31
0.0
 11
477.0178336277559
 21
332.4176990708575
 31
0.0
 11
476.8678525010329
 21
332.1610372676554
 31
0.0
 11
476.7381757211587
 21
331.8894490476843
 31
0.0
 11
476.6312843670813
 21
331.6081077692952
 31
0.0
 11
476.5469183057511
 21
331.3163902857498
 31
0.0
 11
476.4864057755154
 21
331.0188058894896
 31
0.0
 11
476.4498268269524
 21
330.7159001549554
 31
0.0
 11
476.4376187890276
 21
330.4110372676554
 31
0.0
 11
476.4498268269523
 21
330.1061743803554
 31
0.0
 11
476.4864057755154
 21
329.8032686458211
 31
0.0
 11
476.5469183057511
 21
329.5056842495609
 31
0.0
 11
476.6312843670813
 21
329.2139667660155
 31
0.0
 11
476.7381757211586
 21
328.9326254876265
 31
0.0
 11
476.8678525010329
 21
328.6610372676554
 31
0.0
 11
477.0178336277559
 21
328.4043754644532
 31
0.0
 11
477.1889221743296
 21
328.1612806337525
 31
0.0
 11
477.3774544581071
 21
327.9369745936542
 31
0.0
 11
477.5847378474169
 21
327.729881716739
 31
0.0
 11
477.8061723767516
 21
327.544645549762
 31
0.0
 11
478.0432728613606
 21
327.3799483544099
 31
0.0
 11
478.2910064372561
 21
327.23936109519
 31
0.0
 11
478.5505948617921
 21
327.1221130949047
 31
0.0
 11
478.8172377220665
 21
327.0304697148367
 31
0.0
 11
479.0912891264453
 21
326.9642101321127
 31
0.0
 11
479.3688469348242
 21
326.9243900529536
 31
0.0
 11
479.648926933694
 21
326.9110372676554
 31
0.0
 11
479.9290069325636
 21
326.9243900529536
 31
0.0
 11
480.2065647409423
 21
326.9642101321127
 31
0.0
 11
480.4806161453212
 21
327.0304697148367
 31
0.0
 11
480.7472590055955
 21
327.1221130949047
 31
0.0
 11
481.0068474301315
 21
327.2393610951899
 31
0.0
 11
481.254581006027
 21
327.3799483544099
 31
0.0
 11
481.4916814906359
 21
327.544645549762
 31
0.0
 11
481.7131160199707
 21
327.729881716739
 31
0.0
 11
481.9203994092804
 21
327.9369745936542
 31
0.0
 11
482.108931693058
 21
328.1612806337525
 31
0.0
 11
482.2800202396317
 21
328.4043754644533
 31
0.0
 11
482.4300013663548
 21
328.6610372676554
 31
0.0
 11
482.559678146229
 21
328.9326254876265
 31
0.0
 11
482.6665695003063
 21
329.2139667660155
 31
0.0
 11
482.7509355616368
 21
329.5056842495609
 31
0.0
 11
482.8114480918727
 21
329.8032686458211
 31
0.0
 11
482.8480270404355
 21
330.1061743803554
 31
0.0
 11
482.86023507836
 21
330.4110372676554
 31
0.0
 11
482.8480270404355
 21
330.7159001549554
 31
0.0
 11
482.8114480918727
 21
331.0188058894896
 31
0.0
 11
482.7509355616368
 21
331.3163902857498
 31
0.0
 11
482.6665695003063
 21
331.6081077692952
 31
0.0
 11
482.559678146229
 21
331.8894490476843
 31
0.0
 11
482.4300013663548
 21
332.1610372676554
 31
0.0
 11
482.2800202396318
 21
332.4176990708575
 31
0.0
 11
482.108931693058
 21
332.6607939015583
 31
0.0
 11
481.9203994092804
 21
332.8850999416566
 31
0.0
 11
481.7131160199707
 21
333.0921928185718
 31
0.0
 11
481.4916814906359
 21
333.2774289855489
 31
0.0
 11
481.254581006027
 21
333.4421261809009
 31
0.0
 11
481.0068474301315
 21
333.5827134401209
 31
0.0
 11
480.7472590055955
 21
333.6999614404061
 31
0.0
 11
480.4806161453211
 21
333.7916048204742
 31
0.0
 11
480.2065647409423
 21
333.8578644031981
 31
0.0
 11
479.9290069325636
 21
333.8976844823573
 31
0.0
 11
479.648926933694
 21
333.9110372676554
 31
0.0
  0
SPLINE
  5
1AE
330
62
100
AcDbEntity
  8
1
  6
Continuous
 62
     7
100
AcDbSpline
210
0.0
220
0.0
230
1.0
 70
     8
 71
     3
 72
    29
 73
    25
 74
    23
 42
0.000000001
 43
0.0000000001
 44
0.00000001
 40
0.0
 40
0.0
 40
0.0
 40
0.0
 40
0.6069077071336028
 40
1.212222618922251
 40
1.842666699980979
 40
2.474631891987605
 40
3.102420163135043
 40
3.729333881624648
 40
4.271042929453283
 40
4.812985317241417
 40
5.340107969104093
 40
5.866248914948704
 40
6.263874824440405
 40
6.661485222726776
 40
7.280966483141057
 40
7.902596723210173
 40
8.549168899022815
 40
9.195896755585013
 40
9.722415956712135
 40
10.24911839923928
 40
11.07897535377101
 40
11.90732205839673
 40
12.6733170789446
 40
13.44191268485688
 40
13.44191268485688
 40
13.44191268485688
 40
13.44191268485688
 10
490.9072571828916
 20
333.9110372676554
 30
0.0
 10
490.7051973553458
 20
333.9011618942914
 30
0.0
 10
490.3016079956686
 20
333.8814370530788
 30
0.0
 10
489.6899024475847
 20
333.8176467048573
 30
0.0
 10
489.0804853864428
 20
333.6834634071168
 30
0.0
 10
488.4820792114646
 20
333.4830077875905
 30
0.0
 10
487.9075166799907
 20
333.2244466713601
 30
0.0
 10
487.3926188826221
 20
332.9155172822557
 30
0.0
 10
486.943600008866
 20
332.5617003583112
 30
0.0
 10
486.5696584065683
 20
332.1736756907943
 30
0.0
 10
486.2626925052615
 20
331.7367452877193
 30
0.0
 10
486.0553838478221
 20
331.2965313212829
 30
0.0
 10
485.9394812596018
 20
330.8698222012305
 30
0.0
 10
485.888778054724
 20
330.3989067594284
 30
0.0
 10
485.949234377965
 20
329.8499321671876
 30
0.0
 10
486.1621816095944
 20
329.2521861018657
 30
0.0
 10
486.5094185467467
 20
328.7105838567252
 30
0.0
 10
486.9307762723272
 20
328.2699758893353
 30
0.0
 10
487.3781897623072
 20
327.9201019663656
 30
0.0
 10
487.9140261478526
 20
327.591191584024
 30
0.0
 10
488.5789171972382
 20
327.2874529636221
 30
0.0
 10
489.358578257875
 20
327.0626830979058
 30
0.0
 10
490.1409838739793
 20
326.9582962985152
 30
0.0
 10
490.651544340153
 20
326.9268738080092
 30
0.0
 10
490.9072571828916
 20
326.9111359437424
 30
0.0
 11
490.9072571828916
 21
333.9110372676554
 31
0.0
 11
490.3013711611333
 21
333.8758364018931
 31
0.0
 11
489.6999283416518
 21
333.8074794098089
 31
0.0
 11
489.0840371299109
 21
333.6728029239845
 31
0.0
 11
488.4845756683623
 21
333.4727380320395
 31
0.0
 11
487.9128768950421
 21
333.2133567937891
 31
0.0
 11
487.3763116780289
 21
332.8891368390111
 31
0.0
 11
486.9518791392499
 21
332.5525276990301
 31
0.0
 11
486.5771301639694
 21
332.1610372676554
 31
0.0
 11
486.2755742780095
 21
331.7286921064368
 31
0.0
 11
486.0535539641757
 21
331.2516897208207
 31
0.0
 11
485.9497932470325
 21
330.867840690691
 31
0.0
 11
485.9080351492117
 21
330.4724291448767
 31
0.0
 11
485.9726287608329
 21
329.8563246906669
 31
0.0
 11
486.1802469309843
 21
329.2703905203901
 31
0.0
 11
486.5256195318394
 21
328.7237888864761
 31
0.0
 11
486.9698936584424
 21
328.2538129063957
 31
0.0
 11
487.3837640772171
 21
327.9283382588245
 31
0.0
 11
487.8318029244412
 21
327.6514327606448
 31
0.0
 11
488.5865636310788
 21
327.3064706724674
 31
0.0
 11
489.3827199414669
 21
327.0777931827211
 31
0.0
 11
490.1407290720664
 21
326.9674730537066
 31
0.0
 11
490.9072571828916
 21
326.9111359437424
 31
0.0
  0
SPLINE
  5
1AF
330
62
100
AcDbEntity
  8
1
  6
Continuous
 62
     7
100
AcDbSpline
210
0.0
220
0.0
230
1.0
 70
     8
 71
     3
 72
    29
 73
    25
 74
    23
 42
0.000000001
 43
0.0000000001
 44
0.00000001
 40
0.0
 40
0.0
 40
0.0
 40
0.0
 40
0.6069077071334958
 40
1.212222618922244
 40
1.842666699981225
 40
2.474631891988103
 40
3.102420163135386
 40
3.729333881624796
 40
4.271042929453421
 40
4.812985317241476
 40
5.340107969104217
 40
5.866248914948804
 40
6.26387482444049
 40
6.661485222726856
 40
7.280966483141132
 40
7.902596723210209
 40
8.549168899022883
 40
9.19589675558512
 40
9.722415956712197
 40
10.24911839923934
 40
11.07897535377109
 40
11.90732205839685
 40
12.67331707894484
 40
13.441912684857
 40
13.441912684857
 40
13.441912684857
 40
13.441912684857
 10
490.9072571828916
 20
333.9110372676554
 30
0.0
 10
491.1093170104373
 20
333.9011618942914
 30
0.0
 10
491.5129063701145
 20
333.8814370530786
 30
0.0
 10
492.1246119181985
 20
333.8176467048575
 30
0.0
 10
492.7340289793406
 20
333.683463407117
 30
0.0
 10
493.3324351543191
 20
333.4830077875905
 30
0.0
 10
493.9069976857926
 20
333.2244466713601
 30
0.0
 10
494.4218954831614
 20
332.9155172822558
 30
0.0
 10
494.870914356917
 20
332.5617003583111
 30
0.0
 10
495.244855959215
 20
332.1736756907944
 30
0.0
 10
495.5518218605217
 20
331.7367452877193
 30
0.0
 10
495.7591305179612
 20
331.296531321283
 30
0.0
 10
495.8750331061816
 20
330.8698222012305
 30
0.0
 10
495.925736311059
 20
330.3989067594284
 30
0.0
 10
495.8652799878184
 20
329.8499321671877
 30
0.0
 10
495.652332756189
 20
329.2521861018657
 30
0.0
 10
495.3050958190365
 20
328.7105838567252
 30
0.0
 10
494.8837380934562
 20
328.2699758893352
 30
0.0
 10
494.436324603476
 20
327.9201019663656
 30
0.0
 10
493.9004882179308
 20
327.591191584024
 30
0.0
 10
493.235597168545
 20
327.287452963622
 30
0.0
 10
492.4559361079082
 20
327.0626830979059
 30
0.0
 10
491.6735304918038
 20
326.9582962985152
 30
0.0
 10
491.1629700256301
 20
326.9268738080092
 30
0.0
 10
490.9072571828916
 20
326.9111359437424
 30
0.0
 11
490.9072571828916
 21
333.9110372676554
 31
0.0
 11
491.5131432046499
 21
333.875836401893
 31
0.0
 11
492.1145860241314
 21
333.8074794098089
 31
0.0
 11
492.7304772358726
 21
333.6728029239846
 31
0.0
 11
493.3299386974214
 21
333.4727380320395
 31
0.0
 11
493.9016374707415
 21
333.2133567937891
 31
0.0
 11
494.4382026877544
 21
332.8891368390111
 31
0.0
 11
494.8626352265334
 21
332.55252769903
 31
0.0
 11
495.2373842018138
 21
332.1610372676554
 31
0.0
 11
495.5389400877738
 21
331.7286921064368
 31
0.0
 11
495.7609604016076
 21
331.2516897208207
 31
0.0
 11
495.8647211187507
 21
330.867840690691
 31
0.0
 11
495.9064792165715
 21
330.4724291448767
 31
0.0
 11
495.8418856049503
 21
329.8563246906669
 31
0.0
 11
495.634267434799
 21
329.2703905203901
 31
0.0
 11
495.2888948339439
 21
328.7237888864761
 31
0.0
 11
494.8446207073408
 21
328.2538129063957
 31
0.0
 11
494.4307502885662
 21
327.9283382588245
 31
0.0
 11
493.9827114413421
 21
327.6514327606448
 31
0.0
 11
493.2279507347045
 21
327.3064706724673
 31
0.0
 11
492.4317944243163
 21
327.0777931827211
 31
0.0
 11
491.6737852937167
 21
326.9674730537066
 31
0.0
 11
490.9072571828916
 21
326.9111359437424
 31
0.0
  0
SPLINE
  5
1B0
330
62
100
AcDbEntity
  8
1
  6
Continuous
 62
     7
100
AcDbSpline
210
0.0
220
0.0
230
1.0
 70
    11
 71
     3
 72
    79
 73
    75
 74
    73
 42
0.000000001
 43
0.0000000001
 44
0.00000001
 40
0.0
 40
0.0
 40
0.0
 40
0.0
 40
0.2803981055170699
 40
0.560797778079493
 40
0.842745476781523
 40
1.124697465942804
 40
1.409536444711861
 40
1.694381494092132
 40
1.98307130343365
 40
2.271767836809
 40
2.564776135645234
 40
2.857790848031488
 40
3.155055692063334
 40
3.452325972452605
 40
3.753284820909419
 40
4.054247736388217
 40
4.357919800455201
 40
4.661594361771392
 40
4.966700742337983
 40
5.271807963175599
 40
5.576915184002864
 40
5.882021564538391
 40
6.185696125802571
 40
6.489368189796007
 40
6.790331105179747
 40
7.09128995351861
 40
7.388560233767489
 40
7.685825077633729
 40
7.978839789830525
 40
8.271848088449147
 40
8.560544621579684
 40
8.849234430642346
 40
9.134079479707152
 40
9.418918458106152
 40
9.700870446812553
 40
9.982818144855788
 40
10.26321781600858
 40
10.54361593035215
 40
10.82401404469572
 40
11.10441371584834
 40
11.38636141389178
 40
11.66831340259852
 40
11.9531523809975
 40
12.23799743006228
 40
12.5266872391249
 40
12.81538377225548
 40
13.10839207087414
 40
13.40140678307091
 40
13.69867162693716
 40
13.99594190718596
 40
14.29690075552482
 40
14.59786367090862
 40
14.90153573490193
 40
15.20521029616615
 40
15.51031667670175
 40
15.81542389752897
 40
16.12053111836659
 40
16.4256374989332
 40
16.72931206024938
 40
17.03298412431628
 40
17.33394703979506
 40
17.63490588825195
 40
17.93217616864119
 40
18.229441012673
 40
18.52245572505917
 40
18.81546402389549
 40
19.10416055727084
 40
19.39285036661236
 40
19.67769541599261
 40
19.96253439476163
 40
20.24448638392318
 40
20.52643408262549
 40
20.80683375518774
 40
21.08723186070481
 40
21.08723186070481
 40
21.08723186070481
 40
21.08723186070481
 10
502.1655874320896
 20
333.9110372676554
 30
0.0
 10
502.2590879721317
 20
333.9084558818493
 30
0.0
 10
502.4460895749338
 20
333.9032931011447
 30
0.0
 10
502.724573986127
 20
333.8618207525814
 30
0.0
 10
502.9985161832794
 20
333.7959205927397
 30
0.0
 10
503.2664443490482
 20
333.7036884837823
 30
0.0
 10
503.5254901369187
 20
333.5866062946534
 30
0.0
 10
503.7746494313358
 20
333.4451300132544
 30
0.0
 10
504.0109594517497
 20
333.2808476674181
 30
0.0
 10
504.2337344458874
 20
333.0943875193394
 30
0.0
 10
504.4401904783934
 20
332.8879630445264
 30
0.0
 10
504.6298032222334
 20
332.6622453502028
 30
0.0
 10
504.8002023983521
 20
332.419954551958
 30
0.0
 10
504.9509152061479
 20
332.161897059214
 30
0.0
 10
505.0801383428569
 20
331.8910698558213
 30
0.0
 10
505.187418016222
 20
331.6085530024081
 30
0.0
 10
505.2715725199554
 20
331.3173650318931
 30
0.0
 10
505.3322157939634
 20
331.0189862590519
 30
0.0
 10
505.3687495564097
 20
330.7162252872408
 30
0.0
 10
505.3809685873213
 20
330.4110372770583
 30
0.0
 10
505.3687495567598
 20
330.1058492668735
 30
0.0
 10
505.3322157946645
 20
329.8030882950471
 30
0.0
 10
505.2715725210098
 20
329.5047095222041
 30
0.0
 10
505.1874180176327
 20
329.2135215516004
 30
0.0
 10
505.0801383446281
 20
328.9310046983841
 30
0.0
 10
504.9509152082849
 20
328.660177494088
 30
0.0
 10
504.8002024008612
 20
328.4021200044613
 30
0.0
 10
504.629803225122
 20
328.1598291944052
 30
0.0
 10
504.4401904816706
 20
327.9341115432433
 30
0.0
 10
504.2337344495643
 20
327.7276869082493
 30
0.0
 10
504.0109594558404
 20
327.5412273491011
 30
0.0
 10
503.7746494358587
 20
327.3769428214155
 30
0.0
 10
503.5254901419043
 20
327.2354745783674
 30
0.0
 10
503.2664443545439
 20
327.1183625747835
 30
0.0
 10
502.9985161894103
 20
327.0262406563247
 30
0.0
 10
502.7245739932105
 20
326.959930890767
 30
0.0
 10
502.4460895801737
 20
326.9199792256771
 30
0.0
 10
502.1655874320896
 20
326.9065663160563
 30
0.0
 10
501.8850852840055
 20
326.9199792256773
 30
0.0
 10
501.6066008709688
 20
326.9599308907671
 30
0.0
 10
501.3326586747689
 20
327.0262406563245
 30
0.0
 10
501.0647305096351
 20
327.1183625747836
 30
0.0
 10
500.8056847222745
 20
327.2354745783673
 30
0.0
 10
500.5565254283201
 20
327.3769428214155
 30
0.0
 10
500.3202154083383
 20
327.5412273491012
 30
0.0
 10
500.0974404146147
 20
327.7276869082493
 30
0.0
 10
499.8909843825079
 20
327.9341115432432
 30
0.0
 10
499.7013716390568
 20
328.1598291944051
 30
0.0
 10
499.5309724633177
 20
328.4021200044613
 30
0.0
 10
499.3802596558943
 20
328.6601774940881
 30
0.0
 10
499.2510365195505
 20
328.9310046983841
 30
0.0
 10
499.1437568465462
 20
329.2135215516002
 30
0.0
 10
499.0596023431691
 20
329.5047095222041
 30
0.0
 10
498.998959069515
 20
329.8030882950471
 30
0.0
 10
498.962425307419
 20
330.1058492668736
 30
0.0
 10
498.9502062768576
 20
330.4110372770584
 30
0.0
 10
498.9624253077693
 20
330.7162252872408
 30
0.0
 10
498.9989590702158
 20
331.0189862590519
 30
0.0
 10
499.0596023442237
 20
331.3173650318932
 30
0.0
 10
499.143756847957
 20
331.6085530024081
 30
0.0
 10
499.2510365213217
 20
331.8910698558215
 30
0.0
 10
499.3802596580312
 20
332.161897059214
 30
0.0
 10
499.5309724658267
 20
332.419954551958
 30
0.0
 10
499.7013716419453
 20
332.6622453502027
 30
0.0
 10
499.8909843857853
 20
332.8879630445264
 30
0.0
 10
500.0974404182915
 20
333.0943875193393
 30
0.0
 10
500.3202154124289
 20
333.2808476674181
 30
0.0
 10
500.5565254328432
 20
333.4451300132544
 30
0.0
 10
500.8056847272601
 20
333.5866062946534
 30
0.0
 10
501.0647305151306
 20
333.7036884837825
 30
0.0
 10
501.3326586808995
 20
333.7959205927397
 30
0.0
 10
501.6066008780523
 20
333.8618207525812
 30
0.0
 10
501.8850852892454
 20
333.9032931011448
 30
0.0
 10
502.0720868920475
 20
333.9084558818493
 30
0.0
 10
502.1655874320896
 20
333.9110372676554
 30
0.0
 11
502.1655874320896
 21
333.9110372676554
 31
0.0
 11
502.4456674309592
 21
333.8976844823573
 31
0.0
 11
502.7232252393379
 21
333.8578644031981
 31
0.0
 11
502.9972766437168
 21
333.7916048204742
 31
0.0
 11
503.2639195039911
 21
333.6999614404061
 31
0.0
 11
503.5235079285271
 21
333.582713440121
 31
0.0
 11
503.7712415044226
 21
333.4421261809009
 31
0.0
 11
504.0083419890315
 21
333.2774289855489
 31
0.0
 11
504.2297765183663
 21
333.0921928185718
 31
0.0
 11
504.437059907676
 21
332.8850999416566
 31
0.0
 11
504.6255921914536
 21
332.6607939015583
 31
0.0
 11
504.7966807380274
 21
332.4176990708575
 31
0.0
 11
504.9466618647504
 21
332.1610372676554
 31
0.0
 11
505.0763386446246
 21
331.8894490476843
 31
0.0
 11
505.1832299987019
 21
331.6081077692952
 31
0.0
 11
505.2675960600324
 21
331.3163902857498
 31
0.0
 11
505.3281085902682
 21
331.0188058894896
 31
0.0
 11
505.364687538831
 21
330.7159001549554
 31
0.0
 11
505.3768955767556
 21
330.4110372676554
 31
0.0
 11
505.364687538831
 21
330.1061743803554
 31
0.0
 11
505.3281085902682
 21
329.8032686458211
 31
0.0
 11
505.2675960600324
 21
329.5056842495609
 31
0.0
 11
505.1832299987019
 21
329.2139667660155
 31
0.0
 11
505.0763386446246
 21
328.9326254876265
 31
0.0
 11
504.9466618647504
 21
328.6610372676554
 31
0.0
 11
504.7966807380274
 21
328.4043754644532
 31
0.0
 11
504.6255921914536
 21
328.1612806337525
 31
0.0
 11
504.437059907676
 21
327.9369745936543
 31
0.0
 11
504.2297765183663
 21
327.729881716739
 31
0.0
 11
504.0083419890315
 21
327.544645549762
 31
0.0
 11
503.7712415044226
 21
327.3799483544099
 31
0.0
 11
503.5235079285271
 21
327.23936109519
 31
0.0
 11
503.2639195039911
 21
327.1221130949047
 31
0.0
 11
502.9972766437168
 21
327.0304697148367
 31
0.0
 11
502.7232252393379
 21
326.9642101321127
 31
0.0
 11
502.4456674309592
 21
326.9243900529536
 31
0.0
 11
502.1655874320896
 21
326.9110372676554
 31
0.0
 11
501.8855074332199
 21
326.9243900529536
 31
0.0
 11
501.6079496248414
 21
326.9642101321127
 31
0.0
 11
501.3338982204623
 21
327.0304697148366
 31
0.0
 11
501.0672553601877
 21
327.1221130949047
 31
0.0
 11
500.8076669356516
 21
327.2393610951899
 31
0.0
 11
500.5599333597562
 21
327.3799483544099
 31
0.0
 11
500.3228328751474
 21
327.544645549762
 31
0.0
 11
500.1013983458125
 21
327.729881716739
 31
0.0
 11
499.8941149565027
 21
327.9369745936542
 31
0.0
 11
499.7055826727252
 21
328.1612806337525
 31
0.0
 11
499.5344941261515
 21
328.4043754644533
 31
0.0
 11
499.3845129994285
 21
328.6610372676554
 31
0.0
 11
499.2548362195542
 21
328.9326254876265
 31
0.0
 11
499.1479448654769
 21
329.2139667660155
 31
0.0
 11
499.0635788041467
 21
329.5056842495609
 31
0.0
 11
499.003066273911
 21
329.8032686458211
 31
0.0
 11
498.9664873253479
 21
330.1061743803554
 31
0.0
 11
498.9542792874232
 21
330.4110372676554
 31
0.0
 11
498.966487325348
 21
330.7159001549554
 31
0.0
 11
499.003066273911
 21
331.0188058894896
 31
0.0
 11
499.0635788041467
 21
331.3163902857498
 31
0.0
 11
499.1479448654769
 21
331.6081077692952
 31
0.0
 11
499.2548362195541
 21
331.8894490476843
 31
0.0
 11
499.3845129994285
 21
332.1610372676554
 31
0.0
 11
499.5344941261515
 21
332.4176990708575
 31
0.0
 11
499.7055826727252
 21
332.6607939015583
 31
0.0
 11
499.8941149565027
 21
332.8850999416566
 31
0.0
 11
500.1013983458125
 21
333.0921928185718
 31
0.0
 11
500.3228328751473
 21
333.2774289855489
 31
0.0
 11
500.5599333597562
 21
333.4421261809009
 31
0.0
 11
500.8076669356517
 21
333.5827134401209
 31
0.0
 11
501.0672553601877
 21
333.6999614404061
 31
0.0
 11
501.3338982204623
 21
333.7916048204742
 31
0.0
 11
501.6079496248414
 21
333.8578644031981
 31
0.0
 11
501.88550743322
 21
333.8976844823572
 31
0.0
 11
502.1655874320896
 21
333.9110372676554
 31
0.0
  0
SPLINE
  5
1B1
330
62
100
AcDbEntity
  8
1
  6
Continuous
 62
     7
100
AcDbSpline
210
0.0
220
0.0
230
1.0
 70
    11
 71
     3
 72
    79
 73
    75
 74
    73
 42
0.000000001
 43
0.0000000001
 44
0.00000001
 40
0.0
 40
0.0
 40
0.0
 40
0.0
 40
0.3142773791656065
 40
0.6283112355322038
 40
0.9612293716150435
 40
1.293805033313622
 40
1.653399986145022
 40
2.01268770597776
 40
2.402596354380408
 40
2.792277131488595
 40
3.212125598200241
 40
3.631818884954964
 40
4.078023826727158
 40
4.524128912110758
 40
4.990742661800942
 40
5.457297384742916
 40
5.936768749021551
 40
6.416212748943324
 40
6.900062532357367
 40
7.383912315770927
 40
7.863356315690651
 40
8.342827679964374
 40
8.809382402897256
 40
9.275996152571748
 40
9.722101237930465
 40
10.16830617966298
 40
10.58799946636086
 40
11.00784793298805
 40
11.39752870998288
 40
11.78743735822363
 40
12.14672507784556
 40
12.50632003037662
 40
12.83889569166013
 40
13.17181382703817
 40
13.48584768136869
 40
13.80012506793173
 40
14.10756996269015
 40
14.41501485744739
 40
14.7292922440072
 40
15.04332609833228
 40
15.37624423370314
 40
15.70881989497834
 40
16.06841484749996
 40
16.42770256711197
 40
16.81761121534203
 40
17.20729199232646
 40
17.62714045894304
 40
18.04683374563097
 40
18.4930386873536
 40
18.93914377270297
 40
19.40575752236827
 40
19.8723122452929
 40
20.35178360955893
 40
20.83122760947167
 40
21.3150773928792
 40
21.7989271762883
 40
22.27837117620603
 40
22.75784254048125
 40
23.22439726342083
 40
23.69101101310963
 40
24.13711609849274
 40
24.58332104026466
 40
25.00301432701908
 40
25.42286279372919
 40
25.8125435708334
 40
26.20245221922629
 40
26.56173993903904
 40
26.92133489182582
 40
27.25391055342273
 40
27.58682868921214
 40
27.90086254407494
 40
28.21513993143277
 40
28.52258482831859
 40
28.83002971590548
 40
28.83002971590548
 40
28.83002971590548
 40
28.83002971590548
 10
144.8667993656013
 20
330.7177160276556
 30
0.0
 10
144.8853918377541
 20
330.8209875798796
 30
0.0
 10
144.9225623668685
 20
331.0274506644126
 30
0.0
 10
145.0335086300571
 20
331.3295354956703
 30
0.0
 10
145.1805734723585
 20
331.6217303898162
 30
0.0
 10
145.3707280246539
 20
331.9065847563116
 30
0.0
 10
145.5958627530906
 20
332.1760256794007
 30
0.0
 10
145.8604988231737
 20
332.4348230364079
 30
0.0
 10
146.1555590488269
 20
332.6745007009213
 30
0.0
 10
146.4863250963725
 20
332.8998389427488
 30
0.0
 10
146.8423924183257
 20
333.103402463787
 30
0.0
 10
147.2291254905019
 20
333.2888947315795
 30
0.0
 10
147.6357989481672
 20
333.4506648443556
 30
0.0
 10
148.0667751439232
 20
333.5910324050603
 30
0.0
 10
148.5121488282713
 20
333.7062754634708
 30
0.0
 10
148.97436177816
 20
333.7975288017037
 30
0.0
 10
149.4452803708577
 20
333.8627363434448
 30
0.0
 10
149.9248119351409
 20
333.9023268108822
 30
0.0
 10
150.4072571729412
 20
333.9154124138597
 30
0.0
 10
150.8897024107563
 20
333.9023268108983
 30
0.0
 10
151.3692339749934
 20
333.8627363434737
 30
0.0
 10
151.840152567853
 20
333.797528801784
 30
0.0
 10
152.3023655171457
 20
333.7062754635082
 30
0.0
 10
152.7477392036623
 20
333.5910324054648
 30
0.0
 10
153.1787153916554
 20
333.4506648437422
 30
0.0
 10
153.5853888774465
 20
333.2888947350627
 30
0.0
 10
153.9721218505928
 20
333.1034024533774
 30
0.0
 10
154.3281895286981
 20
332.8998389830018
 30
0.0
 10
154.6589543377534
 20
332.6745005658592
 30
0.0
 10
154.9540189950855
 20
332.4348235297749
 30
0.0
 10
155.2186397554274
 20
332.1760240031089
 30
0.0
 10
155.4438292552072
 20
331.9065908437809
 30
0.0
 10
155.6337938974262
 20
331.6217095599404
 30
0.0
 10
155.7815431141272
 20
331.3296116706126
 30
0.0
 10
155.8900717108029
 20
331.0271841566854
 30
0.0
 10
155.9542832381802
 20
330.7209494648801
 30
0.0
 10
155.9768843413232
 20
330.4110372680444
 30
0.0
 10
155.9542832381916
 20
330.1011250712087
 30
0.0
 10
155.8900717108254
 20
329.7948903794044
 30
0.0
 10
155.7815431141606
 20
329.4924628654788
 30
0.0
 10
155.6337938974701
 20
329.2003649761534
 30
0.0
 10
155.443829255261
 20
328.9154836923162
 30
0.0
 10
155.2186397554906
 20
328.6460505329923
 30
0.0
 10
154.9540189951578
 20
328.3872510063313
 30
0.0
 10
154.658954337834
 20
328.147573970253
 30
0.0
 10
154.3281895287869
 20
327.9222355531173
 30
0.0
 10
153.9721218506888
 20
327.7186720827496
 30
0.0
 10
153.5853888775493
 20
327.5331798010737
 30
0.0
 10
153.1787153917643
 20
327.371409692405
 30
0.0
 10
152.7477392037773
 20
327.2310421306942
 30
0.0
 10
152.3023655172663
 20
327.1157990726648
 30
0.0
 10
151.8401525679788
 20
327.024545734405
 30
0.0
 10
151.3692339751246
 20
326.9593381927333
 30
0.0
 10
150.889702410892
 20
326.9197477253291
 30
0.0
 10
150.4072571730851
 20
326.9066621223911
 30
0.0
 10
149.9248119352793
 20
326.9197477253926
 30
0.0
 10
149.4452803710438
 20
326.9593381928659
 30
0.0
 10
148.9743617782018
 20
327.024545734613
 30
0.0
 10
148.5121488288739
 20
327.1157990729711
 30
0.0
 10
148.0667751425202
 20
327.2310421310886
 30
0.0
 10
147.6357989539877
 20
327.3714096930111
 30
0.0
 10
147.2291254702095
 20
327.5331798015579
 30
0.0
 10
146.8423924900535
 20
327.7186720844253
 30
0.0
 10
146.4863248372656
 20
327.9222355514385
 30
0.0
 10
146.1555599403145
 20
328.1475739813123
 30
0.0
 10
145.860495597699
 20
328.3872509731065
 30
0.0
 10
145.5958737503943
 20
328.6460506542161
 30
0.0
 10
145.3706881396377
 20
328.9154832627414
 30
0.0
 10
145.1807100133751
 20
329.2003664583277
 30
0.0
 10
145.0330093894542
 20
329.4924574606677
 30
0.0
 10
144.9243091314457
 20
329.7949093067434
 30
0.0
 10
144.8607261743948
 20
330.1010549058735
 30
0.0
 10
144.8358268540878
 20
330.4112928524667
 30
0.0
 10
144.856475198212
 20
330.6155749700394
 30
0.0
 10
144.8667993656013
 20
330.7177160276556
 30
0.0
 11
144.8667993656013
 21
330.7177160276556
 31
0.0
 11
144.931421112834
 21
331.0252779004164
 31
0.0
 11
145.0366210802752
 21
331.3211667792125
 31
0.0
 11
145.1865142627481
 21
331.6184318440802
 31
0.0
 11
145.3702886932133
 21
331.8956204608254
 31
0.0
 11
145.600345202155
 21
332.1719943609064
 31
0.0
 11
145.8567070452359
 21
332.4237209406263
 31
0.0
 11
146.1588723674938
 21
332.670145111618
 31
0.0
 11
146.4806134122422
 21
332.8899946240663
 31
0.0
 11
146.844771345652
 21
333.0989485292695
 31
0.0
 11
147.2230183916313
 21
333.2808045908514
 31
0.0
 11
147.6374322971434
 21
333.446213069977
 31
0.0
 11
148.0615266902752
 21
333.5846099373997
 31
0.0
 11
148.513169660303
 21
333.7018576197688
 31
0.0
 11
148.970863084755
 21
333.7923564524217
 31
0.0
 11
149.4457712059767
 21
333.8583493729556
 31
0.0
 11
149.9235880805895
 21
333.8978156040444
 31
0.0
 11
150.4072571828916
 21
333.9110372676554
 31
0.0
 11
150.8909262851938
 21
333.8978156040444
 31
0.0
 11
151.3687431598068
 21
333.8583493729556
 31
0.0
 11
151.8436512810284
 21
333.7923564524217
 31
0.0
 11
152.3013447054802
 21
333.7018576197688
 31
0.0
 11
152.7529876755081
 21
333.5846099373997
 31
0.0
 11
153.1770820686399
 21
333.446213069977
 31
0.0
 11
153.591495974152
 21
333.2808045908514
 31
0.0
 11
153.9697430201312
 21
333.0989485292696
 31
0.0
 11
154.333900953541
 21
332.8899946240662
 31
0.0
 11
154.6556419982894
 21
332.6701451116181
 31
0.0
 11
154.9578073205474
 21
332.4237209406264
 31
0.0
 11
155.2141691636284
 21
332.1719943609064
 31
0.0
 11
155.44422567257
 21
331.8956204608255
 31
0.0
 11
155.6280001030352
 21
331.6184318440803
 31
0.0
 11
155.777893285508
 21
331.3211667792126
 31
0.0
 11
155.8830932529492
 21
331.0252779004164
 31
0.0
 11
155.9477150001819
 21
330.7177160276556
 31
0.0
 11
155.9694060482133
 21
330.4110372676555
 31
0.0
 11
155.9477150001819
 21
330.1043585076553
 31
0.0
 11
155.8830932529493
 21
329.7967966348944
 31
0.0
 11
155.7778932855081
 21
329.5009077560983
 31
0.0
 11
155.6280001030352
 21
329.2036426912306
 31
0.0
 11
155.44422567257
 21
328.9264540744854
 31
0.0
 11
155.2141691636284
 21
328.6500801744044
 31
0.0
 11
154.9578073205474
 21
328.3983535946845
 31
0.0
 11
154.6556419982895
 21
328.1519294236928
 31
0.0
 11
154.3339009535411
 21
327.9320799112446
 31
0.0
 11
153.9697430201313
 21
327.7231260060413
 31
0.0
 11
153.5914959741519
 21
327.5412699444595
 31
0.0
 11
153.1770820686397
 21
327.3758614653339
 31
0.0
 11
152.7529876755079
 21
327.2374645979111
 31
0.0
 11
152.3013447054802
 21
327.1202169155421
 31
0.0
 11
151.8436512810284
 21
327.0297180828891
 31
0.0
 11
151.3687431598068
 21
326.9637251623553
 31
0.0
 11
150.8909262851939
 21
326.9242589312665
 31
0.0
 11
150.4072571828916
 21
326.9110372676554
 31
0.0
 11
149.9235880805894
 21
326.9242589312665
 31
0.0
 11
149.4457712059764
 21
326.9637251623553
 31
0.0
 11
148.9708630847549
 21
327.0297180828891
 31
0.0
 11
148.513169660303
 21
327.1202169155421
 31
0.0
 11
148.0615266902753
 21
327.2374645979112
 31
0.0
 11
147.6374322971434
 21
327.3758614653339
 31
0.0
 11
147.2230183916313
 21
327.5412699444595
 31
0.0
 11
146.844771345652
 21
327.7231260060413
 31
0.0
 11
146.4806134122422
 21
327.9320799112446
 31
0.0
 11
146.1588723674938
 21
328.1519294236928
 31
0.0
 11
145.8567070452359
 21
328.3983535946845
 31
0.0
 11
145.600345202155
 21
328.6500801744045
 31
0.0
 11
145.3702886932133
 21
328.9264540744854
 31
0.0
 11
145.1865142627481
 21
329.2036426912305
 31
0.0
 11
145.0366210802752
 21
329.5009077560983
 31
0.0
 11
144.931421112834
 21
329.7967966348943
 31
0.0
 11
144.8667993656013
 21
330.1043585076552
 31
0.0
 11
144.8451083175699
 21
330.4110372676554
 31
0.0
 11
144.8667993656013
 21
330.7177160276556
 31
0.0
  0
SPLINE
  5
1B2
330
62
100
AcDbEntity
  8
1
  6
Continuous
 62
     7
100
AcDbSpline
210
0.0
220
0.0
230
1.0
 70
    11
 71
     3
 72
    79
 73
    75
 74
    73
 42
0.000000001
 43
0.0000000001
 44
0.00000001
 40
0.0
 40
0.0
 40
0.0
 40
0.0
 40
0.314277379165589
 40
0.6283112355321863
 40
0.9612293716150132
 40
1.293805033313576
 40
1.653399986144958
 40
2.012687705977737
 40
2.402596354380363
 40
2.79227713148855
 40
3.212125598200172
 40
3.63181888495492
 40
4.078023826727113
 40
4.524128912110795
 40
4.990742661800979
 40
5.457297384742954
 40
5.93676874902156
 40
6.416212748943333
 40
6.900062532357376
 40
7.383912315770908
 40
7.863356315690603
 40
8.342827679964298
 40
8.809382402897292
 40
9.275996152571784
 40
9.7221012379305
 40
10.16830617966296
 40
10.58799946636079
 40
11.00784793298803
 40
11.39752870998284
 40
11.78743735822361
 40
12.14672507784552
 40
12.50632003037662
 40
12.83889569166012
 40
13.17181382703817
 40
13.48584768136868
 40
13.80012506793173
 40
14.10756996269015
 40
14.41501485744739
 40
14.72929224400721
 40
15.04332609833228
 40
15.37624423370315
 40
15.70881989497838
 40
16.06841484749999
 40
16.42770256711199
 40
16.81761121534203
 40
17.20729199232643
 40
17.62714045894299
 40
18.04683374563088
 40
18.49303868735349
 40
18.93914377270289
 40
19.40575752236827
 40
19.87231224529292
 40
20.35178360955899
 40
20.8312276094717
 40
21.31507739287915
 40
21.79892717628824
 40
22.278371176206
 40
22.75784254048108
 40
23.22439726342064
 40
23.69101101310955
 40
24.13711609849272
 40
24.58332104026469
 40
25.00301432701914
 40
25.42286279372923
 40
25.81254357083339
 40
26.20245221922632
 40
26.56173993903907
 40
26.92133489182585
 40
27.25391055342272
 40
27.58682868921214
 40
27.90086254407494
 40
28.21513993143276
 40
28.52258482831857
 40
28.83002971590546
 40
28.83002971590546
 40
28.83002971590546
 40
28.83002971590546
 10
142.9477150001819
 20
330.7177160276556
 30
0.0
 10
142.929122528029
 20
330.8209875798797
 30
0.0
 10
142.8919519989147
 20
331.0274506644125
 30
0.0
 10
142.7810057357261
 20
331.3295354956703
 30
0.0
 10
142.6339408934247
 20
331.6217303898162
 30
0.0
 10
142.4437863411294
 20
331.9065847563116
 30
0.0
 10
142.2186516126926
 20
332.1760256794007
 30
0.0
 10
141.9540155426096
 20
332.4348230364079
 30
0.0
 10
141.6589553169563
 20
332.6745007009213
 30
0.0
 10
141.3281892694107
 20
332.8998389427488
 30
0.0
 10
140.9721219474575
 20
333.1034024637871
 30
0.0
 10
140.5853888752814
 20
333.2888947315795
 30
0.0
 10
140.178715417616
 20
333.4506648443557
 30
0.0
 10
139.7477392218599
 20
333.5910324050603
 30
0.0
 10
139.3023655375119
 20
333.7062754634708
 30
0.0
 10
138.8401525876233
 20
333.7975288017038
 30
0.0
 10
138.3692339949254
 20
333.8627363434447
 30
0.0
 10
137.8897024306423
 20
333.9023268108822
 30
0.0
 10
137.407257192842
 20
333.9154124138598
 30
0.0
 10
136.9248119550269
 20
333.9023268108984
 30
0.0
 10
136.4452803907899
 20
333.8627363434737
 30
0.0
 10
135.9743617979302
 20
333.797528801784
 30
0.0
 10
135.5121488486375
 20
333.7062754635083
 30
0.0
 10
135.0667751621208
 20
333.5910324054648
 30
0.0
 10
134.6357989741278
 20
333.4506648437423
 30
0.0
 10
134.2291254883367
 20
333.2888947350629
 30
0.0
 10
133.8423925151905
 20
333.1034024533774
 30
0.0
 10
133.4863248370851
 20
332.8998389830019
 30
0.0
 10
133.15556002803
 20
332.674500565859
 30
0.0
 10
132.8604953706977
 20
332.434823529775
 30
0.0
 10
132.5958746103559
 20
332.1760240031088
 30
0.0
 10
132.3706851105759
 20
331.906590843781
 30
0.0
 10
132.180720468357
 20
331.6217095599404
 30
0.0
 10
132.032971251656
 20
331.3296116706126
 30
0.0
 10
131.9244426549804
 20
331.0271841566854
 30
0.0
 10
131.8602311276029
 20
330.7209494648802
 30
0.0
 10
131.8376300244601
 20
330.4110372680443
 30
0.0
 10
131.8602311275915
 20
330.1011250712086
 30
0.0
 10
131.9244426549579
 20
329.7948903794044
 30
0.0
 10
132.0329712516226
 20
329.4924628654788
 30
0.0
 10
132.1807204683131
 20
329.2003649761533
 30
0.0
 10
132.3706851105223
 20
328.9154836923163
 30
0.0
 10
132.5958746102927
 20
328.6460505329924
 30
0.0
 10
132.8604953706255
 20
328.3872510063313
 30
0.0
 10
133.1555600279492
 20
328.1475739702531
 30
0.0
 10
133.4863248369963
 20
327.9222355531172
 30
0.0
 10
133.8423925150944
 20
327.7186720827497
 30
0.0
 10
134.2291254882339
 20
327.5331798010736
 30
0.0
 10
134.6357989740189
 20
327.371409692405
 30
0.0
 10
135.0667751620058
 20
327.231042130694
 30
0.0
 10
135.5121488485169
 20
327.1157990726649
 30
0.0
 10
135.9743617978044
 20
327.0245457344049
 30
0.0
 10
136.4452803906587
 20
326.9593381927332
 30
0.0
 10
136.9248119548912
 20
326.9197477253291
 30
0.0
 10
137.4072571926981
 20
326.9066621223911
 30
0.0
 10
137.8897024305039
 20
326.9197477253926
 30
0.0
 10
138.3692339947394
 20
326.9593381928659
 30
0.0
 10
138.8401525875813
 20
327.0245457346131
 30
0.0
 10
139.3023655369092
 20
327.115799072971
 30
0.0
 10
139.7477392232629
 20
327.2310421310887
 30
0.0
 10
140.1787154117955
 20
327.3714096930112
 30
0.0
 10
140.5853888955738
 20
327.5331798015579
 30
0.0
 10
140.9721218757297
 20
327.7186720844252
 30
0.0
 10
141.3281895285177
 20
327.9222355514385
 30
0.0
 10
141.6589544254687
 20
328.1475739813123
 30
0.0
 10
141.9540187680842
 20
328.3872509731063
 30
0.0
 10
142.218640615389
 20
328.6460506542162
 30
0.0
 10
142.4438262261456
 20
328.9154832627414
 30
0.0
 10
142.6338043524081
 20
329.2003664583278
 30
0.0
 10
142.781504976329
 20
329.4924574606678
 30
0.0
 10
142.8902052343375
 20
329.7949093067433
 30
0.0
 10
142.9537881913883
 20
330.1010549058736
 30
0.0
 10
142.9786875116953
 20
330.4112928524667
 30
0.0
 10
142.9580391675711
 20
330.6155749700394
 30
0.0
 10
142.9477150001819
 20
330.7177160276556
 30
0.0
 11
142.9477150001819
 21
330.7177160276556
 31
0.0
 11
142.8830932529492
 21
331.0252779004164
 31
0.0
 11
142.777893285508
 21
331.3211667792125
 31
0.0
 11
142.6280001030351
 21
331.6184318440802
 31
0.0
 11
142.4442256725699
 21
331.8956204608254
 31
0.0
 11
142.2141691636283
 21
332.1719943609064
 31
0.0
 11
141.9578073205473
 21
332.4237209406263
 31
0.0
 11
141.6556419982894
 21
332.670145111618
 31
0.0
 11
141.333900953541
 21
332.8899946240663
 31
0.0
 11
140.9697430201313
 21
333.0989485292695
 31
0.0
 11
140.591495974152
 21
333.2808045908514
 31
0.0
 11
140.1770820686398
 21
333.446213069977
 31
0.0
 11
139.752987675508
 21
333.5846099373997
 31
0.0
 11
139.3013447054802
 21
333.7018576197688
 31
0.0
 11
138.8436512810281
 21
333.7923564524217
 31
0.0
 11
138.3687431598065
 21
333.8583493729556
 31
0.0
 11
137.8909262851937
 21
333.8978156040444
 31
0.0
 11
137.4072571828916
 21
333.9110372676554
 31
0.0
 11
136.9235880805895
 21
333.8978156040444
 31
0.0
 11
136.4457712059765
 21
333.8583493729556
 31
0.0
 11
135.9708630847549
 21
333.7923564524217
 31
0.0
 11
135.5131696603029
 21
333.7018576197688
 31
0.0
 11
135.0615266902751
 21
333.5846099373997
 31
0.0
 11
134.6374322971433
 21
333.446213069977
 31
0.0
 11
134.2230183916312
 21
333.2808045908514
 31
0.0
 11
133.8447713456521
 21
333.0989485292696
 31
0.0
 11
133.4806134122422
 21
332.8899946240662
 31
0.0
 11
133.1588723674938
 21
332.6701451116181
 31
0.0
 11
132.8567070452358
 21
332.4237209406264
 31
0.0
 11
132.6003452021548
 21
332.1719943609064
 31
0.0
 11
132.3702886932132
 21
331.8956204608255
 31
0.0
 11
132.1865142627481
 21
331.6184318440803
 31
0.0
 11
132.0366210802752
 21
331.3211667792126
 31
0.0
 11
131.931421112834
 21
331.0252779004164
 31
0.0
 11
131.8667993656013
 21
330.7177160276556
 31
0.0
 11
131.8451083175699
 21
330.4110372676555
 31
0.0
 11
131.8667993656013
 21
330.1043585076553
 31
0.0
 11
131.931421112834
 21
329.7967966348944
 31
0.0
 11
132.0366210802752
 21
329.5009077560983
 31
0.0
 11
132.186514262748
 21
329.2036426912306
 31
0.0
 11
132.3702886932133
 21
328.9264540744854
 31
0.0
 11
132.6003452021549
 21
328.6500801744044
 31
0.0
 11
132.8567070452359
 21
328.3983535946845
 31
0.0
 11
133.1588723674937
 21
328.1519294236928
 31
0.0
 11
133.4806134122421
 21
327.9320799112446
 31
0.0
 11
133.8447713456518
 21
327.7231260060413
 31
0.0
 11
134.2230183916312
 21
327.5412699444595
 31
0.0
 11
134.6374322971434
 21
327.3758614653339
 31
0.0
 11
135.0615266902753
 21
327.2374645979111
 31
0.0
 11
135.513169660303
 21
327.1202169155421
 31
0.0
 11
135.9708630847549
 21
327.0297180828891
 31
0.0
 11
136.4457712059765
 21
326.9637251623553
 31
0.0
 11
136.9235880805894
 21
326.9242589312665
 31
0.0
 11
137.4072571828915
 21
326.9110372676554
 31
0.0
 11
137.8909262851938
 21
326.9242589312665
 31
0.0
 11
138.3687431598068
 21
326.9637251623553
 31
0.0
 11
138.8436512810282
 21
327.0297180828891
 31
0.0
 11
139.30134470548
 21
327.1202169155421
 31
0.0
 11
139.7529876755079
 21
327.2374645979112
 31
0.0
 11
140.1770820686397
 21
327.3758614653339
 31
0.0
 11
140.591495974152
 21
327.5412699444595
 31
0.0
 11
140.9697430201313
 21
327.7231260060413
 31
0.0
 11
141.333900953541
 21
327.9320799112446
 31
0.0
 11
141.6556419982894
 21
328.1519294236928
 31
0.0
 11
141.9578073205473
 21
328.3983535946845
 31
0.0
 11
142.2141691636283
 21
328.6500801744045
 31
0.0
 11
142.4442256725699
 21
328.9264540744854
 31
0.0
 11
142.6280001030351
 21
329.2036426912305
 31
0.0
 11
142.777893285508
 21
329.5009077560983
 31
0.0
 11
142.8830932529492
 21
329.7967966348943
 31
0.0
 11
142.9477150001819
 21
330.1043585076552
 31
0.0
 11
142.9694060482132
 21
330.4110372676554
 31
0.0
 11
142.9477150001819
 21
330.7177160276556
 31
0.0
  0
ENDBLK
  5
64
330
62
100
AcDbEntity
  8
0
100
AcDbBlockEnd
  0
BLOCK
  5
66
330
65
100
AcDbEntity
  8
0
100
AcDbBlockBegin
  2
A10-0A-13
 70
     0
 10
490.9072571828916
 20
310.010061314983
 30
0.0
  3
A10-0A-13
  1

  0
POINT
  5
1B3
330
65
100
AcDbEntity
  8
1
 62
     4
100
AcDbPoint
 10
516.2884383409156
 20
292.6610372676552
 30
0.0
  0
LINE
  5
1B4
330
65
100
AcDbEntity
  8
1
  6
Continuous
 62
     7
100
AcDbLine
 10
533.4072571828912
 20
314.1610372676554
 30
0.0
 11
533.4072571828912
 21
288.6610372676554
 31
0.0
  0
LINE
  5
1B5
330
65
100
AcDbEntity
  8
0
  6
Continuous
 62
     7
100
AcDbLine
 10
155.4978275330803
 20
294.9363608241707
 30
0.0
 11
156.9072571828815
 21
285.6430880752243
 31
0.0
  0
LINE
  5
1B6
330
65
100
AcDbEntity
  8
0
  6
Continuous
 62
     7
100
AcDbLine
 10
130.9072571829015
 20
285.6430880752243
 30
0.0
 11
132.3166868327028
 21
294.9363608241707
 31
0.0
  0
LINE
  5
1B7
330
65
100
AcDbEntity
  8
1
  6
Continuous
 62
     7
100
AcDbLine
 10
156.9072571828913
 20
285.6430880752243
 30
0.0
 11
130.9072571828913
 21
285.6430880752242
 31
0.0
  0
LINE
  5
1B8
330
65
100
AcDbEntity
  8
1
  6
Continuous
 62
     7
100
AcDbLine
 10
131.9072571828913
 20
283.9110372676554
 30
0.0
 11
155.9072571828913
 21
283.9110372676554
 31
0.0
  0
LINE
  5
1B9
330
65
100
AcDbEntity
  8
1
  6
Continuous
 62
     7
100
AcDbLine
 10
130.9072571828913
 20
282.6223621330602
 30
0.0
 11
130.9072571828913
 21
285.6430880752242
 31
0.0
  0
LINE
  5
1BA
330
65
100
AcDbEntity
  8
1
  6
Continuous
 62
     2
100
AcDbLine
 10
131.9072571828913
 20
282.9110372676553
 30
0.0
 11
131.9072571828913
 21
283.9110372676554
 31
0.0
  0
LINE
  5
1BB
330
65
100
AcDbEntity
  8
1
  6
Continuous
 62
     2
100
AcDbLine
 10
155.9072571828913
 20
283.9110372676554
 30
0.0
 11
155.9072571828913
 21
282.9110372676553
 31
0.0
  0
LINE
  5
1BC
330
65
100
AcDbEntity
  8
1
  6
Continuous
 62
     2
100
AcDbLine
 10
155.9072571828913
 20
283.9110372676554
 30
0.0
 11
156.9072571828913
 21
285.6430880752243
 31
0.0
  0
LINE
  5
1BD
330
65
100
AcDbEntity
  8
1
  6
Continuous
 62
     7
100
AcDbLine
 10
155.9072571828913
 20
283.9110372676554
 30
0.0
 11
156.9072571828914
 21
283.9110372676554
 31
0.0
  0
LINE
  5
1BE
330
65
100
AcDbEntity
  8
1
  6
Continuous
 62
     7
100
AcDbLine
 10
130.9072571828913
 20
283.9110372676554
 30
0.0
 11
131.9072571828913
 21
283.9110372676554
 31
0.0
  0
LINE
  5
1BF
330
65
100
AcDbEntity
  8
1
  6
Continuous
 62
     2
100
AcDbLine
 10
130.9072571828913
 20
285.6430880752242
 30
0.0
 11
131.9072571828913
 21
283.9110372676554
 31
0.0
  0
LINE
  5
1C0
330
65
100
AcDbEntity
  8
1
  6
Continuous
 62
     7
100
AcDbLine
 10
156.9072571828913
 20
285.6430880752243
 30
0.0
 11
156.9072571828913
 21
282.6223621330604
 31
0.0
  0
LINE
  5
1C1
330
65
100
AcDbEntity
  8
1
  6
Continuous
 62
     7
100
AcDbLine
 10
155.9072571828915
 20
323.6789864600866
 30
0.0
 11
155.9072571828915
 21
306.4110372676561
 31
0.0
  0
LINE
  5
1C2
330
65
100
AcDbEntity
  8
1
  6
Continuous
 62
     7
100
AcDbLine
 10
131.9072571828915
 20
323.6789864600866
 30
0.0
 11
131.9072571828915
 21
306.4110372676553
 31
0.0
  0
LINE
  5
1C3
330
65
100
AcDbEntity
  8
1
  6
Continuous
 62
     7
100
AcDbLine
 10
131.9072571828915
 20
327.0056733828766
 30
0.0
 11
131.9072571828915
 21
323.6789864600866
 31
0.0
  0
LINE
  5
1C4
330
65
100
AcDbEntity
  8
1
  6
Continuous
 62
     2
100
AcDbLine
 10
154.9072571828915
 20
326.9110372676554
 30
0.0
 11
154.9072571828915
 21
325.4110372676554
 31
0.0
  0
LINE
  5
1C5
330
65
100
AcDbEntity
  8
1
  6
Continuous
 62
     7
100
AcDbLine
 10
154.9072571828915
 20
325.4110372676554
 30
0.0
 11
132.9072571828915
 21
325.4110372676554
 31
0.0
  0
LINE
  5
1C6
330
65
100
AcDbEntity
  8
1
  6
Continuous
 62
     7
100
AcDbLine
 10
131.9072571828915
 20
323.6789864600866
 30
0.0
 11
155.9072571828915
 21
323.6789864600866
 31
0.0
  0
LINE
  5
1C7
330
65
100
AcDbEntity
  8
1
  6
Continuous
 62
     7
100
AcDbLine
 10
131.9072571828915
 20
325.4110372676554
 30
0.0
 11
132.9072571828915
 21
325.4110372676554
 31
0.0
  0
LINE
  5
1C8
330
65
100
AcDbEntity
  8
1
  6
Continuous
 62
     2
100
AcDbLine
 10
132.9072571828915
 20
325.4110372676554
 30
0.0
 11
132.9072571828915
 21
326.9223955835992
 31
0.0
  0
LINE
  5
1C9
330
65
100
AcDbEntity
  8
1
  6
Continuous
 62
     2
100
AcDbLine
 10
131.9072571828915
 20
323.6789864600866
 30
0.0
 11
132.9072571828915
 21
325.4110372676554
 31
0.0
  0
LINE
  5
1CA
330
65
100
AcDbEntity
  8
1
  6
Continuous
 62
     7
100
AcDbLine
 10
155.9072571828915
 20
323.6789864600866
 30
0.0
 11
155.9072571828915
 21
326.9110372676554
 31
0.0
  0
LINE
  5
1CB
330
65
100
AcDbEntity
  8
1
  6
Continuous
 62
     7
100
AcDbLine
 10
154.9072571828915
 20
325.4110372676554
 30
0.0
 11
155.9072571828915
 21
325.4110372676554
 31
0.0
  0
LINE
  5
1CC
330
65
100
AcDbEntity
  8
1
  6
Continuous
 62
     2
100
AcDbLine
 10
154.9072571828915
 20
325.4110372676554
 30
0.0
 11
155.9072571828915
 21
323.6789864600866
 31
0.0
  0
LINE
  5
1CD
330
65
100
AcDbEntity
  8
1
  6
Continuous
 62
     2
100
AcDbLine
 10
153.4072571828917
 20
789.2421121225517
 30
0.0
 11
153.4072571828917
 21
800.5100613149829
 31
0.0
  0
LINE
  5
1CE
330
65
100
AcDbEntity
  8
1
  6
Continuous
 62
     2
100
AcDbLine
 10
153.4072571828917
 20
789.2421121225517
 30
0.0
 11
154.4072571828917
 21
787.5100613149829
 31
0.0
  0
LINE
  5
1CF
330
65
100
AcDbEntity
  8
1
  6
Continuous
 62
     7
100
AcDbLine
 10
154.4072571828917
 20
787.5100613149829
 30
0.0
 11
165.9072571828917
 21
787.5100613149829
 31
0.0
  0
LINE
  5
1D0
330
65
100
AcDbEntity
  8
1
  6
Continuous
 62
     7
100
AcDbLine
 10
165.9072571828917
 20
785.5085199818494
 30
0.0
 11
165.9072571828917
 21
787.5100613149829
 31
0.0
  0
LINE
  5
1D1
330
65
100
AcDbEntity
  8
1
  6
Continuous
 62
     7
100
AcDbLine
 10
152.4072571828917
 20
781.0100613149829
 30
0.0
 11
152.4072571828917
 21
766.6502767241295
 31
0.0
  0
LINE
  5
1D2
330
65
100
AcDbEntity
  8
1
  6
Continuous
 62
     7
100
AcDbLine
 10
121.9072571828915
 20
787.5100613149829
 30
0.0
 11
121.9072571828915
 21
785.5085199818494
 31
0.0
  0
LINE
  5
1D3
330
65
100
AcDbEntity
  8
1
  6
Continuous
 62
     7
100
AcDbLine
 10
121.9072571828915
 20
787.5100613149829
 30
0.0
 11
133.4072571828915
 21
787.5100613149829
 31
0.0
  0
LINE
  5
1D4
330
65
100
AcDbEntity
  8
1
  6
Continuous
 62
     2
100
AcDbLine
 10
133.4072571828915
 20
787.5100613149829
 30
0.0
 11
134.4072571828915
 21
789.2421121225517
 31
0.0
  0
LINE
  5
1D5
330
65
100
AcDbEntity
  8
1
  6
Continuous
 62
     2
100
AcDbLine
 10
134.4072571828915
 20
789.2421121225517
 30
0.0
 11
134.4072571828915
 21
800.5100613149829
 31
0.0
  0
LINE
  5
1D6
330
65
100
AcDbEntity
  8
1
  6
Continuous
 62
     7
100
AcDbLine
 10
135.4072571828915
 20
781.0100613149829
 30
0.0
 11
135.4072571828915
 21
766.6502767241294
 31
0.0
  0
LINE
  5
1D7
330
65
100
AcDbEntity
  8
1
  6
Continuous
 62
     7
100
AcDbLine
 10
133.4072571828915
 20
787.5100613149829
 30
0.0
 11
133.4072571828915
 21
789.2421121225517
 31
0.0
  0
LINE
  5
1D8
330
65
100
AcDbEntity
  8
1
  6
Continuous
 62
     7
100
AcDbLine
 10
134.4072571828915
 20
800.5100613149829
 30
0.0
 11
133.4072571828915
 21
799.5100613149829
 31
0.0
  0
LINE
  5
1D9
330
65
100
AcDbEntity
  8
1
  6
Continuous
 62
     7
100
AcDbLine
 10
133.4072571828915
 20
789.2421121225517
 30
0.0
 11
133.4072571828915
 21
799.5100613149829
 31
0.0
  0
LINE
  5
1DA
330
65
100
AcDbEntity
  8
1
  6
Continuous
 62
     7
100
AcDbLine
 10
154.4072571828917
 20
799.5100613149829
 30
0.0
 11
154.4072571828917
 21
789.2421121225517
 31
0.0
  0
LINE
  5
1DB
330
65
100
AcDbEntity
  8
1
  6
Continuous
 62
     7
100
AcDbLine
 10
154.4072571828917
 20
799.5100613149829
 30
0.0
 11
153.4072571828917
 21
800.5100613149829
 31
0.0
  0
LINE
  5
1DC
330
65
100
AcDbEntity
  8
1
  6
Continuous
 62
     7
100
AcDbLine
 10
154.4072571828917
 20
789.2421121225517
 30
0.0
 11
154.4072571828917
 21
787.5100613149829
 31
0.0
  0
LINE
  5
1DD
330
65
100
AcDbEntity
  8
1
  6
Continuous
 62
     7
100
AcDbLine
 10
134.4072571828915
 20
800.5100613149829
 30
0.0
 11
153.4072571828917
 21
800.5100613149829
 31
0.0
  0
LINE
  5
1DE
330
65
100
AcDbEntity
  8
1
  6
Continuous
 62
     7
100
AcDbLine
 10
135.1572571828915
 20
709.5100613149829
 30
0.0
 11
135.1572571828915
 21
718.4905380058079
 31
0.0
  0
LINE
  5
1DF
330
65
100
AcDbEntity
  8
1
  6
Continuous
 62
     7
100
AcDbLine
 10
152.6572571828917
 20
709.5100613149829
 30
0.0
 11
152.6572571828917
 21
718.4905380058079
 31
0.0
  0
LINE
  5
1E0
330
65
100
AcDbEntity
  8
1
  6
Continuous
 62
     7
100
AcDbLine
 10
133.4072571828915
 20
787.5100613149829
 30
0.0
 11
154.4072571828917
 21
787.5100613149829
 31
0.0
  0
LINE
  5
1E1
330
65
100
AcDbEntity
  8
1
  6
Continuous
 62
     7
100
AcDbLine
 10
133.4072571828915
 20
789.2421121225517
 30
0.0
 11
154.4072571828917
 21
789.2421121225517
 31
0.0
  0
LINE
  5
1E2
330
65
100
AcDbEntity
  8
1
  6
Continuous
 62
     7
100
AcDbLine
 10
154.4072571828917
 20
799.5100613149829
 30
0.0
 11
133.4072571828915
 21
799.5100613149829
 31
0.0
  0
LINE
  5
1E3
330
65
100
AcDbEntity
  8
1
  6
Continuous
 62
     7
100
AcDbLine
 10
122.3680276350276
 20
785.0100613149829
 30
0.0
 11
165.4464867307556
 21
785.0100613149829
 31
0.0
  0
LINE
  5
1E4
330
65
100
AcDbEntity
  8
1
  6
Continuous
 62
     7
100
AcDbLine
 10
468.9072571828916
 20
285.6430880752243
 30
0.0
 11
442.9072571828916
 21
285.6430880752242
 31
0.0
  0
LINE
  5
1E5
330
65
100
AcDbEntity
  8
1
  6
Continuous
 62
     7
100
AcDbLine
 10
443.9072571828916
 20
283.9110372676554
 30
0.0
 11
467.9072571828916
 21
283.9110372676554
 31
0.0
  0
LINE
  5
1E6
330
65
100
AcDbEntity
  8
1
  6
Continuous
 62
     7
100
AcDbLine
 10
442.9072571828916
 20
282.9110372676551
 30
0.0
 11
442.9072571828916
 21
285.6430880752242
 31
0.0
  0
LINE
  5
1E7
330
65
100
AcDbEntity
  8
1
  6
Continuous
 62
     2
100
AcDbLine
 10
443.9072571828916
 20
282.9110372676551
 30
0.0
 11
443.9072571828916
 21
283.9110372676554
 31
0.0
  0
LINE
  5
1E8
330
65
100
AcDbEntity
  8
1
  6
Continuous
 62
     7
100
AcDbLine
 10
535.9072571828912
 20
311.9110372676554
 30
0.0
 11
535.9072571828912
 21
290.9110372676554
 31
0.0
  0
LINE
  5
1E9
330
65
100
AcDbEntity
  8
1
  6
Continuous
 62
     7
100
AcDbLine
 10
537.6393079904602
 20
291.9110372676554
 30
0.0
 11
537.6393079904602
 21
310.9110372676554
 31
0.0
  0
LINE
  5
1EA
330
65
100
AcDbEntity
  8
1
  6
Continuous
 62
     7
100
AcDbLine
 10
548.9072571828912
 20
311.9110372676554
 30
0.0
 11
548.9072571828912
 21
290.9110372676554
 31
0.0
  0
LINE
  5
1EB
330
65
100
AcDbEntity
  8
1
  6
Continuous
 62
     7
100
AcDbLine
 10
478.9072571828916
 20
327.0056733828766
 30
0.0
 11
478.9072571828916
 21
323.6789864600866
 31
0.0
  0
LINE
  5
1EC
330
65
100
AcDbEntity
  8
1
  6
Continuous
 62
     2
100
AcDbLine
 10
501.9072571828916
 20
326.9110372676554
 30
0.0
 11
501.9072571828916
 21
325.4110372676554
 31
0.0
  0
LINE
  5
1ED
330
65
100
AcDbEntity
  8
1
  6
Continuous
 62
     7
100
AcDbLine
 10
501.9072571828916
 20
325.4110372676554
 30
0.0
 11
479.9072571828916
 21
325.4110372676554
 31
0.0
  0
LINE
  5
1EE
330
65
100
AcDbEntity
  8
1
  6
Continuous
 62
     7
100
AcDbLine
 10
478.9072571828916
 20
323.6789864600866
 30
0.0
 11
502.9072571828916
 21
323.6789864600866
 31
0.0
  0
LINE
  5
1EF
330
65
100
AcDbEntity
  8
1
  6
Continuous
 62
     7
100
AcDbLine
 10
549.9072571828912
 20
310.9110372676554
 30
0.0
 11
549.9072571828916
 21
291.9110372676554
 31
0.0
  0
LINE
  5
1F0
330
65
100
AcDbEntity
  8
1
  6
Continuous
 62
     7
100
AcDbLine
 10
442.9072571828916
 20
285.6430880752242
 30
0.0
 11
442.9072571828916
 21
285.7709823230153
 31
0.0
  0
LINE
  5
1F1
330
65
100
AcDbEntity
  8
1
  6
Continuous
 62
     7
100
AcDbLine
 10
478.9072571828916
 20
325.4110372676554
 30
0.0
 11
479.9072571828916
 21
325.4110372676554
 31
0.0
  0
LINE
  5
1F2
330
65
100
AcDbEntity
  8
1
  6
Continuous
 62
     2
100
AcDbLine
 10
479.9072571828916
 20
325.4110372676554
 30
0.0
 11
479.9072571828916
 21
326.9223955835992
 31
0.0
  0
LINE
  5
1F3
330
65
100
AcDbEntity
  8
1
  6
Continuous
 62
     2
100
AcDbLine
 10
478.9072571828916
 20
323.6789864600866
 30
0.0
 11
479.9072571828916
 21
325.4110372676554
 31
0.0
  0
LINE
  5
1F4
330
65
100
AcDbEntity
  8
1
  6
Continuous
 62
     7
100
AcDbLine
 10
502.9072571828916
 20
323.6789864600866
 30
0.0
 11
502.9072571828916
 21
327.0056733828765
 31
0.0
  0
LINE
  5
1F5
330
65
100
AcDbEntity
  8
1
  6
Continuous
 62
     7
100
AcDbLine
 10
501.9072571828916
 20
325.4110372676554
 30
0.0
 11
502.9072571828916
 21
325.4110372676554
 31
0.0
  0
LINE
  5
1F6
330
65
100
AcDbEntity
  8
1
  6
Continuous
 62
     2
100
AcDbLine
 10
501.9072571828916
 20
325.4110372676554
 30
0.0
 11
502.9072571828916
 21
323.6789864600866
 31
0.0
  0
LINE
  5
1F7
330
65
100
AcDbEntity
  8
1
  6
Continuous
 62
     7
100
AcDbLine
 10
502.9072571828916
 20
323.6789864600866
 30
0.0
 11
503.1998343825404
 21
323.6789864600866
 31
0.0
  0
LINE
  5
1F8
330
65
100
AcDbEntity
  8
1
  6
Continuous
 62
     7
100
AcDbLine
 10
478.6146799832437
 20
323.6789864600866
 30
0.0
 11
478.9072571828916
 21
323.6789864600866
 31
0.0
  0
LINE
  5
1F9
330
65
100
AcDbEntity
  8
1
  6
Continuous
 62
     2
100
AcDbLine
 10
467.9072571828916
 20
283.9110372676554
 30
0.0
 11
467.9072571828916
 21
282.9110372676551
 31
0.0
  0
LINE
  5
1FA
330
65
100
AcDbEntity
  8
1
  6
Continuous
 62
     2
100
AcDbLine
 10
467.9072571828916
 20
283.9110372676554
 30
0.0
 11
468.9072571828916
 21
285.6430880752243
 31
0.0
  0
LINE
  5
1FB
330
65
100
AcDbEntity
  8
1
  6
Continuous
 62
     7
100
AcDbLine
 10
467.9072571828916
 20
283.9110372676554
 30
0.0
 11
468.9072571828916
 21
283.9110372676554
 31
0.0
  0
LINE
  5
1FC
330
65
100
AcDbEntity
  8
1
  6
Continuous
 62
     7
100
AcDbLine
 10
442.9072571828916
 20
283.9110372676554
 30
0.0
 11
443.9072571828916
 21
283.9110372676554
 31
0.0
  0
LINE
  5
1FD
330
65
100
AcDbEntity
  8
1
  6
Continuous
 62
     2
100
AcDbLine
 10
442.9072571828916
 20
285.6430880752242
 30
0.0
 11
443.9072571828916
 21
283.9110372676554
 31
0.0
  0
LINE
  5
1FE
330
65
100
AcDbEntity
  8
1
  6
Continuous
 62
     7
100
AcDbLine
 10
468.9072571828916
 20
285.7709823230153
 30
0.0
 11
468.9072571828916
 21
285.6430880752243
 31
0.0
  0
LINE
  5
1FF
330
65
100
AcDbEntity
  8
1
  6
Continuous
 62
     7
100
AcDbLine
 10
533.4072571828912
 20
314.1610372676554
 30
0.0
 11
533.4072571828912
 21
323.9110372676554
 31
0.0
  0
LINE
  5
200
330
65
100
AcDbEntity
  8
1
  6
Continuous
 62
     7
100
AcDbLine
 10
535.9072571828916
 20
324.4110372676554
 30
0.0
 11
533.9072571828912
 21
324.4110372676554
 31
0.0
  0
LINE
  5
201
330
65
100
AcDbEntity
  8
1
  6
Continuous
 62
     7
100
AcDbLine
 10
535.9072571828916
 20
324.4110372676554
 30
0.0
 11
535.9072571828912
 21
311.9110372676554
 31
0.0
  0
LINE
  5
202
330
65
100
AcDbEntity
  8
1
  6
Continuous
 62
     2
100
AcDbLine
 10
535.9072571828912
 20
311.9110372676554
 30
0.0
 11
537.6393079904602
 21
310.9110372676554
 31
0.0
  0
LINE
  5
203
330
65
100
AcDbEntity
  8
1
  6
Continuous
 62
     7
100
AcDbLine
 10
549.9072571828912
 20
310.9110372676554
 30
0.0
 11
548.9072571828912
 21
311.9110372676554
 31
0.0
  0
LINE
  5
204
330
65
100
AcDbEntity
  8
1
  6
Continuous
 62
     7
100
AcDbLine
 10
537.6393079904602
 20
310.9110372676554
 30
0.0
 11
537.6393079904602
 21
311.9110372676554
 31
0.0
  0
LINE
  5
205
330
65
100
AcDbEntity
  8
1
  6
Continuous
 62
     7
100
AcDbLine
 10
535.9072571828912
 20
311.9110372676554
 30
0.0
 11
548.9072571828912
 21
311.9110372676554
 31
0.0
  0
LINE
  5
206
330
65
100
AcDbEntity
  8
1
  6
Continuous
 62
     2
100
AcDbLine
 10
537.6393079904602
 20
310.9110372676554
 30
0.0
 11
549.9072571828912
 21
310.9110372676554
 31
0.0
  0
LINE
  5
207
330
65
100
AcDbEntity
  8
1
  6
Continuous
 62
     7
100
AcDbLine
 10
535.9072571828912
 20
290.9110372676554
 30
0.0
 11
535.9072571828916
 21
278.4110372676554
 31
0.0
  0
LINE
  5
208
330
65
100
AcDbEntity
  8
1
  6
Continuous
 62
     7
100
AcDbLine
 10
535.9072571828916
 20
278.4110372676554
 30
0.0
 11
533.9072571828912
 21
278.4110372676554
 31
0.0
  0
LINE
  5
209
330
65
100
AcDbEntity
  8
1
  6
Continuous
 62
     7
100
AcDbLine
 10
533.4072571828912
 20
288.6610372676554
 30
0.0
 11
533.4072571828916
 21
278.9110372676554
 31
0.0
  0
LINE
  5
20A
330
65
100
AcDbEntity
  8
1
  6
Continuous
 62
     7
100
AcDbLine
 10
537.6393079904602
 20
290.9110372676554
 30
0.0
 11
537.6393079904602
 21
291.9110372676554
 31
0.0
  0
LINE
  5
20B
330
65
100
AcDbEntity
  8
1
  6
Continuous
 62
     7
100
AcDbLine
 10
548.9072571828912
 20
290.9110372676554
 30
0.0
 11
549.9072571828916
 21
291.9110372676554
 31
0.0
  0
LINE
  5
20C
330
65
100
AcDbEntity
  8
1
  6
Continuous
 62
     2
100
AcDbLine
 10
549.9072571828916
 20
291.9110372676554
 30
0.0
 11
537.6393079904602
 21
291.9110372676554
 31
0.0
  0
LINE
  5
20D
330
65
100
AcDbEntity
  8
1
  6
Continuous
 62
     2
100
AcDbLine
 10
537.6393079904602
 20
291.9110372676554
 30
0.0
 11
535.9072571828912
 21
290.9110372676554
 31
0.0
  0
LINE
  5
20E
330
65
100
AcDbEntity
  8
1
  6
Continuous
 62
     7
100
AcDbLine
 10
548.9072571828912
 20
290.9110372676554
 30
0.0
 11
535.9072571828912
 21
290.9110372676554
 31
0.0
  0
LINE
  5
20F
330
65
100
AcDbEntity
  8
1
  6
Continuous
 62
     7
100
AcDbLine
 10
468.9072571828916
 20
285.6430880752243
 30
0.0
 11
468.9072571828916
 21
282.9110372676551
 31
0.0
  0
LINE
  5
210
330
65
100
AcDbEntity
  8
1
  6
Continuous
 62
     7
100
AcDbLine
 10
467.8884040000127
 20
289.3369684630931
 30
0.0
 11
468.9072571828916
 21
285.7709823230153
 31
0.0
  0
LINE
  5
211
330
65
100
AcDbEntity
  8
1
  6
Continuous
 62
     7
100
AcDbLine
 10
472.4749485917247
 20
292.9110372676554
 30
0.0
 11
471.6487310729186
 21
292.9110372676554
 31
0.0
  0
LINE
  5
212
330
65
100
AcDbEntity
  8
1
  6
Continuous
 62
     7
100
AcDbLine
 10
513.0869212921594
 20
292.6610372676551
 30
0.0
 11
529.4072571828916
 21
292.6610372676554
 31
0.0
  0
LINE
  5
213
330
65
100
AcDbEntity
  8
1
  6
Continuous
 62
     7
100
AcDbLine
 10
503.1998343825404
 20
323.6789864600866
 30
0.0
 11
503.3519323750817
 21
318.8878996950486
 31
0.0
  0
LINE
  5
214
330
65
100
AcDbEntity
  8
1
  6
Continuous
 62
     7
100
AcDbLine
 10
529.4072571828916
 20
310.1610372676554
 30
0.0
 11
513.0869212921604
 21
310.1610372676555
 31
0.0
  0
LINE
  5
215
330
65
100
AcDbEntity
  8
1
  6
Continuous
 62
     7
100
AcDbLine
 10
443.8860629000725
 20
289.1968023331482
 30
0.0
 11
442.9072571828916
 21
285.7709823230153
 31
0.0
  0
LINE
  5
216
330
65
100
AcDbEntity
  8
1
  6
Continuous
 62
     7
100
AcDbLine
 10
478.4529009556264
 20
318.582947090167
 30
0.0
 11
478.6146799832437
 21
323.6789864600866
 31
0.0
  0
ARC
  5
217
330
65
100
AcDbEntity
  8
1
  6
Continuous
 62
     7
100
AcDbCircle
 10
143.9072571828917
 20
301.4110372676554
 30
0.0
 40
13.00000000000014
100
AcDbArc
 50
157.3801350519604
 51
207.5269448707348
  0
ARC
  5
218
330
65
100
AcDbEntity
  8
1
  6
Continuous
 62
     7
100
AcDbCircle
 10
143.9072571828917
 20
301.4110372676554
 30
0.0
 40
23.00000000000005
100
AcDbArc
 50
121.4489813893801
 51
235.1409490445062
  0
ARC
  5
219
330
65
100
AcDbEntity
  8
1
  6
Continuous
 62
     7
100
AcDbCircle
 10
143.9072571828917
 20
301.4110372676554
 30
0.0
 40
22.99999999999986
100
AcDbArc
 50
304.859050955493
 51
58.55101861062101
  0
ARC
  5
21A
330
65
100
AcDbEntity
  8
1
  6
Continuous
 62
     7
100
AcDbCircle
 10
143.9072571828917
 20
301.4110372676554
 30
0.0
 40
13.00000000000006
100
AcDbArc
 50
332.4730551292643
 51
22.61986494804377
  0
ARC
  5
21B
330
65
100
AcDbEntity
  8
1
  6
Continuous
 62
     7
100
AcDbCircle
 10
116.9072571828915
 20
742.5100613149829
 30
0.0
 40
40.00000000000017
100
AcDbArc
 50
342.542396876278
 51
351.551598825078
  0
ARC
  5
21C
330
65
100
AcDbEntity
  8
1
  6
Continuous
 62
     7
100
AcDbCircle
 10
170.9072571828917
 20
742.5100613149829
 30
0.0
 40
40.00000000000004
100
AcDbArc
 50
188.4484011749221
 51
197.4576031237221
  0
ARC
  5
21D
330
65
100
AcDbEntity
  8
1
  6
Continuous
 62
     7
100
AcDbCircle
 10
143.9072571828917
 20
707.5100613149832
 30
0.0
 40
12.99999999999995
100
AcDbArc
 50
132.3049897071843
 51
47.69501029281641
  0
ARC
  5
21E
330
65
100
AcDbEntity
  8
1
  6
Continuous
 62
     7
100
AcDbCircle
 10
116.9072571828915
 20
742.5100613149829
 30
0.0
 40
40.00000000000017
100
AcDbArc
 50
339.9319453791812
 51
342.542396876278
  0
ARC
  5
21F
330
65
100
AcDbEntity
  8
1
  6
Continuous
 62
     7
100
AcDbCircle
 10
170.9072571828917
 20
742.5100613149829
 30
0.0
 40
39.99999999999998
100
AcDbArc
 50
197.4576031237221
 51
200.068054620819
  0
ARC
  5
220
330
65
100
AcDbEntity
  8
1
  6
Continuous
 62
     7
100
AcDbCircle
 10
131.4072571828915
 20
781.0100613149829
 30
0.0
 40
4.0
100
AcDbArc
 50
0.0
 51
90.0
  0
ARC
  5
221
330
65
100
AcDbEntity
  8
1
  6
Continuous
 62
     7
100
AcDbCircle
 10
156.4072571828917
 20
781.0100613149829
 30
0.0
 40
4.0
100
AcDbArc
 50
90.0
 51
180.0
  0
ARC
  5
222
330
65
100
AcDbEntity
  8
1
  6
Continuous
 62
     7
100
AcDbCircle
 10
469.4574326779649
 20
318.8685175116812
 30
0.0
 40
9.000000000003668
100
AcDbArc
 50
272.1940450997747
 51
358.1816970355409
  0
ARC
  5
223
330
65
100
AcDbEntity
  8
1
  6
Continuous
 62
     7
100
AcDbCircle
 10
471.6779019445527
 20
260.911037267196
 30
0.0
 40
49.00000000045974
100
AcDbArc
 50
92.19404509977853
 51
99.3606621203044
  0
ARC
  5
224
330
65
100
AcDbEntity
  8
1
  6
Continuous
 62
     7
100
AcDbCircle
 10
467.611687756884
 20
285.5781388845904
 30
0.0
 40
24.00000000000223
100
AcDbArc
 50
99.36066212030381
 51
171.3280051740366
  0
ARC
  5
225
330
65
100
AcDbEntity
  8
1
  6
Continuous
 62
     7
100
AcDbCircle
 10
529.4072571828916
 20
314.1610372676554
 30
0.0
 40
4.0
100
AcDbArc
 50
270.0
 51
0.0
  0
ARC
  5
226
330
65
100
AcDbEntity
  8
1
  6
Continuous
 62
     7
100
AcDbCircle
 10
529.4072571828916
 20
288.6610372676554
 30
0.0
 40
3.999999999999545
100
AcDbArc
 50
0.0
 51
90.0
  0
ARC
  5
227
330
65
100
AcDbEntity
  8
1
  6
Continuous
 62
     7
100
AcDbCircle
 10
471.8662918073125
 20
288.9169582340316
 30
0.0
 40
3.999999999997895
100
AcDbArc
 50
93.11786651757014
 51
173.972686104897
  0
ARC
  5
228
330
65
100
AcDbEntity
  8
1
  6
Continuous
 62
     7
100
AcDbCircle
 10
490.9072571828916
 20
317.4110372676553
 30
0.0
 40
28.99999999999995
100
AcDbArc
 50
242.5607598493187
 51
291.6947160223858
  0
ARC
  5
229
330
65
100
AcDbEntity
  8
0
  6
Continuous
 62
     7
100
AcDbCircle
 10
136.7832266813632
 20
292.6764590779462
 30
0.0
 40
18.8505554544602
100
AcDbArc
 50
6.88547454720868
 51
55.91505080663205
  0
ARC
  5
22A
330
65
100
AcDbEntity
  8
0
  6
Continuous
 62
     7
100
AcDbCircle
 10
151.0312876844198
 20
292.6764590779462
 30
0.0
 40
18.8505554544602
100
AcDbArc
 50
124.0849491933677
 51
173.1145254527913
  0
ARC
  5
22B
330
65
100
AcDbEntity
  8
1
  6
Continuous
 62
     7
100
AcDbCircle
 10
179.4072571828917
 20
766.6502767241295
 30
0.0
 40
27.0
100
AcDbArc
 50
180.0
 51
198.5229501946864
  0
ARC
  5
22C
330
65
100
AcDbEntity
  8
1
  6
Continuous
 62
     7
100
AcDbCircle
 10
108.4072571828916
 20
766.6502767241294
 30
0.0
 40
27.00000000000017
100
AcDbArc
 50
341.4770498053139
 51
0.0
  0
ARC
  5
22D
330
65
100
AcDbEntity
  8
1
  6
Continuous
 62
     7
100
AcDbCircle
 10
165.4072571828917
 20
785.5085199818494
 30
0.0
 40
0.4999999999999883
100
AcDbArc
 50
274.4999999999972
 51
0.0
  0
ARC
  5
22E
330
65
100
AcDbEntity
  8
1
  6
Continuous
 62
     7
100
AcDbCircle
 10
122.4072571828915
 20
785.5085199818494
 30
0.0
 40
0.5
100
AcDbArc
 50
180.0
 51
265.5000000000028
  0
ARC
  5
22F
330
65
100
AcDbEntity
  8
1
  6
Continuous
 62
     7
100
AcDbCircle
 10
182.6572571828917
 20
718.4905380058079
 30
0.0
 40
30.0
100
AcDbArc
 50
159.9319453791806
 51
180.0
  0
ARC
  5
230
330
65
100
AcDbEntity
  8
1
  6
Continuous
 62
     7
100
AcDbCircle
 10
105.1572571828916
 20
718.4905380058079
 30
0.0
 40
29.9999999999999
100
AcDbArc
 50
0.0
 51
20.06805462081931
  0
ARC
  5
231
330
65
100
AcDbEntity
  8
1
  6
Continuous
 62
     7
100
AcDbCircle
 10
133.1572571828915
 20
709.5100613149829
 30
0.0
 40
2.0
100
AcDbArc
 50
270.0
 51
0.0
  0
ARC
  5
232
330
65
100
AcDbEntity
  8
1
  6
Continuous
 62
     7
100
AcDbCircle
 10
154.6572571828917
 20
709.5100613149829
 30
0.0
 40
2.0
100
AcDbArc
 50
180.0
 51
270.0
  0
ARC
  5
233
330
65
100
AcDbEntity
  8
1
  6
Continuous
 62
     7
100
AcDbCircle
 10
533.9072571828912
 20
323.9110372676554
 30
0.0
 40
0.5
100
AcDbArc
 50
90.0
 51
180.0
  0
ARC
  5
234
330
65
100
AcDbEntity
  8
1
  6
Continuous
 62
     7
100
AcDbCircle
 10
533.9072571828912
 20
278.9110372676554
 30
0.0
 40
0.4999999999995453
100
AcDbArc
 50
180.0
 51
270.0
  0
ARC
  5
235
330
65
100
AcDbEntity
  8
1
  6
Continuous
 62
     7
100
AcDbCircle
 10
472.4749485917247
 20
281.9110372676554
 30
0.0
 40
11.00000000000003
100
AcDbArc
 50
62.56075984931851
 51
90.0
  0
ARC
  5
236
330
65
100
AcDbEntity
  8
1
  6
Continuous
 62
     7
100
AcDbCircle
 10
513.0869212921604
 20
261.6610372676551
 30
0.0
 40
31.0
100
AcDbArc
 50
90.00000000000168
 51
111.6947160223873
  0
ARC
  5
237
330
65
100
AcDbEntity
  8
1
  6
Continuous
 62
     7
100
AcDbCircle
 10
512.3474006527387
 20
319.1734701165616
 30
0.0
 40
8.999999999998678
100
AcDbArc
 50
181.8183029644523
 51
268.0736638597968
  0
ARC
  5
238
330
65
100
AcDbEntity
  8
1
  6
Continuous
 62
     7
100
AcDbCircle
 10
513.0869212921604
 20
341.1610372676555
 30
0.0
 40
30.99999999999997
100
AcDbArc
 50
268.0736638597942
 51
270.0
  0
ENDBLK
  5
67
330
65
100
AcDbEntity
  8
0
100
AcDbBlockEnd
  0
BLOCK
  5
69
330
68
100
AcDbEntity
  8
0
100
AcDbBlockBegin
  2
M280__1
 70
     0
 10
620.1579826709964
 20
306.5349408486432
 30
0.0
  3
M280__1
  1

  0
LINE
  5
239
330
68
100
AcDbEntity
  8
1
  6
DASH_CENTER
 62
     2
100
AcDbLine
 10
249.907257182893
 20
219.010061314983
 30
0.0
 11
249.907257182893
 21
222.010061314983
 31
0.0
  0
ENDBLK
  5
6A
330
68
100
AcDbEntity
  8
0
100
AcDbBlockEnd
  0
BLOCK
  5
6D
330
6B
100
AcDbEntity
  8
0
100
AcDbBlockBegin
  2
EA10
 70
     0
 10
483.2779828041317
 20
115.1758298943824
 30
0.0
  3
EA10
  1

  0
INSERT
  5
6C
330
6B
100
AcDbEntity
  8
0
100
AcDbBlockReference
  2
M280__1
 10
620.1579826709964
 20
306.5349408486432
 30
0.0
  0
ENDBLK
  5
6E
330
6B
100
AcDbEntity
  8
0
100
AcDbBlockEnd
  0
BLOCK
  5
71
330
6F
100
AcDbEntity
  8
0
100
AcDbBlockBegin
  2
EA10-61VX
 70
     0
 10
246.3027444392545
 20
330.2669746126344
 30
0.0
  3
EA10-61VX
  1

  0
INSERT
  5
70
330
6F
100
AcDbEntity
  8
0
100
AcDbBlockReference
  2
EA10
 10
483.2779828041317
 20
115.1758298943824
 30
0.0
  0
ENDBLK
  5
72
330
6F
100
AcDbEntity
  8
0
100
AcDbBlockEnd
  0
BLOCK
  5
75
330
73
100
AcDbEntity
  8
0
100
AcDbBlockBegin
  2
EA10-13_K__2
 70
     0
 10
630.0000000000007
 20
0.0
 30
0.0
  3
EA10-13_K__2
  1

  0
INSERT
  5
74
330
73
100
AcDbEntity
  8
0
100
AcDbBlockReference
  2
EA10-61VX
 10
246.3027444392545
 20
330.2669746126344
 30
0.0
  0
ENDBLK
  5
76
330
73
100
AcDbEntity
  8
0
100
AcDbBlockEnd
  0
BLOCK
  5
78
330
77
100
AcDbEntity
  8
0
100
AcDbBlockBegin
  2
30-18A
 70
     0
 10
163.646643277569
 20
172.1234375884372
 30
0.0
  3
30-18A
  1

  0
LINE
  5
23A
330
77
100
AcDbEntity
  8
1
  6
Continuous
 62
     7
100
AcDbLine
 10
156.4038814216429
 20
215.5110372676549
 30
0.0
 11
156.4038814216429
 21
221.0110372676549
 31
0.0
  0
LINE
  5
23B
330
77
100
AcDbEntity
  8
1
  6
Continuous
 62
     7
100
AcDbLine
 10
156.4038814216429
 20
215.5110372676549
 30
0.0
 11
155.6111039565293
 21
212.7363161397575
 31
0.0
  0
LINE
  5
23C
330
77
100
AcDbEntity
  8
1
  6
Continuous
 62
     7
100
AcDbLine
 10
155.403881421643
 20
222.0110372676549
 30
0.0
 11
143.903881421643
 21
222.0110372676549
 31
0.0
  0
LINE
  5
23D
330
77
100
AcDbEntity
  8
1
  6
Continuous
 62
     7
100
AcDbLine
 10
151.903881421643
 20
212.0110372676549
 30
0.0
 11
143.903881421643
 21
212.0110372676549
 31
0.0
  0
LINE
  5
23E
330
77
100
AcDbEntity
  8
1
  6
Continuous
 62
     7
100
AcDbLine
 10
143.903881421643
 20
215.5110372676549
 30
0.0
 11
156.4038814216429
 21
215.5110372676549
 31
0.0
  0
LINE
  5
23F
330
77
100
AcDbEntity
  8
1
  6
Continuous
 62
     7
100
AcDbLine
 10
153.403881421643
 20
212.0110372676549
 30
0.0
 11
151.903881421643
 21
212.0110372676549
 31
0.0
  0
LINE
  5
240
330
77
100
AcDbEntity
  8
1
  6
Continuous
 62
     7
100
AcDbLine
 10
154.6495800088886
 20
212.0110372676549
 30
0.0
 11
153.403881421643
 21
212.0110372676549
 31
0.0
  0
LINE
  5
241
330
77
100
AcDbEntity
  8
1
  6
Continuous
 62
     7
100
AcDbLine
 10
131.4038814216431
 20
221.0110372676551
 30
0.0
 11
131.403881421643
 21
215.511037267655
 31
0.0
  0
LINE
  5
242
330
77
100
AcDbEntity
  8
1
  6
Continuous
 62
     7
100
AcDbLine
 10
132.1966588867565
 20
212.7363161397575
 30
0.0
 11
131.403881421643
 21
215.511037267655
 31
0.0
  0
LINE
  5
243
330
77
100
AcDbEntity
  8
1
  6
Continuous
 62
     7
100
AcDbLine
 10
143.903881421643
 20
222.0110372676549
 30
0.0
 11
132.403881421643
 21
222.0110372676549
 31
0.0
  0
LINE
  5
244
330
77
100
AcDbEntity
  8
1
  6
Continuous
 62
     7
100
AcDbLine
 10
143.903881421643
 20
212.0110372676549
 30
0.0
 11
135.903881421643
 21
212.0110372676549
 31
0.0
  0
LINE
  5
245
330
77
100
AcDbEntity
  8
1
  6
Continuous
 62
     7
100
AcDbLine
 10
131.403881421643
 20
215.511037267655
 30
0.0
 11
143.903881421643
 21
215.5110372676549
 31
0.0
  0
LINE
  5
246
330
77
100
AcDbEntity
  8
1
  6
Continuous
 62
     7
100
AcDbLine
 10
135.903881421643
 20
212.0110372676549
 30
0.0
 11
134.403881421643
 21
212.0110372676549
 31
0.0
  0
LINE
  5
247
330
77
100
AcDbEntity
  8
1
  6
Continuous
 62
     7
100
AcDbLine
 10
134.403881421643
 20
212.0110372676549
 30
0.0
 11
133.1581828343974
 21
212.0110372676549
 31
0.0
  0
LINE
  5
248
330
77
100
AcDbEntity
  8
1
  6
Continuous
 62
     7
100
AcDbLine
 10
262.4038814216441
 20
215.5110372676549
 30
0.0
 11
262.4038814216441
 21
221.0110372676549
 31
0.0
  0
LINE
  5
249
330
77
100
AcDbEntity
  8
1
  6
Continuous
 62
     7
100
AcDbLine
 10
262.4038814216441
 20
215.5110372676549
 30
0.0
 11
261.6111039565307
 21
212.7363161397575
 31
0.0
  0
LINE
  5
24A
330
77
100
AcDbEntity
  8
1
  6
Continuous
 62
     7
100
AcDbLine
 10
261.4038814216441
 20
222.0110372676549
 30
0.0
 11
249.9038814216441
 21
222.0110372676549
 31
0.0
  0
LINE
  5
24B
330
77
100
AcDbEntity
  8
1
  6
Continuous
 62
     7
100
AcDbLine
 10
257.9038814216441
 20
212.0110372676549
 30
0.0
 11
249.9038814216441
 21
212.0110372676549
 31
0.0
  0
LINE
  5
24C
330
77
100
AcDbEntity
  8
1
  6
Continuous
 62
     7
100
AcDbLine
 10
249.9038814216441
 20
215.5110372676549
 30
0.0
 11
262.4038814216441
 21
215.5110372676549
 31
0.0
  0
LINE
  5
24D
330
77
100
AcDbEntity
  8
1
  6
Continuous
 62
     7
100
AcDbLine
 10
259.4038814216441
 20
212.0110372676549
 30
0.0
 11
257.9038814216441
 21
212.0110372676549
 31
0.0
  0
LINE
  5
24E
330
77
100
AcDbEntity
  8
1
  6
Continuous
 62
     7
100
AcDbLine
 10
260.6495800088898
 20
212.0110372676549
 30
0.0
 11
259.4038814216441
 21
212.0110372676549
 31
0.0
  0
LINE
  5
24F
330
77
100
AcDbEntity
  8
1
  6
Continuous
 62
     7
100
AcDbLine
 10
237.4038814216443
 20
221.0110372676551
 30
0.0
 11
237.4038814216441
 21
215.511037267655
 31
0.0
  0
LINE
  5
250
330
77
100
AcDbEntity
  8
1
  6
Continuous
 62
     7
100
AcDbLine
 10
238.1966588867578
 20
212.7363161397575
 30
0.0
 11
237.4038814216441
 21
215.511037267655
 31
0.0
  0
LINE
  5
251
330
77
100
AcDbEntity
  8
1
  6
Continuous
 62
     7
100
AcDbLine
 10
249.9038814216441
 20
222.0110372676549
 30
0.0
 11
238.4038814216443
 21
222.0110372676549
 31
0.0
  0
LINE
  5
252
330
77
100
AcDbEntity
  8
1
  6
Continuous
 62
     7
100
AcDbLine
 10
249.9038814216441
 20
212.0110372676549
 30
0.0
 11
241.9038814216443
 21
212.0110372676549
 31
0.0
  0
LINE
  5
253
330
77
100
AcDbEntity
  8
1
  6
Continuous
 62
     7
100
AcDbLine
 10
237.4038814216441
 20
215.511037267655
 30
0.0
 11
249.9038814216441
 21
215.5110372676549
 31
0.0
  0
LINE
  5
254
330
77
100
AcDbEntity
  8
1
  6
Continuous
 62
     7
100
AcDbLine
 10
241.9038814216443
 20
212.0110372676549
 30
0.0
 11
240.4038814216443
 21
212.0110372676549
 31
0.0
  0
LINE
  5
255
330
77
100
AcDbEntity
  8
1
  6
Continuous
 62
     7
100
AcDbLine
 10
240.4038814216443
 20
212.0110372676549
 30
0.0
 11
239.1581828343985
 21
212.0110372676549
 31
0.0
  0
ARC
  5
256
330
77
100
AcDbEntity
  8
1
  6
Continuous
 62
     7
100
AcDbCircle
 10
155.403881421643
 20
221.0110372676549
 30
0.0
 40
0.9999999999998863
100
AcDbArc
 50
0.0
 51
90.0
  0
ARC
  5
257
330
77
100
AcDbEntity
  8
1
  6
Continuous
 62
     7
100
AcDbCircle
 10
154.6495800088886
 20
213.0110372676549
 30
0.0
 40
1.0
100
AcDbArc
 50
270.0
 51
318.9643661455332
  0
ARC
  5
258
330
77
100
AcDbEntity
  8
1
  6
Continuous
 62
     7
100
AcDbCircle
 10
154.6495800088886
 20
213.0110372676549
 30
0.0
 40
1.000000000000085
100
AcDbArc
 50
318.9643661455332
 51
344.0546040990736
  0
ARC
  5
259
330
77
100
AcDbEntity
  8
1
  6
Continuous
 62
     7
100
AcDbCircle
 10
132.403881421643
 20
221.0110372676549
 30
0.0
 40
1.0
100
AcDbArc
 50
90.0
 51
179.9999999999886
  0
ARC
  5
25A
330
77
100
AcDbEntity
  8
1
  6
Continuous
 62
     7
100
AcDbCircle
 10
133.1581828343974
 20
213.0110372676549
 30
0.0
 40
1.000000000000064
100
AcDbArc
 50
221.0356338544678
 51
270.0
  0
ARC
  5
25B
330
77
100
AcDbEntity
  8
1
  6
Continuous
 62
     7
100
AcDbCircle
 10
133.1581828343974
 20
213.0110372676549
 30
0.0
 40
1.000000000000081
100
AcDbArc
 50
195.9453959009233
 51
221.0356338544678
  0
ARC
  5
25C
330
77
100
AcDbEntity
  8
1
  6
Continuous
 62
     7
100
AcDbCircle
 10
261.4038814216441
 20
221.0110372676549
 30
0.0
 40
1.0
100
AcDbArc
 50
0.0
 51
90.0
  0
ARC
  5
25D
330
77
100
AcDbEntity
  8
1
  6
Continuous
 62
     7
100
AcDbCircle
 10
260.6495800088898
 20
213.0110372676549
 30
0.0
 40
1.0
100
AcDbArc
 50
270.0
 51
318.9643661455278
  0
ARC
  5
25E
330
77
100
AcDbEntity
  8
1
  6
Continuous
 62
     7
100
AcDbCircle
 10
260.6495800088898
 20
213.0110372676549
 30
0.0
 40
0.9999999999999778
100
AcDbArc
 50
318.9643661455278
 51
344.0546040990767
  0
ARC
  5
25F
330
77
100
AcDbEntity
  8
1
  6
Continuous
 62
     7
100
AcDbCircle
 10
238.4038814216443
 20
221.0110372676549
 30
0.0
 40
1.0
100
AcDbArc
 50
90.0
 51
179.9999999999886
  0
ARC
  5
260
330
77
100
AcDbEntity
  8
1
  6
Continuous
 62
     7
100
AcDbCircle
 10
239.1581828343985
 20
213.0110372676549
 30
0.0
 40
0.9999999999999348
100
AcDbArc
 50
221.0356338544743
 51
270.0
  0
ARC
  5
261
330
77
100
AcDbEntity
  8
1
  6
Continuous
 62
     7
100
AcDbCircle
 10
239.1581828343985
 20
213.0110372676549
 30
0.0
 40
0.9999999999998895
100
AcDbArc
 50
195.9453959009264
 51
221.0356338544743
  0
ENDBLK
  5
79
330
77
100
AcDbEntity
  8
0
100
AcDbBlockEnd
  0
BLOCK
  5
7C
330
7A
100
AcDbEntity
  8
0
100
AcDbBlockBegin
  2
M280__3
 70
     0
 10
638.9479826709967
 20
196.5359168013149
 30
0.0
  3
M280__3
  1

  0
INSERT
  5
7B
330
7A
100
AcDbEntity
  8
1
100
AcDbBlockReference
  2
30-18A
 10
163.646643277569
 20
172.1234375884372
 30
0.0
  0
ENDBLK
  5
7D
330
7A
100
AcDbEntity
  8
0
100
AcDbBlockEnd
  0
BLOCK
  5
7F
330
7E
100
AcDbEntity
  8
0
100
AcDbBlockBegin
  2
EA10-9
 70
     0
 10
126.884149388106
 20
245.1587409748141
 30
0.0
  3
EA10-9
  1

  0
LINE
  5
262
330
7E
100
AcDbEntity
  8
1
  6
Continuous
 62
     7
100
AcDbLine
 10
132.803881421643
 20
220.5110372676548
 30
0.0
 11
155.0038814216428
 21
220.5110372676548
 31
0.0
  0
LINE
  5
263
330
7E
100
AcDbEntity
  8
1
  6
Continuous
 62
     7
100
AcDbLine
 10
155.5038814216428
 20
221.0110372676548
 30
0.0
 11
155.5038814216428
 21
222.0110372676549
 31
0.0
  0
LINE
  5
264
330
7E
100
AcDbEntity
  8
1
  6
Continuous
 62
     7
100
AcDbLine
 10
132.303881421643
 20
222.0110372676549
 30
0.0
 11
132.303881421643
 21
221.0110372676548
 31
0.0
  0
LINE
  5
265
330
7E
100
AcDbEntity
  8
1
  6
Continuous
 62
     7
100
AcDbLine
 10
223.2038814216442
 20
222.0110372676548
 30
0.0
 11
223.2038814216442
 21
221.0110372676548
 31
0.0
  0
LINE
  5
266
330
7E
100
AcDbEntity
  8
1
  6
Continuous
 62
     7
100
AcDbLine
 10
234.1038814216441
 20
220.5110372676548
 30
0.0
 11
223.7038814216442
 21
220.5110372676548
 31
0.0
  0
LINE
  5
267
330
7E
100
AcDbEntity
  8
1
  6
Continuous
 62
     7
100
AcDbLine
 10
234.6038814216441
 20
221.0110372676548
 30
0.0
 11
234.6038814216441
 21
222.0110372676548
 31
0.0
  0
ARC
  5
268
330
7E
100
AcDbEntity
  8
1
  6
Continuous
 62
     7
100
AcDbCircle
 10
155.0038814216428
 20
221.0110372676548
 30
0.0
 40
0.5
100
AcDbArc
 50
270.0
 51
0.0
  0
ARC
  5
269
330
7E
100
AcDbEntity
  8
1
  6
Continuous
 62
     7
100
AcDbCircle
 10
132.803881421643
 20
221.0110372676548
 30
0.0
 40
0.5
100
AcDbArc
 50
180.0
 51
270.0
  0
ARC
  5
26A
330
7E
100
AcDbEntity
  8
1
  6
Continuous
 62
     7
100
AcDbCircle
 10
223.7038814216442
 20
221.0110372676548
 30
0.0
 40
0.5
100
AcDbArc
 50
180.0
 51
270.0
  0
ARC
  5
26B
330
7E
100
AcDbEntity
  8
1
  6
Continuous
 62
     7
100
AcDbCircle
 10
234.1038814216441
 20
221.0110372676548
 30
0.0
 40
0.5
100
AcDbArc
 50
270.0
 51
0.0
  0
ENDBLK
  5
80
330
7E
100
AcDbEntity
  8
0
100
AcDbBlockEnd
  0
BLOCK
  5
82
330
81
100
AcDbEntity
  8
0
100
AcDbBlockBegin
  2
EA10-2
 70
     0
 10
398.0413137801056
 20
293.9100098250841
 30
0.0
  3
EA10-2
  1

  0
LINE
  5
26C
330
81
100
AcDbEntity
  8
1
  6
Continuous
 62
     7
100
AcDbLine
 10
170.9038814216429
 20
224.0110372676548
 30
0.0
 11
170.9038814216429
 21
236.2836459794668
 31
0.0
  0
LINE
  5
26D
330
81
100
AcDbEntity
  8
1
  6
Continuous
 62
     7
100
AcDbLine
 10
118.903881421643
 20
222.0110372676548
 30
0.0
 11
168.9038814216429
 21
222.0110372676548
 31
0.0
  0
LINE
  5
26E
330
81
100
AcDbEntity
  8
1
  6
Continuous
 62
     7
100
AcDbLine
 10
116.903881421643
 20
236.2836459794668
 30
0.0
 11
116.903881421643
 21
224.0110372676548
 31
0.0
  0
LINE
  5
26F
330
81
100
AcDbEntity
  8
1
  6
Continuous
 62
     7
100
AcDbLine
 10
390.903881421644
 20
222.0110372676549
 30
0.0
 11
378.6565288721453
 21
222.0110372676549
 31
0.0
  0
LINE
  5
270
330
81
100
AcDbEntity
  8
1
  6
Continuous
 62
     7
100
AcDbLine
 10
392.903881421644
 20
224.0110372676549
 30
0.0
 11
392.903881421644
 21
238.0110372676549
 31
0.0
  0
LINE
  5
271
330
81
100
AcDbEntity
  8
1
  6
PHANTOM
 62
     4
100
AcDbLine
 10
392.903881421644
 20
238.0110372676549
 30
0.0
 11
391.903881421644
 21
238.0110372676549
 31
0.0
  0
LINE
  5
272
330
81
100
AcDbEntity
  8
1
  6
Continuous
 62
     7
100
AcDbLine
 10
324.4038814216443
 20
217.8110372676549
 30
0.0
 11
273.9038814216441
 21
217.8110372676549
 31
0.0
  0
LINE
  5
273
330
81
100
AcDbEntity
  8
1
  6
DASH_CENTER
 62
     2
100
AcDbLine
 10
228.9038814216441
 20
217.8110372676549
 30
0.0
 11
228.9038814216441
 21
228.2931851118925
 31
0.0
  0
LINE
  5
274
330
81
100
AcDbEntity
  8
1
  6
Continuous
 62
     7
100
AcDbLine
 10
234.7038814216442
 20
222.0110372676549
 30
0.0
 11
224.3065273260111
 21
222.0110372676549
 31
0.0
  0
LINE
  5
275
330
81
100
AcDbEntity
  8
1
  6
Continuous
 62
     7
100
AcDbLine
 10
238.9038814216441
 20
222.0110372676549
 30
0.0
 11
234.7038814216442
 21
222.0110372676549
 31
0.0
  0
LINE
  5
276
330
81
100
AcDbEntity
  8
1
  6
Continuous
 62
     7
100
AcDbLine
 10
260.9038814216441
 20
222.0110372676549
 30
0.0
 11
238.9038814216441
 21
222.0110372676549
 31
0.0
  0
LINE
  5
277
330
81
100
AcDbEntity
  8
1
  6
Continuous
 62
     7
100
AcDbLine
 10
267.3586541528628
 20
222.0110372676549
 30
0.0
 11
260.9038814216441
 21
222.0110372676549
 31
0.0
  0
LINE
  5
278
330
81
100
AcDbEntity
  8
1
  6
PHANTOM
 62
     4
100
AcDbLine
 10
225.9038814216441
 20
225.6269187234389
 30
0.0
 11
225.9038814216441
 21
225.0110372676549
 31
0.0
  0
LINE
  5
279
330
81
100
AcDbEntity
  8
1
  6
PHANTOM
 62
     4
100
AcDbLine
 10
391.903881421644
 20
238.0110372676549
 30
0.0
 11
320.9038814216415
 21
238.0110372676549
 31
0.0
  0
LINE
  5
27A
330
81
100
AcDbEntity
  8
1
  6
Continuous
 62
     7
100
AcDbLine
 10
267.3586541528628
 20
222.0110372676549
 30
0.0
 11
378.6565288721453
 21
222.0110372676549
 31
0.0
  0
LINE
  5
27B
330
81
100
AcDbEntity
  8
1
  6
Continuous
 62
     7
100
AcDbLine
 10
371.3244077602158
 20
217.8110372676549
 30
0.0
 11
336.4038814216443
 21
217.8110372676549
 31
0.0
  0
LINE
  5
27C
330
81
100
AcDbEntity
  8
1
  6
Continuous
 62
     7
100
AcDbLine
 10
324.4038814216443
 20
217.8110372676549
 30
0.0
 11
336.4038814216443
 21
217.8110372676549
 31
0.0
  0
ARC
  5
27D
330
81
100
AcDbEntity
  8
1
  6
Continuous
 62
     7
100
AcDbCircle
 10
371.3244077602158
 20
226.3110372676549
 30
0.0
 40
8.5
100
AcDbArc
 50
270.0
 51
329.6100575506729
  0
ARC
  5
27E
330
81
100
AcDbEntity
  8
1
  6
Continuous
 62
     7
100
AcDbCircle
 10
273.903881421644
 20
225.0110372676549
 30
0.0
 40
7.199999999999757
100
AcDbArc
 50
204.6243183521649
 51
270.0000000000009
  0
ARC
  5
27F
330
81
100
AcDbEntity
  8
1
  6
PHANTOM
 62
     4
100
AcDbCircle
 10
229.9038814216441
 20
225.6269187234389
 30
0.0
 40
4.000000000000001
100
AcDbArc
 50
99.38338355507804
 51
180.0
  0
ARC
  5
280
330
81
100
AcDbEntity
  8
1
  6
PHANTOM
 62
     4
100
AcDbCircle
 10
333.5972183472126
 20
-401.8630747244572
 30
0.0
 40
640.0000000000001
100
AcDbArc
 50
91.13644112890849
 51
99.38338355508013
  0
ARC
  5
281
330
81
100
AcDbEntity
  8
1
  6
Continuous
 62
     7
100
AcDbCircle
 10
118.903881421643
 20
224.0110372676548
 30
0.0
 40
2.0
100
AcDbArc
 50
180.0
 51
270.0
  0
ARC
  5
282
330
81
100
AcDbEntity
  8
1
  6
Continuous
 62
     7
100
AcDbCircle
 10
168.9038814216429
 20
224.0110372676548
 30
0.0
 40
2.0
100
AcDbArc
 50
270.0
 51
0.0
  0
ARC
  5
283
330
81
100
AcDbEntity
  8
1
  6
Continuous
 62
     7
100
AcDbCircle
 10
118.903881421643
 20
224.0110372676548
 30
0.0
 40
2.0
100
AcDbArc
 50
180.0
 51
270.0
  0
ARC
  5
284
330
81
100
AcDbEntity
  8
1
  6
Continuous
 62
     7
100
AcDbCircle
 10
390.903881421644
 20
224.0110372676549
 30
0.0
 40
2.0
100
AcDbArc
 50
270.0
 51
323.1301023541586
  0
ARC
  5
285
330
81
100
AcDbEntity
  8
1
  6
Continuous
 62
     7
100
AcDbCircle
 10
390.903881421644
 20
224.0110372676549
 30
0.0
 40
2.000000000000102
100
AcDbArc
 50
323.1301023541586
 51
0.0
  0
ENDBLK
  5
83
330
81
100
AcDbEntity
  8
0
100
AcDbBlockEnd
  0
BLOCK
  5
85
330
84
100
AcDbEntity
  8
0
100
AcDbBlockBegin
  2
EA10-1
 70
     0
 10
448.3903057589361
 20
-7.33570091666761
 30
0.0
  3
EA10-1
  1

  0
LINE
  5
286
330
84
100
AcDbEntity
  8
1
  6
Continuous
 62
     7
100
AcDbLine
 10
143.903881421643
 20
645.5110372676553
 30
0.0
 11
164.3169788682634
 21
645.5110372676553
 31
0.0
  0
LINE
  5
287
330
84
100
AcDbEntity
  8
1
  6
Continuous
 62
     2
100
AcDbLine
 10
164.903881421643
 20
460.5110372676545
 30
0.0
 11
143.903881421643
 21
460.5110372676554
 31
0.0
  0
LINE
  5
288
330
84
100
AcDbEntity
  8
1
  6
Continuous
 62
     7
100
AcDbLine
 10
151.403881421643
 20
495.8110372676554
 30
0.0
 11
136.403881421643
 21
495.8110372676554
 31
0.0
  0
LINE
  5
289
330
84
100
AcDbEntity
  8
1
  6
Continuous
 62
     7
100
AcDbLine
 10
151.403881421643
 20
484.2110372676553
 30
0.0
 11
136.403881421643
 21
484.2110372676553
 31
0.0
  0
LINE
  5
28A
330
84
100
AcDbEntity
  8
1
  6
Continuous
 62
     2
100
AcDbLine
 10
212.2498158370335
 20
241.498234504681
 30
0.0
 11
212.8695294696248
 21
243.8110372676548
 31
0.0
  0
LINE
  5
28B
330
84
100
AcDbEntity
  8
1
  6
Continuous
 62
     7
100
AcDbLine
 10
170.8884964405693
 20
253.8559006320068
 30
0.0
 11
171.9038814216429
 21
238.0110372676548
 31
0.0
  0
LINE
  5
28C
330
84
100
AcDbEntity
  8
1
  6
Continuous
 62
     7
100
AcDbLine
 10
115.903881421643
 20
238.0110372676548
 30
0.0
 11
116.9192664027167
 21
253.8559006320068
 31
0.0
  0
LINE
  5
28D
330
84
100
AcDbEntity
  8
1
  6
Continuous
 62
     2
100
AcDbLine
 10
164.3169788682634
 20
645.5110372676553
 30
0.0
 11
167.903881421643
 21
645.5110372676553
 31
0.0
  0
LINE
  5
28E
330
84
100
AcDbEntity
  8
1
  6
Continuous
 62
     7
100
AcDbLine
 10
123.4907839750224
 20
645.5110372676553
 30
0.0
 11
143.903881421643
 21
645.5110372676553
 31
0.0
  0
LINE
  5
28F
330
84
100
AcDbEntity
  8
1
  6
Continuous
 62
     2
100
AcDbLine
 10
119.903881421643
 20
645.5110372676553
 30
0.0
 11
123.4907839750224
 21
645.5110372676553
 31
0.0
  0
LINE
  5
290
330
84
100
AcDbEntity
  8
1
  6
Continuous
 62
     2
100
AcDbLine
 10
143.903881421643
 20
460.5110372676554
 30
0.0
 11
122.903881421643
 21
460.5110372676545
 31
0.0
  0
LINE
  5
291
330
84
100
AcDbEntity
  8
1
  6
Continuous
 62
     7
100
AcDbLine
 10
121.1104381007983
 20
222.0110372676548
 30
0.0
 11
143.9038814216429
 21
222.0110372676548
 31
0.0
  0
LINE
  5
292
330
84
100
AcDbEntity
  8
1
  6
Continuous
 62
     7
100
AcDbLine
 10
121.1104381007983
 20
225.6269187234385
 30
0.0
 11
121.1104381007983
 21
222.0110372676548
 31
0.0
  0
LINE
  5
293
330
84
100
AcDbEntity
  8
1
  6
Continuous
 62
     7
100
AcDbLine
 10
120.7884959590088
 20
229.5733966696519
 30
0.0
 11
115.903881421643
 21
238.0110372676548
 31
0.0
  0
LINE
  5
294
330
84
100
AcDbEntity
  8
1
  6
Continuous
 62
     7
100
AcDbLine
 10
143.9038814216429
 20
222.0110372676548
 30
0.0
 11
166.6973247424877
 21
222.0110372676548
 31
0.0
  0
LINE
  5
295
330
84
100
AcDbEntity
  8
1
  6
Continuous
 62
     7
100
AcDbLine
 10
166.6973247424877
 20
222.0110372676548
 30
0.0
 11
166.6973247424877
 21
225.6269187234385
 31
0.0
  0
LINE
  5
296
330
84
100
AcDbEntity
  8
1
  6
Continuous
 62
     7
100
AcDbLine
 10
171.9038814216429
 20
238.0110372676548
 30
0.0
 11
167.019266884277
 21
229.5733966696519
 31
0.0
  0
LINE
  5
297
330
84
100
AcDbEntity
  8
1
  6
Continuous
 62
     7
100
AcDbLine
 10
136.4038814216429
 20
255.7442786601889
 30
0.0
 11
143.903881421643
 21
255.7442786601889
 31
0.0
  0
LINE
  5
298
330
84
100
AcDbEntity
  8
1
  6
Continuous
 62
     7
100
AcDbLine
 10
143.903881421643
 20
251.7918294078563
 30
0.0
 11
136.4038814216429
 21
251.7918294078563
 31
0.0
  0
LINE
  5
299
330
84
100
AcDbEntity
  8
1
  6
Continuous
 62
     7
100
AcDbLine
 10
143.903881421643
 20
255.7442786601889
 30
0.0
 11
151.4038814216429
 21
255.7442786601889
 31
0.0
  0
LINE
  5
29A
330
84
100
AcDbEntity
  8
1
  6
Continuous
 62
     7
100
AcDbLine
 10
151.4038814216429
 20
251.7918294078563
 30
0.0
 11
143.903881421643
 21
251.7918294078563
 31
0.0
  0
LINE
  5
29B
330
84
100
AcDbEntity
  8
1
  6
DASH_CENTER
 62
     2
100
AcDbLine
 10
128.3416689017926
 20
253.8341685781851
 30
0.0
 11
159.3422227578609
 21
253.8341685781851
 31
0.0
  0
LINE
  5
29C
330
84
100
AcDbEntity
  8
1
  6
Continuous
 62
     7
100
AcDbLine
 10
392.403881421644
 20
238.0110372676548
 30
0.0
 11
393.903881421644
 21
238.0110372676548
 31
0.0
  0
LINE
  5
29D
330
84
100
AcDbEntity
  8
1
  6
Continuous
 62
     7
100
AcDbLine
 10
389.903881421644
 20
267.0110372676548
 30
0.0
 11
293.903881421644
 21
267.0110372676548
 31
0.0
  0
LINE
  5
29E
330
84
100
AcDbEntity
  8
1
  6
Continuous
 62
     7
100
AcDbLine
 10
208.9038814216441
 20
223.0110372676548
 30
0.0
 11
208.9038814216441
 21
229.0110372676548
 31
0.0
  0
LINE
  5
29F
330
84
100
AcDbEntity
  8
1
  6
Continuous
 62
     7
100
AcDbLine
 10
210.4038814216441
 20
222.0110372676548
 30
0.0
 11
209.9038814216441
 21
222.0110372676548
 31
0.0
  0
LINE
  5
2A0
330
84
100
AcDbEntity
  8
1
  6
Continuous
 62
     7
100
AcDbLine
 10
225.903881421644
 20
225.6269187234385
 30
0.0
 11
225.9038814216439
 21
224.0110372676548
 31
0.0
  0
LINE
  5
2A1
330
84
100
AcDbEntity
  8
1
  6
Continuous
 62
     7
100
AcDbLine
 10
208.9038814216441
 20
229.0110372676548
 30
0.0
 11
212.2498158370335
 21
241.498234504681
 31
0.0
  0
LINE
  5
2A2
330
84
100
AcDbEntity
  8
1
  6
Continuous
 62
     7
100
AcDbLine
 10
393.903881421644
 20
238.0110372676548
 30
0.0
 11
393.903881421644
 21
263.0110372676548
 31
0.0
  0
LINE
  5
2A3
330
84
100
AcDbEntity
  8
1
  6
Continuous
 62
     7
100
AcDbLine
 10
223.903881421644
 20
222.0110372676548
 30
0.0
 11
210.4038814216441
 21
222.0110372676548
 31
0.0
  0
LINE
  5
2A4
330
84
100
AcDbEntity
  8
1
  6
Continuous
 62
     7
100
AcDbLine
 10
320.9038814216441
 20
238.0110372676548
 30
0.0
 11
392.403881421644
 21
238.0110372676548
 31
0.0
  0
LINE
  5
2A5
330
84
100
AcDbEntity
  8
0
  6
Continuous
 62
     7
100
AcDbLine
 10
264.7232473529871
 20
259.3268615324517
 30
0.0
 11
389.903881421644
 21
259.3268615324517
 31
0.0
  0
LINE
  5
2A6
330
84
100
AcDbEntity
  8
1
  6
Continuous
 62
     7
100
AcDbLine
 10
222.403881421644
 20
229.0110372676548
 30
0.0
 11
208.9038814216441
 21
229.0110372676548
 31
0.0
  0
LINE
  5
2A7
330
84
100
AcDbEntity
  8
0
  6
Continuous
 62
     7
100
AcDbLine
 10
224.1502141880956
 20
230.487503998699
 30
0.0
 11
228.9650791817217
 21
248.4568247864962
 31
0.0
  0
LINE
  5
2A8
330
84
100
AcDbEntity
  8
1
  6
Continuous
 62
     7
100
AcDbLine
 10
121.1104381007983
 20
229.0110372676548
 30
0.0
 11
166.6973247424877
 21
229.0110372676548
 31
0.0
  0
ARC
  5
2A9
330
84
100
AcDbEntity
  8
1
  6
Continuous
 62
     7
100
AcDbCircle
 10
151.403881421643
 20
490.0110372676554
 30
0.0
 40
5.800000000000125
100
AcDbArc
 50
270.0
 51
0.0
  0
ARC
  5
2AA
330
84
100
AcDbEntity
  8
1
  6
Continuous
 62
     7
100
AcDbCircle
 10
136.403881421643
 20
490.0110372676554
 30
0.0
 40
5.800000000000011
100
AcDbArc
 50
90.0
 51
180.0
  0
ARC
  5
2AB
330
84
100
AcDbEntity
  8
1
  6
Continuous
 62
     7
100
AcDbCircle
 10
-928.0957484154899
 20
584.4134552258663
 30
0.0
 40
1100.0
100
AcDbArc
 50
354.2785831226142
 51
359.9529956853013
  0
ARC
  5
2AC
330
84
100
AcDbEntity
  8
1
  6
Continuous
 62
     7
100
AcDbCircle
 10
151.403881421643
 20
490.0110372676554
 30
0.0
 40
5.799999999999898
100
AcDbArc
 50
0.0
 51
90.0
  0
ARC
  5
2AD
330
84
100
AcDbEntity
  8
1
  6
Continuous
 62
     7
100
AcDbCircle
 10
136.403881421643
 20
490.0110372676554
 30
0.0
 40
5.800000000000011
100
AcDbArc
 50
180.0
 51
270.0
  0
ARC
  5
2AE
330
84
100
AcDbEntity
  8
1
  6
Continuous
 62
     2
100
AcDbCircle
 10
335.1399020976605
 20
-30.1414330212647
 30
0.0
 40
300.0000000000002
100
AcDbArc
 50
113.5909908546601
 51
114.0521459257336
  0
ARC
  5
2AF
330
84
100
AcDbEntity
  8
1
  6
Continuous
 62
     7
100
AcDbCircle
 10
160.9089665129093
 20
253.216383296091
 30
0.0
 40
9.999999999999918
100
AcDbArc
 50
3.66666666666636
 51
64.84128958082457
  0
ARC
  5
2B0
330
84
100
AcDbEntity
  8
1
  6
Continuous
 62
     7
100
AcDbCircle
 10
143.903881421643
 20
217.0110372676548
 30
0.0
 40
50.00000000000009
100
AcDbArc
 50
64.84128958082482
 51
90.0
  0
ARC
  5
2B1
330
84
100
AcDbEntity
  8
1
  6
Continuous
 62
     7
100
AcDbCircle
 10
126.8987963303767
 20
253.216383296091
 30
0.0
 40
9.999999999999947
100
AcDbArc
 50
115.1587104191748
 51
176.3333333333337
  0
ARC
  5
2B2
330
84
100
AcDbEntity
  8
1
  6
Continuous
 62
     7
100
AcDbCircle
 10
143.903881421643
 20
217.0110372676548
 30
0.0
 40
49.99999999999997
100
AcDbArc
 50
90.0
 51
115.1587104191751
  0
ARC
  5
2B3
330
84
100
AcDbEntity
  8
1
  6
Continuous
 62
     2
100
AcDbCircle
 10
-487.9968741221401
 20
572.0658272325934
 30
0.0
 40
659.9999999999999
100
AcDbArc
 50
6.07680932022816
 51
6.38914303092819
  0
ARC
  5
2B4
330
84
100
AcDbEntity
  8
1
  6
Continuous
 62
     7
100
AcDbCircle
 10
164.3169788682634
 20
641.5110372676553
 30
0.0
 40
4.000000000000182
100
AcDbArc
 50
6.07680932022866
 51
90.0
  0
ARC
  5
2B5
330
84
100
AcDbEntity
  8
1
  6
Continuous
 62
     7
100
AcDbCircle
 10
-487.9968741221401
 20
572.0658272325934
 30
0.0
 40
660.0
100
AcDbArc
 50
0.99362894196094
 51
6.07680932022816
  0
ARC
  5
2B6
330
84
100
AcDbEntity
  8
1
  6
Continuous
 62
     7
100
AcDbCircle
 10
154.4842438214006
 20
475.9488969205156
 30
0.0
 40
12.00000000000003
100
AcDbArc
 50
306.0008965203914
 51
354.278583122614
  0
ARC
  5
2B7
330
84
100
AcDbEntity
  8
1
  6
Continuous
 62
     7
100
AcDbCircle
 10
143.903881421643
 20
490.5110372676554
 30
0.0
 40
30.0
100
AcDbArc
 50
270.0
 51
306.0008965203916
  0
ARC
  5
2B8
330
84
100
AcDbEntity
  8
1
  6
Continuous
 62
     2
100
AcDbCircle
 10
-928.0957484154899
 20
584.4134552258663
 30
0.0
 40
1100.0
100
AcDbArc
 50
353.5325604333588
 51
354.2785831226142
  0
ARC
  5
2B9
330
84
100
AcDbEntity
  8
1
  6
Continuous
 62
     2
100
AcDbCircle
 10
775.8046369654264
 20
572.0658272325934
 30
0.0
 40
660.0000000000002
100
AcDbArc
 50
173.6108569690718
 51
173.9231906797718
  0
ARC
  5
2BA
330
84
100
AcDbEntity
  8
1
  6
Continuous
 62
     7
100
AcDbCircle
 10
123.4907839750224
 20
641.5110372676553
 30
0.0
 40
4.0
100
AcDbArc
 50
90.0
 51
173.923190679771
  0
ARC
  5
2BB
330
84
100
AcDbEntity
  8
1
  6
Continuous
 62
     7
100
AcDbCircle
 10
775.8046369654264
 20
572.0658272325934
 30
0.0
 40
660.0000000000002
100
AcDbArc
 50
173.9231906797718
 51
179.0063710580391
  0
ARC
  5
2BC
330
84
100
AcDbEntity
  8
1
  6
Continuous
 62
     7
100
AcDbCircle
 10
1215.903511258775
 20
584.4134552258661
 30
0.0
 40
1100.0
100
AcDbArc
 50
180.0470043146986
 51
185.7214168773858
  0
ARC
  5
2BD
330
84
100
AcDbEntity
  8
1
  6
Continuous
 62
     7
100
AcDbCircle
 10
133.3235190218853
 20
475.9488969205156
 30
0.0
 40
12.00000000000023
100
AcDbArc
 50
185.721416877386
 51
233.9991034796086
  0
ARC
  5
2BE
330
84
100
AcDbEntity
  8
1
  6
Continuous
 62
     7
100
AcDbCircle
 10
143.903881421643
 20
490.5110372676554
 30
0.0
 40
30.00000000000014
100
AcDbArc
 50
233.9991034796082
 51
270.0
  0
ARC
  5
2BF
330
84
100
AcDbEntity
  8
1
  6
Continuous
 62
     2
100
AcDbCircle
 10
1215.903511258775
 20
584.4134552258661
 30
0.0
 40
1100.0
100
AcDbArc
 50
185.7214168773858
 51
186.4674395666412
  0
ARC
  5
2C0
330
84
100
AcDbEntity
  8
1
  6
Continuous
 62
     7
100
AcDbCircle
 10
142.1441805052415
 20
527.1322296988325
 30
0.0
 40
18.46285771398908
100
AcDbArc
 50
26.98901392152106
 51
84.53081899240965
  0
ARC
  5
2C1
330
84
100
AcDbEntity
  8
1
  6
Continuous
 62
     7
100
AcDbCircle
 10
92.4203101888679
 20
498.0663914982043
 30
0.0
 40
76.03528776764179
100
AcDbArc
 50
5.84605384267903
 51
29.50266550806019
  0
ARC
  5
2C2
330
84
100
AcDbEntity
  8
1
  6
Continuous
 62
     7
100
AcDbCircle
 10
145.6635823380443
 20
527.1322296988325
 30
0.0
 40
18.4628577139891
100
AcDbArc
 50
95.46918100758974
 51
153.0109860784788
  0
ARC
  5
2C3
330
84
100
AcDbEntity
  8
1
  6
Continuous
 62
     7
100
AcDbCircle
 10
195.3874526544179
 20
498.0663914982043
 30
0.0
 40
76.03528776764163
100
AcDbArc
 50
150.4973344919398
 51
174.153946157321
  0
ARC
  5
2C4
330
84
100
AcDbEntity
  8
1
  6
Continuous
 62
     7
100
AcDbCircle
 10
94.4668099785803
 20
225.4397798995385
 30
0.0
 40
26.64428532452047
100
AcDbArc
 50
0.40242599193376
 51
8.92496452056723
  0
ARC
  5
2C5
330
84
100
AcDbEntity
  8
1
  6
Continuous
 62
     7
100
AcDbCircle
 10
193.3409528647056
 20
225.4397798995385
 30
0.0
 40
26.64428532452043
100
AcDbArc
 50
171.0750354794328
 51
179.5975740080662
  0
ARC
  5
2C6
330
84
100
AcDbEntity
  8
1
  6
Continuous
 62
     7
100
AcDbCircle
 10
136.680002296117
 20
265.2133754488842
 30
0.0
 40
13.42438605183695
100
AcDbArc
 50
246.750583924894
 51
268.8214227137428
  0
ARC
  5
2C7
330
84
100
AcDbEntity
  8
1
  6
Continuous
 62
     7
100
AcDbCircle
 10
136.0104906363985
 20
244.1270593479478
 30
0.0
 40
11.62387804730516
100
AcDbArc
 50
88.0605494544103
 51
113.4706883670745
  0
ARC
  5
2C8
330
84
100
AcDbEntity
  8
1
  6
Continuous
 62
     7
100
AcDbCircle
 10
131.5793243010307
 20
253.8341685781851
 30
0.0
 40
0.9754428795503408
100
AcDbArc
 50
101.7349610769177
 51
258.2650389230839
  0
ARC
  5
2C9
330
84
100
AcDbEntity
  8
1
  6
Continuous
 62
     7
100
AcDbCircle
 10
142.5636363655455
 20
282.437372833508
 30
0.0
 40
38.64958028305465
100
AcDbArc
 50
238.297033104702
 51
271.9872346051735
  0
ARC
  5
2CA
330
84
100
AcDbEntity
  8
1
  6
Continuous
 62
     7
100
AcDbCircle
 10
151.1277605471687
 20
265.2133754488842
 30
0.0
 40
13.42438605183687
100
AcDbArc
 50
271.1785772862575
 51
293.2494160751068
  0
ARC
  5
2CB
330
84
100
AcDbEntity
  8
1
  6
Continuous
 62
     7
100
AcDbCircle
 10
151.7972722068874
 20
244.1270593479478
 30
0.0
 40
11.62387804730515
100
AcDbArc
 50
66.52931163292554
 51
91.93945054559025
  0
ARC
  5
2CC
330
84
100
AcDbEntity
  8
1
  6
Continuous
 62
     7
100
AcDbCircle
 10
156.2284385422552
 20
253.8341685781851
 30
0.0
 40
0.9754428795504799
100
AcDbArc
 50
281.734961076916
 51
78.26503892308227
  0
ARC
  5
2CD
330
84
100
AcDbEntity
  8
1
  6
Continuous
 62
     7
100
AcDbCircle
 10
145.2441264777403
 20
282.437372833508
 30
0.0
 40
38.64958028305468
100
AcDbArc
 50
268.0127653948268
 51
301.7029668952981
  0
ARC
  5
2CE
330
84
100
AcDbEntity
  8
1
  6
Continuous
 62
     7
100
AcDbCircle
 10
335.1399020976605
 20
-30.1414330212647
 30
0.0
 40
300.0000000000001
100
AcDbArc
 50
97.90051228599698
 51
107.64509844212
  0
ARC
  5
2CF
330
84
100
AcDbEntity
  8
1
  6
Continuous
 62
     7
100
AcDbCircle
 10
333.5972183472126
 20
-401.8630747244572
 30
0.0
 40
640.0
100
AcDbArc
 50
91.13644112890827
 51
99.38338355508013
  0
ARC
  5
2D0
330
84
100
AcDbEntity
  8
1
  6
Continuous
 62
     7
100
AcDbCircle
 10
217.0794449684788
 20
240.2041392791684
 30
0.0
 40
5.000000000000107
100
AcDbArc
 50
113.5909908546614
 51
165.0
  0
ARC
  5
2D1
330
84
100
AcDbEntity
  8
1
  6
Continuous
 62
     7
100
AcDbCircle
 10
229.903881421644
 20
225.6269187234387
 30
0.0
 40
4.000000000000001
100
AcDbArc
 50
99.38338355507804
 51
180.0000000000028
  0
ARC
  5
2D2
330
84
100
AcDbEntity
  8
1
  6
Continuous
 62
     7
100
AcDbCircle
 10
335.1399020976605
 20
-30.1414330212647
 30
0.0
 40
300.0000000000001
100
AcDbArc
 50
109.9857690975388
 51
113.5909908546601
  0
ARC
  5
2D3
330
84
100
AcDbEntity
  8
1
  6
Continuous
 62
     7
100
AcDbCircle
 10
335.1399020976605
 20
-30.1414330212647
 30
0.0
 40
300.0000000000001
100
AcDbArc
 50
107.64509844212
 51
109.9857690975388
  0
ARC
  5
2D4
330
84
100
AcDbEntity
  8
1
  6
Continuous
 62
     7
100
AcDbCircle
 10
154.4842438214006
 20
481.0662789377249
 30
0.0
 40
12.00000000000003
100
AcDbArc
 50
306.0008965203914
 51
354.278583122614
  0
ARC
  5
2D5
330
84
100
AcDbEntity
  8
1
  6
Continuous
 62
     7
100
AcDbCircle
 10
133.3235190218855
 20
481.0662789377249
 30
0.0
 40
12.00000000000023
100
AcDbArc
 50
185.721416877386
 51
233.9991034796086
  0
ARC
  5
2D6
330
84
100
AcDbEntity
  8
1
  6
Continuous
 62
     7
100
AcDbCircle
 10
143.903881421643
 20
490.5110372676554
 30
0.0
 40
26.03435195201947
100
AcDbArc
 50
227.3643810817896
 51
312.6356189182105
  0
ARC
  5
2D7
330
84
100
AcDbEntity
  8
0
  6
Continuous
 62
     7
100
AcDbCircle
 10
161.4833908251457
 20
256.5683255363709
 30
0.0
 40
8.109648768178173
100
AcDbArc
 50
300.1377458664334
 51
340.4597577157998
  0
ARC
  5
2D8
330
84
100
AcDbEntity
  8
0
  6
Continuous
 62
     7
100
AcDbCircle
 10
126.3243720181404
 20
256.5683255363709
 30
0.0
 40
8.109648768178298
100
AcDbArc
 50
199.5402422841999
 51
239.8622541335653
  0
ARC
  5
2D9
330
84
100
AcDbEntity
  8
1
  6
Continuous
 62
     7
100
AcDbCircle
 10
389.903881421644
 20
263.0110372676548
 30
0.0
 40
4.0
100
AcDbArc
 50
0.0
 51
90.0
  0
ARC
  5
2DA
330
84
100
AcDbEntity
  8
1
  6
Continuous
 62
     7
100
AcDbCircle
 10
223.903881421644
 20
224.0110372676548
 30
0.0
 40
2.0
100
AcDbArc
 50
270.0
 51
0.0
  0
ARC
  5
2DB
330
84
100
AcDbEntity
  8
1
  6
Continuous
 62
     7
100
AcDbCircle
 10
209.9038814216441
 20
223.0110372676548
 30
0.0
 40
1.0
100
AcDbArc
 50
180.0
 51
270.0
  0
ENDBLK
  5
86
330
84
100
AcDbEntity
  8
0
100
AcDbBlockEnd
  0
BLOCK
  5
88
330
87
100
AcDbEntity
  8
0
100
AcDbBlockBegin
  2
32-215
 70
     0
 10
268.1972571828921
 20
-442.5482802147403
 30
0.0
  3
32-215
  1

  0
LINE
  5
2DC
330
87
100
AcDbEntity
  8
1
  6
Continuous
 62
     7
100
AcDbLine
 10
154.9286841684262
 20
697.7059239116666
 30
0.0
 11
146.8858301973536
 21
693.0623800064154
 31
0.0
  0
LINE
  5
2DD
330
87
100
AcDbEntity
  8
1
  6
Continuous
 62
     7
100
AcDbLine
 10
157.9072571828901
 20
702.8649637067715
 30
0.0
 11
157.90725718289
 21
712.1520515172745
 31
0.0
  0
LINE
  5
2DE
330
87
100
AcDbEntity
  8
1
  6
Continuous
 62
     7
100
AcDbLine
 10
154.9286841684265
 20
717.3110913123796
 30
0.0
 11
152.6575466836251
 21
718.6223331505964
 31
0.0
  0
LINE
  5
2DF
330
87
100
AcDbEntity
  8
1
  6
Continuous
 62
     7
100
AcDbLine
 10
129.9072571828901
 20
712.1520515172745
 30
0.0
 11
129.9072571828901
 21
702.8649637067715
 31
0.0
  0
LINE
  5
2E0
330
87
100
AcDbEntity
  8
1
  6
Continuous
 62
     7
100
AcDbLine
 10
132.8858301973534
 20
697.7059239116675
 30
0.0
 11
140.9286841684264
 21
693.0623800064154
 31
0.0
  0
LINE
  5
2E1
330
87
100
AcDbEntity
  8
1
  6
PHANTOM
 62
     5
100
AcDbLine
 10
443.9038814216428
 20
271.9110372676551
 30
0.0
 11
444.037856017858
 21
271.9110372676551
 31
0.0
  0
LINE
  5
2E2
330
87
100
AcDbEntity
  8
1
  6
PHANTOM
 62
     5
100
AcDbLine
 10
443.787856017858
 20
271.978024565763
 30
0.0
 11
443.9038814216428
 21
271.9110372676551
 31
0.0
  0
LINE
  5
2E3
330
87
100
AcDbEntity
  8
1
  6
Continuous
 62
     7
100
AcDbLine
 10
451.2603375163919
 20
281.7110372676552
 30
0.0
 11
451.2603375163919
 21
274.9421261809007
 31
0.0
  0
LINE
  5
2E4
330
87
100
AcDbEntity
  8
1
  6
Continuous
 62
     7
100
AcDbLine
 10
451.2603375163919
 20
274.9421261809007
 30
0.0
 11
446.1012977212869
 21
274.9421261809007
 31
0.0
  0
LINE
  5
2E5
330
87
100
AcDbEntity
  8
1
  6
Continuous
 62
     7
100
AcDbLine
 10
441.4577538160349
 20
281.7110372676552
 30
0.0
 11
441.4577538160349
 21
274.9421261809007
 31
0.0
  0
LINE
  5
2E6
330
87
100
AcDbEntity
  8
1
  6
Continuous
 62
     7
100
AcDbLine
 10
441.4577538160349
 20
274.9421261809007
 30
0.0
 11
441.1538814216428
 21
274.9421261809007
 31
0.0
  0
LINE
  5
2E7
330
87
100
AcDbEntity
  8
1
  6
Continuous
 62
     7
100
AcDbLine
 10
441.1538814216428
 20
281.7110372676552
 30
0.0
 11
441.4577538160349
 21
281.7110372676552
 31
0.0
  0
LINE
  5
2E8
330
87
100
AcDbEntity
  8
1
  6
Continuous
 62
     7
100
AcDbLine
 10
446.1012977212869
 20
274.9421261809007
 30
0.0
 11
446.1012977212869
 21
281.7110372676552
 31
0.0
  0
LINE
  5
2E9
330
87
100
AcDbEntity
  8
1
  6
Continuous
 62
     7
100
AcDbLine
 10
451.2603375163919
 20
281.7110372676552
 30
0.0
 11
446.1012977212869
 21
281.7110372676552
 31
0.0
  0
LINE
  5
2EA
330
87
100
AcDbEntity
  8
1
  6
Continuous
 62
     7
100
AcDbLine
 10
442.4038814216428
 20
272.7770626714396
 30
0.0
 11
443.787856017858
 21
271.978024565763
 31
0.0
  0
LINE
  5
2EB
330
87
100
AcDbEntity
  8
1
  6
Continuous
 62
     7
100
AcDbLine
 10
455.9038814216428
 20
282.9110372676551
 30
0.0
 11
442.3538814216432
 21
282.9110372676551
 31
0.0
  0
LINE
  5
2EC
330
87
100
AcDbEntity
  8
1
  6
Continuous
 62
     7
100
AcDbLine
 10
441.1538814216428
 20
281.7110372676552
 30
0.0
 11
441.1538814216428
 21
274.9421261809007
 31
0.0
  0
LINE
  5
2ED
330
87
100
AcDbEntity
  8
1
  6
Continuous
 62
     7
100
AcDbLine
 10
444.037856017858
 20
271.9110372676551
 30
0.0
 11
455.9038814216428
 21
271.9110372676551
 31
0.0
  0
LINE
  5
2EE
330
87
100
AcDbEntity
  8
1
  6
Continuous
 62
     7
100
AcDbLine
 10
455.9038814216428
 20
271.9110372676551
 30
0.0
 11
467.7699068254269
 21
271.9110372676551
 31
0.0
  0
LINE
  5
2EF
330
87
100
AcDbEntity
  8
1
  6
Continuous
 62
     7
100
AcDbLine
 10
470.6538814216428
 20
274.9421261809007
 30
0.0
 11
470.6538814216428
 21
281.7110372676552
 31
0.0
  0
LINE
  5
2F0
330
87
100
AcDbEntity
  8
1
  6
Continuous
 62
     7
100
AcDbLine
 10
469.4538814216421
 20
282.9110372676551
 30
0.0
 11
455.9038814216428
 21
282.9110372676551
 31
0.0
  0
LINE
  5
2F1
330
87
100
AcDbEntity
  8
1
  6
Continuous
 62
     7
100
AcDbLine
 10
468.0199068254269
 20
271.978024565763
 30
0.0
 11
469.4038814216428
 21
272.7770626714396
 31
0.0
  0
LINE
  5
2F2
330
87
100
AcDbEntity
  8
1
  6
Continuous
 62
     7
100
AcDbLine
 10
465.7064651219987
 20
281.7110372676552
 30
0.0
 11
460.5474253268951
 21
281.7110372676552
 31
0.0
  0
LINE
  5
2F3
330
87
100
AcDbEntity
  8
1
  6
Continuous
 62
     7
100
AcDbLine
 10
465.7064651219987
 20
281.7110372676552
 30
0.0
 11
465.7064651219987
 21
274.9421261809007
 31
0.0
  0
LINE
  5
2F4
330
87
100
AcDbEntity
  8
1
  6
Continuous
 62
     7
100
AcDbLine
 10
470.350009027251
 20
281.7110372676552
 30
0.0
 11
470.6538814216428
 21
281.7110372676552
 31
0.0
  0
LINE
  5
2F5
330
87
100
AcDbEntity
  8
1
  6
Continuous
 62
     7
100
AcDbLine
 10
470.6538814216428
 20
274.9421261809007
 30
0.0
 11
470.350009027251
 21
274.9421261809007
 31
0.0
  0
LINE
  5
2F6
330
87
100
AcDbEntity
  8
1
  6
Continuous
 62
     7
100
AcDbLine
 10
470.350009027251
 20
274.9421261809007
 30
0.0
 11
470.350009027251
 21
281.7110372676552
 31
0.0
  0
LINE
  5
2F7
330
87
100
AcDbEntity
  8
1
  6
Continuous
 62
     7
100
AcDbLine
 10
465.7064651219987
 20
274.9421261809007
 30
0.0
 11
460.5474253268951
 21
274.9421261809007
 31
0.0
  0
LINE
  5
2F8
330
87
100
AcDbEntity
  8
1
  6
Continuous
 62
     7
100
AcDbLine
 10
460.5474253268951
 20
274.9421261809007
 30
0.0
 11
460.5474253268951
 21
281.7110372676552
 31
0.0
  0
LINE
  5
2F9
330
87
100
AcDbEntity
  8
1
  6
PHANTOM
 62
     5
100
AcDbLine
 10
467.9038814216428
 20
271.9110372676551
 30
0.0
 11
468.0199068254269
 21
271.978024565763
 31
0.0
  0
LINE
  5
2FA
330
87
100
AcDbEntity
  8
1
  6
PHANTOM
 62
     5
100
AcDbLine
 10
467.7699068254269
 20
271.9110372676551
 30
0.0
 11
467.9038814216428
 21
271.9110372676551
 31
0.0
  0
LINE
  5
2FB
330
87
100
AcDbEntity
  8
1
  6
PHANTOM
 62
     5
100
AcDbLine
 10
155.0232825866742
 20
271.9110372676551
 30
0.0
 11
155.1572571828901
 21
271.9110372676551
 31
0.0
  0
LINE
  5
2FC
330
87
100
AcDbEntity
  8
1
  6
PHANTOM
 62
     5
100
AcDbLine
 10
155.1572571828901
 20
271.9110372676551
 30
0.0
 11
155.2732825866742
 21
271.978024565763
 31
0.0
  0
LINE
  5
2FD
330
87
100
AcDbEntity
  8
1
  6
Continuous
 62
     7
100
AcDbLine
 10
148.5474253268951
 20
274.9421261809007
 30
0.0
 11
148.5474253268951
 21
281.7110372676552
 31
0.0
  0
LINE
  5
2FE
330
87
100
AcDbEntity
  8
1
  6
Continuous
 62
     7
100
AcDbLine
 10
152.9598408832459
 20
274.9421261809007
 30
0.0
 11
148.5474253268951
 21
274.9421261809007
 31
0.0
  0
LINE
  5
2FF
330
87
100
AcDbEntity
  8
1
  6
Continuous
 62
     7
100
AcDbLine
 10
157.6033847884982
 20
274.9421261809007
 30
0.0
 11
157.6033847884982
 21
281.7110372676552
 31
0.0
  0
LINE
  5
300
330
87
100
AcDbEntity
  8
1
  6
Continuous
 62
     7
100
AcDbLine
 10
157.9072571828901
 20
274.9421261809007
 30
0.0
 11
157.6033847884982
 21
274.9421261809007
 31
0.0
  0
LINE
  5
301
330
87
100
AcDbEntity
  8
1
  6
Continuous
 62
     7
100
AcDbLine
 10
157.6033847884982
 20
281.7110372676552
 30
0.0
 11
157.9072571828901
 21
281.7110372676552
 31
0.0
  0
LINE
  5
302
330
87
100
AcDbEntity
  8
1
  6
Continuous
 62
     7
100
AcDbLine
 10
152.9598408832459
 20
281.7110372676552
 30
0.0
 11
152.9598408832459
 21
274.9421261809007
 31
0.0
  0
LINE
  5
303
330
87
100
AcDbEntity
  8
1
  6
Continuous
 62
     7
100
AcDbLine
 10
152.9598408832459
 20
281.7110372676552
 30
0.0
 11
148.5474253268951
 21
281.7110372676552
 31
0.0
  0
LINE
  5
304
330
87
100
AcDbEntity
  8
1
  6
Continuous
 62
     7
100
AcDbLine
 10
155.2732825866742
 20
271.978024565763
 30
0.0
 11
156.6572571828901
 21
272.7770626714396
 31
0.0
  0
LINE
  5
305
330
87
100
AcDbEntity
  8
1
  6
Continuous
 62
     7
100
AcDbLine
 10
156.7072571828894
 20
282.9110372676551
 30
0.0
 11
143.9038814216428
 21
282.9110372676551
 31
0.0
  0
LINE
  5
306
330
87
100
AcDbEntity
  8
1
  6
Continuous
 62
     7
100
AcDbLine
 10
157.9072571828901
 20
274.9421261809007
 30
0.0
 11
157.9072571828901
 21
281.7110372676552
 31
0.0
  0
LINE
  5
307
330
87
100
AcDbEntity
  8
1
  6
Continuous
 62
     7
100
AcDbLine
 10
143.9038814216428
 20
271.9110372676551
 30
0.0
 11
155.0232825866742
 21
271.9110372676551
 31
0.0
  0
LINE
  5
308
330
87
100
AcDbEntity
  8
1
  6
Continuous
 62
     7
100
AcDbLine
 10
132.7912317791053
 20
271.9110372676551
 30
0.0
 11
143.9038814216428
 21
271.9110372676551
 31
0.0
  0
LINE
  5
309
330
87
100
AcDbEntity
  8
1
  6
Continuous
 62
     7
100
AcDbLine
 10
129.9072571828901
 20
281.7110372676552
 30
0.0
 11
129.9072571828901
 21
274.9421261809007
 31
0.0
  0
LINE
  5
30A
330
87
100
AcDbEntity
  8
1
  6
Continuous
 62
     7
100
AcDbLine
 10
143.9038814216428
 20
282.9110372676551
 30
0.0
 11
131.1072571828905
 21
282.9110372676551
 31
0.0
  0
LINE
  5
30B
330
87
100
AcDbEntity
  8
1
  6
Continuous
 62
     7
100
AcDbLine
 10
131.1572571828901
 20
272.7770626714396
 30
0.0
 11
132.5412317791053
 21
271.978024565763
 31
0.0
  0
LINE
  5
30C
330
87
100
AcDbEntity
  8
1
  6
Continuous
 62
     7
100
AcDbLine
 10
139.2603375163919
 20
281.7110372676552
 30
0.0
 11
134.8546734825342
 21
281.7110372676552
 31
0.0
  0
LINE
  5
30D
330
87
100
AcDbEntity
  8
1
  6
Continuous
 62
     7
100
AcDbLine
 10
134.8546734825342
 20
274.9421261809007
 30
0.0
 11
134.8546734825342
 21
281.7110372676552
 31
0.0
  0
LINE
  5
30E
330
87
100
AcDbEntity
  8
1
  6
Continuous
 62
     7
100
AcDbLine
 10
129.9072571828901
 20
281.7110372676552
 30
0.0
 11
130.2111295772822
 21
281.7110372676552
 31
0.0
  0
LINE
  5
30F
330
87
100
AcDbEntity
  8
1
  6
Continuous
 62
     7
100
AcDbLine
 10
130.2111295772822
 20
274.9421261809007
 30
0.0
 11
129.9072571828901
 21
274.9421261809007
 31
0.0
  0
LINE
  5
310
330
87
100
AcDbEntity
  8
1
  6
Continuous
 62
     7
100
AcDbLine
 10
130.2111295772822
 20
281.7110372676552
 30
0.0
 11
130.2111295772822
 21
274.9421261809007
 31
0.0
  0
LINE
  5
311
330
87
100
AcDbEntity
  8
1
  6
Continuous
 62
     7
100
AcDbLine
 10
139.2603375163919
 20
274.9421261809007
 30
0.0
 11
134.8546734825342
 21
274.9421261809007
 31
0.0
  0
LINE
  5
312
330
87
100
AcDbEntity
  8
1
  6
Continuous
 62
     7
100
AcDbLine
 10
139.2603375163919
 20
281.7110372676552
 30
0.0
 11
139.2603375163919
 21
274.9421261809007
 31
0.0
  0
LINE
  5
313
330
87
100
AcDbEntity
  8
1
  6
PHANTOM
 62
     5
100
AcDbLine
 10
132.5412317791053
 20
271.978024565763
 30
0.0
 11
132.6572571828901
 21
271.9110372676551
 31
0.0
  0
LINE
  5
314
330
87
100
AcDbEntity
  8
1
  6
PHANTOM
 62
     5
100
AcDbLine
 10
132.6572571828901
 20
271.9110372676551
 30
0.0
 11
132.7912317791053
 21
271.9110372676551
 31
0.0
  0
LINE
  5
315
330
87
100
AcDbEntity
  8
1
  6
Continuous
 62
     7
100
AcDbLine
 10
135.1569676821583
 20
718.6223331505984
 30
0.0
 11
132.8858301973536
 21
717.3110913123796
 31
0.0
  0
ARC
  5
316
330
87
100
AcDbEntity
  8
1
  6
Continuous
 62
     7
100
AcDbCircle
 10
143.90725718289
 20
707.5085076120235
 30
0.0
 40
14.75000000000035
100
AcDbArc
 50
318.3497385953874
 51
341.6502614046091
  0
ARC
  5
317
330
87
100
AcDbEntity
  8
1
  6
Continuous
 62
     7
100
AcDbCircle
 10
143.90725718289
 20
707.5085076120235
 30
0.0
 40
14.74999999999987
100
AcDbArc
 50
138.3497385953904
 51
161.650261404613
  0
ARC
  5
318
330
87
100
AcDbEntity
  8
1
  6
Continuous
 62
     7
100
AcDbCircle
 10
143.90725718289
 20
707.5085076120235
 30
0.0
 40
14.75000000000001
100
AcDbArc
 50
198.3497385953912
 51
221.650261404609
  0
ARC
  5
319
330
87
100
AcDbEntity
  8
1
  6
Continuous
 62
     7
100
AcDbCircle
 10
143.90725718289
 20
707.5085076120235
 30
0.0
 40
14.75000000000013
100
AcDbArc
 50
258.3497385953901
 51
281.65026140461
  0
ARC
  5
31A
330
87
100
AcDbEntity
  8
1
  6
Continuous
 62
     7
100
AcDbCircle
 10
143.90725718289
 20
707.5085076120235
 30
0.0
 40
14.74999999999976
100
AcDbArc
 50
18.3497385953869
 51
41.65026140460919
  0
ARC
  5
31B
330
87
100
AcDbEntity
  8
1
  6
Continuous
 62
     7
100
AcDbCircle
 10
455.9038814216428
 20
280.1570386921517
 30
0.0
 40
6.982679464216756
100
AcDbArc
 50
228.3169927455845
 51
270.0
  0
ARC
  5
31C
330
87
100
AcDbEntity
  8
1
  6
Continuous
 62
     7
100
AcDbCircle
 10
443.7795257686607
 20
275.5829417013511
 30
0.0
 40
2.408582473416664
100
AcDbArc
 50
195.4296532164886
 51
344.5703467835142
  0
ARC
  5
31D
330
87
100
AcDbEntity
  8
1
  6
Continuous
 62
     7
100
AcDbCircle
 10
443.7795257686607
 20
279.84434639846
 30
0.0
 40
2.979120642259813
100
AcDbArc
 50
38.79907508316554
 51
141.200924916829
  0
ARC
  5
31E
330
87
100
AcDbEntity
  8
1
  6
Continuous
 62
     7
100
AcDbCircle
 10
455.9038814216428
 20
272.5756291312785
 30
0.0
 40
10.2478379094411
100
AcDbArc
 50
90.0
 51
116.9443102168244
  0
ARC
  5
31F
330
87
100
AcDbEntity
  8
1
  6
Continuous
 62
     7
100
AcDbCircle
 10
442.3538814216432
 20
281.7110372676552
 30
0.0
 40
1.199999999999932
100
AcDbArc
 50
90.0
 51
180.0
  0
ARC
  5
320
330
87
100
AcDbEntity
  8
1
  6
Continuous
 62
     7
100
AcDbCircle
 10
469.4538814216421
 20
281.7110372676552
 30
0.0
 40
1.200000000000671
100
AcDbArc
 50
0.0
 51
90.0
  0
ARC
  5
321
330
87
100
AcDbEntity
  8
1
  6
Continuous
 62
     7
100
AcDbCircle
 10
455.9038814216428
 20
272.5756291312785
 30
0.0
 40
10.24783790944134
100
AcDbArc
 50
63.05568978316821
 51
90.0
  0
ARC
  5
322
330
87
100
AcDbEntity
  8
1
  6
Continuous
 62
     7
100
AcDbCircle
 10
468.0282370746249
 20
279.84434639846
 30
0.0
 40
2.979120642259724
100
AcDbArc
 50
38.7990750831669
 51
141.2009249168338
  0
ARC
  5
323
330
87
100
AcDbEntity
  8
1
  6
Continuous
 62
     7
100
AcDbCircle
 10
468.0282370746249
 20
275.5829417013511
 30
0.0
 40
2.408582473417048
100
AcDbArc
 50
195.4296532164861
 51
344.5703467835135
  0
ARC
  5
324
330
87
100
AcDbEntity
  8
1
  6
Continuous
 62
     7
100
AcDbCircle
 10
455.9038814216428
 20
280.1570386921517
 30
0.0
 40
6.982679464217199
100
AcDbArc
 50
270.0
 51
311.6830072544246
  0
ARC
  5
325
330
87
100
AcDbEntity
  8
1
  6
Continuous
 62
     7
100
AcDbCircle
 10
143.9038814216428
 20
280.1570386921517
 30
0.0
 40
6.982679464217199
100
AcDbArc
 50
270.0
 51
311.6830072544244
  0
ARC
  5
326
330
87
100
AcDbEntity
  8
1
  6
Continuous
 62
     7
100
AcDbCircle
 10
155.2816128358722
 20
275.5829417013511
 30
0.0
 40
2.408582473417157
100
AcDbArc
 50
195.4296532164854
 51
344.5703467835126
  0
ARC
  5
327
330
87
100
AcDbEntity
  8
1
  6
Continuous
 62
     7
100
AcDbCircle
 10
155.2816128358722
 20
279.84434639846
 30
0.0
 40
2.979120642259613
100
AcDbArc
 50
38.79907508316862
 51
141.2009249168352
  0
ARC
  5
328
330
87
100
AcDbEntity
  8
1
  6
Continuous
 62
     7
100
AcDbCircle
 10
143.9038814216428
 20
272.5756291312785
 30
0.0
 40
10.24783790944133
100
AcDbArc
 50
63.05568978316835
 51
90.0
  0
ARC
  5
329
330
87
100
AcDbEntity
  8
1
  6
Continuous
 62
     7
100
AcDbCircle
 10
156.7072571828894
 20
281.7110372676552
 30
0.0
 40
1.200000000000699
100
AcDbArc
 50
0.0
 51
90.0
  0
ARC
  5
32A
330
87
100
AcDbEntity
  8
1
  6
Continuous
 62
     7
100
AcDbCircle
 10
131.1072571828905
 20
281.7110372676552
 30
0.0
 40
1.199999999999932
100
AcDbArc
 50
90.0
 51
180.0
  0
ARC
  5
32B
330
87
100
AcDbEntity
  8
1
  6
Continuous
 62
     7
100
AcDbCircle
 10
143.9038814216428
 20
272.5756291312785
 30
0.0
 40
10.2478379094411
100
AcDbArc
 50
90.0
 51
116.9443102168247
  0
ARC
  5
32C
330
87
100
AcDbEntity
  8
1
  6
Continuous
 62
     7
100
AcDbCircle
 10
132.532901529908
 20
279.84434639846
 30
0.0
 40
2.979120642259768
100
AcDbArc
 50
38.79907508316622
 51
141.200924916829
  0
ARC
  5
32D
330
87
100
AcDbEntity
  8
1
  6
Continuous
 62
     7
100
AcDbCircle
 10
132.532901529908
 20
275.5829417013511
 30
0.0
 40
2.408582473416664
100
AcDbArc
 50
195.4296532164886
 51
344.5703467835139
  0
ARC
  5
32E
330
87
100
AcDbEntity
  8
1
  6
Continuous
 62
     7
100
AcDbCircle
 10
143.9038814216428
 20
280.1570386921517
 30
0.0
 40
6.982679464216793
100
AcDbArc
 50
228.3169927455841
 51
270.0
  0
ARC
  5
32F
330
87
100
AcDbEntity
  8
1
  6
Continuous
 62
     7
100
AcDbCircle
 10
443.6538814216428
 20
274.9421261809007
 30
0.0
 40
2.5
100
AcDbArc
 50
180.0
 51
240.0000000000001
  0
ARC
  5
330
330
87
100
AcDbEntity
  8
1
  6
Continuous
 62
     7
100
AcDbCircle
 10
444.037856017858
 20
272.4110372676551
 30
0.0
 40
0.4999999999998934
100
AcDbArc
 50
239.9999999999929
 51
270.0
  0
ARC
  5
331
330
87
100
AcDbEntity
  8
1
  6
Continuous
 62
     7
100
AcDbCircle
 10
467.7699068254269
 20
272.4110372676551
 30
0.0
 40
0.5
100
AcDbArc
 50
270.0
 51
300.000000000007
  0
ARC
  5
332
330
87
100
AcDbEntity
  8
1
  6
Continuous
 62
     7
100
AcDbCircle
 10
468.1538814216428
 20
274.9421261809007
 30
0.0
 40
2.500000000000008
100
AcDbArc
 50
299.9999999999998
 51
0.0
  0
ARC
  5
333
330
87
100
AcDbEntity
  8
1
  6
Continuous
 62
     7
100
AcDbCircle
 10
155.4072571828901
 20
274.9421261809007
 30
0.0
 40
2.500000000000008
100
AcDbArc
 50
299.9999999999998
 51
0.0
  0
ARC
  5
334
330
87
100
AcDbEntity
  8
1
  6
Continuous
 62
     7
100
AcDbCircle
 10
155.0232825866742
 20
272.4110372676551
 30
0.0
 40
0.5
100
AcDbArc
 50
270.0
 51
300.000000000007
  0
ARC
  5
335
330
87
100
AcDbEntity
  8
1
  6
Continuous
 62
     7
100
AcDbCircle
 10
132.7912317791053
 20
272.4110372676551
 30
0.0
 40
0.4999999999998934
100
AcDbArc
 50
239.9999999999929
 51
270.0
  0
ARC
  5
336
330
87
100
AcDbEntity
  8
1
  6
Continuous
 62
     7
100
AcDbCircle
 10
132.4072571828901
 20
274.9421261809007
 30
0.0
 40
2.5
100
AcDbArc
 50
180.0
 51
240.0000000000001
  0
ENDBLK
  5
89
330
87
100
AcDbEntity
  8
0
100
AcDbBlockEnd
  0
BLOCK
  5
8B
330
8A
100
AcDbEntity
  8
0
100
AcDbBlockBegin
  2
39-434
 70
     0
 10
526.7339602916311
 20
-65.09309054412552
 30
0.0
  3
39-434
  1

  0
LINE
  5
337
330
8A
100
AcDbEntity
  8
1
  6
Continuous
 62
     2
100
AcDbLine
 10
132.9088108858395
 20
667.8493508881506
 30
0.0
 11
132.9088108858395
 21
645.5087519649087
 31
0.0
  0
LINE
  5
338
330
8A
100
AcDbEntity
  8
1
  6
Continuous
 62
     2
100
AcDbLine
 10
130.9088108858395
 20
669.0040514265297
 30
0.0
 11
130.9088108858395
 21
645.5087519649087
 31
0.0
  0
LINE
  5
339
330
8A
100
AcDbEntity
  8
1
  6
Continuous
 62
     7
100
AcDbLine
 10
128.9088108858397
 20
669.1587519649097
 30
0.0
 11
128.9088108858397
 21
645.5087519649087
 31
0.0
  0
LINE
  5
33A
330
8A
100
AcDbEntity
  8
1
  6
Continuous
 62
     7
100
AcDbLine
 10
158.9088108858397
 20
645.5087519649087
 30
0.0
 11
158.9088108858401
 21
669.1587519649097
 31
0.0
  0
LINE
  5
33B
330
8A
100
AcDbEntity
  8
1
  6
Continuous
 62
     7
100
AcDbLine
 10
143.90881088584
 20
669.1587519649097
 30
0.0
 11
157.9088108858401
 21
669.1587519649097
 31
0.0
  0
LINE
  5
33C
330
8A
100
AcDbEntity
  8
1
  6
Continuous
 62
     7
100
AcDbLine
 10
157.9088108858401
 20
669.1587519649097
 30
0.0
 11
158.9088108858401
 21
669.1587519649097
 31
0.0
  0
LINE
  5
33D
330
8A
100
AcDbEntity
  8
1
  6
Continuous
 62
     7
100
AcDbLine
 10
158.9088108858401
 20
669.1587519649097
 30
0.0
 11
157.9088108858401
 21
670.1587519649097
 31
0.0
  0
LINE
  5
33E
330
8A
100
AcDbEntity
  8
1
  6
Continuous
 62
     7
100
AcDbLine
 10
143.90881088584
 20
670.1587519649097
 30
0.0
 11
157.9088108858401
 21
670.1587519649097
 31
0.0
  0
LINE
  5
33F
330
8A
100
AcDbEntity
  8
1
  6
Continuous
 62
     7
100
AcDbLine
 10
129.90881088584
 20
669.1587519649097
 30
0.0
 11
143.90881088584
 21
669.1587519649097
 31
0.0
  0
LINE
  5
340
330
8A
100
AcDbEntity
  8
1
  6
Continuous
 62
     2
100
AcDbLine
 10
129.9088108858395
 20
645.5087519649087
 30
0.0
 11
129.90881088584
 21
669.1587519649097
 31
0.0
  0
LINE
  5
341
330
8A
100
AcDbEntity
  8
1
  6
Continuous
 62
     2
100
AcDbLine
 10
131.9088108858395
 20
645.5087519649087
 30
0.0
 11
131.9088108858395
 21
668.4267011573406
 31
0.0
  0
LINE
  5
342
330
8A
100
AcDbEntity
  8
1
  6
Continuous
 62
     2
100
AcDbLine
 10
133.9088108858395
 20
646.0455033108574
 30
0.0
 11
133.9088108858395
 21
667.2720006189616
 31
0.0
  0
LINE
  5
343
330
8A
100
AcDbEntity
  8
1
  6
Continuous
 62
     2
100
AcDbLine
 10
134.9088108858395
 20
666.6946503497716
 30
0.0
 11
134.9088108858395
 21
646.6228535800467
 31
0.0
  0
LINE
  5
344
330
8A
100
AcDbEntity
  8
1
  6
Continuous
 62
     2
100
AcDbLine
 10
135.9088108858395
 20
647.2002038492367
 30
0.0
 11
135.9088108858395
 21
666.1173000805813
 31
0.0
  0
LINE
  5
345
330
8A
100
AcDbEntity
  8
1
  6
Continuous
 62
     2
100
AcDbLine
 10
136.9088108858395
 20
665.5399498113927
 30
0.0
 11
136.9088108858395
 21
647.7775541184267
 31
0.0
  0
LINE
  5
346
330
8A
100
AcDbEntity
  8
1
  6
Continuous
 62
     2
100
AcDbLine
 10
137.9088108858395
 20
648.3549043876155
 30
0.0
 11
137.9088108858395
 21
664.9625995422027
 31
0.0
  0
LINE
  5
347
330
8A
100
AcDbEntity
  8
1
  6
Continuous
 62
     2
100
AcDbLine
 10
138.9088108858395
 20
664.3852492730127
 30
0.0
 11
138.9088108858395
 21
648.9322546568055
 31
0.0
  0
LINE
  5
348
330
8A
100
AcDbEntity
  8
1
  6
Continuous
 62
     2
100
AcDbLine
 10
139.9088108858395
 20
649.5096049259946
 30
0.0
 11
139.9088108858395
 21
663.8078990038236
 31
0.0
  0
LINE
  5
349
330
8A
100
AcDbEntity
  8
1
  6
Continuous
 62
     2
100
AcDbLine
 10
140.9088108858395
 20
663.2305487346337
 30
0.0
 11
140.9088108858395
 21
650.0869551951846
 31
0.0
  0
LINE
  5
34A
330
8A
100
AcDbEntity
  8
1
  6
Continuous
 62
     2
100
AcDbLine
 10
141.9088108858395
 20
650.6643054643746
 30
0.0
 11
141.9088108858395
 21
662.6531984654446
 31
0.0
  0
LINE
  5
34B
330
8A
100
AcDbEntity
  8
1
  6
Continuous
 62
     2
100
AcDbLine
 10
142.9088108858395
 20
662.0758481962546
 30
0.0
 11
142.9088108858395
 21
651.2416557335637
 31
0.0
  0
LINE
  5
34C
330
8A
100
AcDbEntity
  8
1
  6
Continuous
 62
     7
100
AcDbLine
 10
128.9088108858397
 20
669.1587519649097
 30
0.0
 11
129.90881088584
 21
669.1587519649097
 31
0.0
  0
LINE
  5
34D
330
8A
100
AcDbEntity
  8
1
  6
Continuous
 62
     7
100
AcDbLine
 10
129.9088108858395
 20
670.1587519649097
 30
0.0
 11
128.9088108858397
 21
669.1587519649097
 31
0.0
  0
LINE
  5
34E
330
8A
100
AcDbEntity
  8
1
  6
Continuous
 62
     7
100
AcDbLine
 10
129.9088108858395
 20
670.1587519649097
 30
0.0
 11
143.90881088584
 21
670.1587519649097
 31
0.0
  0
LINE
  5
34F
330
8A
100
AcDbEntity
  8
1
  6
Continuous
 62
     7
100
AcDbLine
 10
418.5538814216453
 20
252.009483564702
 30
0.0
 11
418.5538814216453
 21
238.0094835647016
 31
0.0
  0
LINE
  5
350
330
8A
100
AcDbEntity
  8
1
  6
Continuous
 62
     7
100
AcDbLine
 10
418.5538814216453
 20
252.009483564702
 30
0.0
 11
417.5538814216453
 21
253.0094835647018
 31
0.0
  0
LINE
  5
351
330
8A
100
AcDbEntity
  8
1
  6
Continuous
 62
     7
100
AcDbLine
 10
417.5538814216453
 20
253.0094835647018
 30
0.0
 11
417.5538814216453
 21
252.0094835647016
 31
0.0
  0
LINE
  5
352
330
8A
100
AcDbEntity
  8
1
  6
Continuous
 62
     2
100
AcDbLine
 10
410.47097765299
 20
239.009483564702
 30
0.0
 11
399.6367851902991
 21
239.009483564702
 31
0.0
  0
LINE
  5
353
330
8A
100
AcDbEntity
  8
1
  6
Continuous
 62
     2
100
AcDbLine
 10
399.0594349211102
 20
240.009483564702
 30
0.0
 11
411.04832792218
 21
240.009483564702
 31
0.0
  0
LINE
  5
354
330
8A
100
AcDbEntity
  8
1
  6
Continuous
 62
     2
100
AcDbLine
 10
411.6256781913689
 20
241.009483564702
 30
0.0
 11
398.4820846519202
 21
241.009483564702
 31
0.0
  0
LINE
  5
355
330
8A
100
AcDbEntity
  8
1
  6
Continuous
 62
     2
100
AcDbLine
 10
397.9047343827302
 20
242.009483564702
 30
0.0
 11
412.2030284605592
 21
242.009483564702
 31
0.0
  0
LINE
  5
356
330
8A
100
AcDbEntity
  8
1
  6
Continuous
 62
     2
100
AcDbLine
 10
412.7803787297482
 20
243.009483564702
 30
0.0
 11
397.327384113541
 21
243.009483564702
 31
0.0
  0
LINE
  5
357
330
8A
100
AcDbEntity
  8
1
  6
Continuous
 62
     2
100
AcDbLine
 10
396.750033844351
 20
244.009483564702
 30
0.0
 11
413.3577289989382
 21
244.009483564702
 31
0.0
  0
LINE
  5
358
330
8A
100
AcDbEntity
  8
1
  6
Continuous
 62
     2
100
AcDbLine
 10
413.9350792681282
 20
245.009483564702
 30
0.0
 11
396.1726835751621
 21
245.009483564702
 31
0.0
  0
LINE
  5
359
330
8A
100
AcDbEntity
  8
1
  6
Continuous
 62
     2
100
AcDbLine
 10
395.5953333059721
 20
246.009483564702
 30
0.0
 11
414.512429537317
 21
246.009483564702
 31
0.0
  0
LINE
  5
35A
330
8A
100
AcDbEntity
  8
1
  6
Continuous
 62
     2
100
AcDbLine
 10
415.0897798065071
 20
247.009483564702
 30
0.0
 11
395.0179830367823
 21
247.009483564702
 31
0.0
  0
LINE
  5
35B
330
8A
100
AcDbEntity
  8
1
  6
Continuous
 62
     2
100
AcDbLine
 10
394.4406327675932
 20
248.009483564702
 30
0.0
 11
415.6671300756971
 21
248.009483564702
 31
0.0
  0
LINE
  5
35C
330
8A
100
AcDbEntity
  8
1
  6
Continuous
 62
     2
100
AcDbLine
 10
393.9038814216443
 20
250.009483564702
 30
0.0
 11
416.8218306140761
 21
250.009483564702
 31
0.0
  0
LINE
  5
35D
330
8A
100
AcDbEntity
  8
1
  6
Continuous
 62
     2
100
AcDbLine
 10
393.9038814216443
 20
252.009483564702
 30
0.0
 11
417.5538814216453
 21
252.0094835647016
 31
0.0
  0
LINE
  5
35E
330
8A
100
AcDbEntity
  8
1
  6
Continuous
 62
     7
100
AcDbLine
 10
417.5538814216453
 20
252.0094835647016
 30
0.0
 11
417.5538814216453
 21
238.0094835647016
 31
0.0
  0
LINE
  5
35F
330
8A
100
AcDbEntity
  8
1
  6
Continuous
 62
     7
100
AcDbLine
 10
418.5538814216453
 20
238.0094835647016
 30
0.0
 11
418.5538814216453
 21
224.0094835647014
 31
0.0
  0
LINE
  5
360
330
8A
100
AcDbEntity
  8
1
  6
Continuous
 62
     7
100
AcDbLine
 10
417.5538814216453
 20
223.0094835647014
 30
0.0
 11
418.5538814216453
 21
224.0094835647014
 31
0.0
  0
LINE
  5
361
330
8A
100
AcDbEntity
  8
1
  6
Continuous
 62
     7
100
AcDbLine
 10
417.5538814216453
 20
224.0094835647014
 30
0.0
 11
417.5538814216453
 21
223.0094835647014
 31
0.0
  0
LINE
  5
362
330
8A
100
AcDbEntity
  8
1
  6
Continuous
 62
     7
100
AcDbLine
 10
417.5538814216453
 20
238.0094835647016
 30
0.0
 11
417.5538814216453
 21
224.0094835647014
 31
0.0
  0
LINE
  5
363
330
8A
100
AcDbEntity
  8
1
  6
Continuous
 62
     7
100
AcDbLine
 10
392.6350342687667
 20
223.0094835647018
 30
0.0
 11
417.5538814216453
 21
223.0094835647014
 31
0.0
  0
LINE
  5
364
330
8A
100
AcDbEntity
  8
1
  6
Continuous
 62
     7
100
AcDbLine
 10
417.5538814216453
 20
253.0094835647018
 30
0.0
 11
393.9038814216443
 21
253.0094835647018
 31
0.0
  0
LINE
  5
365
330
8A
100
AcDbEntity
  8
1
  6
Continuous
 62
     2
100
AcDbLine
 10
417.3991808832653
 20
251.009483564702
 30
0.0
 11
393.9038814216443
 21
251.009483564702
 31
0.0
  0
LINE
  5
366
330
8A
100
AcDbEntity
  8
1
  6
Continuous
 62
     2
100
AcDbLine
 10
416.2444803448861
 20
249.009483564702
 30
0.0
 11
393.9038814216443
 21
249.009483564702
 31
0.0
  0
ENDBLK
  5
8C
330
8A
100
AcDbEntity
  8
0
100
AcDbBlockEnd
  0
BLOCK
  5
8E
330
8D
100
AcDbEntity
  8
0
100
AcDbBlockBegin
  2
35-208
 70
     0
 10
-545.9966719080098
 20
491.7864541056683
 30
0.0
  3
35-208
  1

  0
LINE
  5
367
330
8D
100
AcDbEntity
  8
1
  6
Continuous
 62
     7
100
AcDbLine
 10
151.2588108858452
 20
695.5871215840768
 30
0.0
 11
151.2588108858452
 21
670.1600613149858
 31
0.0
  0
LINE
  5
368
330
8D
100
AcDbEntity
  8
1
  6
Continuous
 62
     7
100
AcDbLine
 10
136.5588108858448
 20
670.1600613149858
 30
0.0
 11
136.5588108858448
 21
695.5871215840768
 31
0.0
  0
LINE
  5
369
330
8D
100
AcDbEntity
  8
1
  6
Continuous
 62
     7
100
AcDbLine
 10
446.9038814216428
 20
230.6610372676551
 30
0.0
 11
418.5538814216453
 21
230.6610372676551
 31
0.0
  0
LINE
  5
36A
330
8D
100
AcDbEntity
  8
1
  6
Continuous
 62
     7
100
AcDbLine
 10
418.5538814216453
 20
245.3610372676553
 30
0.0
 11
446.9038814216428
 21
245.3610372676553
 31
0.0
  0
ARC
  5
36B
330
8D
100
AcDbEntity
  8
1
  6
Continuous
 62
     7
100
AcDbCircle
 10
441.7193144925091
 20
238.0110372676552
 30
0.0
 40
8.994566929133835
100
AcDbArc
 50
305.1985023542538
 51
54.80149764574605
  0
ENDBLK
  5
8F
330
8D
100
AcDbEntity
  8
0
100
AcDbBlockEnd
  0
BLOCK
  5
91
330
90
100
AcDbEntity
  8
0
100
AcDbBlockBegin
  2
_4
 70
     0
 10
240.3337964503769
 20
227.2430067543193
 30
0.0
  3
_4
  1

  0
LINE
  5
36C
330
90
100
AcDbEntity
  8
1
  6
Continuous
 62
     7
100
AcDbLine
 10
446.9038814216428
 20
245.3610372676553
 30
0.0
 11
446.9038814216428
 21
271.6110372676554
 31
0.0
  0
LINE
  5
36D
330
90
100
AcDbEntity
  8
1
  6
Continuous
 62
     7
100
AcDbLine
 10
464.6038814216429
 20
271.9110372676553
 30
0.0
 11
464.9038814216428
 21
271.6110372676554
 31
0.0
  0
LINE
  5
36E
330
90
100
AcDbEntity
  8
1
  6
Continuous
 62
     7
100
AcDbLine
 10
447.203881421643
 20
271.9110372676553
 30
0.0
 11
446.9038814216428
 21
271.6110372676554
 31
0.0
  0
LINE
  5
36F
330
90
100
AcDbEntity
  8
1
  6
Continuous
 62
     7
100
AcDbLine
 10
463.9038814216428
 20
271.9110372676547
 30
0.0
 11
464.6038814216429
 21
271.9110372676553
 31
0.0
  0
LINE
  5
370
330
90
100
AcDbEntity
  8
1
  6
Continuous
 62
     7
100
AcDbLine
 10
447.203881421643
 20
271.9110372676553
 30
0.0
 11
447.9038814216428
 21
271.9110372676547
 31
0.0
  0
LINE
  5
371
330
90
100
AcDbEntity
  8
1
  6
Continuous
 62
     7
100
AcDbLine
 10
464.4038814216428
 20
228.0110372676544
 30
0.0
 11
464.9038814216428
 21
228.5110372676549
 31
0.0
  0
LINE
  5
372
330
90
100
AcDbEntity
  8
1
  6
Continuous
 62
     7
100
AcDbLine
 10
446.9038814216428
 20
228.5110372676549
 30
0.0
 11
447.4038814216428
 21
228.0110372676544
 31
0.0
  0
LINE
  5
373
330
90
100
AcDbEntity
  8
1
  6
Continuous
 62
     7
100
AcDbLine
 10
464.4038814216428
 20
228.0110372676544
 30
0.0
 11
447.4038814216428
 21
228.0110372676544
 31
0.0
  0
LINE
  5
374
330
90
100
AcDbEntity
  8
1
  6
Continuous
 62
     7
100
AcDbLine
 10
446.9038814216428
 20
228.5110372676549
 30
0.0
 11
446.9038814216428
 21
230.6610372676551
 31
0.0
  0
LINE
  5
375
330
90
100
AcDbEntity
  8
1
  6
Continuous
 62
     7
100
AcDbLine
 10
464.6038814216429
 20
271.9110372676553
 30
0.0
 11
464.9038814216428
 21
271.6110372676554
 31
0.0
  0
LINE
  5
376
330
90
100
AcDbEntity
  8
1
  6
Continuous
 62
     7
100
AcDbLine
 10
447.203881421643
 20
271.9110372676553
 30
0.0
 11
464.6038814216429
 21
271.9110372676553
 31
0.0
  0
LINE
  5
377
330
90
100
AcDbEntity
  8
1
  6
Continuous
 62
     7
100
AcDbLine
 10
464.9038814216428
 20
271.6110372676554
 30
0.0
 11
464.9038814216428
 21
228.5110372676549
 31
0.0
  0
LINE
  5
378
330
90
100
AcDbEntity
  8
1
  6
Continuous
 62
     7
100
AcDbLine
 10
446.9038814216428
 20
271.6110372676554
 30
0.0
 11
447.203881421643
 21
271.9110372676553
 31
0.0
  0
LINE
  5
379
330
90
100
AcDbEntity
  8
1
  6
Continuous
 62
     7
100
AcDbLine
 10
446.9038814216428
 20
271.6110372676554
 30
0.0
 11
464.9038814216428
 21
271.6110372676554
 31
0.0
  0
LINE
  5
37A
330
90
100
AcDbEntity
  8
1
  6
Continuous
 62
     7
100
AcDbLine
 10
134.9038814216428
 20
271.6110372676554
 30
0.0
 11
152.9038814216428
 21
271.6110372676554
 31
0.0
  0
LINE
  5
37B
330
90
100
AcDbEntity
  8
1
  6
Continuous
 62
     7
100
AcDbLine
 10
134.9038814216428
 20
271.6110372676554
 30
0.0
 11
135.203881421643
 21
271.9110372676553
 31
0.0
  0
LINE
  5
37C
330
90
100
AcDbEntity
  8
1
  6
Continuous
 62
     7
100
AcDbLine
 10
152.9038814216428
 20
271.6110372676554
 30
0.0
 11
152.9038814216428
 21
266.1943677770865
 31
0.0
  0
LINE
  5
37D
330
90
100
AcDbEntity
  8
1
  6
Continuous
 62
     7
100
AcDbLine
 10
135.203881421643
 20
271.9110372676553
 30
0.0
 11
152.6038814216429
 21
271.9110372676553
 31
0.0
  0
LINE
  5
37E
330
90
100
AcDbEntity
  8
1
  6
Continuous
 62
     7
100
AcDbLine
 10
152.6038814216429
 20
271.9110372676553
 30
0.0
 11
152.9038814216428
 21
271.6110372676554
 31
0.0
  0
LINE
  5
37F
330
90
100
AcDbEntity
  8
1
  6
Continuous
 62
     7
100
AcDbLine
 10
135.203881421643
 20
271.9110372676553
 30
0.0
 11
135.9038814216428
 21
271.9110372676547
 31
0.0
  0
LINE
  5
380
330
90
100
AcDbEntity
  8
1
  6
Continuous
 62
     7
100
AcDbLine
 10
151.9038814216428
 20
271.9110372676547
 30
0.0
 11
152.6038814216429
 21
271.9110372676553
 31
0.0
  0
LINE
  5
381
330
90
100
AcDbEntity
  8
1
  6
Continuous
 62
     7
100
AcDbLine
 10
135.203881421643
 20
271.9110372676553
 30
0.0
 11
134.9038814216428
 21
271.6110372676554
 31
0.0
  0
LINE
  5
382
330
90
100
AcDbEntity
  8
1
  6
Continuous
 62
     7
100
AcDbLine
 10
152.6038814216429
 20
271.9110372676553
 30
0.0
 11
152.9038814216428
 21
271.6110372676554
 31
0.0
  0
LINE
  5
383
330
90
100
AcDbEntity
  8
1
  6
Continuous
 62
     7
100
AcDbLine
 10
134.9038814216428
 20
266.1943677770866
 30
0.0
 11
134.9038814216428
 21
271.6110372676554
 31
0.0
  0
ENDBLK
  5
92
330
90
100
AcDbEntity
  8
0
100
AcDbBlockEnd
  0
BLOCK
  5
98
330
93
100
AcDbEntity
  8
0
100
AcDbBlockBegin
  2
EA10-61DF1
 70
     0
 10
329.980488847062
 20
-78.87657318690242
 30
0.0
  3
EA10-61DF1
  1

  0
INSERT
  5
94
330
93
100
AcDbEntity
  8
1
100
AcDbBlockReference
  2
32-215
 10
268.1972571828921
 20
-442.5482802147403
 30
0.0
  0
INSERT
  5
95
330
93
100
AcDbEntity
  8
0
100
AcDbBlockReference
  2
39-434
 10
526.7339602916311
 20
-65.09309054412552
 30
0.0
  0
INSERT
  5
96
330
93
100
AcDbEntity
  8
0
100
AcDbBlockReference
  2
35-208
 10
-545.9966719080098
 20
491.7864541056683
 30
0.0
  0
INSERT
  5
97
330
93
100
AcDbEntity
  8
1
100
AcDbBlockReference
  2
_4
 10
240.3337964503769
 20
227.2430067543193
 30
0.0
  0
ENDBLK
  5
99
330
93
100
AcDbEntity
  8
0
100
AcDbBlockEnd
  0
BLOCK
  5
3A1
330
39A
100
AcDbEntity
  8
0
100
AcDbBlockBegin
  2
*D25
 70
     1
 10
0.0
 20
0.0
 30
0.0
  3
*D25
  1

  0
LINE
  5
39B
330
39A
100
AcDbEntity
  8
1
  6
Continuous
 62
     2
100
AcDbLine
 10
235.1177713549102
 20
460.5110372676545
 30
0.0
 11
235.1177713549102
 21
707.5110372676543
 31
0.0
  0
LINE
  5
39C
330
39A
100
AcDbEntity
  8
1
  6
Continuous
 62
     2
100
AcDbLine
 10
160.903881421643
 20
707.5110372676543
 30
0.0
 11
238.1177713549102
 21
707.5110372676543
 31
0.0
  0
LINE
  5
39D
330
39A
100
AcDbEntity
  8
1
  6
Continuous
 62
     2
100
AcDbLine
 10
164.903881421643
 20
460.5110372676545
 30
0.0
 11
238.1177713549102
 21
460.5110372676545
 31
0.0
  0
SOLID
  5
39E
330
39A
100
AcDbEntity
  8
1
 62
     2
100
AcDbTrace
 10
233.7354201302425
 20
471.0110372676545
 30
0.0
 11
236.5001225795779
 21
471.0110372676545
 31
0.0
 12
235.1177713549102
 22
460.5110372676545
 32
0.0
 13
235.1177713549102
 23
460.5110372676545
 33
0.0
  0
SOLID
  5
39F
330
39A
100
AcDbEntity
  8
1
 62
     2
100
AcDbTrace
 10
236.5001225795778
 20
697.0110372676543
 30
0.0
 11
233.7354201302425
 21
697.0110372676543
 31
0.0
 12
235.1177713549102
 22
707.5110372676543
 32
0.0
 13
235.1177713549102
 23
707.5110372676543
 33
0.0
  0
MTEXT
  5
3A0
330
39A
100
AcDbEntity
  8
1
 62
     7
100
AcDbMText
 10
232.1177713549102
 20
566.8937142551023
 30
0.0
 40
10.50000000000001
 41
0.0
 71
     7
 72
     1
  1
247
  7
CONVERTER_12
 11
0.0
 21
1.0
 31
0.0
 73
     1
 44
0.60024009603842
  0
ENDBLK
  5
3A2
330
39A
100
AcDbEntity
  8
0
100
AcDbBlockEnd
  0
BLOCK
  5
3AC
330
3A5
100
AcDbEntity
  8
0
100
AcDbBlockBegin
  2
*D26
 70
     1
 10
0.0
 20
0.0
 30
0.0
  3
*D26
  1

  0
LINE
  5
3A6
330
3A5
100
AcDbEntity
  8
1
  6
Continuous
 62
     2
100
AcDbLine
 10
115.903881421643
 20
438.1080040721943
 30
0.0
 11
171.9038814216431
 21
438.1080040721943
 31
0.0
  0
LINE
  5
3A7
330
3A5
100
AcDbEntity
  8
1
  6
Continuous
 62
     2
100
AcDbLine
 10
115.903881421643
 20
583.5110372675423
 30
0.0
 11
115.903881421643
 21
435.1080040721943
 31
0.0
  0
LINE
  5
3A8
330
3A5
100
AcDbEntity
  8
1
  6
Continuous
 62
     2
100
AcDbLine
 10
171.9038814216431
 20
583.5110372675423
 30
0.0
 11
171.9038814216431
 21
435.1080040721943
 31
0.0
  0
SOLID
  5
3A9
330
3A5
100
AcDbEntity
  8
1
 62
     2
100
AcDbTrace
 10
126.403881421643
 20
439.490355296862
 30
0.0
 11
126.403881421643
 21
436.7256528475266
 31
0.0
 12
115.903881421643
 22
438.1080040721943
 32
0.0
 13
115.903881421643
 23
438.1080040721943
 33
0.0
  0
SOLID
  5
3AA
330
3A5
100
AcDbEntity
  8
1
 62
     2
100
AcDbTrace
 10
161.403881421643
 20
436.7256528475266
 30
0.0
 11
161.403881421643
 21
439.490355296862
 31
0.0
 12
171.9038814216431
 22
438.1080040721943
 32
0.0
 13
171.9038814216431
 23
438.1080040721943
 33
0.0
  0
MTEXT
  5
3AB
330
3A5
100
AcDbEntity
  8
1
 62
     7
100
AcDbMText
 10
136.028881421643
 20
441.1080040721943
 30
0.0
 40
10.50000000000001
 41
0.0
 71
     7
 72
     1
  1
56
  7
CONVERTER_12
 11
0.9999999999970619
 21
2.424068405545306E-6
 31
0.0
 73
     1
 44
0.60024009603842
  0
ENDBLK
  5
3AD
330
3A5
100
AcDbEntity
  8
0
100
AcDbBlockEnd
  0
BLOCK
  5
3B7
330
3B0
100
AcDbEntity
  8
0
100
AcDbBlockBegin
  2
*D27
 70
     1
 10
0.0
 20
0.0
 30
0.0
  3
*D27
  1

  0
LINE
  5
3B1
330
3B0
100
AcDbEntity
  8
1
  6
Continuous
 62
     2
100
AcDbLine
 10
197.8505590321291
 20
645.5110372676553
 30
0.0
 11
197.8505590321291
 21
460.5110372676546
 31
0.0
  0
LINE
  5
3B2
330
3B0
100
AcDbEntity
  8
1
  6
Continuous
 62
     2
100
AcDbLine
 10
164.3169788682634
 20
645.5110372676553
 30
0.0
 11
200.8505590321291
 21
645.5110372676553
 31
0.0
  0
LINE
  5
3B3
330
3B0
100
AcDbEntity
  8
1
  6
Continuous
 62
     2
100
AcDbLine
 10
164.903881421643
 20
460.5110372676546
 30
0.0
 11
200.8505590321291
 21
460.5110372676546
 31
0.0
  0
SOLID
  5
3B4
330
3B0
100
AcDbEntity
  8
1
 62
     2
100
AcDbTrace
 10
199.2329102567967
 20
635.0110372676553
 30
0.0
 11
196.4682078074614
 21
635.0110372676553
 31
0.0
 12
197.8505590321291
 22
645.5110372676553
 32
0.0
 13
197.8505590321291
 23
645.5110372676553
 33
0.0
  0
SOLID
  5
3B5
330
3B0
100
AcDbEntity
  8
1
 62
     2
100
AcDbTrace
 10
196.4682078074614
 20
471.0110372676546
 30
0.0
 11
199.2329102567968
 21
471.0110372676546
 31
0.0
 12
197.8505590321291
 22
460.5110372676546
 32
0.0
 13
197.8505590321291
 23
460.5110372676546
 33
0.0
  0
MTEXT
  5
3B6
330
3B0
100
AcDbEntity
  8
1
 62
     7
100
AcDbMText
 10
194.8505590321291
 20
544.2436459343213
 30
0.0
 40
10.50000000000001
 41
0.0
 71
     7
 72
     1
  1
185
  7
CONVERTER_12
 11
0.0
 21
1.0
 31
0.0
 73
     1
 44
0.60024009603842
  0
ENDBLK
  5
3B8
330
3B0
100
AcDbEntity
  8
0
100
AcDbBlockEnd
  0
BLOCK
  5
3C4
330
3BB
100
AcDbEntity
  8
0
100
AcDbBlockBegin
  2
*D28
 70
     1
 10
0.0
 20
0.0
 30
0.0
  3
*D28
  1

  0
LINE
  5
3BC
330
3BB
100
AcDbEntity
  8
1
  6
Continuous
 62
     2
100
AcDbLine
 10
94.93065139773901
 20
238.0110372676549
 30
0.0
 11
94.93065139773901
 21
259.0110372676549
 31
0.0
  0
LINE
  5
3BD
330
3BB
100
AcDbEntity
  8
1
  6
Continuous
 62
     2
100
AcDbLine
 10
94.93065139773901
 20
212.0110372676549
 30
0.0
 11
94.93065139773901
 21
238.0110372676549
 31
0.0
  0
LINE
  5
3BE
330
3BB
100
AcDbEntity
  8
1
  6
Continuous
 62
     2
100
AcDbLine
 10
94.93065139773901
 20
191.0110372676548
 30
0.0
 11
94.93065139773901
 21
212.0110372676549
 31
0.0
  0
LINE
  5
3BF
330
3BB
100
AcDbEntity
  8
1
  6
Continuous
 62
     2
100
AcDbLine
 10
135.903881421643
 20
212.0110372676549
 30
0.0
 11
91.930651397739
 21
212.0110372676549
 31
0.0
  0
LINE
  5
3C0
330
3BB
100
AcDbEntity
  8
1
  6
Continuous
 62
     2
100
AcDbLine
 10
125.831456669213
 20
238.0110372676549
 30
0.0
 11
91.930651397739
 21
238.0110372676549
 31
0.0
  0
SOLID
  5
3C1
330
3BB
100
AcDbEntity
  8
1
 62
     2
100
AcDbTrace
 10
96.31300262240667
 20
201.5110372676549
 30
0.0
 11
93.54830017307135
 21
201.5110372676549
 31
0.0
 12
94.93065139773901
 22
212.0110372676549
 32
0.0
 13
94.93065139773901
 23
212.0110372676549
 33
0.0
  0
SOLID
  5
3C2
330
3BB
100
AcDbEntity
  8
1
 62
     2
100
AcDbTrace
 10
93.54830017307135
 20
248.5110372676549
 30
0.0
 11
96.31300262240667
 21
248.5110372676549
 31
0.0
 12
94.93065139773901
 22
238.0110372676549
 32
0.0
 13
94.93065139773901
 23
238.0110372676549
 33
0.0
  0
MTEXT
  5
3C3
330
3BB
100
AcDbEntity
  8
1
 62
     7
100
AcDbMText
 10
91.930651397739
 20
217.1806824046421
 30
0.0
 40
10.50000000000001
 41
0.0
 71
     7
 72
     1
  1
26
  7
CONVERTER_12
 11
0.0
 21
1.0
 31
0.0
 73
     1
 44
0.60024009603842
  0
ENDBLK
  5
3C5
330
3BB
100
AcDbEntity
  8
0
100
AcDbBlockEnd
  0
BLOCK
  5
3CF
330
3C8
100
AcDbEntity
  8
0
100
AcDbBlockBegin
  2
*D29
 70
     1
 10
0.0
 20
0.0
 30
0.0
  3
*D29
  1

  0
LINE
  5
3C9
330
3C8
100
AcDbEntity
  8
1
  6
Continuous
 62
     2
100
AcDbLine
 10
434.0948758713989
 20
301.410061314983
 30
0.0
 11
434.0948758713989
 21
360.410061314983
 31
0.0
  0
LINE
  5
3CA
330
3C8
100
AcDbEntity
  8
1
  6
Continuous
 62
     2
100
AcDbLine
 10
490.9072571828917
 20
360.410061314983
 30
0.0
 11
431.0948758713989
 21
360.410061314983
 31
0.0
  0
LINE
  5
3CB
330
3C8
100
AcDbEntity
  8
1
  6
Continuous
 62
     2
100
AcDbLine
 10
441.1119909107024
 20
301.410061314983
 30
0.0
 11
431.0948758713989
 21
301.410061314983
 31
0.0
  0
SOLID
  5
3CC
330
3C8
100
AcDbEntity
  8
1
 62
     2
100
AcDbTrace
 10
432.7125246467313
 20
311.910061314983
 30
0.0
 11
435.4772270960666
 21
311.910061314983
 31
0.0
 12
434.0948758713989
 22
301.410061314983
 32
0.0
 13
434.0948758713989
 23
301.410061314983
 33
0.0
  0
SOLID
  5
3CD
330
3C8
100
AcDbEntity
  8
1
 62
     2
100
AcDbTrace
 10
435.4772270960666
 20
349.910061314983
 30
0.0
 11
432.7125246467313
 21
349.910061314983
 31
0.0
 12
434.0948758713989
 22
360.410061314983
 32
0.0
 13
434.0948758713989
 23
360.410061314983
 33
0.0
  0
MTEXT
  5
3CE
330
3C8
100
AcDbEntity
  8
1
 62
     7
100
AcDbMText
 10
431.0948758713989
 20
305.276900865736
 30
0.0
 40
10.50000000000001
 41
0.0
 71
     7
 72
     1
  1
59リフト5
  7
CONVERTER_11
 11
0.0
 21
1.0
 31
0.0
 73
     1
 44
0.45454545454545
  0
ENDBLK
  5
3D0
330
3C8
100
AcDbEntity
  8
0
100
AcDbBlockEnd
  0
BLOCK
  5
3DA
330
3D3
100
AcDbEntity
  8
0
100
AcDbBlockBegin
  2
*D30
 70
     1
 10
0.0
 20
0.0
 30
0.0
  3
*D30
  1

  0
LINE
  5
3D4
330
3D3
100
AcDbEntity
  8
1
  6
Continuous
 62
     2
100
AcDbLine
 10
579.9072571828916
 20
278.4110372676554
 30
0.0
 11
579.9072571828916
 21
324.4110372676554
 31
0.0
  0
LINE
  5
3D5
330
3D3
100
AcDbEntity
  8
1
  6
Continuous
 62
     2
100
AcDbLine
 10
535.9072571828916
 20
278.4110372676554
 30
0.0
 11
582.9072571828916
 21
278.4110372676554
 31
0.0
  0
LINE
  5
3D6
330
3D3
100
AcDbEntity
  8
1
  6
Continuous
 62
     2
100
AcDbLine
 10
535.9072571828916
 20
324.4110372676554
 30
0.0
 11
582.9072571828916
 21
324.4110372676554
 31
0.0
  0
SOLID
  5
3D7
330
3D3
100
AcDbEntity
  8
1
 62
     2
100
AcDbTrace
 10
578.5249059582239
 20
288.9110372676554
 30
0.0
 11
581.2896084075593
 21
288.9110372676554
 31
0.0
 12
579.9072571828916
 22
278.4110372676554
 32
0.0
 13
579.9072571828916
 23
278.4110372676554
 33
0.0
  0
SOLID
  5
3D8
330
3D3
100
AcDbEntity
  8
1
 62
     2
100
AcDbTrace
 10
581.2896084075593
 20
313.9110372676554
 30
0.0
 11
578.5249059582239
 21
313.9110372676554
 31
0.0
 12
579.9072571828916
 22
324.4110372676554
 32
0.0
 13
579.9072571828916
 23
324.4110372676554
 33
0.0
  0
MTEXT
  5
3D9
330
3D3
100
AcDbEntity
  8
1
 62
     7
100
AcDbMText
 10
576.9072571828916
 20
287.9759080424469
 30
0.0
 40
10.50000000000001
 41
0.0
 71
     7
 72
     1
  1
\C7;{\Fgdt;n}\C7;46
  7
CONVERTER_12
 11
0.0
 21
1.0
 31
0.0
 73
     1
 44
0.60024009603842
  0
ENDBLK
  5
3DB
330
3D3
100
AcDbEntity
  8
0
100
AcDbBlockEnd
  0
BLOCK
  5
3E5
330
3DE
100
AcDbEntity
  8
0
100
AcDbBlockBegin
  2
*D31
 70
     1
 10
0.0
 20
0.0
 30
0.0
  3
*D31
  1

  0
LINE
  5
3DF
330
3DE
100
AcDbEntity
  8
1
  6
Continuous
 62
     2
100
AcDbLine
 10
249.9038814216441
 20
177.0110372676549
 30
0.0
 11
455.9038814216428
 21
177.0110372676549
 31
0.0
  0
LINE
  5
3E0
330
3DE
100
AcDbEntity
  8
1
  6
Continuous
 62
     2
100
AcDbLine
 10
455.9038814216428
 20
220.3544294805175
 30
0.0
 11
455.9038814216428
 21
174.0110372676549
 31
0.0
  0
LINE
  5
3E1
330
3DE
100
AcDbEntity
  8
1
  6
Continuous
 62
     2
100
AcDbLine
 10
249.9038814216441
 20
208.0122512700261
 30
0.0
 11
249.9038814216441
 21
174.0110372676549
 31
0.0
  0
SOLID
  5
3E2
330
3DE
100
AcDbEntity
  8
1
 62
     2
100
AcDbTrace
 10
260.4038814216441
 20
178.3933884923225
 30
0.0
 11
260.4038814216441
 21
175.6286860429873
 31
0.0
 12
249.9038814216441
 22
177.0110372676549
 32
0.0
 13
249.9038814216441
 23
177.0110372676549
 33
0.0
  0
SOLID
  5
3E3
330
3DE
100
AcDbEntity
  8
1
 62
     2
100
AcDbTrace
 10
445.4038814216428
 20
175.6286860429873
 30
0.0
 11
445.4038814216428
 21
178.3933884923225
 31
0.0
 12
455.9038814216428
 22
177.0110372676549
 32
0.0
 13
455.9038814216428
 23
177.0110372676549
 33
0.0
  0
MTEXT
  5
3E4
330
3DE
100
AcDbEntity
  8
1
 62
     7
100
AcDbMText
 10
336.078468563892
 20
180.0110372676549
 30
0.0
 40
10.50000000000001
 41
0.0
 71
     7
 72
     1
  1
206
  7
CONVERTER_12
 11
0.9999999999970619
 21
2.424068405545306E-6
 31
0.0
 73
     1
 44
0.60024009603842
  0
ENDBLK
  5
3E6
330
3DE
100
AcDbEntity
  8
0
100
AcDbBlockEnd
  0
BLOCK
  5
3F0
330
3E9
100
AcDbEntity
  8
0
100
AcDbBlockBegin
  2
*D32
 70
     1
 10
0.0
 20
0.0
 30
0.0
  3
*D32
  1

  0
LINE
  5
3EA
330
3E9
100
AcDbEntity
  8
1
  6
Continuous
 62
     2
100
AcDbLine
 10
455.9038814216428
 20
177.0110372676549
 30
0.0
 11
490.9072571828916
 21
177.0110372676549
 31
0.0
  0
LINE
  5
3EB
330
3E9
100
AcDbEntity
  8
1
  6
Continuous
 62
     2
100
AcDbLine
 10
490.9072571828916
 20
284.0100613149831
 30
0.0
 11
490.9072571828916
 21
174.0110372676549
 31
0.0
  0
LINE
  5
3EC
330
3E9
100
AcDbEntity
  8
1
  6
Continuous
 62
     2
100
AcDbLine
 10
455.9038814216428
 20
220.3544294805175
 30
0.0
 11
455.9038814216428
 21
174.0110372676549
 31
0.0
  0
SOLID
  5
3ED
330
3E9
100
AcDbEntity
  8
1
 62
     2
100
AcDbTrace
 10
466.4038814216428
 20
178.3933884923225
 30
0.0
 11
466.4038814216428
 21
175.6286860429873
 31
0.0
 12
455.9038814216428
 22
177.0110372676549
 32
0.0
 13
455.9038814216428
 23
177.0110372676549
 33
0.0
  0
SOLID
  5
3EE
330
3E9
100
AcDbEntity
  8
1
 62
     2
100
AcDbTrace
 10
480.4072571828916
 20
175.6286860429873
 30
0.0
 11
480.4072571828916
 21
178.3933884923225
 31
0.0
 12
490.9072571828916
 22
177.0110372676549
 32
0.0
 13
490.9072571828916
 23
177.0110372676549
 33
0.0
  0
MTEXT
  5
3EF
330
3E9
100
AcDbEntity
  8
1
 62
     7
100
AcDbMText
 10
466.166268985704
 20
180.0110372676549
 30
0.0
 40
10.50000000000001
 41
0.0
 71
     7
 72
     1
  1
35
  7
CONVERTER_12
 11
0.9999999999970619
 21
2.424068405545306E-6
 31
0.0
 73
     1
 44
0.60024009603842
  0
ENDBLK
  5
3F1
330
3E9
100
AcDbEntity
  8
0
100
AcDbBlockEnd
  0
BLOCK
  5
3FB
330
3F4
100
AcDbEntity
  8
0
100
AcDbBlockBegin
  2
*D33
 70
     1
 10
0.0
 20
0.0
 30
0.0
  3
*D33
  1

  0
LINE
  5
3F5
330
3F4
100
AcDbEntity
  8
1
  6
Continuous
 62
     2
100
AcDbLine
 10
490.9072571828916
 20
177.0110372676549
 30
0.0
 11
535.9072571828916
 21
177.0110372676549
 31
0.0
  0
LINE
  5
3F6
330
3F4
100
AcDbEntity
  8
1
  6
Continuous
 62
     2
100
AcDbLine
 10
535.9072571828916
 20
278.4110372676554
 30
0.0
 11
535.9072571828916
 21
174.0110372676549
 31
0.0
  0
LINE
  5
3F7
330
3F4
100
AcDbEntity
  8
1
  6
Continuous
 62
     2
100
AcDbLine
 10
490.9072571828916
 20
284.0100613149831
 30
0.0
 11
490.9072571828916
 21
174.0110372676549
 31
0.0
  0
SOLID
  5
3F8
330
3F4
100
AcDbEntity
  8
1
 62
     2
100
AcDbTrace
 10
501.4072571828916
 20
178.3933884923225
 30
0.0
 11
501.4072571828916
 21
175.6286860429873
 31
0.0
 12
490.9072571828916
 22
177.0110372676549
 32
0.0
 13
490.9072571828916
 23
177.0110372676549
 33
0.0
  0
SOLID
  5
3F9
330
3F4
100
AcDbEntity
  8
1
 62
     2
100
AcDbTrace
 10
525.4072571828916
 20
175.6286860429873
 30
0.0
 11
525.4072571828916
 21
178.3933884923225
 31
0.0
 12
535.9072571828916
 22
177.0110372676549
 32
0.0
 13
535.9072571828916
 23
177.0110372676549
 33
0.0
  0
MTEXT
  5
3FA
330
3F4
100
AcDbEntity
  8
1
 62
     7
100
AcDbMText
 10
502.884959050081
 20
180.0110372676549
 30
0.0
 40
10.50000000000001
 41
0.0
 71
     7
 72
     1
  1
45
  7
CONVERTER_12
 11
0.9999999999970619
 21
2.424068405545306E-6
 31
0.0
 73
     1
 44
0.60024009603842
  0
ENDBLK
  5
3FC
330
3F4
100
AcDbEntity
  8
0
100
AcDbBlockEnd
  0
BLOCK
  5
408
330
3FF
100
AcDbEntity
  8
0
100
AcDbBlockBegin
  2
*D34
 70
     1
 10
0.0
 20
0.0
 30
0.0
  3
*D34
  1

  0
LINE
  5
400
330
3FF
100
AcDbEntity
  8
1
  6
Continuous
 62
     2
100
AcDbLine
 10
514.9072571828916
 20
177.0110372676549
 30
0.0
 11
535.9072571828916
 21
177.0110372676549
 31
0.0
  0
LINE
  5
401
330
3FF
100
AcDbEntity
  8
1
  6
Continuous
 62
     2
100
AcDbLine
 10
535.9072571828916
 20
177.0110372676549
 30
0.0
 11
549.9072571828916
 21
177.0110372676549
 31
0.0
  0
LINE
  5
402
330
3FF
100
AcDbEntity
  8
1
  6
Continuous
 62
     2
100
AcDbLine
 10
549.9072571828916
 20
177.0110372676549
 30
0.0
 11
570.9072571828916
 21
177.0110372676549
 31
0.0
  0
LINE
  5
403
330
3FF
100
AcDbEntity
  8
1
  6
Continuous
 62
     2
100
AcDbLine
 10
549.9072571828916
 20
291.9110372676554
 30
0.0
 11
549.9072571828916
 21
174.0110372676549
 31
0.0
  0
LINE
  5
404
330
3FF
100
AcDbEntity
  8
1
  6
Continuous
 62
     2
100
AcDbLine
 10
535.9072571828916
 20
278.4110372676554
 30
0.0
 11
535.9072571828916
 21
174.0110372676549
 31
0.0
  0
SOLID
  5
405
330
3FF
100
AcDbEntity
  8
1
 62
     2
100
AcDbTrace
 10
525.4072571828916
 20
175.6286860429873
 30
0.0
 11
525.4072571828916
 21
178.3933884923225
 31
0.0
 12
535.9072571828916
 22
177.0110372676549
 32
0.0
 13
535.9072571828916
 23
177.0110372676549
 33
0.0
  0
SOLID
  5
406
330
3FF
100
AcDbEntity
  8
1
 62
     2
100
AcDbTrace
 10
560.4072571828916
 20
178.3933884923225
 30
0.0
 11
560.4072571828916
 21
175.6286860429873
 31
0.0
 12
549.9072571828916
 22
177.0110372676549
 32
0.0
 13
549.9072571828916
 23
177.0110372676549
 33
0.0
  0
MTEXT
  5
407
330
3FF
100
AcDbEntity
  8
1
 62
     7
100
AcDbMText
 10
558.2462679512081
 20
178.859878007746
 30
0.0
 40
10.50000000000001
 41
0.0
 71
     7
 72
     1
  1
14
  7
CONVERTER_12
 11
0.9999999999970619
 21
2.424068405545306E-6
 31
0.0
 73
     1
 44
0.60024009603842
  0
ENDBLK
  5
409
330
3FF
100
AcDbEntity
  8
0
100
AcDbBlockEnd
  0
BLOCK
  5
413
330
40C
100
AcDbEntity
  8
0
100
AcDbBlockBegin
  2
*D35
 70
     1
 10
0.0
 20
0.0
 30
0.0
  3
*D35
  1

  0
LINE
  5
40D
330
40C
100
AcDbEntity
  8
1
  6
Continuous
 62
     2
100
AcDbLine
 10
434.0948758713989
 20
301.410061314983
 30
0.0
 11
434.0948758713989
 21
212.0110372676549
 31
0.0
  0
LINE
  5
40E
330
40C
100
AcDbEntity
  8
1
  6
Continuous
 62
     2
100
AcDbLine
 10
257.9038814216441
 20
212.0110372676549
 30
0.0
 11
437.0948758713989
 21
212.0110372676549
 31
0.0
  0
LINE
  5
40F
330
40C
100
AcDbEntity
  8
1
  6
Continuous
 62
     2
100
AcDbLine
 10
455.9038814216433
 20
301.410061314983
 30
0.0
 11
431.0948758713989
 21
301.410061314983
 31
0.0
  0
SOLID
  5
410
330
40C
100
AcDbEntity
  8
1
 62
     2
100
AcDbTrace
 10
435.4772270960666
 20
290.910061314983
 30
0.0
 11
432.7125246467313
 21
290.910061314983
 31
0.0
 12
434.0948758713989
 22
301.410061314983
 32
0.0
 13
434.0948758713989
 23
301.410061314983
 33
0.0
  0
SOLID
  5
411
330
40C
100
AcDbEntity
  8
1
 62
     2
100
AcDbTrace
 10
432.7125246467313
 20
222.5110372676549
 30
0.0
 11
435.4772270960666
 21
222.5110372676549
 31
0.0
 12
434.0948758713989
 22
212.0110372676549
 32
0.0
 13
434.0948758713989
 23
212.0110372676549
 33
0.0
  0
MTEXT
  5
412
330
40C
100
AcDbEntity
  8
1
 62
     7
100
AcDbMText
 10
431.0948758713989
 20
261.047488334978
 30
0.0
 40
10.50000000000001
 41
0.0
 71
     7
 72
     1
  1
90
  7
CONVERTER_12
 11
0.0
 21
1.0
 31
0.0
 73
     1
 44
0.60024009603842
  0
ENDBLK
  5
414
330
40C
100
AcDbEntity
  8
0
100
AcDbBlockEnd
  0
ENDSEC
  0
SECTION
  2
ENTITIES
  0
INSERT
  5
9A
330
1F
100
AcDbEntity
  8
1
100
AcDbBlockReference
  2
開示A4
 10
0.0
 20
0.0
 30
0.0
 41
3.0
 42
3.0
 43
3.0
  0
INSERT
  5
9B
330
1F
100
AcDbEntity
  8
1
100
AcDbBlockReference
  2
EA10-61X-16_K
 10
630.0000000000007
 20
0.0
 30
0.0
  0
INSERT
  5
9C
330
1F
100
AcDbEntity
  8
0
100
AcDbBlockReference
  2
36-1A-13-M4
 10
245.0933987609433
 20
211.4409353055467
 30
0.0
  0
INSERT
  5
9D
330
1F
100
AcDbEntity
  8
0
100
AcDbBlockReference
  2
42-1
 10
402.802997096288
 20
157.7204123053982
 30
0.0
  0
INSERT
  5
9E
330
1F
100
AcDbEntity
  8
0
100
AcDbBlockReference
  2
21-1A
 10
535.9072571828916
 20
310.010061314983
 30
0.0
  0
INSERT
  5
9F
330
1F
100
AcDbEntity
  8
0
100
AcDbBlockReference
  2
37-1-13
 10
399.1060269661205
 20
193.5143554248384
 30
0.0
  0
INSERT
  5
A0
330
1F
100
AcDbEntity
  8
1
100
AcDbBlockReference
  2
A10-0A-13
 10
490.9072571828916
 20
310.010061314983
 30
0.0
  0
INSERT
  5
A1
330
1F
100
AcDbEntity
  8
0
100
AcDbBlockReference
  2
EA10-13_K__2
 10
630.0000000000007
 20
0.0
 30
0.0
  0
INSERT
  5
A2
330
1F
100
AcDbEntity
  8
0
100
AcDbBlockReference
  2
M280__3
 10
638.9479826709967
 20
196.5359168013149
 30
0.0
  0
INSERT
  5
A3
330
1F
100
AcDbEntity
  8
0
100
AcDbBlockReference
  2
EA10-9
 10
126.884149388106
 20
245.1587409748141
 30
0.0
  0
INSERT
  5
A4
330
1F
100
AcDbEntity
  8
0
100
AcDbBlockReference
  2
EA10-2
 10
398.0413137801056
 20
293.9100098250841
 30
0.0
  0
INSERT
  5
A5
330
1F
100
AcDbEntity
  8
0
100
AcDbBlockReference
  2
EA10-1
 10
448.3903057589361
 20
-7.33570091666761
 30
0.0
  0
INSERT
  5
A6
330
1F
100
AcDbEntity
  8
1
100
AcDbBlockReference
  2
EA10-61DF1
 10
329.980488847062
 20
-78.87657318690242
 30
0.0
  0
LINE
  5
384
330
1F
100
AcDbEntity
  8
1
  6
DASH_CENTER
 62
     2
100
AcDbLine
 10
467.9038814216428
 20
238.0110372676548
 30
0.0
 11
412.6972571828929
 21
238.0110372676548
 31
0.0
  0
LINE
  5
385
330
1F
100
AcDbEntity
  8
1
  6
DASH_CENTER
 62
     2
100
AcDbLine
 10
249.9038814216441
 20
208.0122512700261
 30
0.0
 11
249.9038814216441
 21
229.9006841878909
 31
0.0
  0
LINE
  5
386
330
1F
100
AcDbEntity
  8
1
  6
DASH_CENTER
 62
     2
100
AcDbLine
 10
330.403881421644
 20
214.6826448287591
 30
0.0
 11
330.4038814216443
 21
225.0110372676549
 31
0.0
  0
LINE
  5
387
330
1F
100
AcDbEntity
  8
1
  6
DASH_CENTER
 62
     2
100
AcDbLine
 10
143.903881421643
 20
803.5100613149827
 30
0.0
 11
143.903881421643
 21
457.3786808800953
 31
0.0
  0
LINE
  5
388
330
1F
100
AcDbEntity
  8
1
  6
DASH_CENTER
 62
     2
100
AcDbLine
 10
143.903881421643
 20
208.8395012393071
 30
0.0
 11
143.903881421643
 21
363.410061314983
 31
0.0
  0
LINE
  5
389
330
1F
100
AcDbEntity
  8
1
  6
DASH_CENTER
 62
     2
100
AcDbLine
 10
125.831456669213
 20
238.0110372676549
 30
0.0
 11
163.4387280498259
 21
238.0110372676549
 31
0.0
  0
LINE
  5
38A
330
1F
100
AcDbEntity
  8
1
  6
DASH_CENTER
 62
     2
100
AcDbLine
 10
129.9038814216431
 20
225.4570429353891
 30
0.0
 11
129.9038814216431
 21
214.1267853098251
 31
0.0
  0
LINE
  5
38B
330
1F
100
AcDbEntity
  8
1
  6
DASH_CENTER
 62
     2
100
AcDbLine
 10
126.903881421643
 20
707.5110372676543
 30
0.0
 11
160.903881421643
 21
707.5110372676543
 31
0.0
  0
LINE
  5
38C
330
1F
100
AcDbEntity
  8
1
  6
DASH_CENTER
 62
     2
100
AcDbLine
 10
552.9450637146443
 20
301.410061314983
 30
0.0
 11
455.9038814216433
 21
301.410061314983
 31
0.0
  0
LINE
  5
38D
330
1F
100
AcDbEntity
  8
1
  6
DASH_CENTER
 62
     2
100
AcDbLine
 10
490.9072571828916
 20
284.0100613149831
 30
0.0
 11
490.9072571828916
 21
363.410061314983
 31
0.0
  0
LINE
  5
38E
330
1F
100
AcDbEntity
  8
1
  6
DASH_CENTER
 62
     2
100
AcDbLine
 10
455.9038814216433
 20
301.410061314983
 30
0.0
 11
441.1119909107021
 21
301.410061314983
 31
0.0
  0
LINE
  5
38F
330
1F
100
AcDbEntity
  8
1
  6
DASH_CENTER
 62
     2
100
AcDbLine
 10
123.2713407140422
 20
742.5100613149829
 30
0.0
 11
164.5431736517412
 21
742.5100613149829
 31
0.0
  0
LINE
  5
390
330
1F
100
AcDbEntity
  8
1
  6
DASH_CENTER
 62
     2
100
AcDbLine
 10
455.9038814216428
 20
220.3544294805175
 30
0.0
 11
455.9038814216433
 21
301.410061314983
 31
0.0
  0
SOLID
  5
391
330
1F
100
AcDbEntity
  8
1
 62
     2
100
AcDbTrace
 10
546.8094098959084
 20
280.2632889639734
 30
0.0
 11
544.240239108093
 21
279.2420440881497
 31
0.0
 12
541.646262019182
 22
289.510061314983
 32
0.0
 13
541.646262019182
 23
289.510061314983
 33
0.0
  0
LEADER
  5
392
330
1F
100
AcDbEntity
  8
1
  6
Continuous
 62
     2
100
AcDbLeader
  3
Standard
 71
     0
 76
     3
 10
541.646262019182
 20
289.510061314983
 30
0.0
 10
559.3276082471608
 20
245.0286648413564
 30
0.0
 10
598.5304948291129
 20
245.0286648413564
 30
0.0
  0
MTEXT
  5
394
330
1F
100
AcDbEntity
  8
1
 62
     7
100
AcDbMText
 10
560.396537047625
 20
247.4277298771665
 30
0.0
 40
10.50000000000001
 41
0.0
 71
     7
 72
     1
  1
PJ1/2
  7
CONVERTER_12
 73
     1
 44
1.32052821128451
  0
MTEXT
  5
395
330
1F
100
AcDbEntity
  8
1
 62
     7
100
AcDbMText
 10
102.0000000000001
 20
102.0000000000001
 30
0.0
 40
10.50000000000001
 41
0.0
 71
     4
 72
     1
  1
JIS\P吐水口は回転式(角度制限なし)
  7
CONVERTER_11
 73
     1
 44
0.54545454545455
  0
MTEXT
  5
396
330
1F
100
AcDbEntity
  8
1
 62
     7
100
AcDbMText
 10
171.0000000000003
 20
68.25000000000009
 30
0.0
 40
10.50000000000001
 41
0.0
 71
     5
 72
     1
  1
自動自在水栓
  7
CONVERTER_11
 73
     1
 44
0.54545454545455
  0
MTEXT
  5
397
330
1F
100
AcDbEntity
  8
1
 62
     7
100
AcDbMText
 10
171.0000000000003
 20
42.75000000000006
 30
0.0
 40
10.50000000000001
 41
0.0
 71
     5
 72
     1
  1
EA10-13
  7
CONVERTER_12
 73
     1
 44
0.7202881152461
  0
MTEXT
  5
398
330
1F
100
AcDbEntity
  8
0
 62
     7
100
AcDbMText
 10
255.7500000025575
 20
51.00000000051001
 30
0.0
 40
10.50000000000001
 41
0.0
 71
     5
 72
     1
  1
1
  7
CONVERTER_12
 73
     1
 44
0.7202881152461
  0
MTEXT
  5
399
330
1F
100
AcDbEntity
  8
0
 62
     7
100
AcDbMText
 10
281.2500000028124
 20
51.00000000051001
 30
0.0
 40
10.50000000000001
 41
0.0
 71
     5
 72
     1
  1
3
  7
CONVERTER_12
 73
     1
 44
0.7202881152461
  0
DIMENSION
  5
3A4
330
1F
100
AcDbEntity
  8
1
100
AcDbDimension
  2
*D25
 10
235.1177713549102
 20
460.5110372676545
 30
0.0
 11
226.8677713549102
 21
579.4937142551023
 31
0.0
 70
    32
  1
<>
 71
     5
 42
-1.0
 53
90.0
  3
ME10_DIM_10
100
AcDbAlignedDimension
 13
160.903881421643
 23
707.5110372676543
 33
0.0
 14
164.903881421643
 24
460.5110372676544
 34
0.0
 50
90.0
100
AcDbRotatedDimension
  0
DIMENSION
  5
3AF
330
1F
100
AcDbEntity
  8
1
100
AcDbDimension
  2
*D26
 10
115.903881421643
 20
438.1080040721943
 30
0.0
 11
143.903881421643
 21
446.3580040721943
 31
0.0
 70
    32
  1
<>
 71
     5
 42
-1.0
 53
0.00013888888889
  3
ME10_DIM_11
100
AcDbAlignedDimension
 13
171.9038814216431
 23
583.5110372675423
 33
0.0
 14
115.903881421643
 24
583.5110372675423
 34
0.0
100
AcDbRotatedDimension
  0
DIMENSION
  5
3BA
330
1F
100
AcDbEntity
  8
1
100
AcDbDimension
  2
*D27
 10
197.8505590321291
 20
645.5110372676553
 30
0.0
 11
189.6005590321291
 21
555.2686459343213
 31
0.0
 70
    32
  1
<>
 71
     5
 42
-1.0
 53
90.0
  3
ME10_DIM_12
100
AcDbAlignedDimension
 13
164.903881421643
 23
460.5110372676544
 33
0.0
 14
164.3169788682634
 24
645.5110372676553
 34
0.0
 50
90.0
100
AcDbRotatedDimension
  0
DIMENSION
  5
3C7
330
1F
100
AcDbEntity
  8
1
100
AcDbDimension
  2
*D28
 10
94.93065139773901
 20
212.0110372676549
 30
0.0
 11
86.680651397739
 21
225.0556824046421
 31
0.0
 70
    32
  1
<>
 71
     5
 42
-1.0
 53
90.0
  3
ME10_DIM_13
100
AcDbAlignedDimension
 13
125.831456669213
 23
238.0110372676549
 33
0.0
 14
135.903881421643
 24
212.0110372676549
 34
0.0
 50
90.0
100
AcDbRotatedDimension
  0
DIMENSION
  5
3D2
330
1F
100
AcDbEntity
  8
1
100
AcDbDimension
  2
*D29
 10
434.0948758713989
 20
301.410061314983
 30
0.0
 11
425.8448758713989
 21
333.626900865736
 31
0.0
 70
    32
  1
59リフト5
 71
     5
 42
-1.0
 53
90.0
  3
ME10_DIM_14
100
AcDbAlignedDimension
 13
490.9072571828916
 23
360.410061314983
 33
0.0
 14
441.1119909107021
 24
301.410061314983
 34
0.0
 50
90.0
100
AcDbRotatedDimension
  0
DIMENSION
  5
3DD
330
1F
100
AcDbEntity
  8
1
100
AcDbDimension
  2
*D30
 10
579.9072571828916
 20
278.4110372676554
 30
0.0
 11
571.6572571828916
 21
298.1609080424469
 31
0.0
 70
    32
  1
<>
 71
     5
 42
-1.0
 53
90.0
  3
ME10_DIM_15
100
AcDbAlignedDimension
 13
535.9072571828916
 23
324.4110372676554
 33
0.0
 14
535.9072571828916
 24
278.4110372676554
 34
0.0
 50
90.0
100
AcDbRotatedDimension
  0
DIMENSION
  5
3E8
330
1F
100
AcDbEntity
  8
1
100
AcDbDimension
  2
*D31
 10
249.9038814216441
 20
177.0110372676549
 30
0.0
 11
348.678468563892
 21
185.2610372676549
 31
0.0
 70
    32
  1
<>
 71
     5
 42
-1.0
 53
0.00013888888889
  3
ME10_DIM_16
100
AcDbAlignedDimension
 13
455.9038814216428
 23
220.3544294805175
 33
0.0
 14
249.9038814216441
 24
208.0122512700261
 34
0.0
100
AcDbRotatedDimension
  0
DIMENSION
  5
3F3
330
1F
100
AcDbEntity
  8
1
100
AcDbDimension
  2
*D32
 10
455.9038814216428
 20
177.0110372676549
 30
0.0
 11
474.041268985704
 21
185.2610372676549
 31
0.0
 70
    32
  1
<>
 71
     5
 42
-1.0
 53
0.00013888888889
  3
ME10_DIM_17
100
AcDbAlignedDimension
 13
490.9072571828916
 23
284.0100613149831
 33
0.0
 14
455.9038814216428
 24
220.3544294805175
 34
0.0
100
AcDbRotatedDimension
  0
DIMENSION
  5
3FE
330
1F
100
AcDbEntity
  8
1
100
AcDbDimension
  2
*D33
 10
490.9072571828916
 20
177.0110372676549
 30
0.0
 11
510.759959050081
 21
185.2610372676549
 31
0.0
 70
    32
  1
<>
 71
     5
 42
-1.0
 53
0.00013888888889
  3
ME10_DIM_18
100
AcDbAlignedDimension
 13
535.9072571828916
 23
278.4110372676554
 33
0.0
 14
490.9072571828916
 24
284.0100613149831
 34
0.0
100
AcDbRotatedDimension
  0
DIMENSION
  5
40B
330
1F
100
AcDbEntity
  8
1
100
AcDbDimension
  2
*D34
 10
535.9072571828916
 20
177.0110372676549
 30
0.0
 11
564.546267951208
 21
184.109878007746
 31
0.0
 70
    32
  1
<>
 71
     5
 42
-1.0
 53
0.00013888888889
  3
ME10_DIM_19
100
AcDbAlignedDimension
 13
549.9072571828916
 23
291.9110372676554
 33
0.0
 14
535.9072571828916
 24
278.4110372676554
 34
0.0
100
AcDbRotatedDimension
  0
DIMENSION
  5
416
330
1F
100
AcDbEntity
  8
1
100
AcDbDimension
  2
*D35
 10
434.0948758713989
 20
301.410061314983
 30
0.0
 11
425.8448758713989
 21
268.922488334978
 31
0.0
 70
    32
  1
90
 71
     5
 42
-1.0
 53
90.0
  3
ME10_DIM_20
100
AcDbAlignedDimension
 13
257.9038814216441
 23
212.0110372676549
 33
0.0
 14
455.9038814216433
 24
301.410061314983
 34
0.0
 50
90.0
100
AcDbRotatedDimension
  0
ENDSEC
  0
SECTION
  2
OBJECTS
  0
DICTIONARY
  5
C
330
0
100
AcDbDictionary
281
     1
  3
ACAD_GROUP
350
D
  3
ACAD_LAYOUT
350
1A
  3
ACAD_MATERIAL
350
3B
  3
ACAD_MLEADERSTYLE
350
419
  3
ACAD_MLINESTYLE
350
17
  3
ACAD_PLOTSETTINGS
350
19
  3
ACAD_PLOTSTYLENAME
350
E
  3
ACAD_VISUALSTYLE
350
2A
  3
AcDbVariableDictionary
350
417
  0
DICTIONARY
  5
D
102
{ACAD_REACTORS
330
C
102
}
330
C
100
AcDbDictionary
281
     1
  0
DICTIONARY
  5
1A
102
{ACAD_REACTORS
330
C
102
}
330
C
100
AcDbDictionary
281
     1
  3
Layout1
350
1E
  3
Layout2
350
26
  3
Model
350
22
  0
DICTIONARY
  5
3B
102
{ACAD_REACTORS
330
C
102
}
330
C
100
AcDbDictionary
281
     1
  3
ByBlock
350
3D
  3
ByLayer
350
3C
  3
Global
350
3E
  0
DICTIONARY
  5
419
102
{ACAD_REACTORS
330
C
102
}
330
C
100
AcDbDictionary
281
     1
  0
DICTIONARY
  5
17
102
{ACAD_REACTORS
330
C
102
}
330
C
100
AcDbDictionary
281
     1
  3
Standard
350
18
  0
DICTIONARY
  5
19
102
{ACAD_REACTORS
330
C
102
}
330
C
100
AcDbDictionary
281
     1
  0
ACDBDICTIONARYWDFLT
  5
E
102
{ACAD_REACTORS
330
C
102
}
330
C
100
AcDbDictionary
281
     1
  3
Normal
350
F
100
AcDbDictionaryWithDefault
340
F
  0
DICTIONARY
  5
2A
102
{ACAD_REACTORS
330
C
102
}
330
C
100
AcDbDictionary
281
     1
  3
2dWireframe
350
2F
  3
3D Hidden
350
31
  3
3dWireframe
350
30
  3
Basic
350
32
  3
Brighten
350
36
  3
ColorChange
350
3A
  3
Conceptual
350
34
  3
Dim
350
35
  3
Facepattern
350
39
  3
Flat
350
2B
  3
FlatWithEdges
350
2C
  3
Gouraud
350
2D
  3
GouraudWithEdges
350
2E
  3
Linepattern
350
38
  3
Realistic
350
33
  3
Thicken
350
37
  0
DICTIONARY
  5
417
102
{ACAD_REACTORS
330
C
102
}
330
C
100
AcDbDictionary
281
     1
  3
DIMASSOC
350
41A
  3
HIDETEXT
350
41B
  0
LAYOUT
  5
1E
102
{ACAD_REACTORS
330
1A
102
}
330
1A
100
AcDbPlotSettings
  1

  2
none_device
  4

  6

 40
0.0
 41
0.0
 42
0.0
 43
0.0
 44
0.0
 45
0.0
 46
0.0
 47
0.0
 48
0.0
 49
0.0
140
0.0
141
0.0
142
1.0
143
1.0
 70
   688
 72
     0
 73
     0
 74
     5
  7

 75
    16
147
1.0
148
0.0
149
0.0
100
AcDbLayout
  1
Layout1
 70
     1
 71
     1
 10
0.0
 20
0.0
 11
12.0
 21
9.0
 12
0.0
 22
0.0
 32
0.0
 14
1.00000000000000E+20
 24
1.00000000000000E+20
 34
1.00000000000000E+20
 15
-1.00000000000000E+20
 25
-1.00000000000000E+20
 35
-1.00000000000000E+20
146
0.0
 13
0.0
 23
0.0
 33
0.0
 16
1.0
 26
0.0
 36
0.0
 17
0.0
 27
1.0
 37
0.0
 76
     0
330
1B
  0
LAYOUT
  5
26
102
{ACAD_REACTORS
330
1A
102
}
330
1A
100
AcDbPlotSettings
  1

  2
none_device
  4

  6

 40
0.0
 41
0.0
 42
0.0
 43
0.0
 44
0.0
 45
0.0
 46
0.0
 47
0.0
 48
0.0
 49
0.0
140
0.0
141
0.0
142
1.0
143
1.0
 70
   688
 72
     0
 73
     0
 74
     5
  7

 75
    16
147
1.0
148
0.0
149
0.0
100
AcDbLayout
  1
Layout2
 70
     1
 71
     2
 10
0.0
 20
0.0
 11
0.0
 21
0.0
 12
0.0
 22
0.0
 32
0.0
 14
0.0
 24
0.0
 34
0.0
 15
0.0
 25
0.0
 35
0.0
146
0.0
 13
0.0
 23
0.0
 33
0.0
 16
1.0
 26
0.0
 36
0.0
 17
0.0
 27
1.0
 37
0.0
 76
     0
330
23
  0
LAYOUT
  5
22
102
{ACAD_REACTORS
330
1A
102
}
330
1A
100
AcDbPlotSettings
  1

  2
none_device
  4

  6

 40
0.0
 41
0.0
 42
0.0
 43
0.0
 44
0.0
 45
0.0
 46
0.0
 47
0.0
 48
0.0
 49
0.0
140
0.0
141
0.0
142
1.0
143
1.0
 70
  1712
 72
     0
 73
     0
 74
     0
  7

 75
     0
147
1.0
148
0.0
149
0.0
100
AcDbLayout
  1
Model
 70
     1
 71
     0
 10
0.0
 20
0.0
 11
12.0
 21
9.0
 12
0.0
 22
0.0
 32
0.0
 14
0.0
 24
0.0
 34
0.0
 15
630.0000000000007
 25
891.0000000000009
 35
0.0
146
0.0
 13
0.0
 23
0.0
 33
0.0
 16
1.0
 26
0.0
 36
0.0
 17
0.0
 27
1.0
 37
0.0
 76
     0
330
1F
331
29
  0
MATERIAL
  5
3D
102
{ACAD_REACTORS
330
3B
102
}
102
{ACAD_XDICTIONARY
360
43E
102
}
330
3B
100
AcDbMaterial
  1
ByBlock
  0
MATERIAL
  5
3C
102
{ACAD_REACTORS
330
3B
102
}
102
{ACAD_XDICTIONARY
360
43C
102
}
330
3B
100
AcDbMaterial
  1
ByLayer
  0
MATERIAL
  5
3E
102
{ACAD_REACTORS
330
3B
102
}
102
{ACAD_XDICTIONARY
360
440
102
}
330
3B
100
AcDbMaterial
  1
Global
  0
MLINESTYLE
  5
18
102
{ACAD_REACTORS
330
17
102
}
330
17
100
AcDbMlineStyle
  2
Standard
 70
     0
  3

 62
   256
 51
90.0
 52
90.0
 71
     2
 49
0.5
 62
   256
  6
BYLAYER
 49
-0.5
 62
   256
  6
BYLAYER
  0
ACDBPLACEHOLDER
  5
F
102
{ACAD_REACTORS
330
E
102
}
330
E
  0
VISUALSTYLE
  5
2F
102
{ACAD_REACTORS
330
2A
102
}
102
{ACAD_XDICTIONARY
360
424
102
}
330
2A
100
AcDbVisualStyle
  2
2dWireframe
 70
     4
 71
     0
 72
     2
 73
     0
 90
        0
 40
-0.6
 41
-30.0
 62
     5
 63
     7
 74
     1
 91
        4
 64
     7
 65
   257
 75
     1
175
     1
 42
1.0
 92
        0
 66
   257
 43
1.0
 76
     1
 77
     6
 78
     2
 67
     7
 79
     5
170
     0
171
     0
290
     0
174
     0
 93
        1
 44
0.0
173
     0
291
     0
 45
0.0
1001
ACAD
1000
AcDbSavedByObjectVersion
1070
     0
  0
VISUALSTYLE
  5
31
102
{ACAD_REACTORS
330
2A
102
}
102
{ACAD_XDICTIONARY
360
428
102
}
330
2A
100
AcDbVisualStyle
  2
3D Hidden
 70
     6
 71
     1
 72
     2
 73
     2
 90
        0
 40
-0.6
 41
-30.0
 62
     5
 63
     7
 74
     2
 91
        2
 64
     7
 65
   257
 75
     2
175
     1
 42
40.0
 92
        0
 66
   257
 43
1.0
 76
     1
 77
     6
 78
     2
 67
     7
 79
     3
170
     0
171
     0
290
     0
174
     0
 93
        1
 44
0.0
173
     0
291
     0
 45
0.0
1001
ACAD
1000
AcDbSavedByObjectVersion
1070
     0
  0
VISUALSTYLE
  5
30
102
{ACAD_REACTORS
330
2A
102
}
102
{ACAD_XDICTIONARY
360
426
102
}
330
2A
100
AcDbVisualStyle
  2
3dWireframe
 70
     5
 71
     0
 72
     2
 73
     0
 90
        0
 40
-0.6
 41
-30.0
 62
     5
 63
     7
 74
     1
 91
        4
 64
     7
 65
   257
 75
     1
175
     1
 42
1.0
 92
        0
 66
   257
 43
1.0
 76
     1
 77
     6
 78
     2
 67
     7
 79
     5
170
     0
171
     0
290
     0
174
     0
 93
        1
 44
0.0
173
     0
291
     0
 45
0.0
1001
ACAD
1000
AcDbSavedByObjectVersion
1070
     0
  0
VISUALSTYLE
  5
32
102
{ACAD_REACTORS
330
2A
102
}
102
{ACAD_XDICTIONARY
360
42A
102
}
330
2A
100
AcDbVisualStyle
  2
Basic
 70
     7
 71
     1
 72
     0
 73
     1
 90
        0
 40
-0.6
 41
-30.0
 62
     5
 63
     7
 74
     0
 91
        4
 64
     7
 65
   257
 75
     1
175
     1
 42
1.0
 92
        8
 66
     7
 43
1.0
 76
     1
 77
     6
 78
     2
 67
     7
 79
     5
170
     0
171
     0
290
     0
174
     0
 93
        1
 44
0.0
173
     0
291
     1
 45
0.0
1001
ACAD
1000
AcDbSavedByObjectVersion
1070
     0
  0
VISUALSTYLE
  5
36
102
{ACAD_REACTORS
330
2A
102
}
102
{ACAD_XDICTIONARY
360
432
102
}
330
2A
100
AcDbVisualStyle
  2
Brighten
 70
    12
 71
     2
 72
     2
 73
     0
 90
        0
 40
-0.6
 41
-30.0
 62
     5
 63
     7
 74
     1
 91
        4
 64
     7
 65
   257
 75
     1
175
     1
 42
1.0
 92
        8
 66
     7
 43
1.0
 76
     1
 77
     6
 78
     2
 67
     7
 79
     5
170
     0
171
     0
290
     0
174
     0
 93
        1
 44
50.0
173
     0
291
     1
 45
0.0
1001
ACAD
1000
AcDbSavedByObjectVersion
1070
     0
  0
VISUALSTYLE
  5
3A
102
{ACAD_REACTORS
330
2A
102
}
102
{ACAD_XDICTIONARY
360
43A
102
}
330
2A
100
AcDbVisualStyle
  2
ColorChange
 70
    16
 71
     2
 72
     2
 73
     3
 90
        0
 40
-0.6
 41
-30.0
 62
     5
 63
     8
 74
     1
 91
        4
 64
     7
 65
   257
 75
     1
175
     1
 42
1.0
 92
        8
 66
     8
 43
1.0
 76
     1
 77
     6
 78
     2
 67
     7
 79
     5
170
     0
171
     0
290
     0
174
     0
 93
        1
 44
0.0
173
     0
291
     1
 45
0.0
1001
ACAD
1000
AcDbSavedByObjectVersion
1070
     0
  0
VISUALSTYLE
  5
34
102
{ACAD_REACTORS
330
2A
102
}
102
{ACAD_XDICTIONARY
360
42E
102
}
330
2A
100
AcDbVisualStyle
  2
Conceptual
 70
     9
 71
     3
 72
     2
 73
     0
 90
        0
 40
-0.6
 41
-30.0
 62
     5
 63
     7
 74
     2
 91
        2
 64
     7
 65
   257
 75
     1
175
     1
 42
40.0
 92
        8
 66
     7
 43
1.0
 76
     1
 77
     6
 78
     2
 67
     7
 79
     3
170
     0
171
     0
290
     0
174
     0
 93
        1
 44
0.0
173
     0
291
     0
 45
0.0
1001
ACAD
1000
AcDbSavedByObjectVersion
1070
     0
  0
VISUALSTYLE
  5
35
102
{ACAD_REACTORS
330
2A
102
}
102
{ACAD_XDICTIONARY
360
430
102
}
330
2A
100
AcDbVisualStyle
  2
Dim
 70
    11
 71
     2
 72
     2
 73
     0
 90
        0
 40
-0.6
 41
-30.0
 62
     5
 63
     7
 74
     1
 91
        4
 64
     7
 65
   257
 75
     1
175
     1
 42
1.0
 92
        8
 66
     7
 43
1.0
 76
     1
 77
     6
 78
     2
 67
     7
 79
     5
170
     0
171
     0
290
     0
174
     0
 93
        1
 44
-50.0
173
     0
291
     1
 45
0.0
1001
ACAD
1000
AcDbSavedByObjectVersion
1070
     0
  0
VISUALSTYLE
  5
39
102
{ACAD_REACTORS
330
2A
102
}
102
{ACAD_XDICTIONARY
360
438
102
}
330
2A
100
AcDbVisualStyle
  2
Facepattern
 70
    15
 71
     2
 72
     2
 73
     0
 90
        0
 40
-0.6
 41
-30.0
 62
     5
 63
     7
 74
     1
 91
        4
 64
     7
 65
   257
 75
     1
175
     1
 42
1.0
 92
        8
 66
     7
 43
1.0
 76
     1
 77
     6
 78
     2
 67
     7
 79
     5
170
     0
171
     0
290
     0
174
     0
 93
        1
 44
0.0
173
     0
291
     1
 45
0.0
1001
ACAD
1000
AcDbSavedByObjectVersion
1070
     0
  0
VISUALSTYLE
  5
2B
102
{ACAD_REACTORS
330
2A
102
}
102
{ACAD_XDICTIONARY
360
41C
102
}
330
2A
100
AcDbVisualStyle
  2
Flat
 70
     0
 71
     2
 72
     1
 73
     1
 90
        2
 40
-0.6
 41
30.0
 62
     5
 63
     7
 74
     0
 91
        4
 64
     7
 65
   257
 75
     1
175
     1
 42
1.0
 92
        8
 66
     7
 43
1.0
 76
     1
 77
     6
 78
     2
 67
     7
 79
     5
170
     0
171
     0
290
     0
174
     0
 93
       13
 44
0.0
173
     0
291
     1
 45
0.0
1001
ACAD
1000
AcDbSavedByObjectVersion
1070
     0
  0
VISUALSTYLE
  5
2C
102
{ACAD_REACTORS
330
2A
102
}
102
{ACAD_XDICTIONARY
360
41E
102
}
330
2A
100
AcDbVisualStyle
  2
FlatWithEdges
 70
     1
 71
     2
 72
     1
 73
     1
 90
        2
 40
-0.6
 41
30.0
 62
     5
 63
     7
 74
     1
 91
        4
 64
     7
 65
   257
 75
     1
175
     1
 42
1.0
 92
        0
 66
   257
 43
1.0
 76
     1
 77
     6
 78
     2
 67
     7
 79
     5
170
     0
171
     0
290
     0
174
     0
 93
       13
 44
0.0
173
     0
291
     1
 45
0.0
1001
ACAD
1000
AcDbSavedByObjectVersion
1070
     0
  0
VISUALSTYLE
  5
2D
102
{ACAD_REACTORS
330
2A
102
}
102
{ACAD_XDICTIONARY
360
420
102
}
330
2A
100
AcDbVisualStyle
  2
Gouraud
 70
     2
 71
     2
 72
     2
 73
     1
 90
        2
 40
-0.6
 41
30.0
 62
     5
 63
     7
 74
     0
 91
        4
 64
     7
 65
   257
 75
     1
175
     1
 42
1.0
 92
        0
 66
     7
 43
1.0
 76
     1
 77
     6
 78
     2
 67
     7
 79
     5
170
     0
171
     0
290
     0
174
     0
 93
       13
 44
0.0
173
     0
291
     1
 45
0.0
1001
ACAD
1000
AcDbSavedByObjectVersion
1070
     0
  0
VISUALSTYLE
  5
2E
102
{ACAD_REACTORS
330
2A
102
}
102
{ACAD_XDICTIONARY
360
422
102
}
330
2A
100
AcDbVisualStyle
  2
GouraudWithEdges
 70
     3
 71
     2
 72
     2
 73
     1
 90
        2
 40
-0.6
 41
30.0
 62
     5
 63
     7
 74
     1
 91
        4
 64
     7
 65
   257
 75
     1
175
     1
 42
1.0
 92
        0
 66
   257
 43
1.0
 76
     1
 77
     6
 78
     2
 67
     7
 79
     5
170
     0
171
     0
290
     0
174
     0
 93
       13
 44
0.0
173
     0
291
     1
 45
0.0
1001
ACAD
1000
AcDbSavedByObjectVersion
1070
     0
  0
VISUALSTYLE
  5
38
102
{ACAD_REACTORS
330
2A
102
}
102
{ACAD_XDICTIONARY
360
436
102
}
330
2A
100
AcDbVisualStyle
  2
Linepattern
 70
    14
 71
     2
 72
     2
 73
     0
 90
        0
 40
-0.6
 41
-30.0
 62
     5
 63
     7
 74
     1
 91
        4
 64
     7
 65
   257
 75
     7
175
     7
 42
1.0
 92
        8
 66
     7
 43
1.0
 76
     1
 77
     6
 78
     2
 67
     7
 79
     5
170
     0
171
     0
290
     0
174
     0
 93
        1
 44
0.0
173
     0
291
     1
 45
0.0
1001
ACAD
1000
AcDbSavedByObjectVersion
1070
     0
  0
VISUALSTYLE
  5
33
102
{ACAD_REACTORS
330
2A
102
}
102
{ACAD_XDICTIONARY
360
42C
102
}
330
2A
100
AcDbVisualStyle
  2
Realistic
 70
     8
 71
     2
 72
     2
 73
     0
 90
        0
 40
-0.6
 41
-30.0
 62
     5
 63
     7
 74
     1
 91
        0
 64
     7
 65
   257
 75
     1
175
     1
 42
1.0
 92
        8
 66
     8
 43
1.0
 76
     1
 77
     6
 78
     2
 67
     7
 79
     5
170
     0
171
     0
290
     0
174
     0
 93
       13
 44
0.0
173
     0
291
     0
 45
0.0
1001
ACAD
1000
AcDbSavedByObjectVersion
1070
     0
  0
VISUALSTYLE
  5
37
102
{ACAD_REACTORS
330
2A
102
}
102
{ACAD_XDICTIONARY
360
434
102
}
330
2A
100
AcDbVisualStyle
  2
Thicken
 70
    13
 71
     2
 72
     2
 73
     0
 90
        0
 40
-0.6
 41
-30.0
 62
     5
 63
     7
 74
     1
 91
        4
 64
     7
 65
   257
 75
     1
175
     1
 42
1.0
 92
       12
 66
     7
 43
1.0
 76
     1
 77
     6
 78
     2
 67
     7
 79
     5
170
     0
171
     0
290
     0
174
     0
 93
        1
 44
0.0
173
     0
291
     1
 45
0.0
1001
ACAD
1000
AcDbSavedByObjectVersion
1070
     0
  0
DICTIONARYVAR
  5
41A
102
{ACAD_REACTORS
330
417
102
}
330
417
100
DictionaryVariables
280
     0
  1
2
  0
DICTIONARYVAR
  5
41B
102
{ACAD_REACTORS
330
417
102
}
330
417
100
DictionaryVariables
280
     0
  1
1
  0
DICTIONARY
  5
43E
330
3D
100
AcDbDictionary
280
     1
281
     1
  3
ACAD_XREC_ROUNDTRIP
360
43F
  0
DICTIONARY
  5
43C
330
3C
100
AcDbDictionary
280
     1
281
     1
  3
ACAD_XREC_ROUNDTRIP
360
43D
  0
DICTIONARY
  5
440
330
3E
100
AcDbDictionary
280
     1
281
     1
  3
ACAD_XREC_ROUNDTRIP
360
441
  0
DICTIONARY
  5
424
330
2F
100
AcDbDictionary
280
     1
281
     1
  3
ACAD_XREC_ROUNDTRIP
360
425
  0
DICTIONARY
  5
428
330
31
100
AcDbDictionary
280
     1
281
     1
  3
ACAD_XREC_ROUNDTRIP
360
429
  0
DICTIONARY
  5
426
330
30
100
AcDbDictionary
280
     1
281
     1
  3
ACAD_XREC_ROUNDTRIP
360
427
  0
DICTIONARY
  5
42A
330
32
100
AcDbDictionary
280
     1
281
     1
  3
ACAD_XREC_ROUNDTRIP
360
42B
  0
DICTIONARY
  5
432
330
36
100
AcDbDictionary
280
     1
281
     1
  3
ACAD_XREC_ROUNDTRIP
360
433
  0
DICTIONARY
  5
43A
330
3A
100
AcDbDictionary
280
     1
281
     1
  3
ACAD_XREC_ROUNDTRIP
360
43B
  0
DICTIONARY
  5
42E
330
34
100
AcDbDictionary
280
     1
281
     1
  3
ACAD_XREC_ROUNDTRIP
360
42F
  0
DICTIONARY
  5
430
330
35
100
AcDbDictionary
280
     1
281
     1
  3
ACAD_XREC_ROUNDTRIP
360
431
  0
DICTIONARY
  5
438
330
39
100
AcDbDictionary
280
     1
281
     1
  3
ACAD_XREC_ROUNDTRIP
360
439
  0
DICTIONARY
  5
41C
330
2B
100
AcDbDictionary
280
     1
281
     1
  3
ACAD_XREC_ROUNDTRIP
360
41D
  0
DICTIONARY
  5
41E
330
2C
100
AcDbDictionary
280
     1
281
     1
  3
ACAD_XREC_ROUNDTRIP
360
41F
  0
DICTIONARY
  5
420
330
2D
100
AcDbDictionary
280
     1
281
     1
  3
ACAD_XREC_ROUNDTRIP
360
421
  0
DICTIONARY
  5
422
330
2E
100
AcDbDictionary
280
     1
281
     1
  3
ACAD_XREC_ROUNDTRIP
360
423
  0
DICTIONARY
  5
436
330
38
100
AcDbDictionary
280
     1
281
     1
  3
ACAD_XREC_ROUNDTRIP
360
437
  0
DICTIONARY
  5
42C
330
33
100
AcDbDictionary
280
     1
281
     1
  3
ACAD_XREC_ROUNDTRIP
360
42D
  0
DICTIONARY
  5
434
330
37
100
AcDbDictionary
280
     1
281
     1
  3
ACAD_XREC_ROUNDTRIP
360
435
  0
XRECORD
  5
43F
102
{ACAD_REACTORS
330
43E
102
}
330
43E
100
AcDbXrecord
280
     1
102
MATERIAL
148
0.0
149
0.0
149
0.0
 93
        0
 94
      127
282
     0
 72
     1
 77
     1
171
     1
175
     1
179
     1
273
     0
  0
XRECORD
  5
43D
102
{ACAD_REACTORS
330
43C
102
}
330
43C
100
AcDbXrecord
280
     1
102
MATERIAL
148
0.0
149
0.0
149
0.0
 93
        0
 94
      127
282
     0
 72
     1
 77
     1
171
     1
175
     1
179
     1
273
     0
  0
XRECORD
  5
441
102
{ACAD_REACTORS
330
440
102
}
330
440
100
AcDbXrecord
280
     1
102
MATERIAL
148
0.0
149
0.0
149
0.0
 93
        0
 94
      127
282
     0
 72
     1
 77
     1
171
     1
175
     1
179
     1
273
     0
  0
XRECORD
  5
425
102
{ACAD_REACTORS
330
424
102
}
330
424
100
AcDbXrecord
280
     1
102
RTVSPropertyOp0
 70
     1
102
RTVSPropertyOp1
 70
     1
102
RTVSPropertyOp2
 70
     1
102
RTVSPropertyOp3
 70
     1
102
RTVSPropertyOp4
 70
     1
102
RTVSPropertyOp5
 70
     1
102
RTVSPropertyOp6
 70
     1
102
RTVSPropertyOp7
 70
     1
102
RTVSPropertyOp8
 70
     1
102
RTVSPropertyOp9
 70
     1
102
RTVSPropertyOp10
 70
     1
102
RTVSPropertyOp11
 70
     1
102
RTVSPropertyOp12
 70
     1
102
RTVSPropertyOp13
 70
     1
102
RTVSPropertyOp14
 70
     1
102
RTVSPropertyOp15
 70
     1
102
RTVSPropertyOp16
 70
     1
102
RTVSPropertyOp17
 70
     1
102
RTVSPropertyOp18
 70
     1
102
RTVSPropertyOp19
 70
     1
102
RTVSPropertyOp20
 70
     1
102
RTVSPropertyOp21
 70
     1
102
RTVSPropertyOp22
 70
     1
102
RTVSPropertyOp23
 70
     1
102
RTVSPropertyOp24
 70
     1
102
RTVSPropertyOp25
 70
     1
102
RTVSPropertyOp26
 70
     1
102
RTVSPropertyOp27
 70
     1
102
RTVSPropertyOp28
 70
     1
102
RTVSPropertyOp29
 70
     1
102
RTVSPropertyOp30
 70
     1
102
RTVSPropertyOp31
 70
     1
102
RTVSPropertyOp32
 70
     1
  0
XRECORD
  5
429
102
{ACAD_REACTORS
330
428
102
}
330
428
100
AcDbXrecord
280
     1
102
RTVSPropertyOp0
 70
     1
102
RTVSPropertyOp1
 70
     1
102
RTVSPropertyOp2
 70
     1
102
RTVSPropertyOp3
 70
     1
102
RTVSPropertyOp4
 70
     1
102
RTVSPropertyOp5
 70
     1
102
RTVSPropertyOp6
 70
     1
102
RTVSPropertyOp7
 70
     1
102
RTVSPropertyOp8
 70
     1
102
RTVSPropertyOp9
 70
     1
102
RTVSPropertyOp10
 70
     1
102
RTVSPropertyOp11
 70
     1
102
RTVSPropertyOp12
 70
     1
102
RTVSPropertyOp13
 70
     1
102
RTVSPropertyOp14
 70
     1
102
RTVSPropertyOp15
 70
     1
102
RTVSPropertyOp16
 70
     1
102
RTVSPropertyOp17
 70
     1
102
RTVSPropertyOp18
 70
     1
102
RTVSPropertyOp19
 70
     1
102
RTVSPropertyOp20
 70
     1
102
RTVSPropertyOp21
 70
     1
102
RTVSPropertyOp22
 70
     1
102
RTVSPropertyOp23
 70
     1
102
RTVSPropertyOp24
 70
     1
102
RTVSPropertyOp25
 70
     1
102
RTVSPropertyOp26
 70
     1
102
RTVSPropertyOp27
 70
     1
102
RTVSPropertyOp28
 70
     1
102
RTVSPropertyOp29
 70
     1
102
RTVSPropertyOp30
 70
     1
102
RTVSPropertyOp31
 70
     1
102
RTVSPropertyOp32
 70
     1
  0
XRECORD
  5
427
102
{ACAD_REACTORS
330
426
102
}
330
426
100
AcDbXrecord
280
     1
102
RTVSPropertyOp0
 70
     1
102
RTVSPropertyOp1
 70
     1
102
RTVSPropertyOp2
 70
     1
102
RTVSPropertyOp3
 70
     1
102
RTVSPropertyOp4
 70
     1
102
RTVSPropertyOp5
 70
     1
102
RTVSPropertyOp6
 70
     1
102
RTVSPropertyOp7
 70
     1
102
RTVSPropertyOp8
 70
     1
102
RTVSPropertyOp9
 70
     1
102
RTVSPropertyOp10
 70
     1
102
RTVSPropertyOp11
 70
     1
102
RTVSPropertyOp12
 70
     1
102
RTVSPropertyOp13
 70
     1
102
RTVSPropertyOp14
 70
     1
102
RTVSPropertyOp15
 70
     1
102
RTVSPropertyOp16
 70
     1
102
RTVSPropertyOp17
 70
     1
102
RTVSPropertyOp18
 70
     1
102
RTVSPropertyOp19
 70
     1
102
RTVSPropertyOp20
 70
     1
102
RTVSPropertyOp21
 70
     1
102
RTVSPropertyOp22
 70
     1
102
RTVSPropertyOp23
 70
     1
102
RTVSPropertyOp24
 70
     1
102
RTVSPropertyOp25
 70
     1
102
RTVSPropertyOp26
 70
     1
102
RTVSPropertyOp27
 70
     1
102
RTVSPropertyOp28
 70
     1
102
RTVSPropertyOp29
 70
     1
102
RTVSPropertyOp30
 70
     1
102
RTVSPropertyOp31
 70
     1
102
RTVSPropertyOp32
 70
     1
  0
XRECORD
  5
42B
102
{ACAD_REACTORS
330
42A
102
}
330
42A
100
AcDbXrecord
280
     1
102
RTVSPropertyOp0
 70
     1
102
RTVSPropertyOp1
 70
     1
102
RTVSPropertyOp2
 70
     1
102
RTVSPropertyOp3
 70
     1
102
RTVSPropertyOp4
 70
     1
102
RTVSPropertyOp5
 70
     1
102
RTVSPropertyOp6
 70
     1
102
RTVSPropertyOp7
 70
     1
102
RTVSPropertyOp8
 70
     1
102
RTVSPropertyOp9
 70
     1
102
RTVSPropertyOp10
 70
     1
102
RTVSPropertyOp11
 70
     1
102
RTVSPropertyOp12
 70
     1
102
RTVSPropertyOp13
 70
     1
102
RTVSPropertyOp14
 70
     1
102
RTVSPropertyOp15
 70
     1
102
RTVSPropertyOp16
 70
     1
102
RTVSPropertyOp17
 70
     1
102
RTVSPropertyOp18
 70
     1
102
RTVSPropertyOp19
 70
     1
102
RTVSPropertyOp20
 70
     1
102
RTVSPropertyOp21
 70
     1
102
RTVSPropertyOp22
 70
     1
102
RTVSPropertyOp23
 70
     1
102
RTVSPropertyOp24
 70
     1
102
RTVSPropertyOp25
 70
     1
102
RTVSPropertyOp26
 70
     1
102
RTVSPropertyOp27
 70
     1
102
RTVSPropertyOp28
 70
     1
102
RTVSPropertyOp29
 70
     1
102
RTVSPropertyOp30
 70
     1
102
RTVSPropertyOp31
 70
     1
102
RTVSPropertyOp32
 70
     1
  0
XRECORD
  5
433
102
{ACAD_REACTORS
330
432
102
}
330
432
100
AcDbXrecord
280
     1
102
RTVSPropertyOp0
 70
     1
102
RTVSPropertyOp1
 70
     1
102
RTVSPropertyOp2
 70
     1
102
RTVSPropertyOp3
 70
     1
102
RTVSPropertyOp4
 70
     1
102
RTVSPropertyOp5
 70
     1
102
RTVSPropertyOp6
 70
     1
102
RTVSPropertyOp7
 70
     1
102
RTVSPropertyOp8
 70
     1
102
RTVSPropertyOp9
 70
     1
102
RTVSPropertyOp10
 70
     1
102
RTVSPropertyOp11
 70
     1
102
RTVSPropertyOp12
 70
     1
102
RTVSPropertyOp13
 70
     1
102
RTVSPropertyOp14
 70
     1
102
RTVSPropertyOp15
 70
     1
102
RTVSPropertyOp16
 70
     1
102
RTVSPropertyOp17
 70
     1
102
RTVSPropertyOp18
 70
     1
102
RTVSPropertyOp19
 70
     1
102
RTVSPropertyOp20
 70
     1
102
RTVSPropertyOp21
 70
     1
102
RTVSPropertyOp22
 70
     1
102
RTVSPropertyOp23
 70
     1
102
RTVSPropertyOp24
 70
     1
102
RTVSPropertyOp25
 70
     1
102
RTVSPropertyOp26
 70
     1
102
RTVSPropertyOp27
 70
     1
102
RTVSPropertyOp28
 70
     1
102
RTVSPropertyOp29
 70
     1
102
RTVSPropertyOp30
 70
     1
102
RTVSPropertyOp31
 70
     1
102
RTVSPropertyOp32
 70
     1
  0
XRECORD
  5
43B
102
{ACAD_REACTORS
330
43A
102
}
330
43A
100
AcDbXrecord
280
     1
102
RTVSPropertyOp0
 70
     1
102
RTVSPropertyOp1
 70
     1
102
RTVSPropertyOp2
 70
     1
102
RTVSPropertyOp3
 70
     1
102
RTVSPropertyOp4
 70
     1
102
RTVSPropertyOp5
 70
     1
102
RTVSPropertyOp6
 70
     1
102
RTVSPropertyOp7
 70
     1
102
RTVSPropertyOp8
 70
     1
102
RTVSPropertyOp9
 70
     1
102
RTVSPropertyOp10
 70
     1
102
RTVSPropertyOp11
 70
     1
102
RTVSPropertyOp12
 70
     1
102
RTVSPropertyOp13
 70
     1
102
RTVSPropertyOp14
 70
     1
102
RTVSPropertyOp15
 70
     1
102
RTVSPropertyOp16
 70
     1
102
RTVSPropertyOp17
 70
     1
102
RTVSPropertyOp18
 70
     1
102
RTVSPropertyOp19
 70
     1
102
RTVSPropertyOp20
 70
     1
102
RTVSPropertyOp21
 70
     1
102
RTVSPropertyOp22
 70
     1
102
RTVSPropertyOp23
 70
     1
102
RTVSPropertyOp24
 70
     1
102
RTVSPropertyOp25
 70
     1
102
RTVSPropertyOp26
 70
     1
102
RTVSPropertyOp27
 70
     1
102
RTVSPropertyOp28
 70
     1
102
RTVSPropertyOp29
 70
     1
102
RTVSPropertyOp30
 70
     1
102
RTVSPropertyOp31
 70
     1
102
RTVSPropertyOp32
 70
     1
  0
XRECORD
  5
42F
102
{ACAD_REACTORS
330
42E
102
}
330
42E
100
AcDbXrecord
280
     1
102
RTVSPropertyOp0
 70
     1
102
RTVSPropertyOp1
 70
     1
102
RTVSPropertyOp2
 70
     1
102
RTVSPropertyOp3
 70
     1
102
RTVSPropertyOp4
 70
     1
102
RTVSPropertyOp5
 70
     1
102
RTVSPropertyOp6
 70
     1
102
RTVSPropertyOp7
 70
     1
102
RTVSPropertyOp8
 70
     1
102
RTVSPropertyOp9
 70
     1
102
RTVSPropertyOp10
 70
     1
102
RTVSPropertyOp11
 70
     1
102
RTVSPropertyOp12
 70
     1
102
RTVSPropertyOp13
 70
     1
102
RTVSPropertyOp14
 70
     1
102
RTVSPropertyOp15
 70
     1
102
RTVSPropertyOp16
 70
     1
102
RTVSPropertyOp17
 70
     1
102
RTVSPropertyOp18
 70
     1
102
RTVSPropertyOp19
 70
     1
102
RTVSPropertyOp20
 70
     1
102
RTVSPropertyOp21
 70
     1
102
RTVSPropertyOp22
 70
     1
102
RTVSPropertyOp23
 70
     1
102
RTVSPropertyOp24
 70
     1
102
RTVSPropertyOp25
 70
     1
102
RTVSPropertyOp26
 70
     1
102
RTVSPropertyOp27
 70
     1
102
RTVSPropertyOp28
 70
     1
102
RTVSPropertyOp29
 70
     1
102
RTVSPropertyOp30
 70
     1
102
RTVSPropertyOp31
 70
     1
102
RTVSPropertyOp32
 70
     1
  0
XRECORD
  5
431
102
{ACAD_REACTORS
330
430
102
}
330
430
100
AcDbXrecord
280
     1
102
RTVSPropertyOp0
 70
     1
102
RTVSPropertyOp1
 70
     1
102
RTVSPropertyOp2
 70
     1
102
RTVSPropertyOp3
 70
     1
102
RTVSPropertyOp4
 70
     1
102
RTVSPropertyOp5
 70
     1
102
RTVSPropertyOp6
 70
     1
102
RTVSPropertyOp7
 70
     1
102
RTVSPropertyOp8
 70
     1
102
RTVSPropertyOp9
 70
     1
102
RTVSPropertyOp10
 70
     1
102
RTVSPropertyOp11
 70
     1
102
RTVSPropertyOp12
 70
     1
102
RTVSPropertyOp13
 70
     1
102
RTVSPropertyOp14
 70
     1
102
RTVSPropertyOp15
 70
     1
102
RTVSPropertyOp16
 70
     1
102
RTVSPropertyOp17
 70
     1
102
RTVSPropertyOp18
 70
     1
102
RTVSPropertyOp19
 70
     1
102
RTVSPropertyOp20
 70
     1
102
RTVSPropertyOp21
 70
     1
102
RTVSPropertyOp22
 70
     1
102
RTVSPropertyOp23
 70
     1
102
RTVSPropertyOp24
 70
     1
102
RTVSPropertyOp25
 70
     1
102
RTVSPropertyOp26
 70
     1
102
RTVSPropertyOp27
 70
     1
102
RTVSPropertyOp28
 70
     1
102
RTVSPropertyOp29
 70
     1
102
RTVSPropertyOp30
 70
     1
102
RTVSPropertyOp31
 70
     1
102
RTVSPropertyOp32
 70
     1
  0
XRECORD
  5
439
102
{ACAD_REACTORS
330
438
102
}
330
438
100
AcDbXrecord
280
     1
102
RTVSPropertyOp0
 70
     1
102
RTVSPropertyOp1
 70
     1
102
RTVSPropertyOp2
 70
     1
102
RTVSPropertyOp3
 70
     1
102
RTVSPropertyOp4
 70
     1
102
RTVSPropertyOp5
 70
     1
102
RTVSPropertyOp6
 70
     1
102
RTVSPropertyOp7
 70
     1
102
RTVSPropertyOp8
 70
     1
102
RTVSPropertyOp9
 70
     1
102
RTVSPropertyOp10
 70
     1
102
RTVSPropertyOp11
 70
     1
102
RTVSPropertyOp12
 70
     1
102
RTVSPropertyOp13
 70
     1
102
RTVSPropertyOp14
 70
     1
102
RTVSPropertyOp15
 70
     1
102
RTVSPropertyOp16
 70
     1
102
RTVSPropertyOp17
 70
     1
102
RTVSPropertyOp18
 70
     1
102
RTVSPropertyOp19
 70
     1
102
RTVSPropertyOp20
 70
     1
102
RTVSPropertyOp21
 70
     1
102
RTVSPropertyOp22
 70
     1
102
RTVSPropertyOp23
 70
     1
102
RTVSPropertyOp24
 70
     1
102
RTVSPropertyOp25
 70
     1
102
RTVSPropertyOp26
 70
     1
102
RTVSPropertyOp27
 70
     1
102
RTVSPropertyOp28
 70
     1
102
RTVSPropertyOp29
 70
     1
102
RTVSPropertyOp30
 70
     1
102
RTVSPropertyOp31
 70
     1
102
RTVSPropertyOp32
 70
     1
  0
XRECORD
  5
41D
102
{ACAD_REACTORS
330
41C
102
}
330
41C
100
AcDbXrecord
280
     1
102
RTVSPropertyOp0
 70
     1
102
RTVSPropertyOp1
 70
     1
102
RTVSPropertyOp2
 70
     1
102
RTVSPropertyOp3
 70
     1
102
RTVSPropertyOp4
 70
     1
102
RTVSPropertyOp5
 70
     1
102
RTVSPropertyOp6
 70
     1
102
RTVSPropertyOp7
 70
     1
102
RTVSPropertyOp8
 70
     1
102
RTVSPropertyOp9
 70
     1
102
RTVSPropertyOp10
 70
     1
102
RTVSPropertyOp11
 70
     1
102
RTVSPropertyOp12
 70
     1
102
RTVSPropertyOp13
 70
     1
102
RTVSPropertyOp14
 70
     1
102
RTVSPropertyOp15
 70
     1
102
RTVSPropertyOp16
 70
     1
102
RTVSPropertyOp17
 70
     1
102
RTVSPropertyOp18
 70
     1
102
RTVSPropertyOp19
 70
     1
102
RTVSPropertyOp20
 70
     1
102
RTVSPropertyOp21
 70
     1
102
RTVSPropertyOp22
 70
     1
102
RTVSPropertyOp23
 70
     1
102
RTVSPropertyOp24
 70
     1
102
RTVSPropertyOp25
 70
     1
102
RTVSPropertyOp26
 70
     1
102
RTVSPropertyOp27
 70
     1
102
RTVSPropertyOp28
 70
     1
102
RTVSPropertyOp29
 70
     1
102
RTVSPropertyOp30
 70
     1
102
RTVSPropertyOp31
 70
     1
102
RTVSPropertyOp32
 70
     1
  0
XRECORD
  5
41F
102
{ACAD_REACTORS
330
41E
102
}
330
41E
100
AcDbXrecord
280
     1
102
RTVSPropertyOp0
 70
     1
102
RTVSPropertyOp1
 70
     1
102
RTVSPropertyOp2
 70
     1
102
RTVSPropertyOp3
 70
     1
102
RTVSPropertyOp4
 70
     1
102
RTVSPropertyOp5
 70
     1
102
RTVSPropertyOp6
 70
     1
102
RTVSPropertyOp7
 70
     1
102
RTVSPropertyOp8
 70
     1
102
RTVSPropertyOp9
 70
     1
102
RTVSPropertyOp10
 70
     1
102
RTVSPropertyOp11
 70
     1
102
RTVSPropertyOp12
 70
     1
102
RTVSPropertyOp13
 70
     1
102
RTVSPropertyOp14
 70
     1
102
RTVSPropertyOp15
 70
     1
102
RTVSPropertyOp16
 70
     1
102
RTVSPropertyOp17
 70
     1
102
RTVSPropertyOp18
 70
     1
102
RTVSPropertyOp19
 70
     1
102
RTVSPropertyOp20
 70
     1
102
RTVSPropertyOp21
 70
     1
102
RTVSPropertyOp22
 70
     1
102
RTVSPropertyOp23
 70
     1
102
RTVSPropertyOp24
 70
     1
102
RTVSPropertyOp25
 70
     1
102
RTVSPropertyOp26
 70
     1
102
RTVSPropertyOp27
 70
     1
102
RTVSPropertyOp28
 70
     1
102
RTVSPropertyOp29
 70
     1
102
RTVSPropertyOp30
 70
     1
102
RTVSPropertyOp31
 70
     1
102
RTVSPropertyOp32
 70
     1
  0
XRECORD
  5
421
102
{ACAD_REACTORS
330
420
102
}
330
420
100
AcDbXrecord
280
     1
102
RTVSPropertyOp0
 70
     1
102
RTVSPropertyOp1
 70
     1
102
RTVSPropertyOp2
 70
     1
102
RTVSPropertyOp3
 70
     1
102
RTVSPropertyOp4
 70
     1
102
RTVSPropertyOp5
 70
     1
102
RTVSPropertyOp6
 70
     1
102
RTVSPropertyOp7
 70
     1
102
RTVSPropertyOp8
 70
     1
102
RTVSPropertyOp9
 70
     1
102
RTVSPropertyOp10
 70
     1
102
RTVSPropertyOp11
 70
     1
102
RTVSPropertyOp12
 70
     1
102
RTVSPropertyOp13
 70
     1
102
RTVSPropertyOp14
 70
     1
102
RTVSPropertyOp15
 70
     1
102
RTVSPropertyOp16
 70
     1
102
RTVSPropertyOp17
 70
     1
102
RTVSPropertyOp18
 70
     1
102
RTVSPropertyOp19
 70
     1
102
RTVSPropertyOp20
 70
     1
102
RTVSPropertyOp21
 70
     1
102
RTVSPropertyOp22
 70
     1
102
RTVSPropertyOp23
 70
     1
102
RTVSPropertyOp24
 70
     1
102
RTVSPropertyOp25
 70
     1
102
RTVSPropertyOp26
 70
     1
102
RTVSPropertyOp27
 70
     1
102
RTVSPropertyOp28
 70
     1
102
RTVSPropertyOp29
 70
     1
102
RTVSPropertyOp30
 70
     1
102
RTVSPropertyOp31
 70
     1
102
RTVSPropertyOp32
 70
     1
  0
XRECORD
  5
423
102
{ACAD_REACTORS
330
422
102
}
330
422
100
AcDbXrecord
280
     1
102
RTVSPropertyOp0
 70
     1
102
RTVSPropertyOp1
 70
     1
102
RTVSPropertyOp2
 70
     1
102
RTVSPropertyOp3
 70
     1
102
RTVSPropertyOp4
 70
     1
102
RTVSPropertyOp5
 70
     1
102
RTVSPropertyOp6
 70
     1
102
RTVSPropertyOp7
 70
     1
102
RTVSPropertyOp8
 70
     1
102
RTVSPropertyOp9
 70
     1
102
RTVSPropertyOp10
 70
     1
102
RTVSPropertyOp11
 70
     1
102
RTVSPropertyOp12
 70
     1
102
RTVSPropertyOp13
 70
     1
102
RTVSPropertyOp14
 70
     1
102
RTVSPropertyOp15
 70
     1
102
RTVSPropertyOp16
 70
     1
102
RTVSPropertyOp17
 70
     1
102
RTVSPropertyOp18
 70
     1
102
RTVSPropertyOp19
 70
     1
102
RTVSPropertyOp20
 70
     1
102
RTVSPropertyOp21
 70
     1
102
RTVSPropertyOp22
 70
     1
102
RTVSPropertyOp23
 70
     1
102
RTVSPropertyOp24
 70
     1
102
RTVSPropertyOp25
 70
     1
102
RTVSPropertyOp26
 70
     1
102
RTVSPropertyOp27
 70
     1
102
RTVSPropertyOp28
 70
     1
102
RTVSPropertyOp29
 70
     1
102
RTVSPropertyOp30
 70
     1
102
RTVSPropertyOp31
 70
     1
102
RTVSPropertyOp32
 70
     1
  0
XRECORD
  5
437
102
{ACAD_REACTORS
330
436
102
}
330
436
100
AcDbXrecord
280
     1
102
RTVSPropertyOp0
 70
     1
102
RTVSPropertyOp1
 70
     1
102
RTVSPropertyOp2
 70
     1
102
RTVSPropertyOp3
 70
     1
102
RTVSPropertyOp4
 70
     1
102
RTVSPropertyOp5
 70
     1
102
RTVSPropertyOp6
 70
     1
102
RTVSPropertyOp7
 70
     1
102
RTVSPropertyOp8
 70
     1
102
RTVSPropertyOp9
 70
     1
102
RTVSPropertyOp10
 70
     1
102
RTVSPropertyOp11
 70
     1
102
RTVSPropertyOp12
 70
     1
102
RTVSPropertyOp13
 70
     1
102
RTVSPropertyOp14
 70
     1
102
RTVSPropertyOp15
 70
     1
102
RTVSPropertyOp16
 70
     1
102
RTVSPropertyOp17
 70
     1
102
RTVSPropertyOp18
 70
     1
102
RTVSPropertyOp19
 70
     1
102
RTVSPropertyOp20
 70
     1
102
RTVSPropertyOp21
 70
     1
102
RTVSPropertyOp22
 70
     1
102
RTVSPropertyOp23
 70
     1
102
RTVSPropertyOp24
 70
     1
102
RTVSPropertyOp25
 70
     1
102
RTVSPropertyOp26
 70
     1
102
RTVSPropertyOp27
 70
     1
102
RTVSPropertyOp28
 70
     1
102
RTVSPropertyOp29
 70
     1
102
RTVSPropertyOp30
 70
     1
102
RTVSPropertyOp31
 70
     1
102
RTVSPropertyOp32
 70
     1
  0
XRECORD
  5
42D
102
{ACAD_REACTORS
330
42C
102
}
330
42C
100
AcDbXrecord
280
     1
102
RTVSPropertyOp0
 70
     1
102
RTVSPropertyOp1
 70
     1
102
RTVSPropertyOp2
 70
     1
102
RTVSPropertyOp3
 70
     1
102
RTVSPropertyOp4
 70
     1
102
RTVSPropertyOp5
 70
     1
102
RTVSPropertyOp6
 70
     1
102
RTVSPropertyOp7
 70
     1
102
RTVSPropertyOp8
 70
     1
102
RTVSPropertyOp9
 70
     1
102
RTVSPropertyOp10
 70
     1
102
RTVSPropertyOp11
 70
     1
102
RTVSPropertyOp12
 70
     1
102
RTVSPropertyOp13
 70
     1
102
RTVSPropertyOp14
 70
     1
102
RTVSPropertyOp15
 70
     1
102
RTVSPropertyOp16
 70
     1
102
RTVSPropertyOp17
 70
     1
102
RTVSPropertyOp18
 70
     1
102
RTVSPropertyOp19
 70
     1
102
RTVSPropertyOp20
 70
     1
102
RTVSPropertyOp21
 70
     1
102
RTVSPropertyOp22
 70
     1
102
RTVSPropertyOp23
 70
     1
102
RTVSPropertyOp24
 70
     1
102
RTVSPropertyOp25
 70
     1
102
RTVSPropertyOp26
 70
     1
102
RTVSPropertyOp27
 70
     1
102
RTVSPropertyOp28
 70
     1
102
RTVSPropertyOp29
 70
     1
102
RTVSPropertyOp30
 70
     1
102
RTVSPropertyOp31
 70
     1
102
RTVSPropertyOp32
 70
     1
  0
XRECORD
  5
435
102
{ACAD_REACTORS
330
434
102
}
330
434
100
AcDbXrecord
280
     1
102
RTVSPropertyOp0
 70
     1
102
RTVSPropertyOp1
 70
     1
102
RTVSPropertyOp2
 70
     1
102
RTVSPropertyOp3
 70
     1
102
RTVSPropertyOp4
 70
     1
102
RTVSPropertyOp5
 70
     1
102
RTVSPropertyOp6
 70
     1
102
RTVSPropertyOp7
 70
     1
102
RTVSPropertyOp8
 70
     1
102
RTVSPropertyOp9
 70
     1
102
RTVSPropertyOp10
 70
     1
102
RTVSPropertyOp11
 70
     1
102
RTVSPropertyOp12
 70
     1
102
RTVSPropertyOp13
 70
     1
102
RTVSPropertyOp14
 70
     1
102
RTVSPropertyOp15
 70
     1
102
RTVSPropertyOp16
 70
     1
102
RTVSPropertyOp17
 70
     1
102
RTVSPropertyOp18
 70
     1
102
RTVSPropertyOp19
 70
     1
102
RTVSPropertyOp20
 70
     1
102
RTVSPropertyOp21
 70
     1
102
RTVSPropertyOp22
 70
     1
102
RTVSPropertyOp23
 70
     1
102
RTVSPropertyOp24
 70
     1
102
RTVSPropertyOp25
 70
     1
102
RTVSPropertyOp26
 70
     1
102
RTVSPropertyOp27
 70
     1
102
RTVSPropertyOp28
 70
     1
102
RTVSPropertyOp29
 70
     1
102
RTVSPropertyOp30
 70
     1
102
RTVSPropertyOp31
 70
     1
102
RTVSPropertyOp32
 70
     1
  0
ENDSEC
  0
EOF
