  0
SECTION
  2
HEADER
  9
$ACADVER
  1
AC1015
  9
$ACADMAINTVER
 70
     6
  9
$DWGCODEPAGE
  3
DOS932
  9
$INSBASE
 10
0.0
 20
0.0
 30
0.0
  9
$EXTMIN
 10
0.0
 20
0.0
 30
0.0
  9
$EXTMAX
 10
420.0
 20
594.0
 30
0.0
  9
$LIMMIN
 10
0.0
 20
0.0
  9
$LIMMAX
 10
12.0
 20
9.0
  9
$ORTHOMODE
 70
     0
  9
$REGENMODE
 70
     1
  9
$FILLMODE
 70
     1
  9
$QTEXTMODE
 70
     0
  9
$MIRRTEXT
 70
     1
  9
$LTSCALE
 40
1.0
  9
$ATTMODE
 70
     1
  9
$TEXTSIZE
 40
0.2
  9
$TRACEWID
 40
0.05
  9
$TEXTSTYLE
  7
Standard
  9
$CLAYER
  8
0
  9
$CELTYPE
  6
ByLayer
  9
$CECOLOR
 62
   256
  9
$CELTSCALE
 40
1.0
  9
$DISPSILH
 70
     0
  9
$DIMSCALE
 40
1.0
  9
$DIMASZ
 40
0.18
  9
$DIMEXO
 40
0.0625
  9
$DIMDLI
 40
0.38
  9
$DIMRND
 40
0.0
  9
$DIMDLE
 40
0.0
  9
$DIMEXE
 40
0.18
  9
$DIMTP
 40
0.0
  9
$DIMTM
 40
0.0
  9
$DIMTXT
 40
0.18
  9
$DIMCEN
 40
0.09
  9
$DIMTSZ
 40
0.0
  9
$DIMTOL
 70
     0
  9
$DIMLIM
 70
     0
  9
$DIMTIH
 70
     1
  9
$DIMTOH
 70
     1
  9
$DIMSE1
 70
     0
  9
$DIMSE2
 70
     0
  9
$DIMTAD
 70
     0
  9
$DIMZIN
 70
     0
  9
$DIMBLK
  1

  9
$DIMASO
 70
     1
  9
$DIMSHO
 70
     1
  9
$DIMPOST
  1

  9
$DIMAPOST
  1

  9
$DIMALT
 70
     0
  9
$DIMALTD
 70
     2
  9
$DIMALTF
 40
25.4
  9
$DIMLFAC
 40
1.0
  9
$DIMTOFL
 70
     0
  9
$DIMTVP
 40
0.0
  9
$DIMTIX
 70
     0
  9
$DIMSOXD
 70
     0
  9
$DIMSAH
 70
     0
  9
$DIMBLK1
  1

  9
$DIMBLK2
  1

  9
$DIMSTYLE
  2
Standard
  9
$DIMCLRD
 70
     0
  9
$DIMCLRE
 70
     0
  9
$DIMCLRT
 70
     0
  9
$DIMTFAC
 40
1.0
  9
$DIMGAP
 40
0.09
  9
$DIMJUST
 70
     0
  9
$DIMSD1
 70
     0
  9
$DIMSD2
 70
     0
  9
$DIMTOLJ
 70
     1
  9
$DIMTZIN
 70
     0
  9
$DIMALTZ
 70
     0
  9
$DIMALTTZ
 70
     0
  9
$DIMUPT
 70
     0
  9
$DIMDEC
 70
     4
  9
$DIMTDEC
 70
     4
  9
$DIMALTU
 70
     2
  9
$DIMALTTD
 70
     2
  9
$DIMTXSTY
  7
Standard
  9
$DIMAUNIT
 70
     0
  9
$DIMADEC
 70
     0
  9
$DIMALTRND
 40
0.0
  9
$DIMAZIN
 70
     0
  9
$DIMDSEP
 70
    46
  9
$DIMATFIT
 70
     3
  9
$DIMFRAC
 70
     0
  9
$DIMLDRBLK
  1

  9
$DIMLUNIT
 70
     2
  9
$DIMLWD
 70
    -2
  9
$DIMLWE
 70
    -2
  9
$DIMTMOVE
 70
     0
  9
$LUNITS
 70
     2
  9
$LUPREC
 70
     4
  9
$SKETCHINC
 40
0.1
  9
$FILLETRAD
 40
0.5
  9
$AUNITS
 70
     0
  9
$AUPREC
 70
     0
  9
$MENU
  1
.
  9
$ELEVATION
 40
0.0
  9
$PELEVATION
 40
0.0
  9
$THICKNESS
 40
0.0
  9
$LIMCHECK
 70
     0
  9
$CHAMFERA
 40
0.5
  9
$CHAMFERB
 40
0.5
  9
$CHAMFERC
 40
1.0
  9
$CHAMFERD
 40
0.0
  9
$SKPOLY
 70
     0
  9
$TDCREATE
 40
2456142.365396227
  9
$TDUCREATE
 40
2456141.990396227
  9
$TDUPDATE
 40
2456142.365396238
  9
$TDUUPDATE
 40
2456141.990396238
  9
$TDINDWG
 40
0.0000000116
  9
$TDUSRTIMER
 40
0.0000000116
  9
$USRTIMER
 70
     1
  9
$ANGBASE
 50
0.0
  9
$ANGDIR
 70
     0
  9
$PDMODE
 70
     0
  9
$PDSIZE
 40
0.0
  9
$PLINEWID
 40
0.0
  9
$SPLFRAME
 70
     0
  9
$SPLINETYPE
 70
     6
  9
$SPLINESEGS
 70
     8
  9
$HANDSEED
  5
1D7
  9
$SURFTAB1
 70
     6
  9
$SURFTAB2
 70
     6
  9
$SURFTYPE
 70
     6
  9
$SURFU
 70
     6
  9
$SURFV
 70
     6
  9
$UCSBASE
  2

  9
$UCSNAME
  2

  9
$UCSORG
 10
0.0
 20
0.0
 30
0.0
  9
$UCSXDIR
 10
1.0
 20
0.0
 30
0.0
  9
$UCSYDIR
 10
0.0
 20
1.0
 30
0.0
  9
$UCSORTHOREF
  2

  9
$UCSORTHOVIEW
 70
     0
  9
$UCSORGTOP
 10
0.0
 20
0.0
 30
0.0
  9
$UCSORGBOTTOM
 10
0.0
 20
0.0
 30
0.0
  9
$UCSORGLEFT
 10
0.0
 20
0.0
 30
0.0
  9
$UCSORGRIGHT
 10
0.0
 20
0.0
 30
0.0
  9
$UCSORGFRONT
 10
0.0
 20
0.0
 30
0.0
  9
$UCSORGBACK
 10
0.0
 20
0.0
 30
0.0
  9
$PUCSBASE
  2

  9
$PUCSNAME
  2

  9
$PUCSORG
 10
0.0
 20
0.0
 30
0.0
  9
$PUCSXDIR
 10
1.0
 20
0.0
 30
0.0
  9
$PUCSYDIR
 10
0.0
 20
1.0
 30
0.0
  9
$PUCSORTHOREF
  2

  9
$PUCSORTHOVIEW
 70
     0
  9
$PUCSORGTOP
 10
0.0
 20
0.0
 30
0.0
  9
$PUCSORGBOTTOM
 10
0.0
 20
0.0
 30
0.0
  9
$PUCSORGLEFT
 10
0.0
 20
0.0
 30
0.0
  9
$PUCSORGRIGHT
 10
0.0
 20
0.0
 30
0.0
  9
$PUCSORGFRONT
 10
0.0
 20
0.0
 30
0.0
  9
$PUCSORGBACK
 10
0.0
 20
0.0
 30
0.0
  9
$USERI1
 70
     0
  9
$USERI2
 70
     0
  9
$USERI3
 70
     0
  9
$USERI4
 70
     0
  9
$USERI5
 70
     0
  9
$USERR1
 40
13.2
  9
$USERR2
 40
0.0
  9
$USERR3
 40
0.0
  9
$USERR4
 40
0.0
  9
$USERR5
 40
0.0
  9
$WORLDVIEW
 70
     1
  9
$SHADEDGE
 70
     3
  9
$SHADEDIF
 70
    70
  9
$TILEMODE
 70
     1
  9
$MAXACTVP
 70
    64
  9
$PINSBASE
 10
0.0
 20
0.0
 30
0.0
  9
$PLIMCHECK
 70
     0
  9
$PEXTMIN
 10
1.00000000000000E+20
 20
1.00000000000000E+20
 30
1.00000000000000E+20
  9
$PEXTMAX
 10
-1.00000000000000E+20
 20
-1.00000000000000E+20
 30
-1.00000000000000E+20
  9
$PLIMMIN
 10
0.0
 20
0.0
  9
$PLIMMAX
 10
12.0
 20
9.0
  9
$UNITMODE
 70
     0
  9
$VISRETAIN
 70
     1
  9
$PLINEGEN
 70
     0
  9
$PSLTSCALE
 70
     1
  9
$TREEDEPTH
 70
  3020
  9
$CMLSTYLE
  2
Standard
  9
$CMLJUST
 70
     0
  9
$CMLSCALE
 40
1.0
  9
$PROXYGRAPHICS
 70
     1
  9
$MEASUREMENT
 70
     1
  9
$CELWEIGHT
370
    -1
  9
$ENDCAPS
280
     0
  9
$JOINSTYLE
280
     0
  9
$LWDISPLAY
290
     0
  9
$INSUNITS
 70
     1
  9
$HYPERLINKBASE
  1

  9
$STYLESHEET
  1

  9
$XEDIT
290
     1
  9
$CEPSNTYPE
380
     0
  9
$PSTYLEMODE
290
     0
  9
$FINGERPRINTGUID
  2
{FAEB1C30-E019-11D5-929B-00C0DF256EC4}
  9
$VERSIONGUID
  2
{FAEB1C32-E019-11D5-929B-00C0DF256EC4}
  9
$EXTNAMES
290
     1
  9
$PSVPSCALE
 40
0.0
  9
$OLESTARTUP
290
     0
  0
ENDSEC
  0
SECTION
  2
CLASSES
  0
CLASS
  1
ACDBDICTIONARYWDFLT
  2
AcDbDictionaryWithDefault
  3
ObjectDBX Classes
 90
        0
280
     0
281
     0
  0
CLASS
  1
TABLESTYLE
  2
AcDbTableStyle
  3
ObjectDBX Classes
 90
     2047
280
     0
281
     0
  0
CLASS
  1
DICTIONARYVAR
  2
AcDbDictionaryVar
  3
ObjectDBX Classes
 90
        0
280
     0
281
     0
  0
CLASS
  1

  2
exOdDbCircle
  3

 90
        0
280
     0
281
     1
  0
CLASS
  1
ACDBPLACEHOLDER
  2
AcDbPlaceHolder
  3
ObjectDBX Classes
 90
        0
280
     0
281
     0
  0
CLASS
  1
LAYOUT
  2
AcDbLayout
  3
ObjectDBX Classes
 90
        0
280
     0
281
     0
  0
ENDSEC
  0
SECTION
  2
TABLES
  0
TABLE
  2
VPORT
  5
8
330
0
100
AcDbSymbolTable
 70
     2
  0
VPORT
  5
29
330
8
100
AcDbSymbolTableRecord
100
AcDbViewportTableRecord
  2
*Active
 70
     0
 10
0.0
 20
0.0
 11
1.0
 21
1.0
 12
210.0
 22
297.0
 13
0.0
 23
0.0
 14
0.5
 24
0.5
 15
0.5
 25
0.5
 16
0.0
 26
0.0
 36
1.0
 17
0.0
 27
0.0
 37
0.0
 40
653.4000000000001
 41
1.60267857142857
 42
50.0
 43
0.0
 44
0.0
 50
0.0
 51
0.0
 71
     0
 72
   100
 73
     1
 74
     3
 75
     0
 76
     0
 77
     0
 78
     0
281
     0
 65
     1
110
0.0
120
0.0
130
0.0
111
1.0
121
0.0
131
0.0
112
0.0
122
1.0
132
0.0
 79
     0
146
0.0
  0
ENDTAB
  0
TABLE
  2
LTYPE
  5
5
330
0
100
AcDbSymbolTable
 70
     8
  0
LTYPE
  5
14
330
5
100
AcDbSymbolTableRecord
100
AcDbLinetypeTableRecord
  2
ByBlock
 70
     0
  3

 72
    65
 73
     0
 40
0.0
  0
LTYPE
  5
15
330
5
100
AcDbSymbolTableRecord
100
AcDbLinetypeTableRecord
  2
ByLayer
 70
     0
  3

 72
    65
 73
     0
 40
0.0
  0
LTYPE
  5
16
330
5
100
AcDbSymbolTableRecord
100
AcDbLinetypeTableRecord
  2
Continuous
 70
     0
  3
Solid line
 72
    65
 73
     0
 40
0.0
  0
LTYPE
  5
2E
330
5
100
AcDbSymbolTableRecord
100
AcDbLinetypeTableRecord
  2
DASHED
 70
     0
  3
Dashed
 72
    65
 73
     2
 40
15.0
 49
7.0
 74
     0
 49
-8.0
 74
     0
  0
LTYPE
  5
2F
330
5
100
AcDbSymbolTableRecord
100
AcDbLinetypeTableRecord
  2
DOTTED
 70
     0
  3
Dotted
 72
    65
 73
     2
 40
1.0
 49
0.0
 74
     0
 49
-1.0
 74
     0
  0
LTYPE
  5
30
330
5
100
AcDbSymbolTableRecord
100
AcDbLinetypeTableRecord
  2
DOT_CENTER
 70
     0
  3
Dot_Center
 72
    65
 73
     4
 40
14.0
 49
12.0
 74
     0
 49
-1.0
 74
     0
 49
0.0
 74
     0
 49
-1.0
 74
     0
  0
LTYPE
  5
31
330
5
100
AcDbSymbolTableRecord
100
AcDbLinetypeTableRecord
  2
LONG_DASHED
 70
     0
  3
Long_Dashed
 72
    65
 73
     2
 40
15.0
 49
10.0
 74
     0
 49
-5.0
 74
     0
  0
LTYPE
  5
32
330
5
100
AcDbSymbolTableRecord
100
AcDbLinetypeTableRecord
  2
DASH_CENTER
 70
     0
  3
Dash_Center
 72
    65
 73
     4
 40
14.0
 49
11.0
 74
     0
 49
-1.0
 74
     0
 49
1.0
 74
     0
 49
-1.0
 74
     0
  0
LTYPE
  5
33
330
5
100
AcDbSymbolTableRecord
100
AcDbLinetypeTableRecord
  2
PHANTOM
 70
     0
  3
Phantom
 72
    65
 73
     6
 40
13.0
 49
10.0
 74
     0
 49
-1.0
 74
     0
 49
0.0
 74
     0
 49
-1.0
 74
     0
 49
0.0
 74
     0
 49
-1.0
 74
     0
  0
LTYPE
  5
34
330
5
100
AcDbSymbolTableRecord
100
AcDbLinetypeTableRecord
  2
CENTER_DASH_DASH
 70
     0
  3
Center_Dash_Dash
 72
    65
 73
     6
 40
14.0
 49
9.0
 74
     0
 49
-1.0
 74
     0
 49
1.0
 74
     0
 49
-1.0
 74
     0
 49
1.0
 74
     0
 49
-1.0
 74
     0
  0
ENDTAB
  0
TABLE
  2
LAYER
  5
2
330
0
100
AcDbSymbolTable
 70
     3
  0
LAYER
  5
10
330
2
100
AcDbSymbolTableRecord
100
AcDbLayerTableRecord
  2
0
 70
     0
 62
     7
  6
Continuous
370
    -3
390
F
  0
LAYER
  5
35
330
2
100
AcDbSymbolTableRecord
100
AcDbLayerTableRecord
  2
1
 70
     0
 62
     7
  6
Continuous
370
    -3
390
F
  0
LAYER
  5
36
330
2
100
AcDbSymbolTableRecord
100
AcDbLayerTableRecord
  2
CENTER
 70
     0
 62
     7
  6
Continuous
370
    -3
390
F
  0
ENDTAB
  0
TABLE
  2
STYLE
  5
3
330
0
100
AcDbSymbolTable
 70
     3
  0
STYLE
  5
11
330
3
100
AcDbSymbolTableRecord
100
AcDbTextStyleTableRecord
  2
Standard
 70
     0
 40
0.0
 41
1.0
 50
0.0
 71
     0
 42
0.2
  3
txt
  4

  0
STYLE
  5
14A
330
3
100
AcDbSymbolTableRecord
100
AcDbTextStyleTableRecord
  2
CONVERTER_1
 70
     0
 40
0.0
 41
0.89
 50
0.0
 71
     0
 42
0.2
  3
msmincho.ttc
  4

1001
ACAD
1000
MS Mincho
1071
    32785
  0
STYLE
  5
166
330
3
100
AcDbSymbolTableRecord
100
AcDbTextStyleTableRecord
  2
CONVERTER_2
 70
     0
 40
0.0
 41
0.9
 50
0.0
 71
     0
 42
0.2
  3
txt.shx
  4

  0
ENDTAB
  0
TABLE
  2
VIEW
  5
6
330
0
100
AcDbSymbolTable
 70
     0
  0
ENDTAB
  0
TABLE
  2
UCS
  5
7
330
0
100
AcDbSymbolTable
 70
     0
  0
ENDTAB
  0
TABLE
  2
APPID
  5
9
330
0
100
AcDbSymbolTable
 70
     1
  0
APPID
  5
12
330
9
100
AcDbSymbolTableRecord
100
AcDbRegAppTableRecord
  2
ACAD
 70
     0
  0
ENDTAB
  0
TABLE
  2
DIMSTYLE
  5
A
330
0
100
AcDbSymbolTable
 70
    10
100
AcDbDimStyleTable
  0
DIMSTYLE
105
27
330
A
100
AcDbSymbolTableRecord
100
AcDbDimStyleTableRecord
  2
Standard
 70
     0
340
11
  0
DIMSTYLE
105
175
102
{ACAD_REACTORS
330
176
102
}
330
A
100
AcDbSymbolTableRecord
100
AcDbDimStyleTableRecord
  2
ME10_DIM_0
 70
     0
 41
7.0
 42
0.0
 44
2.0
 73
     0
 74
     0
 77
     1
 78
     8
140
7.0
147
0.625
172
     1
173
     1
176
     2
177
     2
178
     7
271
     2
340
166
  0
DIMSTYLE
105
182
102
{ACAD_REACTORS
330
183
102
}
330
A
100
AcDbSymbolTableRecord
100
AcDbDimStyleTableRecord
  2
ME10_DIM_1
 70
     0
 41
7.0
 42
0.0
 44
2.0
 73
     0
 74
     0
 77
     1
 78
     8
140
7.0
147
0.625
172
     1
173
     1
176
     2
177
     2
178
     7
271
     2
340
166
  0
DIMSTYLE
105
18D
102
{ACAD_REACTORS
330
18E
102
}
330
A
100
AcDbSymbolTableRecord
100
AcDbDimStyleTableRecord
  2
ME10_DIM_2
 70
     0
 41
7.0
 42
0.0
 44
2.0
 73
     0
 74
     0
 77
     1
 78
     8
140
7.0
147
0.625
172
     1
173
     1
176
     2
177
     2
178
     7
271
     2
340
166
  0
DIMSTYLE
105
198
102
{ACAD_REACTORS
330
199
102
}
330
A
100
AcDbSymbolTableRecord
100
AcDbDimStyleTableRecord
  2
ME10_DIM_3
 70
     0
 41
7.0
 42
0.0
 44
2.0
 73
     0
 74
     0
 77
     1
 78
     8
140
7.0
147
0.625
172
     1
173
     1
176
     2
177
     2
178
     7
271
     2
340
166
  0
DIMSTYLE
105
1A3
102
{ACAD_REACTORS
330
1A4
102
}
330
A
100
AcDbSymbolTableRecord
100
AcDbDimStyleTableRecord
  2
ME10_DIM_4
 70
     0
 41
7.0
 42
0.0
 44
2.0
 73
     0
 74
     0
 77
     1
 78
     8
140
7.0
147
0.625
172
     1
173
     1
176
     2
177
     2
178
     7
271
     2
340
166
  0
DIMSTYLE
105
1AE
102
{ACAD_REACTORS
330
1AF
102
}
330
A
100
AcDbSymbolTableRecord
100
AcDbDimStyleTableRecord
  2
ME10_DIM_5
 70
     0
 41
7.0
 42
0.0
 44
2.0
 73
     0
 74
     0
 77
     1
 78
     8
140
7.0
147
0.625
172
     1
173
     1
176
     2
177
     2
178
     7
271
     2
340
166
  0
DIMSTYLE
105
1BB
102
{ACAD_REACTORS
330
1BC
102
}
330
A
100
AcDbSymbolTableRecord
100
AcDbDimStyleTableRecord
  2
ME10_DIM_6
 70
     0
 41
7.0
 42
0.0
 44
2.0
 73
     0
 74
     0
 77
     1
 78
     8
140
7.0
147
0.625
172
     1
173
     1
176
     2
177
     2
178
     7
271
     2
340
166
  0
DIMSTYLE
105
1C6
102
{ACAD_REACTORS
330
1C7
102
}
330
A
100
AcDbSymbolTableRecord
100
AcDbDimStyleTableRecord
  2
ME10_DIM_7
 70
     0
 41
7.0
 42
0.0
 44
2.0
 73
     0
 74
     0
 77
     1
 78
     8
140
7.0
147
0.625
172
     1
173
     1
176
     2
177
     2
178
     7
271
     2
340
166
  0
DIMSTYLE
105
1D5
102
{ACAD_REACTORS
330
1D6
102
}
330
A
100
AcDbSymbolTableRecord
100
AcDbDimStyleTableRecord
  2
ME10_DIM_8
 70
     0
 41
7.0
 42
0.0
 44
2.0
 73
     0
 74
     0
 77
     1
 78
     8
140
7.0
147
0.625
172
     1
173
     1
176
     2
177
     2
178
     7
271
     2
340
166
344
1D2
  0
ENDTAB
  0
TABLE
  2
BLOCK_RECORD
  5
1
330
0
100
AcDbSymbolTable
 70
    19
  0
BLOCK_RECORD
  5
1F
330
1
100
AcDbSymbolTableRecord
100
AcDbBlockTableRecord
  2
*Model_Space
340
22
  0
BLOCK_RECORD
  5
1B
330
1
100
AcDbSymbolTableRecord
100
AcDbBlockTableRecord
  2
*Paper_Space
340
1E
  0
BLOCK_RECORD
  5
23
330
1
100
AcDbSymbolTableRecord
100
AcDbBlockTableRecord
  2
*Paper_Space0
340
26
  0
BLOCK_RECORD
  5
37
330
1
100
AcDbSymbolTableRecord
100
AcDbBlockTableRecord
  2
1__1
340
0
102
{BLKREFS
331
4F
102
}
  0
BLOCK_RECORD
  5
3A
330
1
100
AcDbSymbolTableRecord
100
AcDbBlockTableRecord
  2
2
340
0
102
{BLKREFS
331
50
102
}
  0
BLOCK_RECORD
  5
3D
330
1
100
AcDbSymbolTableRecord
100
AcDbBlockTableRecord
  2
3
340
0
102
{BLKREFS
331
51
102
}
  0
BLOCK_RECORD
  5
40
330
1
100
AcDbSymbolTableRecord
100
AcDbBlockTableRecord
  2
4
340
0
102
{BLKREFS
331
52
102
}
  0
BLOCK_RECORD
  5
43
330
1
100
AcDbSymbolTableRecord
100
AcDbBlockTableRecord
  2
7
340
0
102
{BLKREFS
331
53
102
}
  0
BLOCK_RECORD
  5
46
330
1
100
AcDbSymbolTableRecord
100
AcDbBlockTableRecord
  2
bis
340
0
102
{BLKREFS
331
54
102
}
  0
BLOCK_RECORD
  5
49
330
1
100
AcDbSymbolTableRecord
100
AcDbBlockTableRecord
  2
1__2
340
0
102
{BLKREFS
331
55
102
}
  0
BLOCK_RECORD
  5
4C
330
1
100
AcDbSymbolTableRecord
100
AcDbBlockTableRecord
  2
_J__A4
340
0
102
{BLKREFS
331
56
102
}
  0
BLOCK_RECORD
  5
16C
330
1
100
AcDbSymbolTableRecord
100
AcDbBlockTableRecord
  2
*D09
340
0
  0
BLOCK_RECORD
  5
177
330
1
100
AcDbSymbolTableRecord
100
AcDbBlockTableRecord
  2
*D110
340
0
  0
BLOCK_RECORD
  5
184
330
1
100
AcDbSymbolTableRecord
100
AcDbBlockTableRecord
  2
*D211
340
0
  0
BLOCK_RECORD
  5
18F
330
1
100
AcDbSymbolTableRecord
100
AcDbBlockTableRecord
  2
*D312
340
0
  0
BLOCK_RECORD
  5
19A
330
1
100
AcDbSymbolTableRecord
100
AcDbBlockTableRecord
  2
*D413
340
0
  0
BLOCK_RECORD
  5
1A5
330
1
100
AcDbSymbolTableRecord
100
AcDbBlockTableRecord
  2
*D514
340
0
  0
BLOCK_RECORD
  5
1B0
330
1
100
AcDbSymbolTableRecord
100
AcDbBlockTableRecord
  2
*D615
340
0
  0
BLOCK_RECORD
  5
1BD
330
1
100
AcDbSymbolTableRecord
100
AcDbBlockTableRecord
  2
*D716
340
0
  0
BLOCK_RECORD
  5
1C8
330
1
100
AcDbSymbolTableRecord
100
AcDbBlockTableRecord
  2
*D817
340
0
  0
BLOCK_RECORD
  5
1D2
330
1
100
AcDbSymbolTableRecord
100
AcDbBlockTableRecord
  2
_None
340
0
  0
ENDTAB
  0
ENDSEC
  0
SECTION
  2
BLOCKS
  0
BLOCK
  5
20
330
1F
100
AcDbEntity
  8
0
100
AcDbBlockBegin
  2
*Model_Space
 70
     0
 71
     0
 10
0.0
 20
0.0
 30
0.0
  3
*Model_Space
  1

  0
ENDBLK
  5
21
330
1F
100
AcDbEntity
  8
0
100
AcDbBlockEnd
  0
BLOCK
  5
1C
330
1B
100
AcDbEntity
 67
     1
  8
0
100
AcDbBlockBegin
  2
*Paper_Space
 70
     0
 71
     0
 10
0.0
 20
0.0
 30
0.0
  3
*Paper_Space
  1

  0
ENDBLK
  5
1D
330
1B
100
AcDbEntity
 67
     1
  8
0
100
AcDbBlockEnd
  0
BLOCK
  5
24
330
23
100
AcDbEntity
  8
0
100
AcDbBlockBegin
  2
*Paper_Space0
 70
     0
 71
     0
 10
0.0
 20
0.0
 30
0.0
  3
*Paper_Space0
  1

  0
ENDBLK
  5
25
330
23
100
AcDbEntity
  8
0
100
AcDbBlockEnd
  0
BLOCK
  5
38
330
37
100
AcDbEntity
  8
0
100
AcDbBlockBegin
  2
1__1
 70
     0
 71
     0
 10
67.83383638245908
 20
247.8599055958746
 30
0.0
  3
1__1
  1

  0
LINE
  5
57
330
37
100
AcDbEntity
  8
1
  6
Continuous
 62
     7
100
AcDbLine
 10
317.9769546322848
 20
259.2083463926964
 30
0.0
 11
317.9769546322848
 21
248.8599055958746
 31
0.0
  0
LINE
  5
58
330
37
100
AcDbEntity
  8
0
  6
Continuous
 62
     7
100
AcDbLine
 10
381.353272457964
 20
248.3599055958746
 30
0.0
 11
318.4769546322848
 21
248.3599055958746
 31
0.0
  0
LINE
  5
59
330
37
100
AcDbEntity
  8
1
  6
Continuous
 62
     7
100
AcDbLine
 10
182.2399987930468
 20
485.3599055958744
 30
0.0
 11
184.3763315289788
 21
485.3599055958744
 31
0.0
  0
LINE
  5
5A
330
37
100
AcDbEntity
  8
1
  6
Continuous
 62
     7
100
AcDbLine
 10
184.3763315289788
 20
421.3599055958744
 30
0.0
 11
182.2399987930468
 21
421.3599055958744
 31
0.0
  0
LINE
  5
5B
330
37
100
AcDbEntity
  8
0
  6
Continuous
 62
     7
100
AcDbLine
 10
253.2399987930468
 20
474.463050824609
 30
0.0
 11
253.2399987930468
 21
432.25676036714
 31
0.0
  0
LINE
  5
5C
330
37
100
AcDbEntity
  8
1
  6
Continuous
 62
     7
100
AcDbLine
 10
381.853272457964
 20
248.8599055958746
 30
0.0
 11
381.853272457964
 21
259.2083463926964
 31
0.0
  0
LINE
  5
5D
330
37
100
AcDbEntity
  8
0
  6
Continuous
 62
     7
100
AcDbLine
 10
331.8697892084414
 20
293.8599055958746
 30
0.0
 11
367.960437881807
 21
293.8599055958746
 31
0.0
  0
LINE
  5
5E
330
37
100
AcDbEntity
  8
0
  6
Continuous
 62
     7
100
AcDbLine
 10
253.2399987930467
 20
269.9731542499264
 30
0.0
 11
253.2399987930467
 21
248.3599055958746
 31
0.0
  0
LINE
  5
5F
330
37
100
AcDbEntity
  8
0
  6
Continuous
 62
     7
100
AcDbLine
 10
250.7399987930467
 20
274.3032812688486
 30
0.0
 11
235.2952142950076
 21
283.2203317563673
 31
0.0
  0
LINE
  5
60
330
37
100
AcDbEntity
  8
0
  6
Continuous
 62
     7
100
AcDbLine
 10
67.30958122506468
 20
248.5365508904921
 30
0.0
 11
69.70736703528235
 21
254.6236847918551
 31
0.0
  0
LINE
  5
61
330
37
100
AcDbEntity
  8
0
  6
Continuous
 62
     7
100
AcDbLine
 10
83.14052084471564
 20
241.300577935484
 30
0.0
 11
68.23999879304665
 21
247.1700496637678
 31
0.0
  0
LINE
  5
62
330
37
100
AcDbEntity
  8
0
  6
Continuous
 62
     7
100
AcDbLine
 10
253.2399987930467
 20
248.3599055958746
 30
0.0
 11
250.9647329748757
 21
248.3599055958746
 31
0.0
  0
LINE
  5
63
330
37
100
AcDbEntity
  8
0
  6
Continuous
 62
     7
100
AcDbLine
 10
235.2952142950076
 20
283.2203317563673
 30
0.0
 11
219.8504297969685
 21
292.137382243886
 31
0.0
  0
LINE
  5
64
330
37
100
AcDbEntity
  8
1
  6
Continuous
 62
     7
100
AcDbLine
 10
94.13999879304666
 20
458.2599055958746
 30
0.0
 11
94.13999879304666
 21
448.4599055958746
 31
0.0
  0
LINE
  5
65
330
37
100
AcDbEntity
  8
1
  6
Continuous
 62
     7
100
AcDbLine
 10
104.3399987930467
 20
448.4599055958746
 30
0.0
 11
104.3399987930467
 21
458.2599055958746
 31
0.0
  0
ARC
  5
66
330
37
100
AcDbEntity
  8
1
  6
Continuous
 62
     7
100
AcDbCircle
 10
407.9769546322843
 20
259.2083463926964
 30
0.0
 40
89.99999999999997
100
AcDbArc
 50
162.0525556301632
 51
180.0
  0
ARC
  5
67
330
37
100
AcDbEntity
  8
1
  6
Continuous
 62
     7
100
AcDbCircle
 10
182.2399987930468
 20
1171.359905595875
 30
0.0
 40
750.0000000000007
100
AcDbArc
 50
-96.96768108855244
 51
-90.0
  0
ARC
  5
68
330
37
100
AcDbEntity
  8
1
  6
Continuous
 62
     7
100
AcDbCircle
 10
94.4917647624802
 20
453.3599055958746
 30
0.0
 40
26.65792838002108
100
AcDbArc
 50
180.0
 51
-96.96768108855234
  0
ARC
  5
69
330
37
100
AcDbEntity
  8
1
  6
Continuous
 62
     7
100
AcDbCircle
 10
182.2399987930468
 20
-264.6400944041257
 30
0.0
 40
750.0000000000001
100
AcDbArc
 50
90.0
 51
96.96768108855244
  0
ARC
  5
6A
330
37
100
AcDbEntity
  8
0
  6
Continuous
 62
     7
100
AcDbCircle
 10
184.3763315289788
 20
-14.64009440412559
 30
0.0
 40
499.9999999999999
100
AcDbArc
 50
82.79128650524454
 51
90.0
  0
ARC
  5
6B
330
37
100
AcDbEntity
  8
0
  6
Continuous
 62
     7
100
AcDbCircle
 10
184.3763315289788
 20
921.3599055958746
 30
0.0
 40
500.0000000000002
100
AcDbArc
 50
-90.0
 51
-82.79128650524454
  0
ARC
  5
6C
330
37
100
AcDbEntity
  8
0
  6
Continuous
 62
     7
100
AcDbCircle
 10
246.2399987930468
 20
474.463050824609
 30
0.0
 40
7.0
100
AcDbArc
 50
0.0
 51
82.79128650524523
  0
ARC
  5
6D
330
37
100
AcDbEntity
  8
0
  6
Continuous
 62
     7
100
AcDbCircle
 10
246.2399987930468
 20
432.25676036714
 30
0.0
 40
7.000000000000097
100
AcDbArc
 50
-82.7912865052454
 51
0.0
  0
ARC
  5
6E
330
37
100
AcDbEntity
  8
1
  6
Continuous
 62
     7
100
AcDbCircle
 10
291.853272457964
 20
259.2083463926964
 30
0.0
 40
90.0
100
AcDbArc
 50
0.0
 51
17.94744436983676
  0
ARC
  5
6F
330
37
100
AcDbEntity
  8
0
  6
Continuous
 62
     7
100
AcDbCircle
 10
248.2399987930467
 20
269.9731542499264
 30
0.0
 40
5.0
100
AcDbArc
 50
0.0
 51
60.00000000000011
  0
ARC
  5
70
330
37
100
AcDbEntity
  8
0
  6
Continuous
 62
     7
100
AcDbCircle
 10
214.8504297969685
 20
283.4771282060416
 30
0.0
 40
10.00000000000003
100
AcDbArc
 50
60.00000000000011
 51
85.52828144574079
  0
ARC
  5
71
330
37
100
AcDbEntity
  8
0
  6
Continuous
 62
     7
100
AcDbCircle
 10
155.7399987930467
 20
-140.1400944041254
 30
0.0
 40
400.0000000000001
100
AcDbArc
 50
90.0
 51
92.86598398259885
  0
ARC
  5
72
330
37
100
AcDbEntity
  8
0
  6
Continuous
 62
     7
100
AcDbCircle
 10
106.9240697545633
 20
239.9636357228832
 30
0.0
 40
40.00000000000006
100
AcDbArc
 50
109.1558100164479
 51
158.5
  0
ARC
  5
73
330
37
100
AcDbEntity
  8
0
  6
Continuous
 62
     7
100
AcDbCircle
 10
84.9730269783372
 20
245.952665775394
 30
0.0
 40
4.99999999999991
100
AcDbArc
 50
-111.5000000000014
 51
-79.91758052150024
  0
ARC
  5
74
330
37
100
AcDbEntity
  8
0
  6
Continuous
 62
     7
100
AcDbCircle
 10
155.7399987930479
 20
-140.1400944041252
 30
0.0
 40
399.9999999999999
100
AcDbArc
 50
93.87040801131114
 51
96.27110552659087
  0
ARC
  5
75
330
37
100
AcDbEntity
  8
0
  6
Continuous
 62
     7
100
AcDbCircle
 10
68.23999879304665
 20
248.1700496637678
 30
0.0
 40
0.9999999999999546
100
AcDbArc
 50
158.4999999999991
 51
180.0
  0
ARC
  5
76
330
37
100
AcDbEntity
  8
0
  6
Continuous
 62
     7
100
AcDbCircle
 10
192.2399987930467
 20
-5.64009440412542
 30
0.0
 40
300.0000000000001
100
AcDbArc
 50
90.0
 51
109.1558100164487
  0
ARC
  5
77
330
37
100
AcDbEntity
  8
0
  6
Continuous
 62
     7
100
AcDbCircle
 10
87.75778962565175
 20
245.6516640530074
 30
0.0
 40
4.999999999999974
100
AcDbArc
 50
-111.4999999999997
 51
-31.93449173719263
  0
ARC
  5
78
330
37
100
AcDbEntity
  8
1
  6
Continuous
 62
     7
100
AcDbCircle
 10
114.7373008977894
 20
232.6115723536309
 30
0.0
 40
25.00000000000012
100
AcDbArc
 50
96.17817788168912
 51
155.4294238842464
  0
ARC
  5
79
330
37
100
AcDbEntity
  8
0
  6
Continuous
 62
     7
100
AcDbCircle
 10
192.2399987930467
 20
-5.64009440412542
 30
0.0
 40
300.0000000000001
100
AcDbArc
 50
85.52828144574075
 51
90.0
  0
ARC
  5
7A
330
37
100
AcDbEntity
  8
0
  6
Continuous
 62
     7
100
AcDbCircle
 10
155.7399987930467
 20
-140.1400944041254
 30
0.0
 40
400.0
100
AcDbArc
 50
76.22782349196207
 51
90.0
  0
ARC
  5
7B
330
37
100
AcDbEntity
  8
0
  6
Continuous
 62
     7
100
AcDbCircle
 10
68.23999879304665
 20
248.1700496637678
 30
0.0
 40
1.0
100
AcDbArc
 50
180.0
 51
-90.0
  0
ARC
  5
7C
330
37
100
AcDbEntity
  8
1
  6
Continuous
 62
     7
100
AcDbCircle
 10
156.41567497833
 20
-151.6206579331282
 30
0.0
 40
411.5
100
AcDbArc
 50
92.88001941378947
 51
93.85637258012018
  0
ARC
  5
7D
330
37
100
AcDbEntity
  8
1
  6
Continuous
 62
     7
100
AcDbCircle
 10
94.4917647624802
 20
453.3599055958746
 30
0.0
 40
26.65792838002074
100
AcDbArc
 50
96.96768108855244
 51
180.0
  0
ARC
  5
7E
330
37
100
AcDbEntity
  8
1
  6
Continuous
 62
     7
100
AcDbCircle
 10
318.4769546322848
 20
248.8599055958746
 30
0.0
 40
0.5
100
AcDbArc
 50
180.0
 51
-90.0
  0
ARC
  5
7F
330
37
100
AcDbEntity
  8
1
  6
Continuous
 62
     7
100
AcDbCircle
 10
381.353272457964
 20
248.8599055958746
 30
0.0
 40
0.5
100
AcDbArc
 50
-90.0
 51
0.0
  0
ARC
  5
80
330
37
100
AcDbEntity
  8
1
  6
Continuous
 62
     7
100
AcDbCircle
 10
367.960437881807
 20
283.8599055958746
 30
0.0
 40
10.00000000000005
100
AcDbArc
 50
17.94744436983736
 51
90.0
  0
ARC
  5
81
330
37
100
AcDbEntity
  8
1
  6
Continuous
 62
     7
100
AcDbCircle
 10
331.8697892084414
 20
283.8599055958746
 30
0.0
 40
10.0
100
AcDbArc
 50
90.0
 51
162.0525556301626
  0
ARC
  5
82
330
37
100
AcDbEntity
  8
1
  6
Continuous
 62
     7
100
AcDbCircle
 10
99.23999879304665
 20
458.2599055958746
 30
0.0
 40
5.100000000000051
100
AcDbArc
 50
0.0
 51
90.0
  0
ARC
  5
83
330
37
100
AcDbEntity
  8
1
  6
Continuous
 62
     7
100
AcDbCircle
 10
99.23999879304665
 20
458.2599055958746
 30
0.0
 40
5.099999999999966
100
AcDbArc
 50
90.0
 51
180.0
  0
ARC
  5
84
330
37
100
AcDbEntity
  8
1
  6
Continuous
 62
     7
100
AcDbCircle
 10
99.23999879304665
 20
448.4599055958746
 30
0.0
 40
5.099999999999994
100
AcDbArc
 50
180.0
 51
-90.0
  0
ARC
  5
85
330
37
100
AcDbEntity
  8
1
  6
Continuous
 62
     7
100
AcDbCircle
 10
99.23999879304665
 20
448.4599055958746
 30
0.0
 40
5.100000000000023
100
AcDbArc
 50
-90.0
 51
0.0
  0
ENDBLK
  5
39
330
37
100
AcDbEntity
  8
0
100
AcDbBlockEnd
  0
BLOCK
  5
3B
330
3A
100
AcDbEntity
  8
0
100
AcDbBlockBegin
  2
2
 70
     0
 71
     0
 10
69.56604271300199
 20
197.3599055958746
 30
0.0
  3
2
  1

  0
LINE
  5
86
330
3A
100
AcDbEntity
  8
1
  6
Continuous
 62
     7
100
AcDbLine
 10
322.4151135451244
 20
202.3599055958746
 30
0.0
 11
322.4151135451244
 21
205.4049035189358
 31
0.0
  0
LINE
  5
87
330
3A
100
AcDbEntity
  8
1
  6
Continuous
 62
     7
100
AcDbLine
 10
372.4151135451244
 20
197.3599055958746
 30
0.0
 11
327.4151135451244
 21
197.3599055958746
 31
0.0
  0
LINE
  5
88
330
3A
100
AcDbEntity
  8
1
  6
Continuous
 62
     7
100
AcDbLine
 10
377.4151135451244
 20
205.3835899360044
 30
0.0
 11
377.4151135451244
 21
202.3599055958746
 31
0.0
  0
LINE
  5
89
330
3A
100
AcDbEntity
  8
1
  6
Continuous
 62
     7
100
AcDbLine
 10
251.2399987930468
 20
226.3422141422506
 30
0.0
 11
251.2399987930469
 21
203.3775970494986
 31
0.0
  0
LINE
  5
8A
330
3A
100
AcDbEntity
  8
1
  6
Continuous
 62
     7
100
AcDbLine
 10
220.7576902466709
 20
197.3599055958746
 30
0.0
 11
243.722307339423
 21
197.3599055958746
 31
0.0
  0
LINE
  5
8B
330
3A
100
AcDbEntity
  8
0
  6
Continuous
 62
     7
100
AcDbLine
 10
159.7399987930469
 20
208.0188077769949
 30
0.0
 11
159.7399987930469
 21
207.2860306247861
 31
0.0
  0
LINE
  5
8C
330
3A
100
AcDbEntity
  8
0
  6
Continuous
 62
     7
100
AcDbLine
 10
156.5725049266683
 20
212.6708956169049
 30
0.0
 11
135.9399987930469
 21
220.798255921128
 31
0.0
  0
LINE
  5
8D
330
3A
100
AcDbEntity
  8
0
  6
Continuous
 62
     7
100
AcDbLine
 10
220.7576902466709
 20
197.3599055958746
 30
0.0
 11
219.7399987930469
 21
197.3599055958746
 31
0.0
  0
LINE
  5
8E
330
3A
100
AcDbEntity
  8
0
  6
Continuous
 62
     7
100
AcDbLine
 10
251.2399987930469
 20
203.3775970494986
 30
0.0
 11
251.2399987930468
 21
202.3599055958746
 31
0.0
  0
LINE
  5
8F
330
3A
100
AcDbEntity
  8
0
  6
Continuous
 62
     7
100
AcDbLine
 10
192.2399987930468
 20
197.3599055958746
 30
0.0
 11
173.4981543169181
 21
200.6645984452581
 31
0.0
  0
LINE
  5
90
330
3A
100
AcDbEntity
  8
0
  6
Continuous
 62
     7
100
AcDbLine
 10
251.2399987930468
 20
248.3599055958746
 30
0.0
 11
251.2399987930468
 21
226.3422141422506
 31
0.0
  0
LINE
  5
91
330
3A
100
AcDbEntity
  8
0
  6
Continuous
 62
     7
100
AcDbLine
 10
246.2399987930468
 20
197.3599055958746
 30
0.0
 11
243.722307339423
 21
197.3599055958746
 31
0.0
  0
LINE
  5
92
330
3A
100
AcDbEntity
  8
1
  6
Continuous
 62
     2
100
AcDbLine
 10
192.2399987930468
 20
197.3599055958746
 30
0.0
 11
189.239998793047
 21
197.3599055958746
 31
0.0
  0
LINE
  5
93
330
3A
100
AcDbEntity
  8
0
  6
Continuous
 62
     7
100
AcDbLine
 10
132.2399987930469
 20
222.2557246809033
 30
0.0
 11
128.5399987930469
 21
223.71319344068
 31
0.0
  0
LINE
  5
94
330
3A
100
AcDbEntity
  8
0
  6
Continuous
 62
     7
100
AcDbLine
 10
173.4981543169181
 20
200.6645984452581
 30
0.0
 11
163.8717579047122
 21
202.3619918597251
 31
0.0
  0
LINE
  5
95
330
3A
100
AcDbEntity
  8
0
  6
Continuous
 62
     7
100
AcDbLine
 10
101.2399987930469
 20
234.4669494249665
 30
0.0
 11
84.76394612306777
 21
240.9570391684548
 31
0.0
  0
LINE
  5
96
330
3A
100
AcDbEntity
  8
0
  6
Continuous
 62
     7
100
AcDbLine
 10
220.7576902466709
 20
197.3599055958746
 30
0.0
 11
192.2399987930468
 21
197.3599055958746
 31
0.0
  0
LINE
  5
97
330
3A
100
AcDbEntity
  8
0
  6
Continuous
 62
     7
100
AcDbLine
 10
135.9399987930469
 20
220.798255921128
 30
0.0
 11
132.2399987930469
 21
222.2557246809033
 31
0.0
  0
LINE
  5
98
330
3A
100
AcDbEntity
  8
0
  6
Continuous
 62
     7
100
AcDbLine
 10
128.5399987930469
 20
223.71319344068
 30
0.0
 11
101.2399987930469
 21
234.4669494249665
 31
0.0
  0
ARC
  5
99
330
3A
100
AcDbEntity
  8
1
  6
Continuous
 62
     7
100
AcDbCircle
 10
-77.58488645487563
 20
205.4049035189358
 30
0.0
 40
400.0000000000001
100
AcDbArc
 50
0.0
 51
6.16473847155699
  0
ARC
  5
9A
330
3A
100
AcDbEntity
  8
1
  6
Continuous
 62
     7
100
AcDbCircle
 10
777.4151135451241
 20
205.3835899360044
 30
0.0
 40
399.9999999999996
100
AcDbArc
 50
173.8321908165498
 51
180.0
  0
ARC
  5
9B
330
3A
100
AcDbEntity
  8
0
  6
Continuous
 62
     7
100
AcDbCircle
 10
154.7399987930469
 20
208.0188077769949
 30
0.0
 40
5.0
100
AcDbArc
 50
0.0
 51
68.50000000000046
  0
ARC
  5
9C
330
3A
100
AcDbEntity
  8
0
  6
Continuous
 62
     7
100
AcDbCircle
 10
164.7399987930469
 20
207.2860306247861
 30
0.0
 40
5.0
100
AcDbArc
 50
180.0
 51
-100.0000000000006
  0
ARC
  5
9D
330
3A
100
AcDbEntity
  8
0
  6
Continuous
 62
     7
100
AcDbCircle
 10
246.2399987930468
 20
202.3599055958746
 30
0.0
 40
5.0
100
AcDbArc
 50
-90.0
 51
0.0
  0
ARC
  5
9E
330
3A
100
AcDbEntity
  8
1
  6
Continuous
 62
     7
100
AcDbCircle
 10
131.129204687895
 20
219.4358095633452
 30
0.0
 40
4.999999999999989
100
AcDbArc
 50
15.81244685806136
 51
121.1875531419197
  0
ARC
  5
9F
330
3A
100
AcDbEntity
  8
1
  6
Continuous
 62
     7
100
AcDbCircle
 10
327.4151135451244
 20
202.3599055958746
 30
0.0
 40
5.0
100
AcDbArc
 50
180.0
 51
-90.0
  0
ARC
  5
A0
330
3A
100
AcDbEntity
  8
1
  6
Continuous
 62
     7
100
AcDbCircle
 10
372.4151135451244
 20
202.3599055958746
 30
0.0
 40
5.0
100
AcDbArc
 50
-90.0
 51
0.0
  0
ENDBLK
  5
3C
330
3A
100
AcDbEntity
  8
0
100
AcDbBlockEnd
  0
BLOCK
  5
3E
330
3D
100
AcDbEntity
  8
0
100
AcDbBlockBegin
  2
3
 70
     0
 71
     0
 10
256.2399987930468
 20
204.3824055958744
 30
0.0
  3
3
  1

  0
LINE
  5
A1
330
3D
100
AcDbEntity
  8
1
  6
Continuous
 62
     2
100
AcDbLine
 10
270.0779987930467
 20
444.0444055958745
 30
0.0
 11
257.2399987930469
 21
444.0444055958745
 31
0.0
  0
LINE
  5
A2
330
3D
100
AcDbEntity
  8
1
  6
Continuous
 62
     7
100
AcDbLine
 10
271.2399987930468
 20
462.6754055958744
 30
0.0
 11
271.2399987930468
 21
444.0444055958745
 31
0.0
  0
LINE
  5
A3
330
3D
100
AcDbEntity
  8
1
  6
Continuous
 62
     2
100
AcDbLine
 10
270.0779987930467
 20
462.6754055958744
 30
0.0
 11
257.2399987930469
 21
462.6754055958744
 31
0.0
  0
LINE
  5
A4
330
3D
100
AcDbEntity
  8
1
  6
Continuous
 62
     7
100
AcDbLine
 10
257.2399987930468
 20
463.8374055958744
 30
0.0
 11
270.0779987930467
 21
463.8374055958744
 31
0.0
  0
LINE
  5
A5
330
3D
100
AcDbEntity
  8
1
  6
Continuous
 62
     2
100
AcDbLine
 10
271.2399987930468
 20
462.6754055958744
 30
0.0
 11
270.0779987930467
 21
462.6754055958744
 31
0.0
  0
LINE
  5
A6
330
3D
100
AcDbEntity
  8
1
  6
Continuous
 62
     7
100
AcDbLine
 10
270.0779987930467
 20
463.8374055958744
 30
0.0
 11
271.2399987930468
 21
462.6754055958744
 31
0.0
  0
LINE
  5
A7
330
3D
100
AcDbEntity
  8
1
  6
Continuous
 62
     7
100
AcDbLine
 10
270.0779987930467
 20
442.8824055958744
 30
0.0
 11
270.0779987930467
 21
463.8374055958744
 31
0.0
  0
LINE
  5
A8
330
3D
100
AcDbEntity
  8
1
  6
Continuous
 62
     2
100
AcDbLine
 10
271.2399987930468
 20
444.0444055958745
 30
0.0
 11
270.0779987930467
 21
444.0444055958745
 31
0.0
  0
LINE
  5
A9
330
3D
100
AcDbEntity
  8
1
  6
Continuous
 62
     7
100
AcDbLine
 10
270.0779987930467
 20
442.8824055958744
 30
0.0
 11
271.2399987930468
 21
444.0444055958745
 31
0.0
  0
LINE
  5
AA
330
3D
100
AcDbEntity
  8
1
  6
Continuous
 62
     7
100
AcDbLine
 10
257.2399987930468
 20
442.8824055958744
 30
0.0
 11
270.0779987930467
 21
442.8824055958744
 31
0.0
  0
LINE
  5
AB
330
3D
100
AcDbEntity
  8
1
  6
Continuous
 62
     2
100
AcDbLine
 10
271.2399987930468
 20
224.1754055958746
 30
0.0
 11
257.2399987930468
 21
224.1754055958746
 31
0.0
  0
LINE
  5
AC
330
3D
100
AcDbEntity
  8
1
  6
Continuous
 62
     7
100
AcDbLine
 10
270.0779987930467
 20
225.3374055958746
 30
0.0
 11
271.2399987930468
 21
224.1754055958746
 31
0.0
  0
LINE
  5
AD
330
3D
100
AcDbEntity
  8
1
  6
Continuous
 62
     7
100
AcDbLine
 10
257.2399987930468
 20
225.3374055958746
 30
0.0
 11
270.0779987930467
 21
225.3374055958746
 31
0.0
  0
LINE
  5
AE
330
3D
100
AcDbEntity
  8
1
  6
Continuous
 62
     7
100
AcDbLine
 10
257.2399987930468
 20
204.3824055958746
 30
0.0
 11
270.0779987930467
 21
204.3824055958746
 31
0.0
  0
LINE
  5
AF
330
3D
100
AcDbEntity
  8
1
  6
Continuous
 62
     2
100
AcDbLine
 10
271.2399987930468
 20
205.5444055958746
 30
0.0
 11
257.2399987930468
 21
205.5444055958746
 31
0.0
  0
LINE
  5
B0
330
3D
100
AcDbEntity
  8
1
  6
Continuous
 62
     7
100
AcDbLine
 10
270.0779987930467
 20
204.3824055958746
 30
0.0
 11
270.0779987930467
 21
225.3374055958746
 31
0.0
  0
LINE
  5
B1
330
3D
100
AcDbEntity
  8
1
  6
Continuous
 62
     7
100
AcDbLine
 10
271.2399987930468
 20
205.5444055958746
 30
0.0
 11
271.2399987930468
 21
224.1754055958746
 31
0.0
  0
LINE
  5
B2
330
3D
100
AcDbEntity
  8
1
  6
Continuous
 62
     7
100
AcDbLine
 10
270.0779987930467
 20
204.3824055958746
 30
0.0
 11
271.2399987930468
 21
205.5444055958746
 31
0.0
  0
CIRCLE
  5
B3
330
3D
100
AcDbEntity
  8
1
  6
Continuous
 62
     7
100
AcDbCircle
 10
349.9151135451244
 20
214.8599055958746
 30
0.0
 40
10.47750000000019
  0
CIRCLE
  5
B4
330
3D
100
AcDbEntity
  8
1
  6
Continuous
 62
     2
100
AcDbCircle
 10
349.9151135451244
 20
214.8599055958746
 30
0.0
 40
9.315499999999986
  0
CIRCLE
  5
B5
330
3D
100
AcDbEntity
  8
1
  6
Continuous
 62
     7
100
AcDbCircle
 10
349.9151135451232
 20
214.8599055958734
 30
0.0
 40
6.5
  0
ENDBLK
  5
3F
330
3D
100
AcDbEntity
  8
0
100
AcDbBlockEnd
  0
BLOCK
  5
41
330
40
100
AcDbEntity
  8
0
100
AcDbBlockBegin
  2
4
 70
     0
 71
     0
 10
87.02730100315959
 20
220.9041623109491
 30
0.0
  3
4
  1

  0
LINE
  5
B6
330
40
100
AcDbEntity
  8
1
  6
Continuous
 62
     7
100
AcDbLine
 10
87.3113212160078
 20
232.7497832791928
 30
0.0
 11
110.5717604155582
 21
223.5872526110854
 31
0.0
  0
LINE
  5
B7
330
40
100
AcDbEntity
  8
1
  6
Continuous
 62
     7
100
AcDbLine
 10
89.3270779629914
 20
237.8670799030942
 30
0.0
 11
87.3113212160078
 21
232.7497832791928
 31
0.0
  0
LINE
  5
B8
330
40
100
AcDbEntity
  8
1
  6
Continuous
 62
     7
100
AcDbLine
 10
87.03199659985739
 20
229.8775800820626
 30
0.0
 11
87.3113212160078
 21
232.7497832791928
 31
0.0
  0
LINE
  5
B9
330
40
100
AcDbEntity
  8
1
  6
Continuous
 62
     7
100
AcDbLine
 10
87.660799776435
 20
228.8503681714372
 30
0.0
 11
90.2154459783918
 21
227.8440662709964
 31
0.0
  0
LINE
  5
BA
330
40
100
AcDbEntity
  8
1
  6
Continuous
 62
     7
100
AcDbLine
 10
90.2154459783918
 20
227.8440662709964
 30
0.0
 11
97.65878652224799
 21
224.912056457202
 31
0.0
  0
LINE
  5
BB
330
40
100
AcDbEntity
  8
1
  6
Continuous
 62
     7
100
AcDbLine
 10
90.623996757699
 20
238.4309962443548
 30
0.0
 11
112.0236008212842
 21
230.0014680296928
 31
0.0
  0
LINE
  5
BC
330
40
100
AcDbEntity
  8
1
  6
Continuous
 62
     7
100
AcDbLine
 10
110.5717604155582
 20
223.5872526110854
 30
0.0
 11
112.5875171625418
 21
228.7045492349866
 31
0.0
  0
LINE
  5
BD
330
40
100
AcDbEntity
  8
1
  6
Continuous
 62
     7
100
AcDbLine
 10
110.5717604155582
 20
223.5872526110854
 30
0.0
 11
108.8172076373242
 21
221.2961572409222
 31
0.0
  0
LINE
  5
BE
330
40
100
AcDbEntity
  8
1
  6
Continuous
 62
     7
100
AcDbLine
 10
105.1021270661042
 20
221.9800466434076
 30
0.0
 11
107.656773268061
 21
220.973744742967
 31
0.0
  0
LINE
  5
BF
330
40
100
AcDbEntity
  8
1
  6
Continuous
 62
     7
100
AcDbLine
 10
97.65878652224799
 20
224.912056457202
 30
0.0
 11
105.1021270661042
 21
221.9800466434076
 31
0.0
  0
ARC
  5
C0
330
40
100
AcDbEntity
  8
1
  6
Continuous
 62
     7
100
AcDbCircle
 10
88.02730100315939
 20
229.780785739419
 30
0.0
 40
1.000000000000078
100
AcDbArc
 50
174.4453959009234
 51
-111.5000000000098
  0
ARC
  5
C1
330
40
100
AcDbEntity
  8
1
  6
Continuous
 62
     7
100
AcDbCircle
 10
90.2574955309734
 20
237.5005786763698
 30
0.0
 40
1.000000000000018
100
AcDbArc
 50
68.49999999999436
 51
158.4999999999936
  0
ARC
  5
C2
330
40
100
AcDbEntity
  8
1
  6
Continuous
 62
     7
100
AcDbCircle
 10
111.6570995945598
 20
229.0710504617108
 30
0.0
 40
0.9999999999999498
100
AcDbArc
 50
-21.49999999999579
 51
68.49999999999362
  0
ARC
  5
C3
330
40
100
AcDbEntity
  8
1
  6
Continuous
 62
     7
100
AcDbCircle
 10
108.0232744947854
 20
221.904162310949
 30
0.0
 40
1.000000000000018
100
AcDbArc
 50
-111.5000000000056
 51
-37.44539590093273
  0
ENDBLK
  5
42
330
40
100
AcDbEntity
  8
0
100
AcDbBlockEnd
  0
BLOCK
  5
44
330
43
100
AcDbEntity
  8
0
100
AcDbBlockBegin
  2
7
 70
     0
 71
     0
 10
251.2399987930468
 20
199.8599055958746
 30
0.0
  3
7
  1

  0
LINE
  5
C4
330
43
100
AcDbEntity
  8
1
  6
Continuous
 62
     7
100
AcDbLine
 10
251.2399987930468
 20
229.8599055958746
 30
0.0
 11
256.3699987930468
 21
229.8599055958734
 31
0.0
  0
LINE
  5
C5
330
43
100
AcDbEntity
  8
1
  6
Continuous
 62
     7
100
AcDbLine
 10
257.2399987930468
 20
225.3374055958746
 30
0.0
 11
257.2399987930468
 21
228.3128460457699
 31
0.0
  0
LINE
  5
C6
330
43
100
AcDbEntity
  8
1
  6
Continuous
 62
     7
100
AcDbLine
 10
257.2399987930468
 20
199.8599055958746
 30
0.0
 11
257.2399987930468
 21
213.31284604577
 31
0.0
  0
LINE
  5
C7
330
43
100
AcDbEntity
  8
1
  6
Continuous
 62
     7
100
AcDbLine
 10
251.2399987930468
 20
199.8599055958746
 30
0.0
 11
256.3699987930468
 21
199.8599055958734
 31
0.0
  0
LINE
  5
C8
330
43
100
AcDbEntity
  8
1
  6
Continuous
 62
     7
100
AcDbLine
 10
356.7889770875582
 20
229.8599055958746
 30
0.0
 11
343.0412500026881
 21
229.8599055958734
 31
0.0
  0
LINE
  5
C9
330
43
100
AcDbEntity
  8
1
  6
Continuous
 62
     7
100
AcDbLine
 10
340.3616642595748
 20
228.3128460457699
 30
0.0
 11
333.4878007171409
 21
216.4069651459792
 31
0.0
  0
LINE
  5
CA
330
43
100
AcDbEntity
  8
1
  6
Continuous
 62
     7
100
AcDbLine
 10
333.4878007171409
 20
213.31284604577
 30
0.0
 11
340.3616642595748
 21
201.4069651459793
 31
0.0
  0
LINE
  5
CB
330
43
100
AcDbEntity
  8
1
  6
Continuous
 62
     7
100
AcDbLine
 10
343.0412500026932
 20
199.8599055958734
 30
0.0
 11
356.7889770875556
 21
199.8599055958734
 31
0.0
  0
LINE
  5
CC
330
43
100
AcDbEntity
  8
1
  6
Continuous
 62
     7
100
AcDbLine
 10
359.4685628306741
 20
201.4069651459792
 30
0.0
 11
366.3424263731079
 21
213.3128460457699
 31
0.0
  0
LINE
  5
CD
330
43
100
AcDbEntity
  8
1
  6
Continuous
 62
     7
100
AcDbLine
 10
366.3424263731079
 20
216.4069651459791
 30
0.0
 11
359.4685628306741
 21
228.3128460457699
 31
0.0
  0
LINE
  5
CE
330
43
100
AcDbEntity
  8
1
  6
Continuous
 62
     7
100
AcDbLine
 10
251.2399987930468
 20
229.8599055958746
 30
0.0
 11
251.2399987930468
 21
228.3128460457699
 31
0.0
  0
LINE
  5
CF
330
43
100
AcDbEntity
  8
1
  6
Continuous
 62
     7
100
AcDbLine
 10
251.2399987930468
 20
228.3128460457699
 30
0.0
 11
256.3699987930468
 21
228.3128460457699
 31
0.0
  0
LINE
  5
D0
330
43
100
AcDbEntity
  8
1
  6
Continuous
 62
     7
100
AcDbLine
 10
257.2399987930468
 20
228.3128460457699
 30
0.0
 11
257.2399987930468
 21
229.8599055958746
 31
0.0
  0
LINE
  5
D1
330
43
100
AcDbEntity
  8
1
  6
Continuous
 62
     7
100
AcDbLine
 10
251.2399987930468
 20
228.3128460457699
 30
0.0
 11
251.2399987930468
 21
216.4069651459792
 31
0.0
  0
LINE
  5
D2
330
43
100
AcDbEntity
  8
1
  6
Continuous
 62
     7
100
AcDbLine
 10
251.2399987930468
 20
216.4069651459792
 30
0.0
 11
256.3699987930468
 21
216.4069651459792
 31
0.0
  0
LINE
  5
D3
330
43
100
AcDbEntity
  8
1
  6
Continuous
 62
     7
100
AcDbLine
 10
251.2399987930468
 20
216.4069651459792
 30
0.0
 11
251.2399987930468
 21
213.31284604577
 31
0.0
  0
LINE
  5
D4
330
43
100
AcDbEntity
  8
1
  6
Continuous
 62
     7
100
AcDbLine
 10
251.2399987930468
 20
213.31284604577
 30
0.0
 11
256.3699987930468
 21
213.31284604577
 31
0.0
  0
LINE
  5
D5
330
43
100
AcDbEntity
  8
1
  6
Continuous
 62
     7
100
AcDbLine
 10
257.2399987930468
 20
213.31284604577
 30
0.0
 11
257.2399987930468
 21
225.3374055958746
 31
0.0
  0
LINE
  5
D6
330
43
100
AcDbEntity
  8
1
  6
Continuous
 62
     7
100
AcDbLine
 10
251.2399987930468
 20
213.31284604577
 30
0.0
 11
251.2399987930468
 21
199.8599055958746
 31
0.0
  0
LINE
  5
D7
330
43
100
AcDbEntity
  8
1
  6
Continuous
 62
     7
100
AcDbLine
 10
253.2399987930468
 20
437.7299055958746
 30
0.0
 11
256.3876328937092
 21
437.7299055958746
 31
0.0
  0
LINE
  5
D8
330
43
100
AcDbEntity
  8
1
  6
Continuous
 62
     7
100
AcDbLine
 10
256.3876328937092
 20
470.6572184238581
 30
0.0
 11
253.2399987930468
 21
470.6572184238581
 31
0.0
  0
LINE
  5
D9
330
43
100
AcDbEntity
  8
1
  6
Continuous
 62
     7
100
AcDbLine
 10
256.3876328937092
 20
463.7833548814243
 30
0.0
 11
253.2399987930468
 21
463.7833548814243
 31
0.0
  0
LINE
  5
DA
330
43
100
AcDbEntity
  8
1
  6
Continuous
 62
     7
100
AcDbLine
 10
256.3876328937092
 20
447.3560420534383
 30
0.0
 11
253.2399987930468
 21
447.3560420534383
 31
0.0
  0
LINE
  5
DB
330
43
100
AcDbEntity
  8
1
  6
Continuous
 62
     7
100
AcDbLine
 10
256.3876328937092
 20
461.1037691383084
 30
0.0
 11
253.2399987930468
 21
461.1037691383084
 31
0.0
  0
LINE
  5
DC
330
43
100
AcDbEntity
  8
1
  6
Continuous
 62
     7
100
AcDbLine
 10
256.3876328937092
 20
437.8025927678912
 30
0.0
 11
253.2399987930468
 21
437.8025927678912
 31
0.0
  0
LINE
  5
DD
330
43
100
AcDbEntity
  8
1
  6
Continuous
 62
     7
100
AcDbLine
 10
256.3876328937092
 20
444.676456310325
 30
0.0
 11
253.2399987930468
 21
444.676456310325
 31
0.0
  0
LINE
  5
DE
330
43
100
AcDbEntity
  8
1
  6
Continuous
 62
     7
100
AcDbLine
 10
256.3876328937092
 20
461.1037691383084
 30
0.0
 11
256.3876328937092
 21
463.7833548814243
 31
0.0
  0
LINE
  5
DF
330
43
100
AcDbEntity
  8
1
  6
Continuous
 62
     7
100
AcDbLine
 10
256.3876328937092
 20
447.3560420534383
 30
0.0
 11
256.3876328937092
 21
444.676456310325
 31
0.0
  0
LINE
  5
E0
330
43
100
AcDbEntity
  8
1
  6
Continuous
 62
     7
100
AcDbLine
 10
256.3876328937092
 20
470.7299055958746
 30
0.0
 11
256.3876328937092
 21
470.6572184238581
 31
0.0
  0
LINE
  5
E1
330
43
100
AcDbEntity
  8
1
  6
Continuous
 62
     7
100
AcDbLine
 10
256.3876328937092
 20
470.7299055958746
 30
0.0
 11
253.2399987930468
 21
470.7299055958746
 31
0.0
  0
LINE
  5
E2
330
43
100
AcDbEntity
  8
1
  6
Continuous
 62
     7
100
AcDbLine
 10
256.3876328937092
 20
437.8025927678912
 30
0.0
 11
256.3876328937092
 21
437.7299055958746
 31
0.0
  0
LINE
  5
E3
330
43
100
AcDbEntity
  8
1
  6
Continuous
 62
     7
100
AcDbLine
 10
256.3876328937092
 20
470.7299055958746
 30
0.0
 11
257.2536582974827
 21
469.2299055958937
 31
0.0
  0
LINE
  5
E4
330
43
100
AcDbEntity
  8
1
  6
Continuous
 62
     7
100
AcDbLine
 10
257.2536582974827
 20
469.2299055958937
 30
0.0
 11
257.2536582974827
 21
439.2299055958556
 31
0.0
  0
LINE
  5
E5
330
43
100
AcDbEntity
  8
1
  6
Continuous
 62
     7
100
AcDbLine
 10
257.2536582974827
 20
439.2299055958556
 30
0.0
 11
256.3876328937092
 21
437.7299055958746
 31
0.0
  0
LINE
  5
E6
330
43
100
AcDbEntity
  8
1
  6
Continuous
 62
     7
100
AcDbLine
 10
256.3699987930468
 20
201.4069651459769
 30
0.0
 11
251.2399987930468
 21
201.4069651459769
 31
0.0
  0
LINE
  5
E7
330
43
100
AcDbEntity
  8
1
  6
Continuous
 62
     7
100
AcDbLine
 10
256.3699987930468
 20
213.31284604577
 30
0.0
 11
256.3699987930468
 21
216.4069651459792
 31
0.0
  0
LINE
  5
E8
330
43
100
AcDbEntity
  8
1
  6
Continuous
 62
     7
100
AcDbLine
 10
256.3699987930468
 20
228.3128460457699
 30
0.0
 11
256.3699987930468
 21
229.8599055958734
 31
0.0
  0
LINE
  5
E9
330
43
100
AcDbEntity
  8
1
  6
Continuous
 62
     7
100
AcDbLine
 10
256.3699987930468
 20
229.8599055958734
 30
0.0
 11
257.2399987930468
 21
229.8599055958746
 31
0.0
  0
LINE
  5
EA
330
43
100
AcDbEntity
  8
1
  6
Continuous
 62
     7
100
AcDbLine
 10
256.3699987930468
 20
201.4069651459769
 30
0.0
 11
256.3699987930468
 21
199.8599055958734
 31
0.0
  0
LINE
  5
EB
330
43
100
AcDbEntity
  8
1
  6
Continuous
 62
     7
100
AcDbLine
 10
256.3699987930468
 20
199.8599055958734
 30
0.0
 11
257.2399987930468
 21
199.8599055958746
 31
0.0
  0
ARC
  5
EC
330
43
100
AcDbEntity
  8
1
  6
Continuous
 62
     7
100
AcDbCircle
 10
349.9151135451251
 20
214.8599055958757
 30
0.0
 40
16.49999999999868
100
AcDbArc
 50
54.61997732865687
 51
65.38002267134351
  0
ARC
  5
ED
330
43
100
AcDbEntity
  8
1
  6
Continuous
 62
     7
100
AcDbCircle
 10
349.9151135451244
 20
214.8599055958746
 30
0.0
 40
16.49999999999998
100
AcDbArc
 50
114.6199773286669
 51
125.3800226713428
  0
ARC
  5
EE
330
43
100
AcDbEntity
  8
1
  6
Continuous
 62
     7
100
AcDbCircle
 10
349.9151135451435
 20
214.8599055958746
 30
0.0
 40
16.50000000001909
100
AcDbArc
 50
174.6199773286636
 51
-174.6199773286635
  0
ARC
  5
EF
330
43
100
AcDbEntity
  8
1
  6
Continuous
 62
     7
100
AcDbCircle
 10
349.9151135451251
 20
214.8599055958757
 30
0.0
 40
16.5000000000012
100
AcDbArc
 50
-125.3800226713425
 51
-114.6199773286481
  0
ARC
  5
F0
330
43
100
AcDbEntity
  8
1
  6
Continuous
 62
     7
100
AcDbCircle
 10
349.9151135451264
 20
214.8599055958711
 30
0.0
 40
16.49999999999601
100
AcDbArc
 50
-65.38002267135396
 51
-54.61997732865594
  0
ARC
  5
F1
330
43
100
AcDbEntity
  8
1
  6
Continuous
 62
     7
100
AcDbCircle
 10
349.915113545117
 20
214.8599055958748
 30
0.0
 40
16.50000000000746
100
AcDbArc
 50
-5.38002267134127
 51
5.38002267133911
  0
ARC
  5
F2
330
43
100
AcDbEntity
  8
1
  6
Continuous
 62
     7
100
AcDbCircle
 10
250.000695540696
 20
467.2202866526412
 30
0.0
 40
7.252962756785377
100
AcDbArc
 50
-28.28553496597876
 51
28.28553496597876
  0
ARC
  5
F3
330
43
100
AcDbEntity
  8
1
  6
Continuous
 62
     7
100
AcDbCircle
 10
229.5408453760302
 20
454.2299055958734
 30
0.0
 40
27.7128129214525
100
AcDbArc
 50
-14.36151156273394
 51
14.36151156273371
  0
ARC
  5
F4
330
43
100
AcDbEntity
  8
1
  6
Continuous
 62
     7
100
AcDbCircle
 10
250.0006955407069
 20
441.2395245391081
 30
0.0
 40
7.252962756775792
100
AcDbArc
 50
-28.28553496601951
 51
28.28553496601951
  0
ARC
  5
F5
330
43
100
AcDbEntity
  8
1
  6
Continuous
 62
     7
100
AcDbCircle
 10
236.4386194827061
 20
222.3599055958746
 30
0.0
 40
20.80137931034092
100
AcDbArc
 50
-16.62940070939156
 51
16.62940070939126
  0
ARC
  5
F6
330
43
100
AcDbEntity
  8
1
  6
Continuous
 62
     7
100
AcDbCircle
 10
236.7824978234357
 20
207.3599055958734
 30
0.0
 40
20.4721199252674
100
AcDbArc
 50
-16.90482720432819
 51
16.90482720432834
  0
CIRCLE
  5
F7
330
43
100
AcDbEntity
  8
1
  6
Continuous
 62
     7
100
AcDbCircle
 10
349.9151135451435
 20
214.8599055958746
 30
0.0
 40
15.00000000000028
  0
ENDBLK
  5
45
330
43
100
AcDbEntity
  8
0
100
AcDbBlockEnd
  0
BLOCK
  5
47
330
46
100
AcDbEntity
  8
0
100
AcDbBlockBegin
  2
bis
 70
     0
 71
     0
 10
198.2399987930469
 20
197.0932389292079
 30
0.0
  3
bis
  1

  0
LINE
  5
F8
330
46
100
AcDbEntity
  8
1
  6
Continuous
 62
     7
100
AcDbLine
 10
206.2399987930469
 20
197.3599055958745
 30
0.0
 11
206.2399987930469
 21
197.0932389292079
 31
0.0
  0
LINE
  5
F9
330
46
100
AcDbEntity
  8
1
  6
Continuous
 62
     7
100
AcDbLine
 10
206.2399987930469
 20
197.0932389292079
 30
0.0
 11
202.2399987930469
 21
197.093238929208
 31
0.0
  0
LINE
  5
FA
330
46
100
AcDbEntity
  8
1
  6
Continuous
 62
     7
100
AcDbLine
 10
202.2399987930469
 20
197.093238929208
 30
0.0
 11
198.2399987930469
 21
197.093238929208
 31
0.0
  0
LINE
  5
FB
330
46
100
AcDbEntity
  8
1
  6
Continuous
 62
     7
100
AcDbLine
 10
198.2399987930469
 20
197.093238929208
 30
0.0
 11
198.2399987930469
 21
197.3599055958746
 31
0.0
  0
ENDBLK
  5
48
330
46
100
AcDbEntity
  8
0
100
AcDbBlockEnd
  0
BLOCK
  5
4A
330
49
100
AcDbEntity
  8
0
100
AcDbBlockBegin
  2
1__2
 70
     0
 71
     0
 10
76.26835265364409
 20
238.4840141964231
 30
0.0
  3
1__2
  1

  0
LINE
  5
FC
330
49
100
AcDbEntity
  8
1
  6
Continuous
 62
     7
100
AcDbLine
 10
76.26835265364409
 20
242.3689271997006
 30
0.0
 11
86.13077887425357
 21
238.4840141964231
 31
0.0
  0
LINE
  5
FD
330
49
100
AcDbEntity
  8
1
  6
Continuous
 62
     7
100
AcDbLine
 10
86.13077887425357
 20
238.4840141964231
 30
0.0
 11
86.79048108235729
 21
240.1587658187907
 31
0.0
  0
LINE
  5
FE
330
49
100
AcDbEntity
  8
1
  6
Continuous
 62
     7
100
AcDbLine
 10
76.82713770375015
 20
243.7874856912811
 30
0.0
 11
76.26835265364409
 21
242.3689271997006
 31
0.0
  0
ENDBLK
  5
4B
330
49
100
AcDbEntity
  8
0
100
AcDbBlockEnd
  0
BLOCK
  5
4D
330
4C
100
AcDbEntity
  8
0
100
AcDbBlockBegin
  2
_J__A4
 70
     0
 71
     0
 10
0.0
 20
0.0
 30
0.0
  3
_J__A4
  1

  0
POINT
  5
FF
330
4C
100
AcDbEntity
  8
1
 62
     4
100
AcDbPoint
 10
93.75
 20
17.0
 30
0.0
  0
POINT
  5
100
330
4C
100
AcDbEntity
  8
1
 62
     4
100
AcDbPoint
 10
85.25
 20
17.0
 30
0.0
  0
POINT
  5
101
330
4C
100
AcDbEntity
  8
1
 62
     4
100
AcDbPoint
 10
106.5
 20
19.00000000000001
 30
0.0
  0
POINT
  5
102
330
4C
100
AcDbEntity
  8
1
 62
     4
100
AcDbPoint
 10
106.5
 20
12.5
 30
0.0
  0
POINT
  5
103
330
4C
100
AcDbEntity
  8
1
 62
     4
100
AcDbPoint
 10
112.25
 20
12.5
 30
0.0
  0
POINT
  5
104
330
4C
100
AcDbEntity
  8
1
 62
     4
100
AcDbPoint
 10
100.75
 20
12.5
 30
0.0
  0
POINT
  5
105
330
4C
100
AcDbEntity
  8
1
 62
     4
100
AcDbPoint
 10
123.5
 20
19.00000000000001
 30
0.0
  0
POINT
  5
106
330
4C
100
AcDbEntity
  8
1
 62
     4
100
AcDbPoint
 10
123.5
 20
12.5
 30
0.0
  0
POINT
  5
107
330
4C
100
AcDbEntity
  8
1
 62
     4
100
AcDbPoint
 10
129.25
 20
12.5
 30
0.0
  0
POINT
  5
108
330
4C
100
AcDbEntity
  8
1
 62
     4
100
AcDbPoint
 10
117.75
 20
12.5
 30
0.0
  0
POINT
  5
109
330
4C
100
AcDbEntity
  8
1
 62
     4
100
AcDbPoint
 10
140.5
 20
19.00000000000001
 30
0.0
  0
POINT
  5
10A
330
4C
100
AcDbEntity
  8
1
 62
     4
100
AcDbPoint
 10
140.5
 20
12.5
 30
0.0
  0
POINT
  5
10B
330
4C
100
AcDbEntity
  8
1
 62
     4
100
AcDbPoint
 10
146.25
 20
12.5
 30
0.0
  0
POINT
  5
10C
330
4C
100
AcDbEntity
  8
1
 62
     4
100
AcDbPoint
 10
134.75
 20
12.5
 30
0.0
  0
POINT
  5
10D
330
4C
100
AcDbEntity
  8
1
 62
     4
100
AcDbPoint
 10
151.75
 20
12.5
 30
0.0
  0
POINT
  5
10E
330
4C
100
AcDbEntity
  8
1
 62
     4
100
AcDbPoint
 10
163.25
 20
12.5
 30
0.0
  0
POINT
  5
10F
330
4C
100
AcDbEntity
  8
1
 62
     4
100
AcDbPoint
 10
157.5
 20
12.5
 30
0.0
  0
POINT
  5
110
330
4C
100
AcDbEntity
  8
1
 62
     4
100
AcDbPoint
 10
57.0
 20
14.25
 30
0.0
  0
POINT
  5
111
330
4C
100
AcDbEntity
  8
1
 62
     4
100
AcDbPoint
 10
57.0
 20
22.75000000000001
 30
0.0
  0
POINT
  5
112
330
4C
100
AcDbEntity
  8
1
 62
     4
100
AcDbPoint
 10
47.5
 20
282.0000000000003
 30
0.0
  0
POINT
  5
113
330
4C
100
AcDbEntity
  8
1
 62
     4
100
AcDbPoint
 10
157.5
 20
19.00000000000001
 30
0.0
  0
POINT
  5
114
330
4C
100
AcDbEntity
  8
1
 62
     4
100
AcDbPoint
 10
57.0
 20
16.25
 30
0.0
  0
POINT
  5
115
330
4C
100
AcDbEntity
  8
1
 62
     4
100
AcDbPoint
 10
57.0
 20
24.75000000000001
 30
0.0
  0
POINT
  5
116
330
4C
100
AcDbEntity
  8
1
 62
     4
100
AcDbPoint
 10
57.0
 20
20.75000000000001
 30
0.0
  0
POINT
  5
117
330
4C
100
AcDbEntity
  8
1
 62
     4
100
AcDbPoint
 10
57.0
 20
12.25
 30
0.0
  0
POINT
  5
118
330
4C
100
AcDbEntity
  8
1
 62
     4
100
AcDbPoint
 10
34.0
 20
34.00000000000001
 30
0.0
  0
LINE
  5
119
330
4C
100
AcDbEntity
  8
1
  6
Continuous
 62
     7
100
AcDbLine
 10
105.0
 20
10.0
 30
0.0
 11
200.0
 21
10.0
 31
0.0
  0
LINE
  5
11A
330
4C
100
AcDbEntity
  8
1
  6
Continuous
 62
     2
100
AcDbLine
 10
105.0
 20
10.0
 30
0.0
 11
105.0
 21
5.0
 31
0.0
  0
LINE
  5
11B
330
4C
100
AcDbEntity
  8
1
  6
Continuous
 62
     7
100
AcDbLine
 10
200.0
 20
148.5
 30
0.0
 11
200.0
 21
287.0000000000003
 31
0.0
  0
LINE
  5
11C
330
4C
100
AcDbEntity
  8
1
  6
Continuous
 62
     2
100
AcDbLine
 10
200.0
 20
148.5
 30
0.0
 11
205.0
 21
148.5
 31
0.0
  0
LINE
  5
11D
330
4C
100
AcDbEntity
  8
1
  6
Continuous
 62
     7
100
AcDbLine
 10
25.0
 20
148.5
 30
0.0
 11
25.0
 21
287.0000000000003
 31
0.0
  0
LINE
  5
11E
330
4C
100
AcDbEntity
  8
1
  6
Continuous
 62
     2
100
AcDbLine
 10
25.0
 20
148.5
 30
0.0
 11
20.0
 21
148.5
 31
0.0
  0
LINE
  5
11F
330
4C
100
AcDbEntity
  8
1
  6
Continuous
 62
     7
100
AcDbLine
 10
105.0
 20
287.0000000000003
 30
0.0
 11
25.0
 21
287.0000000000003
 31
0.0
  0
LINE
  5
120
330
4C
100
AcDbEntity
  8
1
  6
Continuous
 62
     2
100
AcDbLine
 10
105.0
 20
287.0000000000003
 30
0.0
 11
105.0
 21
292.0000000000003
 31
0.0
  0
LINE
  5
121
330
4C
100
AcDbEntity
  8
1
  6
Continuous
 62
     2
100
AcDbLine
 10
166.0
 20
20.00000000000001
 30
0.0
 11
200.0
 21
20.00000000000001
 31
0.0
  0
LINE
  5
122
330
4C
100
AcDbEntity
  8
1
  6
Continuous
 62
     2
100
AcDbLine
 10
98.0
 20
27.00000000000001
 30
0.0
 11
98.0
 21
9.99999999999999
 31
0.0
  0
LINE
  5
123
330
4C
100
AcDbEntity
  8
1
  6
Continuous
 62
     2
100
AcDbLine
 10
115.0
 20
27.00000000000001
 30
0.0
 11
115.0
 21
9.99999999999999
 31
0.0
  0
LINE
  5
124
330
4C
100
AcDbEntity
  8
1
  6
Continuous
 62
     2
100
AcDbLine
 10
149.0
 20
27.00000000000001
 30
0.0
 11
149.0
 21
10.0
 31
0.0
  0
LINE
  5
125
330
4C
100
AcDbEntity
  8
1
  6
Continuous
 62
     2
100
AcDbLine
 10
132.0
 20
27.00000000000001
 30
0.0
 11
132.0
 21
9.99999999999999
 31
0.0
  0
LINE
  5
126
330
4C
100
AcDbEntity
  8
1
  6
Continuous
 62
     2
100
AcDbLine
 10
166.0
 20
27.00000000000001
 30
0.0
 11
166.0
 21
10.0
 31
0.0
  0
LINE
  5
127
330
4C
100
AcDbEntity
  8
1
  6
Continuous
 62
     2
100
AcDbLine
 10
55.0
 20
277.0000000000003
 30
0.0
 11
25.0
 21
277.0000000000003
 31
0.0
  0
LINE
  5
128
330
4C
100
AcDbEntity
  8
1
  6
Continuous
 62
     7
100
AcDbLine
 10
25.0
 20
10.0
 30
0.0
 11
25.0
 21
148.5
 31
0.0
  0
LINE
  5
129
330
4C
100
AcDbEntity
  8
1
  6
Continuous
 62
     2
100
AcDbLine
 10
40.0
 20
287.0000000000003
 30
0.0
 11
40.0
 21
277.0000000000003
 31
0.0
  0
LINE
  5
12A
330
4C
100
AcDbEntity
  8
1
  6
Continuous
 62
     2
100
AcDbLine
 10
55.0
 20
287.0000000000003
 30
0.0
 11
55.0
 21
277.0000000000003
 31
0.0
  0
LINE
  5
12B
330
4C
100
AcDbEntity
  8
1
  6
Continuous
 62
     2
100
AcDbLine
 10
33.0
 20
41.00000000000001
 30
0.0
 11
33.0
 21
27.0
 31
0.0
  0
LINE
  5
12C
330
4C
100
AcDbEntity
  8
1
  6
Continuous
 62
     7
100
AcDbLine
 10
200.0
 20
27.00000000000001
 30
0.0
 11
25.0
 21
27.00000000000001
 31
0.0
  0
LINE
  5
12D
330
4C
100
AcDbEntity
  8
1
  6
Continuous
 62
     7
100
AcDbLine
 10
25.0
 20
41.0
 30
0.0
 11
200.0
 21
41.0
 31
0.0
  0
LINE
  5
12E
330
4C
100
AcDbEntity
  8
1
  6
PHANTOM
 62
     4
100
AcDbLine
 10
0.0
 20
0.0
 30
0.0
 11
210.0
 21
0.0
 31
0.0
  0
LINE
  5
12F
330
4C
100
AcDbEntity
  8
1
  6
PHANTOM
 62
     4
100
AcDbLine
 10
210.0
 20
0.0
 30
0.0
 11
210.0
 21
297.0
 31
0.0
  0
LINE
  5
130
330
4C
100
AcDbEntity
  8
1
  6
PHANTOM
 62
     4
100
AcDbLine
 10
210.0
 20
297.0
 30
0.0
 11
0.0
 21
297.0
 31
0.0
  0
LINE
  5
131
330
4C
100
AcDbEntity
  8
1
  6
PHANTOM
 62
     4
100
AcDbLine
 10
0.0
 20
297.0
 30
0.0
 11
0.0
 21
0.0
 31
0.0
  0
LINE
  5
132
330
4C
100
AcDbEntity
  8
1
  6
Continuous
 62
     7
100
AcDbLine
 10
25.0
 20
10.0
 30
0.0
 11
105.0
 21
10.0
 31
0.0
  0
LINE
  5
133
330
4C
100
AcDbEntity
  8
1
  6
Continuous
 62
     7
100
AcDbLine
 10
200.0
 20
10.0
 30
0.0
 11
200.0
 21
148.5
 31
0.0
  0
LINE
  5
134
330
4C
100
AcDbEntity
  8
1
  6
Continuous
 62
     7
100
AcDbLine
 10
200.0
 20
287.0000000000003
 30
0.0
 11
105.0
 21
287.0000000000003
 31
0.0
  0
LINE
  5
135
330
4C
100
AcDbEntity
  8
1
  6
Continuous
 62
     2
100
AcDbLine
 10
25.0
 20
18.50000000000001
 30
0.0
 11
81.0
 21
18.50000000000001
 31
0.0
  0
LINE
  5
136
330
4C
100
AcDbEntity
  8
1
  6
Continuous
 62
     2
100
AcDbLine
 10
33.0
 20
27.0
 30
0.0
 11
33.0
 21
10.0
 31
0.0
  0
LINE
  5
137
330
4C
100
AcDbEntity
  8
1
  6
Continuous
 62
     7
100
AcDbLine
 10
191.0
 20
24.70000000000001
 30
0.0
 11
191.0
 21
22.30000000000001
 31
0.0
  0
LINE
  5
138
330
4C
100
AcDbEntity
  8
1
  6
Continuous
 62
     7
100
AcDbLine
 10
191.0
 20
24.70000000000001
 30
0.0
 11
196.0
 21
25.50000000000001
 31
0.0
  0
LINE
  5
139
330
4C
100
AcDbEntity
  8
1
  6
Continuous
 62
     7
100
AcDbLine
 10
196.0
 20
25.50000000000001
 30
0.0
 11
196.0
 21
21.50000000000001
 31
0.0
  0
LINE
  5
13A
330
4C
100
AcDbEntity
  8
1
  6
Continuous
 62
     7
100
AcDbLine
 10
196.0
 20
21.50000000000001
 30
0.0
 11
191.0
 21
22.30000000000001
 31
0.0
  0
LINE
  5
13B
330
4C
100
AcDbEntity
  8
1
  6
DOT_CENTER
 62
     2
100
AcDbLine
 10
184.0
 20
23.50000000000001
 30
0.0
 11
197.0
 21
23.50000000000001
 31
0.0
  0
LINE
  5
13C
330
4C
100
AcDbEntity
  8
1
  6
DOT_CENTER
 62
     2
100
AcDbLine
 10
187.0
 20
26.50000000000001
 30
0.0
 11
187.0
 21
20.50000000000001
 31
0.0
  0
LINE
  5
13D
330
4C
100
AcDbEntity
  8
1
  6
Continuous
 62
     2
100
AcDbLine
 10
81.0
 20
27.00000000000001
 30
0.0
 11
81.0
 21
10.0
 31
0.0
  0
CIRCLE
  5
13E
330
4C
100
AcDbEntity
  8
1
  6
Continuous
 62
     7
100
AcDbCircle
 10
103.5
 20
12.5
 30
0.0
 40
0.2999999999999972
  0
CIRCLE
  5
13F
330
4C
100
AcDbEntity
  8
1
  6
Continuous
 62
     7
100
AcDbCircle
 10
109.5
 20
12.5
 30
0.0
 40
0.2999999999999972
  0
CIRCLE
  5
140
330
4C
100
AcDbEntity
  8
1
  6
Continuous
 62
     7
100
AcDbCircle
 10
120.5
 20
12.5
 30
0.0
 40
0.2999999999999972
  0
CIRCLE
  5
141
330
4C
100
AcDbEntity
  8
1
  6
Continuous
 62
     7
100
AcDbCircle
 10
126.5
 20
12.5
 30
0.0
 40
0.2999999999999972
  0
CIRCLE
  5
142
330
4C
100
AcDbEntity
  8
1
  6
Continuous
 62
     7
100
AcDbCircle
 10
137.5
 20
12.5
 30
0.0
 40
0.3000000000000114
  0
CIRCLE
  5
143
330
4C
100
AcDbEntity
  8
1
  6
Continuous
 62
     7
100
AcDbCircle
 10
143.5
 20
12.5
 30
0.0
 40
0.3000000000000114
  0
CIRCLE
  5
144
330
4C
100
AcDbEntity
  8
1
  6
Continuous
 62
     7
100
AcDbCircle
 10
160.5
 20
12.5
 30
0.0
 40
0.3000000000000114
  0
CIRCLE
  5
145
330
4C
100
AcDbEntity
  8
1
  6
Continuous
 62
     7
100
AcDbCircle
 10
154.5
 20
12.5
 30
0.0
 40
0.3000000000000114
  0
CIRCLE
  5
146
330
4C
100
AcDbEntity
  8
1
  6
Continuous
 62
     7
100
AcDbCircle
 10
187.0
 20
23.50000000000001
 30
0.0
 40
1.200000000000102
  0
CIRCLE
  5
147
330
4C
100
AcDbEntity
  8
1
  6
Continuous
 62
     7
100
AcDbCircle
 10
187.0
 20
23.50000000000001
 30
0.0
 40
2.0
  0
CIRCLE
  5
148
330
4C
100
AcDbEntity
  8
1
  6
DOT_CENTER
 62
     7
100
AcDbCircle
 10
89.5
 20
16.0
 30
0.0
 40
0.1000000000000227
  0
CIRCLE
  5
149
330
4C
100
AcDbEntity
  8
1
  6
DOT_CENTER
 62
     7
100
AcDbCircle
 10
89.5
 20
18.0
 30
0.0
 40
0.1000000000000227
  0
MTEXT
  5
14B
330
4C
100
AcDbEntity
  8
1
 62
     7
100
AcDbMText
 10
188.5
 20
15.0
 30
0.0
 40
3.0
 41
0.0
 71
     5
 72
     1
  1
三栄水栓製作所
  7
CONVERTER_1
 73
     1
 44
1.32052821128451
  0
MTEXT
  5
14C
330
4C
100
AcDbEntity
  8
1
 62
     7
100
AcDbMText
 10
171.5
 20
15.0
 30
0.0
 40
2.5
 41
0.0
 71
     5
 72
     1
  1
株式会社
  7
CONVERTER_1
 73
     1
 44
1.32052821128451
  0
MTEXT
  5
14D
330
4C
100
AcDbEntity
  8
1
 62
     2
100
AcDbMText
 10
32.5
 20
282.0000000000003
 30
0.0
 40
5.0
 41
0.0
 71
     5
 72
     1
  1
図番
  7
CONVERTER_1
 73
     1
 44
0.60024009603842
  0
MTEXT
  5
14E
330
4C
100
AcDbEntity
  8
1
 62
     2
100
AcDbMText
 10
29.0
 20
34.00000000000001
 30
0.0
 40
3.5
 41
0.0
 71
     5
 72
     1
  1
備考
  7
CONVERTER_1
 73
     1
 44
0.60024009603842
  0
MTEXT
  5
14F
330
4C
100
AcDbEntity
  8
1
 62
     2
100
AcDbMText
 10
29.0
 20
22.75
 30
0.0
 40
3.5
 41
0.0
 71
     5
 72
     1
  1
品名
  7
CONVERTER_1
 73
     1
 44
0.96038415366146
  0
MTEXT
  5
150
330
4C
100
AcDbEntity
  8
1
 62
     2
100
AcDbMText
 10
29.0
 20
14.25
 30
0.0
 40
3.5
 41
0.0
 71
     5
 72
     1
  1
品番
  7
CONVERTER_1
 73
     1
 44
0.96038415366146
  0
MTEXT
  5
151
330
4C
100
AcDbEntity
  8
1
 62
     2
100
AcDbMText
 10
101.5
 20
25.00000000000001
 30
0.0
 40
3.0
 41
0.0
 71
     5
 72
     1
  1
承認
  7
CONVERTER_1
 73
     1
 44
0.78031212484994
  0
MTEXT
  5
152
330
4C
100
AcDbEntity
  8
1
 62
     2
100
AcDbMText
 10
175.0
 20
23.50000000000001
 30
0.0
 40
3.5
 41
0.0
 71
     5
 72
     1
  1
第三角法
  7
CONVERTER_1
 73
     1
 44
0.7202881152461
  0
MTEXT
  5
153
330
4C
100
AcDbEntity
  8
1
 62
     2
100
AcDbMText
 10
118.5
 20
25.00000000000001
 30
0.0
 40
3.0
 41
0.0
 71
     5
 72
     1
  1
検図
  7
CONVERTER_1
 73
     1
 44
0.78031212484994
  0
MTEXT
  5
154
330
4C
100
AcDbEntity
  8
1
 62
     2
100
AcDbMText
 10
152.5
 20
25.00000000000001
 30
0.0
 40
3.0
 41
0.0
 71
     5
 72
     1
  1
担当
  7
CONVERTER_1
 73
     1
 44
0.78031212484994
  0
MTEXT
  5
155
330
4C
100
AcDbEntity
  8
1
 62
     2
100
AcDbMText
 10
135.5
 20
25.00000000000001
 30
0.0
 40
3.0
 41
0.0
 71
     5
 72
     1
  1
製図
  7
CONVERTER_1
 73
     1
 44
0.78031212484994
  0
MTEXT
  5
156
330
4C
100
AcDbEntity
  8
1
 62
     2
100
AcDbMText
 10
89.5
 20
24.00000000000001
 30
0.0
 40
3.5
 41
0.0
 71
     5
 72
     1
  1
尺度
  7
CONVERTER_1
 73
     1
 44
0.7202881152461
  0
MTEXT
  5
157
330
4C
100
AcDbEntity
  8
1
 62
   250
100
AcDbMText
 10
25.0
 20
5.0
 30
0.0
 40
3.5
 41
0.0
 71
     4
 72
     1
  1
備考欄の文字列 原点位置=4
  7
CONVERTER_1
 73
     1
 44
0.7202881152461
  0
ENDBLK
  5
4E
330
4C
100
AcDbEntity
  8
0
100
AcDbBlockEnd
  0
BLOCK
  5
173
330
16C
100
AcDbEntity
  8
0
100
AcDbBlockBegin
  2
*D09
 70
     1
 71
     0
 10
0.0
 20
0.0
 30
0.0
  3
*D09
  1

  0
LINE
  5
16D
330
16C
100
AcDbEntity
  8
0
  6
Continuous
 62
     2
100
AcDbLine
 10
322.4151135451244
 20
177.0932389292079
 30
0.0
 11
377.4151135451244
 21
177.0932389292079
 31
0.0
  0
LINE
  5
16E
330
16C
100
AcDbEntity
  8
0
  6
Continuous
 62
     2
100
AcDbLine
 10
322.4151135451244
 20
205.4049035189358
 30
0.0
 11
322.4151135451244
 21
175.0932389292079
 31
0.0
  0
LINE
  5
16F
330
16C
100
AcDbEntity
  8
0
  6
Continuous
 62
     2
100
AcDbLine
 10
377.4151135451244
 20
202.3599055958746
 30
0.0
 11
377.4151135451244
 21
175.0932389292079
 31
0.0
  0
SOLID
  5
170
330
16C
100
AcDbEntity
  8
0
 62
     2
100
AcDbTrace
 10
329.4151135451244
 20
178.0148064123197
 30
0.0
 11
329.4151135451244
 21
176.1716714460961
 31
0.0
 12
322.4151135451244
 22
177.0932389292079
 32
0.0
 13
322.4151135451244
 23
177.0932389292079
 33
0.0
  0
SOLID
  5
171
330
16C
100
AcDbEntity
  8
0
 62
     2
100
AcDbTrace
 10
370.4151135451244
 20
176.1716714460961
 30
0.0
 11
370.4151135451244
 21
178.0148064123197
 31
0.0
 12
377.4151135451244
 22
177.0932389292079
 32
0.0
 13
377.4151135451244
 23
177.0932389292079
 33
0.0
  0
MTEXT
  5
172
330
16C
100
AcDbEntity
  8
0
 62
     7
100
AcDbMText
 10
344.6651135451244
 20
179.0932389292079
 30
0.0
 40
7.0
 41
0.0
 71
     7
 72
     1
  1
55
  7
CONVERTER_2
 11
0.9999999999970621
 21
2.424068405545307E-6
 31
0.0
 73
     1
 44
0.60024009603842
  0
ENDBLK
  5
174
330
16C
100
AcDbEntity
  8
0
100
AcDbBlockEnd
  0
BLOCK
  5
180
330
177
100
AcDbEntity
  8
0
100
AcDbBlockBegin
  2
*D110
 70
     1
 71
     0
 10
0.0
 20
0.0
 30
0.0
  3
*D110
  1

  0
LINE
  5
178
330
177
100
AcDbEntity
  8
0
  6
Continuous
 62
     2
100
AcDbLine
 10
285.2399987930468
 20
177.0932389292079
 30
0.0
 11
271.2399987930468
 21
177.0932389292079
 31
0.0
  0
LINE
  5
179
330
177
100
AcDbEntity
  8
0
  6
Continuous
 62
     2
100
AcDbLine
 10
271.2399987930468
 20
177.0932389292079
 30
0.0
 11
257.2399987930468
 21
177.0932389292079
 31
0.0
  0
LINE
  5
17A
330
177
100
AcDbEntity
  8
0
  6
Continuous
 62
     2
100
AcDbLine
 10
257.2399987930468
 20
177.0932389292079
 30
0.0
 11
243.2399987930468
 21
177.0932389292079
 31
0.0
  0
LINE
  5
17B
330
177
100
AcDbEntity
  8
0
  6
Continuous
 62
     2
100
AcDbLine
 10
257.2399987930468
 20
199.8599055958746
 30
0.0
 11
257.2399987930468
 21
175.0932389292079
 31
0.0
  0
LINE
  5
17C
330
177
100
AcDbEntity
  8
0
  6
Continuous
 62
     2
100
AcDbLine
 10
271.2399987930468
 20
205.5444055958746
 30
0.0
 11
271.2399987930468
 21
175.0932389292079
 31
0.0
  0
SOLID
  5
17D
330
177
100
AcDbEntity
  8
0
 62
     2
100
AcDbTrace
 10
278.2399987930468
 20
178.0148064123197
 30
0.0
 11
278.2399987930468
 21
176.1716714460961
 31
0.0
 12
271.2399987930468
 22
177.0932389292079
 32
0.0
 13
271.2399987930468
 23
177.0932389292079
 33
0.0
  0
SOLID
  5
17E
330
177
100
AcDbEntity
  8
0
 62
     2
100
AcDbTrace
 10
250.2399987930468
 20
176.1716714460961
 30
0.0
 11
250.2399987930468
 21
178.0148064123197
 31
0.0
 12
257.2399987930468
 22
177.0932389292079
 32
0.0
 13
257.2399987930468
 23
177.0932389292079
 33
0.0
  0
MTEXT
  5
17F
330
177
100
AcDbEntity
  8
0
 62
     7
100
AcDbMText
 10
260.0399987930468
 20
179.0932389292079
 30
0.0
 40
7.0
 41
0.0
 71
     7
 72
     1
  1
14
  7
CONVERTER_2
 11
0.9999999999970621
 21
2.424068405545307E-6
 31
0.0
 73
     1
 44
0.60024009603842
  0
ENDBLK
  5
181
330
177
100
AcDbEntity
  8
0
100
AcDbBlockEnd
  0
BLOCK
  5
18B
330
184
100
AcDbEntity
  8
0
100
AcDbBlockBegin
  2
*D211
 70
     1
 71
     0
 10
0.0
 20
0.0
 30
0.0
  3
*D211
  1

  0
LINE
  5
185
330
184
100
AcDbEntity
  8
0
  6
Continuous
 62
     2
100
AcDbLine
 10
97.65878652224794
 20
177.0932389292079
 30
0.0
 11
257.2399987930468
 21
177.0932389292079
 31
0.0
  0
LINE
  5
186
330
184
100
AcDbEntity
  8
0
  6
Continuous
 62
     2
100
AcDbLine
 10
257.2399987930468
 20
199.8599055958746
 30
0.0
 11
257.2399987930468
 21
175.0932389292079
 31
0.0
  0
LINE
  5
187
330
184
100
AcDbEntity
  8
0
  6
Continuous
 62
     2
100
AcDbLine
 10
97.65878652224794
 20
224.912056457202
 30
0.0
 11
97.65878652224794
 21
175.0932389292079
 31
0.0
  0
SOLID
  5
188
330
184
100
AcDbEntity
  8
0
 62
     2
100
AcDbTrace
 10
104.6587865222479
 20
178.0148064123197
 30
0.0
 11
104.6587865222479
 21
176.1716714460961
 31
0.0
 12
97.65878652224794
 22
177.0932389292079
 32
0.0
 13
97.65878652224794
 23
177.0932389292079
 33
0.0
  0
SOLID
  5
189
330
184
100
AcDbEntity
  8
0
 62
     2
100
AcDbTrace
 10
250.2399987930468
 20
176.1716714460961
 30
0.0
 11
250.2399987930468
 21
178.0148064123197
 31
0.0
 12
257.2399987930468
 22
177.0932389292079
 32
0.0
 13
257.2399987930468
 23
177.0932389292079
 33
0.0
  0
MTEXT
  5
18A
330
184
100
AcDbEntity
  8
0
 62
     7
100
AcDbMText
 10
170.0993926576474
 20
179.0932389292079
 30
0.0
 40
7.0
 41
0.0
 71
     7
 72
     1
  1
160
  7
CONVERTER_2
 11
0.9999999999970621
 21
2.424068405545307E-6
 31
0.0
 73
     1
 44
0.60024009603842
  0
ENDBLK
  5
18C
330
184
100
AcDbEntity
  8
0
100
AcDbBlockEnd
  0
BLOCK
  5
196
330
18F
100
AcDbEntity
  8
0
100
AcDbBlockBegin
  2
*D312
 70
     1
 71
     0
 10
0.0
 20
0.0
 30
0.0
  3
*D312
  1

  0
LINE
  5
190
330
18F
100
AcDbEntity
  8
0
  6
Continuous
 62
     2
100
AcDbLine
 10
291.2399987930468
 20
421.3599055958744
 30
0.0
 11
291.2399987930468
 21
485.3599055958744
 31
0.0
  0
LINE
  5
191
330
18F
100
AcDbEntity
  8
0
  6
Continuous
 62
     2
100
AcDbLine
 10
184.3763315289788
 20
485.3599055958744
 30
0.0
 11
293.2399987930468
 21
485.3599055958744
 31
0.0
  0
LINE
  5
192
330
18F
100
AcDbEntity
  8
0
  6
Continuous
 62
     2
100
AcDbLine
 10
184.3763315289788
 20
421.3599055958744
 30
0.0
 11
293.2399987930468
 21
421.3599055958744
 31
0.0
  0
SOLID
  5
193
330
18F
100
AcDbEntity
  8
0
 62
     2
100
AcDbTrace
 10
290.3184313099351
 20
428.3599055958744
 30
0.0
 11
292.1615662761586
 21
428.3599055958744
 31
0.0
 12
291.2399987930468
 22
421.3599055958744
 32
0.0
 13
291.2399987930468
 23
421.3599055958744
 33
0.0
  0
SOLID
  5
194
330
18F
100
AcDbEntity
  8
0
 62
     2
100
AcDbTrace
 10
292.1615662761586
 20
478.3599055958744
 30
0.0
 11
290.3184313099351
 21
478.3599055958744
 31
0.0
 12
291.2399987930468
 22
485.3599055958744
 32
0.0
 13
291.2399987930468
 23
485.3599055958744
 33
0.0
  0
MTEXT
  5
195
330
18F
100
AcDbEntity
  8
0
 62
     7
100
AcDbMText
 10
289.2399987930468
 20
448.1099055958744
 30
0.0
 40
7.0
 41
0.0
 71
     7
 72
     1
  1
64
  7
CONVERTER_2
 11
0.0
 21
1.0
 31
0.0
 73
     1
 44
0.60024009603842
  0
ENDBLK
  5
197
330
18F
100
AcDbEntity
  8
0
100
AcDbBlockEnd
  0
BLOCK
  5
1A1
330
19A
100
AcDbEntity
  8
0
100
AcDbBlockBegin
  2
*D413
 70
     1
 71
     0
 10
0.0
 20
0.0
 30
0.0
  3
*D413
  1

  0
LINE
  5
19B
330
19A
100
AcDbEntity
  8
1
  6
Continuous
 62
     2
100
AcDbLine
 10
67.83383638245917
 20
401.3599055958744
 30
0.0
 11
257.2536582974827
 21
401.3599055958744
 31
0.0
  0
LINE
  5
19C
330
19A
100
AcDbEntity
  8
1
  6
Continuous
 62
     2
100
AcDbLine
 10
257.2536582974827
 20
439.2299055958557
 30
0.0
 11
257.2536582974827
 21
399.3599055958744
 31
0.0
  0
LINE
  5
19D
330
19A
100
AcDbEntity
  8
1
  6
Continuous
 62
     2
100
AcDbLine
 10
67.83383638245915
 20
453.3599055958746
 30
0.0
 11
67.83383638245915
 21
399.3599055958744
 31
0.0
  0
SOLID
  5
19E
330
19A
100
AcDbEntity
  8
1
 62
     2
100
AcDbTrace
 10
74.83383638245917
 20
402.2814730789862
 30
0.0
 11
74.83383638245917
 21
400.4383381127627
 31
0.0
 12
67.83383638245917
 22
401.3599055958744
 32
0.0
 13
67.83383638245917
 23
401.3599055958744
 33
0.0
  0
SOLID
  5
19F
330
19A
100
AcDbEntity
  8
1
 62
     2
100
AcDbTrace
 10
250.2536582974827
 20
400.4383381127627
 30
0.0
 11
250.2536582974827
 21
402.2814730789862
 31
0.0
 12
257.2536582974827
 22
401.3599055958744
 32
0.0
 13
257.2536582974827
 23
401.3599055958744
 33
0.0
  0
MTEXT
  5
1A0
330
19A
100
AcDbEntity
  8
1
 62
     7
100
AcDbMText
 10
155.1937473399709
 20
403.3599055958744
 30
0.0
 40
7.0
 41
0.0
 71
     7
 72
     1
  1
190
  7
CONVERTER_2
 11
0.9999999999970621
 21
2.424068405545307E-6
 31
0.0
 73
     1
 44
0.60024009603842
  0
ENDBLK
  5
1A2
330
19A
100
AcDbEntity
  8
0
100
AcDbBlockEnd
  0
BLOCK
  5
1AC
330
1A5
100
AcDbEntity
  8
0
100
AcDbBlockBegin
  2
*D514
 70
     1
 71
     0
 10
0.0
 20
0.0
 30
0.0
  3
*D514
  1

  0
LINE
  5
1A6
330
1A5
100
AcDbEntity
  8
1
  6
Continuous
 62
     2
100
AcDbLine
 10
291.2399987930468
 20
294.3599055958747
 30
0.0
 11
291.2399987930468
 21
214.8599055958746
 31
0.0
  0
LINE
  5
1A7
330
1A5
100
AcDbEntity
  8
1
  6
Continuous
 62
     2
100
AcDbLine
 10
277.2399987930468
 20
214.8599055958746
 30
0.0
 11
293.2399987930468
 21
214.8599055958746
 31
0.0
  0
LINE
  5
1A8
330
1A5
100
AcDbEntity
  8
1
  6
Continuous
 62
     2
100
AcDbLine
 10
192.2399987930467
 20
294.3599055958747
 30
0.0
 11
293.2399987930468
 21
294.3599055958747
 31
0.0
  0
SOLID
  5
1A9
330
1A5
100
AcDbEntity
  8
1
 62
     2
100
AcDbTrace
 10
292.1615662761586
 20
287.3599055958747
 30
0.0
 11
290.3184313099351
 21
287.3599055958747
 31
0.0
 12
291.2399987930468
 22
294.3599055958747
 32
0.0
 13
291.2399987930468
 23
294.3599055958747
 33
0.0
  0
SOLID
  5
1AA
330
1A5
100
AcDbEntity
  8
1
 62
     2
100
AcDbTrace
 10
290.3184313099351
 20
221.8599055958746
 30
0.0
 11
292.1615662761586
 21
221.8599055958746
 31
0.0
 12
291.2399987930468
 22
214.8599055958746
 32
0.0
 13
291.2399987930468
 23
214.8599055958746
 33
0.0
  0
MTEXT
  5
1AB
330
1A5
100
AcDbEntity
  8
1
 62
     7
100
AcDbMText
 10
289.2399987930468
 20
245.996363195529
 30
0.0
 40
7.0
 41
0.0
 71
     7
 72
     1
  1
80
  7
CONVERTER_2
 11
0.0
 21
1.0
 31
0.0
 73
     1
 44
0.60024009603842
  0
ENDBLK
  5
1AD
330
1A5
100
AcDbEntity
  8
0
100
AcDbBlockEnd
  0
BLOCK
  5
1B9
330
1B0
100
AcDbEntity
  8
0
100
AcDbBlockBegin
  2
*D615
 70
     1
 71
     0
 10
0.0
 20
0.0
 30
0.0
  3
*D615
  1

  0
LINE
  5
1B1
330
1B0
100
AcDbEntity
  8
1
  6
Continuous
 62
     2
100
AcDbLine
 10
291.2399987930468
 20
228.8599055958746
 30
0.0
 11
291.2399987930468
 21
214.8599055958746
 31
0.0
  0
LINE
  5
1B2
330
1B0
100
AcDbEntity
  8
1
  6
Continuous
 62
     2
100
AcDbLine
 10
291.2399987930468
 20
214.8599055958746
 30
0.0
 11
291.2399987930468
 21
197.3599055958746
 31
0.0
  0
LINE
  5
1B3
330
1B0
100
AcDbEntity
  8
1
  6
Continuous
 62
     2
100
AcDbLine
 10
291.2399987930468
 20
197.3599055958746
 30
0.0
 11
291.2399987930468
 21
183.3599055958746
 31
0.0
  0
LINE
  5
1B4
330
1B0
100
AcDbEntity
  8
1
  6
Continuous
 62
     2
100
AcDbLine
 10
219.7399987930469
 20
197.3599055958746
 30
0.0
 11
293.2399987930468
 21
197.3599055958746
 31
0.0
  0
LINE
  5
1B5
330
1B0
100
AcDbEntity
  8
1
  6
Continuous
 62
     2
100
AcDbLine
 10
277.2399987930468
 20
214.8599055958746
 30
0.0
 11
293.2399987930468
 21
214.8599055958746
 31
0.0
  0
SOLID
  5
1B6
330
1B0
100
AcDbEntity
  8
1
 62
     2
100
AcDbTrace
 10
290.3184313099351
 20
221.8599055958746
 30
0.0
 11
292.1615662761586
 21
221.8599055958746
 31
0.0
 12
291.2399987930468
 22
214.8599055958746
 32
0.0
 13
291.2399987930468
 23
214.8599055958746
 33
0.0
  0
SOLID
  5
1B7
330
1B0
100
AcDbEntity
  8
1
 62
     2
100
AcDbTrace
 10
292.1615662761586
 20
190.3599055958746
 30
0.0
 11
290.3184313099351
 21
190.3599055958746
 31
0.0
 12
291.2399987930468
 22
197.3599055958746
 32
0.0
 13
291.2399987930468
 23
197.3599055958746
 33
0.0
  0
MTEXT
  5
1B8
330
1B0
100
AcDbEntity
  8
1
 62
     7
100
AcDbMText
 10
289.2399987930468
 20
201.9099055958746
 30
0.0
 40
7.0
 41
0.0
 71
     7
 72
     1
  1
18
  7
CONVERTER_2
 11
0.0
 21
1.0
 31
0.0
 73
     1
 44
0.60024009603842
  0
ENDBLK
  5
1BA
330
1B0
100
AcDbEntity
  8
0
100
AcDbBlockEnd
  0
BLOCK
  5
1C4
330
1BD
100
AcDbEntity
  8
0
100
AcDbBlockBegin
  2
*D716
 70
     1
 71
     0
 10
0.0
 20
0.0
 30
0.0
  3
*D716
  1

  0
LINE
  5
1BE
330
1BD
100
AcDbEntity
  8
1
  6
Continuous
 62
     2
100
AcDbLine
 10
70.72434562341181
 20
197.3599055958746
 30
0.0
 11
70.72434562341181
 21
224.912056457202
 31
0.0
  0
LINE
  5
1BF
330
1BD
100
AcDbEntity
  8
1
  6
Continuous
 62
     2
100
AcDbLine
 10
97.65878652224799
 20
224.912056457202
 30
0.0
 11
68.72434562341181
 21
224.912056457202
 31
0.0
  0
LINE
  5
1C0
330
1BD
100
AcDbEntity
  8
1
  6
Continuous
 62
     2
100
AcDbLine
 10
189.239998793047
 20
197.3599055958746
 30
0.0
 11
68.72434562341181
 21
197.3599055958746
 31
0.0
  0
SOLID
  5
1C1
330
1BD
100
AcDbEntity
  8
1
 62
     2
100
AcDbTrace
 10
69.80277814030004
 20
204.3599055958746
 30
0.0
 11
71.64591310652358
 21
204.3599055958746
 31
0.0
 12
70.72434562341181
 22
197.3599055958746
 32
0.0
 13
70.72434562341181
 23
197.3599055958746
 33
0.0
  0
SOLID
  5
1C2
330
1BD
100
AcDbEntity
  8
1
 62
     2
100
AcDbTrace
 10
71.64591310652358
 20
217.912056457202
 30
0.0
 11
69.80277814030004
 21
217.912056457202
 31
0.0
 12
70.72434562341181
 22
224.912056457202
 32
0.0
 13
70.72434562341181
 23
224.912056457202
 33
0.0
  0
MTEXT
  5
1C3
330
1BD
100
AcDbEntity
  8
1
 62
     7
100
AcDbMText
 10
68.72434562341181
 20
205.8859810265383
 30
0.0
 40
7.0
 41
0.0
 71
     7
 72
     1
  1
28
  7
CONVERTER_2
 11
0.0
 21
1.0
 31
0.0
 73
     1
 44
0.60024009603842
  0
ENDBLK
  5
1C5
330
1BD
100
AcDbEntity
  8
0
100
AcDbBlockEnd
  0
BLOCK
  5
1D0
330
1C8
100
AcDbEntity
  8
0
100
AcDbBlockBegin
  2
*D817
 70
     1
 71
     0
 10
0.0
 20
0.0
 30
0.0
  3
*D817
  1

  0
LINE
  5
1C9
330
1C8
100
AcDbEntity
  8
1
  6
Continuous
 62
     2
100
AcDbLine
 10
80.09157795304276
 20
180.315099390298
 30
0.0
 11
79.35857549959411
 21
178.4542642543339
 31
0.0
  0
LINE
  5
1CA
330
1C8
100
AcDbEntity
  8
1
  6
Continuous
 62
     2
100
AcDbLine
 10
97.65878652224799
 20
176.9798606328791
 30
0.0
 11
97.65878652224799
 21
174.9798606328791
 31
0.0
  0
LINE
  5
1CB
330
1C8
100
AcDbEntity
  8
1
  6
Continuous
 62
     2
100
AcDbLine
 10
96.55928284207501
 20
222.120803753256
 30
0.0
 11
80.09157795304276
 21
180.315099390298
 31
0.0
  0
LINE
  5
1CC
330
1C8
100
AcDbEntity
  8
1
  6
Continuous
 62
     2
100
AcDbLine
 10
97.65878652224799
 20
223.912056457202
 30
0.0
 11
97.65878652224799
 21
176.9798606328791
 31
0.0
  0
ARC
  5
1CD
330
1C8
100
AcDbEntity
  8
1
  6
Continuous
 62
     2
100
AcDbCircle
 10
97.65878652224799
 20
224.912056457202
 30
0.0
 40
47.93219582432293
100
AcDbArc
 50
-124.0511814040905
 51
-90.0
  0
SOLID
  5
1CE
330
1C8
100
AcDbEntity
  8
1
 62
     2
100
AcDbTrace
 10
73.38376665022214
 20
182.5184046691191
 30
0.0
 11
74.18258714610842
 21
184.1794381784342
 31
0.0
 12
80.09157795304276
 22
180.315099390298
 32
0.0
 13
80.09157795304276
 23
180.315099390298
 33
0.0
  0
MTEXT
  5
1CF
330
1C8
100
AcDbEntity
  8
1
 62
     7
100
AcDbMText
 10
81.52645991186395
 20
181.2221874784577
 30
0.0
 40
7.0
 41
0.0
 71
     7
 72
     1
  1
22{\Fgdt;~}
  7
CONVERTER_2
 11
0.9561740750957479
 21
-0.2927988014230779
 31
0.0
 73
     1
 44
0.60024009603842
  0
ENDBLK
  5
1D1
330
1C8
100
AcDbEntity
  8
0
100
AcDbBlockEnd
  0
BLOCK
  5
1D3
330
1D2
100
AcDbEntity
  8
0
100
AcDbBlockBegin
  2
_None
 70
     0
 71
     0
 10
0.0
 20
0.0
 30
0.0
  3
_None
  1

  0
ENDBLK
  5
1D4
330
1D2
100
AcDbEntity
  8
0
100
AcDbBlockEnd
  0
ENDSEC
  0
SECTION
  2
ENTITIES
  0
INSERT
  5
4F
330
1F
100
AcDbEntity
  8
0
100
AcDbBlockReference
  2
1__1
 10
67.83383638245908
 20
247.8599055958746
 30
0.0
  0
INSERT
  5
50
330
1F
100
AcDbEntity
  8
0
100
AcDbBlockReference
  2
2
 10
69.56604271300199
 20
197.3599055958746
 30
0.0
  0
INSERT
  5
51
330
1F
100
AcDbEntity
  8
0
100
AcDbBlockReference
  2
3
 10
256.2399987930468
 20
204.3824055958744
 30
0.0
  0
INSERT
  5
52
330
1F
100
AcDbEntity
  8
0
100
AcDbBlockReference
  2
4
 10
87.02730100315959
 20
220.9041623109491
 30
0.0
  0
INSERT
  5
53
330
1F
100
AcDbEntity
  8
0
100
AcDbBlockReference
  2
7
 10
251.2399987930468
 20
199.8599055958746
 30
0.0
  0
INSERT
  5
54
330
1F
100
AcDbEntity
  8
1
100
AcDbBlockReference
  2
bis
 10
198.2399987930469
 20
197.0932389292079
 30
0.0
  0
INSERT
  5
55
330
1F
100
AcDbEntity
  8
1
100
AcDbBlockReference
  2
1__2
 10
76.26835265364409
 20
238.4840141964231
 30
0.0
  0
INSERT
  5
56
330
1F
100
AcDbEntity
  8
1
100
AcDbBlockReference
  2
_J__A4
 10
0.0
 20
0.0
 30
0.0
 41
2.0
 42
2.0
 43
2.0
  0
LINE
  5
158
330
1F
100
AcDbEntity
  8
1
  6
DASH_CENTER
 62
     2
100
AcDbLine
 10
99.23999879304665
 20
469.3599055958746
 30
0.0
 11
99.23999879304665
 21
437.3599055958746
 31
0.0
  0
LINE
  5
159
330
1F
100
AcDbEntity
  8
1
  6
DASH_CENTER
 62
     2
100
AcDbLine
 10
97.65878652224799
 20
224.912056457202
 30
0.0
 11
106.8861368869392
 21
248.3370500430828
 31
0.0
  0
LINE
  5
15A
330
1F
100
AcDbEntity
  8
1
  6
DASH_CENTER
 62
     2
100
AcDbLine
 10
97.65878652224799
 20
224.912056457202
 30
0.0
 11
97.65878652224799
 21
223.912056457202
 31
0.0
  0
LINE
  5
15B
330
1F
100
AcDbEntity
  8
1
  6
DASH_CENTER
 62
     2
100
AcDbLine
 10
330.165248246288
 20
214.8599055958746
 30
0.0
 11
369.665248246288
 21
214.8599055958746
 31
0.0
  0
LINE
  5
15C
330
1F
100
AcDbEntity
  8
1
  6
DASH_CENTER
 62
     2
100
AcDbLine
 10
61.83383638245913
 20
453.3599055958746
 30
0.0
 11
277.2399987930468
 21
453.3599055958746
 31
0.0
  0
LINE
  5
15D
330
1F
100
AcDbEntity
  8
1
  6
DASH_CENTER
 62
     2
100
AcDbLine
 10
96.55928284207501
 20
222.120803753256
 30
0.0
 11
97.65878652224799
 21
224.912056457202
 31
0.0
  0
LINE
  5
15E
330
1F
100
AcDbEntity
  8
1
  6
DASH_CENTER
 62
     2
100
AcDbLine
 10
349.9151135451244
 20
191.3599055958746
 30
0.0
 11
349.9151135451244
 21
296.8599055958746
 31
0.0
  0
LINE
  5
15F
330
1F
100
AcDbEntity
  8
1
  6
DASH_CENTER
 62
     2
100
AcDbLine
 10
229.2399987930464
 20
214.8599055958746
 30
0.0
 11
277.2399987930468
 21
214.8599055958746
 31
0.0
  0
LINE
  5
160
330
1F
100
AcDbEntity
  8
1
  6
DASH_CENTER
 62
     2
100
AcDbLine
 10
84.05827533239834
 20
247.6837277283217
 30
0.0
 11
79.00055840360305
 21
234.8439652901697
 31
0.0
  0
LINE
  5
161
330
1F
100
AcDbEntity
  8
CENTER
  6
DASH_CENTER
 62
     2
100
AcDbLine
 10
132.2399987930468
 20
259.8599055958746
 30
0.0
 11
132.2399987930469
 21
219.2557246809033
 31
0.0
  0
LINE
  5
162
330
1F
100
AcDbEntity
  8
CENTER
  6
DASH_CENTER
 62
     2
100
AcDbLine
 10
202.2399987930469
 20
202.8599055958746
 30
0.0
 11
202.2399987930469
 21
192.3599055958746
 31
0.0
  0
SOLID
  5
163
330
1F
100
AcDbEntity
  8
0
 62
     2
100
AcDbTrace
 10
265.5007454356546
 20
470.3603671639213
 30
0.0
 11
267.0969471390075
 21
469.4387996808095
 31
0.0
 12
262.798846287331
 22
463.8374055958744
 32
0.0
 13
262.798846287331
 23
463.8374055958744
 33
0.0
  0
LEADER
  5
164
330
1F
100
AcDbEntity
  8
0
  6
Continuous
 62
     2
100
AcDbLeader
  3
Standard
 71
     0
 76
     3
 10
262.798846287331
 20
463.8374055958744
 30
0.0
 10
286.7718728397573
 20
505.3599055958744
 30
0.0
 10
317.8974882020096
 20
505.3599055958744
 30
0.0
  0
MTEXT
  5
165
330
1F
100
AcDbEntity
  8
1
 62
     7
100
AcDbMText
 10
114.0
 20
45.50000000000003
 30
0.0
 40
7.0
 41
0.0
 71
     5
 72
     1
  1
自動横水栓
  7
CONVERTER_1
 73
     1
 44
1.32052821128451
  0
MTEXT
  5
167
330
1F
100
AcDbEntity
  8
1
 62
     7
100
AcDbMText
 10
187.5
 20
34.0
 30
0.0
 40
7.0
 41
0.0
 71
     5
 72
     1
  1
2
  7
CONVERTER_2
 73
     1
 44
1.32052821128451
  0
MTEXT
  5
168
330
1F
100
AcDbEntity
  8
1
 62
     7
100
AcDbMText
 10
170.5
 20
34.0
 30
0.0
 40
7.0
 41
0.0
 71
     5
 72
     1
  1
1
  7
CONVERTER_2
 73
     1
 44
1.32052821128451
  0
MTEXT
  5
169
330
1F
100
AcDbEntity
  8
0
 62
     7
100
AcDbMText
 10
302.4911718952797
 20
511.3599055958744
 30
0.0
 40
7.0
 41
0.0
 71
     5
 72
     1
  1
PJ1/2
  7
CONVERTER_2
 73
     1
 44
0.7202881152461
  0
MTEXT
  5
16A
330
1F
100
AcDbEntity
  8
1
 62
     7
100
AcDbMText
 10
114.0
 20
28.5
 30
0.0
 40
7.0
 41
0.0
 71
     5
 72
     1
  1
EY10DC-13
  7
CONVERTER_2
 73
     1
 44
0.90036014405762
  0
MTEXT
  5
16B
330
1F
100
AcDbEntity
  8
1
 62
     7
100
AcDbMText
 10
68.0
 20
68.00000000000001
 30
0.0
 40
7.0
 41
0.0
 71
     4
 72
     1
  1
アルカリ乾電池仕様
  7
CONVERTER_1
 73
     1
 44
0.7202881152461
  0
DIMENSION
  5
176
330
1F
100
AcDbEntity
  8
0
100
AcDbDimension
  2
*D09
 10
322.4151135451244
 20
177.0932389292079
 30
0.0
 11
349.9151135451244
 21
182.5932389292079
 31
0.0
  1
<>
 71
     5
 42
0.0
 53
0.00013888888889
  3
ME10_DIM_0
100
AcDbAlignedDimension
 13
377.4151135451244
 23
202.3599055958746
 33
0.0
 14
322.4151135451244
 24
205.4049035189358
 34
0.0
100
AcDbRotatedDimension
  0
DIMENSION
  5
183
330
1F
100
AcDbEntity
  8
0
100
AcDbDimension
  2
*D110
 10
271.2399987930468
 20
177.0932389292079
 30
0.0
 11
264.2399987930468
 21
182.5932389292079
 31
0.0
  1
<>
 71
     5
 42
0.0
 53
0.00013888888889
  3
ME10_DIM_1
100
AcDbAlignedDimension
 13
257.2399987930468
 23
199.8599055958746
 33
0.0
 14
271.2399987930468
 24
205.5444055958746
 34
0.0
100
AcDbRotatedDimension
  0
DIMENSION
  5
18E
330
1F
100
AcDbEntity
  8
0
100
AcDbDimension
  2
*D211
 10
97.65878652224794
 20
177.0932389292079
 30
0.0
 11
177.4493926576474
 21
182.5932389292079
 31
0.0
  1
160
 71
     5
 42
0.0
 53
0.00013888888889
  3
ME10_DIM_2
100
AcDbAlignedDimension
 13
257.2399987930468
 23
199.8599055958746
 33
0.0
 14
97.65878652224799
 24
224.912056457202
 34
0.0
100
AcDbRotatedDimension
  0
DIMENSION
  5
199
330
1F
100
AcDbEntity
  8
0
100
AcDbDimension
  2
*D312
 10
291.2399987930468
 20
421.3599055958744
 30
0.0
 11
285.7399987930468
 21
453.3599055958744
 31
0.0
  1
<>
 71
     5
 42
0.0
 53
90.0
  3
ME10_DIM_3
100
AcDbAlignedDimension
 13
184.3763315289788
 23
485.3599055958744
 33
0.0
 14
184.3763315289788
 24
421.3599055958744
 34
0.0
 50
90.0
100
AcDbRotatedDimension
  0
DIMENSION
  5
1A4
330
1F
100
AcDbEntity
  8
1
100
AcDbDimension
  2
*D413
 10
67.83383638245917
 20
401.3599055958744
 30
0.0
 11
162.5437473399709
 21
406.8599055958744
 31
0.0
  1
190
 71
     5
 42
0.0
 53
0.00013888888889
  3
ME10_DIM_4
100
AcDbAlignedDimension
 13
257.2536582974827
 23
439.2299055958556
 33
0.0
 14
67.83383638245913
 24
453.3599055958746
 34
0.0
100
AcDbRotatedDimension
  0
DIMENSION
  5
1AF
330
1F
100
AcDbEntity
  8
1
100
AcDbDimension
  2
*D514
 10
291.2399987930468
 20
294.3599055958747
 30
0.0
 11
285.7399987930468
 21
251.246363195529
 31
0.0
  1
80
 71
     5
 42
0.0
 53
90.0
  3
ME10_DIM_5
100
AcDbAlignedDimension
 13
277.2399987930468
 23
214.8599055958746
 33
0.0
 14
192.2399987930467
 24
294.3599055958747
 34
0.0
 50
90.0
100
AcDbRotatedDimension
  0
DIMENSION
  5
1BC
330
1F
100
AcDbEntity
  8
1
100
AcDbDimension
  2
*D615
 10
291.2399987930468
 20
214.8599055958746
 30
0.0
 11
285.7399987930468
 21
206.1099055958746
 31
0.0
  1
18
 71
     5
 42
0.0
 53
90.0
  3
ME10_DIM_6
100
AcDbAlignedDimension
 13
219.7399987930469
 23
197.3599055958746
 33
0.0
 14
277.2399987930468
 24
214.8599055958746
 34
0.0
 50
90.0
100
AcDbRotatedDimension
  0
DIMENSION
  5
1C7
330
1F
100
AcDbEntity
  8
1
100
AcDbDimension
  2
*D716
 10
70.72434562341181
 20
197.3599055958746
 30
0.0
 11
65.22434562341181
 21
211.1359810265383
 31
0.0
  1
28
 71
     5
 42
0.0
 53
90.0
  3
ME10_DIM_7
100
AcDbAlignedDimension
 13
97.65878652224799
 23
224.912056457202
 33
0.0
 14
189.239998793047
 24
197.3599055958746
 34
0.0
 50
90.0
100
AcDbRotatedDimension
  0
DIMENSION
  5
1D6
330
1F
100
AcDbEntity
  8
1
100
AcDbDimension
  2
*D817
 10
88.71827990233341
 20
177.8210516057391
 30
0.0
 11
89.744162100381
 21
183.2245287932295
 31
0.0
 70
     5
  1
22^N0^O
 71
     5
 42
0.0
  3
ME10_DIM_8
100
AcDb3PointAngularDimension
 13
96.55928284207501
 23
222.120803753256
 33
0.0
 14
97.65878652224799
 24
223.912056457202
 34
0.0
 15
97.65878652224799
 25
224.912056457202
 35
0.0
  0
ENDSEC
  0
SECTION
  2
OBJECTS
  0
DICTIONARY
  5
C
330
0
100
AcDbDictionary
281
     1
  3
ACAD_GROUP
350
D
  3
ACAD_LAYOUT
350
1A
  3
ACAD_MLINESTYLE
350
17
  3
ACAD_PLOTSETTINGS
350
19
  3
ACAD_PLOTSTYLENAME
350
E
  3
ACAD_TABLESTYLE
350
2A
  3
AcDbVariableDictionary
350
2C
  0
DICTIONARY
  5
D
102
{ACAD_REACTORS
330
C
102
}
330
C
100
AcDbDictionary
281
     1
  0
DICTIONARY
  5
1A
102
{ACAD_REACTORS
330
C
102
}
330
C
100
AcDbDictionary
281
     1
  3
Layout1
350
1E
  3
Layout2
350
26
  3
Model
350
22
  0
DICTIONARY
  5
17
102
{ACAD_REACTORS
330
C
102
}
330
C
100
AcDbDictionary
281
     1
  3
Standard
350
18
  0
DICTIONARY
  5
19
102
{ACAD_REACTORS
330
C
102
}
330
C
100
AcDbDictionary
281
     1
  0
ACDBDICTIONARYWDFLT
  5
E
102
{ACAD_REACTORS
330
C
102
}
330
C
100
AcDbDictionary
281
     1
  3
Normal
350
F
100
AcDbDictionaryWithDefault
340
F
  0
DICTIONARY
  5
2A
102
{ACAD_REACTORS
330
C
102
}
330
C
100
AcDbDictionary
281
     1
  3
Standard
350
2B
  0
DICTIONARY
  5
2C
102
{ACAD_REACTORS
330
C
102
}
330
C
100
AcDbDictionary
281
     1
  3
CTABLESTYLE
350
2D
  0
LAYOUT
  5
1E
102
{ACAD_REACTORS
330
1A
102
}
330
1A
100
AcDbPlotSettings
  1

  2

  4

  6

 40
0.0
 41
0.0
 42
0.0
 43
0.0
 44
0.0
 45
0.0
 46
0.0
 47
0.0
 48
0.0
 49
0.0
140
0.0
141
0.0
142
1.0
143
1.0
 70
   688
 72
     0
 73
     0
 74
     5
  7

 75
    16
147
1.0
148
0.0
149
0.0
100
AcDbLayout
  1
Layout1
 70
     1
 71
     1
 10
0.0
 20
0.0
 11
12.0
 21
9.0
 12
0.0
 22
0.0
 32
0.0
 14
1.00000000000000E+20
 24
1.00000000000000E+20
 34
1.00000000000000E+20
 15
-1.00000000000000E+20
 25
-1.00000000000000E+20
 35
-1.00000000000000E+20
146
0.0
 13
0.0
 23
0.0
 33
0.0
 16
1.0
 26
0.0
 36
0.0
 17
0.0
 27
1.0
 37
0.0
 76
     0
330
1B
  0
LAYOUT
  5
26
102
{ACAD_REACTORS
330
1A
102
}
330
1A
100
AcDbPlotSettings
  1

  2

  4

  6

 40
0.0
 41
0.0
 42
0.0
 43
0.0
 44
0.0
 45
0.0
 46
0.0
 47
0.0
 48
0.0
 49
0.0
140
0.0
141
0.0
142
1.0
143
1.0
 70
   688
 72
     0
 73
     0
 74
     5
  7

 75
    16
147
1.0
148
0.0
149
0.0
100
AcDbLayout
  1
Layout2
 70
     1
 71
     2
 10
0.0
 20
0.0
 11
0.0
 21
0.0
 12
0.0
 22
0.0
 32
0.0
 14
0.0
 24
0.0
 34
0.0
 15
0.0
 25
0.0
 35
0.0
146
0.0
 13
0.0
 23
0.0
 33
0.0
 16
1.0
 26
0.0
 36
0.0
 17
0.0
 27
1.0
 37
0.0
 76
     0
330
23
  0
LAYOUT
  5
22
102
{ACAD_REACTORS
330
1A
102
}
330
1A
100
AcDbPlotSettings
  1

  2

  4

  6

 40
0.0
 41
0.0
 42
0.0
 43
0.0
 44
0.0
 45
0.0
 46
0.0
 47
0.0
 48
0.0
 49
0.0
140
0.0
141
0.0
142
1.0
143
1.0
 70
  1712
 72
     0
 73
     0
 74
     0
  7

 75
     0
147
1.0
148
0.0
149
0.0
100
AcDbLayout
  1
Model
 70
     1
 71
     0
 10
0.0
 20
0.0
 11
0.0
 21
0.0
 12
0.0
 22
0.0
 32
0.0
 14
0.0
 24
0.0
 34
0.0
 15
420.0
 25
594.0
 35
0.0
146
0.0
 13
0.0
 23
0.0
 33
0.0
 16
1.0
 26
0.0
 36
0.0
 17
0.0
 27
1.0
 37
0.0
 76
     0
330
1F
  0
MLINESTYLE
  5
18
102
{ACAD_REACTORS
330
17
102
}
330
17
100
AcDbMlineStyle
  2
Standard
 70
     0
  3

 62
   256
 51
90.0
 52
90.0
 71
     2
 49
0.5
 62
   256
  6
BYLAYER
 49
-0.5
 62
   256
  6
BYLAYER
  0
ACDBPLACEHOLDER
  5
F
102
{ACAD_REACTORS
330
E
102
}
330
E
  0
TABLESTYLE
  5
2B
102
{ACAD_REACTORS
330
2A
102
}
330
2A
100
AcDbTableStyle
  3
Standard
 70
     0
 71
     0
 40
0.06
 41
0.06
280
     0
281
     0
  7
Standard
140
0.18
170
     2
 62
     0
 63
     7
283
     0
274
    -2
284
     1
 64
     0
275
    -2
285
     1
 65
     0
276
    -2
286
     1
 66
     0
277
    -2
287
     1
 67
     0
278
    -2
288
     1
 68
     0
279
    -2
289
     1
 69
     0
  7
Standard
140
0.25
170
     5
 62
     0
 63
     7
283
     0
274
    -2
284
     1
 64
     0
275
    -2
285
     1
 65
     0
276
    -2
286
     1
 66
     0
277
    -2
287
     1
 67
     0
278
    -2
288
     1
 68
     0
279
    -2
289
     1
 69
     0
  7
Standard
140
0.18
170
     5
 62
     0
 63
     7
283
     0
274
    -2
284
     1
 64
     0
275
    -2
285
     1
 65
     0
276
    -2
286
     1
 66
     0
277
    -2
287
     1
 67
     0
278
    -2
288
     1
 68
     0
279
    -2
289
     1
 69
     0
  0
DICTIONARYVAR
  5
2D
102
{ACAD_REACTORS
330
2C
102
}
330
2C
100
DictionaryVariables
280
     0
  1
Standard
  0
ENDSEC
  0
EOF
