  0
SECTION
  2
HEADER
  9
$ACADVER
  1
AC1015
  9
$ACADMAINTVER
 70
     6
  9
$DWGCODEPAGE
  3
DOS932
  9
$INSBASE
 10
0.0
 20
0.0
 30
0.0
  9
$EXTMIN
 10
-49.19690348319932
 20
-202.6857184342012
 30
0.0
  9
$EXTMAX
 10
265.8030965168007
 20
242.8142815657992
 30
0.0
  9
$LIMMIN
 10
0.0
 20
0.0
  9
$LIMMAX
 10
12.0
 20
9.0
  9
$ORTHOMODE
 70
     0
  9
$REGENMODE
 70
     1
  9
$FILLMODE
 70
     1
  9
$QTEXTMODE
 70
     0
  9
$MIRRTEXT
 70
     1
  9
$LTSCALE
 40
1.0
  9
$ATTMODE
 70
     1
  9
$TEXTSIZE
 40
0.2
  9
$TRACEWID
 40
0.05
  9
$TEXTSTYLE
  7
Standard
  9
$CLAYER
  8
0
  9
$CELTYPE
  6
ByLayer
  9
$CECOLOR
 62
   256
  9
$CELTSCALE
 40
1.0
  9
$DISPSILH
 70
     0
  9
$DIMSCALE
 40
1.0
  9
$DIMASZ
 40
0.18
  9
$DIMEXO
 40
0.0625
  9
$DIMDLI
 40
0.38
  9
$DIMRND
 40
0.0
  9
$DIMDLE
 40
0.0
  9
$DIMEXE
 40
0.18
  9
$DIMTP
 40
0.0
  9
$DIMTM
 40
0.0
  9
$DIMTXT
 40
0.18
  9
$DIMCEN
 40
0.09
  9
$DIMTSZ
 40
0.0
  9
$DIMTOL
 70
     0
  9
$DIMLIM
 70
     0
  9
$DIMTIH
 70
     1
  9
$DIMTOH
 70
     1
  9
$DIMSE1
 70
     0
  9
$DIMSE2
 70
     0
  9
$DIMTAD
 70
     0
  9
$DIMZIN
 70
     0
  9
$DIMBLK
  1

  9
$DIMASO
 70
     1
  9
$DIMSHO
 70
     1
  9
$DIMPOST
  1

  9
$DIMAPOST
  1

  9
$DIMALT
 70
     0
  9
$DIMALTD
 70
     2
  9
$DIMALTF
 40
25.4
  9
$DIMLFAC
 40
1.0
  9
$DIMTOFL
 70
     0
  9
$DIMTVP
 40
0.0
  9
$DIMTIX
 70
     0
  9
$DIMSOXD
 70
     0
  9
$DIMSAH
 70
     0
  9
$DIMBLK1
  1

  9
$DIMBLK2
  1

  9
$DIMSTYLE
  2
Standard
  9
$DIMCLRD
 70
     0
  9
$DIMCLRE
 70
     0
  9
$DIMCLRT
 70
     0
  9
$DIMTFAC
 40
1.0
  9
$DIMGAP
 40
0.09
  9
$DIMJUST
 70
     0
  9
$DIMSD1
 70
     0
  9
$DIMSD2
 70
     0
  9
$DIMTOLJ
 70
     1
  9
$DIMTZIN
 70
     0
  9
$DIMALTZ
 70
     0
  9
$DIMALTTZ
 70
     0
  9
$DIMUPT
 70
     0
  9
$DIMDEC
 70
     4
  9
$DIMTDEC
 70
     4
  9
$DIMALTU
 70
     2
  9
$DIMALTTD
 70
     2
  9
$DIMTXSTY
  7
Standard
  9
$DIMAUNIT
 70
     0
  9
$DIMADEC
 70
     0
  9
$DIMALTRND
 40
0.0
  9
$DIMAZIN
 70
     0
  9
$DIMDSEP
 70
    46
  9
$DIMATFIT
 70
     3
  9
$DIMFRAC
 70
     0
  9
$DIMLDRBLK
  1

  9
$DIMLUNIT
 70
     2
  9
$DIMLWD
 70
    -2
  9
$DIMLWE
 70
    -2
  9
$DIMTMOVE
 70
     0
  9
$LUNITS
 70
     2
  9
$LUPREC
 70
     4
  9
$SKETCHINC
 40
0.1
  9
$FILLETRAD
 40
0.5
  9
$AUNITS
 70
     0
  9
$AUPREC
 70
     0
  9
$MENU
  1
.
  9
$ELEVATION
 40
0.0
  9
$PELEVATION
 40
0.0
  9
$THICKNESS
 40
0.0
  9
$LIMCHECK
 70
     0
  9
$CHAMFERA
 40
0.5
  9
$CHAMFERB
 40
0.5
  9
$CHAMFERC
 40
1.0
  9
$CHAMFERD
 40
0.0
  9
$SKPOLY
 70
     0
  9
$TDCREATE
 40
2455112.375180116
  9
$TDUCREATE
 40
2455112.000180116
  9
$TDUPDATE
 40
2455112.375180127
  9
$TDUUPDATE
 40
2455112.000180127
  9
$TDINDWG
 40
0.0000000116
  9
$TDUSRTIMER
 40
0.0000000116
  9
$USRTIMER
 70
     1
  9
$ANGBASE
 50
0.0
  9
$ANGDIR
 70
     0
  9
$PDMODE
 70
     0
  9
$PDSIZE
 40
0.0
  9
$PLINEWID
 40
0.0
  9
$SPLFRAME
 70
     0
  9
$SPLINETYPE
 70
     6
  9
$SPLINESEGS
 70
     8
  9
$HANDSEED
  5
292
  9
$SURFTAB1
 70
     6
  9
$SURFTAB2
 70
     6
  9
$SURFTYPE
 70
     6
  9
$SURFU
 70
     6
  9
$SURFV
 70
     6
  9
$UCSBASE
  2

  9
$UCSNAME
  2

  9
$UCSORG
 10
0.0
 20
0.0
 30
0.0
  9
$UCSXDIR
 10
1.0
 20
0.0
 30
0.0
  9
$UCSYDIR
 10
0.0
 20
1.0
 30
0.0
  9
$UCSORTHOREF
  2

  9
$UCSORTHOVIEW
 70
     0
  9
$UCSORGTOP
 10
0.0
 20
0.0
 30
0.0
  9
$UCSORGBOTTOM
 10
0.0
 20
0.0
 30
0.0
  9
$UCSORGLEFT
 10
0.0
 20
0.0
 30
0.0
  9
$UCSORGRIGHT
 10
0.0
 20
0.0
 30
0.0
  9
$UCSORGFRONT
 10
0.0
 20
0.0
 30
0.0
  9
$UCSORGBACK
 10
0.0
 20
0.0
 30
0.0
  9
$PUCSBASE
  2

  9
$PUCSNAME
  2

  9
$PUCSORG
 10
0.0
 20
0.0
 30
0.0
  9
$PUCSXDIR
 10
1.0
 20
0.0
 30
0.0
  9
$PUCSYDIR
 10
0.0
 20
1.0
 30
0.0
  9
$PUCSORTHOREF
  2

  9
$PUCSORTHOVIEW
 70
     0
  9
$PUCSORGTOP
 10
0.0
 20
0.0
 30
0.0
  9
$PUCSORGBOTTOM
 10
0.0
 20
0.0
 30
0.0
  9
$PUCSORGLEFT
 10
0.0
 20
0.0
 30
0.0
  9
$PUCSORGRIGHT
 10
0.0
 20
0.0
 30
0.0
  9
$PUCSORGFRONT
 10
0.0
 20
0.0
 30
0.0
  9
$PUCSORGBACK
 10
0.0
 20
0.0
 30
0.0
  9
$USERI1
 70
     0
  9
$USERI2
 70
     0
  9
$USERI3
 70
     0
  9
$USERI4
 70
     0
  9
$USERI5
 70
     0
  9
$USERR1
 40
13.2
  9
$USERR2
 40
0.0
  9
$USERR3
 40
0.0
  9
$USERR4
 40
0.0
  9
$USERR5
 40
0.0
  9
$WORLDVIEW
 70
     1
  9
$SHADEDGE
 70
     3
  9
$SHADEDIF
 70
    70
  9
$TILEMODE
 70
     1
  9
$MAXACTVP
 70
    64
  9
$PINSBASE
 10
0.0
 20
0.0
 30
0.0
  9
$PLIMCHECK
 70
     0
  9
$PEXTMIN
 10
1.00000000000000E+20
 20
1.00000000000000E+20
 30
1.00000000000000E+20
  9
$PEXTMAX
 10
-1.00000000000000E+20
 20
-1.00000000000000E+20
 30
-1.00000000000000E+20
  9
$PLIMMIN
 10
0.0
 20
0.0
  9
$PLIMMAX
 10
12.0
 20
9.0
  9
$UNITMODE
 70
     0
  9
$VISRETAIN
 70
     1
  9
$PLINEGEN
 70
     0
  9
$PSLTSCALE
 70
     1
  9
$TREEDEPTH
 70
  3020
  9
$CMLSTYLE
  2
Standard
  9
$CMLJUST
 70
     0
  9
$CMLSCALE
 40
1.0
  9
$PROXYGRAPHICS
 70
     1
  9
$MEASUREMENT
 70
     1
  9
$CELWEIGHT
370
    -1
  9
$ENDCAPS
280
     0
  9
$JOINSTYLE
280
     0
  9
$LWDISPLAY
290
     0
  9
$INSUNITS
 70
     1
  9
$HYPERLINKBASE
  1

  9
$STYLESHEET
  1

  9
$XEDIT
290
     1
  9
$CEPSNTYPE
380
     0
  9
$PSTYLEMODE
290
     0
  9
$FINGERPRINTGUID
  2
{FAEB1C30-E019-11D5-929B-00C0DF256EC4}
  9
$VERSIONGUID
  2
{FAEB1C32-E019-11D5-929B-00C0DF256EC4}
  9
$EXTNAMES
290
     1
  9
$PSVPSCALE
 40
0.0
  9
$OLESTARTUP
290
     0
  0
ENDSEC
  0
SECTION
  2
CLASSES
  0
CLASS
  1
ACDBDICTIONARYWDFLT
  2
AcDbDictionaryWithDefault
  3
ObjectDBX Classes
 90
        0
280
     0
281
     0
  0
CLASS
  1
TABLESTYLE
  2
AcDbTableStyle
  3
ObjectDBX Classes
 90
     2047
280
     0
281
     0
  0
CLASS
  1
DICTIONARYVAR
  2
AcDbDictionaryVar
  3
ObjectDBX Classes
 90
        0
280
     0
281
     0
  0
CLASS
  1

  2
exOdDbCircle
  3

 90
        0
280
     0
281
     1
  0
CLASS
  1

  2
exOdDbSpline
  3

 90
        0
280
     0
281
     1
  0
CLASS
  1

  2
exOdDbPolyline
  3

 90
        0
280
     0
281
     1
  0
CLASS
  1
ACDBPLACEHOLDER
  2
AcDbPlaceHolder
  3
ObjectDBX Classes
 90
        0
280
     0
281
     0
  0
CLASS
  1
LAYOUT
  2
AcDbLayout
  3
ObjectDBX Classes
 90
        0
280
     0
281
     0
  0
ENDSEC
  0
SECTION
  2
TABLES
  0
TABLE
  2
VPORT
  5
8
330
0
100
AcDbSymbolTable
 70
     2
  0
VPORT
  5
29
330
8
100
AcDbSymbolTableRecord
100
AcDbViewportTableRecord
  2
*Active
 70
     0
 10
0.0
 20
0.0
 11
1.0
 21
1.0
 12
108.3030965168007
 22
20.06428156579901
 13
0.0
 23
0.0
 14
0.5
 24
0.5
 15
0.5
 25
0.5
 16
0.0
 26
0.0
 36
1.0
 17
0.0
 27
0.0
 37
0.0
 40
490.0500000000005
 41
1.60267857142857
 42
50.0
 43
0.0
 44
0.0
 50
0.0
 51
0.0
 71
     0
 72
   100
 73
     1
 74
     3
 75
     0
 76
     0
 77
     0
 78
     0
281
     0
 65
     1
110
0.0
120
0.0
130
0.0
111
1.0
121
0.0
131
0.0
112
0.0
122
1.0
132
0.0
 79
     0
146
0.0
  0
ENDTAB
  0
TABLE
  2
LTYPE
  5
5
330
0
100
AcDbSymbolTable
 70
     8
  0
LTYPE
  5
14
330
5
100
AcDbSymbolTableRecord
100
AcDbLinetypeTableRecord
  2
ByBlock
 70
     0
  3

 72
    65
 73
     0
 40
0.0
  0
LTYPE
  5
15
330
5
100
AcDbSymbolTableRecord
100
AcDbLinetypeTableRecord
  2
ByLayer
 70
     0
  3

 72
    65
 73
     0
 40
0.0
  0
LTYPE
  5
16
330
5
100
AcDbSymbolTableRecord
100
AcDbLinetypeTableRecord
  2
Continuous
 70
     0
  3
Solid line
 72
    65
 73
     0
 40
0.0
  0
LTYPE
  5
2E
330
5
100
AcDbSymbolTableRecord
100
AcDbLinetypeTableRecord
  2
DASHED
 70
     0
  3
Dashed
 72
    65
 73
     2
 40
15.0
 49
7.0
 74
     0
 49
-8.0
 74
     0
  0
LTYPE
  5
2F
330
5
100
AcDbSymbolTableRecord
100
AcDbLinetypeTableRecord
  2
DOTTED
 70
     0
  3
Dotted
 72
    65
 73
     2
 40
1.0
 49
0.0
 74
     0
 49
-1.0
 74
     0
  0
LTYPE
  5
30
330
5
100
AcDbSymbolTableRecord
100
AcDbLinetypeTableRecord
  2
DOT_CENTER
 70
     0
  3
Dot_Center
 72
    65
 73
     4
 40
14.0
 49
12.0
 74
     0
 49
-1.0
 74
     0
 49
0.0
 74
     0
 49
-1.0
 74
     0
  0
LTYPE
  5
31
330
5
100
AcDbSymbolTableRecord
100
AcDbLinetypeTableRecord
  2
LONG_DASHED
 70
     0
  3
Long_Dashed
 72
    65
 73
     2
 40
15.0
 49
10.0
 74
     0
 49
-5.0
 74
     0
  0
LTYPE
  5
32
330
5
100
AcDbSymbolTableRecord
100
AcDbLinetypeTableRecord
  2
DASH_CENTER
 70
     0
  3
Dash_Center
 72
    65
 73
     4
 40
14.0
 49
11.0
 74
     0
 49
-1.0
 74
     0
 49
1.0
 74
     0
 49
-1.0
 74
     0
  0
LTYPE
  5
33
330
5
100
AcDbSymbolTableRecord
100
AcDbLinetypeTableRecord
  2
PHANTOM
 70
     0
  3
Phantom
 72
    65
 73
     6
 40
13.0
 49
10.0
 74
     0
 49
-1.0
 74
     0
 49
0.0
 74
     0
 49
-1.0
 74
     0
 49
0.0
 74
     0
 49
-1.0
 74
     0
  0
LTYPE
  5
34
330
5
100
AcDbSymbolTableRecord
100
AcDbLinetypeTableRecord
  2
CENTER_DASH_DASH
 70
     0
  3
Center_Dash_Dash
 72
    65
 73
     6
 40
14.0
 49
9.0
 74
     0
 49
-1.0
 74
     0
 49
1.0
 74
     0
 49
-1.0
 74
     0
 49
1.0
 74
     0
 49
-1.0
 74
     0
  0
ENDTAB
  0
TABLE
  2
LAYER
  5
2
330
0
100
AcDbSymbolTable
 70
     3
  0
LAYER
  5
10
330
2
100
AcDbSymbolTableRecord
100
AcDbLayerTableRecord
  2
0
 70
     0
 62
     7
  6
Continuous
370
    -3
390
F
  0
LAYER
  5
35
330
2
100
AcDbSymbolTableRecord
100
AcDbLayerTableRecord
  2
1
 70
     0
 62
     7
  6
Continuous
370
    -3
390
F
  0
LAYER
  5
36
330
2
100
AcDbSymbolTableRecord
100
AcDbLayerTableRecord
  2
___C_____2
 70
     0
 62
     7
  6
Continuous
370
    -3
390
F
  0
ENDTAB
  0
TABLE
  2
STYLE
  5
3
330
0
100
AcDbSymbolTable
 70
     3
  0
STYLE
  5
11
330
3
100
AcDbSymbolTableRecord
100
AcDbTextStyleTableRecord
  2
Standard
 70
     0
 40
0.0
 41
1.0
 50
0.0
 71
     0
 42
0.2
  3
txt
  4

  0
STYLE
  5
49
330
3
100
AcDbSymbolTableRecord
100
AcDbTextStyleTableRecord
  2
CONVERTER_1
 70
     0
 40
0.0
 41
0.9
 50
0.0
 71
     0
 42
0.2
  3
txt.shx
  4

  0
STYLE
  5
D0
330
3
100
AcDbSymbolTableRecord
100
AcDbTextStyleTableRecord
  2
CONVERTER_2
 70
     0
 40
0.0
 41
0.89
 50
0.0
 71
     0
 42
0.2
  3
msmincho.ttc
  4

1001
ACAD
1000
MS Mincho
1071
    32785
  0
ENDTAB
  0
TABLE
  2
VIEW
  5
6
330
0
100
AcDbSymbolTable
 70
     0
  0
ENDTAB
  0
TABLE
  2
UCS
  5
7
330
0
100
AcDbSymbolTable
 70
     0
  0
ENDTAB
  0
TABLE
  2
APPID
  5
9
330
0
100
AcDbSymbolTable
 70
     1
  0
APPID
  5
12
330
9
100
AcDbSymbolTableRecord
100
AcDbRegAppTableRecord
  2
ACAD
 70
     0
  0
ENDTAB
  0
TABLE
  2
DIMSTYLE
  5
A
330
0
100
AcDbSymbolTable
 70
     5
100
AcDbDimStyleTable
  0
DIMSTYLE
105
27
330
A
100
AcDbSymbolTableRecord
100
AcDbDimStyleTableRecord
  2
Standard
 70
     0
340
11
  0
DIMSTYLE
105
26F
102
{ACAD_REACTORS
330
270
102
}
330
A
100
AcDbSymbolTableRecord
100
AcDbDimStyleTableRecord
  2
ME10_DIM_0
 70
     0
 41
5.25
 42
0.0
 44
3.0
 73
     0
 74
     0
 77
     1
 78
     8
140
4.5
147
0.625
172
     1
173
     1
176
     2
177
     2
178
     7
271
     2
340
49
  0
DIMSTYLE
105
27A
102
{ACAD_REACTORS
330
27B
102
}
330
A
100
AcDbSymbolTableRecord
100
AcDbDimStyleTableRecord
  2
ME10_DIM_1
 70
     0
 41
5.25
 42
0.0
 44
3.0
 73
     0
 74
     0
 77
     1
 78
     8
140
4.5
147
0.625
172
     1
173
     1
176
     2
177
     2
178
     7
271
     2
340
49
  0
DIMSTYLE
105
285
102
{ACAD_REACTORS
330
286
102
}
330
A
100
AcDbSymbolTableRecord
100
AcDbDimStyleTableRecord
  2
ME10_DIM_2
 70
     0
 41
5.25
 42
0.0
 44
3.0
 73
     0
 74
     0
 77
     1
 78
     8
140
4.5
147
0.625
172
     1
173
     1
176
     2
177
     2
178
     7
271
     2
340
49
  0
DIMSTYLE
105
290
102
{ACAD_REACTORS
330
291
102
}
330
A
100
AcDbSymbolTableRecord
100
AcDbDimStyleTableRecord
  2
ME10_DIM_3
 70
     0
 41
5.25
 42
0.0
 44
3.0
 73
     0
 74
     0
 77
     1
 78
     8
140
4.5
147
0.625
172
     1
173
     1
176
     2
177
     2
178
     7
271
     2
340
49
  0
ENDTAB
  0
TABLE
  2
BLOCK_RECORD
  5
1
330
0
100
AcDbSymbolTable
 70
     8
  0
BLOCK_RECORD
  5
1F
330
1
100
AcDbSymbolTableRecord
100
AcDbBlockTableRecord
  2
*Model_Space
340
22
  0
BLOCK_RECORD
  5
1B
330
1
100
AcDbSymbolTableRecord
100
AcDbBlockTableRecord
  2
*Paper_Space
340
1E
  0
BLOCK_RECORD
  5
23
330
1
100
AcDbSymbolTableRecord
100
AcDbBlockTableRecord
  2
*Paper_Space0
340
26
  0
BLOCK_RECORD
  5
37
330
1
100
AcDbSymbolTableRecord
100
AcDbBlockTableRecord
  2
TOP
340
0
102
{BLKREFS
331
41
102
}
  0
BLOCK_RECORD
  5
3A
330
1
100
AcDbSymbolTableRecord
100
AcDbBlockTableRecord
  2
_g__HP-A4
340
0
102
{BLKREFS
331
3E
102
}
  0
BLOCK_RECORD
  5
3D
330
1
100
AcDbSymbolTableRecord
100
AcDbBlockTableRecord
  2
_J___cHP-A4
340
0
102
{BLKREFS
331
42
102
}
  0
BLOCK_RECORD
  5
266
330
1
100
AcDbSymbolTableRecord
100
AcDbBlockTableRecord
  2
*D04
340
0
  0
BLOCK_RECORD
  5
271
330
1
100
AcDbSymbolTableRecord
100
AcDbBlockTableRecord
  2
*D15
340
0
  0
BLOCK_RECORD
  5
27C
330
1
100
AcDbSymbolTableRecord
100
AcDbBlockTableRecord
  2
*D26
340
0
  0
BLOCK_RECORD
  5
287
330
1
100
AcDbSymbolTableRecord
100
AcDbBlockTableRecord
  2
*D37
340
0
  0
ENDTAB
  0
ENDSEC
  0
SECTION
  2
BLOCKS
  0
BLOCK
  5
20
330
1F
100
AcDbEntity
  8
0
100
AcDbBlockBegin
  2
*Model_Space
 70
     0
 71
     0
 10
0.0
 20
0.0
 30
0.0
  3
*Model_Space
  1

  0
ENDBLK
  5
21
330
1F
100
AcDbEntity
  8
0
100
AcDbBlockEnd
  0
BLOCK
  5
1C
330
1B
100
AcDbEntity
 67
     1
  8
0
100
AcDbBlockBegin
  2
*Paper_Space
 70
     0
 71
     0
 10
0.0
 20
0.0
 30
0.0
  3
*Paper_Space
  1

  0
ENDBLK
  5
1D
330
1B
100
AcDbEntity
 67
     1
  8
0
100
AcDbBlockEnd
  0
BLOCK
  5
24
330
23
100
AcDbEntity
  8
0
100
AcDbBlockBegin
  2
*Paper_Space0
 70
     0
 71
     0
 10
0.0
 20
0.0
 30
0.0
  3
*Paper_Space0
  1

  0
ENDBLK
  5
25
330
23
100
AcDbEntity
  8
0
100
AcDbBlockEnd
  0
BLOCK
  5
38
330
37
100
AcDbEntity
  8
0
100
AcDbBlockBegin
  2
TOP
 70
     0
 71
     0
 10
-121.788099871462
 20
-1378.18221956287
 30
0.0
  3
TOP
  1

  0
CIRCLE
  5
43
330
37
100
AcDbEntity
  8
1
  6
Continuous
 62
     7
100
AcDbCircle
 10
231.353741551935
 20
45.64779238979943
 30
0.0
 40
2.0
  0
CIRCLE
  5
44
330
37
100
AcDbEntity
  8
1
  6
Continuous
 62
     7
100
AcDbCircle
 10
231.353741551935
 20
17.3810831800748
 30
0.0
 40
2.0
  0
SOLID
  5
45
330
37
100
AcDbEntity
  8
1
 62
     2
100
AcDbTrace
 10
226.5151373715306
 20
25.49198096078031
 30
0.0
 11
225.4610819344277
 21
24.59763089293548
 31
0.0
 12
222.591478049955
 22
29.04797888756511
 32
0.0
 13
222.591478049955
 23
29.04797888756511
 33
0.0
  0
LEADER
  5
46
330
37
100
AcDbEntity
  8
1
  6
Continuous
 62
     2
100
AcDbLeader
  3
Standard
 71
     0
 76
     3
 10
222.591478049955
 20
29.04797888756511
 30
0.0
 10
226.646740497152
 20
24.26856243193981
 30
0.0
 10
226.646740497152
 20
15.7580841619868
 30
0.0
  0
SOLID
  5
47
330
37
100
AcDbEntity
  8
1
 62
     2
100
AcDbTrace
 10
225.4610819344277
 20
38.93124467693872
 30
0.0
 11
226.5151373715306
 21
38.03689460909389
 31
0.0
 12
222.591478049955
 22
34.48089668230909
 32
0.0
 13
222.591478049955
 23
34.48089668230909
 33
0.0
  0
LEADER
  5
48
330
37
100
AcDbEntity
  8
1
  6
Continuous
 62
     2
100
AcDbLeader
  3
Standard
 71
     0
 76
     3
 10
222.591478049955
 20
34.48089668230909
 30
0.0
 10
226.646740497152
 20
39.26031313793439
 30
0.0
 10
226.646740497152
 20
47.7707914078874
 30
0.0
  0
MTEXT
  5
4A
330
37
100
AcDbEntity
  8
1
 62
     7
100
AcDbMText
 10
231.0244278587518
 20
45.18897163335242
 30
0.0
 40
4.5
 41
0.0
 71
     5
 72
     1
  1
-
  7
CONVERTER_1
 73
     1
 44
0.7202881152461
  0
MTEXT
  5
4B
330
37
100
AcDbEntity
  8
1
 62
     7
100
AcDbMText
 10
231.353741551935
 20
17.3810831800748
 30
0.0
 40
4.5
 41
0.0
 71
     5
 72
     1
  1
+
  7
CONVERTER_1
 73
     1
 44
0.7202881152461
  0
ENDBLK
  5
39
330
37
100
AcDbEntity
  8
0
100
AcDbBlockEnd
  0
BLOCK
  5
3B
330
3A
100
AcDbEntity
  8
0
100
AcDbBlockBegin
  2
_g__HP-A4
 70
     0
 71
     0
 10
698.6285866859125
 20
-123.1012886685193
 30
0.0
  3
_g__HP-A4
  1

  0
LINE
  5
4C
330
3A
100
AcDbEntity
  8
1
  6
Continuous
 62
     7
100
AcDbLine
 10
538.6285866859125
 20
149.898711331481
 30
0.0
 11
523.6285866859125
 21
149.898711331481
 31
0.0
  0
LINE
  5
4D
330
3A
100
AcDbEntity
  8
1
  6
Continuous
 62
     2
100
AcDbLine
 10
538.6285866859125
 20
139.898711331481
 30
0.0
 11
553.6285866859125
 21
139.898711331481
 31
0.0
  0
LINE
  5
4E
330
3A
100
AcDbEntity
  8
1
  6
Continuous
 62
     2
100
AcDbLine
 10
538.6285866859125
 20
149.898711331481
 30
0.0
 11
538.6285866859125
 21
139.898711331481
 31
0.0
  0
LINE
  5
4F
330
3A
100
AcDbEntity
  8
1
  6
Continuous
 62
     7
100
AcDbLine
 10
553.6285866859125
 20
149.898711331481
 30
0.0
 11
538.6285866859125
 21
149.898711331481
 31
0.0
  0
LINE
  5
50
330
3A
100
AcDbEntity
  8
1
  6
Continuous
 62
     2
100
AcDbLine
 10
553.6285866859125
 20
139.898711331481
 30
0.0
 11
553.6285866859125
 21
149.898711331481
 31
0.0
  0
LINE
  5
51
330
3A
100
AcDbEntity
  8
1
  6
Continuous
 62
     7
100
AcDbLine
 10
523.6285866859125
 20
139.898711331481
 30
0.0
 11
523.6285866859125
 21
149.898711331481
 31
0.0
  0
LINE
  5
52
330
3A
100
AcDbEntity
  8
1
  6
Continuous
 62
     2
100
AcDbLine
 10
523.6285866859125
 20
139.898711331481
 30
0.0
 11
538.6285866859125
 21
139.898711331481
 31
0.0
  0
LINE
  5
53
330
3A
100
AcDbEntity
  8
0
  6
Continuous
 62
     2
100
AcDbLine
 10
661.6285866859125
 20
-109.1012886685193
 30
0.0
 11
661.6285866859125
 21
-123.1012886685193
 31
0.0
  0
LINE
  5
54
330
3A
100
AcDbEntity
  8
0
  6
Continuous
 62
     2
100
AcDbLine
 10
653.6285866859125
 20
-123.1012886685193
 30
0.0
 11
653.6285866859125
 21
-109.1012886685193
 31
0.0
  0
LINE
  5
55
330
3A
100
AcDbEntity
  8
0
  6
Continuous
 62
     2
100
AcDbLine
 10
648.6285866859125
 20
-123.1012886685193
 30
0.0
 11
648.6285866859125
 21
-109.1012886685193
 31
0.0
  0
LINE
  5
56
330
3A
100
AcDbEntity
  8
0
  6
Continuous
 62
     2
100
AcDbLine
 10
640.6285866859126
 20
-123.1012886685193
 30
0.0
 11
640.6285866859126
 21
-109.1012886685193
 31
0.0
  0
LINE
  5
57
330
3A
100
AcDbEntity
  8
0
  6
Continuous
 62
     2
100
AcDbLine
 10
635.6285866859126
 20
-123.1012886685193
 30
0.0
 11
635.6285866859126
 21
-109.1012886685193
 31
0.0
  0
LINE
  5
58
330
3A
100
AcDbEntity
  8
0
  6
Continuous
 62
     2
100
AcDbLine
 10
627.6285866859126
 20
-123.1012886685193
 30
0.0
 11
627.6285866859125
 21
-109.1012886685193
 31
0.0
  0
LINE
  5
59
330
3A
100
AcDbEntity
  8
0
  6
Continuous
 62
     2
100
AcDbLine
 10
622.6285866859126
 20
-123.1012886685193
 30
0.0
 11
622.6285866859126
 21
-109.1012886685193
 31
0.0
  0
LINE
  5
5A
330
3A
100
AcDbEntity
  8
0
  6
Continuous
 62
     2
100
AcDbLine
 10
614.6285866859126
 20
-109.1012886685193
 30
0.0
 11
614.6285866859126
 21
-123.1012886685193
 31
0.0
  0
LINE
  5
5B
330
3A
100
AcDbEntity
  8
0
  6
Continuous
 62
     2
100
AcDbLine
 10
609.6285866859126
 20
-109.1012886685193
 30
0.0
 11
609.6285866859126
 21
-123.1012886685193
 31
0.0
  0
LINE
  5
5C
330
3A
100
AcDbEntity
  8
0
  6
Continuous
 62
     2
100
AcDbLine
 10
608.3908114539241
 20
-113.0267168071679
 30
0.0
 11
602.1487246530736
 21
-120.7366296084911
 31
0.0
  0
LINE
  5
5D
330
3A
100
AcDbEntity
  8
0
  6
Continuous
 62
     2
100
AcDbLine
 10
600.6285866859126
 20
-123.1012886685193
 30
0.0
 11
600.6285866859128
 21
-109.1012886685193
 31
0.0
  0
LINE
  5
5E
330
3A
100
AcDbEntity
  8
0
  6
Continuous
 62
     2
100
AcDbLine
 10
595.6285866859128
 20
-123.1012886685193
 30
0.0
 11
595.6285866859125
 21
-109.1012886685193
 31
0.0
  0
LINE
  5
5F
330
3A
100
AcDbEntity
  8
0
  6
Continuous
 62
     2
100
AcDbLine
 10
573.6285866859126
 20
-123.1012886685193
 30
0.0
 11
573.6285866859126
 21
-109.1012886685193
 31
0.0
  0
LINE
  5
60
330
3A
100
AcDbEntity
  8
0
  6
Continuous
 62
     2
100
AcDbLine
 10
568.6285866859126
 20
-109.1012886685193
 30
0.0
 11
568.6285866859126
 21
-123.1012886685193
 31
0.0
  0
LINE
  5
61
330
3A
100
AcDbEntity
  8
0
  6
Continuous
 62
     2
100
AcDbLine
 10
528.6285866859126
 20
-95.10128866851929
 30
0.0
 11
528.6285866859126
 21
-123.1012886685193
 31
0.0
  0
LINE
  5
62
330
3A
100
AcDbEntity
  8
0
  6
Continuous
 62
     2
100
AcDbLine
 10
523.6285866859125
 20
-109.1012886685193
 30
0.0
 11
698.6285866859125
 21
-109.1012886685193
 31
0.0
  0
LINE
  5
63
330
3A
100
AcDbEntity
  8
0
  6
Continuous
 62
     7
100
AcDbLine
 10
523.6285866859125
 20
-95.10128866851929
 30
0.0
 11
528.6285866859126
 21
-95.10128866851929
 31
0.0
  0
LINE
  5
64
330
3A
100
AcDbEntity
  8
1
  6
PHANTOM
 62
     4
100
AcDbLine
 10
498.6285866859125
 20
-133.1012886685193
 30
0.0
 11
708.6285866859125
 21
-133.1012886685193
 31
0.0
  0
LINE
  5
65
330
3A
100
AcDbEntity
  8
1
  6
PHANTOM
 62
     4
100
AcDbLine
 10
498.6285866859125
 20
163.898711331481
 30
0.0
 11
498.6285866859125
 21
-133.1012886685193
 31
0.0
  0
LINE
  5
66
330
3A
100
AcDbEntity
  8
1
  6
PHANTOM
 62
     4
100
AcDbLine
 10
708.6285866859125
 20
-133.1012886685193
 30
0.0
 11
708.6285866859125
 21
163.898711331481
 31
0.0
  0
LINE
  5
67
330
3A
100
AcDbEntity
  8
1
  6
PHANTOM
 62
     4
100
AcDbLine
 10
708.6285866859125
 20
163.898711331481
 30
0.0
 11
498.6285866859125
 21
163.898711331481
 31
0.0
  0
LINE
  5
68
330
3A
100
AcDbEntity
  8
1
  6
Continuous
 62
     7
100
AcDbLine
 10
698.6285866859125
 20
-123.1012886685193
 30
0.0
 11
698.6285866859125
 21
11.39871133148084
 31
0.0
  0
LINE
  5
69
330
3A
100
AcDbEntity
  8
1
  6
Continuous
 62
     7
100
AcDbLine
 10
698.6285866859125
 20
149.898711331481
 30
0.0
 11
603.6285866859125
 21
149.898711331481
 31
0.0
  0
LINE
  5
6A
330
3A
100
AcDbEntity
  8
1
  6
Continuous
 62
     7
100
AcDbLine
 10
523.6285866859125
 20
-123.1012886685193
 30
0.0
 11
603.6285866859125
 21
-123.1012886685193
 31
0.0
  0
LINE
  5
6B
330
3A
100
AcDbEntity
  8
1
  6
Continuous
 62
     7
100
AcDbLine
 10
523.6285866859125
 20
-123.1012886685193
 30
0.0
 11
523.6285866859125
 21
11.39871133148084
 31
0.0
  0
LINE
  5
6C
330
3A
100
AcDbEntity
  8
1
  6
Continuous
 62
     2
100
AcDbLine
 10
603.6285866859125
 20
149.898711331481
 30
0.0
 11
603.6285866859125
 21
154.898711331481
 31
0.0
  0
LINE
  5
6D
330
3A
100
AcDbEntity
  8
1
  6
Continuous
 62
     7
100
AcDbLine
 10
603.6285866859125
 20
149.898711331481
 30
0.0
 11
553.6285866859125
 21
149.898711331481
 31
0.0
  0
LINE
  5
6E
330
3A
100
AcDbEntity
  8
1
  6
Continuous
 62
     2
100
AcDbLine
 10
698.6285866859125
 20
11.39871133148085
 30
0.0
 11
703.6285866859125
 21
11.39871133148085
 31
0.0
  0
LINE
  5
6F
330
3A
100
AcDbEntity
  8
1
  6
Continuous
 62
     7
100
AcDbLine
 10
698.6285866859125
 20
11.39871133148085
 30
0.0
 11
698.6285866859125
 21
149.898711331481
 31
0.0
  0
LINE
  5
70
330
3A
100
AcDbEntity
  8
1
  6
Continuous
 62
     2
100
AcDbLine
 10
523.6285866859125
 20
11.39871133148085
 30
0.0
 11
518.6285866859125
 21
11.39871133148085
 31
0.0
  0
LINE
  5
71
330
3A
100
AcDbEntity
  8
1
  6
Continuous
 62
     7
100
AcDbLine
 10
523.6285866859125
 20
11.39871133148085
 30
0.0
 11
523.6285866859125
 21
139.898711331481
 31
0.0
  0
LINE
  5
72
330
3A
100
AcDbEntity
  8
1
  6
Continuous
 62
     2
100
AcDbLine
 10
603.6285866859125
 20
-123.1012886685193
 30
0.0
 11
603.6285866859125
 21
-128.1012886685193
 31
0.0
  0
LINE
  5
73
330
3A
100
AcDbEntity
  8
1
  6
Continuous
 62
     7
100
AcDbLine
 10
603.6285866859125
 20
-123.1012886685193
 30
0.0
 11
698.6285866859125
 21
-123.1012886685193
 31
0.0
  0
LINE
  5
74
102
{ACAD_REACTORS
330
E6
330
E6
102
}
330
3A
100
AcDbEntity
  8
1
  6
Continuous
 62
     7
100
AcDbLine
 10
667.5630276820599
 20
-110.8895843057599
 30
0.0
 11
667.4029895730727
 21
-111.1667784416732
 31
0.0
  0
LINE
  5
75
102
{ACAD_REACTORS
330
E6
330
E6
102
}
330
3A
100
AcDbEntity
  8
1
  6
Continuous
 62
     7
100
AcDbLine
 10
668.20811042793
 20
-112.5612886685192
 30
0.0
 11
668.5281866459044
 21
-112.5612886685192
 31
0.0
  0
LINE
  5
76
102
{ACAD_REACTORS
330
E6
330
E6
102
}
330
3A
100
AcDbEntity
  8
1
  6
Continuous
 62
     7
100
AcDbLine
 10
667.4937456497573
 20
-114.3529930312786
 30
0.0
 11
667.3337075407698
 21
-114.0757988953653
 31
0.0
  0
LINE
  5
77
102
{ACAD_REACTORS
330
E6
330
E6
102
}
330
3A
100
AcDbEntity
  8
1
  6
Continuous
 62
     7
100
AcDbLine
 10
665.7234658310553
 20
-114.0757988953653
 30
0.0
 11
665.5634277220678
 21
-114.3529930312786
 31
0.0
  0
LINE
  5
78
102
{ACAD_REACTORS
330
E6
330
E6
102
}
330
3A
100
AcDbEntity
  8
1
  6
Continuous
 62
     7
100
AcDbLine
 10
665.6541837987525
 20
-111.1667784416732
 30
0.0
 11
665.4941456897652
 21
-110.8895843057599
 31
0.0
  0
LINE
  5
79
102
{ACAD_REACTORS
330
E6
330
E6
102
}
330
3A
100
AcDbEntity
  8
1
  6
Continuous
 62
     7
100
AcDbLine
 10
664.5289867259207
 20
-112.5612886685192
 30
0.0
 11
664.8490629438951
 21
-112.5612886685192
 31
0.0
  0
LINE
  5
7A
102
{ACAD_REACTORS
330
E6
330
E6
102
}
330
3A
100
AcDbEntity
  8
1
  6
Continuous
 62
     7
100
AcDbLine
 10
665.5634277220678
 20
-110.8495843057598
 30
0.0
 11
666.5285866859126
 21
-112.5212886685192
 31
0.0
  0
LINE
  5
7B
102
{ACAD_REACTORS
330
E6
330
E6
102
}
330
3A
100
AcDbEntity
  8
1
  6
Continuous
 62
     7
100
AcDbLine
 10
666.4593046536099
 20
-112.5612886685192
 30
0.0
 11
665.694195708836
 21
-111.2360811028455
 31
0.0
  0
LINE
  5
7C
102
{ACAD_REACTORS
330
E6
330
E6
102
}
330
3A
100
AcDbEntity
  8
1
  6
Continuous
 62
     7
100
AcDbLine
 10
666.4593046536099
 20
-112.5612886685192
 30
0.0
 11
664.9290867640621
 21
-112.5612886685192
 31
0.0
  0
LINE
  5
7D
102
{ACAD_REACTORS
330
E6
330
E6
102
}
330
3A
100
AcDbEntity
  8
1
  6
Continuous
 62
     7
100
AcDbLine
 10
666.4593046536099
 20
-112.6412886685192
 30
0.0
 11
664.5289867259207
 21
-112.6412886685192
 31
0.0
  0
LINE
  5
7E
102
{ACAD_REACTORS
330
E6
330
E6
102
}
330
3A
100
AcDbEntity
  8
1
  6
Continuous
 62
     7
100
AcDbLine
 10
668.5281866459044
 20
-112.6412886685192
 30
0.0
 11
666.5978687182152
 21
-112.6412886685192
 31
0.0
  0
LINE
  5
7F
102
{ACAD_REACTORS
330
E6
330
E6
102
}
330
3A
100
AcDbEntity
  8
1
  6
Continuous
 62
     7
100
AcDbLine
 10
666.5978687182152
 20
-112.5612886685192
 30
0.0
 11
668.1280866077633
 21
-112.5612886685192
 31
0.0
  0
LINE
  5
80
102
{ACAD_REACTORS
330
E6
330
E6
102
}
330
3A
100
AcDbEntity
  8
1
  6
Continuous
 62
     7
100
AcDbLine
 10
666.5978687182152
 20
-112.5612886685192
 30
0.0
 11
667.3629776629894
 21
-111.2360811028455
 31
0.0
  0
LINE
  5
81
102
{ACAD_REACTORS
330
E6
330
E6
102
}
330
3A
100
AcDbEntity
  8
1
  6
Continuous
 62
     7
100
AcDbLine
 10
666.5285866859126
 20
-112.5212886685192
 30
0.0
 11
667.4937456497573
 21
-110.8495843057598
 31
0.0
  0
LINE
  5
82
102
{ACAD_REACTORS
330
E6
330
E6
102
}
330
3A
100
AcDbEntity
  8
1
  6
Continuous
 62
     7
100
AcDbLine
 10
666.5978687182152
 20
-112.6412886685192
 30
0.0
 11
667.5630276820599
 21
-114.3129930312787
 31
0.0
  0
LINE
  5
83
102
{ACAD_REACTORS
330
E6
330
E6
102
}
330
3A
100
AcDbEntity
  8
1
  6
Continuous
 62
     7
100
AcDbLine
 10
666.5285866859126
 20
-112.6812886685193
 30
0.0
 11
667.2936956306864
 21
-114.006496234193
 31
0.0
  0
LINE
  5
84
102
{ACAD_REACTORS
330
E6
330
E6
102
}
330
3A
100
AcDbEntity
  8
1
  6
Continuous
 62
     7
100
AcDbLine
 10
666.5285866859126
 20
-112.6812886685193
 30
0.0
 11
665.7634777411387
 21
-114.006496234193
 31
0.0
  0
LINE
  5
85
102
{ACAD_REACTORS
330
E6
330
E6
102
}
330
3A
100
AcDbEntity
  8
1
  6
Continuous
 62
     7
100
AcDbLine
 10
665.4941456897652
 20
-114.3129930312787
 30
0.0
 11
666.4593046536099
 21
-112.6412886685192
 31
0.0
  0
LINE
  5
86
102
{ACAD_REACTORS
330
E7
330
E7
102
}
330
3A
100
AcDbEntity
  8
1
  6
Continuous
 62
     7
100
AcDbLine
 10
678.8325866859126
 20
-111.0012886685192
 30
0.0
 11
678.8325866859126
 21
-113.7212886685191
 31
0.0
  0
LINE
  5
87
102
{ACAD_REACTORS
330
E7
330
E7
102
}
330
3A
100
AcDbEntity
  8
1
  6
Continuous
 62
     7
100
AcDbLine
 10
678.3525866859128
 20
-111.0012886685192
 30
0.0
 11
678.8325866859126
 21
-111.0012886685192
 31
0.0
  0
LINE
  5
88
102
{ACAD_REACTORS
330
E7
330
E7
102
}
330
3A
100
AcDbEntity
  8
1
  6
Continuous
 62
     7
100
AcDbLine
 10
678.3525866859128
 20
-113.7212886685191
 30
0.0
 11
678.3525866859128
 21
-111.0012886685192
 31
0.0
  0
LINE
  5
89
102
{ACAD_REACTORS
330
E7
330
E7
102
}
330
3A
100
AcDbEntity
  8
1
  6
Continuous
 62
     7
100
AcDbLine
 10
676.4325866859125
 20
-114.2012886685192
 30
0.0
 11
676.4325866859125
 21
-111.4812886685193
 31
0.0
  0
LINE
  5
8A
102
{ACAD_REACTORS
330
E7
330
E7
102
}
330
3A
100
AcDbEntity
  8
1
  6
Continuous
 62
     7
100
AcDbLine
 10
676.9125866859126
 20
-114.2012886685192
 30
0.0
 11
676.4325866859125
 21
-114.2012886685192
 31
0.0
  0
LINE
  5
8B
102
{ACAD_REACTORS
330
E7
330
E7
102
}
330
3A
100
AcDbEntity
  8
1
  6
Continuous
 62
     7
100
AcDbLine
 10
676.9125866859126
 20
-111.4812886685193
 30
0.0
 11
676.9125866859126
 21
-114.2012886685192
 31
0.0
  0
LINE
  5
8C
102
{ACAD_REACTORS
330
E7
330
E7
102
}
330
3A
100
AcDbEntity
  8
1
  6
Continuous
 62
     7
100
AcDbLine
 10
676.9125866859126
 20
-111.4812886685193
 30
0.0
 11
677.9086475478117
 21
-113.9038209715841
 31
0.0
  0
LINE
  5
8D
102
{ACAD_REACTORS
330
E7
330
E7
102
}
330
3A
100
AcDbEntity
  8
1
  6
Continuous
 62
     7
100
AcDbLine
 10
678.3525866859128
 20
-113.7212886685191
 30
0.0
 11
677.3565258240136
 21
-111.2987563654543
 31
0.0
  0
LINE
  5
8E
102
{ACAD_REACTORS
330
E8
330
E8
102
}
330
3A
100
AcDbEntity
  8
0
  6
Continuous
 62
     7
100
AcDbLine
 10
671.0485866859125
 20
-111.4812886685193
 30
0.0
 11
672.3685866859125
 21
-111.4812886685193
 31
0.0
  0
LINE
  5
8F
102
{ACAD_REACTORS
330
E8
330
E8
102
}
330
3A
100
AcDbEntity
  8
0
  6
Continuous
 62
     7
100
AcDbLine
 10
671.6085866859125
 20
-112.3612886685193
 30
0.0
 11
671.0485866859125
 21
-112.3612886685193
 31
0.0
  0
LINE
  5
90
102
{ACAD_REACTORS
330
E8
330
E8
102
}
330
3A
100
AcDbEntity
  8
0
  6
Continuous
 62
     7
100
AcDbLine
 10
670.1285866859125
 20
-114.2012886685192
 30
0.0
 11
671.6085866859125
 21
-114.2012886685192
 31
0.0
  0
LINE
  5
91
102
{ACAD_REACTORS
330
E8
330
E8
102
}
330
3A
100
AcDbEntity
  8
0
  6
Continuous
 62
     7
100
AcDbLine
 10
670.1285866859125
 20
-113.7212886685193
 30
0.0
 11
670.1285866859125
 21
-114.2012886685192
 31
0.0
  0
LINE
  5
92
102
{ACAD_REACTORS
330
E8
330
E8
102
}
330
3A
100
AcDbEntity
  8
0
  6
Continuous
 62
     7
100
AcDbLine
 10
671.6085866859125
 20
-113.7212886685193
 30
0.0
 11
670.1285866859125
 21
-113.7212886685193
 31
0.0
  0
LINE
  5
93
102
{ACAD_REACTORS
330
E8
330
E8
102
}
330
3A
100
AcDbEntity
  8
0
  6
Continuous
 62
     7
100
AcDbLine
 10
671.0485866859125
 20
-112.8412886685193
 30
0.0
 11
671.6085866859125
 21
-112.8412886685193
 31
0.0
  0
LINE
  5
94
102
{ACAD_REACTORS
330
E8
330
E8
102
}
330
3A
100
AcDbEntity
  8
0
  6
Continuous
 62
     7
100
AcDbLine
 10
672.3685866859125
 20
-111.0012886685192
 30
0.0
 11
671.0485866859125
 21
-111.0012886685192
 31
0.0
  0
LINE
  5
95
102
{ACAD_REACTORS
330
E8
330
E8
102
}
330
3A
100
AcDbEntity
  8
0
  6
Continuous
 62
     7
100
AcDbLine
 10
672.3685866859125
 20
-111.4812886685193
 30
0.0
 11
672.3685866859125
 21
-111.0012886685192
 31
0.0
  0
LINE
  5
96
102
{ACAD_REACTORS
330
E9
330
E9
102
}
330
3A
100
AcDbEntity
  8
0
  6
Continuous
 62
     7
100
AcDbLine
 10
675.2005866859126
 20
-113.5612886685192
 30
0.0
 11
675.2005866859126
 21
-114.2012886685192
 31
0.0
  0
LINE
  5
97
102
{ACAD_REACTORS
330
E9
330
E9
102
}
330
3A
100
AcDbEntity
  8
0
  6
Continuous
 62
     7
100
AcDbLine
 10
673.7605866859125
 20
-113.5612886685192
 30
0.0
 11
675.2005866859126
 21
-113.5612886685192
 31
0.0
  0
LINE
  5
98
102
{ACAD_REACTORS
330
E9
330
E9
102
}
330
3A
100
AcDbEntity
  8
0
  6
Continuous
 62
     7
100
AcDbLine
 10
673.7605866859125
 20
-113.0812886685192
 30
0.0
 11
673.7605866859125
 21
-112.2012886685192
 31
0.0
  0
LINE
  5
99
102
{ACAD_REACTORS
330
E9
330
E9
102
}
330
3A
100
AcDbEntity
  8
0
  6
Continuous
 62
     7
100
AcDbLine
 10
673.7605866859125
 20
-113.0812886685192
 30
0.0
 11
675.2005866859126
 21
-113.0812886685192
 31
0.0
  0
LINE
  5
9A
102
{ACAD_REACTORS
330
E9
330
E9
102
}
330
3A
100
AcDbEntity
  8
0
  6
Continuous
 62
     7
100
AcDbLine
 10
673.2805866859125
 20
-114.2012886685192
 30
0.0
 11
673.7605866859125
 21
-114.2012886685192
 31
0.0
  0
LINE
  5
9B
102
{ACAD_REACTORS
330
E9
330
E9
102
}
330
3A
100
AcDbEntity
  8
0
  6
Continuous
 62
     7
100
AcDbLine
 10
673.2805866859125
 20
-112.2012886685192
 30
0.0
 11
673.2805866859125
 21
-114.2012886685192
 31
0.0
  0
LINE
  5
9C
102
{ACAD_REACTORS
330
E9
330
E9
102
}
330
3A
100
AcDbEntity
  8
0
  6
Continuous
 62
     7
100
AcDbLine
 10
675.6805866859125
 20
-114.2012886685192
 30
0.0
 11
675.6805866859125
 21
-112.2012886685192
 31
0.0
  0
LINE
  5
9D
102
{ACAD_REACTORS
330
E9
330
E9
102
}
330
3A
100
AcDbEntity
  8
0
  6
Continuous
 62
     7
100
AcDbLine
 10
675.2005866859126
 20
-114.2012886685192
 30
0.0
 11
675.6805866859125
 21
-114.2012886685192
 31
0.0
  0
LINE
  5
9E
102
{ACAD_REACTORS
330
E9
330
E9
102
}
330
3A
100
AcDbEntity
  8
0
  6
Continuous
 62
     7
100
AcDbLine
 10
675.2005866859126
 20
-112.2012886685192
 30
0.0
 11
675.2005866859126
 21
-113.0812886685192
 31
0.0
  0
LINE
  5
9F
102
{ACAD_REACTORS
330
E9
330
E9
102
}
330
3A
100
AcDbEntity
  8
0
  6
Continuous
 62
     7
100
AcDbLine
 10
673.7605866859125
 20
-114.2012886685192
 30
0.0
 11
673.7605866859125
 21
-113.5612886685192
 31
0.0
  0
LINE
  5
A0
102
{ACAD_REACTORS
330
EA
330
EA
102
}
330
3A
100
AcDbEntity
  8
0
  6
Continuous
 62
     7
100
AcDbLine
 10
679.5845866859127
 20
-112.3212886685192
 30
0.0
 11
679.5845866859127
 21
-112.8812886685192
 31
0.0
  0
LINE
  5
A1
102
{ACAD_REACTORS
330
EA
330
EA
102
}
330
3A
100
AcDbEntity
  8
0
  6
Continuous
 62
     7
100
AcDbLine
 10
681.1845866859125
 20
-112.3212886685192
 30
0.0
 11
679.5845866859127
 21
-112.3212886685192
 31
0.0
  0
LINE
  5
A2
102
{ACAD_REACTORS
330
EA
330
EA
102
}
330
3A
100
AcDbEntity
  8
0
  6
Continuous
 62
     7
100
AcDbLine
 10
681.1845866859125
 20
-112.8812886685192
 30
0.0
 11
681.1845866859125
 21
-112.3212886685192
 31
0.0
  0
LINE
  5
A3
102
{ACAD_REACTORS
330
EA
330
EA
102
}
330
3A
100
AcDbEntity
  8
0
  6
Continuous
 62
     7
100
AcDbLine
 10
679.5845866859127
 20
-112.8812886685192
 30
0.0
 11
681.1845866859125
 21
-112.8812886685192
 31
0.0
  0
LINE
  5
A4
102
{ACAD_REACTORS
330
E5
330
E5
102
}
330
3A
100
AcDbEntity
  8
0
  6
Continuous
 62
     7
100
AcDbLine
 10
684.3365866859125
 20
-114.2012886685192
 30
0.0
 11
682.3365866859125
 21
-114.2012886685192
 31
0.0
  0
LINE
  5
A5
102
{ACAD_REACTORS
330
E5
330
E5
102
}
330
3A
100
AcDbEntity
  8
0
  6
Continuous
 62
     7
100
AcDbLine
 10
681.9365866859125
 20
-113.8012886685193
 30
0.0
 11
681.9365866859125
 21
-111.4012886685192
 31
0.0
  0
LINE
  5
A6
102
{ACAD_REACTORS
330
E5
330
E5
102
}
330
3A
100
AcDbEntity
  8
0
  6
Continuous
 62
     7
100
AcDbLine
 10
684.3365866859125
 20
-111.0012886685192
 30
0.0
 11
682.3365866859125
 21
-111.0012886685192
 31
0.0
  0
LINE
  5
A7
102
{ACAD_REACTORS
330
E5
330
E5
102
}
330
3A
100
AcDbEntity
  8
0
  6
Continuous
 62
     7
100
AcDbLine
 10
684.3365866859125
 20
-111.4812886685193
 30
0.0
 11
684.3365866859125
 21
-111.0012886685192
 31
0.0
  0
LINE
  5
A8
102
{ACAD_REACTORS
330
E5
330
E5
102
}
330
3A
100
AcDbEntity
  8
0
  6
Continuous
 62
     7
100
AcDbLine
 10
684.3365866859125
 20
-111.4812886685193
 30
0.0
 11
682.5765866859126
 21
-111.4812886685193
 31
0.0
  0
LINE
  5
A9
102
{ACAD_REACTORS
330
E5
330
E5
102
}
330
3A
100
AcDbEntity
  8
0
  6
Continuous
 62
     7
100
AcDbLine
 10
682.4165866859125
 20
-111.6412886685192
 30
0.0
 11
682.4165866859125
 21
-112.3612886685193
 31
0.0
  0
LINE
  5
AA
102
{ACAD_REACTORS
330
E5
330
E5
102
}
330
3A
100
AcDbEntity
  8
0
  6
Continuous
 62
     7
100
AcDbLine
 10
684.3365866859125
 20
-112.3612886685193
 30
0.0
 11
682.4165866859125
 21
-112.3612886685193
 31
0.0
  0
LINE
  5
AB
102
{ACAD_REACTORS
330
E5
330
E5
102
}
330
3A
100
AcDbEntity
  8
0
  6
Continuous
 62
     7
100
AcDbLine
 10
684.3365866859125
 20
-112.8412886685193
 30
0.0
 11
684.3365866859125
 21
-112.3612886685193
 31
0.0
  0
LINE
  5
AC
102
{ACAD_REACTORS
330
E5
330
E5
102
}
330
3A
100
AcDbEntity
  8
0
  6
Continuous
 62
     7
100
AcDbLine
 10
684.3365866859125
 20
-112.8412886685193
 30
0.0
 11
682.4165866859125
 21
-112.8412886685193
 31
0.0
  0
LINE
  5
AD
102
{ACAD_REACTORS
330
E5
330
E5
102
}
330
3A
100
AcDbEntity
  8
0
  6
Continuous
 62
     7
100
AcDbLine
 10
682.4165866859125
 20
-112.8412886685193
 30
0.0
 11
682.4165866859125
 21
-113.5612886685192
 31
0.0
  0
LINE
  5
AE
102
{ACAD_REACTORS
330
E5
330
E5
102
}
330
3A
100
AcDbEntity
  8
0
  6
Continuous
 62
     7
100
AcDbLine
 10
684.3365866859125
 20
-113.7212886685191
 30
0.0
 11
682.5765866859126
 21
-113.7212886685193
 31
0.0
  0
LINE
  5
AF
102
{ACAD_REACTORS
330
E5
330
E5
102
}
330
3A
100
AcDbEntity
  8
0
  6
Continuous
 62
     7
100
AcDbLine
 10
684.3365866859125
 20
-114.2012886685192
 30
0.0
 11
684.3365866859125
 21
-113.7212886685191
 31
0.0
  0
LINE
  5
B0
102
{ACAD_REACTORS
330
EB
330
EB
102
}
330
3A
100
AcDbEntity
  8
0
  6
Continuous
 62
     7
100
AcDbLine
 10
685.0885866859125
 20
-111.0012886685192
 30
0.0
 11
685.0885866859125
 21
-114.2012886685192
 31
0.0
  0
LINE
  5
B1
102
{ACAD_REACTORS
330
EB
330
EB
102
}
330
3A
100
AcDbEntity
  8
0
  6
Continuous
 62
     7
100
AcDbLine
 10
685.7285866859126
 20
-111.0012886685192
 30
0.0
 11
685.0885866859125
 21
-111.0012886685192
 31
0.0
  0
LINE
  5
B2
102
{ACAD_REACTORS
330
EB
330
EB
102
}
330
3A
100
AcDbEntity
  8
0
  6
Continuous
 62
     7
100
AcDbLine
 10
685.7285866859126
 20
-114.2012886685192
 30
0.0
 11
685.7285866859126
 21
-111.0012886685192
 31
0.0
  0
LINE
  5
B3
102
{ACAD_REACTORS
330
EB
330
EB
102
}
330
3A
100
AcDbEntity
  8
0
  6
Continuous
 62
     7
100
AcDbLine
 10
685.0885866859125
 20
-114.2012886685192
 30
0.0
 11
685.7285866859126
 21
-114.2012886685192
 31
0.0
  0
LINE
  5
B4
330
3A
100
AcDbEntity
  8
0
  6
Continuous
 62
     7
100
AcDbLine
 10
528.6285866859126
 20
-95.10128866851929
 30
0.0
 11
698.6285866859125
 21
-95.10128866851929
 31
0.0
  0
ARC
  5
B5
102
{ACAD_REACTORS
330
E6
330
E6
102
}
330
3A
100
AcDbEntity
  8
1
  6
Continuous
 62
     7
100
AcDbCircle
 10
666.5285866859126
 20
-112.6012886685193
 30
0.0
 40
1.999999999999929
100
AcDbArc
 50
-58.85400800161334
 51
-1.14599199838565
  0
ARC
  5
B6
102
{ACAD_REACTORS
330
E6
330
E6
102
}
330
3A
100
AcDbEntity
  8
1
  6
Continuous
 62
     7
100
AcDbCircle
 10
666.5285866859126
 20
-112.6012886685193
 30
0.0
 40
1.999999999999883
100
AcDbArc
 50
-178.8540080016144
 51
-121.1459919983895
  0
ARC
  5
B7
102
{ACAD_REACTORS
330
E6
330
E6
102
}
330
3A
100
AcDbEntity
  8
1
  6
Continuous
 62
     7
100
AcDbCircle
 10
666.5285866859126
 20
-112.6012886685193
 30
0.0
 40
2.000000000000115
100
AcDbArc
 50
61.14599199838735
 51
118.8540080016155
  0
ARC
  5
B8
102
{ACAD_REACTORS
330
E6
330
E6
102
}
330
3A
100
AcDbEntity
  8
1
  6
Continuous
 62
     7
100
AcDbCircle
 10
666.5285866859126
 20
-112.6012886685193
 30
0.0
 40
1.599999999999957
100
AcDbArc
 50
121.4325437375657
 51
178.5674562624297
  0
ARC
  5
B9
102
{ACAD_REACTORS
330
E6
330
E6
102
}
330
3A
100
AcDbEntity
  8
1
  6
Continuous
 62
     7
100
AcDbCircle
 10
666.5285866859126
 20
-112.6012886685193
 30
0.0
 40
1.680000000000021
100
AcDbArc
 50
121.3643141506694
 51
178.6356858493307
  0
ARC
  5
BA
102
{ACAD_REACTORS
330
E6
330
E6
102
}
330
3A
100
AcDbEntity
  8
1
  6
Continuous
 62
     7
100
AcDbCircle
 10
666.5285866859126
 20
-112.6012886685193
 30
0.0
 40
2.0
100
AcDbArc
 50
121.1459919983892
 51
178.8540080016083
  0
ARC
  5
BB
102
{ACAD_REACTORS
330
E6
330
E6
102
}
330
3A
100
AcDbEntity
  8
1
  6
Continuous
 62
     7
100
AcDbCircle
 10
666.5285866859126
 20
-112.6012886685193
 30
0.0
 40
1.600000000000105
100
AcDbArc
 50
1.4325437375702
 51
58.56745626243087
  0
ARC
  5
BC
102
{ACAD_REACTORS
330
E6
330
E6
102
}
330
3A
100
AcDbEntity
  8
1
  6
Continuous
 62
     7
100
AcDbCircle
 10
666.5285866859126
 20
-112.6012886685193
 30
0.0
 40
1.68000000000005
100
AcDbArc
 50
1.3643141506694
 51
58.63568584933391
  0
ARC
  5
BD
102
{ACAD_REACTORS
330
E6
330
E6
102
}
330
3A
100
AcDbEntity
  8
1
  6
Continuous
 62
     7
100
AcDbCircle
 10
666.5285866859126
 20
-112.6012886685193
 30
0.0
 40
1.999999999999774
100
AcDbArc
 50
1.14599199839175
 51
58.85400800161356
  0
ARC
  5
BE
102
{ACAD_REACTORS
330
E6
330
E6
102
}
330
3A
100
AcDbEntity
  8
1
  6
Continuous
 62
     7
100
AcDbCircle
 10
666.5285866859126
 20
-112.6012886685193
 30
0.0
 40
1.999999999999996
100
AcDbArc
 50
-118.8540080016183
 51
-61.1459919983846
  0
ARC
  5
BF
102
{ACAD_REACTORS
330
E6
330
E6
102
}
330
3A
100
AcDbEntity
  8
1
  6
Continuous
 62
     7
100
AcDbCircle
 10
666.5285866859126
 20
-112.6012886685193
 30
0.0
 40
1.679999999999903
100
AcDbArc
 50
-118.6356858493383
 51
-61.36431415066847
  0
ARC
  5
C0
102
{ACAD_REACTORS
330
E6
330
E6
102
}
330
3A
100
AcDbEntity
  8
1
  6
Continuous
 62
     7
100
AcDbCircle
 10
666.5285866859126
 20
-112.6012886685193
 30
0.0
 40
1.5999999999999
100
AcDbArc
 50
-118.5674562624368
 51
-61.43254373756684
  0
ARC
  5
C1
102
{ACAD_REACTORS
330
E7
330
E7
102
}
330
3A
100
AcDbEntity
  8
1
  6
Continuous
 62
     7
100
AcDbCircle
 10
678.3525866859128
 20
-113.7212886685191
 30
0.0
 40
0.4800000000001556
100
AcDbArc
 50
-157.6492430580845
 51
0.0
  0
ARC
  5
C2
102
{ACAD_REACTORS
330
E7
330
E7
102
}
330
3A
100
AcDbEntity
  8
1
  6
Continuous
 62
     7
100
AcDbCircle
 10
676.9125866859126
 20
-111.4812886685193
 30
0.0
 40
0.4800000000000505
100
AcDbArc
 50
22.35075694192069
 51
180.0
  0
ARC
  5
C3
102
{ACAD_REACTORS
330
E8
330
E8
102
}
330
3A
100
AcDbEntity
  8
0
  6
Continuous
 62
     7
100
AcDbCircle
 10
671.0485866859125
 20
-111.9212886685193
 30
0.0
 40
0.4399999999999977
100
AcDbArc
 50
90.0
 51
-90.0
  0
ARC
  5
C4
102
{ACAD_REACTORS
330
E8
330
E8
102
}
330
3A
100
AcDbEntity
  8
0
  6
Continuous
 62
     7
100
AcDbCircle
 10
671.6085866859125
 20
-113.2812886685192
 30
0.0
 40
0.9200000000000017
100
AcDbArc
 50
-90.0
 51
90.0
  0
ARC
  5
C5
102
{ACAD_REACTORS
330
E8
330
E8
102
}
330
3A
100
AcDbEntity
  8
0
  6
Continuous
 62
     7
100
AcDbCircle
 10
671.6085866859125
 20
-113.2812886685192
 30
0.0
 40
0.4400000000001114
100
AcDbArc
 50
-90.0
 51
90.0
  0
ARC
  5
C6
102
{ACAD_REACTORS
330
E8
330
E8
102
}
330
3A
100
AcDbEntity
  8
0
  6
Continuous
 62
     7
100
AcDbCircle
 10
671.0485866859125
 20
-111.9212886685193
 30
0.0
 40
0.9200000000001012
100
AcDbArc
 50
90.0
 51
-90.0
  0
ARC
  5
C7
102
{ACAD_REACTORS
330
E9
330
E9
102
}
330
3A
100
AcDbEntity
  8
0
  6
Continuous
 62
     7
100
AcDbCircle
 10
674.4805866859125
 20
-112.2012886685192
 30
0.0
 40
1.200000000000046
100
AcDbArc
 50
0.0
 51
180.0
  0
ARC
  5
C8
102
{ACAD_REACTORS
330
E9
330
E9
102
}
330
3A
100
AcDbEntity
  8
0
  6
Continuous
 62
     7
100
AcDbCircle
 10
674.4805866859125
 20
-112.2012886685192
 30
0.0
 40
0.720000000000141
100
AcDbArc
 50
0.0
 51
180.0
  0
CIRCLE
  5
C9
102
{ACAD_REACTORS
330
E4
330
E4
102
}
330
3A
100
AcDbEntity
  8
1
  6
Continuous
 62
     7
100
AcDbCircle
 10
666.5285866859126
 20
-112.6012886685193
 30
0.0
 40
2.480000000000004
  0
CIRCLE
  5
CA
102
{ACAD_REACTORS
330
E4
330
E4
102
}
330
3A
100
AcDbEntity
  8
1
  6
Continuous
 62
     7
100
AcDbCircle
 10
666.5285866859126
 20
-112.6012886685193
 30
0.0
 40
2.400000000000105
  0
CIRCLE
  5
CB
102
{ACAD_REACTORS
330
E6
330
E6
102
}
330
3A
100
AcDbEntity
  8
1
  6
Continuous
 62
     7
100
AcDbCircle
 10
666.5285866859126
 20
-112.6012886685193
 30
0.0
 40
2.080000000000098
  0
ARC
  5
CC
102
{ACAD_REACTORS
330
E5
330
E5
102
}
330
3A
100
AcDbEntity
  8
1
  6
Continuous
 62
     7
100
AcDbCircle
 10
682.5765866859126
 20
-111.6412886685192
 30
0.0
 40
0.1599999999998971
100
AcDbArc
 50
90.0
 51
180.0
  0
ARC
  5
CD
102
{ACAD_REACTORS
330
E5
330
E5
102
}
330
3A
100
AcDbEntity
  8
1
  6
Continuous
 62
     7
100
AcDbCircle
 10
682.5765866859126
 20
-113.5612886685192
 30
0.0
 40
0.1600000000000819
100
AcDbArc
 50
180.0
 51
-90.0
  0
ARC
  5
CE
102
{ACAD_REACTORS
330
E5
330
E5
102
}
330
3A
100
AcDbEntity
  8
1
  6
Continuous
 62
     7
100
AcDbCircle
 10
682.3365866859125
 20
-113.8012886685193
 30
0.0
 40
0.3999999999999773
100
AcDbArc
 50
180.0
 51
-90.0
  0
ARC
  5
CF
102
{ACAD_REACTORS
330
E5
330
E5
102
}
330
3A
100
AcDbEntity
  8
1
  6
Continuous
 62
     7
100
AcDbCircle
 10
682.3365866859125
 20
-111.4012886685192
 30
0.0
 40
0.4000000000000057
100
AcDbArc
 50
90.0
 51
180.0
  0
MTEXT
  5
D1
330
3A
100
AcDbEntity
  8
1
 62
     2
100
AcDbMText
 10
531.1285866859125
 20
144.898711331481
 30
0.0
 40
4.5
 41
0.0
 71
     5
 72
     1
  1
図番
  7
CONVERTER_2
 73
     1
 44
0.7202881152461
  0
MTEXT
  5
D2
330
3A
100
AcDbEntity
  8
1
 62
     2
100
AcDbMText
 10
684.7699611120117
 20
-119.6012886685193
 30
0.0
 40
3.0
 41
0.0
 71
     5
 72
     1
  1
三栄水栓製作所
  7
CONVERTER_2
 73
     1
 44
1.32052821128451
  0
MTEXT
  5
D3
330
3A
100
AcDbEntity
  8
1
 62
     2
100
AcDbMText
 10
667.4872122598132
 20
-119.6012886685193
 30
0.0
 40
2.5
 41
0.0
 71
     5
 72
     1
  1
株式会社
  7
CONVERTER_2
 73
     1
 44
1.32052821128451
  0
MTEXT
  5
D4
330
3A
100
AcDbEntity
  8
1
 62
     2
100
AcDbMText
 10
651.1285866859125
 20
-119.6012886685193
 30
0.0
 40
4.0
 41
0.0
 71
     5
 72
     1
  1
計
  7
CONVERTER_2
 73
     1
 44
1.32052821128451
  0
MTEXT
  5
D5
330
3A
100
AcDbEntity
  8
1
 62
     2
100
AcDbMText
 10
651.1285866859125
 20
-112.6012886685193
 30
0.0
 40
4.0
 41
0.0
 71
     5
 72
     1
  1
設
  7
CONVERTER_2
 73
     1
 44
1.32052821128451
  0
MTEXT
  5
D6
330
3A
100
AcDbEntity
  8
1
 62
     2
100
AcDbMText
 10
638.1285866859125
 20
-119.6012886685193
 30
0.0
 40
4.0
 41
0.0
 71
     5
 72
     1
  1
図
  7
CONVERTER_2
 73
     1
 44
1.32052821128451
  0
MTEXT
  5
D7
330
3A
100
AcDbEntity
  8
1
 62
     2
100
AcDbMText
 10
638.1285866859125
 20
-112.6012886685193
 30
0.0
 40
4.0
 41
0.0
 71
     5
 72
     1
  1
製
  7
CONVERTER_2
 73
     1
 44
1.32052821128451
  0
MTEXT
  5
D8
330
3A
100
AcDbEntity
  8
1
 62
     2
100
AcDbMText
 10
625.1285866859125
 20
-119.6012886685193
 30
0.0
 40
4.0
 41
0.0
 71
     5
 72
     1
  1
図
  7
CONVERTER_2
 73
     1
 44
1.32052821128451
  0
MTEXT
  5
D9
330
3A
100
AcDbEntity
  8
1
 62
     2
100
AcDbMText
 10
625.1285866859125
 20
-112.6012886685193
 30
0.0
 40
4.0
 41
0.0
 71
     5
 72
     1
  1
検
  7
CONVERTER_2
 73
     1
 44
1.32052821128451
  0
MTEXT
  5
DA
330
3A
100
AcDbEntity
  8
1
 62
     2
100
AcDbMText
 10
612.1285866859126
 20
-119.6012886685193
 30
0.0
 40
4.0
 41
0.0
 71
     5
 72
     1
  1
認
  7
CONVERTER_2
 73
     1
 44
1.32052821128451
  0
MTEXT
  5
DB
330
3A
100
AcDbEntity
  8
1
 62
     2
100
AcDbMText
 10
612.1285866859126
 20
-112.6012886685193
 30
0.0
 40
4.0
 41
0.0
 71
     5
 72
     1
  1
承
  7
CONVERTER_2
 73
     1
 44
1.32052821128451
  0
MTEXT
  5
DC
330
3A
100
AcDbEntity
  8
1
 62
     2
100
AcDbMText
 10
598.1285866859126
 20
-119.6012886685193
 30
0.0
 40
4.0
 41
0.0
 71
     5
 72
     1
  1
度
  7
CONVERTER_2
 73
     1
 44
1.32052821128451
  0
MTEXT
  5
DD
330
3A
100
AcDbEntity
  8
1
 62
     2
100
AcDbMText
 10
598.1285866859126
 20
-112.6012886685193
 30
0.0
 40
4.0
 41
0.0
 71
     5
 72
     1
  1
尺
  7
CONVERTER_2
 73
     1
 44
1.32052821128451
  0
MTEXT
  5
DE
330
3A
100
AcDbEntity
  8
1
 62
     2
100
AcDbMText
 10
571.1285866859126
 20
-119.6012886685193
 30
0.0
 40
4.0
 41
0.0
 71
     5
 72
     1
  1
番
  7
CONVERTER_2
 73
     1
 44
1.32052821128451
  0
MTEXT
  5
DF
330
3A
100
AcDbEntity
  8
1
 62
     2
100
AcDbMText
 10
571.1285866859126
 20
-112.6012886685193
 30
0.0
 40
4.0
 41
0.0
 71
     5
 72
     1
  1
品
  7
CONVERTER_2
 73
     1
 44
1.32052821128451
  0
MTEXT
  5
E0
330
3A
100
AcDbEntity
  8
1
 62
     2
100
AcDbMText
 10
526.1285866859126
 20
-119.6012886685193
 30
0.0
 40
4.0
 41
0.0
 71
     5
 72
     1
  1
名
  7
CONVERTER_2
 73
     1
 44
1.32052821128451
  0
MTEXT
  5
E1
330
3A
100
AcDbEntity
  8
1
 62
     2
100
AcDbMText
 10
526.1285866859126
 20
-112.6012886685193
 30
0.0
 40
4.0
 41
0.0
 71
     5
 72
     1
  1
品
  7
CONVERTER_2
 73
     1
 44
1.32052821128451
  0
MTEXT
  5
E2
330
3A
100
AcDbEntity
  8
1
 62
     2
100
AcDbMText
 10
526.1285866859126
 20
-98.60128866851929
 30
0.0
 40
4.0
 41
0.0
 71
     5
 72
     1
  1
備
  7
CONVERTER_2
 73
     1
 44
1.32052821128451
  0
MTEXT
  5
E3
330
3A
100
AcDbEntity
  8
1
 62
     2
100
AcDbMText
 10
526.1285866859126
 20
-105.6012886685193
 30
0.0
 40
4.0
 41
0.0
 71
     5
 72
     1
  1
考
  7
CONVERTER_2
 73
     1
 44
1.32052821128451
  0
HATCH
  5
E4
330
3A
100
AcDbEntity
  8
1
  6
Continuous
 62
     2
100
AcDbHatch
 10
0.0
 20
0.0
 30
0.0
210
0.0
220
0.0
230
1.0
  2
_USER
 70
     0
 71
     1
 91
        2
 92
        1
 93
        1
 72
     2
 10
666.5285866859126
 20
-112.6012886685193
 40
2.480000000000004
 50
0.0
 51
360.0
 73
     1
 97
        1
330
C9
 92
       16
 93
        1
 72
     2
 10
666.5285866859126
 20
-112.6012886685193
 40
2.400000000000105
 50
0.0
 51
360.0
 73
     1
 97
        1
330
CA
 75
     1
 76
     0
 52
45.0
 41
0.2
 77
     0
 78
     1
 53
45.0
 43
0.0
 44
0.0
 45
-0.1414213562373095
 46
0.1414213562373095
 79
     0
 98
        1
 10
0.0
 20
0.0
  0
HATCH
  5
E5
330
3A
100
AcDbEntity
  8
0
  6
Continuous
 62
     2
100
AcDbHatch
 10
0.0
 20
0.0
 30
0.0
210
0.0
220
0.0
230
1.0
  2
_USER
 70
     0
 71
     1
 91
        1
 92
        1
 93
       16
 72
     1
 10
684.3365866859125
 20
-111.0012886685192
 11
682.3365866859125
 21
-111.0012886685192
 72
     2
 10
682.3365866859125
 20
-111.4012886685192
 40
0.4000000000000057
 50
90.0
 51
180.0
 73
     1
 72
     1
 10
681.9365866859125
 20
-111.4012886685192
 11
681.9365866859125
 21
-113.8012886685193
 72
     2
 10
682.3365866859125
 20
-113.8012886685193
 40
0.3999999999999773
 50
180.0
 51
270.0
 73
     1
 72
     1
 10
682.3365866859125
 20
-114.2012886685192
 11
684.3365866859125
 21
-114.2012886685192
 72
     1
 10
684.3365866859125
 20
-114.2012886685192
 11
684.3365866859125
 21
-113.7212886685191
 72
     1
 10
684.3365866859125
 20
-113.7212886685191
 11
682.5765866859126
 21
-113.7212886685193
 72
     2
 10
682.5765866859126
 20
-113.5612886685192
 40
0.1600000000000819
 50
90.0
 51
180.0
 73
     0
 72
     1
 10
682.4165866859125
 20
-113.5612886685192
 11
682.4165866859125
 21
-112.8412886685193
 72
     1
 10
682.4165866859125
 20
-112.8412886685193
 11
684.3365866859125
 21
-112.8412886685193
 72
     1
 10
684.3365866859125
 20
-112.8412886685193
 11
684.3365866859125
 21
-112.3612886685193
 72
     1
 10
684.3365866859125
 20
-112.3612886685193
 11
682.4165866859125
 21
-112.3612886685193
 72
     1
 10
682.4165866859125
 20
-112.3612886685193
 11
682.4165866859125
 21
-111.6412886685192
 72
     2
 10
682.5765866859126
 20
-111.6412886685192
 40
0.1599999999998971
 50
180.0
 51
270.0
 73
     0
 72
     1
 10
682.5765866859126
 20
-111.4812886685193
 11
684.3365866859125
 21
-111.4812886685193
 72
     1
 10
684.3365866859125
 20
-111.4812886685193
 11
684.3365866859125
 21
-111.0012886685192
 97
       16
330
A6
330
CF
330
A5
330
CE
330
A4
330
AF
330
AE
330
CD
330
AD
330
AC
330
AB
330
AA
330
A9
330
CC
330
A8
330
A7
 75
     1
 76
     0
 52
45.0
 41
0.2
 77
     0
 78
     1
 53
45.0
 43
0.0
 44
0.0
 45
-0.1414213562373095
 46
0.1414213562373095
 79
     0
 98
        1
 10
0.0
 20
0.0
  0
HATCH
  5
E6
330
3A
100
AcDbEntity
  8
1
  6
Continuous
 62
     2
100
AcDbHatch
 10
0.0
 20
0.0
 30
0.0
210
0.0
220
0.0
230
1.0
  2
_USER
 70
     0
 71
     1
 91
       10
 92
        1
 93
        1
 72
     2
 10
666.5285866859126
 20
-112.6012886685193
 40
2.080000000000098
 50
0.0
 51
360.0
 73
     1
 97
        1
330
CB
 92
       16
 93
        3
 72
     2
 10
666.5285866859126
 20
-112.6012886685193
 40
1.999999999999929
 50
301.1459919983867
 51
358.8540080016143
 73
     1
 72
     1
 10
668.5281866459044
 20
-112.6412886685192
 11
666.5978687182152
 21
-112.6412886685192
 72
     1
 10
666.5978687182152
 20
-112.6412886685192
 11
667.5630276820599
 21
-114.3129930312787
 97
        3
330
B5
330
7E
330
82
 92
       16
 93
        3
 72
     2
 10
666.5285866859126
 20
-112.6012886685193
 40
1.999999999999883
 50
181.1459919983856
 51
238.8540080016106
 73
     1
 72
     1
 10
665.4941456897652
 20
-114.3129930312787
 11
666.4593046536099
 21
-112.6412886685192
 72
     1
 10
666.4593046536099
 20
-112.6412886685192
 11
664.5289867259207
 21
-112.6412886685192
 97
        3
330
B6
330
85
330
7D
 92
       16
 93
        3
 72
     2
 10
666.5285866859126
 20
-112.6012886685193
 40
2.000000000000115
 50
61.14599199838735
 51
118.8540080016155
 73
     1
 72
     1
 10
665.5634277220678
 20
-110.8495843057598
 11
666.5285866859126
 21
-112.5212886685192
 72
     1
 10
666.5285866859126
 20
-112.5212886685192
 11
667.4937456497573
 21
-110.8495843057598
 97
        3
330
B7
330
7A
330
81
 92
       16
 93
        3
 72
     2
 10
666.5285866859126
 20
-112.6012886685193
 40
1.599999999999957
 50
121.4325437375657
 51
178.5674562624297
 73
     1
 72
     1
 10
664.9290867640621
 20
-112.5612886685192
 11
666.4593046536099
 21
-112.5612886685192
 72
     1
 10
666.4593046536099
 20
-112.5612886685192
 11
665.694195708836
 21
-111.2360811028455
 97
        3
330
B8
330
7C
330
7B
 92
       16
 93
        4
 72
     2
 10
666.5285866859126
 20
-112.6012886685193
 40
2.0
 50
121.1459919983892
 51
178.8540080016083
 73
     1
 72
     1
 10
664.5289867259207
 20
-112.5612886685192
 11
664.8490629438951
 21
-112.5612886685192
 72
     2
 10
666.5285866859126
 20
-112.6012886685193
 40
1.680000000000021
 50
181.3643141506693
 51
238.6356858493306
 73
     0
 72
     1
 10
665.6541837987525
 20
-111.1667784416732
 11
665.4941456897652
 21
-110.8895843057599
 97
        4
330
BA
330
79
330
B9
330
78
 92
       16
 93
        3
 72
     2
 10
666.5285866859126
 20
-112.6012886685193
 40
1.600000000000105
 50
1.4325437375702
 51
58.56745626243087
 73
     1
 72
     1
 10
667.3629776629894
 20
-111.2360811028455
 11
666.5978687182152
 21
-112.5612886685192
 72
     1
 10
666.5978687182152
 20
-112.5612886685192
 11
668.1280866077633
 21
-112.5612886685192
 97
        3
330
BB
330
80
330
7F
 92
       16
 93
        4
 72
     2
 10
666.5285866859126
 20
-112.6012886685193
 40
1.999999999999774
 50
1.145991998391752
 51
58.85400800161356
 73
     1
 72
     1
 10
667.5630276820599
 20
-110.8895843057599
 11
667.4029895730727
 21
-111.1667784416732
 72
     2
 10
666.5285866859126
 20
-112.6012886685193
 40
1.68000000000005
 50
301.3643141506661
 51
358.6356858493306
 73
     0
 72
     1
 10
668.20811042793
 20
-112.5612886685192
 11
668.5281866459044
 21
-112.5612886685192
 97
        4
330
BD
330
74
330
BC
330
75
 92
       16
 93
        4
 72
     2
 10
666.5285866859126
 20
-112.6012886685193
 40
1.679999999999903
 50
241.3643141506617
 51
298.6356858493315
 73
     1
 72
     1
 10
667.3337075407698
 20
-114.0757988953653
 11
667.4937456497573
 21
-114.3529930312786
 72
     2
 10
666.5285866859126
 20
-112.6012886685193
 40
1.999999999999996
 50
61.1459919983846
 51
118.8540080016183
 73
     0
 72
     1
 10
665.5634277220678
 20
-114.3529930312786
 11
665.7234658310553
 21
-114.0757988953653
 97
        4
330
BF
330
76
330
BE
330
77
 92
       16
 93
        3
 72
     2
 10
666.5285866859126
 20
-112.6012886685193
 40
1.5999999999999
 50
241.4325437375633
 51
298.5674562624332
 73
     1
 72
     1
 10
667.2936956306864
 20
-114.006496234193
 11
666.5285866859126
 21
-112.6812886685193
 72
     1
 10
666.5285866859126
 20
-112.6812886685193
 11
665.7634777411387
 21
-114.006496234193
 97
        3
330
C0
330
83
330
84
 75
     1
 76
     0
 52
45.0
 41
0.2
 77
     0
 78
     1
 53
45.0
 43
0.0
 44
0.0
 45
-0.1414213562373095
 46
0.1414213562373095
 79
     0
 98
        1
 10
0.0
 20
0.0
  0
HATCH
  5
E7
330
3A
100
AcDbEntity
  8
1
  6
Continuous
 62
     2
100
AcDbHatch
 10
0.0
 20
0.0
 30
0.0
210
0.0
220
0.0
230
1.0
  2
_USER
 70
     0
 71
     1
 91
        1
 92
        1
 93
       10
 72
     2
 10
676.9125866859126
 20
-111.4812886685193
 40
0.4800000000000505
 50
22.35075694192069
 51
180.0
 73
     1
 72
     1
 10
676.4325866859125
 20
-111.4812886685193
 11
676.4325866859125
 21
-114.2012886685192
 72
     1
 10
676.4325866859125
 20
-114.2012886685192
 11
676.9125866859126
 21
-114.2012886685192
 72
     1
 10
676.9125866859126
 20
-114.2012886685192
 11
676.9125866859126
 21
-111.4812886685193
 72
     1
 10
676.9125866859126
 20
-111.4812886685193
 11
677.9086475478117
 21
-113.9038209715841
 72
     2
 10
678.3525866859128
 20
-113.7212886685191
 40
0.4800000000001556
 50
202.3507569419155
 51
360.0
 73
     1
 72
     1
 10
678.8325866859126
 20
-113.7212886685191
 11
678.8325866859126
 21
-111.0012886685192
 72
     1
 10
678.8325866859126
 20
-111.0012886685192
 11
678.3525866859128
 21
-111.0012886685192
 72
     1
 10
678.3525866859128
 20
-111.0012886685192
 11
678.3525866859128
 21
-113.7212886685191
 72
     1
 10
678.3525866859128
 20
-113.7212886685191
 11
677.3565258240136
 21
-111.2987563654543
 97
       10
330
C2
330
89
330
8A
330
8B
330
8C
330
C1
330
86
330
87
330
88
330
8D
 75
     1
 76
     0
 52
45.0
 41
0.2
 77
     0
 78
     1
 53
45.0
 43
0.0
 44
0.0
 45
-0.1414213562373095
 46
0.1414213562373095
 79
     0
 98
        1
 10
0.0
 20
0.0
  0
HATCH
  5
E8
330
3A
100
AcDbEntity
  8
0
  6
Continuous
 62
     2
100
AcDbHatch
 10
0.0
 20
0.0
 30
0.0
210
0.0
220
0.0
230
1.0
  2
_USER
 70
     0
 71
     1
 91
        1
 92
        1
 93
       12
 72
     2
 10
671.0485866859125
 20
-111.9212886685193
 40
0.9200000000001012
 50
90.0
 51
270.0
 73
     1
 72
     1
 10
671.0485866859125
 20
-112.8412886685193
 11
671.6085866859125
 21
-112.8412886685193
 72
     2
 10
671.6085866859125
 20
-113.2812886685192
 40
0.4400000000001114
 50
270.0
 51
450.0
 73
     0
 72
     1
 10
671.6085866859125
 20
-113.7212886685193
 11
670.1285866859125
 21
-113.7212886685193
 72
     1
 10
670.1285866859125
 20
-113.7212886685193
 11
670.1285866859125
 21
-114.2012886685192
 72
     1
 10
670.1285866859125
 20
-114.2012886685192
 11
671.6085866859125
 21
-114.2012886685192
 72
     2
 10
671.6085866859125
 20
-113.2812886685192
 40
0.9200000000000017
 50
270.0
 51
450.0
 73
     1
 72
     1
 10
671.6085866859125
 20
-112.3612886685193
 11
671.0485866859125
 21
-112.3612886685193
 72
     2
 10
671.0485866859125
 20
-111.9212886685193
 40
0.4399999999999977
 50
90.0
 51
270.0
 73
     0
 72
     1
 10
671.0485866859125
 20
-111.4812886685193
 11
672.3685866859125
 21
-111.4812886685193
 72
     1
 10
672.3685866859125
 20
-111.4812886685193
 11
672.3685866859125
 21
-111.0012886685192
 72
     1
 10
672.3685866859125
 20
-111.0012886685192
 11
671.0485866859125
 21
-111.0012886685192
 97
       12
330
C6
330
93
330
C5
330
92
330
91
330
90
330
C4
330
8F
330
C3
330
8E
330
95
330
94
 75
     1
 76
     0
 52
45.0
 41
0.2
 77
     0
 78
     1
 53
45.0
 43
0.0
 44
0.0
 45
-0.1414213562373095
 46
0.1414213562373095
 79
     0
 98
        1
 10
0.0
 20
0.0
  0
HATCH
  5
E9
330
3A
100
AcDbEntity
  8
0
  6
Continuous
 62
     2
100
AcDbHatch
 10
0.0
 20
0.0
 30
0.0
210
0.0
220
0.0
230
1.0
  2
_USER
 70
     0
 71
     1
 91
        2
 92
        1
 93
        8
 72
     2
 10
674.4805866859125
 20
-112.2012886685192
 40
1.200000000000046
 50
0.0
 51
180.0
 73
     1
 72
     1
 10
673.2805866859125
 20
-112.2012886685192
 11
673.2805866859125
 21
-114.2012886685192
 72
     1
 10
673.2805866859125
 20
-114.2012886685192
 11
673.7605866859125
 21
-114.2012886685192
 72
     1
 10
673.7605866859125
 20
-114.2012886685192
 11
673.7605866859125
 21
-113.5612886685192
 72
     1
 10
673.7605866859125
 20
-113.5612886685192
 11
675.2005866859126
 21
-113.5612886685192
 72
     1
 10
675.2005866859126
 20
-113.5612886685192
 11
675.2005866859126
 21
-114.2012886685192
 72
     1
 10
675.2005866859126
 20
-114.2012886685192
 11
675.6805866859125
 21
-114.2012886685192
 72
     1
 10
675.6805866859125
 20
-114.2012886685192
 11
675.6805866859125
 21
-112.2012886685192
 97
        8
330
C7
330
9B
330
9A
330
9F
330
97
330
96
330
9D
330
9C
 92
       16
 93
        4
 72
     2
 10
674.4805866859125
 20
-112.2012886685192
 40
0.720000000000141
 50
0.0
 51
180.0
 73
     1
 72
     1
 10
673.7605866859125
 20
-112.2012886685192
 11
673.7605866859125
 21
-113.0812886685192
 72
     1
 10
673.7605866859125
 20
-113.0812886685192
 11
675.2005866859126
 21
-113.0812886685192
 72
     1
 10
675.2005866859126
 20
-113.0812886685192
 11
675.2005866859126
 21
-112.2012886685192
 97
        4
330
C8
330
98
330
99
330
9E
 75
     1
 76
     0
 52
45.0
 41
0.2
 77
     0
 78
     1
 53
45.0
 43
0.0
 44
0.0
 45
-0.1414213562373095
 46
0.1414213562373095
 79
     0
 98
        1
 10
0.0
 20
0.0
  0
HATCH
  5
EA
330
3A
100
AcDbEntity
  8
0
  6
Continuous
 62
     2
100
AcDbHatch
 10
0.0
 20
0.0
 30
0.0
210
0.0
220
0.0
230
1.0
  2
_USER
 70
     0
 71
     1
 91
        1
 92
        1
 93
        4
 72
     1
 10
681.1845866859125
 20
-112.3212886685192
 11
679.5845866859127
 21
-112.3212886685192
 72
     1
 10
679.5845866859127
 20
-112.3212886685192
 11
679.5845866859127
 21
-112.8812886685192
 72
     1
 10
679.5845866859127
 20
-112.8812886685192
 11
681.1845866859125
 21
-112.8812886685192
 72
     1
 10
681.1845866859125
 20
-112.8812886685192
 11
681.1845866859125
 21
-112.3212886685192
 97
        4
330
A1
330
A0
330
A3
330
A2
 75
     1
 76
     0
 52
45.0
 41
0.2
 77
     0
 78
     1
 53
45.0
 43
0.0
 44
0.0
 45
-0.1414213562373095
 46
0.1414213562373095
 79
     0
 98
        1
 10
0.0
 20
0.0
  0
HATCH
  5
EB
330
3A
100
AcDbEntity
  8
0
  6
Continuous
 62
     2
100
AcDbHatch
 10
0.0
 20
0.0
 30
0.0
210
0.0
220
0.0
230
1.0
  2
_USER
 70
     0
 71
     1
 91
        1
 92
        1
 93
        4
 72
     1
 10
685.7285866859126
 20
-111.0012886685192
 11
685.0885866859125
 21
-111.0012886685192
 72
     1
 10
685.0885866859125
 20
-111.0012886685192
 11
685.0885866859125
 21
-114.2012886685192
 72
     1
 10
685.0885866859125
 20
-114.2012886685192
 11
685.7285866859126
 21
-114.2012886685192
 72
     1
 10
685.7285866859126
 20
-114.2012886685192
 11
685.7285866859126
 21
-111.0012886685192
 97
        4
330
B1
330
B0
330
B3
330
B2
 75
     1
 76
     0
 52
45.0
 41
0.2
 77
     0
 78
     1
 53
45.0
 43
0.0
 44
0.0
 45
-0.1414213562373095
 46
0.1414213562373095
 79
     0
 98
        1
 10
0.0
 20
0.0
  0
ENDBLK
  5
3C
330
3A
100
AcDbEntity
  8
0
100
AcDbBlockEnd
  0
BLOCK
  5
3F
330
3D
100
AcDbEntity
  8
0
100
AcDbBlockBegin
  2
_J___cHP-A4
 70
     0
 71
     0
 10
534.8948288710039
 20
214.09261376083
 30
0.0
  3
_J___cHP-A4
  1

  0
INSERT
  5
3E
330
3D
100
AcDbEntity
  8
1
100
AcDbBlockReference
  2
_g__HP-A4
 10
250.8030965168007
 20
-187.6857184342012
 30
0.0
 41
1.5
 42
1.5
 43
1.5
  0
ENDBLK
  5
40
330
3D
100
AcDbEntity
  8
0
100
AcDbBlockEnd
  0
BLOCK
  5
26D
330
266
100
AcDbEntity
  8
0
100
AcDbBlockBegin
  2
*D04
 70
     1
 71
     0
 10
0.0
 20
0.0
 30
0.0
  3
*D04
  1

  0
LINE
  5
267
330
266
100
AcDbEntity
  8
1
  6
Continuous
 62
     2
100
AcDbLine
 10
27.42344081376136
 20
-34.10668946921788
 30
0.0
 11
27.42344081376136
 21
9.39331053078212
 31
0.0
  0
LINE
  5
268
330
266
100
AcDbEntity
  8
1
  6
Continuous
 62
     2
100
AcDbLine
 10
87.97007363055036
 20
-34.10668946921788
 30
0.0
 11
24.42344081376136
 21
-34.10668946921788
 31
0.0
  0
LINE
  5
269
330
266
100
AcDbEntity
  8
1
  6
Continuous
 62
     2
100
AcDbLine
 10
39.76959755342796
 20
9.39331053078212
 30
0.0
 11
24.42344081376136
 21
9.39331053078212
 31
0.0
  0
SOLID
  5
26A
330
266
100
AcDbEntity
  8
1
 62
     2
100
AcDbTrace
 10
26.73226520142753
 20
-28.85668946921788
 30
0.0
 11
28.11461642609519
 21
-28.85668946921788
 31
0.0
 12
27.42344081376136
 22
-34.10668946921788
 32
0.0
 13
27.42344081376136
 23
-34.10668946921788
 33
0.0
  0
SOLID
  5
26B
330
266
100
AcDbEntity
  8
1
 62
     2
100
AcDbTrace
 10
28.11461642609519
 20
4.14331053078212
 30
0.0
 11
26.73226520142753
 21
4.14331053078212
 31
0.0
 12
27.42344081376136
 22
9.39331053078212
 32
0.0
 13
27.42344081376136
 23
9.39331053078212
 33
0.0
  0
MTEXT
  5
26C
330
266
100
AcDbEntity
  8
1
 62
     7
100
AcDbMText
 10
24.42344081376136
 20
-16.40675579497997
 30
0.0
 40
4.5
 41
0.0
 71
     7
 72
     1
  1
44
  7
CONVERTER_1
 11
0.0
 21
1.0
 31
0.0
 73
     1
 44
0.60024009603842
  0
ENDBLK
  5
26E
330
266
100
AcDbEntity
  8
0
100
AcDbBlockEnd
  0
BLOCK
  5
278
330
271
100
AcDbEntity
  8
0
100
AcDbBlockBegin
  2
*D15
 70
     1
 71
     0
 10
0.0
 20
0.0
 30
0.0
  3
*D15
  1

  0
LINE
  5
272
330
271
100
AcDbEntity
  8
1
  6
Continuous
 62
     2
100
AcDbLine
 10
27.42344081376132
 20
22.31752763887698
 30
0.0
 11
27.42344081376132
 21
72.31752763887698
 31
0.0
  0
LINE
  5
273
330
271
100
AcDbEntity
  8
1
  6
Continuous
 62
     2
100
AcDbLine
 10
38.37007363055017
 20
22.31752763887698
 30
0.0
 11
24.42344081376132
 21
22.31752763887698
 31
0.0
  0
LINE
  5
274
330
271
100
AcDbEntity
  8
1
  6
Continuous
 62
     2
100
AcDbLine
 10
38.3700736305504
 20
72.31752763887698
 30
0.0
 11
24.42344081376132
 21
72.31752763887698
 31
0.0
  0
SOLID
  5
275
330
271
100
AcDbEntity
  8
1
 62
     2
100
AcDbTrace
 10
26.73226520142749
 20
27.56752763887698
 30
0.0
 11
28.11461642609515
 21
27.56752763887698
 31
0.0
 12
27.42344081376132
 22
22.31752763887698
 32
0.0
 13
27.42344081376132
 23
22.31752763887698
 33
0.0
  0
SOLID
  5
276
330
271
100
AcDbEntity
  8
1
 62
     2
100
AcDbTrace
 10
28.11461642609515
 20
67.06752763887698
 30
0.0
 11
26.73226520142749
 21
67.06752763887698
 31
0.0
 12
27.42344081376132
 22
72.31752763887698
 32
0.0
 13
27.42344081376132
 23
72.31752763887698
 33
0.0
  0
MTEXT
  5
277
330
271
100
AcDbEntity
  8
1
 62
     7
100
AcDbMText
 10
24.42344081376132
 20
43.51699772199504
 30
0.0
 40
4.5
 41
0.0
 71
     7
 72
     1
  1
50
  7
CONVERTER_1
 11
0.0
 21
1.0
 31
0.0
 73
     1
 44
0.60024009603842
  0
ENDBLK
  5
279
330
271
100
AcDbEntity
  8
0
100
AcDbBlockEnd
  0
BLOCK
  5
283
330
27C
100
AcDbEntity
  8
0
100
AcDbBlockBegin
  2
*D26
 70
     1
 71
     0
 10
0.0
 20
0.0
 30
0.0
  3
*D26
  1

  0
LINE
  5
27D
330
27C
100
AcDbEntity
  8
1
  6
Continuous
 62
     2
100
AcDbLine
 10
34.87007363055039
 20
79.91683459884803
 30
0.0
 11
94.87007363055018
 21
79.91683459884803
 31
0.0
  0
LINE
  5
27E
330
27C
100
AcDbEntity
  8
1
  6
Continuous
 62
     2
100
AcDbLine
 10
34.87007363055039
 20
68.8175276388771
 30
0.0
 11
34.87007363055039
 21
82.91683459884803
 31
0.0
  0
LINE
  5
27F
330
27C
100
AcDbEntity
  8
1
  6
Continuous
 62
     2
100
AcDbLine
 10
94.87007363055018
 20
68.8175276388771
 30
0.0
 11
94.87007363055018
 21
82.91683459884803
 31
0.0
  0
SOLID
  5
280
330
27C
100
AcDbEntity
  8
1
 62
     2
100
AcDbTrace
 10
40.12007363055039
 20
80.60801021118185
 30
0.0
 11
40.12007363055039
 21
79.22565898651421
 31
0.0
 12
34.87007363055039
 22
79.91683459884803
 32
0.0
 13
34.87007363055039
 23
79.91683459884803
 33
0.0
  0
SOLID
  5
281
330
27C
100
AcDbEntity
  8
1
 62
     2
100
AcDbTrace
 10
89.62007363055018
 20
79.22565898651421
 30
0.0
 11
89.62007363055018
 21
80.60801021118185
 31
0.0
 12
94.87007363055018
 22
79.91683459884803
 32
0.0
 13
94.87007363055018
 23
79.91683459884803
 33
0.0
  0
MTEXT
  5
282
330
27C
100
AcDbEntity
  8
1
 62
     7
100
AcDbMText
 10
59.81555889168454
 20
82.91683459884803
 30
0.0
 40
4.5
 41
0.0
 71
     7
 72
     1
  1
60
  7
CONVERTER_1
 11
0.9999999999970621
 21
2.424068405545307E-6
 31
0.0
 73
     1
 44
0.60024009603842
  0
ENDBLK
  5
284
330
27C
100
AcDbEntity
  8
0
100
AcDbBlockEnd
  0
BLOCK
  5
28E
330
287
100
AcDbEntity
  8
0
100
AcDbBlockBegin
  2
*D37
 70
     1
 71
     0
 10
0.0
 20
0.0
 30
0.0
  3
*D37
  1

  0
LINE
  5
288
330
287
100
AcDbEntity
  8
1
  6
Continuous
 62
     2
100
AcDbLine
 10
94.87007363055017
 20
79.91683459884803
 30
0.0
 11
191.3900736305504
 21
79.91683459884803
 31
0.0
  0
LINE
  5
289
330
287
100
AcDbEntity
  8
1
  6
Continuous
 62
     2
100
AcDbLine
 10
94.87007363055017
 20
68.8175276388771
 30
0.0
 11
94.87007363055017
 21
82.91683459884803
 31
0.0
  0
LINE
  5
28A
330
287
100
AcDbEntity
  8
1
  6
Continuous
 62
     2
100
AcDbLine
 10
191.3900736305504
 20
33.4475276388772
 30
0.0
 11
191.3900736305504
 21
82.91683459884803
 31
0.0
  0
SOLID
  5
28B
330
287
100
AcDbEntity
  8
1
 62
     2
100
AcDbTrace
 10
100.1200736305502
 20
80.60801021118185
 30
0.0
 11
100.1200736305502
 21
79.22565898651421
 31
0.0
 12
94.87007363055017
 22
79.91683459884803
 32
0.0
 13
94.87007363055017
 23
79.91683459884803
 33
0.0
  0
SOLID
  5
28C
330
287
100
AcDbEntity
  8
1
 62
     2
100
AcDbTrace
 10
186.1400736305504
 20
79.22565898651421
 30
0.0
 11
186.1400736305504
 21
80.60801021118185
 31
0.0
 12
191.3900736305504
 22
79.91683459884803
 32
0.0
 13
191.3900736305504
 23
79.91683459884803
 33
0.0
  0
MTEXT
  5
28D
330
287
100
AcDbEntity
  8
1
 62
     7
100
AcDbMText
 10
134.3167703354576
 20
82.91683459884803
 30
0.0
 40
4.5
 41
0.0
 71
     7
 72
     1
  1
1800
  7
CONVERTER_1
 11
0.9999999999970621
 21
2.424068405545307E-6
 31
0.0
 73
     1
 44
0.60024009603842
  0
ENDBLK
  5
28F
330
287
100
AcDbEntity
  8
0
100
AcDbBlockEnd
  0
ENDSEC
  0
SECTION
  2
ENTITIES
  0
INSERT
  5
41
330
1F
100
AcDbEntity
  8
0
100
AcDbBlockReference
  2
TOP
 10
-121.788099871462
 20
-1378.18221956287
 30
0.0
  0
INSERT
  5
42
330
1F
100
AcDbEntity
  8
0
100
AcDbBlockReference
  2
_J___cHP-A4
 10
534.8948288710039
 20
214.09261376083
 30
0.0
  0
LINE
  5
EC
330
1F
100
AcDbEntity
  8
1
  6
PHANTOM
 62
     2
100
AcDbLine
 10
214.9932381008471
 20
31.99752763887722
 30
0.0
 11
213.2432381008471
 21
31.99752763887722
 31
0.0
  0
LINE
  5
ED
330
1F
100
AcDbEntity
  8
1
  6
PHANTOM
 62
     2
100
AcDbLine
 10
189.8108422927821
 20
-15.14532583285387
 30
0.0
 11
189.8108422927821
 21
-23.39532583285387
 31
0.0
  0
LINE
  5
EE
330
1F
100
AcDbEntity
  8
1
  6
PHANTOM
 62
     2
100
AcDbLine
 10
193.9358422927821
 20
-19.27032583285387
 30
0.0
 11
185.6858422927821
 21
-19.27032583285387
 31
0.0
  0
LINE
  5
EF
330
1F
100
AcDbEntity
  8
1
  6
Continuous
 62
     7
100
AcDbLine
 10
82.04507363055041
 20
-50.50668946921775
 30
0.0
 11
82.04507363055041
 21
-34.10668946921788
 31
0.0
  0
LINE
  5
F0
330
1F
100
AcDbEntity
  8
1
  6
Continuous
 62
     7
100
AcDbLine
 10
75.69507363055027
 20
-50.50668946921775
 30
0.0
 11
82.04507363055041
 21
-50.50668946921775
 31
0.0
  0
LINE
  5
F1
330
1F
100
AcDbEntity
  8
1
  6
Continuous
 62
     7
100
AcDbLine
 10
192.3603520495785
 20
-15.60668946921788
 30
0.0
 11
228.4608422927822
 21
-15.60668946921788
 31
0.0
  0
LINE
  5
F2
330
1F
100
AcDbEntity
  8
1
  6
Continuous
 62
     7
100
AcDbLine
 10
96.16854087227057
 20
-17.92106329003678
 30
0.0
 11
95.68462375863214
 21
-23.07329916694772
 31
0.0
  0
LINE
  5
F3
330
1F
100
AcDbEntity
  8
1
  6
Continuous
 62
     7
100
AcDbLine
 10
182.3008422927819
 20
-15.70668946921779
 30
0.0
 11
180.3808422927821
 21
-15.70668946921779
 31
0.0
  0
LINE
  5
F4
330
1F
100
AcDbEntity
  8
1
  6
Continuous
 62
     7
100
AcDbLine
 10
182.3008422927819
 20
-15.60668946921788
 30
0.0
 11
189.010674438489
 21
-15.60668946921788
 31
0.0
  0
LINE
  5
F5
330
1F
100
AcDbEntity
  8
1
  6
Continuous
 62
     7
100
AcDbLine
 10
182.3008422927819
 20
-15.60668946921788
 30
0.0
 11
182.3008422927819
 21
-15.70668946921779
 31
0.0
  0
LINE
  5
F6
330
1F
100
AcDbEntity
  8
1
  6
Continuous
 62
     7
100
AcDbLine
 10
228.4608422927821
 20
-15.70668946921779
 30
0.0
 11
193.4250503664823
 21
-15.70668946921779
 31
0.0
  0
LINE
  5
F7
330
1F
100
AcDbEntity
  8
1
  6
Continuous
 62
     7
100
AcDbLine
 10
228.4608422927822
 20
-15.60668946921788
 30
0.0
 11
230.3808422927823
 21
-15.60668946921788
 31
0.0
  0
LINE
  5
F8
330
1F
100
AcDbEntity
  8
1
  6
Continuous
 62
     7
100
AcDbLine
 10
228.4608422927822
 20
-15.60668946921788
 30
0.0
 11
228.4608422927821
 21
-15.70668946921779
 31
0.0
  0
LINE
  5
F9
330
1F
100
AcDbEntity
  8
1
  6
Continuous
 62
     7
100
AcDbLine
 10
224.8608422927821
 20
-31.90668946921784
 30
0.0
 11
226.0902298247102
 21
-31.90668946921784
 31
0.0
  0
LINE
  5
FA
330
1F
100
AcDbEntity
  8
1
  6
Continuous
 62
     7
100
AcDbLine
 10
224.8608422927821
 20
-32.90668946921784
 30
0.0
 11
224.8608422927821
 21
-31.90668946921784
 31
0.0
  0
LINE
  5
FB
330
1F
100
AcDbEntity
  8
1
  6
Continuous
 62
     7
100
AcDbLine
 10
185.900842292782
 20
-32.90668946921784
 30
0.0
 11
198.2808422927822
 21
-32.90668946921784
 31
0.0
  0
LINE
  5
FC
330
1F
100
AcDbEntity
  8
1
  6
Continuous
 62
     7
100
AcDbLine
 10
185.900842292782
 20
-31.90668946921784
 30
0.0
 11
224.8608422927821
 21
-31.90668946921784
 31
0.0
  0
LINE
  5
FD
330
1F
100
AcDbEntity
  8
1
  6
Continuous
 62
     7
100
AcDbLine
 10
185.900842292782
 20
-31.90668946921784
 30
0.0
 11
185.900842292782
 21
-32.90668946921784
 31
0.0
  0
LINE
  5
FE
330
1F
100
AcDbEntity
  8
1
  6
Continuous
 62
     7
100
AcDbLine
 10
230.3808422927821
 20
-15.70668946921779
 30
0.0
 11
228.4608422927821
 21
-15.70668946921779
 31
0.0
  0
LINE
  5
FF
330
1F
100
AcDbEntity
  8
1
  6
Continuous
 62
     7
100
AcDbLine
 10
229.583580629906
 20
-28.6223284078099
 30
0.0
 11
230.3808422927821
 21
-15.70668946921779
 31
0.0
  0
LINE
  5
100
330
1F
100
AcDbEntity
  8
1
  6
Continuous
 62
     7
100
AcDbLine
 10
184.671454760854
 20
-31.90668946921784
 30
0.0
 11
185.900842292782
 21
-31.90668946921784
 31
0.0
  0
LINE
  5
101
330
1F
100
AcDbEntity
  8
1
  6
Continuous
 62
     7
100
AcDbLine
 10
180.3808422927821
 20
-15.70668946921779
 30
0.0
 11
181.1781039556581
 21
-28.6223284078099
 31
0.0
  0
LINE
  5
102
330
1F
100
AcDbEntity
  8
1
  6
Continuous
 62
     7
100
AcDbLine
 10
230.3340691321249
 20
-14.60668946921788
 30
0.0
 11
230.3808422927823
 21
-15.60668946921788
 31
0.0
  0
LINE
  5
103
330
1F
100
AcDbEntity
  8
1
  6
Continuous
 62
     7
100
AcDbLine
 10
180.4276154534393
 20
-14.60668946921788
 30
0.0
 11
181.6279797380937
 21
6.05683781415513
 31
0.0
  0
LINE
  5
104
330
1F
100
AcDbEntity
  8
1
  6
Continuous
 62
     7
100
AcDbLine
 10
180.3808422927818
 20
-15.60668946921788
 30
0.0
 11
182.3008422927819
 21
-15.60668946921788
 31
0.0
  0
LINE
  5
105
330
1F
100
AcDbEntity
  8
1
  6
Continuous
 62
     7
100
AcDbLine
 10
229.1337048474707
 20
6.05683781415513
 30
0.0
 11
230.3340691321249
 21
-14.60668946921788
 31
0.0
  0
LINE
  5
106
330
1F
100
AcDbEntity
  8
1
  6
Continuous
 62
     7
100
AcDbLine
 10
180.3808422927818
 20
-15.60668946921788
 30
0.0
 11
180.4276154534393
 21
-14.60668946921788
 31
0.0
  0
LINE
  5
107
330
1F
100
AcDbEntity
  8
1
  6
Continuous
 62
     7
100
AcDbLine
 10
113.0742753070882
 20
-20.97032583285392
 30
0.0
 11
125.0742753070882
 21
-20.97032583285392
 31
0.0
  0
LINE
  5
108
330
1F
100
AcDbEntity
  8
1
  6
Continuous
 62
     7
100
AcDbLine
 10
113.0742753070882
 20
-17.57032583285383
 30
0.0
 11
125.0742753070882
 21
-17.57032583285383
 31
0.0
  0
LINE
  5
109
330
1F
100
AcDbEntity
  8
1
  6
Continuous
 62
     7
100
AcDbLine
 10
113.0742753070882
 20
-19.27032583285387
 30
0.0
 11
113.0742753070882
 21
-20.97032583285392
 31
0.0
  0
LINE
  5
10A
330
1F
100
AcDbEntity
  8
1
  6
Continuous
 62
     7
100
AcDbLine
 10
113.0742753070882
 20
-20.97032583285392
 30
0.0
 11
113.0742753070882
 21
-21.77032583285387
 31
0.0
  0
LINE
  5
10B
330
1F
100
AcDbEntity
  8
1
  6
Continuous
 62
     7
100
AcDbLine
 10
113.0742753070882
 20
-17.57032583285383
 30
0.0
 11
113.0742753070882
 21
-19.27032583285387
 31
0.0
  0
LINE
  5
10C
330
1F
100
AcDbEntity
  8
1
  6
Continuous
 62
     7
100
AcDbLine
 10
107.6742753070881
 20
-20.02032583285387
 30
0.0
 11
107.6742753070881
 21
-22.17941674194486
 31
0.0
  0
LINE
  5
10D
330
1F
100
AcDbEntity
  8
1
  6
Continuous
 62
     7
100
AcDbLine
 10
109.1742753070881
 20
-20.02032583285387
 30
0.0
 11
109.1742753070881
 21
-22.06578037830883
 31
0.0
  0
LINE
  5
10E
330
1F
100
AcDbEntity
  8
1
  6
Continuous
 62
     7
100
AcDbLine
 10
109.1742753070881
 20
-20.02032583285387
 30
0.0
 11
111.5742753070882
 21
-20.02032583285387
 31
0.0
  0
LINE
  5
10F
330
1F
100
AcDbEntity
  8
1
  6
Continuous
 62
     7
100
AcDbLine
 10
104.1742753070882
 20
-20.02032583285387
 30
0.0
 11
104.1742753070882
 21
-22.44456825709591
 31
0.0
  0
LINE
  5
110
330
1F
100
AcDbEntity
  8
1
  6
Continuous
 62
     7
100
AcDbLine
 10
100.2742753070882
 20
-20.02032583285387
 30
0.0
 11
100.2742753070882
 21
-22.74002280255087
 31
0.0
  0
LINE
  5
111
330
1F
100
AcDbEntity
  8
1
  6
Continuous
 62
     7
100
AcDbLine
 10
101.7742753070882
 20
-20.02032583285387
 30
0.0
 11
101.7742753070882
 21
-22.62638643891484
 31
0.0
  0
LINE
  5
112
330
1F
100
AcDbEntity
  8
1
  6
Continuous
 62
     7
100
AcDbLine
 10
109.1742753070881
 20
-18.52032583285387
 30
0.0
 11
109.1742753070881
 21
-20.02032583285387
 31
0.0
  0
LINE
  5
113
330
1F
100
AcDbEntity
  8
1
  6
Continuous
 62
     7
100
AcDbLine
 10
107.6742753070881
 20
-18.52032583285387
 30
0.0
 11
107.6742753070881
 21
-20.02032583285387
 31
0.0
  0
LINE
  5
114
330
1F
100
AcDbEntity
  8
1
  6
Continuous
 62
     7
100
AcDbLine
 10
105.6742753070881
 20
-18.52032583285387
 30
0.0
 11
105.6742753070881
 21
-20.02032583285387
 31
0.0
  0
LINE
  5
115
330
1F
100
AcDbEntity
  8
1
  6
Continuous
 62
     7
100
AcDbLine
 10
105.6742753070881
 20
-20.02032583285387
 30
0.0
 11
105.6742753070881
 21
-22.33093189345988
 31
0.0
  0
LINE
  5
116
330
1F
100
AcDbEntity
  8
1
  6
Continuous
 62
     7
100
AcDbLine
 10
104.1742753070882
 20
-18.52032583285387
 30
0.0
 11
104.1742753070882
 21
-20.02032583285387
 31
0.0
  0
LINE
  5
117
330
1F
100
AcDbEntity
  8
1
  6
Continuous
 62
     7
100
AcDbLine
 10
100.2742753070882
 20
-18.52032583285387
 30
0.0
 11
100.2742753070882
 21
-20.02032583285387
 31
0.0
  0
LINE
  5
118
330
1F
100
AcDbEntity
  8
1
  6
Continuous
 62
     7
100
AcDbLine
 10
101.7742753070882
 20
-18.52032583285387
 30
0.0
 11
101.7742753070882
 21
-20.02032583285387
 31
0.0
  0
LINE
  5
119
330
1F
100
AcDbEntity
  8
1
  6
Continuous
 62
     7
100
AcDbLine
 10
109.1742753070881
 20
-18.52032583285387
 30
0.0
 11
111.5742753070882
 21
-18.52032583285387
 31
0.0
  0
LINE
  5
11A
330
1F
100
AcDbEntity
  8
1
  6
Continuous
 62
     7
100
AcDbLine
 10
105.6742753070881
 20
-18.52032583285387
 30
0.0
 11
107.6742753070881
 21
-18.52032583285387
 31
0.0
  0
LINE
  5
11B
330
1F
100
AcDbEntity
  8
1
  6
Continuous
 62
     7
100
AcDbLine
 10
105.6742753070881
 20
-20.02032583285387
 30
0.0
 11
107.6742753070881
 21
-20.02032583285387
 31
0.0
  0
LINE
  5
11C
330
1F
100
AcDbEntity
  8
1
  6
Continuous
 62
     7
100
AcDbLine
 10
101.7742753070882
 20
-20.02032583285387
 30
0.0
 11
104.1742753070882
 21
-20.02032583285387
 31
0.0
  0
LINE
  5
11D
330
1F
100
AcDbEntity
  8
1
  6
Continuous
 62
     7
100
AcDbLine
 10
101.7742753070882
 20
-18.52032583285387
 30
0.0
 11
104.1742753070882
 21
-18.52032583285387
 31
0.0
  0
LINE
  5
11E
330
1F
100
AcDbEntity
  8
1
  6
Continuous
 62
     7
100
AcDbLine
 10
111.5742753070882
 20
-20.02032583285387
 30
0.0
 11
111.5742753070882
 21
-21.8839621964899
 31
0.0
  0
LINE
  5
11F
330
1F
100
AcDbEntity
  8
1
  6
Continuous
 62
     7
100
AcDbLine
 10
98.07427530708822
 20
-20.02032583285387
 30
0.0
 11
98.07427530708822
 21
-22.90668946921784
 31
0.0
  0
LINE
  5
120
330
1F
100
AcDbEntity
  8
1
  6
Continuous
 62
     7
100
AcDbLine
 10
98.07427530708822
 20
-20.02032583285387
 30
0.0
 11
100.2742753070882
 21
-20.02032583285387
 31
0.0
  0
LINE
  5
121
330
1F
100
AcDbEntity
  8
1
  6
Continuous
 62
     7
100
AcDbLine
 10
111.5742753070882
 20
-18.52032583285387
 30
0.0
 11
111.5742753070882
 21
-20.02032583285387
 31
0.0
  0
LINE
  5
122
330
1F
100
AcDbEntity
  8
1
  6
Continuous
 62
     7
100
AcDbLine
 10
98.07427530708822
 20
-18.52032583285387
 30
0.0
 11
98.07427530708822
 21
-20.02032583285387
 31
0.0
  0
LINE
  5
123
330
1F
100
AcDbEntity
  8
1
  6
Continuous
 62
     7
100
AcDbLine
 10
98.07427530708822
 20
-18.52032583285387
 30
0.0
 11
100.2742753070882
 21
-18.52032583285387
 31
0.0
  0
LINE
  5
124
330
1F
100
AcDbEntity
  8
1
  6
Continuous
 62
     7
100
AcDbLine
 10
111.5742753070882
 20
-21.8839621964899
 30
0.0
 11
113.0742753070882
 21
-21.77032583285387
 31
0.0
  0
LINE
  5
125
330
1F
100
AcDbEntity
  8
1
  6
Continuous
 62
     7
100
AcDbLine
 10
111.5742753070882
 20
-16.65668946921784
 30
0.0
 11
113.0742753070882
 21
-16.77032583285387
 31
0.0
  0
LINE
  5
126
330
1F
100
AcDbEntity
  8
1
  6
Continuous
 62
     7
100
AcDbLine
 10
111.5742753070882
 20
-16.65668946921784
 30
0.0
 11
111.5742753070882
 21
-18.52032583285387
 31
0.0
  0
LINE
  5
127
330
1F
100
AcDbEntity
  8
1
  6
Continuous
 62
     7
100
AcDbLine
 10
109.1742753070881
 20
-22.06578037830883
 30
0.0
 11
111.5742753070882
 21
-21.8839621964899
 31
0.0
  0
LINE
  5
128
330
1F
100
AcDbEntity
  8
1
  6
Continuous
 62
     7
100
AcDbLine
 10
109.1742753070881
 20
-16.47487128739891
 30
0.0
 11
111.5742753070882
 21
-16.65668946921784
 31
0.0
  0
LINE
  5
129
330
1F
100
AcDbEntity
  8
1
  6
Continuous
 62
     7
100
AcDbLine
 10
109.1742753070881
 20
-16.47487128739891
 30
0.0
 11
109.1742753070881
 21
-18.52032583285387
 31
0.0
  0
LINE
  5
12A
330
1F
100
AcDbEntity
  8
1
  6
Continuous
 62
     7
100
AcDbLine
 10
107.6742753070881
 20
-22.17941674194486
 30
0.0
 11
109.1742753070881
 21
-22.06578037830883
 31
0.0
  0
LINE
  5
12B
330
1F
100
AcDbEntity
  8
1
  6
Continuous
 62
     7
100
AcDbLine
 10
107.6742753070881
 20
-16.36123492376288
 30
0.0
 11
109.1742753070881
 21
-16.47487128739891
 31
0.0
  0
LINE
  5
12C
330
1F
100
AcDbEntity
  8
1
  6
Continuous
 62
     7
100
AcDbLine
 10
107.6742753070881
 20
-16.36123492376288
 30
0.0
 11
107.6742753070881
 21
-18.52032583285387
 31
0.0
  0
LINE
  5
12D
330
1F
100
AcDbEntity
  8
1
  6
Continuous
 62
     7
100
AcDbLine
 10
105.6742753070881
 20
-22.33093189345988
 30
0.0
 11
107.6742753070881
 21
-22.17941674194486
 31
0.0
  0
LINE
  5
12E
330
1F
100
AcDbEntity
  8
1
  6
Continuous
 62
     7
100
AcDbLine
 10
105.6742753070881
 20
-16.20971977224787
 30
0.0
 11
107.6742753070881
 21
-16.36123492376288
 31
0.0
  0
LINE
  5
12F
330
1F
100
AcDbEntity
  8
1
  6
Continuous
 62
     7
100
AcDbLine
 10
105.6742753070881
 20
-16.20971977224787
 30
0.0
 11
105.6742753070881
 21
-18.52032583285387
 31
0.0
  0
LINE
  5
130
330
1F
100
AcDbEntity
  8
1
  6
Continuous
 62
     7
100
AcDbLine
 10
104.1742753070882
 20
-22.44456825709591
 30
0.0
 11
105.6742753070881
 21
-22.33093189345988
 31
0.0
  0
LINE
  5
131
330
1F
100
AcDbEntity
  8
1
  6
Continuous
 62
     7
100
AcDbLine
 10
104.1742753070882
 20
-16.09608340861183
 30
0.0
 11
105.6742753070881
 21
-16.20971977224787
 31
0.0
  0
LINE
  5
132
330
1F
100
AcDbEntity
  8
1
  6
Continuous
 62
     7
100
AcDbLine
 10
104.1742753070882
 20
-16.09608340861183
 30
0.0
 11
104.1742753070882
 21
-18.52032583285387
 31
0.0
  0
LINE
  5
133
330
1F
100
AcDbEntity
  8
1
  6
Continuous
 62
     7
100
AcDbLine
 10
101.7742753070882
 20
-22.62638643891484
 30
0.0
 11
104.1742753070882
 21
-22.44456825709591
 31
0.0
  0
LINE
  5
134
330
1F
100
AcDbEntity
  8
1
  6
Continuous
 62
     7
100
AcDbLine
 10
101.7742753070882
 20
-15.91426522679291
 30
0.0
 11
104.1742753070882
 21
-16.09608340861183
 31
0.0
  0
LINE
  5
135
330
1F
100
AcDbEntity
  8
1
  6
Continuous
 62
     7
100
AcDbLine
 10
101.7742753070882
 20
-15.91426522679291
 30
0.0
 11
101.7742753070882
 21
-18.52032583285387
 31
0.0
  0
LINE
  5
136
330
1F
100
AcDbEntity
  8
1
  6
Continuous
 62
     7
100
AcDbLine
 10
100.2742753070882
 20
-22.74002280255087
 30
0.0
 11
101.7742753070882
 21
-22.62638643891484
 31
0.0
  0
LINE
  5
137
330
1F
100
AcDbEntity
  8
1
  6
Continuous
 62
     7
100
AcDbLine
 10
100.2742753070882
 20
-15.80062886315687
 30
0.0
 11
101.7742753070882
 21
-15.91426522679291
 31
0.0
  0
LINE
  5
138
330
1F
100
AcDbEntity
  8
1
  6
Continuous
 62
     7
100
AcDbLine
 10
100.2742753070882
 20
-15.80062886315687
 30
0.0
 11
100.2742753070882
 21
-18.52032583285387
 31
0.0
  0
LINE
  5
139
330
1F
100
AcDbEntity
  8
1
  6
Continuous
 62
     7
100
AcDbLine
 10
98.07427530708822
 20
-22.90668946921784
 30
0.0
 11
100.2742753070882
 21
-22.74002280255087
 31
0.0
  0
LINE
  5
13A
330
1F
100
AcDbEntity
  8
1
  6
Continuous
 62
     7
100
AcDbLine
 10
98.07427530708822
 20
-15.6339621964899
 30
0.0
 11
100.2742753070882
 21
-15.80062886315687
 31
0.0
  0
LINE
  5
13B
330
1F
100
AcDbEntity
  8
1
  6
Continuous
 62
     7
100
AcDbLine
 10
98.07427530708822
 20
-15.6339621964899
 30
0.0
 11
98.07427530708822
 21
-18.52032583285387
 31
0.0
  0
LINE
  5
13C
330
1F
100
AcDbEntity
  8
1
  6
Continuous
 62
     7
100
AcDbLine
 10
113.0742753070882
 20
-16.77032583285387
 30
0.0
 11
113.0742753070882
 21
-17.57032583285383
 31
0.0
  0
LINE
  5
13D
330
1F
100
AcDbEntity
  8
1
  6
Continuous
 62
     7
100
AcDbLine
 10
78.29507363055041
 20
-32.90668946921784
 30
0.0
 11
70.84507363055036
 21
-32.90668946921784
 31
0.0
  0
LINE
  5
13E
330
1F
100
AcDbEntity
  8
1
  6
Continuous
 62
     7
100
AcDbLine
 10
75.69507363055027
 20
-34.10668946921788
 30
0.0
 11
75.69507363055027
 21
-50.50668946921775
 31
0.0
  0
LINE
  5
13F
330
1F
100
AcDbEntity
  8
1
  6
Continuous
 62
     7
100
AcDbLine
 10
59.97007363055037
 20
-32.90668946921784
 30
0.0
 11
39.7559961570255
 21
-32.90668946921784
 31
0.0
  0
LINE
  5
140
330
1F
100
AcDbEntity
  8
1
  6
Continuous
 62
     7
100
AcDbLine
 10
78.4150736305503
 20
9.39331053078212
 30
0.0
 11
91.57603822865895
 21
9.39331053078212
 31
0.0
  0
LINE
  5
141
330
1F
100
AcDbEntity
  8
1
  6
Continuous
 62
     7
100
AcDbLine
 10
34.95923158321956
 20
-16.70668946921779
 30
0.0
 11
36.27361279612718
 21
-29.75741176354592
 31
0.0
  0
LINE
  5
142
330
1F
100
AcDbEntity
  8
1
  6
Continuous
 62
     7
100
AcDbLine
 10
96.39244467367166
 20
-15.52032583285387
 30
0.0
 11
96.16854087227057
 21
-17.92106329003678
 31
0.0
  0
LINE
  5
143
330
1F
100
AcDbEntity
  8
1
  6
Continuous
 62
     7
100
AcDbLine
 10
96.3265266359291
 20
-14.60668946921788
 30
0.0
 11
96.38387176867252
 21
-15.60668946921788
 31
0.0
  0
LINE
  5
144
330
1F
100
AcDbEntity
  8
1
  6
Continuous
 62
     7
100
AcDbLine
 10
34.92741876329377
 20
-14.60668946921788
 30
0.0
 11
36.27699298495669
 21
6.12071617779515
 31
0.0
  0
LINE
  5
145
330
1F
100
AcDbEntity
  8
1
  6
Continuous
 62
     7
100
AcDbLine
 10
75.14507363055031
 20
-32.90668946921784
 30
0.0
 11
69.77007363055031
 21
-32.90668946921784
 31
0.0
  0
LINE
  5
146
330
1F
100
AcDbEntity
  8
1
  6
Continuous
 62
     7
100
AcDbLine
 10
91.50549785815986
 20
-32.90668946921784
 30
0.0
 11
70.59007363055025
 21
-32.90668946921784
 31
0.0
  0
LINE
  5
147
330
1F
100
AcDbEntity
  8
1
  6
Continuous
 62
     7
100
AcDbLine
 10
34.87007363055034
 20
-15.70668946921779
 30
0.0
 11
34.95923158321956
 21
-16.70668946921779
 31
0.0
  0
LINE
  5
148
330
1F
100
AcDbEntity
  8
1
  6
Continuous
 62
     7
100
AcDbLine
 10
39.76959755342796
 20
9.39331053078212
 30
0.0
 11
78.4150736305503
 21
9.39331053078212
 31
0.0
  0
LINE
  5
149
330
1F
100
AcDbEntity
  8
1
  6
Continuous
 62
     7
100
AcDbLine
 10
34.87007363055034
 20
-15.60668946921788
 30
0.0
 11
34.92741876329377
 21
-14.60668946921788
 31
0.0
  0
LINE
  5
14A
330
1F
100
AcDbEntity
  8
1
  6
Continuous
 62
     7
100
AcDbLine
 10
96.38387176867252
 20
-15.60668946921788
 30
0.0
 11
34.87007363055034
 21
-15.60668946921788
 31
0.0
  0
LINE
  5
14B
330
1F
100
AcDbEntity
  8
1
  6
Continuous
 62
     7
100
AcDbLine
 10
35.89007363055021
 20
-15.70668946921779
 30
0.0
 11
35.89007363055021
 21
-15.60668946921788
 31
0.0
  0
LINE
  5
14C
330
1F
100
AcDbEntity
  8
1
  6
Continuous
 62
     7
100
AcDbLine
 10
95.36387176867254
 20
-15.70668946921779
 30
0.0
 11
96.36258805404452
 21
-15.70668946921779
 31
0.0
  0
LINE
  5
14D
330
1F
100
AcDbEntity
  8
1
  6
Continuous
 62
     7
100
AcDbLine
 10
34.87007363055034
 20
-15.70668946921779
 30
0.0
 11
95.36387176867254
 21
-15.70668946921779
 31
0.0
  0
LINE
  5
14E
330
1F
100
AcDbEntity
  8
1
  6
Continuous
 62
     7
100
AcDbLine
 10
216.568238100847
 20
34.74752763887722
 30
0.0
 11
216.6182381008471
 21
34.74752763887722
 31
0.0
  0
LINE
  5
14F
330
1F
100
AcDbEntity
  8
1
  6
Continuous
 62
     7
100
AcDbLine
 10
216.568238100847
 20
37.67752763887728
 30
0.0
 11
216.568238100847
 21
34.74752763887722
 31
0.0
  0
LINE
  5
150
330
1F
100
AcDbEntity
  8
1
  6
Continuous
 62
     7
100
AcDbLine
 10
212.668238100847
 20
37.67752763887728
 30
0.0
 11
216.568238100847
 21
37.67752763887728
 31
0.0
  0
LINE
  5
151
330
1F
100
AcDbEntity
  8
1
  6
Continuous
 62
     7
100
AcDbLine
 10
212.668238100847
 20
34.74752763887722
 30
0.0
 11
216.568238100847
 21
34.74752763887722
 31
0.0
  0
LINE
  5
152
330
1F
100
AcDbEntity
  8
1
  6
Continuous
 62
     7
100
AcDbLine
 10
212.668238100847
 20
34.74752763887722
 30
0.0
 11
212.668238100847
 21
37.67752763887728
 31
0.0
  0
LINE
  5
153
330
1F
100
AcDbEntity
  8
1
  6
Continuous
 62
     7
100
AcDbLine
 10
216.568238100847
 20
29.24752763887722
 30
0.0
 11
212.668238100847
 21
29.24752763887722
 31
0.0
  0
LINE
  5
154
330
1F
100
AcDbEntity
  8
1
  6
Continuous
 62
     7
100
AcDbLine
 10
216.568238100847
 20
26.31752763887715
 30
0.0
 11
216.568238100847
 21
29.24752763887722
 31
0.0
  0
LINE
  5
155
330
1F
100
AcDbEntity
  8
1
  6
Continuous
 62
     7
100
AcDbLine
 10
212.668238100847
 20
26.31752763887715
 30
0.0
 11
216.568238100847
 21
26.31752763887715
 31
0.0
  0
LINE
  5
156
330
1F
100
AcDbEntity
  8
1
  6
Continuous
 62
     7
100
AcDbLine
 10
212.668238100847
 20
29.24752763887722
 30
0.0
 11
212.1182381008471
 21
29.24752763887722
 31
0.0
  0
LINE
  5
157
330
1F
100
AcDbEntity
  8
1
  6
Continuous
 62
     7
100
AcDbLine
 10
212.668238100847
 20
29.24752763887722
 30
0.0
 11
212.668238100847
 21
26.31752763887715
 31
0.0
  0
LINE
  5
158
330
1F
100
AcDbEntity
  8
1
  6
Continuous
 62
     7
100
AcDbLine
 10
216.1182381008471
 20
33.74752763887722
 30
0.0
 11
217.1182381008471
 21
33.99752763887722
 31
0.0
  0
LINE
  5
159
330
1F
100
AcDbEntity
  8
1
  6
Continuous
 62
     7
100
AcDbLine
 10
216.1182381008471
 20
32.74752763887722
 30
0.0
 11
216.1182381008471
 21
33.74752763887722
 31
0.0
  0
LINE
  5
15A
330
1F
100
AcDbEntity
  8
1
  6
Continuous
 62
     7
100
AcDbLine
 10
217.1182381008471
 20
32.49752763887722
 30
0.0
 11
216.1182381008471
 21
32.74752763887722
 31
0.0
  0
LINE
  5
15B
330
1F
100
AcDbEntity
  8
1
  6
Continuous
 62
     7
100
AcDbLine
 10
217.1182381008471
 20
31.49752763887722
 30
0.0
 11
217.1182381008471
 21
29.99752763887722
 31
0.0
  0
LINE
  5
15C
330
1F
100
AcDbEntity
  8
1
  6
Continuous
 62
     7
100
AcDbLine
 10
216.1182381008471
 20
31.24752763887722
 30
0.0
 11
217.1182381008471
 21
31.49752763887722
 31
0.0
  0
LINE
  5
15D
330
1F
100
AcDbEntity
  8
1
  6
Continuous
 62
     7
100
AcDbLine
 10
216.1182381008471
 20
30.24752763887722
 30
0.0
 11
216.1182381008471
 21
31.24752763887722
 31
0.0
  0
LINE
  5
15E
330
1F
100
AcDbEntity
  8
1
  6
Continuous
 62
     7
100
AcDbLine
 10
217.1182381008471
 20
29.99752763887722
 30
0.0
 11
217.1182381008471
 21
29.74752763887722
 31
0.0
  0
LINE
  5
15F
330
1F
100
AcDbEntity
  8
1
  6
Continuous
 62
     7
100
AcDbLine
 10
217.1182381008471
 20
29.99752763887722
 30
0.0
 11
216.1182381008471
 21
30.24752763887722
 31
0.0
  0
LINE
  5
160
330
1F
100
AcDbEntity
  8
1
  6
Continuous
 62
     7
100
AcDbLine
 10
217.1182381008471
 20
34.24752763887722
 30
0.0
 11
217.1182381008471
 21
31.49752763887722
 31
0.0
  0
LINE
  5
161
330
1F
100
AcDbEntity
  8
1
  6
Continuous
 62
     7
100
AcDbLine
 10
213.7432381008471
 20
33.87252763887722
 30
0.0
 11
213.2432381008471
 21
34.24752763887722
 31
0.0
  0
LINE
  5
162
330
1F
100
AcDbEntity
  8
1
  6
Continuous
 62
     7
100
AcDbLine
 10
214.4932381008471
 20
33.87252763887722
 30
0.0
 11
214.9932381008471
 21
34.24752763887722
 31
0.0
  0
LINE
  5
163
330
1F
100
AcDbEntity
  8
1
  6
Continuous
 62
     7
100
AcDbLine
 10
214.4932381008471
 20
32.62252763887722
 30
0.0
 11
214.9932381008471
 21
32.24752763887722
 31
0.0
  0
LINE
  5
164
330
1F
100
AcDbEntity
  8
1
  6
Continuous
 62
     7
100
AcDbLine
 10
213.7432381008471
 20
32.62252763887722
 30
0.0
 11
213.2432381008471
 21
32.24752763887722
 31
0.0
  0
LINE
  5
165
330
1F
100
AcDbEntity
  8
1
  6
Continuous
 62
     7
100
AcDbLine
 10
214.4932381008471
 20
30.12252763887722
 30
0.0
 11
214.9932381008471
 21
29.74752763887722
 31
0.0
  0
LINE
  5
166
330
1F
100
AcDbEntity
  8
1
  6
Continuous
 62
     7
100
AcDbLine
 10
214.4932381008471
 20
31.37252763887722
 30
0.0
 11
214.9932381008471
 21
31.74752763887722
 31
0.0
  0
LINE
  5
167
330
1F
100
AcDbEntity
  8
1
  6
Continuous
 62
     7
100
AcDbLine
 10
213.7432381008471
 20
31.37252763887722
 30
0.0
 11
213.2432381008471
 21
31.74752763887722
 31
0.0
  0
LINE
  5
168
330
1F
100
AcDbEntity
  8
1
  6
Continuous
 62
     7
100
AcDbLine
 10
213.2432381008471
 20
29.74752763887722
 30
0.0
 11
213.7432381008471
 21
30.12252763887722
 31
0.0
  0
LINE
  5
169
330
1F
100
AcDbEntity
  8
1
  6
Continuous
 62
     7
100
AcDbLine
 10
214.9932381008471
 20
32.24752763887722
 30
0.0
 11
214.9932381008471
 21
34.24752763887722
 31
0.0
  0
LINE
  5
16A
330
1F
100
AcDbEntity
  8
1
  6
Continuous
 62
     7
100
AcDbLine
 10
213.2432381008471
 20
31.74752763887722
 30
0.0
 11
213.2432381008471
 21
29.74752763887722
 31
0.0
  0
LINE
  5
16B
330
1F
100
AcDbEntity
  8
1
  6
Continuous
 62
     7
100
AcDbLine
 10
214.9932381008471
 20
32.24752763887722
 30
0.0
 11
213.2432381008471
 21
32.24752763887722
 31
0.0
  0
LINE
  5
16C
330
1F
100
AcDbEntity
  8
1
  6
Continuous
 62
     7
100
AcDbLine
 10
213.2432381008471
 20
31.74752763887722
 30
0.0
 11
214.9932381008471
 21
31.74752763887722
 31
0.0
  0
LINE
  5
16D
330
1F
100
AcDbEntity
  8
1
  6
Continuous
 62
     7
100
AcDbLine
 10
213.2432381008471
 20
29.74752763887722
 30
0.0
 11
214.9932381008471
 21
29.74752763887722
 31
0.0
  0
LINE
  5
16E
330
1F
100
AcDbEntity
  8
1
  6
Continuous
 62
     7
100
AcDbLine
 10
213.2432381008471
 20
34.24752763887722
 30
0.0
 11
213.2432381008471
 21
32.24752763887722
 31
0.0
  0
LINE
  5
16F
330
1F
100
AcDbEntity
  8
1
  6
Continuous
 62
     7
100
AcDbLine
 10
214.9932381008471
 20
34.24752763887722
 30
0.0
 11
213.2432381008471
 21
34.24752763887722
 31
0.0
  0
LINE
  5
170
330
1F
100
AcDbEntity
  8
1
  6
Continuous
 62
     7
100
AcDbLine
 10
214.9932381008471
 20
29.74752763887722
 30
0.0
 11
214.9932381008471
 21
31.74752763887722
 31
0.0
  0
LINE
  5
171
330
1F
100
AcDbEntity
  8
1
  6
Continuous
 62
     7
100
AcDbLine
 10
214.4932381008471
 20
31.37252763887722
 30
0.0
 11
213.7432381008471
 21
31.37252763887722
 31
0.0
  0
LINE
  5
172
330
1F
100
AcDbEntity
  8
1
  6
Continuous
 62
     7
100
AcDbLine
 10
213.7432381008471
 20
31.37252763887722
 30
0.0
 11
213.7432381008471
 21
30.12252763887722
 31
0.0
  0
LINE
  5
173
330
1F
100
AcDbEntity
  8
1
  6
Continuous
 62
     7
100
AcDbLine
 10
213.7432381008471
 20
30.12252763887722
 30
0.0
 11
214.4932381008471
 21
30.12252763887722
 31
0.0
  0
LINE
  5
174
330
1F
100
AcDbEntity
  8
1
  6
Continuous
 62
     7
100
AcDbLine
 10
214.4932381008471
 20
30.12252763887722
 30
0.0
 11
214.4932381008471
 21
31.37252763887722
 31
0.0
  0
LINE
  5
175
330
1F
100
AcDbEntity
  8
1
  6
Continuous
 62
     7
100
AcDbLine
 10
213.7432381008471
 20
32.62252763887722
 30
0.0
 11
214.4932381008471
 21
32.62252763887722
 31
0.0
  0
LINE
  5
176
330
1F
100
AcDbEntity
  8
1
  6
Continuous
 62
     7
100
AcDbLine
 10
213.7432381008471
 20
33.87252763887722
 30
0.0
 11
213.7432381008471
 21
32.62252763887722
 31
0.0
  0
LINE
  5
177
330
1F
100
AcDbEntity
  8
1
  6
Continuous
 62
     7
100
AcDbLine
 10
214.4932381008471
 20
33.87252763887722
 30
0.0
 11
213.7432381008471
 21
33.87252763887722
 31
0.0
  0
LINE
  5
178
330
1F
100
AcDbEntity
  8
1
  6
Continuous
 62
     7
100
AcDbLine
 10
214.4932381008471
 20
32.62252763887722
 30
0.0
 11
214.4932381008471
 21
33.87252763887722
 31
0.0
  0
LINE
  5
179
330
1F
100
AcDbEntity
  8
1
  6
DASH_CENTER
 62
     2
100
AcDbLine
 10
208.168238100847
 20
31.99752763887722
 30
0.0
 11
221.3682381008471
 21
31.99752763887722
 31
0.0
  0
LINE
  5
17A
330
1F
100
AcDbEntity
  8
1
  6
Continuous
 62
     7
100
AcDbLine
 10
217.8682381008471
 20
34.74752763887722
 30
0.0
 11
216.6182381008471
 21
34.74752763887722
 31
0.0
  0
LINE
  5
17B
330
1F
100
AcDbEntity
  8
1
  6
Continuous
 62
     7
100
AcDbLine
 10
218.3682381008471
 20
29.74752763887722
 30
0.0
 11
218.3682381008471
 21
34.24752763887722
 31
0.0
  0
LINE
  5
17C
330
1F
100
AcDbEntity
  8
1
  6
Continuous
 62
     7
100
AcDbLine
 10
216.6182381008471
 20
29.24752763887722
 30
0.0
 11
217.8682381008471
 21
29.24752763887722
 31
0.0
  0
LINE
  5
17D
330
1F
100
AcDbEntity
  8
1
  6
Continuous
 62
     7
100
AcDbLine
 10
210.8682381008471
 20
33.94752763887726
 30
0.0
 11
210.8682381008471
 21
34.24752763887722
 31
0.0
  0
LINE
  5
17E
330
1F
100
AcDbEntity
  8
1
  6
Continuous
 62
     7
100
AcDbLine
 10
210.8682381008471
 20
29.74752763887722
 30
0.0
 11
210.8682381008471
 21
30.04752763887717
 31
0.0
  0
LINE
  5
17F
330
1F
100
AcDbEntity
  8
1
  6
Continuous
 62
     7
100
AcDbLine
 10
212.1182381008471
 20
33.49752763887722
 30
0.0
 11
212.1182381008471
 21
33.94752763887726
 31
0.0
  0
LINE
  5
180
330
1F
100
AcDbEntity
  8
1
  6
Continuous
 62
     7
100
AcDbLine
 10
211.168238100847
 20
33.49752763887722
 30
0.0
 11
212.1182381008471
 21
33.49752763887722
 31
0.0
  0
LINE
  5
181
330
1F
100
AcDbEntity
  8
1
  6
Continuous
 62
     7
100
AcDbLine
 10
211.168238100847
 20
30.49752763887722
 30
0.0
 11
211.168238100847
 21
33.49752763887722
 31
0.0
  0
LINE
  5
182
330
1F
100
AcDbEntity
  8
1
  6
Continuous
 62
     7
100
AcDbLine
 10
212.1182381008471
 20
30.49752763887722
 30
0.0
 11
212.1182381008471
 21
33.49752763887722
 31
0.0
  0
LINE
  5
183
330
1F
100
AcDbEntity
  8
1
  6
Continuous
 62
     7
100
AcDbLine
 10
211.168238100847
 20
30.49752763887722
 30
0.0
 11
212.1182381008471
 21
30.49752763887722
 31
0.0
  0
LINE
  5
184
330
1F
100
AcDbEntity
  8
1
  6
Continuous
 62
     7
100
AcDbLine
 10
212.1182381008471
 20
33.94752763887726
 30
0.0
 11
212.1182381008471
 21
34.74752763887722
 31
0.0
  0
LINE
  5
185
330
1F
100
AcDbEntity
  8
1
  6
Continuous
 62
     7
100
AcDbLine
 10
210.8682381008471
 20
33.94752763887726
 30
0.0
 11
212.1182381008471
 21
33.94752763887726
 31
0.0
  0
LINE
  5
186
330
1F
100
AcDbEntity
  8
1
  6
Continuous
 62
     7
100
AcDbLine
 10
212.1182381008471
 20
30.04752763887717
 30
0.0
 11
212.1182381008471
 21
30.49752763887722
 31
0.0
  0
LINE
  5
187
330
1F
100
AcDbEntity
  8
1
  6
Continuous
 62
     7
100
AcDbLine
 10
210.8682381008471
 20
30.04752763887717
 30
0.0
 11
212.1182381008471
 21
30.04752763887717
 31
0.0
  0
LINE
  5
188
330
1F
100
AcDbEntity
  8
1
  6
Continuous
 62
     7
100
AcDbLine
 10
211.3682381008471
 20
34.74752763887722
 30
0.0
 11
212.1182381008471
 21
34.74752763887722
 31
0.0
  0
LINE
  5
189
330
1F
100
AcDbEntity
  8
1
  6
Continuous
 62
     7
100
AcDbLine
 10
212.1182381008471
 20
29.24752763887722
 30
0.0
 11
211.3682381008471
 21
29.24752763887722
 31
0.0
  0
LINE
  5
18A
330
1F
100
AcDbEntity
  8
1
  6
Continuous
 62
     7
100
AcDbLine
 10
216.6182381008471
 20
29.24752763887722
 30
0.0
 11
216.568238100847
 21
29.24752763887722
 31
0.0
  0
LINE
  5
18B
330
1F
100
AcDbEntity
  8
1
  6
Continuous
 62
     7
100
AcDbLine
 10
212.1182381008471
 20
34.74752763887722
 30
0.0
 11
212.668238100847
 21
34.74752763887722
 31
0.0
  0
LINE
  5
18C
330
1F
100
AcDbEntity
  8
1
  6
Continuous
 62
     7
100
AcDbLine
 10
212.1182381008471
 20
29.24752763887722
 30
0.0
 11
212.1182381008471
 21
30.04752763887717
 31
0.0
  0
LINE
  5
18D
330
1F
100
AcDbEntity
  8
1
  6
Continuous
 62
     7
100
AcDbLine
 10
196.196669875219
 20
35.52294244535409
 30
0.0
 11
192.6620801903002
 21
35.52294244535409
 31
0.0
  0
LINE
  5
18E
330
1F
100
AcDbEntity
  8
1
  6
Continuous
 62
     7
100
AcDbLine
 10
196.196669875219
 20
35.52294244535409
 30
0.0
 11
197.3860134233418
 21
34.24752763887722
 31
0.0
  0
LINE
  5
18F
330
1F
100
AcDbEntity
  8
1
  6
Continuous
 62
     7
100
AcDbLine
 10
196.196669875219
 20
35.52294244535409
 30
0.0
 11
192.6620801903002
 21
35.52294244535409
 31
0.0
  0
LINE
  5
190
330
1F
100
AcDbEntity
  8
1
  6
Continuous
 62
     7
100
AcDbLine
 10
192.6620801903002
 20
35.52294244535409
 30
0.0
 11
196.1620801903002
 21
37.17294244535418
 31
0.0
  0
LINE
  5
191
330
1F
100
AcDbEntity
  8
1
  6
Continuous
 62
     7
100
AcDbLine
 10
198.8900736305503
 20
34.24752763887722
 30
0.0
 11
196.1620801903002
 21
37.17294244535418
 31
0.0
  0
LINE
  5
192
330
1F
100
AcDbEntity
  8
1
  6
Continuous
 62
     7
100
AcDbLine
 10
191.3900736305503
 20
54.91443778493721
 30
0.0
 11
191.3900736305503
 21
56.61443778493725
 31
0.0
  0
LINE
  5
193
330
1F
100
AcDbEntity
  8
1
  6
Continuous
 62
     7
100
AcDbLine
 10
186.3900736305503
 20
56.61443778493725
 30
0.0
 11
191.3900736305503
 21
56.61443778493725
 31
0.0
  0
LINE
  5
194
330
1F
100
AcDbEntity
  8
1
  6
Continuous
 62
     7
100
AcDbLine
 10
191.3900736305503
 20
52.01443778493712
 30
0.0
 11
191.3900736305503
 21
54.91443778493721
 31
0.0
  0
LINE
  5
195
330
1F
100
AcDbEntity
  8
1
  6
Continuous
 62
     7
100
AcDbLine
 10
186.3900736305503
 20
54.91443778493721
 30
0.0
 11
191.3900736305503
 21
54.91443778493721
 31
0.0
  0
LINE
  5
196
330
1F
100
AcDbEntity
  8
1
  6
DASH_CENTER
 62
     2
100
AcDbLine
 10
183.3900736305503
 20
55.76443778493712
 30
0.0
 11
206.3900736305503
 21
55.76443778493712
 31
0.0
  0
LINE
  5
197
330
1F
100
AcDbEntity
  8
1
  6
Continuous
 62
     7
100
AcDbLine
 10
202.5929289809319
 20
52.31443778493707
 30
0.0
 11
202.0929289809319
 21
52.31443778493707
 31
0.0
  0
LINE
  5
198
330
1F
100
AcDbEntity
  8
1
  6
Continuous
 62
     7
100
AcDbLine
 10
203.3900736305503
 20
53.26443778493712
 30
0.0
 11
202.0929289809319
 21
53.26443778493712
 31
0.0
  0
LINE
  5
199
330
1F
100
AcDbEntity
  8
1
  6
Continuous
 62
     7
100
AcDbLine
 10
202.0929289809319
 20
52.31443778493707
 30
0.0
 11
202.0929289809319
 21
53.26443778493712
 31
0.0
  0
LINE
  5
19A
330
1F
100
AcDbEntity
  8
1
  6
Continuous
 62
     7
100
AcDbLine
 10
202.5929289809319
 20
52.31443778493707
 30
0.0
 11
203.3900736305503
 21
53.26443778493712
 31
0.0
  0
LINE
  5
19B
330
1F
100
AcDbEntity
  8
1
  6
Continuous
 62
     7
100
AcDbLine
 10
193.2620801903003
 20
57.71443778493716
 30
0.0
 11
193.2620801903003
 21
53.81443778493707
 31
0.0
  0
LINE
  5
19C
330
1F
100
AcDbEntity
  8
1
  6
Continuous
 62
     7
100
AcDbLine
 10
193.8620801903003
 20
57.71443778493716
 30
0.0
 11
193.8620801903003
 21
53.81443778493707
 31
0.0
  0
LINE
  5
19D
330
1F
100
AcDbEntity
  8
1
  6
Continuous
 62
     7
100
AcDbLine
 10
194.4620801903003
 20
57.71443778493716
 30
0.0
 11
194.4620801903003
 21
53.81443778493707
 31
0.0
  0
LINE
  5
19E
330
1F
100
AcDbEntity
  8
1
  6
Continuous
 62
     7
100
AcDbLine
 10
195.0620801903003
 20
57.71443778493716
 30
0.0
 11
195.0620801903003
 21
53.81443778493707
 31
0.0
  0
LINE
  5
19F
330
1F
100
AcDbEntity
  8
1
  6
Continuous
 62
     7
100
AcDbLine
 10
195.6620801903002
 20
57.71443778493716
 30
0.0
 11
195.6620801903002
 21
53.81443778493707
 31
0.0
  0
LINE
  5
1A0
330
1F
100
AcDbEntity
  8
1
  6
Continuous
 62
     7
100
AcDbLine
 10
198.8900736305503
 20
53.81443778493707
 30
0.0
 11
196.1620801903002
 21
53.81443778493707
 31
0.0
  0
LINE
  5
1A1
330
1F
100
AcDbEntity
  8
1
  6
Continuous
 62
     7
100
AcDbLine
 10
192.6620801903002
 20
57.71443778493716
 30
0.0
 11
196.1620801903002
 21
57.71443778493716
 31
0.0
  0
LINE
  5
1A2
330
1F
100
AcDbEntity
  8
1
  6
Continuous
 62
     7
100
AcDbLine
 10
196.1620801903002
 20
57.71443778493716
 30
0.0
 11
196.1620801903002
 21
53.81443778493707
 31
0.0
  0
LINE
  5
1A3
330
1F
100
AcDbEntity
  8
1
  6
Continuous
 62
     7
100
AcDbLine
 10
196.1620801903002
 20
53.81443778493707
 30
0.0
 11
192.6620801903002
 21
53.81443778493707
 31
0.0
  0
LINE
  5
1A4
330
1F
100
AcDbEntity
  8
1
  6
Continuous
 62
     7
100
AcDbLine
 10
192.6620801903002
 20
57.71443778493716
 30
0.0
 11
192.6620801903002
 21
53.81443778493707
 31
0.0
  0
LINE
  5
1A5
330
1F
100
AcDbEntity
  8
1
  6
Continuous
 62
     7
100
AcDbLine
 10
196.196669875219
 20
27.97211283240011
 30
0.0
 11
196.1620801903002
 21
27.93501993660419
 31
0.0
  0
LINE
  5
1A6
330
1F
100
AcDbEntity
  8
1
  6
Continuous
 62
     7
100
AcDbLine
 10
192.6620801903002
 20
27.97211283240011
 30
0.0
 11
196.196669875219
 21
27.97211283240011
 31
0.0
  0
LINE
  5
1A7
330
1F
100
AcDbEntity
  8
1
  6
Continuous
 62
     7
100
AcDbLine
 10
196.1620801903002
 20
26.32211283240025
 30
0.0
 11
192.6620801903002
 21
27.97211283240011
 31
0.0
  0
LINE
  5
1A8
330
1F
100
AcDbEntity
  8
1
  6
Continuous
 62
     7
100
AcDbLine
 10
197.3860134233418
 20
29.24752763887722
 30
0.0
 11
192.8900736305503
 21
29.24752763887722
 31
0.0
  0
LINE
  5
1A9
330
1F
100
AcDbEntity
  8
1
  6
Continuous
 62
     7
100
AcDbLine
 10
197.3860134233418
 20
29.24752763887722
 30
0.0
 11
196.196669875219
 21
27.97211283240011
 31
0.0
  0
LINE
  5
1AA
330
1F
100
AcDbEntity
  8
1
  6
Continuous
 62
     7
100
AcDbLine
 10
196.1620801903002
 20
57.71443778493716
 30
0.0
 11
198.8900736305503
 21
57.71443778493716
 31
0.0
  0
LINE
  5
1AB
330
1F
100
AcDbEntity
  8
1
  6
Continuous
 62
     7
100
AcDbLine
 10
198.8900736305503
 20
57.71443778493716
 30
0.0
 11
198.8900736305503
 21
53.81443778493707
 31
0.0
  0
LINE
  5
1AC
330
1F
100
AcDbEntity
  8
1
  6
Continuous
 62
     7
100
AcDbLine
 10
202.0929289809319
 20
53.26443778493712
 30
0.0
 11
192.8900736305503
 21
53.26443778493712
 31
0.0
  0
LINE
  5
1AD
330
1F
100
AcDbEntity
  8
1
  6
Continuous
 62
     7
100
AcDbLine
 10
192.8900736305503
 20
53.26443778493712
 30
0.0
 11
192.8900736305503
 21
52.01443778493712
 31
0.0
  0
LINE
  5
1AE
330
1F
100
AcDbEntity
  8
1
  6
Continuous
 62
     7
100
AcDbLine
 10
192.8900736305503
 20
52.01443778493712
 30
0.0
 11
191.3900736305503
 21
52.01443778493712
 31
0.0
  0
LINE
  5
1AF
330
1F
100
AcDbEntity
  8
1
  6
Continuous
 62
     7
100
AcDbLine
 10
191.3900736305503
 20
56.61443778493725
 30
0.0
 11
191.3900736305503
 21
59.51443778493712
 31
0.0
  0
LINE
  5
1B0
330
1F
100
AcDbEntity
  8
1
  6
Continuous
 62
     7
100
AcDbLine
 10
191.3900736305503
 20
59.51443778493712
 30
0.0
 11
192.8900736305503
 21
59.51443778493712
 31
0.0
  0
LINE
  5
1B1
330
1F
100
AcDbEntity
  8
1
  6
Continuous
 62
     7
100
AcDbLine
 10
192.8900736305503
 20
59.51443778493712
 30
0.0
 11
192.8900736305503
 21
58.26443778493712
 31
0.0
  0
LINE
  5
1B2
330
1F
100
AcDbEntity
  8
1
  6
Continuous
 62
     7
100
AcDbLine
 10
192.8900736305503
 20
58.26443778493712
 30
0.0
 11
203.3900736305503
 21
58.26443778493712
 31
0.0
  0
LINE
  5
1B3
330
1F
100
AcDbEntity
  8
1
  6
Continuous
 62
     7
100
AcDbLine
 10
203.3900736305503
 20
58.26443778493712
 30
0.0
 11
203.3900736305503
 21
53.26443778493712
 31
0.0
  0
LINE
  5
1B4
330
1F
100
AcDbEntity
  8
1
  6
Continuous
 62
     7
100
AcDbLine
 10
160.3593228349128
 20
30.04752763887717
 30
0.0
 11
191.3900736305503
 21
30.04752763887717
 31
0.0
  0
LINE
  5
1B5
330
1F
100
AcDbEntity
  8
1
  6
Continuous
 62
     7
100
AcDbLine
 10
159.714865999516
 20
33.44752763887726
 30
0.0
 11
111.3700736305502
 21
33.44752763887726
 31
0.0
  0
LINE
  5
1B6
330
1F
100
AcDbEntity
  8
1
  6
Continuous
 62
     7
100
AcDbLine
 10
202.3900736305503
 20
30.24752763887722
 30
0.0
 11
203.3900736305503
 21
30.24752763887722
 31
0.0
  0
LINE
  5
1B7
330
1F
100
AcDbEntity
  8
1
  6
Continuous
 62
     7
100
AcDbLine
 10
202.3900736305503
 20
33.24752763887722
 30
0.0
 11
201.8900736305503
 21
33.24752763887722
 31
0.0
  0
LINE
  5
1B8
330
1F
100
AcDbEntity
  8
1
  6
Continuous
 62
     7
100
AcDbLine
 10
202.3900736305503
 20
33.24752763887722
 30
0.0
 11
202.3900736305503
 21
30.24752763887722
 31
0.0
  0
LINE
  5
1B9
330
1F
100
AcDbEntity
  8
1
  6
Continuous
 62
     7
100
AcDbLine
 10
203.3900736305503
 20
30.24752763887722
 30
0.0
 11
203.3900736305503
 21
29.24752763887722
 31
0.0
  0
LINE
  5
1BA
330
1F
100
AcDbEntity
  8
1
  6
Continuous
 62
     7
100
AcDbLine
 10
201.8900736305503
 20
30.24752763887722
 30
0.0
 11
202.3900736305503
 21
30.24752763887722
 31
0.0
  0
LINE
  5
1BB
330
1F
100
AcDbEntity
  8
1
  6
Continuous
 62
     7
100
AcDbLine
 10
201.8900736305503
 20
33.24752763887722
 30
0.0
 11
201.8900736305503
 21
30.24752763887722
 31
0.0
  0
LINE
  5
1BC
330
1F
100
AcDbEntity
  8
1
  6
Continuous
 62
     7
100
AcDbLine
 10
203.3900736305503
 20
33.24752763887722
 30
0.0
 11
203.3900736305503
 21
30.24752763887722
 31
0.0
  0
LINE
  5
1BD
330
1F
100
AcDbEntity
  8
1
  6
Continuous
 62
     7
100
AcDbLine
 10
203.3900736305503
 20
33.24752763887722
 30
0.0
 11
202.3900736305503
 21
33.24752763887722
 31
0.0
  0
LINE
  5
1BE
330
1F
100
AcDbEntity
  8
1
  6
Continuous
 62
     7
100
AcDbLine
 10
196.1620801903002
 20
26.32211283240025
 30
0.0
 11
198.8900736305503
 21
29.24752763887722
 31
0.0
  0
LINE
  5
1BF
330
1F
100
AcDbEntity
  8
1
  6
Continuous
 62
     7
100
AcDbLine
 10
192.8900736305503
 20
34.24752763887722
 30
0.0
 11
203.3900736305503
 21
34.24752763887722
 31
0.0
  0
LINE
  5
1C0
330
1F
100
AcDbEntity
  8
1
  6
Continuous
 62
     7
100
AcDbLine
 10
198.8900736305503
 20
29.24752763887722
 30
0.0
 11
197.3860134233418
 21
29.24752763887722
 31
0.0
  0
LINE
  5
1C1
330
1F
100
AcDbEntity
  8
1
  6
Continuous
 62
     7
100
AcDbLine
 10
191.3900736305503
 20
30.04752763887717
 30
0.0
 11
191.3900736305503
 21
33.44752763887726
 31
0.0
  0
LINE
  5
1C2
330
1F
100
AcDbEntity
  8
1
  6
Continuous
 62
     7
100
AcDbLine
 10
192.8900736305503
 20
30.04752763887717
 30
0.0
 11
191.3900736305503
 21
30.04752763887717
 31
0.0
  0
LINE
  5
1C3
330
1F
100
AcDbEntity
  8
1
  6
Continuous
 62
     7
100
AcDbLine
 10
192.8900736305503
 20
29.24752763887722
 30
0.0
 11
191.3900736305503
 21
29.24752763887722
 31
0.0
  0
LINE
  5
1C4
330
1F
100
AcDbEntity
  8
1
  6
Continuous
 62
     7
100
AcDbLine
 10
192.8900736305503
 20
29.24752763887722
 30
0.0
 11
192.8900736305503
 21
30.04752763887717
 31
0.0
  0
LINE
  5
1C5
330
1F
100
AcDbEntity
  8
1
  6
Continuous
 62
     7
100
AcDbLine
 10
191.3900736305503
 20
33.44752763887726
 30
0.0
 11
191.3900736305503
 21
34.24752763887722
 31
0.0
  0
LINE
  5
1C6
330
1F
100
AcDbEntity
  8
1
  6
Continuous
 62
     7
100
AcDbLine
 10
192.8900736305503
 20
33.44752763887726
 30
0.0
 11
191.3900736305503
 21
33.44752763887726
 31
0.0
  0
LINE
  5
1C7
330
1F
100
AcDbEntity
  8
1
  6
Continuous
 62
     7
100
AcDbLine
 10
192.8900736305503
 20
34.24752763887722
 30
0.0
 11
192.8900736305503
 21
33.44752763887726
 31
0.0
  0
LINE
  5
1C8
330
1F
100
AcDbEntity
  8
1
  6
Continuous
 62
     7
100
AcDbLine
 10
191.3900736305503
 20
29.24752763887722
 30
0.0
 11
191.3900736305503
 21
30.04752763887717
 31
0.0
  0
LINE
  5
1C9
330
1F
100
AcDbEntity
  8
1
  6
Continuous
 62
     7
100
AcDbLine
 10
203.3900736305503
 20
29.24752763887722
 30
0.0
 11
198.8900736305503
 21
29.24752763887722
 31
0.0
  0
LINE
  5
1CA
330
1F
100
AcDbEntity
  8
1
  6
Continuous
 62
     7
100
AcDbLine
 10
203.3900736305503
 20
34.24752763887722
 30
0.0
 11
203.3900736305503
 21
33.24752763887722
 31
0.0
  0
LINE
  5
1CB
330
1F
100
AcDbEntity
  8
1
  6
Continuous
 62
     7
100
AcDbLine
 10
191.3900736305503
 20
34.24752763887722
 30
0.0
 11
192.8900736305503
 21
34.24752763887722
 31
0.0
  0
LINE
  5
1CC
330
1F
100
AcDbEntity
  8
1
  6
DASH_CENTER
 62
     2
100
AcDbLine
 10
205.3900736305503
 20
31.74752763887722
 30
0.0
 11
91.99359571677371
 21
31.74752763887722
 31
0.0
  0
LINE
  5
1CD
330
1F
100
AcDbEntity
  8
1
  6
Continuous
 62
     7
100
AcDbLine
 10
111.3700736305502
 20
30.04752763887717
 30
0.0
 11
111.3700736305502
 21
29.24752763887722
 31
0.0
  0
LINE
  5
1CE
330
1F
100
AcDbEntity
  8
1
  6
Continuous
 62
     7
100
AcDbLine
 10
111.3700736305502
 20
30.04752763887717
 30
0.0
 11
159.3593228349128
 21
30.04752763887717
 31
0.0
  0
LINE
  5
1CF
330
1F
100
AcDbEntity
  8
1
  6
Continuous
 62
     7
100
AcDbLine
 10
111.3700736305502
 20
33.44752763887726
 30
0.0
 11
111.3700736305502
 21
30.04752763887717
 31
0.0
  0
LINE
  5
1D0
330
1F
100
AcDbEntity
  8
1
  6
Continuous
 62
     7
100
AcDbLine
 10
191.3900736305503
 20
33.44752763887726
 30
0.0
 11
160.714865999516
 21
33.44752763887726
 31
0.0
  0
LINE
  5
1D1
330
1F
100
AcDbEntity
  8
1
  6
Continuous
 62
     7
100
AcDbLine
 10
105.9700736305503
 20
30.99752763887722
 30
0.0
 11
105.9700736305503
 21
28.83843672978622
 31
0.0
  0
LINE
  5
1D2
330
1F
100
AcDbEntity
  8
1
  6
Continuous
 62
     7
100
AcDbLine
 10
107.4700736305503
 20
30.99752763887722
 30
0.0
 11
107.4700736305503
 21
28.95207309342226
 31
0.0
  0
LINE
  5
1D3
330
1F
100
AcDbEntity
  8
1
  6
Continuous
 62
     7
100
AcDbLine
 10
107.4700736305503
 20
30.99752763887722
 30
0.0
 11
109.8700736305502
 21
30.99752763887722
 31
0.0
  0
LINE
  5
1D4
330
1F
100
AcDbEntity
  8
1
  6
Continuous
 62
     7
100
AcDbLine
 10
102.4700736305503
 20
30.99752763887722
 30
0.0
 11
102.4700736305503
 21
28.57328521463518
 31
0.0
  0
LINE
  5
1D5
330
1F
100
AcDbEntity
  8
1
  6
Continuous
 62
     7
100
AcDbLine
 10
98.57007363055027
 20
30.99752763887722
 30
0.0
 11
98.57007363055027
 21
28.27783066918022
 31
0.0
  0
LINE
  5
1D6
330
1F
100
AcDbEntity
  8
1
  6
Continuous
 62
     7
100
AcDbLine
 10
100.0700736305503
 20
30.99752763887722
 30
0.0
 11
100.0700736305503
 21
28.39146703281625
 31
0.0
  0
LINE
  5
1D7
330
1F
100
AcDbEntity
  8
1
  6
Continuous
 62
     7
100
AcDbLine
 10
107.4700736305503
 20
32.49752763887722
 30
0.0
 11
107.4700736305503
 21
30.99752763887722
 31
0.0
  0
LINE
  5
1D8
330
1F
100
AcDbEntity
  8
1
  6
Continuous
 62
     7
100
AcDbLine
 10
105.9700736305503
 20
32.49752763887722
 30
0.0
 11
105.9700736305503
 21
30.99752763887722
 31
0.0
  0
LINE
  5
1D9
330
1F
100
AcDbEntity
  8
1
  6
Continuous
 62
     7
100
AcDbLine
 10
103.9700736305503
 20
32.49752763887722
 30
0.0
 11
103.9700736305503
 21
30.99752763887722
 31
0.0
  0
LINE
  5
1DA
330
1F
100
AcDbEntity
  8
1
  6
Continuous
 62
     7
100
AcDbLine
 10
103.9700736305503
 20
30.99752763887722
 30
0.0
 11
103.9700736305503
 21
28.68692157827121
 31
0.0
  0
LINE
  5
1DB
330
1F
100
AcDbEntity
  8
1
  6
Continuous
 62
     7
100
AcDbLine
 10
102.4700736305503
 20
32.49752763887722
 30
0.0
 11
102.4700736305503
 21
30.99752763887722
 31
0.0
  0
LINE
  5
1DC
330
1F
100
AcDbEntity
  8
1
  6
Continuous
 62
     7
100
AcDbLine
 10
98.57007363055027
 20
32.49752763887722
 30
0.0
 11
98.57007363055027
 21
30.99752763887722
 31
0.0
  0
LINE
  5
1DD
330
1F
100
AcDbEntity
  8
1
  6
Continuous
 62
     7
100
AcDbLine
 10
100.0700736305503
 20
32.49752763887722
 30
0.0
 11
100.0700736305503
 21
30.99752763887722
 31
0.0
  0
LINE
  5
1DE
330
1F
100
AcDbEntity
  8
1
  6
Continuous
 62
     7
100
AcDbLine
 10
107.4700736305503
 20
32.49752763887722
 30
0.0
 11
109.8700736305502
 21
32.49752763887722
 31
0.0
  0
LINE
  5
1DF
330
1F
100
AcDbEntity
  8
1
  6
Continuous
 62
     7
100
AcDbLine
 10
103.9700736305503
 20
32.49752763887722
 30
0.0
 11
105.9700736305503
 21
32.49752763887722
 31
0.0
  0
LINE
  5
1E0
330
1F
100
AcDbEntity
  8
1
  6
Continuous
 62
     7
100
AcDbLine
 10
103.9700736305503
 20
30.99752763887722
 30
0.0
 11
105.9700736305503
 21
30.99752763887722
 31
0.0
  0
LINE
  5
1E1
330
1F
100
AcDbEntity
  8
1
  6
Continuous
 62
     7
100
AcDbLine
 10
100.0700736305503
 20
30.99752763887722
 30
0.0
 11
102.4700736305503
 21
30.99752763887722
 31
0.0
  0
LINE
  5
1E2
330
1F
100
AcDbEntity
  8
1
  6
Continuous
 62
     7
100
AcDbLine
 10
100.0700736305503
 20
32.49752763887722
 30
0.0
 11
102.4700736305503
 21
32.49752763887722
 31
0.0
  0
LINE
  5
1E3
330
1F
100
AcDbEntity
  8
1
  6
Continuous
 62
     7
100
AcDbLine
 10
109.8700736305502
 20
30.99752763887722
 30
0.0
 11
109.8700736305502
 21
29.13389127524118
 31
0.0
  0
LINE
  5
1E4
330
1F
100
AcDbEntity
  8
1
  6
Continuous
 62
     7
100
AcDbLine
 10
96.37007363055022
 20
30.99752763887722
 30
0.0
 11
96.37007363055022
 21
28.11116400251325
 31
0.0
  0
LINE
  5
1E5
330
1F
100
AcDbEntity
  8
1
  6
Continuous
 62
     7
100
AcDbLine
 10
96.37007363055022
 20
30.99752763887722
 30
0.0
 11
98.57007363055027
 21
30.99752763887722
 31
0.0
  0
LINE
  5
1E6
330
1F
100
AcDbEntity
  8
1
  6
Continuous
 62
     7
100
AcDbLine
 10
109.8700736305502
 20
32.49752763887722
 30
0.0
 11
109.8700736305502
 21
30.99752763887722
 31
0.0
  0
LINE
  5
1E7
330
1F
100
AcDbEntity
  8
1
  6
Continuous
 62
     7
100
AcDbLine
 10
96.37007363055022
 20
32.49752763887722
 30
0.0
 11
96.37007363055022
 21
30.99752763887722
 31
0.0
  0
LINE
  5
1E8
330
1F
100
AcDbEntity
  8
1
  6
Continuous
 62
     7
100
AcDbLine
 10
96.37007363055022
 20
32.49752763887722
 30
0.0
 11
98.57007363055027
 21
32.49752763887722
 31
0.0
  0
LINE
  5
1E9
330
1F
100
AcDbEntity
  8
1
  6
Continuous
 62
     7
100
AcDbLine
 10
109.8700736305502
 20
29.13389127524118
 30
0.0
 11
111.3700736305502
 21
29.24752763887722
 31
0.0
  0
LINE
  5
1EA
330
1F
100
AcDbEntity
  8
1
  6
Continuous
 62
     7
100
AcDbLine
 10
109.8700736305502
 20
34.36116400251325
 30
0.0
 11
111.3700736305502
 21
34.24752763887722
 31
0.0
  0
LINE
  5
1EB
330
1F
100
AcDbEntity
  8
1
  6
Continuous
 62
     7
100
AcDbLine
 10
109.8700736305502
 20
34.36116400251325
 30
0.0
 11
109.8700736305502
 21
32.49752763887722
 31
0.0
  0
LINE
  5
1EC
330
1F
100
AcDbEntity
  8
1
  6
Continuous
 62
     7
100
AcDbLine
 10
107.4700736305503
 20
28.95207309342226
 30
0.0
 11
109.8700736305502
 21
29.13389127524118
 31
0.0
  0
LINE
  5
1ED
330
1F
100
AcDbEntity
  8
1
  6
Continuous
 62
     7
100
AcDbLine
 10
107.4700736305503
 20
34.54298218433218
 30
0.0
 11
109.8700736305502
 21
34.36116400251325
 31
0.0
  0
LINE
  5
1EE
330
1F
100
AcDbEntity
  8
1
  6
Continuous
 62
     7
100
AcDbLine
 10
107.4700736305503
 20
34.54298218433218
 30
0.0
 11
107.4700736305503
 21
32.49752763887722
 31
0.0
  0
LINE
  5
1EF
330
1F
100
AcDbEntity
  8
1
  6
Continuous
 62
     7
100
AcDbLine
 10
105.9700736305503
 20
28.83843672978622
 30
0.0
 11
107.4700736305503
 21
28.95207309342226
 31
0.0
  0
LINE
  5
1F0
330
1F
100
AcDbEntity
  8
1
  6
Continuous
 62
     7
100
AcDbLine
 10
105.9700736305503
 20
34.65661854796821
 30
0.0
 11
107.4700736305503
 21
34.54298218433218
 31
0.0
  0
LINE
  5
1F1
330
1F
100
AcDbEntity
  8
1
  6
Continuous
 62
     7
100
AcDbLine
 10
105.9700736305503
 20
34.65661854796821
 30
0.0
 11
105.9700736305503
 21
32.49752763887722
 31
0.0
  0
LINE
  5
1F2
330
1F
100
AcDbEntity
  8
1
  6
Continuous
 62
     7
100
AcDbLine
 10
103.9700736305503
 20
28.68692157827121
 30
0.0
 11
105.9700736305503
 21
28.83843672978622
 31
0.0
  0
LINE
  5
1F3
330
1F
100
AcDbEntity
  8
1
  6
Continuous
 62
     7
100
AcDbLine
 10
103.9700736305503
 20
34.80813369948322
 30
0.0
 11
105.9700736305503
 21
34.65661854796821
 31
0.0
  0
LINE
  5
1F4
330
1F
100
AcDbEntity
  8
1
  6
Continuous
 62
     7
100
AcDbLine
 10
103.9700736305503
 20
34.80813369948322
 30
0.0
 11
103.9700736305503
 21
32.49752763887722
 31
0.0
  0
LINE
  5
1F5
330
1F
100
AcDbEntity
  8
1
  6
Continuous
 62
     7
100
AcDbLine
 10
102.4700736305503
 20
28.57328521463518
 30
0.0
 11
103.9700736305503
 21
28.68692157827121
 31
0.0
  0
LINE
  5
1F6
330
1F
100
AcDbEntity
  8
1
  6
Continuous
 62
     7
100
AcDbLine
 10
102.4700736305503
 20
34.92177006311925
 30
0.0
 11
103.9700736305503
 21
34.80813369948322
 31
0.0
  0
LINE
  5
1F7
330
1F
100
AcDbEntity
  8
1
  6
Continuous
 62
     7
100
AcDbLine
 10
102.4700736305503
 20
34.92177006311925
 30
0.0
 11
102.4700736305503
 21
32.49752763887722
 31
0.0
  0
LINE
  5
1F8
330
1F
100
AcDbEntity
  8
1
  6
Continuous
 62
     7
100
AcDbLine
 10
100.0700736305503
 20
28.39146703281625
 30
0.0
 11
102.4700736305503
 21
28.57328521463518
 31
0.0
  0
LINE
  5
1F9
330
1F
100
AcDbEntity
  8
1
  6
Continuous
 62
     7
100
AcDbLine
 10
100.0700736305503
 20
35.10358824493818
 30
0.0
 11
102.4700736305503
 21
34.92177006311925
 31
0.0
  0
LINE
  5
1FA
330
1F
100
AcDbEntity
  8
1
  6
Continuous
 62
     7
100
AcDbLine
 10
100.0700736305503
 20
35.10358824493818
 30
0.0
 11
100.0700736305503
 21
32.49752763887722
 31
0.0
  0
LINE
  5
1FB
330
1F
100
AcDbEntity
  8
1
  6
Continuous
 62
     7
100
AcDbLine
 10
98.57007363055027
 20
28.27783066918022
 30
0.0
 11
100.0700736305503
 21
28.39146703281625
 31
0.0
  0
LINE
  5
1FC
330
1F
100
AcDbEntity
  8
1
  6
Continuous
 62
     7
100
AcDbLine
 10
98.57007363055027
 20
35.21722460857421
 30
0.0
 11
100.0700736305503
 21
35.10358824493818
 31
0.0
  0
LINE
  5
1FD
330
1F
100
AcDbEntity
  8
1
  6
Continuous
 62
     7
100
AcDbLine
 10
98.57007363055027
 20
35.21722460857421
 30
0.0
 11
98.57007363055027
 21
32.49752763887722
 31
0.0
  0
LINE
  5
1FE
330
1F
100
AcDbEntity
  8
1
  6
Continuous
 62
     7
100
AcDbLine
 10
96.37007363055022
 20
28.11116400251325
 30
0.0
 11
98.57007363055027
 21
28.27783066918022
 31
0.0
  0
LINE
  5
1FF
330
1F
100
AcDbEntity
  8
1
  6
Continuous
 62
     7
100
AcDbLine
 10
96.37007363055022
 20
35.38389127524118
 30
0.0
 11
98.57007363055027
 21
35.21722460857421
 31
0.0
  0
LINE
  5
200
330
1F
100
AcDbEntity
  8
1
  6
Continuous
 62
     7
100
AcDbLine
 10
96.37007363055022
 20
35.38389127524118
 30
0.0
 11
96.37007363055022
 21
32.49752763887722
 31
0.0
  0
LINE
  5
201
330
1F
100
AcDbEntity
  8
1
  6
Continuous
 62
     7
100
AcDbLine
 10
94.87007363055022
 20
35.49752763887722
 30
0.0
 11
96.37007363055022
 21
35.38389127524118
 31
0.0
  0
LINE
  5
202
330
1F
100
AcDbEntity
  8
1
  6
Continuous
 62
     7
100
AcDbLine
 10
111.3700736305502
 20
34.24752763887722
 30
0.0
 11
111.3700736305502
 21
33.44752763887726
 31
0.0
  0
LINE
  5
203
330
1F
100
AcDbEntity
  8
1
  6
Continuous
 62
     7
100
AcDbLine
 10
36.49007363055046
 20
67.12252763887722
 30
0.0
 11
36.49007363055035
 21
27.51252763887709
 31
0.0
  0
LINE
  5
204
330
1F
100
AcDbEntity
  8
1
  6
Continuous
 62
     7
100
AcDbLine
 10
89.75007363055022
 20
70.62252763887722
 30
0.0
 11
39.99007363055046
 21
70.62252763887722
 31
0.0
  0
LINE
  5
205
330
1F
100
AcDbEntity
  8
1
  6
Continuous
 62
     7
100
AcDbLine
 10
93.25007363055022
 20
27.51252763887709
 30
0.0
 11
93.25007363055022
 21
67.12252763887722
 31
0.0
  0
LINE
  5
206
330
1F
100
AcDbEntity
  8
1
  6
Continuous
 62
     7
100
AcDbLine
 10
39.99007363055035
 20
24.01252763887709
 30
0.0
 11
89.75007363055022
 21
24.01252763887709
 31
0.0
  0
LINE
  5
207
330
1F
100
AcDbEntity
  8
1
  6
Continuous
 62
     7
100
AcDbLine
 10
64.87007363055022
 20
72.31752763887715
 30
0.0
 11
91.37007363055022
 21
72.31752763887715
 31
0.0
  0
LINE
  5
208
330
1F
100
AcDbEntity
  8
1
  6
Continuous
 62
     7
100
AcDbLine
 10
94.87007363055022
 20
47.31752763887715
 30
0.0
 11
94.87007363055022
 21
35.49752763887722
 31
0.0
  0
LINE
  5
209
330
1F
100
AcDbEntity
  8
1
  6
Continuous
 62
     7
100
AcDbLine
 10
64.87007363055022
 20
22.31752763887715
 30
0.0
 11
38.37007363055023
 21
22.31752763887715
 31
0.0
  0
LINE
  5
20A
330
1F
100
AcDbEntity
  8
1
  6
Continuous
 62
     7
100
AcDbLine
 10
34.87007363055023
 20
25.81752763887715
 30
0.0
 11
34.87007363055034
 21
68.81752763887715
 31
0.0
  0
LINE
  5
20B
330
1F
100
AcDbEntity
  8
1
  6
Continuous
 62
     7
100
AcDbLine
 10
91.37007363055022
 20
22.31752763887715
 30
0.0
 11
64.87007363055022
 21
22.31752763887715
 31
0.0
  0
LINE
  5
20C
330
1F
100
AcDbEntity
  8
1
  6
Continuous
 62
     7
100
AcDbLine
 10
94.87007363055022
 20
68.81752763887715
 30
0.0
 11
94.87007363055022
 21
47.31752763887715
 31
0.0
  0
LINE
  5
20D
330
1F
100
AcDbEntity
  8
1
  6
Continuous
 62
     7
100
AcDbLine
 10
38.37007363055034
 20
72.31752763887715
 30
0.0
 11
64.87007363055022
 21
72.31752763887715
 31
0.0
  0
LINE
  5
20E
330
1F
100
AcDbEntity
  8
1
  6
Continuous
 62
     7
100
AcDbLine
 10
185.1241574835168
 20
9.39331053078212
 30
0.0
 11
225.6375271020474
 21
9.39331053078212
 31
0.0
  0
LINE
  5
20F
330
1F
100
AcDbEntity
  8
1
  6
Continuous
 62
     7
100
AcDbLine
 10
95.68462375863214
 20
-23.07329916694772
 30
0.0
 11
94.98663762402657
 21
-29.76954747243786
 31
0.0
  0
LINE
  5
210
330
1F
100
AcDbEntity
  8
1
  6
Continuous
 62
     7
100
AcDbLine
 10
96.326291583797
 20
-14.60232733399977
 30
0.0
 11
95.06961092764061
 21
6.10532420234625
 31
0.0
  0
LINE
  5
211
330
1F
100
AcDbEntity
  8
1
  6
Continuous
 62
     7
100
AcDbLine
 10
193.4250503664823
 20
-15.70668946921779
 30
0.0
 11
190.9783164328687
 21
-15.70668946921779
 31
0.0
  0
LINE
  5
212
330
1F
100
AcDbEntity
  8
1
  6
DASH_CENTER
 62
     2
100
AcDbLine
 10
78.87007363055034
 20
-31.55085928972272
 30
0.0
 11
78.87007363055034
 21
-44.30085928972272
 31
0.0
  0
LINE
  5
213
330
1F
100
AcDbEntity
  8
1
  6
DASH_CENTER
 62
     2
100
AcDbLine
 10
78.87007363055034
 20
-54.55085928972272
 30
0.0
 11
78.87007363055034
 21
-44.30085928972272
 31
0.0
  0
LINE
  5
214
330
1F
100
AcDbEntity
  8
1
  6
Continuous
 62
     7
100
AcDbLine
 10
198.2808422927822
 20
-32.90668946921784
 30
0.0
 11
198.2808422927822
 21
-49.90668946921784
 31
0.0
  0
LINE
  5
215
330
1F
100
AcDbEntity
  8
1
  6
Continuous
 62
     7
100
AcDbLine
 10
198.2808422927822
 20
-32.90668946921784
 30
0.0
 11
199.7808422927822
 21
-32.90668946921784
 31
0.0
  0
LINE
  5
216
330
1F
100
AcDbEntity
  8
1
  6
Continuous
 62
     7
100
AcDbLine
 10
198.2808422927822
 20
-49.90668946921784
 30
0.0
 11
199.7808422927822
 21
-49.90668946921784
 31
0.0
  0
LINE
  5
217
330
1F
100
AcDbEntity
  8
1
  6
Continuous
 62
     7
100
AcDbLine
 10
199.7808422927822
 20
-49.90668946921784
 30
0.0
 11
199.7808422927822
 21
-32.90668946921784
 31
0.0
  0
LINE
  5
218
330
1F
100
AcDbEntity
  8
1
  6
Continuous
 62
     7
100
AcDbLine
 10
199.7808422927822
 20
-32.90668946921784
 30
0.0
 11
224.8608422927821
 21
-32.90668946921784
 31
0.0
  0
LINE
  5
219
330
1F
100
AcDbEntity
  8
1
  6
Continuous
 62
     7
100
AcDbLine
 10
212.4808422927821
 20
-49.90668946921784
 30
0.0
 11
212.4808422927821
 21
-32.90668946921784
 31
0.0
  0
LINE
  5
21A
330
1F
100
AcDbEntity
  8
1
  6
Continuous
 62
     7
100
AcDbLine
 10
210.9808422927821
 20
-32.90668946921784
 30
0.0
 11
212.4808422927821
 21
-32.90668946921784
 31
0.0
  0
LINE
  5
21B
330
1F
100
AcDbEntity
  8
1
  6
Continuous
 62
     7
100
AcDbLine
 10
210.9808422927821
 20
-49.90668946921784
 30
0.0
 11
212.4808422927821
 21
-49.90668946921784
 31
0.0
  0
LINE
  5
21C
330
1F
100
AcDbEntity
  8
1
  6
Continuous
 62
     7
100
AcDbLine
 10
210.9808422927821
 20
-32.90668946921784
 30
0.0
 11
210.9808422927821
 21
-49.90668946921784
 31
0.0
  0
LINE
  5
21D
330
1F
100
AcDbEntity
  8
1
  6
DASH_CENTER
 62
     2
100
AcDbLine
 10
199.0308422927822
 20
-29.90668946921784
 30
0.0
 11
199.0308422927822
 21
-52.90668946921784
 31
0.0
  0
LINE
  5
21E
330
1F
100
AcDbEntity
  8
1
  6
DASH_CENTER
 62
     2
100
AcDbLine
 10
211.7308422927821
 20
-29.90668946921784
 30
0.0
 11
211.7308422927821
 21
-52.90668946921784
 31
0.0
  0
LINE
  5
21F
330
1F
100
AcDbEntity
  8
1
  6
DASH_CENTER
 62
     2
100
AcDbLine
 10
92.36387176867254
 20
-19.27032583285387
 30
0.0
 11
128.3638717686724
 21
-19.27032583285387
 31
0.0
  0
LINE
  5
220
330
1F
100
AcDbEntity
  8
1
  6
Continuous
 62
     7
100
AcDbLine
 10
94.87007363055022
 20
35.49752763887722
 30
0.0
 11
94.87007363055022
 21
27.99752763887722
 31
0.0
  0
LINE
  5
221
330
1F
100
AcDbEntity
  8
1
  6
Continuous
 62
     7
100
AcDbLine
 10
94.87007363055022
 20
27.99752763887722
 30
0.0
 11
94.87007363055022
 21
25.81752763887715
 31
0.0
  0
LINE
  5
222
330
1F
100
AcDbEntity
  8
1
  6
Continuous
 62
     7
100
AcDbLine
 10
94.87007363055022
 20
27.99752763887722
 30
0.0
 11
96.37007363055022
 21
28.11116400251325
 31
0.0
  0
LINE
  5
223
330
1F
100
AcDbEntity
  8
1
  6
Continuous
 62
     7
100
AcDbLine
 10
98.07427530708822
 20
-15.6339621964899
 30
0.0
 11
96.39244467367166
 21
-15.52032583285387
 31
0.0
  0
LINE
  5
224
330
1F
100
AcDbEntity
  8
1
  6
Continuous
 62
     7
100
AcDbLine
 10
95.36387176867254
 20
-15.60668946921788
 30
0.0
 11
95.36387176867254
 21
-15.70668946921779
 31
0.0
  0
LINE
  5
225
330
1F
100
AcDbEntity
  8
1
  6
Continuous
 62
     7
100
AcDbLine
 10
87.97007363055036
 20
-34.10668946921788
 30
0.0
 11
69.77007363055031
 21
-34.10668946921788
 31
0.0
  0
LINE
  5
226
330
1F
100
AcDbEntity
  8
1
  6
Continuous
 62
     7
100
AcDbLine
 10
69.77007363055031
 20
-34.10668946921788
 30
0.0
 11
69.77007363055031
 21
-32.90668946921784
 31
0.0
  0
LINE
  5
227
330
1F
100
AcDbEntity
  8
1
  6
Continuous
 62
     7
100
AcDbLine
 10
70.59007363055025
 20
-32.90668946921784
 30
0.0
 11
59.97007363055037
 21
-32.90668946921784
 31
0.0
  0
LINE
  5
228
330
1F
100
AcDbEntity
  8
1
  6
Continuous
 62
     7
100
AcDbLine
 10
87.97007363055036
 20
-34.10668946921788
 30
0.0
 11
87.97007363055036
 21
-32.90668946921784
 31
0.0
  0
LINE
  5
229
330
1F
100
AcDbEntity
  8
1
  6
Continuous
 62
     7
100
AcDbLine
 10
83.67007363055041
 20
-32.90668946921784
 30
0.0
 11
78.29507363055041
 21
-32.90668946921784
 31
0.0
  0
LINE
  5
22A
330
1F
100
AcDbEntity
  8
1
  6
Continuous
 62
     7
100
AcDbLine
 10
95.68959921075566
 20
-23.02032583285387
 30
0.0
 11
98.0686953314771
 21
-22.90756377665576
 31
0.0
  0
LINE
  5
22B
330
1F
100
AcDbEntity
  8
1
  6
Continuous
 62
     7
100
AcDbLine
 10
188.6433681526954
 20
-15.70668946921779
 30
0.0
 11
182.3008422927819
 21
-15.70668946921779
 31
0.0
  0
LINE
  5
22C
330
1F
100
AcDbEntity
  8
1
  6
Continuous
 62
     7
100
AcDbLine
 10
190.6110101470753
 20
-15.60668946921788
 30
0.0
 11
192.3603520495785
 21
-15.60668946921788
 31
0.0
  0
LINE
  5
22D
330
1F
100
AcDbEntity
  8
1
  6
DASH_CENTER
 62
     2
100
AcDbLine
 10
72.69507363055027
 20
-46.05085928972272
 30
0.0
 11
85.04507363055041
 21
-46.05085928972272
 31
0.0
  0
ARC
  5
236
330
1F
100
AcDbEntity
  8
1
  6
Continuous
 62
     7
100
AcDbCircle
 10
78.59507363055036
 20
-45.09325196921787
 30
0.0
 40
6.419330616692421
100
AcDbArc
 50
-87.54473423190724
 51
-57.49051540384891
  0
ARC
  5
237
330
1F
100
AcDbEntity
  8
1
  6
Continuous
 62
     7
100
AcDbCircle
 10
79.14507363055031
 20
-45.09325196921787
 30
0.0
 40
6.419330616692465
100
AcDbArc
 50
-122.5094845961511
 51
-92.45526576809276
  0
ARC
  5
238
330
1F
100
AcDbEntity
  8
1
  6
Continuous
 62
     7
100
AcDbCircle
 10
189.8108422927821
 20
-19.27032583285387
 30
0.0
 40
3.750000000000165
100
AcDbArc
 50
164.5339900465802
 51
0.0
  0
ARC
  5
239
330
1F
100
AcDbEntity
  8
1
  6
Continuous
 62
     7
100
AcDbCircle
 10
189.8108422927821
 20
-19.27032583285387
 30
0.0
 40
3.749999999999973
100
AcDbArc
 50
15.46600995342067
 51
47.1665719339327
  0
ARC
  5
23A
330
1F
100
AcDbEntity
  8
1
  6
Continuous
 62
     7
100
AcDbCircle
 10
189.8108422927821
 20
-19.27032583285387
 30
0.0
 40
3.750000000000003
100
AcDbArc
 50
132.8334280660673
 51
164.5339900465802
  0
ARC
  5
23B
330
1F
100
AcDbEntity
  8
1
  6
Continuous
 62
     7
100
AcDbCircle
 10
189.8108422927821
 20
-19.27032583285387
 30
0.0
 40
3.75
100
AcDbArc
 50
0.0
 51
15.46600995342067
  0
ARC
  5
23C
330
1F
100
AcDbEntity
  8
1
  6
Continuous
 62
     7
100
AcDbCircle
 10
189.8108422927821
 20
-19.27032583285387
 30
0.0
 40
3.750000000000003
100
AcDbArc
 50
47.1665719339327
 51
132.8334280660673
  0
CIRCLE
  5
23D
330
1F
100
AcDbEntity
  8
1
  6
Continuous
 62
     7
100
AcDbCircle
 10
78.87007363055034
 20
-46.05085928972272
 30
0.0
 40
2.249999999999886
  0
CIRCLE
  5
23E
330
1F
100
AcDbEntity
  8
1
  6
Continuous
 62
     7
100
AcDbCircle
 10
78.87007363055034
 20
-46.05085928972272
 30
0.0
 40
1.75
  0
CIRCLE
  5
23F
330
1F
100
AcDbEntity
  8
1
  6
Continuous
 62
     7
100
AcDbCircle
 10
189.8108422927821
 20
-19.27032583285387
 30
0.0
 40
2.5
  0
CIRCLE
  5
240
330
1F
100
AcDbEntity
  8
1
  6
Continuous
 62
     7
100
AcDbCircle
 10
188.9608422927821
 20
-19.27032583285387
 30
0.0
 40
0.8499999999999943
  0
CIRCLE
  5
241
330
1F
100
AcDbEntity
  8
1
  6
Continuous
 62
     7
100
AcDbCircle
 10
190.660842292782
 20
-19.27032583285387
 30
0.0
 40
0.8500000000001933
  0
SPLINE
  5
242
330
1F
100
AcDbEntity
  8
1
  6
Continuous
 62
     2
100
AcDbSpline
210
0.0
220
0.0
230
1.0
 70
     8
 71
     3
 72
     9
 73
     5
 74
     3
 42
0.0000000001
 43
0.0000000001
 44
0.00000001
 40
0.0
 40
0.0
 40
0.0
 40
0.0
 40
1.936166202143432
 40
3.87233240428687
 40
3.87233240428687
 40
3.87233240428687
 40
3.87233240428687
 10
125.0742753070882
 20
-17.57032583285383
 30
0.0
 10
124.610934298132
 20
-18.13699249952051
 30
0.0
 10
123.6842522802195
 20
-19.27032583285387
 30
0.0
 10
124.610934298132
 20
-20.40365916618724
 30
0.0
 10
125.0742753070882
 20
-20.97032583285392
 30
0.0
 11
125.0742753070882
 21
-17.57032583285383
 31
0.0
 11
124.1475932891757
 21
-19.27032583285387
 31
0.0
 11
125.0742753070882
 21
-20.97032583285392
 31
0.0
  0
SPLINE
  5
243
330
1F
100
AcDbEntity
  8
1
  6
Continuous
 62
     2
100
AcDbSpline
210
0.0
220
0.0
230
1.0
 70
     8
 71
     3
 72
     9
 73
     5
 74
     3
 42
0.0000000001
 43
0.0000000001
 44
0.00000001
 40
0.0
 40
0.0
 40
0.0
 40
0.0
 40
0.9028914024203155
 40
1.82889649313854
 40
1.82889649313854
 40
1.82889649313854
 40
1.82889649313854
 10
186.3900736305503
 20
54.91443778493721
 30
0.0
 10
186.5572640294903
 20
55.19335199213964
 30
0.0
 10
186.8959248401793
 20
55.75832050781231
 30
0.0
 10
186.5601054015606
 20
56.3266710779467
 30
0.0
 10
186.3900736305503
 20
56.61443778493725
 30
0.0
 11
186.3900736305503
 21
54.91443778493721
 31
0.0
 11
186.7272598910937
 21
55.75200468391619
 31
0.0
 11
186.3900736305503
 21
56.61443778493725
 31
0.0
  0
SPLINE
  5
244
330
1F
100
AcDbEntity
  8
1
  6
Continuous
 62
     2
100
AcDbSpline
210
0.0
220
0.0
230
1.0
 70
     8
 71
     3
 72
    12
 73
     8
 74
     6
 42
0.0000000001
 43
0.0000000001
 44
0.00000001
 40
0.0
 40
0.0
 40
0.0
 40
0.0
 40
0.8986035437803847
 40
1.621426785834732
 40
2.394872760746063
 40
3.189025087210382
 40
3.968507157147239
 40
3.968507157147239
 40
3.968507157147239
 40
3.968507157147239
 10
159.714865999516
 20
33.44752763887726
 30
0.0
 10
159.3703318824624
 20
33.30452653430363
 30
0.0
 10
158.7486596779722
 20
33.04649748137536
 30
0.0
 10
159.2752610786847
 20
32.22976228027266
 30
0.0
 10
159.7263569116168
 20
31.52867395234497
 30
0.0
 10
159.0496550132064
 20
30.83244008245886
 30
0.0
 10
159.2567437581397
 20
30.30753396877821
 30
0.0
 10
159.3593228349128
 20
30.04752763887717
 30
0.0
 11
159.714865999516
 21
33.44752763887726
 31
0.0
 11
158.9817124713792
 21
32.92793719143313
 31
0.0
 11
159.2561201493856
 21
32.25922659221617
 31
0.0
 11
159.5370944172148
 21
31.53862119609124
 31
0.0
 11
159.2137181879495
 21
30.8132897325693
 31
0.0
 11
159.3593228349128
 21
30.04752763887717
 31
0.0
  0
SPLINE
  5
245
330
1F
100
AcDbEntity
  8
1
  6
Continuous
 62
     2
100
AcDbSpline
210
0.0
220
0.0
230
1.0
 70
     8
 71
     3
 72
    12
 73
     8
 74
     6
 42
0.0000000001
 43
0.0000000001
 44
0.00000001
 40
0.0
 40
0.0
 40
0.0
 40
0.0
 40
0.8986035437804079
 40
1.621426785834755
 40
2.394872760746096
 40
3.189025087210404
 40
3.968507157147255
 40
3.968507157147255
 40
3.968507157147255
 40
3.968507157147255
 10
160.714865999516
 20
33.44752763887726
 30
0.0
 10
160.3703318824624
 20
33.30452653430363
 30
0.0
 10
159.7486596779721
 20
33.04649748137537
 30
0.0
 10
160.2752610786847
 20
32.22976228027267
 30
0.0
 10
160.7263569116168
 20
31.52867395234497
 30
0.0
 10
160.0496550132065
 20
30.83244008245887
 30
0.0
 10
160.2567437581397
 20
30.3075339687782
 30
0.0
 10
160.3593228349128
 20
30.04752763887717
 30
0.0
 11
160.714865999516
 21
33.44752763887726
 31
0.0
 11
159.9817124713792
 21
32.92793719143313
 31
0.0
 11
160.2561201493855
 21
32.25922659221617
 31
0.0
 11
160.5370944172148
 21
31.53862119609124
 31
0.0
 11
160.2137181879496
 21
30.8132897325693
 31
0.0
 11
160.3593228349128
 21
30.04752763887717
 31
0.0
  0
ARC
  5
246
330
1F
100
AcDbEntity
  8
1
  6
Continuous
 62
     7
100
AcDbCircle
 10
216.6182381008471
 20
34.24752763887722
 30
0.0
 40
0.5
100
AcDbArc
 50
0.0
 51
90.0
  0
ARC
  5
247
330
1F
100
AcDbEntity
  8
1
  6
Continuous
 62
     7
100
AcDbCircle
 10
216.6182381008471
 20
29.74752763887722
 30
0.0
 40
0.5
100
AcDbArc
 50
-90.0
 51
0.0
  0
ARC
  5
248
330
1F
100
AcDbEntity
  8
1
  6
Continuous
 62
     7
100
AcDbCircle
 10
217.8682381008471
 20
34.24752763887722
 30
0.0
 40
0.5
100
AcDbArc
 50
0.0
 51
90.0
  0
ARC
  5
249
330
1F
100
AcDbEntity
  8
1
  6
Continuous
 62
     7
100
AcDbCircle
 10
217.8682381008471
 20
29.74752763887722
 30
0.0
 40
0.5
100
AcDbArc
 50
-90.0
 51
0.0
  0
ARC
  5
24A
330
1F
100
AcDbEntity
  8
1
  6
Continuous
 62
     7
100
AcDbCircle
 10
211.3682381008471
 20
34.24752763887722
 30
0.0
 40
0.5
100
AcDbArc
 50
90.0
 51
180.0
  0
ARC
  5
24B
330
1F
100
AcDbEntity
  8
1
  6
Continuous
 62
     7
100
AcDbCircle
 10
211.3682381008471
 20
29.74752763887722
 30
0.0
 40
0.5
100
AcDbArc
 50
180.0
 51
-90.0
  0
ARC
  5
24C
330
1F
100
AcDbEntity
  8
1
  6
Continuous
 62
     7
100
AcDbCircle
 10
185.1241574835168
 20
5.89331053078212
 30
0.0
 40
3.499999999999999
100
AcDbArc
 50
90.0
 51
177.3220470399133
  0
ARC
  5
24D
330
1F
100
AcDbEntity
  8
1
  6
Continuous
 62
     7
100
AcDbCircle
 10
225.6375271020474
 20
5.89331053078212
 30
0.0
 40
3.500000000000097
100
AcDbArc
 50
2.67795296008655
 51
90.0
  0
ARC
  5
24E
330
1F
100
AcDbEntity
  8
1
  6
Continuous
 62
     7
100
AcDbCircle
 10
226.0902298247102
 20
-28.40668946921784
 30
0.0
 40
3.5
100
AcDbArc
 50
-90.0
 51
-3.53229458388638
  0
ARC
  5
24F
330
1F
100
AcDbEntity
  8
1
  6
Continuous
 62
     7
100
AcDbCircle
 10
184.671454760854
 20
-28.40668946921784
 30
0.0
 40
3.50000000000001
100
AcDbArc
 50
-176.4677054161137
 51
-90.0
  0
ARC
  5
250
330
1F
100
AcDbEntity
  8
1
  6
Continuous
 62
     7
100
AcDbCircle
 10
91.57603822865895
 20
5.89331053078212
 30
0.0
 40
3.500000000000021
100
AcDbArc
 50
3.47283708974208
 51
90.0
  0
ARC
  5
251
330
1F
100
AcDbEntity
  8
1
  6
Continuous
 62
     7
100
AcDbCircle
 10
91.50549785815986
 20
-29.40668946921784
 30
0.0
 40
3.499999999999996
100
AcDbArc
 50
-90.0
 51
-5.95075900188397
  0
ARC
  5
252
330
1F
100
AcDbEntity
  8
1
  6
Continuous
 62
     7
100
AcDbCircle
 10
39.7559961570255
 20
-29.40668946921784
 30
0.0
 40
3.500000000000031
100
AcDbArc
 50
-174.2489457120393
 51
-90.0
  0
ARC
  5
253
330
1F
100
AcDbEntity
  8
1
  6
Continuous
 62
     7
100
AcDbCircle
 10
39.76959755342796
 20
5.89331053078212
 30
0.0
 40
3.499999999999999
100
AcDbArc
 50
90.0
 51
176.2746947088669
  0
ARC
  5
254
330
1F
100
AcDbEntity
  8
1
  6
Continuous
 62
     7
100
AcDbCircle
 10
39.99007363055046
 20
67.12252763887722
 30
0.0
 40
3.5
100
AcDbArc
 50
90.0
 51
180.0
  0
ARC
  5
255
330
1F
100
AcDbEntity
  8
1
  6
Continuous
 62
     7
100
AcDbCircle
 10
38.37007363055034
 20
68.81752763887715
 30
0.0
 40
3.5
100
AcDbArc
 50
90.0
 51
180.0
  0
ARC
  5
256
330
1F
100
AcDbEntity
  8
1
  6
Continuous
 62
     7
100
AcDbCircle
 10
91.37007363055022
 20
68.81752763887715
 30
0.0
 40
3.5
100
AcDbArc
 50
0.0
 51
90.0
  0
ARC
  5
257
330
1F
100
AcDbEntity
  8
1
  6
Continuous
 62
     7
100
AcDbCircle
 10
89.75007363055022
 20
67.12252763887722
 30
0.0
 40
3.5
100
AcDbArc
 50
0.0
 51
90.0
  0
ARC
  5
258
330
1F
100
AcDbEntity
  8
1
  6
Continuous
 62
     7
100
AcDbCircle
 10
89.75007363055022
 20
27.51252763887709
 30
0.0
 40
3.5
100
AcDbArc
 50
-90.0
 51
0.0
  0
ARC
  5
259
330
1F
100
AcDbEntity
  8
1
  6
Continuous
 62
     7
100
AcDbCircle
 10
91.37007363055022
 20
25.81752763887715
 30
0.0
 40
3.5
100
AcDbArc
 50
-90.0
 51
0.0
  0
ARC
  5
25A
330
1F
100
AcDbEntity
  8
1
  6
Continuous
 62
     7
100
AcDbCircle
 10
38.37007363055023
 20
25.81752763887715
 30
0.0
 40
3.5
100
AcDbArc
 50
180.0
 51
-90.0
  0
ARC
  5
25B
330
1F
100
AcDbEntity
  8
1
  6
Continuous
 62
     7
100
AcDbCircle
 10
39.99007363055035
 20
27.51252763887709
 30
0.0
 40
3.5
100
AcDbArc
 50
180.0
 51
-90.0
  0
LWPOLYLINE
  5
25C
330
1F
100
AcDbEntity
  8
___C_____2
  6
Continuous
 62
     7
100
AcDbPolyline
 90
        5
 70
     1
 43
0.0
 10
66.72298676931564
 20
62.65846202587701
 10
66.72298676931564
 20
32.85443577961698
 10
73.81380190331629
 20
32.85443577961698
 10
73.81380190331629
 20
62.65846202587701
 10
66.72298676931564
 20
62.65846202587701
  0
LWPOLYLINE
  5
25D
330
1F
100
AcDbEntity
  8
___C_____2
  6
Continuous
 62
     7
100
AcDbPolyline
 90
        5
 70
     1
 43
0.0
 10
61.16553199932799
 20
31.06752763887695
 10
61.1655319993281
 20
64.56752763887695
 10
87.45007363055015
 20
64.56752763887695
 10
87.45007363055015
 20
31.06752763887695
 10
61.16553199932799
 20
31.06752763887695
  0
MTEXT
  5
25E
330
1F
100
AcDbEntity
  8
1
 62
     7
100
AcDbMText
 10
155.322748208699
 20
84.39068342218599
 30
0.0
 40
3.0
 41
0.0
 71
     5
 72
     1
  1
-100
  7
CONVERTER_1
 73
     1
 44
0.7202881152461
  0
MTEXT
  5
25F
330
1F
100
AcDbEntity
  8
1
 62
     7
100
AcDbMText
 10
155.322748208699
 20
89.39068342218599
 30
0.0
 40
3.0
 41
0.0
 71
     5
 72
     1
  1
＋150
  7
CONVERTER_2
 73
     1
 44
0.7202881152461
  0
MTEXT
  5
260
330
1F
100
AcDbEntity
  8
1
 62
     7
100
AcDbMText
 10
71.6046066982144
 20
84.98688047152922
 30
0.0
 40
3.0
 41
0.0
 71
     5
 72
     1
  1
±1
  7
CONVERTER_2
 73
     1
 44
0.7202881152461
  0
MTEXT
  5
261
330
1F
100
AcDbEntity
  8
1
 62
     7
100
AcDbMText
 10
22.23804745425819
 20
56.4935912210224
 30
0.0
 40
3.0
 41
0.0
 71
     5
 72
     1
  1
±1
  7
CONVERTER_2
 11
0.0
 21
1.0
 31
0.0
 73
     1
 44
0.7202881152461
  0
MTEXT
  5
262
330
1F
100
AcDbEntity
  8
1
 62
     7
100
AcDbMText
 10
26.96978018753665
 20
-176.9867855604619
 30
0.0
 40
5.25
 41
0.0
 71
     5
 72
     1
  1
ACアダプター
  7
CONVERTER_2
 73
     1
 44
0.7202881152461
  0
MTEXT
  5
263
330
1F
100
AcDbEntity
  8
1
 62
     7
100
AcDbMText
 10
79.85933619157285
 20
-176.992285055921
 30
0.0
 40
5.25
 41
0.0
 71
     5
 72
     1
  1
EY500-1
  7
CONVERTER_1
 73
     1
 44
0.7202881152461
  0
MTEXT
  5
264
330
1F
100
AcDbEntity
  8
1
 62
     7
100
AcDbMText
 10
111.5947801875367
 20
-184.2367855604619
 30
0.0
 40
5.25
 41
0.0
 71
     5
 72
     1
  1
1,5
  7
CONVERTER_1
 73
     1
 44
0.7202881152461
  0
MTEXT
  5
265
330
1F
100
AcDbEntity
  8
1
 62
     7
100
AcDbMText
 10
108.3447801875367
 20
-172.2367855604619
 30
0.0
 40
5.25
 41
0.0
 71
     5
 72
     1
  1
1
  7
CONVERTER_1
 73
     1
 44
0.7202881152461
  0
DIMENSION
  5
270
330
1F
100
AcDbEntity
  8
1
100
AcDbDimension
  2
*D04
 10
27.42344081376136
 20
-34.10668946921788
 30
0.0
 11
22.17344081376136
 21
-13.03175579497997
 31
0.0
  1
44
 71
     5
 42
0.0
 53
90.0
  3
ME10_DIM_0
100
AcDbAlignedDimension
 13
39.76959755342796
 23
9.39331053078212
 33
0.0
 14
87.97007363055036
 24
-34.10668946921788
 34
0.0
 50
90.0
100
AcDbRotatedDimension
  0
DIMENSION
  5
27B
330
1F
100
AcDbEntity
  8
1
100
AcDbDimension
  2
*D15
 10
27.42344081376132
 20
22.31752763887698
 30
0.0
 11
22.17344081376132
 21
46.89199772199504
 31
0.0
 70
     1
  1
<>
 71
     5
 42
0.0
 53
89.99999999999987
  3
ME10_DIM_1
100
AcDbAlignedDimension
 13
38.37007363055034
 23
72.31752763887715
 33
0.0
 14
38.37007363055023
 24
22.31752763887715
 34
0.0
  0
DIMENSION
  5
286
330
1F
100
AcDbEntity
  8
1
100
AcDbDimension
  2
*D26
 10
34.87007363055039
 20
79.91683459884803
 30
0.0
 11
63.19055889168454
 21
85.16683459884803
 31
0.0
 70
     1
  1
<>
 71
     5
 42
0.0
 53
0.00013888888889
  3
ME10_DIM_2
100
AcDbAlignedDimension
 13
94.87007363055022
 23
68.81752763887715
 33
0.0
 14
34.87007363055034
 24
68.81752763887715
 34
0.0
  0
DIMENSION
  5
291
330
1F
100
AcDbEntity
  8
1
100
AcDbDimension
  2
*D37
 10
94.87007363055017
 20
79.91683459884803
 30
0.0
 11
141.0667703354576
 21
85.16683459884803
 31
0.0
  1
1800
 71
     5
 42
0.0
 53
0.00013888888889
  3
ME10_DIM_3
100
AcDbAlignedDimension
 13
191.3900736305503
 23
33.44752763887726
 33
0.0
 14
94.87007363055022
 24
68.81752763887715
 34
0.0
100
AcDbRotatedDimension
  0
ENDSEC
  0
SECTION
  2
OBJECTS
  0
DICTIONARY
  5
C
330
0
100
AcDbDictionary
281
     1
  3
ACAD_GROUP
350
D
  3
ACAD_LAYOUT
350
1A
  3
ACAD_MLINESTYLE
350
17
  3
ACAD_PLOTSETTINGS
350
19
  3
ACAD_PLOTSTYLENAME
350
E
  3
ACAD_TABLESTYLE
350
2A
  3
AcDbVariableDictionary
350
2C
  0
DICTIONARY
  5
D
102
{ACAD_REACTORS
330
C
102
}
330
C
100
AcDbDictionary
281
     1
  0
DICTIONARY
  5
1A
102
{ACAD_REACTORS
330
C
102
}
330
C
100
AcDbDictionary
281
     1
  3
Layout1
350
1E
  3
Layout2
350
26
  3
Model
350
22
  0
DICTIONARY
  5
17
102
{ACAD_REACTORS
330
C
102
}
330
C
100
AcDbDictionary
281
     1
  3
Standard
350
18
  0
DICTIONARY
  5
19
102
{ACAD_REACTORS
330
C
102
}
330
C
100
AcDbDictionary
281
     1
  0
ACDBDICTIONARYWDFLT
  5
E
102
{ACAD_REACTORS
330
C
102
}
330
C
100
AcDbDictionary
281
     1
  3
Normal
350
F
100
AcDbDictionaryWithDefault
340
F
  0
DICTIONARY
  5
2A
102
{ACAD_REACTORS
330
C
102
}
330
C
100
AcDbDictionary
281
     1
  3
Standard
350
2B
  0
DICTIONARY
  5
2C
102
{ACAD_REACTORS
330
C
102
}
330
C
100
AcDbDictionary
281
     1
  3
CTABLESTYLE
350
2D
  0
LAYOUT
  5
1E
102
{ACAD_REACTORS
330
1A
102
}
330
1A
100
AcDbPlotSettings
  1

  2

  4

  6

 40
0.0
 41
0.0
 42
0.0
 43
0.0
 44
0.0
 45
0.0
 46
0.0
 47
0.0
 48
0.0
 49
0.0
140
0.0
141
0.0
142
1.0
143
1.0
 70
   688
 72
     0
 73
     0
 74
     5
  7

 75
    16
147
1.0
148
0.0
149
0.0
100
AcDbLayout
  1
Layout1
 70
     1
 71
     1
 10
0.0
 20
0.0
 11
12.0
 21
9.0
 12
0.0
 22
0.0
 32
0.0
 14
1.00000000000000E+20
 24
1.00000000000000E+20
 34
1.00000000000000E+20
 15
-1.00000000000000E+20
 25
-1.00000000000000E+20
 35
-1.00000000000000E+20
146
0.0
 13
0.0
 23
0.0
 33
0.0
 16
1.0
 26
0.0
 36
0.0
 17
0.0
 27
1.0
 37
0.0
 76
     0
330
1B
  0
LAYOUT
  5
26
102
{ACAD_REACTORS
330
1A
102
}
330
1A
100
AcDbPlotSettings
  1

  2

  4

  6

 40
0.0
 41
0.0
 42
0.0
 43
0.0
 44
0.0
 45
0.0
 46
0.0
 47
0.0
 48
0.0
 49
0.0
140
0.0
141
0.0
142
1.0
143
1.0
 70
   688
 72
     0
 73
     0
 74
     5
  7

 75
    16
147
1.0
148
0.0
149
0.0
100
AcDbLayout
  1
Layout2
 70
     1
 71
     2
 10
0.0
 20
0.0
 11
0.0
 21
0.0
 12
0.0
 22
0.0
 32
0.0
 14
0.0
 24
0.0
 34
0.0
 15
0.0
 25
0.0
 35
0.0
146
0.0
 13
0.0
 23
0.0
 33
0.0
 16
1.0
 26
0.0
 36
0.0
 17
0.0
 27
1.0
 37
0.0
 76
     0
330
23
  0
LAYOUT
  5
22
102
{ACAD_REACTORS
330
1A
102
}
330
1A
100
AcDbPlotSettings
  1

  2

  4

  6

 40
0.0
 41
0.0
 42
0.0
 43
0.0
 44
0.0
 45
0.0
 46
0.0
 47
0.0
 48
0.0
 49
0.0
140
0.0
141
0.0
142
1.0
143
1.0
 70
  1712
 72
     0
 73
     0
 74
     0
  7

 75
     0
147
1.0
148
0.0
149
0.0
100
AcDbLayout
  1
Model
 70
     1
 71
     0
 10
0.0
 20
0.0
 11
0.0
 21
0.0
 12
0.0
 22
0.0
 32
0.0
 14
-49.19690348319932
 24
-202.6857184342012
 34
0.0
 15
265.8030965168007
 25
242.8142815657992
 35
0.0
146
0.0
 13
0.0
 23
0.0
 33
0.0
 16
1.0
 26
0.0
 36
0.0
 17
0.0
 27
1.0
 37
0.0
 76
     0
330
1F
  0
MLINESTYLE
  5
18
102
{ACAD_REACTORS
330
17
102
}
330
17
100
AcDbMlineStyle
  2
Standard
 70
     0
  3

 62
   256
 51
90.0
 52
90.0
 71
     2
 49
0.5
 62
   256
  6
BYLAYER
 49
-0.5
 62
   256
  6
BYLAYER
  0
ACDBPLACEHOLDER
  5
F
102
{ACAD_REACTORS
330
E
102
}
330
E
  0
TABLESTYLE
  5
2B
102
{ACAD_REACTORS
330
2A
102
}
330
2A
100
AcDbTableStyle
  3
Standard
 70
     0
 71
     0
 40
0.06
 41
0.06
280
     0
281
     0
  7
Standard
140
0.18
170
     2
 62
     0
 63
     7
283
     0
274
    -2
284
     1
 64
     0
275
    -2
285
     1
 65
     0
276
    -2
286
     1
 66
     0
277
    -2
287
     1
 67
     0
278
    -2
288
     1
 68
     0
279
    -2
289
     1
 69
     0
  7
Standard
140
0.25
170
     5
 62
     0
 63
     7
283
     0
274
    -2
284
     1
 64
     0
275
    -2
285
     1
 65
     0
276
    -2
286
     1
 66
     0
277
    -2
287
     1
 67
     0
278
    -2
288
     1
 68
     0
279
    -2
289
     1
 69
     0
  7
Standard
140
0.18
170
     5
 62
     0
 63
     7
283
     0
274
    -2
284
     1
 64
     0
275
    -2
285
     1
 65
     0
276
    -2
286
     1
 66
     0
277
    -2
287
     1
 67
     0
278
    -2
288
     1
 68
     0
279
    -2
289
     1
 69
     0
  0
DICTIONARYVAR
  5
2D
102
{ACAD_REACTORS
330
2C
102
}
330
2C
100
DictionaryVariables
280
     0
  1
Standard
  0
ENDSEC
  0
EOF
