  0
SECTION
  2
HEADER
  9
$ACADVER
  1
AC1015
  9
$ACADMAINTVER
 70
     6
  9
$DWGCODEPAGE
  3
ANSI_932
  9
$INSBASE
 10
0.0
 20
0.0
 30
0.0
  9
$EXTMIN
 10
258.8806237959176
 20
502.3745122321632
 30
0.0
  9
$EXTMAX
 10
468.8806237959176
 20
799.3745122321632
 30
0.0
  9
$LIMMIN
 10
0.0
 20
0.0
  9
$LIMMAX
 10
12.0
 20
9.0
  9
$ORTHOMODE
 70
     0
  9
$REGENMODE
 70
     1
  9
$FILLMODE
 70
     1
  9
$QTEXTMODE
 70
     0
  9
$MIRRTEXT
 70
     1
  9
$LTSCALE
 40
1.0
  9
$ATTMODE
 70
     1
  9
$TEXTSIZE
 40
0.2
  9
$TRACEWID
 40
0.05
  9
$TEXTSTYLE
  7
Standard
  9
$CLAYER
  8
0
  9
$CELTYPE
  6
ByLayer
  9
$CECOLOR
 62
   256
  9
$CELTSCALE
 40
1.0
  9
$DISPSILH
 70
     0
  9
$DIMSCALE
 40
1.0
  9
$DIMASZ
 40
0.18
  9
$DIMEXO
 40
0.0625
  9
$DIMDLI
 40
0.38
  9
$DIMRND
 40
0.0
  9
$DIMDLE
 40
0.0
  9
$DIMEXE
 40
0.18
  9
$DIMTP
 40
0.0
  9
$DIMTM
 40
0.0
  9
$DIMTXT
 40
0.18
  9
$DIMCEN
 40
0.09
  9
$DIMTSZ
 40
0.0
  9
$DIMTOL
 70
     0
  9
$DIMLIM
 70
     0
  9
$DIMTIH
 70
     1
  9
$DIMTOH
 70
     1
  9
$DIMSE1
 70
     0
  9
$DIMSE2
 70
     0
  9
$DIMTAD
 70
     0
  9
$DIMZIN
 70
     0
  9
$DIMBLK
  1

  9
$DIMASO
 70
     1
  9
$DIMSHO
 70
     1
  9
$DIMPOST
  1

  9
$DIMAPOST
  1

  9
$DIMALT
 70
     0
  9
$DIMALTD
 70
     2
  9
$DIMALTF
 40
25.4
  9
$DIMLFAC
 40
1.0
  9
$DIMTOFL
 70
     0
  9
$DIMTVP
 40
0.0
  9
$DIMTIX
 70
     0
  9
$DIMSOXD
 70
     0
  9
$DIMSAH
 70
     0
  9
$DIMBLK1
  1

  9
$DIMBLK2
  1

  9
$DIMSTYLE
  2
Standard
  9
$DIMCLRD
 70
     0
  9
$DIMCLRE
 70
     0
  9
$DIMCLRT
 70
     0
  9
$DIMTFAC
 40
1.0
  9
$DIMGAP
 40
0.09
  9
$DIMJUST
 70
     0
  9
$DIMSD1
 70
     0
  9
$DIMSD2
 70
     0
  9
$DIMTOLJ
 70
     1
  9
$DIMTZIN
 70
     0
  9
$DIMALTZ
 70
     0
  9
$DIMALTTZ
 70
     0
  9
$DIMUPT
 70
     0
  9
$DIMDEC
 70
     4
  9
$DIMTDEC
 70
     4
  9
$DIMALTU
 70
     2
  9
$DIMALTTD
 70
     2
  9
$DIMTXSTY
  7
Standard
  9
$DIMAUNIT
 70
     0
  9
$DIMADEC
 70
     0
  9
$DIMALTRND
 40
0.0
  9
$DIMAZIN
 70
     0
  9
$DIMDSEP
 70
    46
  9
$DIMATFIT
 70
     3
  9
$DIMFRAC
 70
     0
  9
$DIMLDRBLK
  1

  9
$DIMLUNIT
 70
     2
  9
$DIMLWD
 70
    -2
  9
$DIMLWE
 70
    -2
  9
$DIMTMOVE
 70
     0
  9
$LUNITS
 70
     2
  9
$LUPREC
 70
     4
  9
$SKETCHINC
 40
0.1
  9
$FILLETRAD
 40
0.5
  9
$AUNITS
 70
     0
  9
$AUPREC
 70
     0
  9
$MENU
  1
.
  9
$ELEVATION
 40
0.0
  9
$PELEVATION
 40
0.0
  9
$THICKNESS
 40
0.0
  9
$LIMCHECK
 70
     0
  9
$CHAMFERA
 40
0.5
  9
$CHAMFERB
 40
0.5
  9
$CHAMFERC
 40
1.0
  9
$CHAMFERD
 40
0.0
  9
$SKPOLY
 70
     0
  9
$TDCREATE
 40
2459627.564078866
  9
$TDUCREATE
 40
2459627.189078866
  9
$TDUPDATE
 40
2459627.564080671
  9
$TDUUPDATE
 40
2459627.189080671
  9
$TDINDWG
 40
0.0000000116
  9
$TDUSRTIMER
 40
0.0000000116
  9
$USRTIMER
 70
     1
  9
$ANGBASE
 50
0.0
  9
$ANGDIR
 70
     0
  9
$PDMODE
 70
     0
  9
$PDSIZE
 40
0.0
  9
$PLINEWID
 40
0.0
  9
$SPLFRAME
 70
     0
  9
$SPLINETYPE
 70
     6
  9
$SPLINESEGS
 70
     8
  9
$HANDSEED
  5
1CE
  9
$SURFTAB1
 70
     6
  9
$SURFTAB2
 70
     6
  9
$SURFTYPE
 70
     6
  9
$SURFU
 70
     6
  9
$SURFV
 70
     6
  9
$UCSBASE
  2

  9
$UCSNAME
  2

  9
$UCSORG
 10
0.0
 20
0.0
 30
0.0
  9
$UCSXDIR
 10
1.0
 20
0.0
 30
0.0
  9
$UCSYDIR
 10
0.0
 20
1.0
 30
0.0
  9
$UCSORTHOREF
  2

  9
$UCSORTHOVIEW
 70
     0
  9
$UCSORGTOP
 10
0.0
 20
0.0
 30
0.0
  9
$UCSORGBOTTOM
 10
0.0
 20
0.0
 30
0.0
  9
$UCSORGLEFT
 10
0.0
 20
0.0
 30
0.0
  9
$UCSORGRIGHT
 10
0.0
 20
0.0
 30
0.0
  9
$UCSORGFRONT
 10
0.0
 20
0.0
 30
0.0
  9
$UCSORGBACK
 10
0.0
 20
0.0
 30
0.0
  9
$PUCSBASE
  2

  9
$PUCSNAME
  2

  9
$PUCSORG
 10
0.0
 20
0.0
 30
0.0
  9
$PUCSXDIR
 10
1.0
 20
0.0
 30
0.0
  9
$PUCSYDIR
 10
0.0
 20
1.0
 30
0.0
  9
$PUCSORTHOREF
  2

  9
$PUCSORTHOVIEW
 70
     0
  9
$PUCSORGTOP
 10
0.0
 20
0.0
 30
0.0
  9
$PUCSORGBOTTOM
 10
0.0
 20
0.0
 30
0.0
  9
$PUCSORGLEFT
 10
0.0
 20
0.0
 30
0.0
  9
$PUCSORGRIGHT
 10
0.0
 20
0.0
 30
0.0
  9
$PUCSORGFRONT
 10
0.0
 20
0.0
 30
0.0
  9
$PUCSORGBACK
 10
0.0
 20
0.0
 30
0.0
  9
$USERI1
 70
     0
  9
$USERI2
 70
     0
  9
$USERI3
 70
     0
  9
$USERI4
 70
     0
  9
$USERI5
 70
     0
  9
$USERR1
 40
18.1
  9
$USERR2
 40
0.0
  9
$USERR3
 40
0.0
  9
$USERR4
 40
0.0
  9
$USERR5
 40
0.0
  9
$WORLDVIEW
 70
     1
  9
$SHADEDGE
 70
     3
  9
$SHADEDIF
 70
    70
  9
$TILEMODE
 70
     1
  9
$MAXACTVP
 70
    64
  9
$PINSBASE
 10
0.0
 20
0.0
 30
0.0
  9
$PLIMCHECK
 70
     0
  9
$PEXTMIN
 10
1.00000000000000E+20
 20
1.00000000000000E+20
 30
1.00000000000000E+20
  9
$PEXTMAX
 10
-1.00000000000000E+20
 20
-1.00000000000000E+20
 30
-1.00000000000000E+20
  9
$PLIMMIN
 10
0.0
 20
0.0
  9
$PLIMMAX
 10
12.0
 20
9.0
  9
$UNITMODE
 70
     0
  9
$VISRETAIN
 70
     1
  9
$PLINEGEN
 70
     0
  9
$PSLTSCALE
 70
     1
  9
$TREEDEPTH
 70
  3020
  9
$CMLSTYLE
  2
Standard
  9
$CMLJUST
 70
     0
  9
$CMLSCALE
 40
1.0
  9
$PROXYGRAPHICS
 70
     1
  9
$MEASUREMENT
 70
     1
  9
$CELWEIGHT
370
    -1
  9
$ENDCAPS
280
     0
  9
$JOINSTYLE
280
     0
  9
$LWDISPLAY
290
     0
  9
$INSUNITS
 70
     4
  9
$HYPERLINKBASE
  1

  9
$STYLESHEET
  1

  9
$XEDIT
290
     1
  9
$CEPSNTYPE
380
     0
  9
$PSTYLEMODE
290
     1
  9
$FINGERPRINTGUID
  2
{4B479EA1-5147-4204-8091-B44FDB9610F0}
  9
$VERSIONGUID
  2
{FAEB1C32-E019-11D5-929B-00C0DF256EC4}
  9
$EXTNAMES
290
     1
  9
$PSVPSCALE
 40
0.0
  9
$OLESTARTUP
290
     0
  0
ENDSEC
  0
SECTION
  2
CLASSES
  0
CLASS
  1
ACDBDICTIONARYWDFLT
  2
AcDbDictionaryWithDefault
  3
ObjectDBX Classes
 90
        0
280
     0
281
     0
  0
CLASS
  1
VISUALSTYLE
  2
AcDbVisualStyle
  3
ObjectDBX Classes
 90
     4095
280
     0
281
     0
  0
CLASS
  1
MATERIAL
  2
AcDbMaterial
  3
ObjectDBX Classes
 90
     1153
280
     0
281
     0
  0
CLASS
  1
DICTIONARYVAR
  2
AcDbDictionaryVar
  3
ObjectDBX Classes
 90
        0
280
     0
281
     0
  0
CLASS
  1
ACDBPLACEHOLDER
  2
AcDbPlaceHolder
  3
ObjectDBX Classes
 90
        0
280
     0
281
     0
  0
CLASS
  1
LAYOUT
  2
AcDbLayout
  3
ObjectDBX Classes
 90
        0
280
     0
281
     0
  0
ENDSEC
  0
SECTION
  2
TABLES
  0
TABLE
  2
VPORT
  5
8
330
0
100
AcDbSymbolTable
 70
     1
  0
VPORT
  5
29
330
8
100
AcDbSymbolTableRecord
100
AcDbViewportTableRecord
  2
*Active
 70
     0
 10
0.0
 20
0.0
 11
1.0
 21
1.0
 12
363.8806237959176
 22
650.8745122321632
 13
0.0
 23
0.0
 14
0.5
 24
0.5
 15
0.5
 25
0.5
 16
0.0
 26
0.0
 36
1.0
 17
0.0
 27
0.0
 37
0.0
 40
326.7
 41
1.60267857142857
 42
50.0
 43
0.0
 44
0.0
 50
0.0
 51
0.0
 71
     0
 72
   100
 73
     1
 74
     3
 75
     0
 76
     0
 77
     0
 78
     0
281
     0
 65
     1
110
0.0
120
0.0
130
0.0
111
1.0
121
0.0
131
0.0
112
0.0
122
1.0
132
0.0
 79
     0
146
0.0
  0
ENDTAB
  0
TABLE
  2
LTYPE
  5
5
330
0
100
AcDbSymbolTable
 70
     8
  0
LTYPE
  5
14
330
5
100
AcDbSymbolTableRecord
100
AcDbLinetypeTableRecord
  2
ByBlock
 70
     0
  3

 72
    65
 73
     0
 40
0.0
  0
LTYPE
  5
15
330
5
100
AcDbSymbolTableRecord
100
AcDbLinetypeTableRecord
  2
ByLayer
 70
     0
  3

 72
    65
 73
     0
 40
0.0
  0
LTYPE
  5
16
330
5
100
AcDbSymbolTableRecord
100
AcDbLinetypeTableRecord
  2
Continuous
 70
     0
  3
Solid line
 72
    65
 73
     0
 40
0.0
  0
LTYPE
  5
3F
330
5
100
AcDbSymbolTableRecord
100
AcDbLinetypeTableRecord
  2
DASHED
 70
     0
  3
Dashed
 72
    65
 73
     2
 40
15.0
 49
7.0
 74
     0
 49
-8.0
 74
     0
  0
LTYPE
  5
40
330
5
100
AcDbSymbolTableRecord
100
AcDbLinetypeTableRecord
  2
DOTTED
 70
     0
  3
Dotted
 72
    65
 73
     2
 40
1.0
 49
0.0
 74
     0
 49
-1.0
 74
     0
  0
LTYPE
  5
41
330
5
100
AcDbSymbolTableRecord
100
AcDbLinetypeTableRecord
  2
DOT_CENTER
 70
     0
  3
Dot_Center
 72
    65
 73
     4
 40
14.0
 49
12.0
 74
     0
 49
-1.0
 74
     0
 49
0.0
 74
     0
 49
-1.0
 74
     0
  0
LTYPE
  5
42
330
5
100
AcDbSymbolTableRecord
100
AcDbLinetypeTableRecord
  2
LONG_DASHED
 70
     0
  3
Long_Dashed
 72
    65
 73
     2
 40
15.0
 49
10.0
 74
     0
 49
-5.0
 74
     0
  0
LTYPE
  5
43
330
5
100
AcDbSymbolTableRecord
100
AcDbLinetypeTableRecord
  2
DASH_CENTER
 70
     0
  3
Dash_Center
 72
    65
 73
     4
 40
14.0
 49
11.0
 74
     0
 49
-1.0
 74
     0
 49
1.0
 74
     0
 49
-1.0
 74
     0
  0
LTYPE
  5
44
330
5
100
AcDbSymbolTableRecord
100
AcDbLinetypeTableRecord
  2
PHANTOM
 70
     0
  3
Phantom
 72
    65
 73
     6
 40
13.0
 49
10.0
 74
     0
 49
-1.0
 74
     0
 49
0.0
 74
     0
 49
-1.0
 74
     0
 49
0.0
 74
     0
 49
-1.0
 74
     0
  0
LTYPE
  5
45
330
5
100
AcDbSymbolTableRecord
100
AcDbLinetypeTableRecord
  2
CENTER_DASH_DASH
 70
     0
  3
Center_Dash_Dash
 72
    65
 73
     6
 40
14.0
 49
9.0
 74
     0
 49
-1.0
 74
     0
 49
1.0
 74
     0
 49
-1.0
 74
     0
 49
1.0
 74
     0
 49
-1.0
 74
     0
  0
ENDTAB
  0
TABLE
  2
LAYER
  5
2
330
0
100
AcDbSymbolTable
 70
     3
  0
LAYER
  5
10
330
2
100
AcDbSymbolTableRecord
100
AcDbLayerTableRecord
  2
0
 70
     0
 62
     7
  6
Continuous
370
    -3
390
F
  0
LAYER
  5
46
330
2
100
AcDbSymbolTableRecord
100
AcDbLayerTableRecord
  2
1
 70
     0
 62
     7
  6
Continuous
370
    -3
390
F
  0
LAYER
  5
47
330
2
100
AcDbSymbolTableRecord
100
AcDbLayerTableRecord
  2
_U_30EC_U_30A4_U_30E4_U_30FC_1
 70
     0
 62
     7
  6
Continuous
370
    -3
390
F
  0
ENDTAB
  0
TABLE
  2
STYLE
  5
3
330
0
100
AcDbSymbolTable
 70
     3
  0
STYLE
  5
11
330
3
100
AcDbSymbolTableRecord
100
AcDbTextStyleTableRecord
  2
Standard
 70
     0
 40
0.0
 41
1.0
 50
0.0
 71
     0
 42
0.2
  3
txt
  4

  0
STYLE
  5
BA
330
3
100
AcDbSymbolTableRecord
100
AcDbTextStyleTableRecord
  2
CONVERTER_11
 70
     0
 40
0.0
 41
0.89
 50
0.0
 71
     0
 42
0.2
  3
MS Mincho.ttf
  4

1001
ACAD
1000
MS Mincho
1071
    32785
  0
STYLE
  5
15F
330
3
100
AcDbSymbolTableRecord
100
AcDbTextStyleTableRecord
  2
CONVERTER_12
 70
     0
 40
0.0
 41
0.9
 50
0.0
 71
     0
 42
0.2
  3
txt.shx
  4

  0
ENDTAB
  0
TABLE
  2
VIEW
  5
6
330
0
100
AcDbSymbolTable
 70
     0
  0
ENDTAB
  0
TABLE
  2
UCS
  5
7
330
0
100
AcDbSymbolTable
 70
     0
  0
ENDTAB
  0
TABLE
  2
APPID
  5
9
330
0
100
AcDbSymbolTable
 70
     1
  0
APPID
  5
12
330
9
100
AcDbSymbolTableRecord
100
AcDbRegAppTableRecord
  2
ACAD
 70
     0
  0
ENDTAB
  0
TABLE
  2
DIMSTYLE
  5
A
330
0
100
AcDbSymbolTable
 70
     5
100
AcDbDimStyleTable
  0
DIMSTYLE
105
27
330
A
100
AcDbSymbolTableRecord
100
AcDbDimStyleTableRecord
  2
Standard
 70
     0
178
     0
340
11
  0
DIMSTYLE
105
178
102
{ACAD_REACTORS
330
179
102
}
330
A
100
AcDbSymbolTableRecord
100
AcDbDimStyleTableRecord
  2
ME10_DIM_10
 70
     0
 41
3.5
 42
0.0
 44
2.0
 73
     0
 74
     0
 77
     1
 78
     8
140
3.0
147
2.0
172
     1
173
     1
174
     1
175
     1
176
     2
177
     2
271
     2
178
     7
271
     2
340
15F
  0
DIMSTYLE
105
183
102
{ACAD_REACTORS
330
184
102
}
330
A
100
AcDbSymbolTableRecord
100
AcDbDimStyleTableRecord
  2
ME10_DIM_11
 70
     0
 41
3.5
 42
0.0
 44
2.0
 73
     0
 74
     0
 77
     1
 78
     8
140
3.0
147
2.0
172
     1
173
     1
174
     1
175
     1
176
     2
177
     2
271
     2
178
     7
271
     2
340
15F
  0
DIMSTYLE
105
18E
102
{ACAD_REACTORS
330
18F
102
}
330
A
100
AcDbSymbolTableRecord
100
AcDbDimStyleTableRecord
  2
ME10_DIM_12
 70
     0
  3
{\Fgdt;n}<>
 41
3.5
 42
0.0
 44
2.0
 73
     0
 74
     0
 77
     1
 78
     8
140
3.0
147
2.0
172
     1
173
     1
174
     1
175
     1
176
     2
177
     2
271
     2
178
     7
271
     2
340
15F
  0
DIMSTYLE
105
199
102
{ACAD_REACTORS
330
19A
102
}
330
A
100
AcDbSymbolTableRecord
100
AcDbDimStyleTableRecord
  2
ME10_DIM_13
 70
     0
  3
{\Fgdt;n}<>
 41
3.5
 42
0.0
 44
2.0
 73
     0
 74
     0
 77
     1
 78
     8
140
3.0
147
2.0
172
     1
173
     1
174
     1
175
     1
176
     2
177
     2
271
     2
178
     7
271
     2
340
15F
  0
ENDTAB
  0
TABLE
  2
BLOCK_RECORD
  5
1
330
0
100
AcDbSymbolTable
 70
    10
  0
BLOCK_RECORD
  5
1F
330
1
100
AcDbSymbolTableRecord
100
AcDbBlockTableRecord
  2
*Model_Space
340
22
  0
BLOCK_RECORD
  5
1B
330
1
100
AcDbSymbolTableRecord
100
AcDbBlockTableRecord
  2
*Paper_Space
340
1E
  0
BLOCK_RECORD
  5
23
330
1
100
AcDbSymbolTableRecord
100
AcDbBlockTableRecord
  2
*Paper_Space0
340
26
  0
BLOCK_RECORD
  5
48
330
1
100
AcDbSymbolTableRecord
100
AcDbBlockTableRecord
  2
開示A4
340
0
102
{BLKREFS
331
4C
102
}
  0
BLOCK_RECORD
  5
4B
330
1
100
AcDbSymbolTableRecord
100
AcDbBlockTableRecord
  2
開示A4枠
340
0
102
{BLKREFS
331
55
102
}
  0
BLOCK_RECORD
  5
4F
330
1
100
AcDbSymbolTableRecord
100
AcDbBlockTableRecord
  2
H41-100-1
340
0
102
{BLKREFS
331
56
102
}
  0
BLOCK_RECORD
  5
52
330
1
100
AcDbSymbolTableRecord
100
AcDbBlockTableRecord
  2
H41-100-2
340
0
102
{BLKREFS
331
57
102
}
  0
BLOCK_RECORD
  5
16F
330
1
100
AcDbSymbolTableRecord
100
AcDbBlockTableRecord
  2
*D5
340
0
  0
BLOCK_RECORD
  5
17A
330
1
100
AcDbSymbolTableRecord
100
AcDbBlockTableRecord
  2
*D6
340
0
  0
BLOCK_RECORD
  5
185
330
1
100
AcDbSymbolTableRecord
100
AcDbBlockTableRecord
  2
*D7
340
0
  0
BLOCK_RECORD
  5
190
330
1
100
AcDbSymbolTableRecord
100
AcDbBlockTableRecord
  2
*D8
340
0
  0
BLOCK_RECORD
  5
19B
330
1
100
AcDbSymbolTableRecord
100
AcDbBlockTableRecord
  2
*D9
340
0
102
{BLKREFS
331
1A2
102
}
  0
ENDTAB
  0
ENDSEC
  0
SECTION
  2
BLOCKS
  0
BLOCK
  5
20
330
1F
100
AcDbEntity
  8
0
100
AcDbBlockBegin
  2
*Model_Space
 70
     0
 10
0.0
 20
0.0
 30
0.0
  3
*Model_Space
  1

  0
ENDBLK
  5
21
330
1F
100
AcDbEntity
  8
0
100
AcDbBlockEnd
  0
BLOCK
  5
1C
330
1B
100
AcDbEntity
 67
     1
  8
0
100
AcDbBlockBegin
  2
*Paper_Space
 70
     0
 10
0.0
 20
0.0
 30
0.0
  3
*Paper_Space
  1

  0
ENDBLK
  5
1D
330
1B
100
AcDbEntity
 67
     1
  8
0
100
AcDbBlockEnd
  0
BLOCK
  5
24
330
23
100
AcDbEntity
  8
0
100
AcDbBlockBegin
  2
*Paper_Space0
 70
     0
 10
0.0
 20
0.0
 30
0.0
  3
*Paper_Space0
  1

  0
ENDBLK
  5
25
330
23
100
AcDbEntity
  8
0
100
AcDbBlockEnd
  0
BLOCK
  5
49
330
48
100
AcDbEntity
  8
0
100
AcDbBlockBegin
  2
開示A4
 70
     0
 10
258.8806237959176
 20
502.3745122321632
 30
0.0
  3
開示A4
  1

  0
POINT
  5
58
330
48
100
AcDbEntity
  8
1
 62
     4
100
AcDbPoint
 10
292.8806237959176
 20
536.3745122321632
 30
0.0
  0
POINT
  5
59
330
48
100
AcDbEntity
  8
1
 62
     4
100
AcDbPoint
 10
315.8806237959176
 20
514.6245122321632
 30
0.0
  0
POINT
  5
5A
330
48
100
AcDbEntity
  8
1
 62
     4
100
AcDbPoint
 10
315.8806237959176
 20
523.1245122321632
 30
0.0
  0
POINT
  5
5B
330
48
100
AcDbEntity
  8
1
 62
     4
100
AcDbPoint
 10
315.8806237959176
 20
527.1245122321632
 30
0.0
  0
POINT
  5
5C
330
48
100
AcDbEntity
  8
1
 62
     4
100
AcDbPoint
 10
315.8806237959176
 20
518.6245122321632
 30
0.0
  0
POINT
  5
5D
330
48
100
AcDbEntity
  8
1
 62
     4
100
AcDbPoint
 10
416.3806237959176
 20
521.3745122321632
 30
0.0
  0
POINT
  5
5E
330
48
100
AcDbEntity
  8
1
 62
     4
100
AcDbPoint
 10
306.3806237959176
 20
784.3745122321634
 30
0.0
  0
POINT
  5
5F
330
48
100
AcDbEntity
  8
1
 62
     4
100
AcDbPoint
 10
315.8806237959176
 20
525.1245122321632
 30
0.0
  0
POINT
  5
60
330
48
100
AcDbEntity
  8
1
 62
     4
100
AcDbPoint
 10
315.8806237959176
 20
516.6245122321632
 30
0.0
  0
POINT
  5
61
330
48
100
AcDbEntity
  8
1
 62
     4
100
AcDbPoint
 10
416.3806237959176
 20
514.8745122321632
 30
0.0
  0
POINT
  5
62
330
48
100
AcDbEntity
  8
1
 62
     4
100
AcDbPoint
 10
422.1306237959176
 20
514.8745122321632
 30
0.0
  0
POINT
  5
63
330
48
100
AcDbEntity
  8
1
 62
     4
100
AcDbPoint
 10
410.6306237959176
 20
514.8745122321632
 30
0.0
  0
POINT
  5
64
330
48
100
AcDbEntity
  8
1
 62
     4
100
AcDbPoint
 10
393.6306237959176
 20
514.8745122321632
 30
0.0
  0
POINT
  5
65
330
48
100
AcDbEntity
  8
1
 62
     4
100
AcDbPoint
 10
405.1306237959176
 20
514.8745122321632
 30
0.0
  0
POINT
  5
66
330
48
100
AcDbEntity
  8
1
 62
     4
100
AcDbPoint
 10
399.3806237959176
 20
514.8745122321632
 30
0.0
  0
POINT
  5
67
330
48
100
AcDbEntity
  8
1
 62
     4
100
AcDbPoint
 10
399.3806237959176
 20
521.3745122321632
 30
0.0
  0
POINT
  5
68
330
48
100
AcDbEntity
  8
1
 62
     4
100
AcDbPoint
 10
376.6306237959176
 20
514.8745122321632
 30
0.0
  0
POINT
  5
69
330
48
100
AcDbEntity
  8
1
 62
     4
100
AcDbPoint
 10
388.1306237959176
 20
514.8745122321632
 30
0.0
  0
POINT
  5
6A
330
48
100
AcDbEntity
  8
1
 62
     4
100
AcDbPoint
 10
382.3806237959176
 20
514.8745122321632
 30
0.0
  0
POINT
  5
6B
330
48
100
AcDbEntity
  8
1
 62
     4
100
AcDbPoint
 10
382.3806237959176
 20
521.3745122321632
 30
0.0
  0
POINT
  5
6C
330
48
100
AcDbEntity
  8
1
 62
     4
100
AcDbPoint
 10
359.6306237959176
 20
514.8745122321632
 30
0.0
  0
POINT
  5
6D
330
48
100
AcDbEntity
  8
1
 62
     4
100
AcDbPoint
 10
371.1306237959176
 20
514.8745122321632
 30
0.0
  0
POINT
  5
6E
330
48
100
AcDbEntity
  8
1
 62
     4
100
AcDbPoint
 10
365.3806237959176
 20
514.8745122321632
 30
0.0
  0
POINT
  5
6F
330
48
100
AcDbEntity
  8
1
 62
     4
100
AcDbPoint
 10
365.3806237959176
 20
521.3745122321632
 30
0.0
  0
POINT
  5
70
330
48
100
AcDbEntity
  8
1
 62
     4
100
AcDbPoint
 10
344.1306237959176
 20
519.3745122321632
 30
0.0
  0
POINT
  5
71
330
48
100
AcDbEntity
  8
1
 62
     4
100
AcDbPoint
 10
352.6306237959176
 20
519.3745122321632
 30
0.0
  0
POINT
  5
72
330
48
100
AcDbEntity
  8
1
 62
     4
100
AcDbPoint
 10
441.8806237959176
 20
517.3745122321632
 30
0.0
  0
LINE
  5
73
330
48
100
AcDbEntity
  8
1
  6
Continuous
 62
     2
100
AcDbLine
 10
339.8806237959176
 20
529.3745122321632
 30
0.0
 11
339.8806237959176
 21
512.3745122321632
 31
0.0
  0
LINE
  5
74
330
48
100
AcDbEntity
  8
1
  6
DOT_CENTER
 62
     2
100
AcDbLine
 10
445.8806237959176
 20
528.8745122321632
 30
0.0
 11
445.8806237959176
 21
522.8745122321632
 31
0.0
  0
LINE
  5
75
330
48
100
AcDbEntity
  8
1
  6
DOT_CENTER
 62
     2
100
AcDbLine
 10
442.8806237959176
 20
525.8745122321632
 30
0.0
 11
455.8806237959176
 21
525.8745122321632
 31
0.0
  0
LINE
  5
76
330
48
100
AcDbEntity
  8
1
  6
Continuous
 62
     7
100
AcDbLine
 10
454.8806237959176
 20
523.8745122321632
 30
0.0
 11
449.8806237959176
 21
524.6745122321631
 31
0.0
  0
LINE
  5
77
330
48
100
AcDbEntity
  8
1
  6
Continuous
 62
     7
100
AcDbLine
 10
454.8806237959176
 20
527.8745122321632
 30
0.0
 11
454.8806237959176
 21
523.8745122321632
 31
0.0
  0
LINE
  5
78
330
48
100
AcDbEntity
  8
1
  6
Continuous
 62
     7
100
AcDbLine
 10
449.8806237959176
 20
527.0745122321632
 30
0.0
 11
454.8806237959176
 21
527.8745122321632
 31
0.0
  0
LINE
  5
79
330
48
100
AcDbEntity
  8
1
  6
Continuous
 62
     7
100
AcDbLine
 10
449.8806237959176
 20
527.0745122321632
 30
0.0
 11
449.8806237959176
 21
524.6745122321631
 31
0.0
  0
LINE
  5
7A
330
48
100
AcDbEntity
  8
1
  6
Continuous
 62
     2
100
AcDbLine
 10
291.8806237959176
 20
529.3745122321632
 30
0.0
 11
291.8806237959176
 21
512.3745122321632
 31
0.0
  0
LINE
  5
7B
330
48
100
AcDbEntity
  8
1
  6
Continuous
 62
     2
100
AcDbLine
 10
283.8806237959176
 20
520.8745122321632
 30
0.0
 11
339.8806237959176
 21
520.8745122321632
 31
0.0
  0
LINE
  5
7C
330
48
100
AcDbEntity
  8
1
  6
Continuous
 62
     7
100
AcDbLine
 10
458.8806237959176
 20
789.3745122321634
 30
0.0
 11
363.8806237959176
 21
789.3745122321634
 31
0.0
  0
LINE
  5
7D
330
48
100
AcDbEntity
  8
1
  6
Continuous
 62
     7
100
AcDbLine
 10
458.8806237959176
 20
512.3745122321632
 30
0.0
 11
458.8806237959176
 21
650.8745122321632
 31
0.0
  0
LINE
  5
7E
330
48
100
AcDbEntity
  8
1
  6
Continuous
 62
     7
100
AcDbLine
 10
283.8806237959176
 20
512.3745122321632
 30
0.0
 11
363.8806237959176
 21
512.3745122321632
 31
0.0
  0
LINE
  5
7F
330
48
100
AcDbEntity
  8
1
  6
PHANTOM
 62
     4
100
AcDbLine
 10
258.8806237959176
 20
799.3745122321632
 30
0.0
 11
258.8806237959176
 21
502.3745122321632
 31
0.0
  0
LINE
  5
80
330
48
100
AcDbEntity
  8
1
  6
PHANTOM
 62
     4
100
AcDbLine
 10
468.8806237959176
 20
799.3745122321632
 30
0.0
 11
258.8806237959176
 21
799.3745122321632
 31
0.0
  0
LINE
  5
81
330
48
100
AcDbEntity
  8
1
  6
PHANTOM
 62
     4
100
AcDbLine
 10
468.8806237959176
 20
502.3745122321632
 30
0.0
 11
468.8806237959176
 21
799.3745122321632
 31
0.0
  0
LINE
  5
82
330
48
100
AcDbEntity
  8
1
  6
PHANTOM
 62
     4
100
AcDbLine
 10
258.8806237959176
 20
502.3745122321632
 30
0.0
 11
468.8806237959176
 21
502.3745122321632
 31
0.0
  0
LINE
  5
83
330
48
100
AcDbEntity
  8
1
  6
Continuous
 62
     7
100
AcDbLine
 10
283.8806237959176
 20
543.3745122321632
 30
0.0
 11
458.8806237959176
 21
543.3745122321632
 31
0.0
  0
LINE
  5
84
330
48
100
AcDbEntity
  8
1
  6
Continuous
 62
     7
100
AcDbLine
 10
458.8806237959176
 20
529.3745122321632
 30
0.0
 11
283.8806237959176
 21
529.3745122321632
 31
0.0
  0
LINE
  5
85
330
48
100
AcDbEntity
  8
1
  6
Continuous
 62
     2
100
AcDbLine
 10
291.8806237959176
 20
543.3745122321632
 30
0.0
 11
291.8806237959176
 21
529.3745122321632
 31
0.0
  0
LINE
  5
86
330
48
100
AcDbEntity
  8
1
  6
Continuous
 62
     2
100
AcDbLine
 10
313.8806237959176
 20
789.3745122321634
 30
0.0
 11
313.8806237959176
 21
779.3745122321634
 31
0.0
  0
LINE
  5
87
330
48
100
AcDbEntity
  8
1
  6
Continuous
 62
     2
100
AcDbLine
 10
298.8806237959176
 20
789.3745122321634
 30
0.0
 11
298.8806237959176
 21
779.3745122321634
 31
0.0
  0
LINE
  5
88
330
48
100
AcDbEntity
  8
1
  6
Continuous
 62
     7
100
AcDbLine
 10
283.8806237959176
 20
512.3745122321632
 30
0.0
 11
283.8806237959176
 21
650.8745122321632
 31
0.0
  0
LINE
  5
89
330
48
100
AcDbEntity
  8
1
  6
Continuous
 62
     2
100
AcDbLine
 10
313.8806237959176
 20
779.3745122321634
 30
0.0
 11
283.8806237959176
 21
779.3745122321634
 31
0.0
  0
LINE
  5
8A
330
48
100
AcDbEntity
  8
1
  6
Continuous
 62
     2
100
AcDbLine
 10
424.8806237959176
 20
529.3745122321632
 30
0.0
 11
424.8806237959176
 21
512.3745122321632
 31
0.0
  0
LINE
  5
8B
330
48
100
AcDbEntity
  8
1
  6
Continuous
 62
     2
100
AcDbLine
 10
390.8806237959176
 20
529.3745122321632
 30
0.0
 11
390.8806237959176
 21
512.3745122321632
 31
0.0
  0
LINE
  5
8C
330
48
100
AcDbEntity
  8
1
  6
Continuous
 62
     2
100
AcDbLine
 10
407.8806237959176
 20
529.3745122321632
 30
0.0
 11
407.8806237959176
 21
512.3745122321632
 31
0.0
  0
LINE
  5
8D
330
48
100
AcDbEntity
  8
1
  6
Continuous
 62
     2
100
AcDbLine
 10
373.8806237959176
 20
529.3745122321632
 30
0.0
 11
373.8806237959176
 21
512.3745122321632
 31
0.0
  0
LINE
  5
8E
330
48
100
AcDbEntity
  8
1
  6
Continuous
 62
     2
100
AcDbLine
 10
356.8806237959176
 20
529.3745122321632
 30
0.0
 11
356.8806237959176
 21
512.3745122321632
 31
0.0
  0
LINE
  5
8F
330
48
100
AcDbEntity
  8
1
  6
Continuous
 62
     2
100
AcDbLine
 10
424.8806237959176
 20
522.3745122321632
 30
0.0
 11
458.8806237959176
 21
522.3745122321632
 31
0.0
  0
LINE
  5
90
330
48
100
AcDbEntity
  8
1
  6
Continuous
 62
     2
100
AcDbLine
 10
363.8806237959176
 20
789.3745122321634
 30
0.0
 11
363.8806237959176
 21
794.3745122321634
 31
0.0
  0
LINE
  5
91
330
48
100
AcDbEntity
  8
1
  6
Continuous
 62
     7
100
AcDbLine
 10
363.8806237959176
 20
789.3745122321634
 30
0.0
 11
283.8806237959176
 21
789.3745122321634
 31
0.0
  0
LINE
  5
92
330
48
100
AcDbEntity
  8
1
  6
Continuous
 62
     2
100
AcDbLine
 10
283.8806237959176
 20
650.8745122321632
 30
0.0
 11
278.8806237959176
 21
650.8745122321632
 31
0.0
  0
LINE
  5
93
330
48
100
AcDbEntity
  8
1
  6
Continuous
 62
     7
100
AcDbLine
 10
283.8806237959176
 20
650.8745122321632
 30
0.0
 11
283.8806237959176
 21
789.3745122321634
 31
0.0
  0
LINE
  5
94
330
48
100
AcDbEntity
  8
1
  6
Continuous
 62
     2
100
AcDbLine
 10
458.8806237959176
 20
650.8745122321632
 30
0.0
 11
463.8806237959176
 21
650.8745122321632
 31
0.0
  0
LINE
  5
95
330
48
100
AcDbEntity
  8
1
  6
Continuous
 62
     7
100
AcDbLine
 10
458.8806237959176
 20
650.8745122321632
 30
0.0
 11
458.8806237959176
 21
789.3745122321634
 31
0.0
  0
LINE
  5
96
330
48
100
AcDbEntity
  8
1
  6
Continuous
 62
     2
100
AcDbLine
 10
363.8806237959176
 20
512.3745122321632
 30
0.0
 11
363.8806237959176
 21
507.3745122321632
 31
0.0
  0
LINE
  5
97
330
48
100
AcDbEntity
  8
1
  6
Continuous
 62
     7
100
AcDbLine
 10
363.8806237959176
 20
512.3745122321632
 30
0.0
 11
458.8806237959176
 21
512.3745122321632
 31
0.0
  0
CIRCLE
  5
9C
330
48
100
AcDbEntity
  8
1
  6
DOT_CENTER
 62
     7
100
AcDbCircle
 10
348.3806237959176
 20
520.3745122321632
 30
0.0
 40
0.1000000000000227
  0
CIRCLE
  5
9D
330
48
100
AcDbEntity
  8
1
  6
DOT_CENTER
 62
     7
100
AcDbCircle
 10
348.3806237959176
 20
518.3745122321632
 30
0.0
 40
0.1000000000000227
  0
CIRCLE
  5
9E
330
48
100
AcDbEntity
  8
1
  6
Continuous
 62
     7
100
AcDbCircle
 10
445.8806237959176
 20
525.8745122321632
 30
0.0
 40
2.0
  0
CIRCLE
  5
9F
330
48
100
AcDbEntity
  8
1
  6
Continuous
 62
     7
100
AcDbCircle
 10
445.8806237959176
 20
525.8745122321632
 30
0.0
 40
1.199999999999989
  0
CIRCLE
  5
A0
330
48
100
AcDbEntity
  8
1
  6
Continuous
 62
     7
100
AcDbCircle
 10
413.3806237959176
 20
514.8745122321632
 30
0.0
 40
0.2999999999998977
  0
CIRCLE
  5
A1
330
48
100
AcDbEntity
  8
1
  6
Continuous
 62
     7
100
AcDbCircle
 10
419.3806237959176
 20
514.8745122321632
 30
0.0
 40
0.2999999999998977
  0
CIRCLE
  5
A2
330
48
100
AcDbEntity
  8
1
  6
Continuous
 62
     7
100
AcDbCircle
 10
402.3806237959176
 20
514.8745122321632
 30
0.0
 40
0.2999999999998977
  0
CIRCLE
  5
A3
330
48
100
AcDbEntity
  8
1
  6
Continuous
 62
     7
100
AcDbCircle
 10
396.3806237959176
 20
514.8745122321632
 30
0.0
 40
0.2999999999998977
  0
CIRCLE
  5
A4
330
48
100
AcDbEntity
  8
1
  6
Continuous
 62
     7
100
AcDbCircle
 10
385.3806237959176
 20
514.8745122321632
 30
0.0
 40
0.2999999999998977
  0
CIRCLE
  5
A5
330
48
100
AcDbEntity
  8
1
  6
Continuous
 62
     7
100
AcDbCircle
 10
379.3806237959176
 20
514.8745122321632
 30
0.0
 40
0.2999999999998977
  0
CIRCLE
  5
A6
330
48
100
AcDbEntity
  8
1
  6
Continuous
 62
     7
100
AcDbCircle
 10
368.3806237959176
 20
514.8745122321632
 30
0.0
 40
0.2999999999998977
  0
CIRCLE
  5
A7
330
48
100
AcDbEntity
  8
1
  6
Continuous
 62
     7
100
AcDbCircle
 10
362.3806237959176
 20
514.8745122321632
 30
0.0
 40
0.2999999999998977
  0
SPLINE
  5
A8
102
{ACAD_REACTORS
330
C6
102
}
330
48
100
AcDbEntity
  8
_U_30EC_U_30A4_U_30E4_U_30FC_1
  6
Continuous
 62
     2
100
AcDbSpline
210
0.0
220
0.0
230
1.0
 70
    11
 71
     3
 72
    99
 73
    95
 74
    93
 42
0.000000001
 43
0.0000000001
 44
0.00000001
 40
0.0
 40
0.0
 40
0.0
 40
0.0
 40
0.0796417172271533
 40
0.1621768542355079
 40
0.2486489160956092
 40
0.3404969668524342
 40
0.4381912511164476
 40
0.54344636602444
 40
0.6518115192845573
 40
0.753019093788637
 40
0.8492196919724537
 40
0.9419290312997262
 40
1.034249663569943
 40
1.129078600620072
 40
1.226697027573248
 40
1.327220425421589
 40
1.470572134938078
 40
1.595489863371227
 40
1.719934125348316
 40
1.85057662012741
 40
1.989059629987283
 40
2.134139054226825
 40
2.280698007207152
 40
2.424529739039319
 40
2.565929576985847
 40
2.708239260773527
 40
2.861717887443609
 40
3.045168540347359
 40
3.183798301138627
 40
3.314813961455359
 40
3.442083470447284
 40
3.569912708372861
 40
3.702177512509351
 40
3.842307559659587
 40
3.992872223245906
 40
4.156750662218238
 40
4.310981861107419
 40
4.445859909322498
 40
4.572393936131528
 40
4.701656719781986
 40
4.768279086008552
 40
4.83596069789858
 40
4.912788918729464
 40
5.006285208481514
 40
5.026909478751675
 40
5.047533749021155
 40
5.101808031471078
 40
5.162325165538513
 40
5.226919745995816
 40
5.294231806596741
 40
5.364544852554828
 40
5.438319055467893
 40
5.51787765132417
 40
5.607647714861567
 40
5.700449642544323
 40
5.788251142364069
 40
5.872714706039706
 40
5.955167292575164
 40
6.037192395190267
 40
6.120669181468998
 40
6.206848616686113
 40
6.296680855416676
 40
6.442558392872477
 40
6.568190371608151
 40
6.692904567360299
 40
6.824220446557122
 40
6.963121850329295
 40
7.107843738851109
 40
7.253431663907254
 40
7.395187468036759
 40
7.533140753237743
 40
7.670550457175263
 40
7.816236511769119
 40
7.987691657359105
 40
8.142277421969114
 40
8.293662615415043
 40
8.442962460879176
 40
8.59159831618525
 40
8.743678992361652
 40
8.90372532369913
 40
9.07630700889047
 40
9.265578604680583
 40
9.459203795360759
 40
9.617619810273581
 40
9.753609671361941
 40
9.87487330000394
 40
9.95452018497777
 40
10.02416413719239
 40
10.09769764405434
 40
10.18909955924975
 40
10.20974586420128
 40
10.23039218263379
 40
10.30057101881261
 40
10.3763201298755
 40
10.3763201298755
 40
10.3763201298755
 40
10.3763201298755
 10
429.0272192795027
 20
516.5124688643232
 30
0.0
 10
429.0438455810394
 20
516.4917183206164
 30
0.0
 10
429.0777022165755
 20
516.4494633492823
 30
0.0
 10
429.1406060500211
 20
516.3948103460843
 30
0.0
 10
429.2138738899569
 20
516.3475024833738
 30
0.0
 10
429.2982207197812
 20
516.3097845465427
 30
0.0
 10
429.3938478574636
 20
516.2849184294828
 30
0.0
 10
429.4978091734521
 20
516.2776078256229
 30
0.0
 10
429.603025817958
 20
516.2859354601038
 30
0.0
 10
429.7012864330509
 20
516.3160040286784
 30
0.0
 10
429.7865224386724
 20
516.3630004618822
 30
0.0
 10
429.8585458165279
 20
516.4240421446716
 30
0.0
 10
429.9157155668271
 20
516.4986419279489
 30
0.0
 10
429.9574106706618
 20
516.584536878765
 30
0.0
 10
429.9833190805468
 20
516.6793707364852
 30
0.0
 10
429.9924275291828
 20
516.7930620225469
 30
0.0
 10
429.9793102755664
 20
516.9178381098711
 30
0.0
 10
429.9131568293587
 20
517.034659423882
 30
0.0
 10
429.8175608878747
 20
517.1196376279371
 30
0.0
 10
429.7055918981544
 20
517.188679076755
 30
0.0
 10
429.5799897542445
 20
517.2465536526222
 30
0.0
 10
429.4462929580031
 20
517.2982494650064
 30
0.0
 10
429.3119360778008
 20
517.353503156135
 30
0.0
 10
429.1858221946054
 20
517.4239099385798
 30
0.0
 10
429.0732817946709
 20
517.5123676394755
 30
0.0
 10
428.9776201023635
 20
517.624322910848
 30
0.0
 10
428.9140395111
 20
517.7740113331771
 30
0.0
 10
428.9006944464192
 20
517.9338401760145
 30
0.0
 10
428.9126748946625
 20
518.0849962852317
 30
0.0
 10
428.9518536888017
 20
518.2126046780784
 30
0.0
 10
429.0161225710086
 20
518.3253209724717
 30
0.0
 10
429.1044442958916
 20
518.4209983248498
 30
0.0
 10
429.2144329166802
 20
518.4980543820207
 30
0.0
 10
429.3438522360443
 20
518.5560262015259
 30
0.0
 10
429.491807692697
 20
518.5919040080515
 30
0.0
 10
429.6488307414662
 20
518.6019794226688
 30
0.0
 10
429.7981178425605
 20
518.5931486097892
 30
0.0
 10
429.9402491573346
 20
518.5652612255668
 30
0.0
 10
430.0402160568802
 20
518.5086453791746
 30
0.0
 10
430.1931312695361
 20
518.4612582532181
 30
0.0
 10
430.1261369676346
 20
518.3764877621752
 30
0.0
 10
430.1102717079445
 20
518.3089012508979
 30
0.0
 10
430.0784988490473
 20
518.243773160095
 30
0.0
 10
430.0956440168748
 20
518.1417467647332
 30
0.0
 10
430.0472665167408
 20
518.1494443489822
 30
0.0
 10
430.0122027399943
 20
518.1425799494115
 30
0.0
 10
430.0102935944896
 20
518.2071505437452
 30
0.0
 10
429.9791930891163
 20
518.2527686283771
 30
0.0
 10
429.9470789587632
 20
518.3101225984478
 30
0.0
 10
429.9014276434344
 20
518.359916859089
 30
0.0
 10
429.8464746177561
 20
518.4044603693529
 30
0.0
 10
429.7817079132183
 20
518.4421521205286
 30
0.0
 10
429.7038615269772
 20
518.4673459900769
 30
0.0
 10
429.6161398512529
 20
518.4738245421443
 30
0.0
 10
429.5259141236981
 20
518.4668693250194
 30
0.0
 10
429.440083265324
 20
518.4436041367725
 30
0.0
 10
429.3634581597774
 20
518.4058286732385
 30
0.0
 10
429.2971503595375
 20
518.3550286430591
 30
0.0
 10
429.2428798496143
 20
518.2918236662356
 30
0.0
 10
429.2031163304635
 20
518.2172767892667
 30
0.0
 10
429.1783013469763
 20
518.1336853721411
 30
0.0
 10
429.1698362222045
 20
518.026441715986
 30
0.0
 10
429.1825935946278
 20
517.9041668048388
 30
0.0
 10
429.2487786368451
 20
517.7860094750754
 30
0.0
 10
429.3447215359008
 20
517.7005754892584
 30
0.0
 10
429.4564152922358
 20
517.6303458552303
 30
0.0
 10
429.5817101627879
 20
517.5711038552163
 30
0.0
 10
429.7156061900623
 20
517.5206793130244
 30
0.0
 10
429.8496168292327
 20
517.4677374020071
 30
0.0
 10
429.9757123276091
 20
517.402013938415
 30
0.0
 10
430.0882454597593
 20
517.3193157575363
 30
0.0
 10
430.1837608243409
 20
517.2144722952639
 30
0.0
 10
430.2478944446137
 20
517.073883404679
 30
0.0
 10
430.2617341684455
 20
516.9151663266791
 30
0.0
 10
430.2480192671405
 20
516.756043784342
 30
0.0
 10
430.2050977113162
 20
516.6093505203552
 30
0.0
 10
430.135214428824
 20
516.4757101980347
 30
0.0
 10
430.0380830173007
 20
516.359836109156
 30
0.0
 10
429.9154043982833
 20
516.2654120498642
 30
0.0
 10
429.7680646372343
 20
516.196304938683
 30
0.0
 10
429.5983370456301
 20
516.1540443407515
 30
0.0
 10
429.4123642938773
 20
516.1423295944672
 30
0.0
 10
429.2335193885359
 20
516.1526070989974
 30
0.0
 10
429.0687971712919
 20
516.1941779698549
 30
0.0
 10
428.9640648800233
 20
516.2624886610027
 30
0.0
 10
428.8157198749542
 20
516.3112644224842
 30
0.0
 10
428.8786616153905
 20
516.4042781450717
 30
0.0
 10
428.8878512389238
 20
516.4774775946461
 30
0.0
 10
428.9109949260406
 20
516.5438751771767
 30
0.0
 10
428.8840826294494
 20
516.644260327439
 30
0.0
 10
428.9327576915515
 20
516.6368525673371
 30
0.0
 10
428.9722768539872
 20
516.6434528683722
 30
0.0
 10
428.9802442903878
 20
516.5652992643526
 30
0.0
 10
429.0111674927099
 20
516.5305215059219
 30
0.0
 10
429.0272192795027
 20
516.5124688643232
 30
0.0
 11
429.0272192795027
 21
516.5124688643232
 31
0.0
 11
429.078827603504
 21
516.4518109303107
 31
0.0
 11
429.1407343460511
 21
516.3972251837965
 31
0.0
 11
429.2134001968977
 21
516.3503520414472
 31
0.0
 11
429.2972706615019
 21
516.3129112949287
 31
0.0
 11
429.3918448691586
 21
516.288418595282
 31
0.0
 11
429.4967841286341
 21
516.280270531048
 31
0.0
 11
429.6046977456726
 21
516.2901527185455
 31
0.0
 11
429.7014657900792
 21
516.3197992810381
 31
0.0
 11
429.7857014042494
 21
516.3662634216514
 31
0.0
 11
429.8562382166862
 21
516.4264263643447
 31
0.0
 11
429.9125680069156
 21
516.4995704268264
 31
0.0
 11
429.954292797518
 21
516.5847265726384
 31
0.0
 11
429.9800918767208
 21
516.6788741420594
 31
0.0
 11
429.9887062688622
 21
516.7790277531453
 31
0.0
 11
429.9684755662532
 21
516.9209447409572
 31
0.0
 11
429.9078760625906
 21
517.0301790725271
 31
0.0
 11
429.8171209245462
 21
517.1153252964642
 31
0.0
 11
429.7066339843916
 21
517.1850396974885
 31
0.0
 11
429.581476149043
 21
517.2443107738624
 31
0.0
 11
429.4469189910174
 21
517.2985547669043
 31
0.0
 11
429.3123122236183
 21
517.3565249752232
 31
0.0
 11
429.1872039976435
 21
517.4274862252055
 31
0.0
 11
429.0766514057456
 21
517.5156453918502
 31
0.0
 11
428.9859619194441
 21
517.6253151834894
 31
0.0
 11
428.925329342866
 21
517.7663094369263
 31
0.0
 11
428.9051317131729
 21
517.9486448361863
 31
0.0
 11
428.9180268430523
 21
518.0866735514296
 31
0.0
 11
428.9567254618567
 21
518.211843516676
 31
0.0
 11
429.0199379690682
 21
518.322304853454
 31
0.0
 11
429.1063737913721
 21
518.4164810860693
 31
0.0
 11
429.2142730768139
 21
518.4929776398698
 31
0.0
 11
429.3419764242505
 21
518.5506689332581
 31
0.0
 11
429.4881631219099
 21
518.5867129002629
 31
0.0
 11
429.6516006524626
 21
518.5987260860238
 31
0.0
 11
429.8055156390465
 21
518.588854922832
 31
0.0
 11
429.9371125201783
 21
518.5592855304783
 31
0.0
 11
430.0531874304115
 21
518.5089121711158
 31
0.0
 11
430.1607030700299
 21
518.437153863842
 31
0.0
 11
430.132323200962
 21
518.3768784732321
 31
0.0
 11
430.109109321346
 21
518.3133024055396
 31
0.0
 11
430.0884618999977
 21
518.2393006520858
 31
0.0
 11
430.0678078640663
 21
518.1481142111365
 31
0.0
 11
430.0471835937591
 21
518.1481142111365
 31
0.0
 11
430.0265593234519
 21
518.1481142111365
 31
0.0
 11
430.0062944454967
 21
518.1984633170266
 31
0.0
 11
429.9800896718597
 21
518.2530126833326
 31
0.0
 11
429.9456706883627
 21
518.3076733951244
 31
0.0
 11
429.9009792572113
 21
518.3580081694174
 31
0.0
 11
429.8463571318686
 21
518.4022839853785
 31
0.0
 11
429.7822959963502
 21
518.4388736555081
 31
0.0
 11
429.7065920920317
 21
518.4633376919605
 31
0.0
 11
429.6171960005624
 21
518.4715232388335
 31
0.0
 11
429.5247175133384
 21
518.4637819714743
 31
0.0
 11
429.4400310050821
 21
518.440602266619
 31
0.0
 11
429.3643262448016
 21
518.4031471885032
 31
0.0
 11
429.2989992725692
 21
518.3528399749744
 31
0.0
 11
429.2456725846841
 21
518.290515165962
 31
0.0
 11
429.2061047193078
 21
518.2170117111193
 31
0.0
 11
429.1815761713887
 21
518.1343966677373
 31
0.0
 11
429.1734192063284
 21
518.0449355306068
 31
0.0
 11
429.1936333724793
 21
517.9004653136291
 31
0.0
 11
429.2542494125996
 21
517.7904240028927
 31
0.0
 11
429.3449717279934
 21
517.7048489334695
 31
0.0
 11
429.4554914907989
 21
517.6339317807094
 31
0.0
 11
429.5806327896895
 21
517.573655287669
 31
0.0
 11
429.7152064841729
 21
517.5204167112934
 31
0.0
 11
429.8497967151144
 21
517.4649071279739
 31
0.0
 11
429.9749214775474
 21
517.3982850446573
 31
0.0
 11
430.0854247038947
 21
517.3157008693307
 31
0.0
 11
430.1761635557464
 21
517.2125122669258
 31
0.0
 11
430.2367795958664
 21
517.0800353919591
 31
0.0
 11
430.2569937620174
 21
516.9097760170016
 31
0.0
 11
430.2428077707174
 21
516.7558425361374
 31
0.0
 11
430.2002324968369
 21
516.6105675448541
 31
0.0
 11
430.1305990843441
 21
516.4785007740539
 31
0.0
 11
430.035123003789
 21
516.3645844199157
 31
0.0
 11
429.9147298731801
 21
516.2716649581334
 31
0.0
 11
429.7702398161022
 21
516.2028358088451
 31
0.0
 11
429.6029757491889
 21
516.1603249842028
 31
0.0
 11
429.4142341307402
 21
516.1461708783036
 31
0.0
 11
429.2211269685563
 21
516.1603249842028
 31
0.0
 11
429.0685213860087
 21
516.2028358088451
 31
0.0
 11
428.9468135901379
 21
516.2635025623022
 31
0.0
 11
428.846649978554
 21
516.3318554615905
 31
0.0
 11
428.8728558546215
 21
516.407067683794
 31
0.0
 11
428.8896359496794
 21
516.4746599059993
 31
0.0
 11
428.9012434407028
 21
516.5472714945228
 31
0.0
 11
428.9119844213315
 21
516.6380401142919
 31
0.0
 11
428.9326307402491
 21
516.6380401142919
 31
0.0
 11
428.9532770591668
 21
516.6380401142919
 31
0.0
 11
428.9855154350805
 21
516.5757042809742
 31
0.0
 11
429.0272192795027
 21
516.5124688643232
 31
0.0
  0
SPLINE
  5
A9
102
{ACAD_REACTORS
330
C7
102
}
330
48
100
AcDbEntity
  8
_U_30EC_U_30A4_U_30E4_U_30FC_1
  6
Continuous
 62
     2
100
AcDbSpline
210
0.0
220
0.0
230
1.0
 70
    11
 71
     3
 72
    57
 73
    53
 74
    51
 42
0.000000001
 43
0.0000000001
 44
0.00000001
 40
0.0
 40
0.0
 40
0.0
 40
0.0
 40
0.0471632082808116
 40
0.0914861054631933
 40
0.13577625197016
 40
0.1826527001610747
 40
0.2295203288572656
 40
0.2737751972220257
 40
0.3181310461543434
 40
0.3652607198398111
 40
0.4571007286312697
 40
0.5671851029164172
 40
0.6894623283866709
 40
0.8181758272544005
 40
0.9510087229271733
 40
1.085852229673963
 40
1.218126164475259
 40
1.343545131142267
 40
1.45453720295674
 40
1.567187607530775
 40
1.680710966642395
 40
1.794226869736674
 40
1.900009184247531
 40
2.004085860447784
 40
2.108162674451611
 40
2.214000150155214
 40
2.496038577352147
 40
2.762350745479164
 40
2.99727535327915
 40
3.185110082137551
 40
3.246407890063701
 40
3.31260755021252
 40
3.378877742711395
 40
3.440140399651229
 40
4.100501696006154
 40
4.754913085563151
 40
5.411331693423607
 40
6.077890432568301
 40
6.11057529267058
 40
6.14326015277536
 40
6.36798936339464
 40
6.610525374951044
 40
6.863389136466939
 40
7.119380025547271
 40
7.376036605090786
 40
7.631164770965787
 40
7.876722425455925
 40
8.104953735855426
 40
8.312916685923959
 40
8.497730294940776
 40
8.651018984313385
 40
8.764738853624035
 40
8.764738853624035
 40
8.764738853624035
 40
8.764738853624035
 10
433.6728887459689
 20
516.1907796282926
 30
0.0
 10
433.6572854686107
 20
516.192774542954
 30
0.0
 10
433.6270185919479
 20
516.196644245766
 30
0.0
 10
433.5817232161428
 20
516.1979320818359
 30
0.0
 10
433.5365791088526
 20
516.1975990677037
 30
0.0
 10
433.4905255082576
 20
516.1976588189054
 30
0.0
 10
433.4446734131272
 20
516.1977703686632
 30
0.0
 10
433.3989949607339
 20
516.1972905667291
 30
0.0
 10
433.3557049500785
 20
516.1991233283504
 30
0.0
 10
433.284618591069
 20
516.1750078003101
 30
0.0
 10
433.2863715220617
 20
516.2963591719358
 30
0.0
 10
433.2392434329745
 20
516.3817746296754
 30
0.0
 10
433.1997716210939
 20
516.4993815256146
 30
0.0
 10
433.1512873491822
 20
516.6168397575677
 30
0.0
 10
433.1007255361696
 20
516.7385715897782
 30
0.0
 10
433.0524872569653
 20
516.8652719107879
 30
0.0
 10
432.9941470906771
 20
516.9738491100129
 30
0.0
 10
432.9787130626436
 20
517.1307188035073
 30
0.0
 10
432.8372824289812
 20
517.0982466976466
 30
0.0
 10
432.7314635374079
 20
517.1096411189849
 30
0.0
 10
432.6164807684398
 20
517.1084381473095
 30
0.0
 10
432.5059380211316
 20
517.1095816856374
 30
0.0
 10
432.3982821481958
 20
517.1086957325385
 30
0.0
 10
432.2927560488419
 20
517.1086782560683
 30
0.0
 10
432.1915430641189
 20
517.1016525568875
 30
0.0
 10
432.0073042786927
 20
517.1258708307615
 30
0.0
 10
431.9963631644587
 20
516.8219291433822
 30
0.0
 10
431.8893929593927
 20
516.5980440046972
 30
0.0
 10
431.7904386563522
 20
516.4134653750883
 30
0.0
 10
431.8031328483185
 20
516.1698142802057
 30
0.0
 10
431.6856329675572
 20
516.1995926996948
 30
0.0
 10
431.6228293827488
 20
516.1970931272594
 30
0.0
 10
431.5592110052575
 20
516.197952983191
 30
0.0
 10
431.2752252153257
 20
516.1554926315846
 30
0.0
 10
431.9057876458556
 20
516.8753317566105
 30
0.0
 10
431.9893883248248
 20
517.3872776265205
 30
0.0
 10
432.3735490748512
 20
517.9080496676639
 30
0.0
 10
432.3583446247744
 20
518.6097084946946
 30
0.0
 10
432.6045503681873
 20
518.5979685629758
 30
0.0
 10
432.7062584116736
 20
518.6067622766907
 30
0.0
 10
432.7055989994993
 20
518.3551087394668
 30
0.0
 10
432.8234555115004
 20
518.1726924395027
 30
0.0
 10
432.9121753219661
 20
517.9301496387918
 30
0.0
 10
433.0128530444435
 20
517.6979125374644
 30
0.0
 10
433.1117380671418
 20
517.4612586778322
 30
0.0
 10
433.2105914949845
 20
517.2291296238641
 30
0.0
 10
433.3062404350103
 20
517.0057344600514
 30
0.0
 10
433.3966142532447
 20
516.7972377226563
 30
0.0
 10
433.4796182527365
 20
516.6075967174564
 30
0.0
 10
433.5532326541975
 20
516.4411432928442
 30
0.0
 10
433.614905385472
 20
516.3036892284242
 30
0.0
 10
433.6555696844781
 20
516.2245046264636
 30
0.0
 10
433.6728887459689
 20
516.1907796282926
 30
0.0
 11
433.6728887459689
 21
516.1907796282926
 31
0.0
 11
433.6260116276624
 21
516.195966564055
 31
0.0
 11
433.5817213855301
 21
516.1976676144018
 31
0.0
 11
433.5374312390906
 21
516.1976676144018
 31
0.0
 11
433.4905547906335
 21
516.1976676144018
 31
0.0
 11
433.4436871616209
 21
516.1976676144018
 31
0.0
 11
433.3994322929584
 21
516.1976676144018
 31
0.0
 11
433.3551090736029
 21
516.195966564055
 31
0.0
 11
433.3082656980619
 21
516.1907796282926
 31
0.0
 11
433.2798770095501
 21
516.2781218938957
 31
0.0
 11
433.2428959775074
 21
516.3818087949114
 31
0.0
 11
433.1994624195877
 21
516.4961121021745
 31
0.0
 11
433.1517293826112
 21
516.6156475448529
 31
0.0
 11
433.1014398092412
 21
516.7385928052388
 31
0.0
 11
433.0502704963108
 21
516.8633504614577
 31
0.0
 11
433.0003769760502
 21
516.985853647191
 31
0.0
 11
432.9539357071017
 21
517.1023574058424
 31
0.0
 11
432.8429849866765
 21
517.1053868850083
 31
0.0
 11
432.7303547184265
 21
517.107516780841
 31
0.0
 11
432.6168390028625
 21
517.1088341853547
 31
0.0
 11
432.5033238435976
 21
517.1092453919518
 31
0.0
 11
432.3975423271992
 21
517.1088341853547
 31
0.0
 11
432.2934739878401
 21
517.107516780841
 31
0.0
 11
432.1894189683222
 21
517.1053868850083
 31
0.0
 11
432.0836248574772
 21
517.1023574058424
 31
0.0
 11
431.9787152709314
 21
516.8405566072967
 31
0.0
 11
431.8841106649508
 21
516.5916145587478
 31
0.0
 11
431.8058469169474
 21
516.3701098018589
 31
0.0
 11
431.7499669183731
 21
516.1907796282926
 31
0.0
 11
431.6888889598618
 21
516.195966564055
 31
0.0
 11
431.6227111577306
 21
516.1976676144018
 31
0.0
 11
431.5564628000458
 21
516.195966564055
 31
0.0
 11
431.4954201193114
 21
516.1907796282926
 31
0.0
 11
431.7705922911106
 21
516.7910773191147
 31
0.0
 11
432.0389183693346
 21
517.387948655771
 31
0.0
 11
432.304651530958
 21
517.988174688607
 31
0.0
 11
432.5720978696209
 21
518.5987260860238
 31
0.0
 11
432.6047827298982
 21
518.5987260860238
 31
0.0
 11
432.6374675901755
 21
518.5987260860238
 31
0.0
 11
432.7234538640233
 21
518.3910976225341
 31
0.0
 11
432.8163523772785
 21
518.1670583777984
 31
0.0
 11
432.9134952480639
 21
517.9335988639679
 31
0.0
 11
433.0124174417207
 21
517.6974935168046
 31
0.0
 11
433.1121579209102
 21
517.461010035961
 31
0.0
 11
433.2119309088529
 21
517.2262000447004
 31
0.0
 11
433.3086846216625
 21
517.0005071541318
 31
0.0
 11
433.3994322929584
 21
516.7910927531425
 31
0.0
 11
433.4828388793722
 21
516.6005883434677
 31
0.0
 11
433.5576531222553
 21
516.431594558788
 31
0.0
 11
433.6216967145779
 21
516.2923256091699
 31
0.0
 11
433.6728887459689
 21
516.1907796282926
 31
0.0
  0
SPLINE
  5
AA
102
{ACAD_REACTORS
330
C7
102
}
330
48
100
AcDbEntity
  8
_U_30EC_U_30A4_U_30E4_U_30FC_1
  6
Continuous
 62
     2
100
AcDbSpline
210
0.0
220
0.0
230
1.0
 70
    11
 71
     3
 72
    25
 73
    21
 74
    19
 42
0.000000001
 43
0.0000000001
 44
0.00000001
 40
0.0
 40
0.0
 40
0.0
 40
0.0
 40
0.0911479969064239
 40
0.1858117896203565
 40
0.2804128399734518
 40
0.3715889190713401
 40
0.4679080494217601
 40
0.5642683809229558
 40
0.6605683222644163
 40
0.7569653015809408
 40
0.8561348172522477
 40
1.092615965104234
 40
1.374867658141901
 40
1.611348812011645
 40
1.71051832842535
 40
1.809403163726799
 40
2.045205463294208
 40
2.326646917622274
 40
2.562449217190869
 40
2.661334043834139
 40
2.661334043834139
 40
2.661334043834139
 40
2.661334043834139
 10
432.1489938526376
 20
517.2606576141361
 30
0.0
 10
432.1793763877099
 20
517.2604930293087
 30
0.0
 10
432.2413133848288
 20
517.2601575190627
 30
0.0
 10
432.3347594919505
 20
517.2572027866828
 30
0.0
 10
432.4281333195534
 20
517.2542897609349
 30
0.0
 10
432.5223998712652
 20
517.2534542485971
 30
0.0
 10
432.6161202750142
 20
517.2544786787437
 30
0.0
 10
432.7158278262382
 20
517.2536820068732
 30
0.0
 10
432.7995187505489
 20
517.2637263345155
 30
0.0
 10
432.9444234274221
 20
517.2368584089047
 30
0.0
 10
432.8202370403978
 20
517.4111675349639
 30
0.0
 10
432.7772105245457
 20
517.571029342224
 30
0.0
 10
432.6615160101384
 20
517.8296968176653
 30
0.0
 10
432.5823803390433
 20
517.966822760782
 30
0.0
 10
432.5237814580992
 20
518.1838825635041
 30
0.0
 10
432.4671041898613
 20
517.9671735742976
 30
0.0
 10
432.3859047859652
 20
517.8277823565456
 30
0.0
 10
432.2869939240663
 20
517.5785819258651
 30
0.0
 10
432.2059863053437
 20
517.3937705344239
 30
0.0
 10
432.1619921285014
 20
517.2910167007244
 30
0.0
 10
432.1489938526376
 20
517.2606576141361
 30
0.0
 11
432.1489938526376
 21
517.2606576141361
 31
0.0
 11
432.2401375696996
 21
517.2597734648309
 31
0.0
 11
432.3347666256757
 21
517.2572092113592
 31
0.0
 11
432.4293320138883
 21
517.2546118849709
 31
0.0
 11
432.5205041209372
 21
517.2537608085822
 31
0.0
 11
432.6168223736881
 21
517.2541720151794
 31
0.0
 11
432.7131736993553
 21
517.255489419693
 31
0.0
 11
432.8094500597462
 21
517.2576204179563
 31
0.0
 11
432.9057991805519
 21
517.2606576141361
 31
0.0
 11
432.8660871282318
 21
517.3515286541134
 31
0.0
 11
432.7713891573144
 21
517.5682211340593
 31
0.0
 11
432.6583625468646
 21
517.8268540939946
 31
0.0
 11
432.5636645759473
 21
518.0435465739405
 31
0.0
 11
432.5239525236271
 21
518.1344176139178
 31
0.0
 11
432.4849568218442
 21
518.0435465739404
 31
0.0
 11
432.3919670714388
 21
517.8268540939947
 31
0.0
 11
432.2809793048259
 21
517.5682211340593
 31
0.0
 11
432.1879895544205
 21
517.3515286541134
 31
0.0
 11
432.1489938526376
 21
517.2606576141361
 31
0.0
  0
SPLINE
  5
AB
102
{ACAD_REACTORS
330
C8
102
}
330
48
100
AcDbEntity
  8
_U_30EC_U_30A4_U_30E4_U_30FC_1
  6
Continuous
 62
     2
100
AcDbSpline
210
0.0
220
0.0
230
1.0
 70
    11
 71
     3
 72
    95
 73
    91
 74
    89
 42
0.000000001
 43
0.0000000001
 44
0.00000001
 40
0.0
 40
0.0
 40
0.0
 40
0.0
 40
0.6550406656910952
 40
1.308087289031976
 40
1.420803739835882
 40
1.566130759770864
 40
1.757067341888471
 40
2.006513545026389
 40
2.087328263121545
 40
2.185328872295642
 40
2.294612454748354
 40
2.408936380534823
 40
2.526802767798608
 40
2.646360524615679
 40
2.762535723971649
 40
2.870057342870132
 40
2.966883448431711
 40
3.050803243518327
 40
3.115818222436688
 40
3.156030057150178
 40
3.213914225080149
 40
3.27668902645052
 40
3.342960320981297
 40
3.404230667150611
 40
3.453822809493346
 40
3.532499827188242
 40
3.634775188506968
 40
3.754909333008097
 40
3.889736761660612
 40
4.035769602175115
 40
4.187256681197562
 40
4.338733685675911
 40
4.488478734676018
 40
4.634708317831489
 40
4.771493189921181
 40
4.892686571561146
 40
5.199775528944445
 40
5.460353566929526
 40
5.667603142345291
 40
5.814722905404328
 40
5.828990806219626
 40
5.855488336304352
 40
5.869756237118684
 40
6.189796507762511
 40
6.531890469872858
 40
6.883053637016803
 40
7.230512024911192
 40
7.566966656764392
 40
7.885203559707216
 40
8.17288743971906
 40
8.418011594062515
 40
8.443926721190374
 40
8.510760470612846
 40
8.602145393795391
 40
8.701714041646861
 40
8.793098965075083
 40
8.859932715057576
 40
8.885847842603349
 40
9.242301256612429
 40
9.589275455016358
 40
9.921808543163703
 40
10.23479624298428
 40
10.29968150889134
 40
10.35323493887723
 40
10.4015462535511
 40
10.46482922477796
 40
10.55973900668389
 40
10.69239545985587
 40
10.8492035347564
 40
11.01626328594746
 40
11.18672024367423
 40
11.35372582577184
 40
11.50257442292415
 40
11.61866495023261
 40
11.71329869152848
 40
11.82511050573882
 40
11.94464880845688
 40
12.06929242642468
 40
12.19707290435143
 40
12.32562632860515
 40
12.45034565331254
 40
12.56646595170294
 40
12.67099007414619
 40
12.76077625936751
 40
12.82703233506664
 40
12.87429132785975
 40
12.8983199032332
 40
12.92234847860005
 40
13.5398476741031
 40
14.18294284359353
 40
14.18294284359353
 40
14.18294284359353
 40
14.18294284359353
 10
436.1874173607197
 20
517.0834926141804
 30
0.0
 10
436.0558257717726
 20
517.1971628181952
 30
0.0
 10
435.7930431761907
 20
517.4241571953252
 30
0.0
 10
435.2803631400193
 20
518.2666568617256
 30
0.0
 10
435.2912892554539
 20
517.9087460079336
 30
0.0
 10
435.2847464487166
 20
517.7671861548844
 30
0.0
 10
435.2834264590949
 20
517.5687252851561
 30
0.0
 10
435.282435556171
 20
517.396015192623
 30
0.0
 10
435.2830339711151
 20
517.2531659647392
 30
0.0
 10
435.2845232261058
 20
517.1571622862967
 30
0.0
 10
435.2861921547648
 20
517.0499672647946
 30
0.0
 10
435.2878172913793
 20
516.9361543473391
 30
0.0
 10
435.2898667460861
 20
516.818927958209
 30
0.0
 10
435.2929403461102
 20
516.701076344493
 30
0.0
 10
435.2962577656219
 20
516.5867931053695
 30
0.0
 10
435.2999843299456
 20
516.479726250836
 30
0.0
 10
435.3023576120601
 20
516.3845863198324
 30
0.0
 10
435.3084956847533
 20
516.3000978042203
 30
0.0
 10
435.3046022455121
 20
516.2437431051446
 30
0.0
 10
435.3261468402255
 20
516.172762456887
 30
0.0
 10
435.2487178017793
 20
516.2035390082079
 30
0.0
 10
435.1922591199367
 20
516.1946246573392
 30
0.0
 10
435.1346733855983
 20
516.2034744161458
 30
0.0
 10
435.0496401437649
 20
516.171894484423
 30
0.0
 10
435.081595210556
 20
516.2554637920852
 30
0.0
 10
435.0796943241715
 20
516.3233383218464
 30
0.0
 10
435.0914198006478
 20
516.4268447998073
 30
0.0
 10
435.0970479012175
 20
516.5445334883302
 30
0.0
 10
435.1044140138117
 20
516.6783983238073
 30
0.0
 10
435.1126997660784
 20
516.8221537608896
 30
0.0
 10
435.1205089856604
 20
516.9716524605976
 30
0.0
 10
435.1263809181833
 20
517.1224377261842
 30
0.0
 10
435.1309905777146
 20
517.2715116709476
 30
0.0
 10
435.1348870076718
 20
517.4157413637934
 30
0.0
 10
435.1376953085741
 20
517.5503512842935
 30
0.0
 10
435.1382936714199
 20
517.7392083756366
 30
0.0
 10
435.1422261826327
 20
517.9642671752948
 30
0.0
 10
435.1248413337677
 20
518.2381831434204
 30
0.0
 10
435.1656655301754
 20
518.4023833531487
 30
0.0
 10
435.0801391215182
 20
518.6020088468147
 30
0.0
 10
435.1466796866864
 20
518.5983668162028
 30
0.0
 10
435.1644962232407
 20
518.5986467037718
 30
0.0
 10
435.2863039756679
 20
518.6008415061483
 30
0.0
 10
435.3887008294637
 20
518.321263419379
 30
0.0
 10
435.6386259468532
 20
518.120142317523
 30
0.0
 10
435.8676273290285
 20
517.8524383820424
 30
0.0
 10
436.1051389172285
 20
517.6009763707871
 30
0.0
 10
436.3292328699948
 20
517.364211972777
 30
0.0
 10
436.5556954242185
 20
517.106699157994
 30
0.0
 10
436.7131925845688
 20
516.9910055827323
 30
0.0
 10
436.9278367571853
 20
516.6544837575516
 30
0.0
 10
436.9228883933793
 20
516.7791597730792
 30
0.0
 10
436.9240169561723
 20
516.8377891515206
 30
0.0
 10
436.9235115800692
 20
516.9249488558831
 30
0.0
 10
436.923671311729
 20
517.018673663992
 30
0.0
 10
436.9236292850494
 20
517.1047019451336
 30
0.0
 10
436.9236439999547
 20
517.1660511516183
 30
0.0
 10
436.9235944215163
 20
517.3158645473728
 30
0.0
 10
436.9265049481986
 20
517.5544083572644
 30
0.0
 10
436.9065759000336
 20
517.91937733085
 30
0.0
 10
436.9556671895424
 20
518.1825085520973
 30
0.0
 10
436.7984189468357
 20
518.5938012816407
 30
0.0
 10
436.9568350831597
 20
518.5384950576806
 30
0.0
 10
437.0117918437804
 20
518.5365090971651
 30
0.0
 10
437.0634125725916
 20
518.5371600146456
 30
0.0
 10
437.1519436924543
 20
518.5782075095458
 30
0.0
 10
437.1011136262345
 20
518.4314754983932
 30
0.0
 10
437.1119627889459
 20
518.3247119517075
 30
0.0
 10
437.0972274954024
 20
518.1653692863047
 30
0.0
 10
437.090621440538
 20
518.0030428486918
 30
0.0
 10
437.082119935909
 20
517.8344374510873
 30
0.0
 10
437.0749465161374
 20
517.6726603791984
 30
0.0
 10
437.0695301174567
 20
517.5287355467426
 30
0.0
 10
437.0677951926823
 20
517.4088871668324
 30
0.0
 10
437.0681678631497
 20
517.3013732480683
 30
0.0
 10
437.0679894085437
 20
517.1927124786191
 30
0.0
 10
437.0683248822317
 20
517.0740479338185
 30
0.0
 10
437.069627858136
 20
516.9500638672907
 30
0.0
 10
437.071512531075
 20
516.8230951738742
 30
0.0
 10
437.0731242414025
 20
516.6960508476735
 30
0.0
 10
437.0747641096608
 20
516.5730610770851
 30
0.0
 10
437.0768808704926
 20
516.4575215460009
 30
0.0
 10
437.077008638154
 20
516.3554212717215
 30
0.0
 10
437.0812752355732
 20
516.264610720545
 30
0.0
 10
437.0714678044466
 20
516.206648444251
 30
0.0
 10
437.0924712730867
 20
516.1396835334835
 30
0.0
 10
437.0531877699073
 20
516.14742377183
 30
0.0
 10
436.8401545076927
 20
516.1320647736156
 30
0.0
 10
436.6442535902361
 20
516.6885428131077
 30
0.0
 10
436.3417435590721
 20
516.9500725856484
 30
0.0
 10
436.1874173607197
 20
517.0834926141804
 30
0.0
 11
436.1874173607197
 21
517.0834926141804
 31
0.0
 11
435.7401767297688
 21
517.5620885862829
 31
0.0
 11
435.2930287029819
 21
518.038038725053
 31
0.0
 11
435.289590222167
 21
517.9253747320255
 31
0.0
 11
435.2861848142676
 21
517.7800876140063
 31
0.0
 11
435.283587487945
 21
517.589168690443
 31
0.0
 11
435.2827364115778
 21
517.3397239335609
 31
0.0
 11
435.2831477189465
 21
517.2589102617061
 31
0.0
 11
435.2844658288992
 21
517.1609185169389
 31
0.0
 11
435.2861430226894
 21
517.0516478051607
 31
0.0
 11
435.2878605086694
 21
516.9373367808837
 31
0.0
 11
435.2900245797948
 21
516.8194902618159
 31
0.0
 11
435.2930287029819
 21
516.6999702531652
 31
0.0
 11
435.2964597692314
 21
516.5838457306247
 31
0.0
 11
435.2999166889174
 21
516.4763796976656
 31
0.0
 11
435.3033323212264
 21
516.3796138556759
 31
0.0
 11
435.3068134942969
 21
516.295766294933
 31
0.0
 11
435.3102244143488
 21
516.2308408522408
 31
0.0
 11
435.3137014802325
 21
516.1907796282926
 31
0.0
 11
435.2560501780748
 21
516.195966564055
 31
0.0
 11
435.1932984277485
 21
516.1976676144018
 31
0.0
 11
435.1270489676333
 21
516.195966564055
 31
0.0
 11
435.0659985698851
 21
516.1907796282926
 31
0.0
 11
435.0733010696989
 21
516.2398311734191
 31
0.0
 11
435.081503152823
 21
516.3180794893717
 31
0.0
 11
435.0896336781525
 21
516.4200311646935
 31
0.0
 11
435.0969644400573
 21
516.5399414337608
 31
0.0
 11
435.1042596239598
 21
516.6745713556022
 31
0.0
 11
435.1124682214771
 21
516.8203733086907
 31
0.0
 11
435.1201742108642
 21
516.971664263514
 31
0.0
 11
435.1262000961269
 21
517.1230213641707
 31
0.0
 11
435.1309284206592
 21
517.2726917460776
 31
0.0
 11
435.1348166931296
 21
517.4188696279855
 31
0.0
 11
435.1373765368141
 21
517.5556305480902
 31
0.0
 11
435.1382562763751
 21
517.6768207390321
 31
0.0
 11
435.1378164065947
 21
517.9839093847887
 31
0.0
 11
435.1365364847524
 21
518.2444842805569
 31
0.0
 11
435.1334896677068
 21
518.4517114593243
 31
0.0
 11
435.1279287071939
 21
518.5987260860238
 31
0.0
 11
435.1421966080645
 21
518.5987260860238
 31
0.0
 11
435.1686941382528
 21
518.5987260860238
 31
0.0
 11
435.1829620391234
 21
518.5987260860238
 31
0.0
 11
435.4000981609453
 21
518.3636140287911
 31
0.0
 11
435.6318982082255
 21
518.1120250444787
 31
0.0
 11
435.8701053978015
 21
517.8540077875989
 31
0.0
 11
436.1066312516697
 21
517.5994830307181
 31
0.0
 11
436.3361936676882
 21
517.3535098276546
 31
0.0
 11
436.5538035319279
 21
517.1213015725043
 31
0.0
 11
436.7519962872883
 21
516.9127790378342
 31
0.0
 11
436.9236381058262
 21
516.7377792114892
 31
0.0
 11
436.9236381058262
 21
516.7636943390337
 31
0.0
 11
436.9236381058262
 21
516.830528089017
 31
0.0
 11
436.9236381058262
 21
516.9219130124635
 31
0.0
 11
436.9236381058263
 21
517.0214816603979
 31
0.0
 11
436.9236381058262
 21
517.1128665838444
 31
0.0
 11
436.9236381058262
 21
517.1797003338276
 31
0.0
 11
436.9236381058262
 21
517.2056154613722
 31
0.0
 11
436.9223471596785
 21
517.5620665376719
 31
0.0
 11
436.9184699115134
 21
517.9090190723073
 31
0.0
 11
436.9102435749178
 21
518.2414503916686
 31
0.0
 11
436.8960773426404
 21
518.554117336035
 31
0.0
 11
436.9596589208794
 21
518.5411759037465
 31
0.0
 11
437.0130408118787
 21
518.5368929610393
 31
0.0
 11
437.0611619044009
 21
518.5411759037465
 31
0.0
 11
437.1231074757374
 21
518.554117336035
 31
0.0
 11
437.1157454446751
 21
518.4594935166142
 31
0.0
 11
437.1076028927994
 21
518.3270871972029
 31
0.0
 11
437.0989943323181
 21
518.1705156000198
 31
0.0
 11
437.0903785182391
 21
518.003678169506
 31
0.0
 11
437.0822425809465
 21
517.8334154872568
 31
0.0
 11
437.0748739353011
 21
517.6665725445903
 31
0.0
 11
437.0697644890698
 21
517.5178116678912
 31
0.0
 11
437.068074143808
 21
517.4017334474343
 31
0.0
 11
437.0680741438081
 21
517.3070997061384
 31
0.0
 11
437.068074143808
 21
517.1952878919303
 31
0.0
 11
437.0684699163673
 21
517.0757502443907
 31
0.0
 11
437.0697057409884
 21
516.9511127531025
 31
0.0
 11
437.0714630152493
 21
516.8233443590373
 31
0.0
 11
437.0731541436784
 21
516.694802058722
 31
0.0
 11
437.0749114179391
 21
516.5700951143087
 31
0.0
 11
437.0766025463681
 21
516.4539871282268
 31
0.0
 11
437.0779122338349
 21
516.3494711994333
 31
0.0
 11
437.0783223379912
 21
516.2596859477198
 31
0.0
 11
437.0783223379912
 21
516.1934298713475
 31
0.0
 11
437.0783223379912
 21
516.1461708783036
 31
0.0
 11
437.0542937622153
 21
516.1461708783036
 31
0.0
 11
437.0302651864394
 21
516.1461708783036
 31
0.0
 11
436.6216967159599
 21
516.6091795847851
 31
0.0
 11
436.1874173607197
 21
517.0834926141804
 31
0.0
  0
SPLINE
  5
AC
102
{ACAD_REACTORS
330
C9
102
}
330
48
100
AcDbEntity
  8
_U_30EC_U_30A4_U_30E4_U_30FC_1
  6
Continuous
 62
     2
100
AcDbSpline
210
0.0
220
0.0
230
1.0
 70
    11
 71
     3
 72
   110
 73
   106
 74
   104
 42
0.000000001
 43
0.0000000001
 44
0.00000001
 40
0.0
 40
0.0
 40
0.0
 40
0.0
 40
0.2203406257278577
 40
0.4407808782838809
 40
0.5952494494615503
 40
0.7488431659394071
 40
0.902358183130891
 40
1.056801968670504
 40
1.210736449099949
 40
1.363041386539743
 40
1.515315729683138
 40
1.669377239148034
 40
1.721611652756448
 40
1.773199502942843
 40
1.824933793210002
 40
1.877110426487902
 40
1.982682281206665
 40
2.078781667087449
 40
2.172809640822228
 40
2.271937807378735
 40
2.378349933379188
 40
2.494131557736401
 40
2.626681683943508
 40
2.783145050795964
 40
2.890701232940941
 40
2.993130312454816
 40
3.099869730691703
 40
3.220237816691268
 40
3.352695482737528
 40
3.481732806389656
 40
3.593499473690348
 40
3.674323013331843
 40
3.817951711952764
 40
3.946167120793789
 40
4.061405053453387
 40
4.166480796003
 40
4.262478775059122
 40
4.350736673551078
 40
4.433071991253998
 40
4.511216293814604
 40
4.564262454117959
 40
4.618474415571513
 40
4.670128488754084
 40
4.722296879126302
 40
4.819540945314176
 40
4.931194984128026
 40
5.049996040257665
 40
5.168643755415211
 40
5.283970811762421
 40
5.392260784910306
 40
5.486512254876351
 40
5.559178233949721
 40
5.591425852853332
 40
5.626215969637727
 40
5.667155838674173
 40
5.717449290213923
 40
5.738402360944494
 40
5.784499116553635
 40
5.830595872164596
 40
5.851548942897554
 40
5.873019280661626
 40
5.92421777840818
 40
5.985325662817419
 40
6.036524160567384
 40
6.057994498333957
 40
6.236847789607288
 40
6.381409928945432
 40
6.493190424178598
 40
6.574067534230276
 40
6.691018086205427
 40
6.814881554220288
 40
6.944307823240269
 40
7.071266716065898
 40
7.193488604461705
 40
7.309042773127961
 40
7.414007203170618
 40
7.505140441886328
 40
7.531150360599598
 40
7.559221645322092
 40
7.587202218920741
 40
7.612569159498949
 40
7.662550809480837
 40
7.702878875763925
 40
7.857328205230705
 40
8.010799568088352
 40
8.165256399657359
 40
8.322232698713641
 40
8.479564855016385
 40
8.635216230290531
 40
8.79088255092548
 40
8.948305154946924
 40
9.168271839032519
 40
9.387358980986784
 40
9.608047961032986
 40
9.832914234792277
 40
9.858338694962647
 40
9.925366817229595
 40
10.02013071422721
 40
10.1287624985896
 40
10.2373942829521
 40
10.33215817995154
 40
10.39918630222349
 40
10.4246107623975
 40
10.64992019336903
 40
10.8718852453114
 40
10.8718852453114
 40
10.8718852453114
 40
10.8718852453114
 10
438.7864026335794
 20
518.1137448361451
 30
0.0
 10
438.7899102892717
 20
518.1806768529013
 30
0.0
 10
438.7969271946836
 20
518.3145711513216
 30
0.0
 10
438.7004265558249
 20
518.5999977818778
 30
0.0
 10
438.9316372685287
 20
518.5373560940662
 30
0.0
 10
439.0725528016332
 20
518.5445277727232
 30
0.0
 10
439.2296655716764
 20
518.5368710629457
 30
0.0
 10
439.3832151386464
 20
518.5370397549935
 30
0.0
 10
439.5351342894257
 20
518.5363326375176
 30
0.0
 10
439.6948452772409
 20
518.5466138156801
 30
0.0
 10
439.8215210560292
 20
518.5294773429703
 30
0.0
 10
440.0177059081257
 20
518.6017848332351
 30
0.0
 10
439.9840633238254
 20
518.5009192229643
 30
0.0
 10
439.9858249276361
 20
518.45070477164
 30
0.0
 10
439.9833580032636
 20
518.4016355880281
 30
0.0
 10
440.0153314925184
 20
518.3151471406331
 30
0.0
 10
439.8816637862433
 20
518.3644866182466
 30
0.0
 10
439.7978446647231
 20
518.3588185753049
 30
0.0
 10
439.6980099098502
 20
518.3691673992265
 30
0.0
 10
439.5992814679321
 20
518.3753767362739
 30
0.0
 10
439.4927770730286
 20
518.381489870331
 30
0.0
 10
439.3716749657236
 20
518.3904010670091
 30
0.0
 10
439.2509619461629
 20
518.3797282912869
 30
0.0
 10
439.0618791802614
 20
518.4391972629671
 30
0.0
 10
439.0935266464487
 20
518.2800954329385
 30
0.0
 10
439.0801801276009
 20
518.1829035155622
 30
0.0
 10
439.0781196385626
 20
518.0708528832643
 30
0.0
 10
439.0764426003846
 20
517.9515090884569
 30
0.0
 10
439.0779574753408
 20
517.8248381537143
 30
0.0
 10
439.0762820437845
 20
517.6975281123242
 30
0.0
 10
439.0865082230836
 20
517.5990278962081
 30
0.0
 10
439.0585244555758
 20
517.4583992584194
 30
0.0
 10
439.2314267958481
 20
517.5144077435043
 30
0.0
 10
439.3451258161948
 20
517.5017117469481
 30
0.0
 10
439.4646389631414
 20
517.5089960026758
 30
0.0
 10
439.5694729384247
 20
517.5132924027307
 30
0.0
 10
439.6649322857787
 20
517.517817914753
 30
0.0
 10
439.7570061466207
 20
517.5260042436249
 30
0.0
 10
439.8282789741616
 20
517.5209507385445
 30
0.0
 10
439.935116966486
 20
517.5598764824799
 30
0.0
 10
439.9032841557213
 20
517.4796834522222
 30
0.0
 10
439.9072402463103
 20
517.4301416006235
 30
0.0
 10
439.9040740351189
 20
517.3800870125615
 30
0.0
 10
439.935702944976
 20
517.2958007082834
 30
0.0
 10
439.8016371636868
 20
517.3487658871152
 30
0.0
 10
439.7098560752376
 20
517.3399130410676
 30
0.0
 10
439.5885967148779
 20
517.3502127318148
 30
0.0
 10
439.4720351078946
 20
517.3520013498381
 30
0.0
 10
439.3589613705055
 20
517.35238240326
 30
0.0
 10
439.2485484267647
 20
517.3586667268852
 30
0.0
 10
439.1704362027017
 20
517.3464035647169
 30
0.0
 10
439.0719863792818
 20
517.3790511083242
 30
0.0
 10
439.0818593132738
 20
517.3222097127051
 30
0.0
 10
439.0780161203579
 20
517.2884335377431
 30
0.0
 10
439.0773027843442
 20
517.2457082792572
 30
0.0
 10
439.0769607602152
 20
517.2085283047849
 30
0.0
 10
439.077007221452
 20
517.169384605871
 30
0.0
 10
439.0769887389101
 20
517.1316807271401
 30
0.0
 10
439.0769941390982
 20
517.0939617844872
 30
0.0
 10
439.0769935173375
 20
517.0644554796146
 30
0.0
 10
439.0769936110719
 20
517.033248009156
 30
0.0
 10
439.0769942247097
 20
516.9886564812442
 30
0.0
 10
439.0769909458513
 20
516.9341517972516
 30
0.0
 10
439.0769997582656
 20
516.8895676341778
 30
0.0
 10
439.0769597612592
 20
516.8056903180209
 30
0.0
 10
439.0782262229431
 20
516.6918874389401
 30
0.0
 10
439.0756512077017
 20
516.5428161915002
 30
0.0
 10
439.0871247340896
 20
516.4404842703024
 30
0.0
 10
439.0629744181439
 20
516.3079012710216
 30
0.0
 10
439.2139231905652
 20
516.3534695548834
 30
0.0
 10
439.3234674630732
 20
516.3387823537869
 30
0.0
 10
439.4540208433097
 20
516.3437165834139
 30
0.0
 10
439.5796550168689
 20
516.347089285397
 30
0.0
 10
439.6994968584778
 20
516.3516272071508
 30
0.0
 10
439.8197600570602
 20
516.3649975939834
 30
0.0
 10
439.9028999622691
 20
516.3551993599892
 30
0.0
 10
440.0262318380251
 20
516.4157743783966
 30
0.0
 10
440.0050507163133
 20
516.3598368335034
 30
0.0
 10
440.0042188229291
 20
516.3339047258868
 30
0.0
 10
440.0025201666736
 20
516.3064847940727
 30
0.0
 10
440.0024212848005
 20
516.2718941842271
 30
0.0
 10
440.0009897260505
 20
516.2350163143709
 30
0.0
 10
440.0339042151366
 20
516.1429806423814
 30
0.0
 10
439.8357544947284
 20
516.2158323919114
 30
0.0
 10
439.7106786254068
 20
516.1927694972494
 30
0.0
 10
439.5479309254331
 20
516.199052452021
 30
0.0
 10
439.3935604409177
 20
516.1971216712623
 30
0.0
 10
439.2372908396121
 20
516.1984498581561
 30
0.0
 10
439.0776782424458
 20
516.1951109570418
 30
0.0
 10
438.9346564301411
 20
516.2071701894453
 30
0.0
 10
438.7003382840805
 20
516.1440322519328
 30
0.0
 10
438.7980048710373
 20
516.4307175068263
 30
0.0
 10
438.7813106739234
 20
516.6243953135896
 30
0.0
 10
438.7952534668862
 20
516.8529946609665
 30
0.0
 10
438.7949225805808
 20
517.0083581717133
 30
0.0
 10
438.794931607844
 20
517.1141755966047
 30
0.0
 10
438.7949293835493
 20
517.1765700734053
 30
0.0
 10
438.7949303511064
 20
517.2667164846465
 30
0.0
 10
438.7949303432437
 20
517.3707239037377
 30
0.0
 10
438.7949291820275
 20
517.4747335459161
 30
0.0
 10
438.7949328930679
 20
517.5648746690509
 30
0.0
 10
438.7949249010226
 20
517.6272802631355
 30
0.0
 10
438.7949572234198
 20
517.7332005917744
 30
0.0
 10
438.7937678747494
 20
517.8907793976107
 30
0.0
 10
438.7888454448432
 20
518.0397944303837
 30
0.0
 10
438.7864026335794
 20
518.1137448361451
 30
0.0
 11
438.7864026335794
 21
518.1137448361451
 31
0.0
 11
438.7773156182916
 21
518.3338980131734
 31
0.0
 11
438.767448753231
 21
518.554117336035
 31
0.0
 11
438.9217813100577
 21
518.5476361468005
 31
0.0
 11
439.0752738148223
 21
518.5420611554825
 31
0.0
 11
439.2287398612542
 21
518.5381839072196
 31
0.0
 11
439.3831782514116
 21
518.5368929610393
 31
0.0
 11
439.5371073186649
 21
518.5381839072196
 31
0.0
 11
439.6893628963776
 21
518.5420611554825
 31
0.0
 11
439.841535151025
 21
518.5476361468005
 31
0.0
 11
439.9954602721659
 21
518.554117336035
 31
0.0
 11
439.9877049662301
 21
518.5024618499369
 31
0.0
 11
439.9851229582768
 21
518.4509386555053
 31
0.0
 11
439.9877049662301
 21
518.3992688378098
 31
0.0
 11
439.9954602721659
 21
518.3476717805311
 31
0.0
 11
439.8901112013586
 21
518.3545266937238
 31
0.0
 11
439.7942613659236
 21
518.3614477527499
 31
0.0
 11
439.7004831131079
 21
518.3682960513593
 31
0.0
 11
439.6015917875058
 21
518.3751443499687
 31
0.0
 11
439.49537701591
 21
518.3816222319115
 31
0.0
 11
439.3797298487214
 21
518.3872005305211
 31
0.0
 11
439.2472364406434
 21
518.3910777787842
 31
0.0
 11
439.0907783977599
 21
518.3923687249644
 31
0.0
 11
439.0868901252898
 21
518.284882848255
 31
0.0
 11
439.0821618007576
 21
518.1825629611278
 31
0.0
 11
439.0782845525925
 21
518.0758939854601
 31
0.0
 11
439.0769936064447
 21
517.9555328222957
 31
0.0
 11
439.0774037106012
 21
517.8230757910788
 31
0.0
 11
439.0787133980678
 21
517.6940451140279
 31
0.0
 11
439.0800312536226
 21
517.5822862164863
 31
0.0
 11
439.0804429112836
 21
517.501463725187
 31
0.0
 11
439.224069089505
 21
517.5023148015757
 31
0.0
 11
439.3522581889934
 21
517.504912127964
 31
0.0
 11
439.4674316180971
 21
517.5087673276157
 31
0.0
 11
439.5723994271395
 21
517.513528725184
 31
0.0
 11
439.6682584248597
 21
517.5186925099049
 31
0.0
 11
439.7563651333369
 21
517.5238562946258
 31
0.0
 11
439.8385119397672
 21
517.5294246713606
 31
0.0
 11
439.9163930294747
 21
517.5358331001785
 31
0.0
 11
439.9086418404361
 21
517.4833563033166
 31
0.0
 11
439.9060566408492
 21
517.4292060168718
 31
0.0
 11
439.9086418404361
 21
517.377616676607
 31
0.0
 11
439.9163930294747
 21
517.3260273363421
 31
0.0
 11
439.819605141319
 21
517.3354354787009
 31
0.0
 11
439.7082188681191
 21
517.3431635168934
 31
0.0
 11
439.5895499388549
 21
517.3487649665446
 31
0.0
 11
439.4709405408389
 21
517.3517801141134
 31
0.0
 11
439.3556263076697
 21
517.3534999057796
 31
0.0
 11
439.2473499909876
 21
517.3552196974458
 31
0.0
 11
439.1531077276884
 21
517.3565371019594
 31
0.0
 11
439.0804429112836
 21
517.3569483085564
 31
0.0
 11
439.0800312536226
 21
517.324703317245
 31
0.0
 11
439.0787133980678
 21
517.2899381696843
 31
0.0
 11
439.0774037106011
 21
517.2490192547641
 31
0.0
 11
439.0769936064447
 21
517.1987274752628
 31
0.0
 11
439.0769936064447
 21
517.1777744045215
 31
0.0
 11
439.0769936064447
 21
517.1316776488906
 31
0.0
 11
439.0769936064447
 21
517.0855808932597
 31
0.0
 11
439.0769936064447
 21
517.0646278225183
 31
0.0
 11
439.0769936064447
 21
517.043157484746
 31
0.0
 11
439.0769936064447
 21
516.991958986981
 31
0.0
 11
439.0769936064448
 21
516.930851102552
 31
0.0
 11
439.0769936064447
 21
516.879652604787
 31
0.0
 11
439.0769936064447
 21
516.8581822670146
 31
0.0
 11
439.0774037106012
 21
516.6793294458787
 31
0.0
 11
439.0787133980678
 21
516.5347732393177
 31
0.0
 11
439.0809106548885
 21
516.423014341776
 31
0.0
 11
439.0838824946161
 21
516.3421918504769
 31
0.0
 11
439.2008330476623
 21
516.3421918504769
 31
0.0
 11
439.3246965167922
 21
516.3421918504769
 31
0.0
 11
439.4541163485598
 21
516.3434827966571
 31
0.0
 11
439.581016024142
 21
516.3473600449202
 31
0.0
 11
439.703089602715
 21
516.3533793157519
 31
0.0
 11
439.8183825458639
 21
516.3611448365832
 31
0.0
 11
439.9227992532695
 21
516.3718538469973
 31
0.0
 11
440.0126837214624
 21
516.3868887949102
 31
0.0
 11
440.0070491990367
 21
516.3614965119303
 31
0.0
 11
440.0040671244599
 21
516.3335840727013
 31
0.0
 11
440.0027577840376
 21
516.3056341508333
 31
0.0
 11
440.0023473328371
 21
516.280270531048
 31
0.0
 11
440.004932532424
 21
516.2303557827966
 31
0.0
 11
440.0126837214624
 21
516.1907796282926
 31
0.0
 11
439.858321513752
 21
516.195966564055
 31
0.0
 11
439.7048595777941
 21
516.1976676144018
 31
0.0
 11
439.5504027455659
 21
516.1976676144018
 31
0.0
 11
439.3934264455944
 21
516.1976676144018
 31
0.0
 11
439.2360942880712
 21
516.1976676144018
 31
0.0
 11
439.0804429112836
 21
516.1976676144018
 31
0.0
 11
438.9247858833417
 21
516.195966564055
 31
0.0
 11
438.767448753231
 21
516.1907796282926
 31
0.0
 11
438.7773156182916
 21
516.4105249060153
 31
0.0
 11
438.7864026335794
 21
516.6294235170717
 31
0.0
 11
438.7927959477577
 21
516.8500198711832
 31
0.0
 11
438.7949301414185
 21
517.0748760169604
 31
0.0
 11
438.7949301414185
 21
517.100300477132
 31
0.0
 11
438.7949301414185
 21
517.1673285994026
 31
0.0
 11
438.7949301414185
 21
517.2620924964058
 31
0.0
 11
438.7949301414185
 21
517.3707242807753
 31
0.0
 11
438.7949301414184
 21
517.4793560651449
 31
0.0
 11
438.7949301414185
 21
517.5741199621482
 31
0.0
 11
438.7949301414185
 21
517.6411480844187
 31
0.0
 11
438.7949301414185
 21
517.6665725445903
 31
0.0
 11
438.7927959477577
 21
517.8918718674506
 31
0.0
 11
438.7864026335794
 21
518.1137448361451
 31
0.0
  0
SPLINE
  5
AD
102
{ACAD_REACTORS
330
CA
102
}
330
48
100
AcDbEntity
  8
_U_30EC_U_30A4_U_30E4_U_30FC_1
  6
Continuous
 62
     2
100
AcDbSpline
210
0.0
220
0.0
230
1.0
 70
    11
 71
     3
 72
    47
 73
    43
 74
    41
 42
0.000000001
 43
0.0000000001
 44
0.00000001
 40
0.0
 40
0.0
 40
0.0
 40
0.0
 40
0.2207912809956124
 40
0.4459404186302019
 40
0.490238719045877
 40
0.5327473892721273
 40
0.5742260451225174
 40
0.615543263056024
 40
0.6568164066315203
 40
0.6982511618780434
 40
0.7407663929316549
 40
0.7851366743174578
 40
1.010288833836407
 40
1.231080507001964
 40
1.451765243652255
 40
1.676638205891518
 40
1.720461045359539
 40
1.830018144043347
 40
1.972442372353012
 40
2.114866600677455
 40
2.224423699395029
 40
2.268246538883286
 40
2.493628801207096
 40
2.715602830286426
 40
2.934211330706304
 40
3.149502369855202
 40
3.231387784850837
 40
3.318231873853874
 40
3.405143198197806
 40
3.486970301720317
 40
3.702258172493747
 40
3.920866283533994
 40
4.142839325931732
 40
4.368221903865185
 40
4.412044743359808
 40
4.521601842095685
 40
4.664026070452189
 40
4.80645029880892
 40
4.916007397546502
 40
4.959830237042945
 40
5.184703515846929
 40
5.405387250767354
 40
5.405387250767354
 40
5.405387250767354
 40
5.405387250767354
 10
441.5313665217821
 20
518.108576641702
 30
0.0
 10
441.5374377379179
 20
518.1720970571754
 30
0.0
 10
441.5497000066417
 20
518.3003916190596
 30
0.0
 10
441.4410944838588
 20
518.5761744339039
 30
0.0
 10
441.556822385578
 20
518.5463935664837
 30
0.0
 10
441.5978080468192
 20
518.5421677947916
 30
0.0
 10
441.6397443756694
 20
518.5376166960593
 30
0.0
 10
441.6810434584887
 20
518.536532061458
 30
0.0
 10
441.722327007473
 20
518.5376156141156
 30
0.0
 10
441.7642386229823
 20
518.5421733592768
 30
0.0
 10
441.8052221508195
 20
518.5463865342605
 30
0.0
 10
441.9211160802664
 20
518.5762883453384
 30
0.0
 10
441.8101890686632
 20
518.2979102982622
 30
0.0
 10
441.8381094324443
 20
518.1173436404129
 30
0.0
 10
441.8210505306145
 20
517.884122655628
 30
0.0
 10
441.8220875241278
 20
517.7235784575947
 30
0.0
 10
441.822033735858
 20
517.5973604077506
 30
0.0
 10
441.8220515331656
 20
517.4988018655257
 30
0.0
 10
441.8220426540256
 20
517.3673192565929
 30
0.0
 10
441.8220501887208
 20
517.2358406818497
 30
0.0
 10
441.8220367364306
 20
517.1372744591042
 30
0.0
 10
441.8220769676666
 20
517.0109095884047
 30
0.0
 10
441.8212984362994
 20
516.8493329203919
 30
0.0
 10
441.8372196278442
 20
516.6181304510925
 30
0.0
 10
441.8139706844583
 20
516.4332557518832
 30
0.0
 10
441.9166421403542
 20
516.1638682598641
 30
0.0
 10
441.7626476322011
 20
516.2011133590213
 30
0.0
 10
441.6810367762009
 20
516.1958921789686
 30
0.0
 10
441.5994430251759
 20
516.2011184359467
 30
0.0
 10
441.4454751626017
 20
516.163882931017
 30
0.0
 10
441.5480421381093
 20
516.433263530792
 30
0.0
 10
441.5248283275264
 20
516.6181280854174
 30
0.0
 10
441.5406682614313
 20
516.8493344178197
 30
0.0
 10
441.5399534272606
 20
517.0109093552484
 30
0.0
 10
441.5399902529082
 20
517.1372745442685
 30
0.0
 10
441.5399786959448
 20
517.2358397985232
 30
0.0
 10
441.539981297839
 20
517.3673235063354
 30
0.0
 10
441.5399886490955
 20
517.4987877124753
 30
0.0
 10
441.5399680500528
 20
517.5973900949164
 30
0.0
 10
441.5400320151204
 20
517.7234737257078
 30
0.0
 10
441.5387971906768
 20
517.8866131460009
 30
0.0
 10
441.533827835592
 20
518.0350540699387
 30
0.0
 10
441.5313665217821
 20
518.108576641702
 30
0.0
 11
441.5313665217821
 21
518.108576641702
 31
0.0
 11
441.5223566159555
 21
518.329184020119
 31
0.0
 11
441.5125007665322
 21
518.554117336035
 31
0.0
 11
441.5563223799977
 21
518.5476361468005
 31
0.0
 11
441.5984638893391
 21
518.5420611554825
 31
0.0
 11
441.6397609368967
 21
518.5381839072196
 31
0.0
 11
441.6810579844541
 21
518.5368929610393
 31
0.0
 11
441.7223109347906
 21
518.5381839072196
 31
0.0
 11
441.7635638851273
 21
518.5420611554825
 31
0.0
 11
441.8057120090519
 21
518.5476361468005
 31
0.0
 11
441.8496063829321
 21
518.554117336035
 31
0.0
 11
441.8396815653067
 21
518.3291840201189
 31
0.0
 11
441.8306622167486
 21
518.108576641702
 31
0.0
 11
441.8241876422611
 21
517.8879869021738
 31
0.0
 11
441.8220456197462
 21
517.6631241418133
 31
0.0
 11
441.8220456197462
 21
517.6193013023181
 31
0.0
 11
441.8220456197462
 21
517.5097442035801
 31
0.0
 11
441.8220456197462
 21
517.3673199752207
 31
0.0
 11
441.8220456197462
 21
517.2248957468612
 31
0.0
 11
441.8220456197462
 21
517.1153386481232
 31
0.0
 11
441.8220456197462
 21
517.071515808628
 31
0.0
 11
441.8241876422611
 21
516.8461437253509
 31
0.0
 11
441.8306622167486
 21
516.6242641420731
 31
0.0
 11
441.8396815653068
 21
516.4058417810165
 31
0.0
 11
441.8496063829321
 21
516.1907796282926
 31
0.0
 11
441.7678854127946
 21
516.195966564055
 31
0.0
 11
441.6810579844541
 21
516.1976676144018
 31
0.0
 11
441.5941633078515
 21
516.195966564055
 31
0.0
 11
441.5125007665322
 21
516.1907796282926
 31
0.0
 11
441.5223566159555
 21
516.4058417810165
 31
0.0
 11
441.5313665217821
 21
516.6242641420731
 31
0.0
 11
441.5378071797974
 21
516.8461437253509
 31
0.0
 11
441.53998215472
 21
517.071515808628
 31
0.0
 11
441.53998215472
 21
517.1153386481233
 31
0.0
 11
441.5399821547201
 21
517.2248957468612
 31
0.0
 11
441.53998215472
 21
517.3673199752207
 31
0.0
 11
441.53998215472
 21
517.5097442035801
 31
0.0
 11
441.5399821547201
 21
517.619301302318
 31
0.0
 11
441.53998215472
 21
517.6631241418133
 31
0.0
 11
441.5378071797974
 21
517.8879869021738
 31
0.0
 11
441.5313665217821
 21
518.108576641702
 31
0.0
  0
SPLINE
  5
AE
102
{ACAD_REACTORS
330
CB
102
}
330
48
100
AcDbEntity
  8
_U_30EC_U_30A4_U_30E4_U_30FC_1
  6
Continuous
 62
     2
100
AcDbSpline
210
0.0
220
0.0
230
1.0
 70
    11
 71
     3
 72
   118
 73
   114
 74
   112
 42
0.000000001
 43
0.0000000001
 44
0.00000001
 40
0.0
 40
0.0
 40
0.0
 40
0.0
 40
0.1054708162973193
 40
0.2466098270052765
 40
0.396591287459079
 40
0.528552506975364
 40
0.6156245055642904
 40
0.6431434105797939
 40
0.703685003798626
 40
0.7642265984503179
 40
0.7917455052354364
 40
0.928740431998829
 40
1.106572819087843
 40
1.287544879680982
 40
1.31757830803048
 40
1.399928030857214
 40
1.522968204799955
 40
1.675072986590468
 40
1.844616533180616
 40
2.019973001638565
 40
2.189516548880025
 40
2.341621331585376
 40
2.464661506320514
 40
2.547011229647129
 40
2.577044658167952
 40
2.603797890893023
 40
2.66265500290871
 40
2.721512114949579
 40
2.748265347702673
 40
2.774215307344722
 40
2.845959313407039
 40
2.954338556588201
 40
3.090194227585303
 40
3.244367517100332
 40
3.407699615844141
 40
3.571031714539291
 40
3.725205003919942
 40
3.861060674729348
 40
3.969439917715991
 40
4.041183923628697
 40
4.067133883212652
 40
4.311886746011794
 40
4.547897258335137
 40
4.764747083043603
 40
4.952749679951373
 40
5.045772974195431
 40
5.137862019644634
 40
5.330543169792593
 40
5.553448265243477
 40
5.795083855887678
 40
6.043293412176818
 40
6.285761695540755
 40
6.313902908752295
 40
6.384255941792828
 40
6.47571488476636
 40
6.567173827758479
 40
6.637526860839143
 40
6.665668074073535
 40
6.692018920327412
 40
6.749990782070524
 40
6.807962643789876
 40
6.834313490017378
 40
6.856393084244742
 40
6.913335195649251
 40
6.991194817301944
 40
7.076026942283177
 40
7.153886563724695
 40
7.210828674844192
 40
7.232908268930585
 40
7.258199334923104
 40
7.324875781591897
 40
7.419142481924593
 40
7.527204308841403
 40
7.635266135230024
 40
7.72953283416801
 40
7.796209279292254
 40
7.821500344594353
 40
7.844652988850516
 40
7.899863140541228
 40
7.965759128053485
 40
8.020969279770746
 40
8.044121924046213
 40
8.069356610160327
 40
8.109134395441007
 40
8.132238100190822
 40
8.193147867786085
 40
8.27926167887637
 40
8.37797751267357
 40
8.476693347146298
 40
8.562807160411413
 40
8.623716930826223
 40
8.646820636853082
 40
8.671988793773895
 40
8.734909185827863
 40
8.816705695188606
 40
8.898502204815149
 40
8.961422597377581
 40
8.986590754550779
 40
9.012941600732919
 40
9.070913462379966
 40
9.128885324081583
 40
9.155236170324887
 40
9.180404327928958
 40
9.243324721948003
 40
9.325121234211796
 40
9.406917746637536
 40
9.469838141977963
 40
9.495006288270766
 40
9.517811184378907
 40
9.572192090486915
 40
9.637098333281251
 40
9.691479239515338
 40
9.714284125643367
 40
9.714284125643367
 40
9.714284125643367
 40
9.714284125643367
 10
444.1680706987829
 20
517.6434038640405
 30
0.0
 10
444.1897228528213
 20
517.6156309245913
 30
0.0
 10
444.2403495068651
 20
517.5506927777758
 30
0.0
 10
444.3155621161766
 20
517.443422835292
 30
0.0
 10
444.4054720233523
 20
517.3282866148297
 30
0.0
 10
444.4515407635848
 20
517.2280826896464
 30
0.0
 10
444.5462063253832
 20
517.1588523003127
 30
0.0
 10
444.5010677279587
 20
517.1122286289459
 30
0.0
 10
444.4753285744965
 20
517.0711153208237
 30
0.0
 10
444.4451434667189
 20
517.0351719494429
 30
0.0
 10
444.3999922689737
 20
516.9603100581242
 30
0.0
 10
444.3516742417739
 20
517.1823374746992
 30
0.0
 10
444.277477767225
 20
517.2196190055405
 30
0.0
 10
444.1642285283782
 20
517.4906142534693
 30
0.0
 10
444.1691371537346
 20
517.3754655166257
 30
0.0
 10
444.1674724515482
 20
517.3028789899797
 30
0.0
 10
444.1683068035889
 20
517.1807681170031
 30
0.0
 10
444.167984749944
 20
517.0336502402679
 30
0.0
 10
444.1681314871632
 20
516.8675828717289
 30
0.0
 10
444.16791880519
 20
516.6963877782493
 30
0.0
 10
444.1685735211209
 20
516.5300405185184
 30
0.0
 10
444.1665430420314
 20
516.38386396272
 30
0.0
 10
444.1719698359105
 20
516.2592227069094
 30
0.0
 10
444.1611168827885
 20
516.1916987975696
 30
0.0
 10
444.176297711473
 20
516.1300028463336
 30
0.0
 10
444.1264133067309
 20
516.1417872711334
 30
0.0
 10
444.0823388301696
 20
516.133950459963
 30
0.0
 10
444.0388609589376
 20
516.1421166458903
 30
0.0
 10
443.9898584745665
 20
516.1298927995481
 30
0.0
 10
444.0024969193998
 20
516.1841189046564
 30
0.0
 10
443.9936420927627
 20
516.243881421239
 30
0.0
 10
443.9981296729488
 20
516.3537325226068
 30
0.0
 10
443.9964198095165
 20
516.4848119862199
 30
0.0
 10
443.9969788875163
 20
516.6364923466066
 30
0.0
 10
443.9968166727868
 20
516.7966229814627
 30
0.0
 10
443.9968507883849
 20
516.9568808889089
 30
0.0
 10
443.9968752919303
 20
517.1082147073677
 30
0.0
 10
443.9967691502402
 20
517.2403337955491
 30
0.0
 10
443.9970537101106
 20
517.3474602574952
 30
0.0
 10
443.9964913506744
 20
517.4125984279578
 30
0.0
 10
443.9987003042864
 20
517.5407018107499
 30
0.0
 10
443.9125673957781
 20
517.165488336079
 30
0.0
 10
443.8361378777676
 20
517.013694163397
 30
0.0
 10
443.746627872701
 20
516.8521742966263
 30
0.0
 10
443.6446651176503
 20
516.579230720365
 30
0.0
 10
443.5994214450214
 20
516.7416856981281
 30
0.0
 10
443.4908593900848
 20
516.8305665527447
 30
0.0
 10
443.6802029710927
 20
516.9800101817773
 30
0.0
 10
443.7371578504877
 20
517.1720036019124
 30
0.0
 10
443.8523758952527
 20
517.4035084612308
 30
0.0
 10
443.8746389589309
 20
517.5924848297536
 30
0.0
 10
444.0578143111317
 20
517.8690531254229
 30
0.0
 10
443.9344271556727
 20
517.8615020204841
 30
0.0
 10
443.8731922126009
 20
517.8630799558243
 30
0.0
 10
443.788823757624
 20
517.8633381579001
 30
0.0
 10
443.7010473045142
 20
517.8599606896752
 30
0.0
 10
443.6463006655298
 20
517.8684603819834
 30
0.0
 10
443.5910940985202
 20
517.8549978426612
 30
0.0
 10
443.6029060994711
 20
517.9038266534308
 30
0.0
 10
443.594873411097
 20
517.9472022811303
 30
0.0
 10
443.6034424063852
 20
517.9896066152589
 30
0.0
 10
443.5909181368333
 20
518.0371901976844
 30
0.0
 10
443.6361339497911
 20
518.0271843621144
 30
0.0
 10
443.6821053521899
 20
518.0334532839036
 30
0.0
 10
443.7583460006886
 20
518.030447846222
 30
0.0
 10
443.836753409117
 20
518.0322167149487
 30
0.0
 10
443.9130230608109
 20
518.0291601719797
 30
0.0
 10
443.9589247418649
 20
518.0355519459251
 30
0.0
 10
444.0037971924577
 20
518.0254504619521
 30
0.0
 10
443.991179023481
 20
518.0760842479823
 30
0.0
 10
443.999817454188
 20
518.1295248509838
 30
0.0
 10
443.995859955462
 20
518.2231447834803
 30
0.0
 10
443.996856302751
 20
518.3256382990526
 30
0.0
 10
443.9978165372248
 20
518.4280449346448
 30
0.0
 10
443.9939449417182
 20
518.5218715282565
 30
0.0
 10
444.002402777354
 20
518.5748776605667
 30
0.0
 10
443.989931389201
 20
518.6266265886753
 30
0.0
 10
444.0348344349025
 20
518.6130197044306
 30
0.0
 10
444.0761321795949
 20
518.6155170353694
 30
0.0
 10
444.1401582240226
 20
518.6109928379083
 30
0.0
 10
444.1792349107963
 20
518.6023222625963
 30
0.0
 10
444.2282781457919
 20
518.6096632528702
 30
0.0
 10
444.2031317989765
 20
518.5705411926808
 30
0.0
 10
444.16221392929
 20
518.5801506567216
 30
0.0
 10
444.1716347575779
 20
518.5299137138609
 30
0.0
 10
444.1661885277922
 20
518.4783716885584
 30
0.0
 10
444.1687937560981
 20
518.3941093080085
 30
0.0
 10
444.1676340161331
 20
518.3001035879973
 30
0.0
 10
444.1689829023406
 20
518.2064808861185
 30
0.0
 10
444.1656208060686
 20
518.1213074076855
 30
0.0
 10
444.1727197876942
 20
518.0716807928834
 30
0.0
 10
444.1618807113723
 20
518.0244491818634
 30
0.0
 10
444.211024818442
 20
518.0365289815313
 30
0.0
 10
444.2601115589324
 20
518.0289861657934
 30
0.0
 10
444.3379952239818
 20
518.0313729357774
 30
0.0
 10
444.4156603132071
 20
518.0335060512174
 30
0.0
 10
444.4651631890534
 20
518.0264461513877
 30
0.0
 10
444.5150832709814
 20
518.0381137515252
 30
0.0
 10
444.502943647606
 20
517.9899145858774
 30
0.0
 10
444.5112076188321
 20
517.9470044301755
 30
0.0
 10
444.5029436609959
 20
517.9040942506771
 30
0.0
 10
444.5150832509031
 20
517.8558951197117
 30
0.0
 10
444.4651633117923
 20
517.8675625768784
 30
0.0
 10
444.415658861038
 20
517.8605042565135
 30
0.0
 10
444.3380022342147
 20
517.8626288844492
 30
0.0
 10
444.2600881824937
 20
517.8650461258208
 30
0.0
 10
444.211073831189
 20
517.857430714108
 30
0.0
 10
444.1619484068119
 20
517.8695917577393
 30
0.0
 10
444.1721797947747
 20
517.825242366405
 30
0.0
 10
444.1662915637231
 20
517.7837665941925
 30
0.0
 10
444.1685026264745
 20
517.7236661753163
 30
0.0
 10
444.1680347305322
 20
517.676770059792
 30
0.0
 10
444.168062495209
 20
517.6510136963453
 30
0.0
 10
444.1680706987829
 20
517.6434038640405
 30
0.0
 11
444.1680706987829
 21
517.6434038640405
 31
0.0
 11
444.2323215493661
 21
517.5597622285059
 31
0.0
 11
444.3154496794675
 21
517.4457011296454
 31
0.0
 11
444.4023069528072
 21
517.3234299041205
 31
0.0
 11
444.4777452331048
 21
517.215157888592
 31
0.0
 11
444.5266163840802
 21
517.1430944197211
 31
0.0
 11
444.5103059244269
 21
517.1209300534073
 31
0.0
 11
444.4744229131895
 21
517.0721684475167
 31
0.0
 11
444.4385399019523
 21
517.0234068416262
 31
0.0
 11
444.4222294422989
 21
517.0012424753122
 31
0.0
 11
444.3569305068622
 21
517.1216736224014
 31
0.0
 11
444.2654672202411
 21
517.2741820688653
 31
0.0
 11
444.1680706987829
 21
517.4267101140947
 31
0.0
 11
444.1680706987829
 21
517.3966766854459
 31
0.0
 11
444.1680706987829
 21
517.3143269617311
 31
0.0
 11
444.1680706987828
 21
517.1912867862985
 31
0.0
 11
444.1680706987829
 21
517.0391820024962
 31
0.0
 11
444.168070698783
 21
516.8696384536718
 31
0.0
 11
444.168070698783
 21
516.6942819831735
 31
0.0
 11
444.1680706987829
 21
516.524738434349
 31
0.0
 11
444.1680706987829
 21
516.3726336505465
 31
0.0
 11
444.1680706987829
 21
516.249593475114
 31
0.0
 11
444.1680706987829
 21
516.1672437513993
 31
0.0
 11
444.1680706987829
 21
516.1372103227504
 31
0.0
 11
444.1413174659584
 21
516.1372103227504
 31
0.0
 11
444.0824603537448
 21
516.1372103227504
 31
0.0
 11
444.023603241531
 21
516.1372103227504
 31
0.0
 11
443.9968500087066
 21
516.1372103227504
 31
0.0
 11
443.9968500087066
 21
516.1631602824758
 31
0.0
 11
443.9968500087066
 21
516.2349042887754
 31
0.0
 11
443.9968500087065
 21
516.3432835323342
 31
0.0
 11
443.9968500087065
 21
516.4791392038377
 31
0.0
 11
443.9968500087066
 21
516.6333124939708
 31
0.0
 11
443.9968500087066
 21
516.7966445934188
 31
0.0
 11
443.9968500087066
 21
516.9599766928668
 31
0.0
 11
443.9968500087066
 21
517.114149983
 31
0.0
 11
443.9968500087066
 21
517.2500056545033
 31
0.0
 11
443.9968500087066
 21
517.3583848980622
 31
0.0
 11
443.9968500087066
 21
517.4301289043618
 31
0.0
 11
443.9968500087066
 21
517.4560788640872
 31
0.0
 11
443.9186103820898
 21
517.2241682651869
 31
0.0
 11
443.830334874848
 21
517.00528839545
 31
0.0
 11
443.7350344889221
 21
516.8105021454986
 31
0.0
 11
443.6357202262532
 21
516.6508724059552
 31
0.0
 11
443.5915436301582
 21
516.7327366941291
 31
0.0
 11
443.5394295342657
 21
516.8086610864714
 31
0.0
 11
443.6433540549476
 21
516.9709131114308
 31
0.0
 11
443.7435557823911
 21
517.1700268863809
 31
0.0
 11
443.8356684567078
 21
517.3934167113251
 31
0.0
 11
443.9153258180088
 21
517.6284968862664
 31
0.0
 11
443.9781616064056
 21
517.8626817112079
 31
0.0
 11
443.9500203931318
 21
517.8626817112079
 31
0.0
 11
443.8796673599472
 21
517.8626817112079
 31
0.0
 11
443.7882084168074
 21
517.8626817112079
 31
0.0
 11
443.6967494736675
 21
517.8626817112079
 31
0.0
 11
443.6263964404831
 21
517.8626817112079
 31
0.0
 11
443.5982552272092
 21
517.8626817112079
 31
0.0
 11
443.5982552272092
 21
517.8890325575554
 31
0.0
 11
443.5982552272092
 21
517.9470044195201
 31
0.0
 11
443.5982552272092
 21
518.0049762814848
 31
0.0
 11
443.5982552272092
 21
518.0313271278324
 31
0.0
 11
443.6203348215196
 21
518.0313271278324
 31
0.0
 11
443.677276933162
 21
518.0313271278324
 31
0.0
 11
443.7551365552038
 21
518.0313271278324
 31
0.0
 11
443.839968680712
 21
518.0313271278324
 31
0.0
 11
443.9178283027537
 21
518.0313271278324
 31
0.0
 11
443.9747704143962
 21
518.0313271278324
 31
0.0
 11
443.9968500087066
 21
518.0313271278324
 31
0.0
 11
443.9968500087066
 21
518.0566181939067
 31
0.0
 11
443.9968500087065
 21
518.1232946408303
 31
0.0
 11
443.9968500087066
 21
518.2175613416531
 31
0.0
 11
443.9968500087066
 21
518.3256231694255
 31
0.0
 11
443.9968500087066
 21
518.433684997198
 31
0.0
 11
443.9968500087066
 21
518.5279516980208
 31
0.0
 11
443.9968500087066
 21
518.5946281449442
 31
0.0
 11
443.9968500087066
 21
518.6199192110187
 31
0.0
 11
444.0199419947842
 21
518.6182443632413
 31
0.0
 11
444.075007500046
 21
518.6142504954646
 31
0.0
 11
444.140730845036
 21
518.6094836210212
 31
0.0
 11
444.1957963502979
 21
518.6054897532445
 31
0.0
 11
444.2188883363754
 21
518.6038149054671
 31
0.0
 11
444.2055250603537
 21
518.5824090113751
 31
0.0
 11
444.1680706987829
 21
518.569013377698
 31
0.0
 11
444.168070698783
 21
518.545909671649
 31
0.0
 11
444.1680706987829
 21
518.4849999011565
 31
0.0
 11
444.168070698783
 21
518.3988860877014
 31
0.0
 11
444.1680706987829
 21
518.3001702527652
 31
0.0
 11
444.1680706987829
 21
518.2014544178289
 31
0.0
 11
444.1680706987829
 21
518.1153406043738
 31
0.0
 11
444.1680706987829
 21
518.0544308338813
 31
0.0
 11
444.1680706987829
 21
518.0313271278324
 31
0.0
 11
444.1932388563985
 21
518.0313271278322
 31
0.0
 11
444.2561592504375
 21
518.0313271278324
 31
0.0
 11
444.3379557626882
 21
518.0313271278324
 31
0.0
 11
444.4197522749389
 21
518.0313271278324
 31
0.0
 11
444.4826726689778
 21
518.0313271278322
 31
0.0
 11
444.5078408265935
 21
518.0313271278324
 31
0.0
 11
444.5078408265936
 21
518.0049762814848
 31
0.0
 11
444.5078408265935
 21
517.9470044195201
 31
0.0
 11
444.5078408265935
 21
517.8890325575554
 31
0.0
 11
444.5078408265935
 21
517.8626817112079
 31
0.0
 11
444.4826726689778
 21
517.8626817112079
 31
0.0
 11
444.4197522749389
 21
517.8626817112079
 31
0.0
 11
444.3379557626882
 21
517.8626817112079
 31
0.0
 11
444.2561592504375
 21
517.8626817112079
 31
0.0
 11
444.1932388563985
 21
517.8626817112079
 31
0.0
 11
444.1680706987829
 21
517.8626817112079
 31
0.0
 11
444.1680706987829
 21
517.8398768151025
 31
0.0
 11
444.1680706987829
 21
517.7854959090049
 31
0.0
 11
444.1680706987829
 21
517.7205896662433
 31
0.0
 11
444.1680706987829
 21
517.6662087601459
 31
0.0
 11
444.1680706987829
 21
517.6434038640405
 31
0.0
  0
SPLINE
  5
AF
102
{ACAD_REACTORS
330
CC
102
}
330
48
100
AcDbEntity
  8
_U_30EC_U_30A4_U_30E4_U_30FC_1
  6
Continuous
 62
     2
100
AcDbSpline
210
0.0
220
0.0
230
1.0
 70
    11
 71
     3
 72
    91
 73
    87
 74
    85
 42
0.000000001
 43
0.0000000001
 44
0.00000001
 40
0.0
 40
0.0
 40
0.0
 40
0.0
 40
0.0345987051695718
 40
0.1258134969461369
 40
0.2547723404888418
 40
0.4026032099153556
 40
0.5504340793415852
 40
0.6793929228835511
 40
0.7706077146571035
 40
0.8052064287779788
 40
1.124852390615095
 40
1.427402236308643
 40
1.706356627453325
 40
1.955541417875033
 40
2.169485938566151
 40
2.344350786664638
 40
2.480568411561814
 40
2.590440557428815
 40
2.649189927150951
 40
2.749320643306183
 40
2.912632739879966
 40
3.147745656000005
 40
3.24482749638479
 40
3.338490056946359
 40
3.583815413206771
 40
3.761423943238005
 40
3.886956104362137
 40
3.98585545188639
 40
4.091766255337254
 40
4.250186473811443
 40
4.4227343150841
 40
4.62828568483813
 40
4.87209322775799
 40
5.152549652145111
 40
5.464967135836975
 40
5.803201477851837
 40
6.160362988813471
 40
6.193449448275498
 40
6.284170385501181
 40
6.419718138764051
 40
6.587285046385329
 40
6.774063446723243
 40
6.967245678113169
 40
7.154024078817212
 40
7.321590987025569
 40
7.457138740889956
 40
7.547859678555664
 40
7.580946138182195
 40
7.608533084714292
 40
7.669224367077287
 40
7.729915649429483
 40
7.757502595949642
 40
7.790278062553011
 40
7.880146277430594
 40
8.01441996318
 40
8.180411842397529
 40
8.36543463767897
 40
8.556801071622328
 40
8.741823866830384
 40
8.907815745915922
 40
9.042089431507076
 40
9.131957646249258
 40
9.164733112796807
 40
9.41542506313966
 40
9.667986180958039
 40
9.694169807462139
 40
9.75660768604716
 40
9.831130315322046
 40
9.893568193899513
 40
9.919751820398274
 40
9.950967964690031
 40
9.996421631210195
 40
10.22087981037425
 40
10.443418661975
 40
10.47847970788809
 40
10.57091337438716
 40
10.70159545461196
 40
10.85140174170324
 40
11.00120802880441
 40
11.13189010907349
 40
11.22432377582977
 40
11.2593848093892
 40
11.28697175596109
 40
11.34766303835887
 40
11.40835432042037
 40
11.43594125892072
 40
11.43594125892072
 40
11.43594125892072
 40
11.43594125892072
 10
448.9624352292465
 20
517.926940183414
 30
0.0
 10
448.9509023804117
 20
517.9269401350423
 30
0.0
 10
448.9089647404173
 20
517.9269399692047
 30
0.0
 10
448.8240367678202
 20
517.9269434901723
 30
0.0
 10
448.7013926512304
 20
517.926921496522
 30
0.0
 10
448.559744487617
 20
517.9270202439337
 30
0.0
 10
448.4185991657666
 20
517.9266590944874
 30
0.0
 10
448.294758927708
 20
517.9277310682542
 30
0.0
 10
448.2123455784558
 20
517.925434723076
 30
0.0
 10
448.0534029188871
 20
517.9349979258972
 30
0.0
 10
448.2309640312551
 20
517.5723661752769
 30
0.0
 10
448.218597716463
 20
517.3269435093944
 30
0.0
 10
448.2870757433039
 20
517.0431372454116
 30
0.0
 10
448.3499262280144
 20
516.8070222315534
 30
0.0
 10
448.4258491390906
 20
516.6077796361246
 30
0.0
 10
448.510942753619
 20
516.4519657066769
 30
0.0
 10
448.6050845552112
 20
516.3510908099772
 30
0.0
 10
448.7088886166904
 20
516.2991707585529
 30
0.0
 10
448.7932109989951
 20
516.3505770759593
 30
0.0
 10
448.8157560138627
 20
516.4659576725384
 30
0.0
 10
448.8551968934548
 20
516.593363729187
 30
0.0
 10
448.8009157694119
 20
516.9107355130308
 30
0.0
 10
448.9257456031648
 20
516.7643340335721
 30
0.0
 10
449.0825529472778
 20
516.7324652354748
 30
0.0
 10
448.9753957966233
 20
516.4987258098394
 30
0.0
 10
448.9614949169041
 20
516.3342399979999
 30
0.0
 10
448.9040947426403
 20
516.205820923388
 30
0.0
 10
448.8141258104185
 20
516.1347002556914
 30
0.0
 10
448.6901512617053
 20
516.1188354735859
 30
0.0
 10
448.5440511156037
 20
516.154450207705
 30
0.0
 10
448.4050132279459
 20
516.2745179371658
 30
0.0
 10
448.2908241921322
 20
516.4488690576667
 30
0.0
 10
448.1952379260662
 20
516.6739782632757
 30
0.0
 10
448.1124890531804
 20
516.9383946922278
 30
0.0
 10
448.0613417215587
 20
517.2563915631486
 30
0.0
 10
447.9576427166513
 20
517.5299495170518
 30
0.0
 10
448.0849079167696
 20
517.9345704182929
 30
0.0
 10
447.9164128582195
 20
517.9256359106596
 30
0.0
 10
447.8318233746252
 20
517.927671846347
 30
0.0
 10
447.6996114346804
 20
517.9266516060471
 30
0.0
 10
447.5366743053279
 20
517.9270445353476
 30
0.0
 10
447.3539997129709
 20
517.9268691952968
 30
0.0
 10
447.1653295332558
 20
517.9271132852379
 30
0.0
 10
446.9820706979364
 20
517.9263688112254
 30
0.0
 10
446.8210984791894
 20
517.9286758373873
 30
0.0
 10
446.6836046294451
 20
517.9225102809999
 30
0.0
 10
446.6095828331486
 20
517.9348406167453
 30
0.0
 10
446.5419453146033
 20
517.9178054693988
 30
0.0
 10
446.5538611678446
 20
517.9697566166386
 30
0.0
 10
446.5461915244869
 20
518.0152264818284
 30
0.0
 10
446.5538830184292
 20
518.0606567692002
 30
0.0
 10
446.5419379756937
 20
518.112536192009
 30
0.0
 10
446.6089826265043
 20
518.0957036670659
 30
0.0
 10
446.6823613624852
 20
518.1078663230899
 30
0.0
 10
446.8185366264448
 20
518.1017845429129
 30
0.0
 10
446.9780049760689
 20
518.1040605753138
 30
0.0
 10
447.159541104501
 20
518.1033245721526
 30
0.0
 10
447.3464272821356
 20
518.1035717741248
 30
0.0
 10
447.5274250276011
 20
518.1033762401557
 30
0.0
 10
447.6887040538054
 20
518.1038345793118
 30
0.0
 10
447.8200120084064
 20
518.1026389696755
 30
0.0
 10
447.9031289281771
 20
518.1050257053605
 30
0.0
 10
448.0362474506992
 20
518.0968182894184
 30
0.0
 10
447.9452131461833
 20
518.3520409216901
 30
0.0
 10
447.8595871033594
 20
518.6161558154445
 30
0.0
 10
447.9796826962631
 20
518.6035566618552
 30
0.0
 10
448.032050290772
 20
518.6014545897939
 30
0.0
 10
448.1020735528891
 20
518.5998662310599
 30
0.0
 10
448.1478160296994
 20
518.5905379075443
 30
0.0
 10
448.2027050606108
 20
518.5999719013174
 30
0.0
 10
448.1769812744857
 20
518.5518425187149
 30
0.0
 10
448.0631635530628
 20
518.5571805296051
 30
0.0
 10
448.1965584580311
 20
518.329003977931
 30
0.0
 10
448.0749896694648
 20
518.0960807981226
 30
0.0
 10
448.2029426728587
 20
518.1053848210075
 30
0.0
 10
448.2855286365636
 20
518.1025222497101
 30
0.0
 10
448.411345281
 20
518.1037466062862
 30
0.0
 10
448.5547707797234
 20
518.1038365510531
 30
0.0
 10
448.6963658910904
 20
518.1019738640019
 30
0.0
 10
448.8265365209144
 20
518.1078429915348
 30
0.0
 10
448.8999690245366
 20
518.0952156403955
 30
0.0
 10
448.9697350881273
 20
518.1132878632673
 30
0.0
 10
448.958201056457
 20
518.0606407376264
 30
0.0
 10
448.963942230586
 20
518.0167254090288
 30
0.0
 10
448.9622853730085
 20
517.9654120589286
 30
0.0
 10
448.9623995520846
 20
517.9361001523797
 30
0.0
 10
448.9624352292465
 20
517.926940183414
 30
0.0
 11
448.9624352292465
 21
517.926940183414
 31
0.0
 11
448.9278365151227
 21
517.9269401834139
 31
0.0
 11
448.8366217233418
 21
517.926940183414
 31
0.0
 11
448.7076628797893
 21
517.926940183414
 31
0.0
 11
448.5598320103512
 21
517.926940183414
 31
0.0
 11
448.4120011409131
 21
517.926940183414
 31
0.0
 11
448.2830422973607
 21
517.926940183414
 31
0.0
 11
448.1918275055797
 21
517.926940183414
 31
0.0
 11
448.1572287914559
 21
517.926940183414
 31
0.0
 11
448.188937845687
 21
517.6088708814644
 31
0.0
 11
448.2334104616042
 21
517.309607460044
 31
0.0
 11
448.2898627077495
 21
517.036424927289
 31
0.0
 11
448.3575106526654
 21
516.7965982913355
 31
0.0
 11
448.4355703648937
 21
516.5974025603198
 31
0.0
 11
448.5232579129767
 21
516.446112742378
 31
0.0
 11
448.6197893654565
 21
516.3500038456464
 31
0.0
 11
448.7243807908751
 21
516.3163508782611
 31
0.0
 11
448.7749315261962
 21
516.3462860019515
 31
0.0
 11
448.8116826950728
 21
516.4394284303137
 31
0.0
 11
448.8368878936703
 21
516.6007837492838
 31
0.0
 11
448.8528007181544
 21
516.835357544798
 31
0.0
 11
448.9300320641759
 21
516.7765340552294
 31
0.0
 11
449.013342214356
 21
516.73373108649
 31
0.0
 11
448.9872603770393
 21
516.4897961187733
 31
0.0
 11
448.9479555764281
 21
516.3165912610389
 31
0.0
 11
448.8911940555942
 21
516.2046249566224
 31
0.0
 11
448.8127420576086
 21
516.1444056488597
 31
0.0
 11
448.7083658255432
 21
516.1264417810864
 31
0.0
 11
448.5544833024273
 21
516.1640866322869
 31
0.0
 11
448.4195140335923
 21
516.2715857209373
 31
0.0
 11
448.3027977875339
 21
516.4407858496113
 31
0.0
 11
448.2036743327476
 21
516.6635338208827
 31
0.0
 11
448.121483437729
 21
516.931676437325
 31
0.0
 11
448.0555648709736
 21
517.2370605015118
 31
0.0
 11
448.0052584009769
 21
517.5715328160169
 31
0.0
 11
447.9699037962347
 21
517.926940183414
 31
0.0
 11
447.936817336502
 21
517.9269401834139
 31
0.0
 11
447.846096398525
 21
517.926940183414
 31
0.0
 11
447.7105486441361
 21
517.926940183414
 31
0.0
 11
447.542981735167
 21
517.926940183414
 31
0.0
 11
447.3562033334499
 21
517.926940183414
 31
0.0
 11
447.1630211008168
 21
517.926940183414
 31
0.0
 11
446.9762426990998
 21
517.926940183414
 31
0.0
 11
446.8086757901307
 21
517.926940183414
 31
0.0
 11
446.6731280357417
 21
517.926940183414
 31
0.0
 11
446.5824070977649
 21
517.926940183414
 31
0.0
 11
446.5493206380321
 21
517.926940183414
 31
0.0
 11
446.5493206380321
 21
517.9545271300217
 31
0.0
 11
446.5493206380321
 21
518.0152184125586
 31
0.0
 11
446.5493206380321
 21
518.0759096950956
 31
0.0
 11
446.5493206380321
 21
518.1034966417033
 31
0.0
 11
446.5820961046807
 21
518.1034966417033
 31
0.0
 11
446.6719643196849
 21
518.1034966417033
 31
0.0
 11
446.8062380056324
 21
518.1034966417033
 31
0.0
 11
446.9722298851108
 21
518.1034966417033
 31
0.0
 11
447.1572526807077
 21
518.1034966417033
 31
0.0
 11
447.3486191150108
 21
518.1034966417033
 31
0.0
 11
447.5336419106077
 21
518.1034966417033
 31
0.0
 11
447.6996337900861
 21
518.1034966417033
 31
0.0
 11
447.8339074760336
 21
518.1034966417033
 31
0.0
 11
447.9237756910379
 21
518.1034966417033
 31
0.0
 11
447.9565511576864
 21
518.1034966417033
 31
0.0
 11
447.9465421909279
 21
518.3539887076129
 31
0.0
 11
447.9405350469839
 21
518.6064783776885
 31
0.0
 11
447.9666813829835
 21
518.6050814482445
 31
0.0
 11
448.0290303380595
 21
518.6017503088009
 31
0.0
 11
448.1034468328276
 21
518.5977744326908
 31
0.0
 11
448.1657957879036
 21
518.5944432932472
 31
0.0
 11
448.1919421239031
 21
518.5930463638031
 31
0.0
 11
448.1789169072217
 21
518.5646775183241
 31
0.0
 11
448.1357887225581
 21
518.5503249749249
 31
0.0
 11
448.1381229920997
 21
518.3258789333142
 31
0.0
 11
448.1464690695078
 21
518.1034966417033
 31
0.0
 11
448.181530115434
 21
518.1034966417031
 31
0.0
 11
448.273963781967
 21
518.1034966417033
 31
0.0
 11
448.4046458622377
 21
518.1034966417033
 31
0.0
 11
448.5544521493772
 21
518.1034966417033
 31
0.0
 11
448.7042584365167
 21
518.1034966417033
 31
0.0
 11
448.8349405167874
 21
518.1034966417033
 31
0.0
 11
448.9273741833202
 21
518.1034966417033
 31
0.0
 11
448.9624352292465
 21
518.1034966417033
 31
0.0
 11
448.9624352292465
 21
518.0759096950956
 31
0.0
 11
448.9624352292466
 21
518.0152184125586
 31
0.0
 11
448.9624352292465
 21
517.9545271300217
 31
0.0
 11
448.9624352292465
 21
517.926940183414
 31
0.0
  0
SPLINE
  5
B0
102
{ACAD_REACTORS
330
CD
102
}
330
48
100
AcDbEntity
  8
_U_30EC_U_30A4_U_30E4_U_30FC_1
  6
Continuous
 62
     2
100
AcDbSpline
210
0.0
220
0.0
230
1.0
 70
    11
 71
     3
 72
    75
 73
    71
 74
    69
 42
0.000000001
 43
0.0000000001
 44
0.00000001
 40
0.0
 40
0.0
 40
0.0
 40
0.0
 40
0.034254609912978
 40
0.1245622414431867
 40
0.2522385480897358
 40
0.3985991922941142
 40
0.5449598364980377
 40
0.672636143143791
 40
0.7629437746736587
 40
0.7971983935298115
 40
1.101723623449687
 40
1.408591244036603
 40
1.433332471690272
 40
1.48776317245009
 40
1.542193873081843
 40
1.566935100592326
 40
1.923523931821607
 40
2.27175570495336
 40
2.590579755100616
 40
2.85894330558084
 40
2.889120339309011
 40
2.918305855190952
 40
2.94136664553111
 40
2.996357760972947
 40
3.061992318140457
 40
3.116983433626673
 40
3.140044223997406
 40
3.411273122936351
 40
3.732441619740949
 40
3.761068217532635
 40
3.837787499630177
 40
3.948858699125946
 40
4.080541049104237
 40
4.219093782625702
 40
4.350776132722228
 40
4.461847332405465
 40
4.538566614678313
 40
4.567193212544463
 40
4.594907573998693
 40
4.666381453557289
 40
4.764111044010871
 40
4.870592538125617
 40
4.968322128642182
 40
5.039796008286896
 40
5.067510369784269
 40
5.094263603185492
 40
5.153120716668251
 40
5.211977830150669
 40
5.238731063551665
 40
5.272290535138847
 40
5.363380529444736
 40
5.497618415781471
 40
5.660621563453628
 40
5.838007341749357
 40
6.015393119910708
 40
6.178396267038305
 40
6.312634151842257
 40
6.403724143059275
 40
6.437283612672399
 40
6.464036846260978
 40
6.522893960004648
 40
6.581751071483904
 40
6.608504301590823
 40
6.637253941280914
 40
6.711397748902879
 40
6.812778057283435
 40
6.923237199249183
 40
7.024617507623827
 40
7.098761315207422
 40
7.12751094600743
 40
7.12751094600743
 40
7.12751094600743
 40
7.12751094600743
 10
447.322486034974
 20
517.3330035168958
 30
0.0
 10
447.3224860778883
 20
517.3215853662504
 30
0.0
 10
447.3224862440304
 20
517.2800648105897
 30
0.0
 10
447.3224831040962
 20
517.1959814522006
 30
0.0
 10
447.3225026238977
 20
517.0745572053866
 30
0.0
 10
447.3224150146912
 20
516.9343171726377
 30
0.0
 10
447.3227354194405
 20
516.7945778001088
 30
0.0
 10
447.3217843868917
 20
516.6719626211127
 30
0.0
 10
447.3238216555143
 20
516.5903829765435
 30
0.0
 10
447.315567113792
 20
516.4372249029401
 30
0.0
 10
447.6237035900082
 20
516.6001145927107
 30
0.0
 10
447.9156883132903
 20
516.7693416190427
 30
0.0
 10
447.9214592407885
 20
516.6342445899825
 30
0.0
 10
447.9261709679064
 20
516.5906844437675
 30
0.0
 10
447.9288773371093
 20
516.5466247256688
 30
0.0
 10
447.9478783632131
 20
516.397238135794
 30
0.0
 10
447.5390180206479
 20
516.4613239545762
 30
0.0
 10
447.2599948308007
 20
516.3474756462733
 30
0.0
 10
446.9824319546345
 20
516.2481531902745
 30
0.0
 10
446.690607514357
 20
516.2908191081274
 30
0.0
 10
446.6675382637835
 20
516.1877290296085
 30
0.0
 10
446.6343712342509
 20
516.1614231446081
 30
0.0
 10
446.6286891921914
 20
516.2090653225262
 30
0.0
 10
446.6090452518221
 20
516.2463155933141
 30
0.0
 10
446.59013274448
 20
516.3045861106388
 30
0.0
 10
446.5749087826882
 20
516.3483642422411
 30
0.0
 10
446.5283484332114
 20
516.4621064426268
 30
0.0
 10
446.8697135271624
 20
516.4302752433632
 30
0.0
 10
447.1485887326563
 20
516.3961265832284
 30
0.0
 10
447.1423990994084
 20
516.5436519969596
 30
0.0
 10
447.1437173411948
 20
516.6146437412516
 30
0.0
 10
447.1431069649124
 20
516.7217099117497
 30
0.0
 10
447.14321095299
 20
516.848497530023
 30
0.0
 10
447.143622592323
 20
516.9830046671239
 30
0.0
 10
447.1420145801145
 20
517.108467731675
 30
0.0
 10
447.14661405271
 20
517.2195646993544
 30
0.0
 10
447.1370424461387
 20
517.2821311001703
 30
0.0
 10
447.1510239742866
 20
517.340466115113
 30
0.0
 10
447.0953622345882
 20
517.3274093379858
 30
0.0
 10
447.0381893156995
 20
517.3358753096579
 30
0.0
 10
446.9422286884824
 20
517.3318119929696
 30
0.0
 10
446.8440005481997
 20
517.334221130688
 30
0.0
 10
446.7478820416737
 20
517.330028238297
 30
0.0
 10
446.6910886484985
 20
517.3388056965748
 30
0.0
 10
446.6356594832561
 20
517.3254616006643
 30
0.0
 10
446.6476917387092
 20
517.3748813417559
 30
0.0
 10
446.6398241133113
 20
517.4184521124671
 30
0.0
 10
446.6472533523005
 20
517.4628169233486
 30
0.0
 10
446.6358168523319
 20
517.513535209803
 30
0.0
 10
446.703834032931
 20
517.496136839741
 30
0.0
 10
446.7774734838922
 20
517.5086867345352
 30
0.0
 10
446.9131302017387
 20
517.5025090022741
 30
0.0
 10
447.0691146983701
 20
517.5048042630942
 30
0.0
 10
447.242216431732
 20
517.5039219147885
 30
0.0
 10
447.4153180923356
 20
517.5048043035873
 30
0.0
 10
447.5713027770393
 20
517.5025088617185
 30
0.0
 10
447.7069589848974
 20
517.508687094788
 30
0.0
 10
447.7805994664828
 20
517.4961361743464
 30
0.0
 10
447.8486152133898
 20
517.5135359622847
 30
0.0
 10
447.8371828845099
 20
517.4628135363087
 30
0.0
 10
447.8445777417472
 20
517.4184828402744
 30
0.0
 10
447.8368277871447
 20
517.3747953076652
 30
0.0
 10
447.8487441701052
 20
517.325148133148
 30
0.0
 10
447.7914408182793
 20
517.3391263455475
 30
0.0
 10
447.7326383748949
 20
517.3299097888956
 30
0.0
 10
447.6331531592375
 20
517.3340349138125
 30
0.0
 10
447.5300518057525
 20
517.3327398324218
 30
0.0
 10
447.4344084313749
 20
517.3330530029398
 30
0.0
 10
447.3663705930793
 20
517.3329999991344
 30
0.0
 10
447.3320700172619
 20
517.3330027508798
 30
0.0
 10
447.322486034974
 20
517.3330035168958
 30
0.0
 11
447.322486034974
 21
517.3330035168958
 31
0.0
 11
447.322486034974
 21
517.298748898035
 31
0.0
 11
447.322486034974
 21
517.208441266493
 31
0.0
 11
447.322486034974
 21
517.0807649598299
 31
0.0
 11
447.322486034974
 21
516.9344043156066
 31
0.0
 11
447.322486034974
 21
516.7880436713832
 31
0.0
 11
447.322486034974
 21
516.6603673647203
 31
0.0
 11
447.322486034974
 21
516.5700597331781
 31
0.0
 11
447.322486034974
 21
516.5358051143173
 31
0.0
 11
447.6198170603743
 21
516.6016069893009
 31
0.0
 11
447.919086158642
 21
516.6694726142839
 31
0.0
 11
447.9211725084152
 21
516.6448195109915
 31
0.0
 11
447.9257624779161
 21
516.5905826837482
 31
0.0
 11
447.9303524474171
 21
516.5363458565048
 31
0.0
 11
447.9324387971903
 21
516.5116927532124
 31
0.0
 11
447.5862634848416
 21
516.4261459335722
 31
0.0
 11
447.2475891098014
 21
516.3451210084622
 31
0.0
 11
446.9369969475864
 21
516.2731398724126
 31
0.0
 11
446.6750682737131
 21
516.2147244199532
 31
0.0
 11
446.6623752988468
 21
516.1873466595432
 31
0.0
 11
446.6376032746689
 21
516.1719148366305
 31
0.0
 11
446.6298105548677
 21
516.1936190660696
 31
0.0
 11
446.6112279153417
 21
516.245375305501
 31
0.0
 11
446.5890486359076
 21
516.3071488815967
 31
0.0
 11
446.5704659963816
 21
516.3589051210282
 31
0.0
 11
446.5626732765804
 21
516.3806093504672
 31
0.0
 11
446.8289014295108
 21
516.4324522497599
 31
0.0
 11
447.1432572895465
 21
516.4982519198823
 31
0.0
 11
447.1432572895465
 21
516.5268785178594
 31
0.0
 11
447.1432572895464
 21
516.6035978004381
 31
0.0
 11
447.1432572895465
 21
516.7146690005895
 31
0.0
 11
447.1432572895465
 21
516.8463513512844
 31
0.0
 11
447.1432572895465
 21
516.9849040854938
 31
0.0
 11
447.1432572895466
 21
517.1165864361886
 31
0.0
 11
447.1432572895465
 21
517.2276576363399
 31
0.0
 11
447.1432572895465
 21
517.3043769189187
 31
0.0
 11
447.1432572895465
 21
517.3330035168958
 31
0.0
 11
447.1155429280284
 21
517.3330035168958
 31
0.0
 11
447.0440690483239
 21
517.3330035168958
 31
0.0
 11
446.9463394577076
 21
517.3330035168958
 31
0.0
 11
446.8398579634541
 21
517.3330035168958
 31
0.0
 11
446.7421283728376
 21
517.3330035168958
 31
0.0
 11
446.6706544931331
 21
517.3330035168958
 31
0.0
 11
446.6429401316151
 21
517.3330035168958
 31
0.0
 11
446.6429401316151
 21
517.3597567503961
 31
0.0
 11
446.6429401316151
 21
517.4186138640966
 31
0.0
 11
446.6429401316151
 21
517.4774709777972
 31
0.0
 11
446.6429401316151
 21
517.5042242112975
 31
0.0
 11
446.676499603205
 21
517.5042242112975
 31
0.0
 11
446.7675895975207
 21
517.5042242112976
 31
0.0
 11
446.9018274838805
 21
517.5042242112975
 31
0.0
 11
447.0648306316032
 21
517.5042242112975
 31
0.0
 11
447.2422164100072
 21
517.5042242112975
 31
0.0
 11
447.4196021884114
 21
517.5042242112975
 31
0.0
 11
447.582605336134
 21
517.5042242112975
 31
0.0
 11
447.7168432224938
 21
517.5042242112975
 31
0.0
 11
447.8079332168094
 21
517.5042242112975
 31
0.0
 11
447.8414926883994
 21
517.5042242112975
 31
0.0
 11
447.8414926883994
 21
517.4774709777972
 31
0.0
 11
447.8414926883994
 21
517.4186138640966
 31
0.0
 11
447.8414926883994
 21
517.3597567503961
 31
0.0
 11
447.8414926883994
 21
517.3330035168958
 31
0.0
 11
447.8127430487053
 21
517.3330035168958
 31
0.0
 11
447.738599241073
 21
517.3330035168958
 31
0.0
 11
447.637218932678
 21
517.3330035168958
 31
0.0
 11
447.5267597906953
 21
517.3330035168958
 31
0.0
 11
447.4253794823003
 21
517.3330035168958
 31
0.0
 11
447.3512356746681
 21
517.3330035168958
 31
0.0
 11
447.322486034974
 21
517.3330035168958
 31
0.0
  0
SPLINE
  5
B1
102
{ACAD_REACTORS
330
CE
102
}
330
48
100
AcDbEntity
  8
_U_30EC_U_30A4_U_30E4_U_30FC_1
  6
Continuous
 62
     2
100
AcDbSpline
210
0.0
220
0.0
230
1.0
 70
    11
 71
     3
 72
    15
 73
    11
 74
     9
 42
0.000000001
 43
0.0000000001
 44
0.00000001
 40
0.0
 40
0.0
 40
0.0
 40
0.0
 40
0.2785535985097974
 40
0.5215624748200037
 40
0.6076917376040006
 40
0.6938210001740985
 40
0.9405019146453983
 40
1.221691403489004
 40
1.300471877080907
 40
1.379252341684718
 40
1.379252341684718
 40
1.379252341684718
 40
1.379252341684718
 10
448.4487731590175
 20
518.6038149054671
 30
0.0
 10
448.5102255753355
 20
518.5514286980906
 30
0.0
 10
448.6252887933288
 20
518.4533410001453
 30
0.0
 10
448.9203586456421
 20
518.3034100911354
 30
0.0
 10
448.7831385591032
 20
518.2179445073133
 30
0.0
 10
448.6847465802954
 20
518.0853700841787
 30
0.0
 10
448.5936271549824
 20
518.3906820899773
 30
0.0
 10
448.2443077439833
 20
518.4541909268169
 30
0.0
 10
448.3925496335747
 20
518.5534773309721
 30
0.0
 10
448.4300319833413
 20
518.5870357161871
 30
0.0
 10
448.4487731590175
 20
518.6038149054671
 30
0.0
 11
448.4487731590175
 21
518.6038149054671
 31
0.0
 11
448.6725460399773
 21
518.4379299749529
 31
0.0
 11
448.8501284265559
 21
518.2720450444388
 31
0.0
 11
448.7872546087156
 21
518.2131796625091
 31
0.0
 11
448.7243807908751
 21
518.1543142805795
 31
0.0
 11
448.5494773076901
 21
518.328269002758
 31
0.0
 11
448.3284494815316
 21
518.5020914332702
 31
0.0
 11
448.3886113202745
 21
518.5529531693686
 31
0.0
 11
448.4487731590175
 21
518.6038149054671
 31
0.0
  0
SPLINE
  5
B2
102
{ACAD_REACTORS
330
CF
102
}
330
48
100
AcDbEntity
  8
_U_30EC_U_30A4_U_30E4_U_30FC_1
  6
Continuous
 62
     2
100
AcDbSpline
210
0.0
220
0.0
230
1.0
 70
    11
 71
     3
 72
    35
 73
    31
 74
    29
 42
0.000000001
 43
0.0000000001
 44
0.00000001
 40
0.0
 40
0.0
 40
0.0
 40
0.0
 40
0.0335231036620993
 40
0.0713218571713322
 40
0.4278866681488057
 40
0.8116865841964777
 40
1.198190238000193
 40
1.561379546812896
 40
1.659983174622221
 40
1.759315573807415
 40
2.132719617231264
 40
2.525233363589055
 40
2.910815397779925
 40
3.26524436430357
 40
3.592606723582358
 40
3.964386154604211
 40
4.359942131738074
 40
4.758154118639476
 40
4.843846538699965
 40
4.93665006554334
 40
5.256616602537473
 40
5.581707404416296
 40
5.899719158308362
 40
6.198363494280952
 40
6.466301046615897
 40
6.493895311537154
 40
6.559697020197008
 40
6.638234543442637
 40
6.704036252154354
 40
6.731630508423163
 40
6.731630508423163
 40
6.731630508423163
 40
6.731630508423163
 10
450.8542248527845
 20
518.6091506693547
 30
0.0
 10
450.8482244056964
 20
518.5993191375863
 30
0.0
 10
450.8354582058334
 20
518.5784021179612
 30
0.0
 10
450.6755599965729
 20
518.5457834974901
 30
0.0
 10
451.1128263801512
 20
518.2565790355303
 30
0.0
 10
451.315163278744
 20
518.054923615748
 30
0.0
 10
451.5625802227148
 20
517.812006108196
 30
0.0
 10
452.0637751583785
 20
517.7349888597412
 30
0.0
 10
451.8931800158146
 20
517.5932816239099
 30
0.0
 10
451.8189537422377
 20
517.3916158942543
 30
0.0
 10
451.4937670207363
 20
517.7440751039104
 30
0.0
 10
451.2083979629841
 20
517.9062643577589
 30
0.0
 10
450.9143842036834
 20
518.1113835326937
 30
0.0
 10
450.6890690650309
 20
518.5927871181179
 30
0.0
 10
450.4799323014698
 20
518.1279426982554
 30
0.0
 10
450.201411163401
 20
517.9180217546922
 30
0.0
 10
449.9177621136384
 20
517.7487567957633
 30
0.0
 10
449.5884877487005
 20
517.3759358412426
 30
0.0
 10
449.5083250277402
 20
517.5715923767533
 30
0.0
 10
449.3565962868918
 20
517.6994232740691
 30
0.0
 10
449.7889633785973
 20
517.7790525498226
 30
0.0
 10
449.9768803288942
 20
517.9747785813179
 30
0.0
 10
450.227471537968
 20
518.1908422013307
 30
0.0
 10
450.4520588429338
 20
518.3564221551641
 30
0.0
 10
450.5066013368887
 20
518.6358518785307
 30
0.0
 10
450.6300898988188
 20
518.6218917362443
 30
0.0
 10
450.6866511303695
 20
518.6197249208396
 30
0.0
 10
450.7568108944121
 20
518.6149808309768
 30
0.0
 10
450.8139651981281
 20
518.6116065256689
 30
0.0
 10
450.8450428280015
 20
518.6097107792745
 30
0.0
 10
450.8542248527845
 20
518.6091506693547
 30
0.0
 11
450.8542248527845
 21
518.6091506693547
 31
0.0
 11
450.8331557029061
 21
518.583075981861
 31
0.0
 11
450.7980702518601
 21
518.569013377698
 31
0.0
 11
451.0318612728271
 21
518.2997918434771
 31
0.0
 11
451.3220823916743
 21
518.0486463118559
 31
0.0
 11
451.641903544286
 21
517.8316221083511
 31
0.0
 11
451.9644946665466
 21
517.6647645584796
 31
0.0
 11
451.9019537827253
 21
517.5885325880126
 31
0.0
 11
451.8494273778151
 21
517.5042242112975
 31
0.0
 11
451.524251705499
 21
517.687776280479
 31
0.0
 11
451.2043465727612
 21
517.9152136295975
 31
0.0
 11
450.9160438117784
 21
518.1712507833963
 31
0.0
 11
450.685675254727
 21
518.440602266619
 31
0.0
 11
450.4801769678691
 21
518.1857757193735
 31
0.0
 11
450.2094539300712
 21
517.9309640549408
 31
0.0
 11
449.8925776382422
 21
517.6942068957119
 31
0.0
 11
449.5486195892917
 21
517.493543864078
 31
0.0
 11
449.5025093300515
 21
517.5657729091988
 31
0.0
 11
449.4443208419524
 21
517.6380681001529
 31
0.0
 11
449.7239278448191
 21
517.7936268017806
 31
0.0
 11
449.9899242580331
 21
517.9805223300673
 31
0.0
 11
450.2306235418923
 21
518.1883571950153
 31
0.0
 11
450.434339156695
 21
518.4067339066274
 31
0.0
 11
450.5893845627394
 21
518.625254974906
 31
0.0
 11
450.616927952904
 21
518.6235801271288
 31
0.0
 11
450.6826083448353
 21
518.619586259352
 31
0.0
 11
450.7610010706887
 21
518.6148193849087
 31
0.0
 11
450.8266814626198
 21
518.6108255171321
 31
0.0
 11
450.8542248527845
 21
518.6091506693547
 31
0.0
  0
SPLINE
  5
B3
102
{ACAD_REACTORS
330
D0
102
}
330
48
100
AcDbEntity
  8
_U_30EC_U_30A4_U_30E4_U_30FC_1
  6
Continuous
 62
     2
100
AcDbSpline
210
0.0
220
0.0
230
1.0
 70
    11
 71
     3
 72
    91
 73
    87
 74
    85
 42
0.000000001
 43
0.0000000001
 44
0.00000001
 40
0.0
 40
0.0
 40
0.0
 40
0.0
 40
0.0267532254356417
 40
0.0856103386464617
 40
0.1444674521995928
 40
0.1712206856618657
 40
0.2039416005642963
 40
0.2955601971652911
 40
0.4362601844616776
 40
0.6162252844508245
 40
0.825639218970484
 40
1.054685709844425
 40
1.293548478893517
 40
1.532411247938289
 40
1.761457738799554
 40
1.970871673298522
 40
2.150836773256747
 40
2.291536760495551
 40
2.383155356836657
 40
2.415876284101278
 40
2.442629517487949
 40
2.501486630949107
 40
2.560343744424249
 40
2.587096977826495
 40
2.617068194440894
 40
2.699247336756064
 40
2.822032643466291
 40
2.973822353257906
 40
3.14301470482332
 40
3.318007936879842
 40
3.487200288186675
 40
3.638989997548156
 40
3.761775303794654
 40
3.843954445753018
 40
3.873925662229742
 40
3.890812773500489
 40
3.907699884771631
 40
3.937960767857377
 40
3.980983618142441
 40
4.199085915228512
 40
4.439444339237323
 40
4.677588241260884
 40
5.05069831783774
 40
5.448212454763071
 40
5.855291218044538
 40
6.138575438885201
 40
6.417434507584002
 40
6.444551104393607
 40
6.504207617362858
 40
6.563864130314237
 40
6.590980727103799
 40
6.848609460381321
 40
7.10961199066831
 40
7.352910904445866
 40
7.55783022070533
 40
7.587518925913209
 40
7.652834077375665
 40
7.718149228845661
 40
7.747837934061904
 40
7.854880190300972
 40
7.976511257403488
 40
8.369487896592318
 40
8.757514959223581
 40
9.126072419331104
 40
9.46063938039211
 40
9.746695593035817
 40
9.777569943118687
 40
9.807050320931914
 40
9.830377336129072
 40
9.886003295436161
 40
9.95239556943008
 40
10.00802152870646
 40
10.03134854388247
 40
10.21356951009618
 40
10.422034792929
 40
10.66154556731087
 40
10.91693789564325
 40
11.15832906556584
 40
11.18982674596633
 40
11.27286608520415
 40
11.39026653033368
 40
11.52484752840904
 40
11.65942852648464
 40
11.77682897161496
 40
11.85986831085693
 40
11.89136598230441
 40
11.89136598230441
 40
11.89136598230441
 40
11.89136598230441
 10
449.5834122967372
 20
517.081508239181
 30
0.0
 10
449.5834475724463
 20
517.0903907052831
 30
0.0
 10
449.5835604669974
 20
517.1188146026367
 30
0.0
 10
449.5819222527663
 20
517.1686086238611
 30
0.0
 10
449.5875988252088
 20
517.2110878769449
 30
0.0
 10
449.5763166690882
 20
517.2618137807317
 30
0.0
 10
449.6438534938208
 20
517.2446412395641
 30
0.0
 10
449.7194267169878
 20
517.2574145038234
 30
0.0
 10
449.8634595015177
 20
517.250809526737
 30
0.0
 10
450.0375657144602
 20
517.253396854228
 30
0.0
 10
450.2445837570181
 20
517.2525181517188
 30
0.0
 10
450.4700926131552
 20
517.2527943113636
 30
0.0
 10
450.7057400252582
 20
517.25269562875
 30
0.0
 10
450.9413878490525
 20
517.2527940762909
 30
0.0
 10
451.1668955539802
 20
517.2525190140711
 30
0.0
 10
451.373917259198
 20
517.2533940948706
 30
0.0
 10
451.5480126874465
 20
517.2508174589478
 30
0.0
 10
451.692073003116
 20
517.2573951366555
 30
0.0
 10
451.7675929874467
 20
517.2446746662188
 30
0.0
 10
451.8352013996206
 20
517.2617762340803
 30
0.0
 10
451.8237078099851
 20
517.2112600901926
 30
0.0
 10
451.8311342540908
 20
517.1670447544282
 30
0.0
 10
451.8235076887165
 20
517.1231918971994
 30
0.0
 10
451.8352727418599
 20
517.0732959769564
 30
0.0
 10
451.7737026451161
 20
517.0884445092887
 30
0.0
 10
451.7063029697844
 20
517.0776188856695
 30
0.0
 10
451.5819242015399
 20
517.0830325484258
 30
0.0
 10
451.4360666195746
 20
517.0810042860712
 30
0.0
 10
451.2699814399261
 20
517.081670007947
 30
0.0
 10
451.09946505809
 20
517.0814086673756
 30
0.0
 10
450.9326028814565
 20
517.081727766074
 30
0.0
 10
450.789358478628
 20
517.0808652580708
 30
0.0
 10
450.6579551829013
 20
517.0831452369933
 30
0.0
 10
450.6046097093831
 20
517.0785892759051
 30
0.0
 10
450.5291426416089
 20
517.084511382092
 30
0.0
 10
450.5575313738408
 20
517.0754539255968
 30
0.0
 10
450.5839890368719
 20
517.0717713548527
 30
0.0
 10
450.5439760866879
 20
517.041054951846
 30
0.0
 10
450.4519901651041
 20
517.0511881439093
 30
0.0
 10
450.4245634166246
 20
516.8048372546411
 30
0.0
 10
450.3285031926411
 20
516.649507819807
 30
0.0
 10
450.0723515923652
 20
516.3197664114791
 30
0.0
 10
450.6433775691939
 20
516.4588124542677
 30
0.0
 10
450.8979894279692
 20
516.4574300318968
 30
0.0
 10
451.5085885007792
 20
516.3724179245842
 30
0.0
 10
451.214693653726
 20
516.6713664077454
 30
0.0
 10
450.8939542245691
 20
516.8178208011809
 30
0.0
 10
451.0119781319611
 20
516.8747676403462
 30
0.0
 10
451.0530954425437
 20
516.8987132308968
 30
0.0
 10
451.0963050353588
 20
516.9205098202758
 30
0.0
 10
451.1980812053624
 20
516.9837994447023
 30
0.0
 10
451.3135105584423
 20
516.725983746251
 30
0.0
 10
451.5135829601453
 20
516.5906726433001
 30
0.0
 10
451.6075315346403
 20
516.4124401835521
 30
0.0
 10
451.836506770557
 20
516.2544904424337
 30
0.0
 10
451.7402269805882
 20
516.2036719579261
 30
0.0
 10
451.6974197722956
 20
516.1733251573936
 30
0.0
 10
451.6524481487954
 20
516.1491735349778
 30
0.0
 10
451.5927958884389
 20
516.1000336996386
 30
0.0
 10
451.5595969020501
 20
516.2344869888992
 30
0.0
 10
451.4388251309971
 20
516.390454885029
 30
0.0
 10
451.0777213965154
 20
516.2602115127586
 30
0.0
 10
450.7191299914717
 20
516.2767591762581
 30
0.0
 10
450.3377158409254
 20
516.2678245256818
 30
0.0
 10
450.050969324207
 20
516.2033389488872
 30
0.0
 10
449.7398293558886
 20
516.3168189140918
 30
0.0
 10
449.7074975777965
 20
516.2057348314409
 30
0.0
 10
449.670241621249
 20
516.1864753706631
 30
0.0
 10
449.6671975591931
 20
516.2332600730363
 30
0.0
 10
449.6486130819782
 20
516.2725807713545
 30
0.0
 10
449.6318674575956
 20
516.3321720669458
 30
0.0
 10
449.6189968874928
 20
516.3765319308761
 30
0.0
 10
449.5848565765607
 20
516.4655755433654
 30
0.0
 10
449.8288952416929
 20
516.396322661601
 30
0.0
 10
450.0247632445848
 20
516.3748159227408
 30
0.0
 10
450.1201664340451
 20
516.656777076948
 30
0.0
 10
450.1751373728774
 20
516.8181426863746
 30
0.0
 10
450.3965857316331
 20
517.0884240080602
 30
0.0
 10
450.2655477340392
 20
517.0799967007008
 30
0.0
 10
450.1916264515032
 20
517.0823023171329
 30
0.0
 10
450.0783697835418
 20
517.0812260153797
 30
0.0
 10
449.9500489766662
 20
517.0815886229286
 30
0.0
 10
449.821048998959
 20
517.0814894768239
 30
0.0
 10
449.7094078905468
 20
517.0815115592891
 30
0.0
 10
449.6320901929201
 20
517.08150802406
 30
0.0
 10
449.5939114491187
 20
517.0815081906142
 30
0.0
 10
449.5834122967372
 20
517.081508239181
 30
0.0
 11
449.5834122967372
 21
517.081508239181
 31
0.0
 11
449.5834122967373
 21
517.1082614726812
 31
0.0
 11
449.5834122967372
 21
517.1671185863818
 31
0.0
 11
449.5834122967372
 21
517.2259757000822
 31
0.0
 11
449.5834122967372
 21
517.2527289335826
 31
0.0
 11
449.6161332240165
 21
517.2527289335826
 31
0.0
 11
449.7077518203985
 21
517.2527289335826
 31
0.0
 11
449.8484518076995
 21
517.2527289335825
 31
0.0
 11
450.0284169077356
 21
517.2527289335826
 31
0.0
 11
450.237830842323
 21
517.2527289335826
 31
0.0
 11
450.466877333278
 21
517.2527289335826
 31
0.0
 11
450.7057401024168
 21
517.2527289335826
 31
0.0
 11
450.9446028715557
 21
517.2527289335826
 31
0.0
 11
451.1736493625107
 21
517.2527289335826
 31
0.0
 11
451.3830632970981
 21
517.2527289335826
 31
0.0
 11
451.5630283971343
 21
517.2527289335827
 31
0.0
 11
451.7037283844352
 21
517.2527289335826
 31
0.0
 11
451.7953469808172
 21
517.2527289335826
 31
0.0
 11
451.8280679080965
 21
517.2527289335826
 31
0.0
 11
451.8280679080964
 21
517.2259757000824
 31
0.0
 11
451.8280679080965
 21
517.1671185863818
 31
0.0
 11
451.8280679080965
 21
517.1082614726812
 31
0.0
 11
451.8280679080965
 21
517.081508239181
 31
0.0
 11
451.7980966913934
 21
517.081508239181
 31
0.0
 11
451.7159175488202
 21
517.081508239181
 31
0.0
 11
451.5931322416816
 21
517.081508239181
 31
0.0
 11
451.4413425312817
 21
517.0815082391811
 31
0.0
 11
451.2721501789254
 21
517.081508239181
 31
0.0
 11
451.0971569459167
 21
517.081508239181
 31
0.0
 11
450.9279645935603
 21
517.081508239181
 31
0.0
 11
450.7761748831605
 21
517.081508239181
 31
0.0
 11
450.6533895760218
 21
517.081508239181
 31
0.0
 11
450.5712104334486
 21
517.081508239181
 31
0.0
 11
450.5412392167455
 21
517.081508239181
 31
0.0
 11
450.5572597371702
 21
517.0761680655712
 31
0.0
 11
450.5732802575947
 21
517.0708278919615
 31
0.0
 11
450.5512393640597
 21
517.0500933780776
 31
0.0
 11
450.5091099814539
 21
517.0413709475242
 31
0.0
 11
450.4171473500554
 21
516.8436047052897
 31
0.0
 11
450.308531648094
 21
516.6291873519483
 31
0.0
 11
450.1933738783984
 21
516.4207378226795
 31
0.0
 11
450.5663604634197
 21
516.4303366446935
 31
0.0
 11
450.9636937995326
 21
516.4423245562132
 31
0.0
 11
451.3705580150321
 21
516.4555393504486
 31
0.0
 11
451.1789357456154
 21
516.6641798451881
 31
0.0
 11
450.9772989972875
 21
516.8568064336816
 31
0.0
 11
451.0011185753926
 21
516.869765504859
 31
0.0
 11
451.0535216472238
 21
516.8982754614491
 31
0.0
 11
451.105924719055
 21
516.9267854180392
 31
0.0
 11
451.1297442971601
 21
516.9397444892165
 31
0.0
 11
451.3193339517803
 21
516.7653073158659
 31
0.0
 11
451.5006548899611
 21
516.5775706959041
 31
0.0
 11
451.6583967190323
 21
516.3923360420877
 31
0.0
 11
451.7772490463234
 21
516.2254047671727
 31
0.0
 11
451.7521646177099
 21
516.2095242550239
 31
0.0
 11
451.6969788747601
 21
516.1745871282965
 31
0.0
 11
451.6417931318103
 21
516.1396500015691
 31
0.0
 11
451.6167087031969
 21
516.1237694894203
 31
0.0
 11
451.5581756110788
 21
516.2133904789813
 31
0.0
 11
451.4856253037633
 21
516.3110151143735
 31
0.0
 11
451.0931650883271
 21
516.2908751016008
 31
0.0
 11
450.7055712028736
 21
516.272545262161
 31
0.0
 11
450.3373616935389
 21
516.2565340193871
 31
0.0
 11
450.0030546064588
 21
516.2433497966126
 31
0.0
 11
449.7171679877694
 21
516.2335010171707
 31
0.0
 11
449.7018100280916
 21
516.2067174668301
 31
0.0
 11
449.6743672249721
 21
516.1959478227357
 31
0.0
 11
449.6674165151495
 21
516.218215226619
 31
0.0
 11
449.6508417455724
 21
516.2713144204946
 31
0.0
 11
449.6310589560772
 21
516.3346908777011
 31
0.0
 11
449.6144841865001
 21
516.3877900715767
 31
0.0
 11
449.6075334766774
 21
516.41005747546
 31
0.0
 11
449.7897437818329
 21
516.4120286212928
 31
0.0
 11
449.9981213807764
 21
516.418074350458
 31
0.0
 11
450.1109441086392
 21
516.6293477351788
 31
0.0
 11
450.2214174681211
 21
516.859610363722
 31
0.0
 11
450.3164492224803
 21
517.081508239181
 31
0.0
 11
450.2849515420773
 21
517.0815082391811
 31
0.0
 11
450.201912202833
 21
517.081508239181
 31
0.0
 11
450.0845117576944
 21
517.081508239181
 31
0.0
 11
449.9499307596087
 21
517.081508239181
 31
0.0
 11
449.8153497615231
 21
517.081508239181
 31
0.0
 11
449.6979493163846
 21
517.081508239181
 31
0.0
 11
449.6149099771403
 21
517.081508239181
 31
0.0
 11
449.5834122967372
 21
517.081508239181
 31
0.0
  0
SPLINE
  5
B4
102
{ACAD_REACTORS
330
D1
102
}
330
48
100
AcDbEntity
  8
_U_30EC_U_30A4_U_30E4_U_30FC_1
  6
Continuous
 62
     2
100
AcDbSpline
210
0.0
220
0.0
230
1.0
 70
    11
 71
     3
 72
   131
 73
   127
 74
   125
 42
0.000000001
 43
0.0000000001
 44
0.00000001
 40
0.0
 40
0.0
 40
0.0
 40
0.0
 40
0.0195577029826128
 40
0.0426490537461031
 40
0.2863607575855612
 40
0.5344948436188945
 40
0.7842238845573715
 40
0.8737315789468991
 40
0.9803832810314745
 40
1.092842274517186
 40
1.199761146656965
 40
1.289788768186588
 40
1.351573580786316
 40
1.370727117561568
 40
1.416400936017988
 40
1.470914848356112
 40
1.516588666792014
 40
1.535742203553138
 40
1.634216592293479
 40
1.760283341175317
 40
1.897966686682357
 40
2.031216387369174
 40
2.04968975113815
 40
2.101115601646999
 40
2.179502577740156
 40
2.278859318314236
 40
2.393194462258923
 40
2.516516648384088
 40
2.642834515406154
 40
2.766156701983679
 40
2.880491846754869
 40
2.979848588358724
 40
3.05823556544414
 40
3.109661416669216
 40
3.128134780704333
 40
3.146783742386678
 40
3.191254343315567
 40
3.244332157316198
 40
3.288802758226101
 40
3.307451719895373
 40
3.327717853845062
 40
3.383747753580284
 40
3.468388665924696
 40
3.574487837699
 40
3.694892515729127
 40
3.822449946852263
 40
3.950007377920603
 40
4.070412055800663
 40
4.176511227368284
 40
4.261152139501693
 40
4.317182039076958
 40
4.337448172964802
 40
4.620011002696328
 40
4.88509663839764
 40
4.945373043518466
 40
5.014107710488799
 40
5.070481727652095
 40
5.319246955636678
 40
5.584812164506199
 40
5.859000912057139
 40
6.133746937542272
 40
6.401732212969116
 40
6.420736683995735
 40
6.472845717451301
 40
6.550702743894285
 40
6.646951193874522
 40
6.754234497930875
 40
6.865196086587653
 40
6.972479390358083
 40
7.068727839772273
 40
7.146584865451282
 40
7.19869389818954
 40
7.217698368905681
 40
7.234950401631218
 40
7.276089864270184
 40
7.325191803516341
 40
7.366331266090733
 40
7.38358329877
 40
7.402779163492405
 40
7.453386443254751
 40
7.524934666445838
 40
7.606953361406092
 40
7.688972056429273
 40
7.760520279784466
 40
7.811127559734737
 40
7.830323424546386
 40
7.847844055300052
 40
7.894799345667061
 40
7.962779392744701
 40
8.043374293560795
 40
8.12817414514965
 40
8.208769044817508
 40
8.276749090377201
 40
8.323704379669756
 40
8.341225010056554
 40
8.35849761480071
 40
8.40167912668686
 40
8.457815092185998
 40
8.513951057728457
 40
8.557132569708383
 40
8.574405174505403
 40
8.602340668616808
 40
8.643455660540388
 40
8.66322527196707
 40
8.715345156564643
 40
8.789031889629035
 40
8.873502045520757
 40
8.957972194324332
 40
9.031658925568143
 40
9.083778811234941
 40
9.103548423003366
 40
9.119550083123903
 40
9.160817522380176
 40
9.217244429110456
 40
9.278724491644999
 40
9.335151398295755
 40
9.376418837358022
 40
9.392420497300867
 40
9.401196302735087
 40
9.41749422938448
 40
9.426270027749785
 40
9.440875075477857
 40
9.475702496999052
 40
9.517270709866226
 40
9.552098131994398
 40
9.566703169884548
 40
9.566703169884548
 40
9.566703169884548
 40
9.566703169884548
 10
453.4976492107654
 20
518.0446709472735
 30
0.0
 10
453.4940583052547
 20
518.0390491391848
 30
0.0
 10
453.48622770828
 20
518.0267897763542
 30
0.0
 10
453.3936206933723
 20
517.9905313925732
 30
0.0
 10
453.3693860192423
 20
517.7759966742904
 30
0.0
 10
453.2664947805115
 20
517.5964850772604
 30
0.0
 10
453.0026730323479
 20
517.4106679701447
 30
0.0
 10
453.1651709528356
 20
517.334105597824
 30
0.0
 10
453.2413463720016
 20
517.2730791641178
 30
0.0
 10
453.3298409031934
 20
517.2096702776107
 30
0.0
 10
453.4196168192287
 20
517.1497685743589
 30
0.0
 10
453.4690055595221
 20
517.0955337806555
 30
0.0
 10
453.5551946116557
 20
517.0673746375812
 30
0.0
 10
453.5217498633406
 20
517.0316453286918
 30
0.0
 10
453.5020909125485
 20
517.0000161120821
 30
0.0
 10
453.4726126177059
 20
516.9592709601241
 30
0.0
 10
453.4495227405208
 20
516.9295588670598
 30
0.0
 10
453.4186443927532
 20
516.876626458848
 30
0.0
 10
453.3535431324918
 20
517.0019155815523
 30
0.0
 10
453.2602238081591
 20
517.0566512345026
 30
0.0
 10
453.1756874244317
 20
517.1136764715567
 30
0.0
 10
453.0528736084917
 20
517.2712651064382
 30
0.0
 10
453.0570688806478
 20
517.1948702998317
 30
0.0
 10
453.0557716611855
 20
517.1481250337761
 30
0.0
 10
453.0564364407252
 20
517.0703600902893
 30
0.0
 10
453.0561787946133
 20
516.9735329154074
 30
0.0
 10
453.0562669199099
 20
516.8610150229514
 30
0.0
 10
453.0562315261457
 20
516.7397530916202
 30
0.0
 10
453.0562749717454
 20
516.615381210753
 30
0.0
 10
453.0561437901582
 20
516.4941890684764
 30
0.0
 10
453.0565715521223
 20
516.3814237213606
 30
0.0
 10
453.0552916161486
 20
516.2853413698506
 30
0.0
 10
453.0585997810218
 20
516.2056504968501
 30
0.0
 10
453.0521435699261
 20
516.162663990051
 30
0.0
 10
453.0612446664734
 20
516.1240665558837
 30
0.0
 10
453.0254148299109
 20
516.1326211094039
 30
0.0
 10
452.9921461774427
 20
516.1279374320177
 30
0.0
 10
452.9410800535218
 20
516.1280252197612
 30
0.0
 10
452.9075961931988
 20
516.1324565350016
 30
0.0
 10
452.8713823367929
 20
516.1241201705883
 30
0.0
 10
452.8816020527842
 20
516.1659650039562
 30
0.0
 10
452.8742725846948
 20
516.212297840365
 30
0.0
 10
452.8779871095277
 20
516.2982605432233
 30
0.0
 10
452.8765718514071
 20
516.4005636592118
 30
0.0
 10
452.8770343513817
 20
516.5190444714785
 30
0.0
 10
452.8769011645404
 20
516.6440890636966
 30
0.0
 10
452.8769253869222
 20
516.7692705132338
 30
0.0
 10
452.8769592884726
 20
516.8873786859538
 30
0.0
 10
452.8768298252309
 20
516.9907997192583
 30
0.0
 10
452.8771745508257
 20
517.0738325937
 30
0.0
 10
452.8764936237865
 20
517.1259459173756
 30
0.0
 10
452.88008245598
 20
517.2536413103768
 30
0.0
 10
452.6632409345609
 20
516.9549994003594
 30
0.0
 10
452.4827592881129
 20
516.7271520472784
 30
0.0
 10
452.4296560254787
 20
516.8682466650614
 30
0.0
 10
452.4006667092325
 20
516.9177699077725
 30
0.0
 10
452.3002886021994
 20
517.0209300300642
 30
0.0
 10
452.6211365682438
 20
517.1014625824009
 30
0.0
 10
452.7496134964604
 20
517.2851750625276
 30
0.0
 10
452.9712692284537
 20
517.493832189881
 30
0.0
 10
453.0576462853244
 20
517.6679043444465
 30
0.0
 10
453.3355632188252
 20
517.9441827455887
 30
0.0
 10
453.2152485798462
 20
517.9398578276745
 30
0.0
 10
453.1669435310525
 20
517.940660794189
 30
0.0
 10
453.0908615414081
 20
517.9402580536291
 30
0.0
 10
452.9973247968926
 20
517.9404149882795
 30
0.0
 10
452.8923832747733
 20
517.9403372579254
 30
0.0
 10
452.7840125697894
 20
517.9404668759489
 30
0.0
 10
452.6787692195073
 20
517.94005616707
 30
0.0
 10
452.5862475778589
 20
517.9413329688795
 30
0.0
 10
452.5074368759884
 20
517.9379198975116
 30
0.0
 10
452.4645912524556
 20
517.9447457325267
 30
0.0
 10
452.4255737545691
 20
517.9351628741745
 30
0.0
 10
452.433260323104
 20
517.9687200278187
 30
0.0
 10
452.4291702363487
 20
517.9997477353857
 30
0.0
 10
452.4291769327991
 20
518.0468775248722
 30
0.0
 10
452.4332477684088
 20
518.077921648631
 30
0.0
 10
452.4255733533758
 20
518.1115308485222
 30
0.0
 10
452.4641057364673
 20
518.1019963363723
 30
0.0
 10
452.5047465973655
 20
518.1084865871437
 30
0.0
 10
452.5757709809641
 20
518.105513738666
 30
0.0
 10
452.653555610881
 20
518.1062598461549
 30
0.0
 10
452.7313530205649
 20
518.1069903726084
 30
0.0
 10
452.8023470049084
 20
518.104054587305
 30
0.0
 10
452.8430517750994
 20
518.1104669198928
 30
0.0
 10
452.8816091449087
 20
518.1010174739234
 30
0.0
 10
452.8733580714102
 20
518.1371591537511
 30
0.0
 10
452.8788584628535
 20
518.1758106082956
 30
0.0
 10
452.8761992165338
 20
518.2436475177817
 30
0.0
 10
452.8772053430707
 20
518.3204286475507
 30
0.0
 10
452.8766415977497
 20
518.403006167991
 30
0.0
 10
452.8776952485767
 20
518.479685524462
 30
0.0
 10
452.8748913822305
 20
518.5478321399303
 30
0.0
 10
452.8806940680481
 20
518.5858362302569
 30
0.0
 10
452.8721892510334
 20
518.6220967129399
 30
0.0
 10
452.90618481923
 20
518.6120694698817
 30
0.0
 10
452.9400813642276
 20
518.6152449003002
 30
0.0
 10
452.9932907019523
 20
518.6096018885694
 30
0.0
 10
453.0467006533659
 20
518.6088599765276
 30
0.0
 10
453.0802152608666
 20
518.6027044669931
 30
0.0
 10
453.1194324142215
 20
518.6079725298993
 30
0.0
 10
453.0926501657667
 20
518.567046040098
 30
0.0
 10
453.0514348960901
 20
518.5782242775443
 30
0.0
 10
453.058887950005
 20
518.5331827940845
 30
0.0
 10
453.0548465911361
 20
518.4886350124445
 30
0.0
 10
453.0567952008817
 20
518.4167479583803
 30
0.0
 10
453.0558602808935
 20
518.3361985380509
 30
0.0
 10
453.0571345149206
 20
518.2562521862133
 30
0.0
 10
453.053828175304
 20
518.182930602995
 30
0.0
 10
453.0608344139138
 20
518.141398662189
 30
0.0
 10
453.0507678339302
 20
518.1020364178444
 30
0.0
 10
453.0836052763098
 20
518.109192866473
 30
0.0
 10
453.1170815255656
 20
518.1047846635428
 30
0.0
 10
453.1721291435194
 20
518.1066916656423
 30
0.0
 10
453.229574055449
 20
518.106365896236
 30
0.0
 10
453.2829264207486
 20
518.1055753194944
 30
0.0
 10
453.3204778855815
 20
518.1076518233438
 30
0.0
 10
453.3429410482412
 20
518.1047356138345
 30
0.0
 10
453.3557916032907
 20
518.1102377586037
 30
0.0
 10
453.3664493645065
 20
518.1125234141413
 30
0.0
 10
453.3792873609317
 20
518.1194619580436
 30
0.0
 10
453.3952228992246
 20
518.1030426952999
 30
0.0
 10
453.4216861880066
 20
518.0916034553576
 30
0.0
 10
453.4533043212935
 20
518.0709591105153
 30
0.0
 10
453.4793493851328
 20
518.0556809284462
 30
0.0
 10
453.4934755683149
 20
518.047181995395
 30
0.0
 10
453.4976492107654
 20
518.0446709472735
 30
0.0
 11
453.4976492107654
 21
518.0446709472735
 31
0.0
 11
453.4856227961419
 21
518.0292479438051
 31
0.0
 11
453.4655199754741
 21
518.0178862945024
 31
0.0
 11
453.3585224314989
 21
517.7989184344749
 31
0.0
 11
453.22832778935
 21
517.5876842472849
 31
0.0
 11
453.0802778325246
 21
517.386572822438
 31
0.0
 11
453.154119621291
 21
517.3359860815169
 31
0.0
 11
453.2411902270977
 21
517.2743963487006
 31
0.0
 11
453.3324241709581
 21
517.2086438381075
 31
0.0
 11
453.4187559738864
 21
517.1455687638563
 31
0.0
 11
453.4911201568963
 21
517.0920113400657
 31
0.0
 11
453.5404512410019
 21
517.0548117808544
 31
0.0
 11
453.5293178661389
 21
517.0392263408582
 31
0.0
 11
453.5027690491579
 21
517.0020610608675
 31
0.0
 11
453.4710817514709
 21
516.9577025008786
 31
0.0
 11
453.4445329344899
 21
516.9205372208878
 31
0.0
 11
453.4333995596269
 21
516.9049517808917
 31
0.0
 11
453.3613251322124
 21
516.9720523190695
 31
0.0
 11
453.2659094944557
 21
517.05444577391
 31
0.0
 11
453.1599502111346
 21
517.1423624058324
 31
0.0
 11
453.0562448470266
 21
517.2260324752558
 31
0.0
 11
453.0562448470266
 21
517.2075591111718
 31
0.0
 11
453.0562448470267
 21
517.1561332598028
 31
0.0
 11
453.0562448470266
 21
517.0777462824732
 31
0.0
 11
453.0562448470266
 21
516.9783895405077
 31
0.0
 11
453.0562448470267
 21
516.8640543952308
 31
0.0
 11
453.0562448470267
 21
516.7407322079671
 31
0.0
 11
453.0562448470266
 21
516.6144143400411
 31
0.0
 11
453.0562448470267
 21
516.4910921527774
 31
0.0
 11
453.0562448470266
 21
516.3767570075005
 31
0.0
 11
453.0562448470266
 21
516.2774002655351
 31
0.0
 11
453.0562448470266
 21
516.1990132882054
 31
0.0
 11
453.0562448470266
 21
516.1475874368364
 31
0.0
 11
453.0562448470266
 21
516.1291140727524
 31
0.0
 11
453.0375958852802
 21
516.1291140727524
 31
0.0
 11
452.9931252841926
 21
516.1291140727524
 31
0.0
 11
452.9400474699912
 21
516.1291140727524
 31
0.0
 11
452.8955768689036
 21
516.1291140727524
 31
0.0
 11
452.8769279071571
 21
516.1291140727524
 31
0.0
 11
452.8769279071572
 21
516.1493802067655
 31
0.0
 11
452.8769279071571
 21
516.2054101066839
 31
0.0
 11
452.8769279071571
 21
516.2900510193267
 31
0.0
 11
452.8769279071571
 21
516.3961501915128
 31
0.0
 11
452.8769279071572
 21
516.516554870061
 31
0.0
 11
452.8769279071571
 21
516.6441123017903
 31
0.0
 11
452.8769279071571
 21
516.7716697335196
 31
0.0
 11
452.8769279071571
 21
516.8920744120678
 31
0.0
 11
452.8769279071571
 21
516.9981735842539
 31
0.0
 11
452.8769279071571
 21
517.0828144968966
 31
0.0
 11
452.8769279071571
 21
517.1388443968152
 31
0.0
 11
452.8769279071571
 21
517.1591105308282
 31
0.0
 11
452.6689510808657
 21
516.9678322149039
 31
0.0
 11
452.4569724317601
 21
516.8086610864714
 31
0.0
 11
452.4301866973659
 21
516.8626589516842
 31
0.0
 11
452.39450033742
 21
516.9214036378835
 31
0.0
 11
452.36059354533
 21
516.9664409475429
 31
0.0
 11
452.5636525701494
 21
517.1101461041737
 31
0.0
 11
452.7624769917436
 21
517.2861964674631
 31
0.0
 11
452.9483279403355
 21
517.4877873774128
 31
0.0
 11
453.112466546148
 21
517.7081141740243
 31
0.0
 11
453.2461539394041
 21
517.9403721972997
 31
0.0
 11
453.2271494683658
 21
517.9403721972997
 31
0.0
 11
453.1750404348739
 21
517.9403721972997
 31
0.0
 11
453.0971834083624
 21
517.9403721972997
 31
0.0
 11
453.0009349582655
 21
517.9403721972997
 31
0.0
 11
452.8936516540173
 21
517.9403721972997
 31
0.0
 11
452.7826900650521
 21
517.9403721972997
 31
0.0
 11
452.675406760804
 21
517.9403721972997
 31
0.0
 11
452.5791583107071
 21
517.9403721972997
 31
0.0
 11
452.5013012841956
 21
517.9403721972997
 31
0.0
 11
452.4491922507036
 21
517.9403721972997
 31
0.0
 11
452.4301877796654
 21
517.9403721972997
 31
0.0
 11
452.4301877796655
 21
517.9576242300732
 31
0.0
 11
452.4301877796654
 21
517.9987636928406
 31
0.0
 11
452.4301877796654
 21
518.0478656322728
 31
0.0
 11
452.4301877796654
 21
518.0890050950403
 31
0.0
 11
452.4301877796654
 21
518.1062571278137
 31
0.0
 11
452.4493836445186
 21
518.1062571278137
 31
0.0
 11
452.499990924586
 21
518.1062571278137
 31
0.0
 11
452.5715391481296
 21
518.1062571278137
 31
0.0
 11
452.6535578434112
 21
518.1062571278137
 31
0.0
 11
452.735576538693
 21
518.1062571278137
 31
0.0
 11
452.8071247622365
 21
518.1062571278137
 31
0.0
 11
452.857732042304
 21
518.1062571278137
 31
0.0
 11
452.8769279071571
 21
518.1062571278137
 31
0.0
 11
452.8769279071571
 21
518.1237777587155
 31
0.0
 11
452.8769279071571
 21
518.1707330495321
 31
0.0
 11
452.8769279071571
 21
518.2387130974308
 31
0.0
 11
452.8769279071571
 21
518.3193079995788
 31
0.0
 11
452.8769279071571
 21
518.4041078531432
 31
0.0
 11
452.8769279071571
 21
518.4847027552911
 31
0.0
 11
452.8769279071571
 21
518.5526828031899
 31
0.0
 11
452.8769279071571
 21
518.5996380940064
 31
0.0
 11
452.8769279071571
 21
518.6171587249082
 31
0.0
 11
452.8941722071287
 21
518.6161702938384
 31
0.0
 11
452.9372829570576
 21
518.6136992161642
 31
0.0
 11
452.9933269319653
 21
518.6104868151876
 31
0.0
 11
453.049370906873
 21
518.6072744142111
 31
0.0
 11
453.092481656802
 21
518.6048033365369
 31
0.0
 11
453.1097259567735
 21
518.6038149054671
 31
0.0
 11
453.0950012634028
 21
518.5800751658896
 31
0.0
 11
453.0562448470266
 21
518.5663499054763
 31
0.0
 11
453.0562448470266
 21
518.5465802939361
 31
0.0
 11
453.0562448470266
 21
518.4944604089666
 31
0.0
 11
453.0562448470266
 21
518.420773675044
 31
0.0
 11
453.0562448470266
 21
518.336303516645
 31
0.0
 11
453.0562448470266
 21
518.251833358246
 31
0.0
 11
453.0562448470266
 21
518.1781466243235
 31
0.0
 11
453.0562448470266
 21
518.1260267393538
 31
0.0
 11
453.0562448470266
 21
518.1062571278137
 31
0.0
 11
453.0722465072112
 21
518.1062571278137
 31
0.0
 11
453.1135139466346
 21
518.1062571278137
 31
0.0
 11
453.1699408536012
 21
518.1062571278137
 31
0.0
 11
453.2314209164157
 21
518.1062571278137
 31
0.0
 11
453.2878478233824
 21
518.1062571278137
 31
0.0
 11
453.3291152628058
 21
518.1062571278137
 31
0.0
 11
453.3451169229904
 21
518.1062571278137
 31
0.0
 11
453.35344443821
 21
518.1090261067225
 31
0.0
 11
453.3689098236179
 21
518.1141684961244
 31
0.0
 11
453.3772373388375
 21
518.1169374750332
 31
0.0
 11
453.389760173518
 21
518.1094217561462
 31
0.0
 11
453.4196223177561
 21
518.0914996572617
 31
0.0
 11
453.4552642318469
 21
518.0701087650449
 31
0.0
 11
453.485126376085
 21
518.0521866661605
 31
0.0
 11
453.4976492107654
 21
518.0446709472735
 31
0.0
  0
SPLINE
  5
B5
102
{ACAD_REACTORS
330
D2
102
}
330
48
100
AcDbEntity
  8
_U_30EC_U_30A4_U_30E4_U_30FC_1
  6
Continuous
 62
     2
100
AcDbSpline
210
0.0
220
0.0
230
1.0
 70
    11
 71
     3
 72
   124
 73
   120
 74
   118
 42
0.000000001
 43
0.0000000001
 44
0.00000001
 40
0.0
 40
0.0
 40
0.0
 40
0.0
 40
0.0278187229624795
 40
0.1011590162383417
 40
0.2048470170590239
 40
0.3237088716559245
 40
0.4425707262521431
 40
0.5462587270698694
 40
0.6195990203311798
 40
0.647417752257866
 40
0.6750060736114851
 40
0.7357003855241835
 40
0.7963946998053195
 40
0.8239830245570381
 40
0.8540933811101474
 40
0.9373396629408723
 40
1.063094687343096
 40
1.220731268637906
 40
1.399622220914637
 40
1.589140358637565
 40
1.77865849642376
 40
1.95754944894037
 40
2.115186030872963
 40
2.240941056914267
 40
2.324187341760365
 40
2.354297700109215
 40
2.381886024671645
 40
2.442580338710287
 40
2.503274652750179
 40
2.530862977314315
 40
2.560983949278239
 40
2.640393784452614
 40
2.75266286175878
 40
2.881361560117853
 40
3.010060258454872
 40
3.122329335705047
 40
3.20173917081769
 40
3.231860142753022
 40
3.264298024030041
 40
3.352343701778069
 40
3.482095226868524
 40
3.639650650172713
 40
3.811108022565237
 40
3.982565394927748
 40
4.140120818152355
 40
4.269872343141061
 40
4.357918020802118
 40
4.390355902043667
 40
4.423256253992293
 40
4.508104530072729
 40
4.624121560636469
 40
4.750528176031254
 40
4.866545206601701
 40
4.951393482691743
 40
4.984293834645087
 40
5.011450833241953
 40
5.071196230151714
 40
5.130941627056701
 40
5.158098625648337
 40
5.190998977600942
 40
5.275847253688768
 40
5.391864284256315
 40
5.518270899647804
 40
5.634287930208814
 40
5.719136206287488
 40
5.752036558235376
 40
5.782130946282394
 40
5.862783906228572
 40
5.979550131774489
 40
6.117984316639821
 40
6.263641154587334
 40
6.402075339413558
 40
6.518841564907405
 40
6.599494524815044
 40
6.629588912848193
 40
6.654403028225704
 40
6.713575149487499
 40
6.784199939328849
 40
6.843372060492888
 40
6.868186175802109
 40
6.896246243201263
 40
6.939586233757607
 40
6.967846564564068
 40
7.043584251089213
 40
7.153234334450984
 40
7.283231855733787
 40
7.420011856034874
 40
7.550009376579167
 40
7.659659458834652
 40
7.73539714441665
 40
7.7636574748509
 40
7.796409728010529
 40
7.880876065095945
 40
7.996370852465303
 40
8.122208446418083
 40
8.237703224798791
 40
8.3221695620104
 40
8.354921815205442
 40
8.382078813307201
 40
8.441824209206514
 40
8.501569605239522
 40
8.528726603485095
 40
8.561478856695087
 40
8.645945193877195
 40
8.761439980864678
 40
8.887277580763906
 40
9.00277236200037
 40
9.087238696660618
 40
9.119990949235044
 40
9.15242883061279
 40
9.240474508637758
 40
9.370226034148855
 40
9.527781457983847
 40
9.69923883098073
 40
9.870696203977955
 40
10.0282516278134
 40
10.15800315332495
 40
10.2460488313506
 40
10.27848670378461
 40
10.27848670378461
 40
10.27848670378461
 40
10.27848670378461
 10
454.2628065523559
 20
516.3886174060208
 30
0.0
 10
454.2720792696699
 20
516.3886172172759
 30
0.0
 10
454.3057982496039
 20
516.3886165409306
 30
0.0
 10
454.3740944771641
 20
516.3886303045962
 30
0.0
 10
454.4726379670757
 20
516.3885444743588
 30
0.0
 10
454.5868304423987
 20
516.3889297882856
 30
0.0
 10
454.6992132376248
 20
516.3875205911388
 30
0.0
 10
454.8020614559293
 20
516.3917034063854
 30
0.0
 10
454.8613077834024
 20
516.3827431246832
 30
0.0
 10
454.9177503896209
 20
516.3961565774238
 30
0.0
 10
454.9052493546131
 20
516.345384218297
 30
0.0
 10
454.913578759488
 20
516.3004054415541
 30
0.0
 10
454.9054408800295
 20
516.2550797620679
 30
0.0
 10
454.9176767173632
 20
516.2038315562481
 30
0.0
 10
454.8554011449509
 20
516.218991785816
 30
0.0
 10
454.7866750986044
 20
516.2081097392708
 30
0.0
 10
454.6588994708766
 20
516.2136252796429
 30
0.0
 10
454.5069222470819
 20
516.2115207447005
 30
0.0
 10
454.33089339317
 20
516.2122222580481
 30
0.0
 10
454.1450669893462
 20
516.2119646074763
 30
0.0
 10
453.9592405396352
 20
516.2122222836092
 30
0.0
 10
453.7832118101344
 20
516.2115206506406
 30
0.0
 10
453.6312342113371
 20
516.2136255544632
 30
0.0
 10
453.5034595623731
 20
516.2081090398397
 30
0.0
 10
453.4347315795756
 20
516.2189930034228
 30
0.0
 10
453.372458700206
 20
516.2038300990055
 30
0.0
 10
453.3846854249193
 20
516.2550873402149
 30
0.0
 10
453.3766242421774
 20
516.3003369648876
 30
0.0
 10
453.384691376907
 20
516.3455758117163
 30
0.0
 10
453.3724476446259
 20
516.3968540012628
 30
0.0
 10
453.4331255079873
 20
516.3820080057945
 30
0.0
 10
453.4969048704912
 20
516.3920767138707
 30
0.0
 10
453.6083552312678
 20
516.3874586742832
 30
0.0
 10
453.7303771402999
 20
516.3886455212178
 30
0.0
 10
453.8525776096999
 20
516.3896708711696
 30
0.0
 10
453.9636032246569
 20
516.3854369883973
 30
0.0
 10
454.0282755373133
 20
516.3946980773806
 30
0.0
 10
454.0897400769678
 20
516.3805564626601
 30
0.0
 10
454.0736303560512
 20
516.4468675110082
 30
0.0
 10
454.0849218286533
 20
516.518990133383
 30
0.0
 10
454.0793638781736
 20
516.6496498410461
 30
0.0
 10
454.0814273020869
 20
516.8005854692458
 30
0.0
 10
454.0806405086469
 20
516.967870963242
 30
0.0
 10
454.0814083174805
 20
517.1351233354864
 30
0.0
 10
454.0794276744803
 20
517.2861451248624
 30
0.0
 10
454.0847544115799
 20
517.4165729276932
 30
0.0
 10
454.07393393476
 20
517.4891666582223
 30
0.0
 10
454.0896564389051
 20
517.5560169265311
 30
0.0
 10
454.0238946091667
 20
517.5403173570714
 30
0.0
 10
453.9562605789938
 20
517.550604663003
 30
0.0
 10
453.8422123252986
 20
517.5456501006345
 30
0.0
 10
453.7257480634079
 20
517.548653512468
 30
0.0
 10
453.6112792080654
 20
517.5433152635974
 30
0.0
 10
453.5446562616987
 20
517.5545249129115
 30
0.0
 10
453.4797007674363
 20
517.5380035588134
 30
0.0
 10
453.4914227717884
 20
517.5892494369339
 30
0.0
 10
453.4839068148295
 20
517.6340155700041
 30
0.0
 10
453.4914227838012
 20
517.6787816811427
 30
0.0
 10
453.4797007464524
 20
517.7300275934606
 30
0.0
 10
453.5446564298375
 20
517.713506049831
 30
0.0
 10
453.6112771298998
 20
517.7247179459026
 30
0.0
 10
453.7257590817239
 20
517.7193665992698
 30
0.0
 10
453.8421692396139
 20
517.7224241198742
 30
0.0
 10
453.9563898133818
 20
517.7172972222706
 30
0.0
 10
454.0236388398403
 20
517.7279695657187
 30
0.0
 10
454.0889563900614
 20
517.7119330588541
 30
0.0
 10
454.0747629407726
 20
517.7740090896637
 30
0.0
 10
454.0842297422172
 20
517.8403798484509
 30
0.0
 10
454.0796506963262
 20
517.9569119595828
 30
0.0
 10
454.0813934515124
 20
518.088779082387
 30
0.0
 10
454.0803789454567
 20
518.230671833666
 30
0.0
 10
454.0823429303549
 20
518.3622027391889
 30
0.0
 10
454.0770906513029
 20
518.4797580049934
 30
0.0
 10
454.0879646722648
 20
518.543990122179
 30
0.0
 10
454.072577460103
 20
518.6056002576137
 30
0.0
 10
454.1213829496976
 20
518.5915363059843
 30
0.0
 10
454.1660233523901
 20
518.5940596529165
 30
0.0
 10
454.2344881905917
 20
518.5896402061803
 30
0.0
 10
454.2765344128279
 20
518.5806424876037
 30
0.0
 10
454.3293782717951
 20
518.5886293808285
 30
0.0
 10
454.301327296119
 20
518.5456514082799
 30
0.0
 10
454.2555380207771
 20
518.5571077526017
 30
0.0
 10
454.267577703244
 20
518.4962474322147
 30
0.0
 10
454.2602324029821
 20
518.4322052268512
 30
0.0
 10
454.2637433785338
 20
518.3236059208024
 30
0.0
 10
454.262604471935
 20
518.1994554236107
 30
0.0
 10
454.262541273944
 20
518.0664094304622
 30
0.0
 10
454.2639110926044
 20
517.9424860446586
 30
0.0
 10
454.2597876760489
 20
517.8331956106568
 30
0.0
 10
454.268400106274
 20
517.7705980331045
 30
0.0
 10
454.2552995413578
 20
517.7119135651269
 30
0.0
 10
454.3200122287373
 20
517.7281333702716
 30
0.0
 10
454.3866643912332
 20
517.7172148359963
 30
0.0
 10
454.5005017500278
 20
517.7224496339006
 30
0.0
 10
454.6163497081273
 20
517.7193677073323
 30
0.0
 10
454.7303162222457
 20
517.7246948302883
 30
0.0
 10
454.7966578977275
 20
517.7135543138285
 30
0.0
 10
454.8613426484656
 20
517.7299820280948
 30
0.0
 10
454.8496058731898
 20
517.6787714842637
 30
0.0
 10
454.8571406022218
 20
517.6340155733733
 30
0.0
 10
454.8496058951436
 20
517.5892596222635
 30
0.0
 10
454.8613426099912
 20
517.5380491408737
 30
0.0
 10
454.7966582034429
 20
517.5544765101052
 30
0.0
 10
454.730312439
 20
517.543340076636
 30
0.0
 10
454.6163697446189
 20
517.5486433910944
 30
0.0
 10
454.5004233582232
 20
517.5456598780988
 30
0.0
 10
454.3868994841296
 20
517.5505811548469
 30
0.0
 10
454.3195469277981
 20
517.5403631072986
 30
0.0
 10
454.254052308167
 20
517.5559721935514
 30
0.0
 10
454.2697951578392
 20
517.4891507504374
 30
0.0
 10
454.258951395739
 20
517.4165828103222
 30
0.0
 10
454.2642819588968
 20
517.2861347083074
 30
0.0
 10
454.2623374111033
 20
517.1351578140157
 30
0.0
 10
454.262937164239
 20
516.9677346715047
 30
0.0
 10
454.2627744518781
 20
516.8010739933471
 30
0.0
 10
454.2628133447311
 20
516.6481136613796
 30
0.0
 10
454.2628054372276
 20
516.5230040220204
 30
0.0
 10
454.262806634192
 20
516.4395911420771
 30
0.0
 10
454.2628065675385
 20
516.3994300149832
 30
0.0
 10
454.2628065523559
 20
516.3886174060208
 30
0.0
 11
454.2628065523559
 21
516.3886174060208
 31
0.0
 11
454.2906252842851
 21
516.3886174060208
 31
0.0
 11
454.3639655775528
 21
516.3886174060208
 31
0.0
 11
454.4676535783798
 21
516.3886174060208
 31
0.0
 11
454.5865154329863
 21
516.3886174060208
 31
0.0
 11
454.7053772875927
 21
516.3886174060208
 31
0.0
 11
454.8090652884196
 21
516.3886174060208
 31
0.0
 11
454.8824055816874
 21
516.3886174060208
 31
0.0
 11
454.9102243136166
 21
516.3886174060208
 31
0.0
 11
454.9102243136165
 21
516.3610290813749
 31
0.0
 11
454.9102243136166
 21
516.300334767154
 31
0.0
 11
454.9102243136166
 21
516.2396404529331
 31
0.0
 11
454.9102243136166
 21
516.2120521282873
 31
0.0
 11
454.8801139552669
 21
516.2120521282873
 31
0.0
 11
454.796867670418
 21
516.2120521282873
 31
0.0
 11
454.6711126443697
 21
516.2120521282873
 31
0.0
 11
454.5134760624217
 21
516.2120521282873
 31
0.0
 11
454.334585109874
 21
516.2120521282873
 31
0.0
 11
454.1450669720265
 21
516.2120521282873
 31
0.0
 11
453.9555488341788
 21
516.2120521282873
 31
0.0
 11
453.7766578816312
 21
516.2120521282873
 31
0.0
 11
453.6190212996833
 21
516.2120521282873
 31
0.0
 11
453.4932662736348
 21
516.2120521282873
 31
0.0
 11
453.4100199887859
 21
516.2120521282873
 31
0.0
 11
453.3799096304363
 21
516.2120521282873
 31
0.0
 11
453.3799096304363
 21
516.2396404529331
 31
0.0
 11
453.3799096304364
 21
516.300334767154
 31
0.0
 11
453.3799096304364
 21
516.3610290813749
 31
0.0
 11
453.3799096304363
 21
516.3886174060208
 31
0.0
 11
453.4100306024122
 21
516.3886174060208
 31
0.0
 11
453.4894404376216
 21
516.3886174060208
 31
0.0
 11
453.6017095149866
 21
516.3886174060208
 31
0.0
 11
453.7304082134294
 21
516.3886174060208
 31
0.0
 11
453.8591069118721
 21
516.3886174060208
 31
0.0
 11
453.9713759892371
 21
516.3886174060208
 31
0.0
 11
454.0507858244465
 21
516.3886174060208
 31
0.0
 11
454.0809067964224
 21
516.3886174060208
 31
0.0
 11
454.0809067964224
 21
516.4210552874015
 31
0.0
 11
454.0809067964224
 21
516.5091009654352
 31
0.0
 11
454.0809067964224
 21
516.6388524909582
 31
0.0
 11
454.0809067964225
 21
516.7964079148078
 31
0.0
 11
454.0809067964224
 21
516.9678652878205
 31
0.0
 11
454.0809067964224
 21
517.1393226608332
 31
0.0
 11
454.0809067964224
 21
517.2968780846827
 31
0.0
 11
454.0809067964225
 21
517.4266296102059
 31
0.0
 11
454.0809067964224
 21
517.5146752882395
 31
0.0
 11
454.0809067964224
 21
517.5471131696202
 31
0.0
 11
454.0480064444704
 21
517.54711316962
 31
0.0
 11
453.9631581683839
 21
517.5471131696202
 31
0.0
 11
453.8471411378164
 21
517.5471131696202
 31
0.0
 11
453.720734522422
 21
517.5471131696202
 31
0.0
 11
453.6047174918546
 21
517.5471131696202
 31
0.0
 11
453.5198692157679
 21
517.5471131696202
 31
0.0
 11
453.486968863816
 21
517.5471131696202
 31
0.0
 11
453.4869688638161
 21
517.5742701683113
 31
0.0
 11
453.486968863816
 21
517.6340155654317
 31
0.0
 11
453.4869688638161
 21
517.6937609625521
 31
0.0
 11
453.486968863816
 21
517.7209179612432
 31
0.0
 11
453.5198692157679
 21
517.7209179612431
 31
0.0
 11
453.6047174918546
 21
517.7209179612431
 31
0.0
 11
453.720734522422
 21
517.7209179612432
 31
0.0
 11
453.8471411378164
 21
517.7209179612432
 31
0.0
 11
453.9631581683838
 21
517.7209179612432
 31
0.0
 11
454.0480064444704
 21
517.7209179612431
 31
0.0
 11
454.0809067964224
 21
517.7209179612432
 31
0.0
 11
454.0809067964224
 21
517.7510123494769
 31
0.0
 11
454.0809067964224
 21
517.8316653099429
 31
0.0
 11
454.0809067964224
 21
517.9484315362893
 31
0.0
 11
454.0809067964224
 21
518.0868657221638
 31
0.0
 11
454.0809067964224
 21
518.2325225612144
 31
0.0
 11
454.0809067964225
 21
518.3709567470889
 31
0.0
 11
454.0809067964224
 21
518.4877229734353
 31
0.0
 11
454.0809067964224
 21
518.5683759339014
 31
0.0
 11
454.0809067964224
 21
518.598470322135
 31
0.0
 11
454.1056643247794
 21
518.5967954743577
 31
0.0
 11
454.1647015077845
 21
518.5928016065809
 31
0.0
 11
454.2351652423391
 21
518.5880347321377
 31
0.0
 11
454.2942024253441
 21
518.584040864361
 31
0.0
 11
454.3189599537011
 21
518.5823660165836
 31
0.0
 11
454.3039305183206
 21
518.5586703742283
 31
0.0
 11
454.2628065523559
 21
518.5449892110373
 31
0.0
 11
454.2628065523559
 21
518.5167288801117
 31
0.0
 11
454.262806552356
 21
518.4409911932306
 31
0.0
 11
454.262806552356
 21
518.3313411092389
 31
0.0
 11
454.2628065523559
 21
518.2013435869806
 31
0.0
 11
454.2628065523559
 21
518.0645635853
 31
0.0
 11
454.262806552356
 21
517.9345660630418
 31
0.0
 11
454.2628065523559
 21
517.8249159790499
 31
0.0
 11
454.2628065523559
 21
517.749178292169
 31
0.0
 11
454.2628065523559
 21
517.7209179612432
 31
0.0
 11
454.295558805529
 21
517.7209179612431
 31
0.0
 11
454.3800251426599
 21
517.7209179612431
 31
0.0
 11
454.4955199301653
 21
517.7209179612432
 31
0.0
 11
454.6213575344621
 21
517.7209179612432
 31
0.0
 11
454.7368523219675
 21
517.7209179612432
 31
0.0
 11
454.8213186590982
 21
517.7209179612431
 31
0.0
 11
454.8540709122714
 21
517.7209179612432
 31
0.0
 11
454.8540709122714
 21
517.6937609625521
 31
0.0
 11
454.8540709122714
 21
517.6340155654317
 31
0.0
 11
454.8540709122714
 21
517.5742701683113
 31
0.0
 11
454.8540709122714
 21
517.5471131696202
 31
0.0
 11
454.8213186590983
 21
517.54711316962
 31
0.0
 11
454.7368523219675
 21
517.5471131696202
 31
0.0
 11
454.6213575344622
 21
517.5471131696202
 31
0.0
 11
454.4955199301652
 21
517.5471131696202
 31
0.0
 11
454.3800251426599
 21
517.5471131696202
 31
0.0
 11
454.295558805529
 21
517.5471131696202
 31
0.0
 11
454.2628065523559
 21
517.5471131696202
 31
0.0
 11
454.2628065523559
 21
517.5146752882393
 31
0.0
 11
454.2628065523559
 21
517.426629610206
 31
0.0
 11
454.2628065523559
 21
517.2968780846827
 31
0.0
 11
454.2628065523559
 21
517.1393226608332
 31
0.0
 11
454.2628065523559
 21
516.9678652878205
 31
0.0
 11
454.2628065523559
 21
516.7964079148078
 31
0.0
 11
454.2628065523559
 21
516.6388524909582
 31
0.0
 11
454.2628065523559
 21
516.5091009654352
 31
0.0
 11
454.2628065523559
 21
516.4210552874016
 31
0.0
 11
454.2628065523559
 21
516.3886174060208
 31
0.0
  0
SPLINE
  5
B6
102
{ACAD_REACTORS
330
D3
102
}
330
48
100
AcDbEntity
  8
_U_30EC_U_30A4_U_30E4_U_30FC_1
  6
Continuous
 62
     2
100
AcDbSpline
210
0.0
220
0.0
230
1.0
 70
     8
 71
     3
 72
    62
 73
    58
 74
    56
 42
0.000000001
 43
0.0000000001
 44
0.00000001
 40
0.0
 40
0.0
 40
0.0
 40
0.0
 40
0.0598250028309053
 40
0.20248464868979
 40
0.3727558389221599
 40
0.515415484793607
 40
0.5752404975785907
 40
0.9332326775488929
 40
1.290451762839639
 40
1.602077253146051
 40
1.69993163411235
 40
1.799359756425194
 40
2.270120149657084
 40
2.804661928461683
 40
2.882342287383408
 40
3.076543185719316
 40
3.329004354835802
 40
3.581465524568585
 40
3.775666424543856
 40
3.853346784558453
 40
3.899120679595256
 40
3.984129341792282
 40
4.029903236817659
 40
4.105797496059863
 40
4.295533144152642
 40
4.542189486611988
 40
4.788845828875906
 40
4.978581476410255
 40
5.054475735244437
 40
5.621734664339357
 40
6.130867242037473
 40
6.225249780948661
 40
6.31891303972748
 40
6.663579954559098
 40
7.047498900224929
 40
7.435230791575879
 40
7.498943906668291
 40
7.650875181210228
 40
7.832212509001824
 40
7.984143783697238
 40
8.047856898903337
 40
8.09155463273284
 40
8.172707566964409
 40
8.216405300768105
 40
8.289021782161019
 40
8.462184160757392
 40
8.66886183800553
 40
8.842024215264036
 40
8.914640695475232
 40
8.989881580861397
 40
9.155411528827376
 40
9.320941477744231
 40
9.396182352487491
 40
9.454709011144038
 40
9.583467660171001
 40
9.712226309013223
 40
9.770752957989734
 40
9.770752957989734
 40
9.770752957989734
 40
9.770752957989734
 10
446.0328109651009
 20
517.3143151141228
 30
0.0
 10
446.01285861308
 20
517.3143209878501
 30
0.0
 10
445.945327567564
 20
517.3143408702249
 30
0.0
 10
445.8216850120963
 20
517.3140058573664
 30
0.0
 10
445.6669418109233
 20
517.3155889696686
 30
0.0
 10
445.5503587441656
 20
517.3113730207681
 30
0.0
 10
445.3357180593413
 20
517.3266642854798
 30
0.0
 10
445.7325186366405
 20
516.9664994450251
 30
0.0
 10
445.7751894028444
 20
516.7496172661348
 30
0.0
 10
446.1995400105785
 20
516.5677628572777
 30
0.0
 10
446.0246059455253
 20
516.464364197844
 30
0.0
 10
445.9000761884253
 20
516.2528274642904
 30
0.0
 10
445.6472515195119
 20
516.7225730421787
 30
0.0
 10
445.3603840852805
 20
517.369627402009
 30
0.0
 10
445.3712573885836
 20
517.0623389537101
 30
0.0
 10
445.3689130737138
 20
516.8973984018812
 30
0.0
 10
445.3667334085587
 20
516.6633089392801
 30
0.0
 10
445.3787012355524
 20
516.4194929563812
 30
0.0
 10
445.3494222699807
 20
516.2730702007731
 30
0.0
 10
445.3920760584647
 20
516.1256471339087
 30
0.0
 10
445.3046051964816
 20
516.1413702052256
 30
0.0
 10
445.257476556592
 20
516.1414552675977
 30
0.0
 10
445.1705211166889
 20
516.1256064869925
 30
0.0
 10
445.2119711980899
 20
516.2697899463908
 30
0.0
 10
445.183611296346
 20
516.4130627591477
 30
0.0
 10
445.1952211734475
 20
516.6512617058158
 30
0.0
 10
445.1930413607449
 20
516.8796845845668
 30
0.0
 10
445.1909349087169
 20
517.041569525923
 30
0.0
 10
445.2014273397501
 20
517.3560493255006
 30
0.0
 10
444.8935201212068
 20
516.6668069408873
 30
0.0
 10
444.5861496226629
 20
516.1892797345936
 30
0.0
 10
444.4657605025451
 20
516.4119233585375
 30
0.0
 10
444.2880845869897
 20
516.5246225817189
 30
0.0
 10
444.7659564322071
 20
516.699993666818
 30
0.0
 10
444.8160197016384
 20
516.9354315246836
 30
0.0
 10
445.2390037580892
 20
517.3277421256096
 30
0.0
 10
445.0082992232718
 20
517.3110653024538
 30
0.0
 10
444.8855923818517
 20
517.3172074216511
 30
0.0
 10
444.7131721054836
 20
517.3076404591588
 30
0.0
 10
444.6019462653625
 20
517.32900041706
 30
0.0
 10
444.4832017586624
 20
517.2958748857375
 30
0.0
 10
444.4989407665863
 20
517.3765512382321
 30
0.0
 10
444.4984788892938
 20
517.4209663750717
 30
0.0
 10
444.4834119849107
 20
517.5041830499484
 30
0.0
 10
444.6178618894619
 20
517.4651387520018
 30
0.0
 10
444.7425993504924
 20
517.4919095254472
 30
0.0
 10
444.9434993196455
 20
517.4751517226036
 30
0.0
 10
445.0727778908529
 20
517.4965544912932
 30
0.0
 10
445.213465788747
 20
517.4632000206974
 30
0.0
 10
445.1787165411791
 20
517.6010309900138
 30
0.0
 10
445.2028423625889
 20
517.7241448056582
 30
0.0
 10
445.1773324141568
 20
517.8447527888663
 30
0.0
 10
445.2139489105862
 20
517.9799108835784
 30
0.0
 10
445.1017654986945
 20
517.955457689982
 30
0.0
 10
445.0086594416313
 20
517.9675897305835
 30
0.0
 10
444.8997785538996
 20
517.9640885328635
 30
0.0
 10
444.837593560014
 20
517.9643297916792
 30
0.0
 10
444.8181607516422
 20
517.9644051834048
 30
0.0
 11
446.0328109651009
 21
517.3143151141228
 31
0.0
 11
445.9729859523158
 21
517.3143151141228
 31
0.0
 11
445.8303263064435
 21
517.3143151141227
 31
0.0
 11
445.6600551162089
 21
517.3143151141228
 31
0.0
 11
445.5173954703367
 21
517.3143151141228
 31
0.0
 11
445.4575704575516
 21
517.3143151141228
 31
0.0
 11
445.6486198714018
 21
517.0115635118322
 31
0.0
 11
445.8747510744806
 21
516.7350311379302
 31
0.0
 11
446.1050764132547
 21
516.5251247670979
 31
0.0
 11
446.032783428988
 21
516.4591762688503
 31
0.0
 11
445.9685602361818
 21
516.3832728226889
 31
0.0
 11
445.6539056174734
 21
516.7334268156568
 31
0.0
 11
445.3692878209153
 21
517.1858951835993
 31
0.0
 11
445.3692878209153
 21
517.1082148235365
 31
0.0
 11
445.3692878209153
 21
516.9140139233792
 31
0.0
 11
445.3692878209153
 21
516.6615527531749
 31
0.0
 11
445.3692878209152
 21
516.4090915829705
 31
0.0
 11
445.3692878209153
 21
516.2148906828133
 31
0.0
 11
445.3692878209153
 21
516.1372103227504
 31
0.0
 11
445.3235139254782
 21
516.1372103227504
 31
0.0
 11
445.2385052625235
 21
516.1372103227504
 31
0.0
 11
445.1927313670863
 21
516.1372103227504
 31
0.0
 11
445.1927313670863
 21
516.2131045819907
 31
0.0
 11
445.1927313670863
 21
516.4028402300913
 31
0.0
 11
445.1927313670863
 21
516.6494965726223
 31
0.0
 11
445.1927313670863
 21
516.8961529151532
 31
0.0
 11
445.1927313670863
 21
517.0858885632539
 31
0.0
 11
445.1927313670863
 21
517.1617828224942
 31
0.0
 11
444.8793864358443
 21
516.6889216941402
 31
0.0
 11
444.5158566621324
 21
516.332464003257
 31
0.0
 11
444.4580165420804
 21
516.4070467376134
 31
0.0
 11
444.3901090264517
 21
516.4715554615557
 31
0.0
 11
444.6556959857495
 21
516.6912344301222
 31
0.0
 11
444.9040002931237
 21
516.9840461918802
 31
0.0
 11
445.1071220764436
 21
517.3143151141228
 31
0.0
 11
445.0434089611897
 21
517.3143151141228
 31
0.0
 11
444.8914776863535
 21
517.3143151141228
 31
0.0
 11
444.7101403583231
 21
517.3143151141228
 31
0.0
 11
444.5582090834869
 21
517.3143151141228
 31
0.0
 11
444.494495968233
 21
517.3143151141228
 31
0.0
 11
444.4944959682331
 21
517.3580128481653
 31
0.0
 11
444.494495968233
 21
517.4391657828157
 31
0.0
 11
444.494495968233
 21
517.4828635168583
 31
0.0
 11
444.5671124497138
 21
517.4828635168583
 31
0.0
 11
444.7402748286294
 21
517.4828635168583
 31
0.0
 11
444.94695250669
 21
517.4828635168583
 31
0.0
 11
445.1201148856056
 21
517.4828635168583
 31
0.0
 11
445.1927313670863
 21
517.4828635168583
 31
0.0
 11
445.1927313670863
 21
517.5581044022562
 31
0.0
 11
445.1927313670863
 21
517.7236343501315
 31
0.0
 11
445.1927313670863
 21
517.8891642980069
 31
0.0
 11
445.1927313670863
 21
517.9644051834048
 31
0.0
 11
445.1342047084232
 21
517.9644051834048
 31
0.0
 11
445.0054460593643
 21
517.9644051834048
 31
0.0
 11
444.8766874103054
 21
517.9644051834048
 31
0.0
 11
444.8181607516422
 21
517.9644051834048
 31
0.0
  0
SPLINE
  5
B7
102
{ACAD_REACTORS
330
D3
102
}
330
48
100
AcDbEntity
  8
_U_30EC_U_30A4_U_30E4_U_30FC_1
  6
Continuous
 62
     2
100
AcDbSpline
210
0.0
220
0.0
230
1.0
 70
     8
 71
     3
 72
    70
 73
    66
 74
    64
 42
0.000000001
 43
0.0000000001
 44
0.00000001
 40
0.0
 40
0.0
 40
0.0
 40
0.0
 40
0.0241731073021472
 40
0.0846058988987013
 40
0.1631685280352715
 40
0.2417311571788903
 40
0.3021639488291614
 40
0.3263370654894973
 40
0.3533118254249538
 40
0.4228783438921951
 40
0.517999909531342
 40
0.6216398239466813
 40
0.7167613891499528
 40
0.7863279069649721
 40
0.8133026791762191
 40
0.8372943998772076
 40
0.894505426137354
 40
0.9627895541963867
 40
1.020000580349167
 40
1.043992300975355
 40
1.071934345523143
 40
1.113121768773126
 40
1.145225199332471
 40
1.225483775412967
 40
1.329819923771665
 40
1.434156071994507
 40
1.514414647796015
 40
1.546518078208478
 40
1.578974764260194
 40
1.662678849314104
 40
1.77713137366841
 40
1.901833377474772
 40
2.01628590050059
 40
2.099989982527872
 40
2.132446666570231
 40
2.158782354485779
 40
2.216720867907624
 40
2.274659381333904
 40
2.300995069255932
 40
2.333451754065961
 40
2.417155836543613
 40
2.531608358985024
 40
2.656310362283491
 40
2.770762886388595
 40
2.854466971339732
 40
2.886923657363538
 40
2.913597976832945
 40
2.98238964287482
 40
3.076451716946806
 40
3.178937260458226
 40
3.272999334739736
 40
3.341791001059007
 40
3.36846532066336
 40
3.396976080738638
 40
3.472140811845875
 40
3.57840819030845
 40
3.700226892456
 40
3.822045594634075
 40
3.928312973256154
 40
4.003477705314608
 40
4.031988456866674
 40
4.058324144797456
 40
4.116262658236582
 40
4.174201171400244
 40
4.200536849608187
 40
4.200536849608187
 40
4.200536849608187
 40
4.200536849608187
 10
444.8663942920786
 20
518.1329535861403
 30
0.0
 10
444.8744497503856
 20
518.1329558302801
 30
0.0
 10
444.9026438622417
 20
518.1329636924911
 30
0.0
 10
444.9571772762849
 20
518.132819780447
 30
0.0
 10
445.028912976778
 20
518.1336034371622
 30
0.0
 10
445.1042478096239
 20
518.1307879368015
 30
0.0
 10
445.1519290325615
 20
518.1374962661727
 30
0.0
 10
445.2001309204793
 20
518.1264878690876
 30
0.0
 10
445.186880975905
 20
518.1799762621336
 30
0.0
 10
445.1957331923714
 20
518.2350080675942
 30
0.0
 10
445.1914935995461
 20
518.3287113194243
 30
0.0
 10
445.1939721440457
 20
518.4241070543485
 30
0.0
 10
445.1897176665236
 20
518.5180804519971
 30
0.0
 10
445.1986056625022
 20
518.5724628565436
 30
0.0
 10
445.1853215369122
 20
518.6268522090778
 30
0.0
 10
445.2320357236284
 20
518.6129343955167
 30
0.0
 10
445.2749492504913
 20
518.6155510059037
 30
0.0
 10
445.3411681415862
 20
518.6109964566708
 30
0.0
 10
445.3819580230975
 20
518.6022938535049
 30
0.0
 10
445.4331383649997
 20
518.6098302310653
 30
0.0
 10
445.4059958446376
 20
518.568011934396
 30
0.0
 10
445.3609334014884
 20
518.5773621528892
 30
0.0
 10
445.3748303004226
 20
518.5129243058815
 30
0.0
 10
445.3664652390831
 20
518.4482944284372
 30
0.0
 10
445.3709870137575
 20
518.3498036441019
 30
0.0
 10
445.3660979270344
 20
518.2504715605888
 30
0.0
 10
445.3756496951256
 20
518.1874433876927
 30
0.0
 10
445.3605999414379
 20
518.1241523471613
 30
0.0
 10
445.4255397416385
 20
518.1396629616057
 30
0.0
 10
445.4922484358675
 20
518.1295061091415
 30
0.0
 10
445.6047673430003
 20
518.1344002331568
 30
0.0
 10
445.7196473408131
 20
518.1314242794912
 30
0.0
 10
445.8326109958923
 20
518.136728874013
 30
0.0
 10
445.8982505556853
 20
518.1255852968843
 30
0.0
 10
445.9622514650227
 20
518.1419575553616
 30
0.0
 10
445.9509380848367
 20
518.0921291312161
 30
0.0
 10
445.9581577830686
 20
518.0486793842846
 30
0.0
 10
445.9509380570445
 20
518.0052296880376
 30
0.0
 10
445.962251513517
 20
517.9554011841321
 30
0.0
 10
445.8982501558148
 20
517.971773893077
 30
0.0
 10
445.8326159199635
 20
517.9606249487791
 30
0.0
 10
445.7196212276506
 20
517.9659608042318
 30
0.0
 10
445.6048694507821
 20
517.9628556888017
 30
0.0
 10
445.4919421646038
 20
517.968161178989
 30
0.0
 10
445.4261458862761
 20
517.9570852323592
 30
0.0
 10
445.3622335934535
 20
517.9733882106394
 30
0.0
 10
445.3742253124302
 20
517.9187474761208
 30
0.0
 10
445.3668342572183
 20
517.8630551826418
 30
0.0
 10
445.369892280116
 20
517.7710091235688
 30
0.0
 10
445.3699660744859
 20
517.6763033308941
 30
0.0
 10
445.3666551537536
 20
517.584040061186
 30
0.0
 10
445.3745743949079
 20
517.5288699195245
 30
0.0
 10
445.3621314570794
 20
517.4750939231645
 30
0.0
 10
445.4195354510808
 20
517.4890499207906
 30
0.0
 10
445.4800946099561
 20
517.4796268110057
 30
0.0
 10
445.5854918814258
 20
517.4839410914501
 30
0.0
 10
445.7010532029798
 20
517.4828672782835
 30
0.0
 10
445.8165926836973
 20
517.481771891173
 30
0.0
 10
445.9220419090016
 20
517.4861374898694
 30
0.0
 10
445.982491843098
 20
517.4766064924698
 30
0.0
 10
446.0399075698285
 20
517.4906851282268
 30
0.0
 10
446.0284011835884
 20
517.4415837648199
 30
0.0
 10
446.0343804740926
 20
517.4001588123496
 30
0.0
 10
446.0326549009978
 20
517.3510290118305
 30
0.0
 10
446.0327738082146
 20
517.3230565166392
 30
0.0
 10
446.0328109651009
 20
517.3143151141228
 30
0.0
 11
444.8663942920786
 21
518.1329535861403
 31
0.0
 11
444.8905674087458
 21
518.1329535861403
 31
0.0
 11
444.9510002004139
 21
518.1329535861403
 31
0.0
 11
445.0295628295825
 21
518.1329535861403
 31
0.0
 11
445.108125458751
 21
518.1329535861403
 31
0.0
 11
445.168558250419
 21
518.1329535861403
 31
0.0
 11
445.1927313670863
 21
518.1329535861403
 31
0.0
 11
445.1927313670863
 21
518.1599283583639
 31
0.0
 11
445.1927313670863
 21
518.2294948762036
 31
0.0
 11
445.1927313670863
 21
518.3246164414131
 31
0.0
 11
445.1927313670864
 21
518.4282563557459
 31
0.0
 11
445.1927313670863
 21
518.5233779209552
 31
0.0
 11
445.1927313670863
 21
518.592944438795
 31
0.0
 11
445.1927313670863
 21
518.6199192110187
 31
0.0
 11
445.2166645564068
 21
518.6182443632413
 31
0.0
 11
445.2737360078634
 21
518.6142504954645
 31
0.0
 11
445.3418535466987
 21
518.6094836210212
 31
0.0
 11
445.3989249981553
 21
518.6054897532445
 31
0.0
 11
445.4228581874758
 21
518.6038149054671
 31
0.0
 11
445.4081210690406
 21
518.5800751658896
 31
0.0
 11
445.3692878209153
 21
518.5663499054763
 31
0.0
 11
445.3692878209152
 21
518.5342464744143
 31
0.0
 11
445.3692878209153
 21
518.4539878967595
 31
0.0
 11
445.3692878209153
 21
518.3496517458083
 31
0.0
 11
445.3692878209152
 21
518.245315594857
 31
0.0
 11
445.3692878209152
 21
518.1650570172021
 31
0.0
 11
445.3692878209153
 21
518.1329535861403
 31
0.0
 11
445.4017445070001
 21
518.1329535861403
 31
0.0
 11
445.4854485921662
 21
518.1329535861403
 31
0.0
 11
445.5999011167811
 21
518.1329535861403
 31
0.0
 11
445.7246031212122
 21
518.1329535861403
 31
0.0
 11
445.8390556458271
 21
518.1329535861403
 31
0.0
 11
445.9227597309932
 21
518.1329535861403
 31
0.0
 11
445.955216417078
 21
518.1329535861403
 31
0.0
 11
445.955216417078
 21
518.1066178982129
 31
0.0
 11
445.9552164170781
 21
518.0486793847725
 31
0.0
 11
445.955216417078
 21
517.9907408713323
 31
0.0
 11
445.955216417078
 21
517.9644051834048
 31
0.0
 11
445.9227597309932
 21
517.9644051834048
 31
0.0
 11
445.8390556458271
 21
517.9644051834048
 31
0.0
 11
445.7246031212122
 21
517.9644051834048
 31
0.0
 11
445.5999011167811
 21
517.9644051834048
 31
0.0
 11
445.4854485921662
 21
517.9644051834048
 31
0.0
 11
445.4017445070001
 21
517.9644051834048
 31
0.0
 11
445.3692878209153
 21
517.9644051834048
 31
0.0
 11
445.3692878209153
 21
517.9377308636836
 31
0.0
 11
445.3692878209152
 21
517.868939197034
 31
0.0
 11
445.3692878209154
 21
517.7748771222275
 31
0.0
 11
445.3692878209153
 21
517.6723915780356
 31
0.0
 11
445.3692878209152
 21
517.578329503229
 31
0.0
 11
445.3692878209152
 21
517.5095378365795
 31
0.0
 11
445.3692878209153
 21
517.4828635168583
 31
0.0
 11
445.397798581017
 21
517.4828635168582
 31
0.0
 11
445.4729633121943
 21
517.4828635168583
 31
0.0
 11
445.5792306907553
 21
517.4828635168583
 31
0.0
 11
445.7010493930081
 21
517.4828635168583
 31
0.0
 11
445.8228680952609
 21
517.4828635168583
 31
0.0
 11
445.9291354738219
 21
517.4828635168583
 31
0.0
 11
446.0043002049992
 21
517.4828635168583
 31
0.0
 11
446.0328109651009
 21
517.4828635168583
 31
0.0
 11
446.0328109651009
 21
517.4565278289308
 31
0.0
 11
446.0328109651009
 21
517.3985893154905
 31
0.0
 11
446.0328109651009
 21
517.3406508020503
 31
0.0
 11
446.0328109651009
 21
517.3143151141228
 31
0.0
  0
SPLINE
  5
B8
102
{ACAD_REACTORS
330
D3
102
}
330
48
100
AcDbEntity
  8
_U_30EC_U_30A4_U_30E4_U_30FC_1
  6
Continuous
 62
     2
100
AcDbSpline
210
0.0
220
0.0
230
1.0
 70
     8
 71
     3
 72
    24
 73
    20
 74
    18
 42
0.000000001
 43
0.0000000001
 44
0.00000001
 40
0.0
 40
0.0
 40
0.0
 40
0.0
 40
0.2211075008753202
 40
0.4273218586246217
 40
0.508017467924035
 40
0.5914835907872358
 40
0.8143265690194474
 40
1.054651302686811
 40
1.295452694023351
 40
1.518109231329029
 40
1.540864321905702
 40
1.595126460622927
 40
1.659890947896338
 40
1.714153085187531
 40
1.73690817496191
 40
1.764951100735659
 40
1.801562291221174
 40
1.95391442454386
 40
2.126104167379862
 40
2.126104167379862
 40
2.126104167379862
 40
2.126104167379862
 10
444.8181607516065
 20
517.9644051832934
 30
0.0
 10
444.7918817040987
 20
517.9054885145069
 30
0.0
 10
444.7410936853603
 20
517.791623628956
 30
0.0
 10
444.6938022798286
 20
517.5189318144937
 30
0.0
 10
444.5849720761796
 20
517.6189670579181
 30
0.0
 10
444.4321038238812
 20
517.6456981658363
 30
0.0
 10
444.6492393140376
 20
517.8596935823398
 30
0.0
 10
444.6644721633556
 20
518.077833409988
 30
0.0
 10
444.7713127451174
 20
518.2590280228276
 30
0.0
 10
444.7111618906258
 20
518.5436444952777
 30
0.0
 10
444.8140555354578
 20
518.5156531243878
 30
0.0
 10
444.8586171427326
 20
518.5069447481865
 30
0.0
 10
444.9187080354574
 20
518.4959087739967
 30
0.0
 10
444.9562857546613
 20
518.4821874627187
 30
0.0
 10
445.0058704887783
 20
518.4820729937654
 30
0.0
 10
444.9736396878501
 20
518.4475781561492
 30
0.0
 10
444.8978040181057
 20
518.4585532775429
 30
0.0
 10
444.9235685118869
 20
518.2731019279876
 30
0.0
 10
444.8862134723026
 20
518.1815353676592
 30
0.0
 10
444.8663942920786
 20
518.1329535861403
 30
0.0
 11
444.8181607516065
 21
517.9644051832934
 31
0.0
 11
444.7422709287728
 21
517.7567293153488
 31
0.0
 11
444.6523640197609
 21
517.571146155725
 31
0.0
 11
444.5817731882286
 21
517.6102449577988
 31
0.0
 11
444.5051763151827
 21
517.6434038640405
 31
0.0
 11
444.6020264906631
 21
517.8441002441987
 31
0.0
 11
444.6800879426647
 21
518.0713938639335
 31
0.0
 11
444.7395954888896
 21
518.3047265982502
 31
0.0
 11
444.7807839470402
 21
518.5235403221538
 31
0.0
 11
444.8030421781391
 21
518.5188111243772
 31
0.0
 11
444.8561194984516
 21
518.5075338066023
 31
0.0
 11
444.9194698485021
 21
518.4940737821611
 31
0.0
 11
444.9725471688146
 21
518.4827964643862
 31
0.0
 11
444.9948053999134
 21
518.4780672666095
 31
0.0
 11
444.9770335116636
 21
518.4563747405732
 31
0.0
 11
444.9412360957247
 21
518.4486985166168
 31
0.0
 11
444.9088191260656
 21
518.2998351138763
 31
0.0
 11
444.8663942920786
 21
518.1329535861403
 31
0.0
  0
LWPOLYLINE
  5
B9
102
{ACAD_REACTORS
330
D4
102
}
330
48
100
AcDbEntity
  8
_U_30EC_U_30A4_U_30E4_U_30FC_1
  6
Continuous
 62
     2
100
AcDbPolyline
 90
        5
 70
     1
 43
0.0
 10
450.0409209656207
 20
517.7717356001194
 10
451.3384375991848
 20
517.7717356001194
 10
451.3384375991848
 20
517.6032665723837
 10
450.0409209656207
 20
517.6032665723837
 10
450.0409209656207
 20
517.7717356001194
  0
MTEXT
  5
BB
330
48
100
AcDbEntity
  8
1
 62
   250
100
AcDbMText
 10
283.8806237959176
 20
507.3745122321632
 30
0.0
 40
3.5
 41
0.0
 71
     4
 72
     1
  1
備考欄の文字列 原点位置=4
  7
CONVERTER_11
 73
     1
 44
0.54545454545455
  0
MTEXT
  5
BC
330
48
100
AcDbEntity
  8
1
 62
     2
100
AcDbMText
 10
348.3806237959176
 20
526.3745122321632
 30
0.0
 40
3.5
 41
0.0
 71
     5
 72
     1
  1
尺度
  7
CONVERTER_11
 73
     1
 44
0.54545454545455
  0
MTEXT
  5
BD
330
48
100
AcDbEntity
  8
1
 62
     2
100
AcDbMText
 10
394.3806237959176
 20
527.3745122321632
 30
0.0
 40
3.0
 41
0.0
 71
     5
 72
     1
  1
製図
  7
CONVERTER_11
 73
     1
 44
0.59090909090909
  0
MTEXT
  5
BE
330
48
100
AcDbEntity
  8
1
 62
     2
100
AcDbMText
 10
411.3806237959176
 20
527.3745122321632
 30
0.0
 40
3.0
 41
0.0
 71
     5
 72
     1
  1
設計
  7
CONVERTER_11
 73
     1
 44
0.59090909090909
  0
MTEXT
  5
BF
330
48
100
AcDbEntity
  8
1
 62
     2
100
AcDbMText
 10
377.3806237959176
 20
527.3745122321632
 30
0.0
 40
3.0
 41
0.0
 71
     5
 72
     1
  1
検図
  7
CONVERTER_11
 73
     1
 44
0.59090909090909
  0
MTEXT
  5
C0
330
48
100
AcDbEntity
  8
1
 62
     2
100
AcDbMText
 10
433.8806237959176
 20
525.8745122321632
 30
0.0
 40
3.5
 41
0.0
 71
     5
 72
     1
  1
第三角法
  7
CONVERTER_11
 73
     1
 44
0.54545454545455
  0
MTEXT
  5
C1
330
48
100
AcDbEntity
  8
1
 62
     2
100
AcDbMText
 10
360.3806237959176
 20
527.3745122321632
 30
0.0
 40
3.0
 41
0.0
 71
     5
 72
     1
  1
承認
  7
CONVERTER_11
 73
     1
 44
0.59090909090909
  0
MTEXT
  5
C2
330
48
100
AcDbEntity
  8
1
 62
     2
100
AcDbMText
 10
287.8806237959176
 20
516.6245122321632
 30
0.0
 40
3.5
 41
0.0
 71
     5
 72
     1
  1
品番
  7
CONVERTER_11
 73
     1
 44
0.72727272727273
  0
MTEXT
  5
C3
330
48
100
AcDbEntity
  8
1
 62
     2
100
AcDbMText
 10
287.8806237959176
 20
525.1245122321632
 30
0.0
 40
3.5
 41
0.0
 71
     5
 72
     1
  1
品名
  7
CONVERTER_11
 73
     1
 44
0.72727272727273
  0
MTEXT
  5
C4
330
48
100
AcDbEntity
  8
1
 62
     2
100
AcDbMText
 10
287.8806237959176
 20
536.3745122321632
 30
0.0
 40
3.5
 41
0.0
 71
     5
 72
     1
  1
備考
  7
CONVERTER_11
 73
     1
 44
0.45454545454545
  0
MTEXT
  5
C5
330
48
100
AcDbEntity
  8
1
 62
     2
100
AcDbMText
 10
291.3806237959176
 20
784.3745122321634
 30
0.0
 40
5.0
 41
0.0
 71
     5
 72
     1
  1
図番
  7
CONVERTER_11
 73
     1
 44
0.45454545454545
  0
HATCH
  5
C6
330
48
100
AcDbEntity
  8
1
  6
Continuous
 62
     2
100
AcDbHatch
 10
0.0
 20
0.0
 30
0.0
210
0.0
220
0.0
230
1.0
  2
CUSTOM0
 70
     0
 71
     1
 91
        1
 92
        1
 93
        1
 72
     4
 94
        3
 73
     0
 74
     0
 95
       99
 96
       95
 40
0.0
 40
0.0
 40
0.0
 40
0.0
 40
0.0796417172271533
 40
0.1621768542355079
 40
0.2486489160956092
 40
0.3404969668524342
 40
0.4381912511164476
 40
0.54344636602444
 40
0.6518115192845573
 40
0.753019093788637
 40
0.8492196919724537
 40
0.9419290312997262
 40
1.034249663569943
 40
1.129078600620072
 40
1.226697027573248
 40
1.327220425421589
 40
1.470572134938078
 40
1.595489863371227
 40
1.719934125348316
 40
1.85057662012741
 40
1.989059629987283
 40
2.134139054226825
 40
2.280698007207152
 40
2.424529739039319
 40
2.565929576985847
 40
2.708239260773527
 40
2.861717887443609
 40
3.045168540347359
 40
3.183798301138627
 40
3.314813961455359
 40
3.442083470447284
 40
3.569912708372861
 40
3.702177512509351
 40
3.842307559659587
 40
3.992872223245906
 40
4.156750662218238
 40
4.310981861107419
 40
4.445859909322498
 40
4.572393936131528
 40
4.701656719781986
 40
4.768279086008552
 40
4.83596069789858
 40
4.912788918729464
 40
5.006285208481514
 40
5.026909478751675
 40
5.047533749021155
 40
5.101808031471078
 40
5.162325165538513
 40
5.226919745995816
 40
5.294231806596741
 40
5.364544852554828
 40
5.438319055467893
 40
5.51787765132417
 40
5.607647714861567
 40
5.700449642544323
 40
5.788251142364069
 40
5.872714706039706
 40
5.955167292575164
 40
6.037192395190267
 40
6.120669181468998
 40
6.206848616686113
 40
6.296680855416676
 40
6.442558392872477
 40
6.568190371608151
 40
6.692904567360299
 40
6.824220446557122
 40
6.963121850329295
 40
7.107843738851109
 40
7.253431663907254
 40
7.395187468036759
 40
7.533140753237743
 40
7.670550457175263
 40
7.816236511769119
 40
7.987691657359105
 40
8.142277421969114
 40
8.293662615415043
 40
8.442962460879176
 40
8.59159831618525
 40
8.743678992361652
 40
8.90372532369913
 40
9.07630700889047
 40
9.265578604680583
 40
9.459203795360759
 40
9.617619810273581
 40
9.753609671361941
 40
9.87487330000394
 40
9.95452018497777
 40
10.02416413719239
 40
10.09769764405434
 40
10.18909955924975
 40
10.20974586420128
 40
10.23039218263379
 40
10.30057101881261
 40
10.3763201298755
 40
10.3763201298755
 40
10.3763201298755
 40
10.3763201298755
 10
429.0272192795027
 20
516.5124688643232
 10
429.0438455810394
 20
516.4917183206164
 10
429.0777022165755
 20
516.4494633492823
 10
429.1406060500211
 20
516.3948103460843
 10
429.2138738899569
 20
516.3475024833738
 10
429.2982207197812
 20
516.3097845465427
 10
429.3938478574636
 20
516.2849184294828
 10
429.4978091734521
 20
516.2776078256229
 10
429.603025817958
 20
516.2859354601038
 10
429.7012864330509
 20
516.3160040286784
 10
429.7865224386724
 20
516.3630004618822
 10
429.8585458165279
 20
516.4240421446716
 10
429.9157155668271
 20
516.4986419279489
 10
429.9574106706618
 20
516.584536878765
 10
429.9833190805468
 20
516.6793707364852
 10
429.9924275291828
 20
516.7930620225469
 10
429.9793102755664
 20
516.9178381098711
 10
429.9131568293587
 20
517.034659423882
 10
429.8175608878747
 20
517.1196376279371
 10
429.7055918981544
 20
517.188679076755
 10
429.5799897542445
 20
517.2465536526222
 10
429.4462929580031
 20
517.2982494650064
 10
429.3119360778008
 20
517.353503156135
 10
429.1858221946054
 20
517.4239099385798
 10
429.0732817946709
 20
517.5123676394755
 10
428.9776201023635
 20
517.624322910848
 10
428.9140395111
 20
517.7740113331771
 10
428.9006944464192
 20
517.9338401760145
 10
428.9126748946625
 20
518.0849962852317
 10
428.9518536888017
 20
518.2126046780784
 10
429.0161225710086
 20
518.3253209724717
 10
429.1044442958916
 20
518.4209983248498
 10
429.2144329166802
 20
518.4980543820207
 10
429.3438522360443
 20
518.5560262015259
 10
429.491807692697
 20
518.5919040080515
 10
429.6488307414662
 20
518.6019794226688
 10
429.7981178425605
 20
518.5931486097892
 10
429.9402491573346
 20
518.5652612255668
 10
430.0402160568802
 20
518.5086453791746
 10
430.1931312695361
 20
518.4612582532181
 10
430.1261369676346
 20
518.3764877621752
 10
430.1102717079445
 20
518.3089012508979
 10
430.0784988490473
 20
518.243773160095
 10
430.0956440168748
 20
518.1417467647332
 10
430.0472665167408
 20
518.1494443489822
 10
430.0122027399943
 20
518.1425799494115
 10
430.0102935944896
 20
518.2071505437452
 10
429.9791930891163
 20
518.2527686283771
 10
429.9470789587632
 20
518.3101225984478
 10
429.9014276434344
 20
518.359916859089
 10
429.8464746177561
 20
518.4044603693529
 10
429.7817079132183
 20
518.4421521205286
 10
429.7038615269772
 20
518.4673459900769
 10
429.6161398512529
 20
518.4738245421443
 10
429.5259141236981
 20
518.4668693250194
 10
429.440083265324
 20
518.4436041367725
 10
429.3634581597774
 20
518.4058286732385
 10
429.2971503595375
 20
518.3550286430591
 10
429.2428798496143
 20
518.2918236662356
 10
429.2031163304635
 20
518.2172767892667
 10
429.1783013469763
 20
518.1336853721411
 10
429.1698362222045
 20
518.026441715986
 10
429.1825935946278
 20
517.9041668048388
 10
429.2487786368451
 20
517.7860094750754
 10
429.3447215359008
 20
517.7005754892584
 10
429.4564152922358
 20
517.6303458552303
 10
429.5817101627879
 20
517.5711038552163
 10
429.7156061900623
 20
517.5206793130244
 10
429.8496168292327
 20
517.4677374020071
 10
429.9757123276091
 20
517.402013938415
 10
430.0882454597593
 20
517.3193157575363
 10
430.1837608243409
 20
517.2144722952639
 10
430.2478944446137
 20
517.073883404679
 10
430.2617341684455
 20
516.9151663266791
 10
430.2480192671405
 20
516.756043784342
 10
430.2050977113162
 20
516.6093505203552
 10
430.135214428824
 20
516.4757101980347
 10
430.0380830173007
 20
516.359836109156
 10
429.9154043982833
 20
516.2654120498642
 10
429.7680646372343
 20
516.196304938683
 10
429.5983370456301
 20
516.1540443407515
 10
429.4123642938773
 20
516.1423295944672
 10
429.2335193885359
 20
516.1526070989974
 10
429.0687971712919
 20
516.1941779698549
 10
428.9640648800233
 20
516.2624886610027
 10
428.8157198749542
 20
516.3112644224842
 10
428.8786616153905
 20
516.4042781450717
 10
428.8878512389238
 20
516.4774775946461
 10
428.9109949260406
 20
516.5438751771767
 10
428.8840826294494
 20
516.644260327439
 10
428.9327576915515
 20
516.6368525673371
 10
428.9722768539872
 20
516.6434528683722
 10
428.9802442903878
 20
516.5652992643526
 10
429.0111674927099
 20
516.5305215059219
 10
429.0272192795027
 20
516.5124688643232
 97
        1
330
A8
 75
     1
 76
     2
 52
45.0
 41
0.1
 77
     0
 78
     1
 53
45.0
 43
0.0
 44
0.0
 45
-0.282842712474619
 46
0.0
 79
     0
 98
        1
 10
0.0
 20
0.0
  0
HATCH
  5
C7
330
48
100
AcDbEntity
  8
1
  6
Continuous
 62
     2
100
AcDbHatch
 10
0.0
 20
0.0
 30
0.0
210
0.0
220
0.0
230
1.0
  2
CUSTOM1
 70
     0
 71
     1
 91
        2
 92
        1
 93
        1
 72
     4
 94
        3
 73
     0
 74
     0
 95
       57
 96
       53
 40
0.0
 40
0.0
 40
0.0
 40
0.0
 40
0.0471632082808116
 40
0.0914861054631933
 40
0.13577625197016
 40
0.1826527001610747
 40
0.2295203288572656
 40
0.2737751972220257
 40
0.3181310461543434
 40
0.3652607198398111
 40
0.4571007286312697
 40
0.5671851029164172
 40
0.6894623283866709
 40
0.8181758272544005
 40
0.9510087229271733
 40
1.085852229673963
 40
1.218126164475259
 40
1.343545131142267
 40
1.45453720295674
 40
1.567187607530775
 40
1.680710966642395
 40
1.794226869736674
 40
1.900009184247531
 40
2.004085860447784
 40
2.108162674451611
 40
2.214000150155214
 40
2.496038577352147
 40
2.762350745479164
 40
2.99727535327915
 40
3.185110082137551
 40
3.246407890063701
 40
3.31260755021252
 40
3.378877742711395
 40
3.440140399651229
 40
4.100501696006154
 40
4.754913085563151
 40
5.411331693423607
 40
6.077890432568301
 40
6.11057529267058
 40
6.14326015277536
 40
6.36798936339464
 40
6.610525374951044
 40
6.863389136466939
 40
7.119380025547271
 40
7.376036605090786
 40
7.631164770965787
 40
7.876722425455925
 40
8.104953735855426
 40
8.312916685923959
 40
8.497730294940776
 40
8.651018984313385
 40
8.764738853624035
 40
8.764738853624035
 40
8.764738853624035
 40
8.764738853624035
 10
433.6728887459689
 20
516.1907796282926
 10
433.6572854686107
 20
516.192774542954
 10
433.6270185919479
 20
516.196644245766
 10
433.5817232161428
 20
516.1979320818359
 10
433.5365791088526
 20
516.1975990677037
 10
433.4905255082576
 20
516.1976588189054
 10
433.4446734131272
 20
516.1977703686632
 10
433.3989949607339
 20
516.1972905667291
 10
433.3557049500785
 20
516.1991233283504
 10
433.284618591069
 20
516.1750078003101
 10
433.2863715220617
 20
516.2963591719358
 10
433.2392434329745
 20
516.3817746296754
 10
433.1997716210939
 20
516.4993815256146
 10
433.1512873491822
 20
516.6168397575677
 10
433.1007255361696
 20
516.7385715897782
 10
433.0524872569653
 20
516.8652719107879
 10
432.9941470906771
 20
516.9738491100129
 10
432.9787130626436
 20
517.1307188035073
 10
432.8372824289812
 20
517.0982466976466
 10
432.7314635374079
 20
517.1096411189849
 10
432.6164807684398
 20
517.1084381473095
 10
432.5059380211316
 20
517.1095816856374
 10
432.3982821481958
 20
517.1086957325385
 10
432.2927560488419
 20
517.1086782560683
 10
432.1915430641189
 20
517.1016525568875
 10
432.0073042786927
 20
517.1258708307615
 10
431.9963631644587
 20
516.8219291433822
 10
431.8893929593927
 20
516.5980440046972
 10
431.7904386563522
 20
516.4134653750883
 10
431.8031328483185
 20
516.1698142802057
 10
431.6856329675572
 20
516.1995926996948
 10
431.6228293827488
 20
516.1970931272594
 10
431.5592110052575
 20
516.197952983191
 10
431.2752252153257
 20
516.1554926315846
 10
431.9057876458556
 20
516.8753317566105
 10
431.9893883248248
 20
517.3872776265205
 10
432.3735490748512
 20
517.9080496676639
 10
432.3583446247744
 20
518.6097084946946
 10
432.6045503681873
 20
518.5979685629758
 10
432.7062584116736
 20
518.6067622766907
 10
432.7055989994993
 20
518.3551087394668
 10
432.8234555115004
 20
518.1726924395027
 10
432.9121753219661
 20
517.9301496387918
 10
433.0128530444435
 20
517.6979125374644
 10
433.1117380671418
 20
517.4612586778322
 10
433.2105914949845
 20
517.2291296238641
 10
433.3062404350103
 20
517.0057344600514
 10
433.3966142532447
 20
516.7972377226563
 10
433.4796182527365
 20
516.6075967174564
 10
433.5532326541975
 20
516.4411432928442
 10
433.614905385472
 20
516.3036892284242
 10
433.6555696844781
 20
516.2245046264636
 10
433.6728887459689
 20
516.1907796282926
 97
        1
330
A9
 92
       16
 93
        1
 72
     4
 94
        3
 73
     0
 74
     0
 95
       25
 96
       21
 40
0.0
 40
0.0
 40
0.0
 40
0.0
 40
0.0911479969064239
 40
0.1858117896203565
 40
0.2804128399734518
 40
0.3715889190713401
 40
0.4679080494217601
 40
0.5642683809229558
 40
0.6605683222644163
 40
0.7569653015809408
 40
0.8561348172522477
 40
1.092615965104234
 40
1.374867658141901
 40
1.611348812011645
 40
1.71051832842535
 40
1.809403163726799
 40
2.045205463294208
 40
2.326646917622274
 40
2.562449217190869
 40
2.661334043834139
 40
2.661334043834139
 40
2.661334043834139
 40
2.661334043834139
 10
432.1489938526376
 20
517.2606576141361
 10
432.1793763877099
 20
517.2604930293087
 10
432.2413133848288
 20
517.2601575190627
 10
432.3347594919505
 20
517.2572027866828
 10
432.4281333195534
 20
517.2542897609349
 10
432.5223998712652
 20
517.2534542485971
 10
432.6161202750142
 20
517.2544786787437
 10
432.7158278262382
 20
517.2536820068732
 10
432.7995187505489
 20
517.2637263345155
 10
432.9444234274221
 20
517.2368584089047
 10
432.8202370403978
 20
517.4111675349639
 10
432.7772105245457
 20
517.571029342224
 10
432.6615160101384
 20
517.8296968176653
 10
432.5823803390433
 20
517.966822760782
 10
432.5237814580992
 20
518.1838825635041
 10
432.4671041898613
 20
517.9671735742976
 10
432.3859047859652
 20
517.8277823565456
 10
432.2869939240663
 20
517.5785819258651
 10
432.2059863053437
 20
517.3937705344239
 10
432.1619921285014
 20
517.2910167007244
 10
432.1489938526376
 20
517.2606576141361
 97
        1
330
AA
 75
     1
 76
     2
 52
45.0
 41
0.1
 77
     0
 78
     1
 53
45.0
 43
0.0
 44
0.0
 45
-0.282842712474619
 46
0.0
 79
     0
 98
        1
 10
0.0
 20
0.0
  0
HATCH
  5
C8
330
48
100
AcDbEntity
  8
1
  6
Continuous
 62
     2
100
AcDbHatch
 10
0.0
 20
0.0
 30
0.0
210
0.0
220
0.0
230
1.0
  2
CUSTOM2
 70
     0
 71
     1
 91
        1
 92
        1
 93
        1
 72
     4
 94
        3
 73
     0
 74
     0
 95
       95
 96
       91
 40
0.0
 40
0.0
 40
0.0
 40
0.0
 40
0.6550406656910952
 40
1.308087289031976
 40
1.420803739835882
 40
1.566130759770864
 40
1.757067341888471
 40
2.006513545026389
 40
2.087328263121545
 40
2.185328872295642
 40
2.294612454748354
 40
2.408936380534823
 40
2.526802767798608
 40
2.646360524615679
 40
2.762535723971649
 40
2.870057342870132
 40
2.966883448431711
 40
3.050803243518327
 40
3.115818222436688
 40
3.156030057150178
 40
3.213914225080149
 40
3.27668902645052
 40
3.342960320981297
 40
3.404230667150611
 40
3.453822809493346
 40
3.532499827188242
 40
3.634775188506968
 40
3.754909333008097
 40
3.889736761660612
 40
4.035769602175115
 40
4.187256681197562
 40
4.338733685675911
 40
4.488478734676018
 40
4.634708317831489
 40
4.771493189921181
 40
4.892686571561146
 40
5.199775528944445
 40
5.460353566929526
 40
5.667603142345291
 40
5.814722905404328
 40
5.828990806219626
 40
5.855488336304352
 40
5.869756237118684
 40
6.189796507762511
 40
6.531890469872858
 40
6.883053637016803
 40
7.230512024911192
 40
7.566966656764392
 40
7.885203559707216
 40
8.17288743971906
 40
8.418011594062515
 40
8.443926721190374
 40
8.510760470612846
 40
8.602145393795391
 40
8.701714041646861
 40
8.793098965075083
 40
8.859932715057576
 40
8.885847842603349
 40
9.242301256612429
 40
9.589275455016358
 40
9.921808543163703
 40
10.23479624298428
 40
10.29968150889134
 40
10.35323493887723
 40
10.4015462535511
 40
10.46482922477796
 40
10.55973900668389
 40
10.69239545985587
 40
10.8492035347564
 40
11.01626328594746
 40
11.18672024367423
 40
11.35372582577184
 40
11.50257442292415
 40
11.61866495023261
 40
11.71329869152848
 40
11.82511050573882
 40
11.94464880845688
 40
12.06929242642468
 40
12.19707290435143
 40
12.32562632860515
 40
12.45034565331254
 40
12.56646595170294
 40
12.67099007414619
 40
12.76077625936751
 40
12.82703233506664
 40
12.87429132785975
 40
12.8983199032332
 40
12.92234847860005
 40
13.5398476741031
 40
14.18294284359353
 40
14.18294284359353
 40
14.18294284359353
 40
14.18294284359353
 10
436.1874173607197
 20
517.0834926141804
 10
436.0558257717726
 20
517.1971628181952
 10
435.7930431761907
 20
517.4241571953252
 10
435.2803631400193
 20
518.2666568617256
 10
435.2912892554539
 20
517.9087460079336
 10
435.2847464487166
 20
517.7671861548844
 10
435.2834264590949
 20
517.5687252851561
 10
435.282435556171
 20
517.396015192623
 10
435.2830339711151
 20
517.2531659647392
 10
435.2845232261058
 20
517.1571622862967
 10
435.2861921547648
 20
517.0499672647946
 10
435.2878172913793
 20
516.9361543473391
 10
435.2898667460861
 20
516.818927958209
 10
435.2929403461102
 20
516.701076344493
 10
435.2962577656219
 20
516.5867931053695
 10
435.2999843299456
 20
516.479726250836
 10
435.3023576120601
 20
516.3845863198324
 10
435.3084956847533
 20
516.3000978042203
 10
435.3046022455121
 20
516.2437431051446
 10
435.3261468402255
 20
516.172762456887
 10
435.2487178017793
 20
516.2035390082079
 10
435.1922591199367
 20
516.1946246573392
 10
435.1346733855983
 20
516.2034744161458
 10
435.0496401437649
 20
516.171894484423
 10
435.081595210556
 20
516.2554637920852
 10
435.0796943241715
 20
516.3233383218464
 10
435.0914198006478
 20
516.4268447998073
 10
435.0970479012175
 20
516.5445334883302
 10
435.1044140138117
 20
516.6783983238073
 10
435.1126997660784
 20
516.8221537608896
 10
435.1205089856604
 20
516.9716524605976
 10
435.1263809181833
 20
517.1224377261842
 10
435.1309905777146
 20
517.2715116709476
 10
435.1348870076718
 20
517.4157413637934
 10
435.1376953085741
 20
517.5503512842935
 10
435.1382936714199
 20
517.7392083756366
 10
435.1422261826327
 20
517.9642671752948
 10
435.1248413337677
 20
518.2381831434204
 10
435.1656655301754
 20
518.4023833531487
 10
435.0801391215182
 20
518.6020088468147
 10
435.1466796866864
 20
518.5983668162028
 10
435.1644962232407
 20
518.5986467037718
 10
435.2863039756679
 20
518.6008415061483
 10
435.3887008294637
 20
518.321263419379
 10
435.6386259468532
 20
518.120142317523
 10
435.8676273290285
 20
517.8524383820424
 10
436.1051389172285
 20
517.6009763707871
 10
436.3292328699948
 20
517.364211972777
 10
436.5556954242185
 20
517.106699157994
 10
436.7131925845688
 20
516.9910055827323
 10
436.9278367571853
 20
516.6544837575516
 10
436.9228883933793
 20
516.7791597730792
 10
436.9240169561723
 20
516.8377891515206
 10
436.9235115800692
 20
516.9249488558831
 10
436.923671311729
 20
517.018673663992
 10
436.9236292850494
 20
517.1047019451336
 10
436.9236439999547
 20
517.1660511516183
 10
436.9235944215163
 20
517.3158645473728
 10
436.9265049481986
 20
517.5544083572644
 10
436.9065759000336
 20
517.91937733085
 10
436.9556671895424
 20
518.1825085520973
 10
436.7984189468357
 20
518.5938012816407
 10
436.9568350831597
 20
518.5384950576806
 10
437.0117918437804
 20
518.5365090971651
 10
437.0634125725916
 20
518.5371600146456
 10
437.1519436924543
 20
518.5782075095458
 10
437.1011136262345
 20
518.4314754983932
 10
437.1119627889459
 20
518.3247119517075
 10
437.0972274954024
 20
518.1653692863047
 10
437.090621440538
 20
518.0030428486918
 10
437.082119935909
 20
517.8344374510873
 10
437.0749465161374
 20
517.6726603791984
 10
437.0695301174567
 20
517.5287355467426
 10
437.0677951926823
 20
517.4088871668324
 10
437.0681678631497
 20
517.3013732480683
 10
437.0679894085437
 20
517.1927124786191
 10
437.0683248822317
 20
517.0740479338185
 10
437.069627858136
 20
516.9500638672907
 10
437.071512531075
 20
516.8230951738742
 10
437.0731242414025
 20
516.6960508476735
 10
437.0747641096608
 20
516.5730610770851
 10
437.0768808704926
 20
516.4575215460009
 10
437.077008638154
 20
516.3554212717215
 10
437.0812752355732
 20
516.264610720545
 10
437.0714678044466
 20
516.206648444251
 10
437.0924712730867
 20
516.1396835334835
 10
437.0531877699073
 20
516.14742377183
 10
436.8401545076927
 20
516.1320647736156
 10
436.6442535902361
 20
516.6885428131077
 10
436.3417435590721
 20
516.9500725856484
 10
436.1874173607197
 20
517.0834926141804
 97
        1
330
AB
 75
     1
 76
     2
 52
45.0
 41
0.1
 77
     0
 78
     1
 53
45.0
 43
0.0
 44
0.0
 45
-0.282842712474619
 46
0.0
 79
     0
 98
        1
 10
0.0
 20
0.0
  0
HATCH
  5
C9
330
48
100
AcDbEntity
  8
1
  6
Continuous
 62
     2
100
AcDbHatch
 10
0.0
 20
0.0
 30
0.0
210
0.0
220
0.0
230
1.0
  2
CUSTOM3
 70
     0
 71
     1
 91
        1
 92
        1
 93
        1
 72
     4
 94
        3
 73
     0
 74
     0
 95
      110
 96
      106
 40
0.0
 40
0.0
 40
0.0
 40
0.0
 40
0.2203406257278577
 40
0.4407808782838809
 40
0.5952494494615503
 40
0.7488431659394071
 40
0.902358183130891
 40
1.056801968670504
 40
1.210736449099949
 40
1.363041386539743
 40
1.515315729683138
 40
1.669377239148034
 40
1.721611652756448
 40
1.773199502942843
 40
1.824933793210002
 40
1.877110426487902
 40
1.982682281206665
 40
2.078781667087449
 40
2.172809640822228
 40
2.271937807378735
 40
2.378349933379188
 40
2.494131557736401
 40
2.626681683943508
 40
2.783145050795964
 40
2.890701232940941
 40
2.993130312454816
 40
3.099869730691703
 40
3.220237816691268
 40
3.352695482737528
 40
3.481732806389656
 40
3.593499473690348
 40
3.674323013331843
 40
3.817951711952764
 40
3.946167120793789
 40
4.061405053453387
 40
4.166480796003
 40
4.262478775059122
 40
4.350736673551078
 40
4.433071991253998
 40
4.511216293814604
 40
4.564262454117959
 40
4.618474415571513
 40
4.670128488754084
 40
4.722296879126302
 40
4.819540945314176
 40
4.931194984128026
 40
5.049996040257665
 40
5.168643755415211
 40
5.283970811762421
 40
5.392260784910306
 40
5.486512254876351
 40
5.559178233949721
 40
5.591425852853332
 40
5.626215969637727
 40
5.667155838674173
 40
5.717449290213923
 40
5.738402360944494
 40
5.784499116553635
 40
5.830595872164596
 40
5.851548942897554
 40
5.873019280661626
 40
5.92421777840818
 40
5.985325662817419
 40
6.036524160567384
 40
6.057994498333957
 40
6.236847789607288
 40
6.381409928945432
 40
6.493190424178598
 40
6.574067534230276
 40
6.691018086205427
 40
6.814881554220288
 40
6.944307823240269
 40
7.071266716065898
 40
7.193488604461705
 40
7.309042773127961
 40
7.414007203170618
 40
7.505140441886328
 40
7.531150360599598
 40
7.559221645322092
 40
7.587202218920741
 40
7.612569159498949
 40
7.662550809480837
 40
7.702878875763925
 40
7.857328205230705
 40
8.010799568088352
 40
8.165256399657359
 40
8.322232698713641
 40
8.479564855016385
 40
8.635216230290531
 40
8.79088255092548
 40
8.948305154946924
 40
9.168271839032519
 40
9.387358980986784
 40
9.608047961032986
 40
9.832914234792277
 40
9.858338694962647
 40
9.925366817229595
 40
10.02013071422721
 40
10.1287624985896
 40
10.2373942829521
 40
10.33215817995154
 40
10.39918630222349
 40
10.4246107623975
 40
10.64992019336903
 40
10.8718852453114
 40
10.8718852453114
 40
10.8718852453114
 40
10.8718852453114
 10
438.7864026335794
 20
518.1137448361451
 10
438.7899102892717
 20
518.1806768529013
 10
438.7969271946836
 20
518.3145711513216
 10
438.7004265558249
 20
518.5999977818778
 10
438.9316372685287
 20
518.5373560940662
 10
439.0725528016332
 20
518.5445277727232
 10
439.2296655716764
 20
518.5368710629457
 10
439.3832151386464
 20
518.5370397549935
 10
439.5351342894257
 20
518.5363326375176
 10
439.6948452772409
 20
518.5466138156801
 10
439.8215210560292
 20
518.5294773429703
 10
440.0177059081257
 20
518.6017848332351
 10
439.9840633238254
 20
518.5009192229643
 10
439.9858249276361
 20
518.45070477164
 10
439.9833580032636
 20
518.4016355880281
 10
440.0153314925184
 20
518.3151471406331
 10
439.8816637862433
 20
518.3644866182466
 10
439.7978446647231
 20
518.3588185753049
 10
439.6980099098502
 20
518.3691673992265
 10
439.5992814679321
 20
518.3753767362739
 10
439.4927770730286
 20
518.381489870331
 10
439.3716749657236
 20
518.3904010670091
 10
439.2509619461629
 20
518.3797282912869
 10
439.0618791802614
 20
518.4391972629671
 10
439.0935266464487
 20
518.2800954329385
 10
439.0801801276009
 20
518.1829035155622
 10
439.0781196385626
 20
518.0708528832643
 10
439.0764426003846
 20
517.9515090884569
 10
439.0779574753408
 20
517.8248381537143
 10
439.0762820437845
 20
517.6975281123242
 10
439.0865082230836
 20
517.5990278962081
 10
439.0585244555758
 20
517.4583992584194
 10
439.2314267958481
 20
517.5144077435043
 10
439.3451258161948
 20
517.5017117469481
 10
439.4646389631414
 20
517.5089960026758
 10
439.5694729384247
 20
517.5132924027307
 10
439.6649322857787
 20
517.517817914753
 10
439.7570061466207
 20
517.5260042436249
 10
439.8282789741616
 20
517.5209507385445
 10
439.935116966486
 20
517.5598764824799
 10
439.9032841557213
 20
517.4796834522222
 10
439.9072402463103
 20
517.4301416006235
 10
439.9040740351189
 20
517.3800870125615
 10
439.935702944976
 20
517.2958007082834
 10
439.8016371636868
 20
517.3487658871152
 10
439.7098560752376
 20
517.3399130410676
 10
439.5885967148779
 20
517.3502127318148
 10
439.4720351078946
 20
517.3520013498381
 10
439.3589613705055
 20
517.35238240326
 10
439.2485484267647
 20
517.3586667268852
 10
439.1704362027017
 20
517.3464035647169
 10
439.0719863792818
 20
517.3790511083242
 10
439.0818593132738
 20
517.3222097127051
 10
439.0780161203579
 20
517.2884335377431
 10
439.0773027843442
 20
517.2457082792572
 10
439.0769607602152
 20
517.2085283047849
 10
439.077007221452
 20
517.169384605871
 10
439.0769887389101
 20
517.1316807271401
 10
439.0769941390982
 20
517.0939617844872
 10
439.0769935173375
 20
517.0644554796146
 10
439.0769936110719
 20
517.033248009156
 10
439.0769942247097
 20
516.9886564812442
 10
439.0769909458513
 20
516.9341517972516
 10
439.0769997582656
 20
516.8895676341778
 10
439.0769597612592
 20
516.8056903180209
 10
439.0782262229431
 20
516.6918874389401
 10
439.0756512077017
 20
516.5428161915002
 10
439.0871247340896
 20
516.4404842703024
 10
439.0629744181439
 20
516.3079012710216
 10
439.2139231905652
 20
516.3534695548834
 10
439.3234674630732
 20
516.3387823537869
 10
439.4540208433097
 20
516.3437165834139
 10
439.5796550168689
 20
516.347089285397
 10
439.6994968584778
 20
516.3516272071508
 10
439.8197600570602
 20
516.3649975939834
 10
439.9028999622691
 20
516.3551993599892
 10
440.0262318380251
 20
516.4157743783966
 10
440.0050507163133
 20
516.3598368335034
 10
440.0042188229291
 20
516.3339047258868
 10
440.0025201666736
 20
516.3064847940727
 10
440.0024212848005
 20
516.2718941842271
 10
440.0009897260505
 20
516.2350163143709
 10
440.0339042151366
 20
516.1429806423814
 10
439.8357544947284
 20
516.2158323919114
 10
439.7106786254068
 20
516.1927694972494
 10
439.5479309254331
 20
516.199052452021
 10
439.3935604409177
 20
516.1971216712623
 10
439.2372908396121
 20
516.1984498581561
 10
439.0776782424458
 20
516.1951109570418
 10
438.9346564301411
 20
516.2071701894453
 10
438.7003382840805
 20
516.1440322519328
 10
438.7980048710373
 20
516.4307175068263
 10
438.7813106739234
 20
516.6243953135896
 10
438.7952534668862
 20
516.8529946609665
 10
438.7949225805808
 20
517.0083581717133
 10
438.794931607844
 20
517.1141755966047
 10
438.7949293835493
 20
517.1765700734053
 10
438.7949303511064
 20
517.2667164846465
 10
438.7949303432437
 20
517.3707239037377
 10
438.7949291820275
 20
517.4747335459161
 10
438.7949328930679
 20
517.5648746690509
 10
438.7949249010226
 20
517.6272802631355
 10
438.7949572234198
 20
517.7332005917744
 10
438.7937678747494
 20
517.8907793976107
 10
438.7888454448432
 20
518.0397944303837
 10
438.7864026335794
 20
518.1137448361451
 97
        1
330
AC
 75
     1
 76
     2
 52
45.0
 41
0.1
 77
     0
 78
     1
 53
45.0
 43
0.0
 44
0.0
 45
-0.282842712474619
 46
0.0
 79
     0
 98
        1
 10
0.0
 20
0.0
  0
HATCH
  5
CA
330
48
100
AcDbEntity
  8
1
  6
Continuous
 62
     2
100
AcDbHatch
 10
0.0
 20
0.0
 30
0.0
210
0.0
220
0.0
230
1.0
  2
CUSTOM4
 70
     0
 71
     1
 91
        1
 92
        1
 93
        1
 72
     4
 94
        3
 73
     0
 74
     0
 95
       47
 96
       43
 40
0.0
 40
0.0
 40
0.0
 40
0.0
 40
0.2207912809956124
 40
0.4459404186302019
 40
0.490238719045877
 40
0.5327473892721273
 40
0.5742260451225174
 40
0.615543263056024
 40
0.6568164066315203
 40
0.6982511618780434
 40
0.7407663929316549
 40
0.7851366743174578
 40
1.010288833836407
 40
1.231080507001964
 40
1.451765243652255
 40
1.676638205891518
 40
1.720461045359539
 40
1.830018144043347
 40
1.972442372353012
 40
2.114866600677455
 40
2.224423699395029
 40
2.268246538883286
 40
2.493628801207096
 40
2.715602830286426
 40
2.934211330706304
 40
3.149502369855202
 40
3.231387784850837
 40
3.318231873853874
 40
3.405143198197806
 40
3.486970301720317
 40
3.702258172493747
 40
3.920866283533994
 40
4.142839325931732
 40
4.368221903865185
 40
4.412044743359808
 40
4.521601842095685
 40
4.664026070452189
 40
4.80645029880892
 40
4.916007397546502
 40
4.959830237042945
 40
5.184703515846929
 40
5.405387250767354
 40
5.405387250767354
 40
5.405387250767354
 40
5.405387250767354
 10
441.5313665217821
 20
518.108576641702
 10
441.5374377379179
 20
518.1720970571754
 10
441.5497000066417
 20
518.3003916190596
 10
441.4410944838588
 20
518.5761744339039
 10
441.556822385578
 20
518.5463935664837
 10
441.5978080468192
 20
518.5421677947916
 10
441.6397443756694
 20
518.5376166960593
 10
441.6810434584887
 20
518.536532061458
 10
441.722327007473
 20
518.5376156141156
 10
441.7642386229823
 20
518.5421733592768
 10
441.8052221508195
 20
518.5463865342605
 10
441.9211160802664
 20
518.5762883453384
 10
441.8101890686632
 20
518.2979102982622
 10
441.8381094324443
 20
518.1173436404129
 10
441.8210505306145
 20
517.884122655628
 10
441.8220875241278
 20
517.7235784575947
 10
441.822033735858
 20
517.5973604077506
 10
441.8220515331656
 20
517.4988018655257
 10
441.8220426540256
 20
517.3673192565929
 10
441.8220501887208
 20
517.2358406818497
 10
441.8220367364306
 20
517.1372744591042
 10
441.8220769676666
 20
517.0109095884047
 10
441.8212984362994
 20
516.8493329203919
 10
441.8372196278442
 20
516.6181304510925
 10
441.8139706844583
 20
516.4332557518832
 10
441.9166421403542
 20
516.1638682598641
 10
441.7626476322011
 20
516.2011133590213
 10
441.6810367762009
 20
516.1958921789686
 10
441.5994430251759
 20
516.2011184359467
 10
441.4454751626017
 20
516.163882931017
 10
441.5480421381093
 20
516.433263530792
 10
441.5248283275264
 20
516.6181280854174
 10
441.5406682614313
 20
516.8493344178197
 10
441.5399534272606
 20
517.0109093552484
 10
441.5399902529082
 20
517.1372745442685
 10
441.5399786959448
 20
517.2358397985232
 10
441.539981297839
 20
517.3673235063354
 10
441.5399886490955
 20
517.4987877124753
 10
441.5399680500528
 20
517.5973900949164
 10
441.5400320151204
 20
517.7234737257078
 10
441.5387971906768
 20
517.8866131460009
 10
441.533827835592
 20
518.0350540699387
 10
441.5313665217821
 20
518.108576641702
 97
        1
330
AD
 75
     1
 76
     2
 52
45.0
 41
0.1
 77
     0
 78
     1
 53
45.0
 43
0.0
 44
0.0
 45
-0.282842712474619
 46
0.0
 79
     0
 98
        1
 10
0.0
 20
0.0
  0
HATCH
  5
CB
330
48
100
AcDbEntity
  8
1
  6
Continuous
 62
     2
100
AcDbHatch
 10
0.0
 20
0.0
 30
0.0
210
0.0
220
0.0
230
1.0
  2
CUSTOM5
 70
     0
 71
     1
 91
        1
 92
        1
 93
        1
 72
     4
 94
        3
 73
     0
 74
     0
 95
      118
 96
      114
 40
0.0
 40
0.0
 40
0.0
 40
0.0
 40
0.1054708162973193
 40
0.2466098270052765
 40
0.396591287459079
 40
0.528552506975364
 40
0.6156245055642904
 40
0.6431434105797939
 40
0.703685003798626
 40
0.7642265984503179
 40
0.7917455052354364
 40
0.928740431998829
 40
1.106572819087843
 40
1.287544879680982
 40
1.31757830803048
 40
1.399928030857214
 40
1.522968204799955
 40
1.675072986590468
 40
1.844616533180616
 40
2.019973001638565
 40
2.189516548880025
 40
2.341621331585376
 40
2.464661506320514
 40
2.547011229647129
 40
2.577044658167952
 40
2.603797890893023
 40
2.66265500290871
 40
2.721512114949579
 40
2.748265347702673
 40
2.774215307344722
 40
2.845959313407039
 40
2.954338556588201
 40
3.090194227585303
 40
3.244367517100332
 40
3.407699615844141
 40
3.571031714539291
 40
3.725205003919942
 40
3.861060674729348
 40
3.969439917715991
 40
4.041183923628697
 40
4.067133883212652
 40
4.311886746011794
 40
4.547897258335137
 40
4.764747083043603
 40
4.952749679951373
 40
5.045772974195431
 40
5.137862019644634
 40
5.330543169792593
 40
5.553448265243477
 40
5.795083855887678
 40
6.043293412176818
 40
6.285761695540755
 40
6.313902908752295
 40
6.384255941792828
 40
6.47571488476636
 40
6.567173827758479
 40
6.637526860839143
 40
6.665668074073535
 40
6.692018920327412
 40
6.749990782070524
 40
6.807962643789876
 40
6.834313490017378
 40
6.856393084244742
 40
6.913335195649251
 40
6.991194817301944
 40
7.076026942283177
 40
7.153886563724695
 40
7.210828674844192
 40
7.232908268930585
 40
7.258199334923104
 40
7.324875781591897
 40
7.419142481924593
 40
7.527204308841403
 40
7.635266135230024
 40
7.72953283416801
 40
7.796209279292254
 40
7.821500344594353
 40
7.844652988850516
 40
7.899863140541228
 40
7.965759128053485
 40
8.020969279770746
 40
8.044121924046213
 40
8.069356610160327
 40
8.109134395441007
 40
8.132238100190822
 40
8.193147867786085
 40
8.27926167887637
 40
8.37797751267357
 40
8.476693347146298
 40
8.562807160411413
 40
8.623716930826223
 40
8.646820636853082
 40
8.671988793773895
 40
8.734909185827863
 40
8.816705695188606
 40
8.898502204815149
 40
8.961422597377581
 40
8.986590754550779
 40
9.012941600732919
 40
9.070913462379966
 40
9.128885324081583
 40
9.155236170324887
 40
9.180404327928958
 40
9.243324721948003
 40
9.325121234211796
 40
9.406917746637536
 40
9.469838141977963
 40
9.495006288270766
 40
9.517811184378907
 40
9.572192090486915
 40
9.637098333281251
 40
9.691479239515338
 40
9.714284125643367
 40
9.714284125643367
 40
9.714284125643367
 40
9.714284125643367
 10
444.1680706987829
 20
517.6434038640405
 10
444.1897228528213
 20
517.6156309245913
 10
444.2403495068651
 20
517.5506927777758
 10
444.3155621161766
 20
517.443422835292
 10
444.4054720233523
 20
517.3282866148297
 10
444.4515407635848
 20
517.2280826896464
 10
444.5462063253832
 20
517.1588523003127
 10
444.5010677279587
 20
517.1122286289459
 10
444.4753285744965
 20
517.0711153208237
 10
444.4451434667189
 20
517.0351719494429
 10
444.3999922689737
 20
516.9603100581242
 10
444.3516742417739
 20
517.1823374746992
 10
444.277477767225
 20
517.2196190055405
 10
444.1642285283782
 20
517.4906142534693
 10
444.1691371537346
 20
517.3754655166257
 10
444.1674724515482
 20
517.3028789899797
 10
444.1683068035889
 20
517.1807681170031
 10
444.167984749944
 20
517.0336502402679
 10
444.1681314871632
 20
516.8675828717289
 10
444.16791880519
 20
516.6963877782493
 10
444.1685735211209
 20
516.5300405185184
 10
444.1665430420314
 20
516.38386396272
 10
444.1719698359105
 20
516.2592227069094
 10
444.1611168827885
 20
516.1916987975696
 10
444.176297711473
 20
516.1300028463336
 10
444.1264133067309
 20
516.1417872711334
 10
444.0823388301696
 20
516.133950459963
 10
444.0388609589376
 20
516.1421166458903
 10
443.9898584745665
 20
516.1298927995481
 10
444.0024969193998
 20
516.1841189046564
 10
443.9936420927627
 20
516.243881421239
 10
443.9981296729488
 20
516.3537325226068
 10
443.9964198095165
 20
516.4848119862199
 10
443.9969788875163
 20
516.6364923466066
 10
443.9968166727868
 20
516.7966229814627
 10
443.9968507883849
 20
516.9568808889089
 10
443.9968752919303
 20
517.1082147073677
 10
443.9967691502402
 20
517.2403337955491
 10
443.9970537101106
 20
517.3474602574952
 10
443.9964913506744
 20
517.4125984279578
 10
443.9987003042864
 20
517.5407018107499
 10
443.9125673957781
 20
517.165488336079
 10
443.8361378777676
 20
517.013694163397
 10
443.746627872701
 20
516.8521742966263
 10
443.6446651176503
 20
516.579230720365
 10
443.5994214450214
 20
516.7416856981281
 10
443.4908593900848
 20
516.8305665527447
 10
443.6802029710927
 20
516.9800101817773
 10
443.7371578504877
 20
517.1720036019124
 10
443.8523758952527
 20
517.4035084612308
 10
443.8746389589309
 20
517.5924848297536
 10
444.0578143111317
 20
517.8690531254229
 10
443.9344271556727
 20
517.8615020204841
 10
443.8731922126009
 20
517.8630799558243
 10
443.788823757624
 20
517.8633381579001
 10
443.7010473045142
 20
517.8599606896752
 10
443.6463006655298
 20
517.8684603819834
 10
443.5910940985202
 20
517.8549978426612
 10
443.6029060994711
 20
517.9038266534308
 10
443.594873411097
 20
517.9472022811303
 10
443.6034424063852
 20
517.9896066152589
 10
443.5909181368333
 20
518.0371901976844
 10
443.6361339497911
 20
518.0271843621144
 10
443.6821053521899
 20
518.0334532839036
 10
443.7583460006886
 20
518.030447846222
 10
443.836753409117
 20
518.0322167149487
 10
443.9130230608109
 20
518.0291601719797
 10
443.9589247418649
 20
518.0355519459251
 10
444.0037971924577
 20
518.0254504619521
 10
443.991179023481
 20
518.0760842479823
 10
443.999817454188
 20
518.1295248509838
 10
443.995859955462
 20
518.2231447834803
 10
443.996856302751
 20
518.3256382990526
 10
443.9978165372248
 20
518.4280449346448
 10
443.9939449417182
 20
518.5218715282565
 10
444.002402777354
 20
518.5748776605667
 10
443.989931389201
 20
518.6266265886753
 10
444.0348344349025
 20
518.6130197044306
 10
444.0761321795949
 20
518.6155170353694
 10
444.1401582240226
 20
518.6109928379083
 10
444.1792349107963
 20
518.6023222625963
 10
444.2282781457919
 20
518.6096632528702
 10
444.2031317989765
 20
518.5705411926808
 10
444.16221392929
 20
518.5801506567216
 10
444.1716347575779
 20
518.5299137138609
 10
444.1661885277922
 20
518.4783716885584
 10
444.1687937560981
 20
518.3941093080085
 10
444.1676340161331
 20
518.3001035879973
 10
444.1689829023406
 20
518.2064808861185
 10
444.1656208060686
 20
518.1213074076855
 10
444.1727197876942
 20
518.0716807928834
 10
444.1618807113723
 20
518.0244491818634
 10
444.211024818442
 20
518.0365289815313
 10
444.2601115589324
 20
518.0289861657934
 10
444.3379952239818
 20
518.0313729357774
 10
444.4156603132071
 20
518.0335060512174
 10
444.4651631890534
 20
518.0264461513877
 10
444.5150832709814
 20
518.0381137515252
 10
444.502943647606
 20
517.9899145858774
 10
444.5112076188321
 20
517.9470044301755
 10
444.5029436609959
 20
517.9040942506771
 10
444.5150832509031
 20
517.8558951197117
 10
444.4651633117923
 20
517.8675625768784
 10
444.415658861038
 20
517.8605042565135
 10
444.3380022342147
 20
517.8626288844492
 10
444.2600881824937
 20
517.8650461258208
 10
444.211073831189
 20
517.857430714108
 10
444.1619484068119
 20
517.8695917577393
 10
444.1721797947747
 20
517.825242366405
 10
444.1662915637231
 20
517.7837665941925
 10
444.1685026264745
 20
517.7236661753163
 10
444.1680347305322
 20
517.676770059792
 10
444.168062495209
 20
517.6510136963453
 10
444.1680706987829
 20
517.6434038640405
 97
        1
330
AE
 75
     1
 76
     2
 52
45.0
 41
0.1
 77
     0
 78
     1
 53
45.0
 43
0.0
 44
0.0
 45
-0.282842712474619
 46
0.0
 79
     0
 98
        1
 10
0.0
 20
0.0
  0
HATCH
  5
CC
330
48
100
AcDbEntity
  8
1
  6
Continuous
 62
     2
100
AcDbHatch
 10
0.0
 20
0.0
 30
0.0
210
0.0
220
0.0
230
1.0
  2
CUSTOM6
 70
     0
 71
     1
 91
        1
 92
        1
 93
        1
 72
     4
 94
        3
 73
     0
 74
     0
 95
       91
 96
       87
 40
0.0
 40
0.0
 40
0.0
 40
0.0
 40
0.0345987051695718
 40
0.1258134969461369
 40
0.2547723404888418
 40
0.4026032099153556
 40
0.5504340793415852
 40
0.6793929228835511
 40
0.7706077146571035
 40
0.8052064287779788
 40
1.124852390615095
 40
1.427402236308643
 40
1.706356627453325
 40
1.955541417875033
 40
2.169485938566151
 40
2.344350786664638
 40
2.480568411561814
 40
2.590440557428815
 40
2.649189927150951
 40
2.749320643306183
 40
2.912632739879966
 40
3.147745656000005
 40
3.24482749638479
 40
3.338490056946359
 40
3.583815413206771
 40
3.761423943238005
 40
3.886956104362137
 40
3.98585545188639
 40
4.091766255337254
 40
4.250186473811443
 40
4.4227343150841
 40
4.62828568483813
 40
4.87209322775799
 40
5.152549652145111
 40
5.464967135836975
 40
5.803201477851837
 40
6.160362988813471
 40
6.193449448275498
 40
6.284170385501181
 40
6.419718138764051
 40
6.587285046385329
 40
6.774063446723243
 40
6.967245678113169
 40
7.154024078817212
 40
7.321590987025569
 40
7.457138740889956
 40
7.547859678555664
 40
7.580946138182195
 40
7.608533084714292
 40
7.669224367077287
 40
7.729915649429483
 40
7.757502595949642
 40
7.790278062553011
 40
7.880146277430594
 40
8.01441996318
 40
8.180411842397529
 40
8.36543463767897
 40
8.556801071622328
 40
8.741823866830384
 40
8.907815745915922
 40
9.042089431507076
 40
9.131957646249258
 40
9.164733112796807
 40
9.41542506313966
 40
9.667986180958039
 40
9.694169807462139
 40
9.75660768604716
 40
9.831130315322046
 40
9.893568193899513
 40
9.919751820398274
 40
9.950967964690031
 40
9.996421631210195
 40
10.22087981037425
 40
10.443418661975
 40
10.47847970788809
 40
10.57091337438716
 40
10.70159545461196
 40
10.85140174170324
 40
11.00120802880441
 40
11.13189010907349
 40
11.22432377582977
 40
11.2593848093892
 40
11.28697175596109
 40
11.34766303835887
 40
11.40835432042037
 40
11.43594125892072
 40
11.43594125892072
 40
11.43594125892072
 40
11.43594125892072
 10
448.9624352292465
 20
517.926940183414
 10
448.9509023804117
 20
517.9269401350423
 10
448.9089647404173
 20
517.9269399692047
 10
448.8240367678202
 20
517.9269434901723
 10
448.7013926512304
 20
517.926921496522
 10
448.559744487617
 20
517.9270202439337
 10
448.4185991657666
 20
517.9266590944874
 10
448.294758927708
 20
517.9277310682542
 10
448.2123455784558
 20
517.925434723076
 10
448.0534029188871
 20
517.9349979258972
 10
448.2309640312551
 20
517.5723661752769
 10
448.218597716463
 20
517.3269435093944
 10
448.2870757433039
 20
517.0431372454116
 10
448.3499262280144
 20
516.8070222315534
 10
448.4258491390906
 20
516.6077796361246
 10
448.510942753619
 20
516.4519657066769
 10
448.6050845552112
 20
516.3510908099772
 10
448.7088886166904
 20
516.2991707585529
 10
448.7932109989951
 20
516.3505770759593
 10
448.8157560138627
 20
516.4659576725384
 10
448.8551968934548
 20
516.593363729187
 10
448.8009157694119
 20
516.9107355130308
 10
448.9257456031648
 20
516.7643340335721
 10
449.0825529472778
 20
516.7324652354748
 10
448.9753957966233
 20
516.4987258098394
 10
448.9614949169041
 20
516.3342399979999
 10
448.9040947426403
 20
516.205820923388
 10
448.8141258104185
 20
516.1347002556914
 10
448.6901512617053
 20
516.1188354735859
 10
448.5440511156037
 20
516.154450207705
 10
448.4050132279459
 20
516.2745179371658
 10
448.2908241921322
 20
516.4488690576667
 10
448.1952379260662
 20
516.6739782632757
 10
448.1124890531804
 20
516.9383946922278
 10
448.0613417215587
 20
517.2563915631486
 10
447.9576427166513
 20
517.5299495170518
 10
448.0849079167696
 20
517.9345704182929
 10
447.9164128582195
 20
517.9256359106596
 10
447.8318233746252
 20
517.927671846347
 10
447.6996114346804
 20
517.9266516060471
 10
447.5366743053279
 20
517.9270445353476
 10
447.3539997129709
 20
517.9268691952968
 10
447.1653295332558
 20
517.9271132852379
 10
446.9820706979364
 20
517.9263688112254
 10
446.8210984791894
 20
517.9286758373873
 10
446.6836046294451
 20
517.9225102809999
 10
446.6095828331486
 20
517.9348406167453
 10
446.5419453146033
 20
517.9178054693988
 10
446.5538611678446
 20
517.9697566166386
 10
446.5461915244869
 20
518.0152264818284
 10
446.5538830184292
 20
518.0606567692002
 10
446.5419379756937
 20
518.112536192009
 10
446.6089826265043
 20
518.0957036670659
 10
446.6823613624852
 20
518.1078663230899
 10
446.8185366264448
 20
518.1017845429129
 10
446.9780049760689
 20
518.1040605753138
 10
447.159541104501
 20
518.1033245721526
 10
447.3464272821356
 20
518.1035717741248
 10
447.5274250276011
 20
518.1033762401557
 10
447.6887040538054
 20
518.1038345793118
 10
447.8200120084064
 20
518.1026389696755
 10
447.9031289281771
 20
518.1050257053605
 10
448.0362474506992
 20
518.0968182894184
 10
447.9452131461833
 20
518.3520409216901
 10
447.8595871033594
 20
518.6161558154445
 10
447.9796826962631
 20
518.6035566618552
 10
448.032050290772
 20
518.6014545897939
 10
448.1020735528891
 20
518.5998662310599
 10
448.1478160296994
 20
518.5905379075443
 10
448.2027050606108
 20
518.5999719013174
 10
448.1769812744857
 20
518.5518425187149
 10
448.0631635530628
 20
518.5571805296051
 10
448.1965584580311
 20
518.329003977931
 10
448.0749896694648
 20
518.0960807981226
 10
448.2029426728587
 20
518.1053848210075
 10
448.2855286365636
 20
518.1025222497101
 10
448.411345281
 20
518.1037466062862
 10
448.5547707797234
 20
518.1038365510531
 10
448.6963658910904
 20
518.1019738640019
 10
448.8265365209144
 20
518.1078429915348
 10
448.8999690245366
 20
518.0952156403955
 10
448.9697350881273
 20
518.1132878632673
 10
448.958201056457
 20
518.0606407376264
 10
448.963942230586
 20
518.0167254090288
 10
448.9622853730085
 20
517.9654120589286
 10
448.9623995520846
 20
517.9361001523797
 10
448.9624352292465
 20
517.926940183414
 97
        1
330
AF
 75
     1
 76
     2
 52
45.0
 41
0.1
 77
     0
 78
     1
 53
45.0
 43
0.0
 44
0.0
 45
-0.282842712474619
 46
0.0
 79
     0
 98
        1
 10
0.0
 20
0.0
  0
HATCH
  5
CD
330
48
100
AcDbEntity
  8
1
  6
Continuous
 62
     2
100
AcDbHatch
 10
0.0
 20
0.0
 30
0.0
210
0.0
220
0.0
230
1.0
  2
CUSTOM7
 70
     0
 71
     1
 91
        1
 92
        1
 93
        1
 72
     4
 94
        3
 73
     0
 74
     0
 95
       75
 96
       71
 40
0.0
 40
0.0
 40
0.0
 40
0.0
 40
0.034254609912978
 40
0.1245622414431867
 40
0.2522385480897358
 40
0.3985991922941142
 40
0.5449598364980377
 40
0.672636143143791
 40
0.7629437746736587
 40
0.7971983935298115
 40
1.101723623449687
 40
1.408591244036603
 40
1.433332471690272
 40
1.48776317245009
 40
1.542193873081843
 40
1.566935100592326
 40
1.923523931821607
 40
2.27175570495336
 40
2.590579755100616
 40
2.85894330558084
 40
2.889120339309011
 40
2.918305855190952
 40
2.94136664553111
 40
2.996357760972947
 40
3.061992318140457
 40
3.116983433626673
 40
3.140044223997406
 40
3.411273122936351
 40
3.732441619740949
 40
3.761068217532635
 40
3.837787499630177
 40
3.948858699125946
 40
4.080541049104237
 40
4.219093782625702
 40
4.350776132722228
 40
4.461847332405465
 40
4.538566614678313
 40
4.567193212544463
 40
4.594907573998693
 40
4.666381453557289
 40
4.764111044010871
 40
4.870592538125617
 40
4.968322128642182
 40
5.039796008286896
 40
5.067510369784269
 40
5.094263603185492
 40
5.153120716668251
 40
5.211977830150669
 40
5.238731063551665
 40
5.272290535138847
 40
5.363380529444736
 40
5.497618415781471
 40
5.660621563453628
 40
5.838007341749357
 40
6.015393119910708
 40
6.178396267038305
 40
6.312634151842257
 40
6.403724143059275
 40
6.437283612672399
 40
6.464036846260978
 40
6.522893960004648
 40
6.581751071483904
 40
6.608504301590823
 40
6.637253941280914
 40
6.711397748902879
 40
6.812778057283435
 40
6.923237199249183
 40
7.024617507623827
 40
7.098761315207422
 40
7.12751094600743
 40
7.12751094600743
 40
7.12751094600743
 40
7.12751094600743
 10
447.322486034974
 20
517.3330035168958
 10
447.3224860778883
 20
517.3215853662504
 10
447.3224862440304
 20
517.2800648105897
 10
447.3224831040962
 20
517.1959814522006
 10
447.3225026238977
 20
517.0745572053866
 10
447.3224150146912
 20
516.9343171726377
 10
447.3227354194405
 20
516.7945778001088
 10
447.3217843868917
 20
516.6719626211127
 10
447.3238216555143
 20
516.5903829765435
 10
447.315567113792
 20
516.4372249029401
 10
447.6237035900082
 20
516.6001145927107
 10
447.9156883132903
 20
516.7693416190427
 10
447.9214592407885
 20
516.6342445899825
 10
447.9261709679064
 20
516.5906844437675
 10
447.9288773371093
 20
516.5466247256688
 10
447.9478783632131
 20
516.397238135794
 10
447.5390180206479
 20
516.4613239545762
 10
447.2599948308007
 20
516.3474756462733
 10
446.9824319546345
 20
516.2481531902745
 10
446.690607514357
 20
516.2908191081274
 10
446.6675382637835
 20
516.1877290296085
 10
446.6343712342509
 20
516.1614231446081
 10
446.6286891921914
 20
516.2090653225262
 10
446.6090452518221
 20
516.2463155933141
 10
446.59013274448
 20
516.3045861106388
 10
446.5749087826882
 20
516.3483642422411
 10
446.5283484332114
 20
516.4621064426268
 10
446.8697135271624
 20
516.4302752433632
 10
447.1485887326563
 20
516.3961265832284
 10
447.1423990994084
 20
516.5436519969596
 10
447.1437173411948
 20
516.6146437412516
 10
447.1431069649124
 20
516.7217099117497
 10
447.14321095299
 20
516.848497530023
 10
447.143622592323
 20
516.9830046671239
 10
447.1420145801145
 20
517.108467731675
 10
447.14661405271
 20
517.2195646993544
 10
447.1370424461387
 20
517.2821311001703
 10
447.1510239742866
 20
517.340466115113
 10
447.0953622345882
 20
517.3274093379858
 10
447.0381893156995
 20
517.3358753096579
 10
446.9422286884824
 20
517.3318119929696
 10
446.8440005481997
 20
517.334221130688
 10
446.7478820416737
 20
517.330028238297
 10
446.6910886484985
 20
517.3388056965748
 10
446.6356594832561
 20
517.3254616006643
 10
446.6476917387092
 20
517.3748813417559
 10
446.6398241133113
 20
517.4184521124671
 10
446.6472533523005
 20
517.4628169233486
 10
446.6358168523319
 20
517.513535209803
 10
446.703834032931
 20
517.496136839741
 10
446.7774734838922
 20
517.5086867345352
 10
446.9131302017387
 20
517.5025090022741
 10
447.0691146983701
 20
517.5048042630942
 10
447.242216431732
 20
517.5039219147885
 10
447.4153180923356
 20
517.5048043035873
 10
447.5713027770393
 20
517.5025088617185
 10
447.7069589848974
 20
517.508687094788
 10
447.7805994664828
 20
517.4961361743464
 10
447.8486152133898
 20
517.5135359622847
 10
447.8371828845099
 20
517.4628135363087
 10
447.8445777417472
 20
517.4184828402744
 10
447.8368277871447
 20
517.3747953076652
 10
447.8487441701052
 20
517.325148133148
 10
447.7914408182793
 20
517.3391263455475
 10
447.7326383748949
 20
517.3299097888956
 10
447.6331531592375
 20
517.3340349138125
 10
447.5300518057525
 20
517.3327398324218
 10
447.4344084313749
 20
517.3330530029398
 10
447.3663705930793
 20
517.3329999991344
 10
447.3320700172619
 20
517.3330027508798
 10
447.322486034974
 20
517.3330035168958
 97
        1
330
B0
 75
     1
 76
     2
 52
45.0
 41
0.1
 77
     0
 78
     1
 53
45.0
 43
0.0
 44
0.0
 45
-0.282842712474619
 46
0.0
 79
     0
 98
        1
 10
0.0
 20
0.0
  0
HATCH
  5
CE
330
48
100
AcDbEntity
  8
1
  6
Continuous
 62
     2
100
AcDbHatch
 10
0.0
 20
0.0
 30
0.0
210
0.0
220
0.0
230
1.0
  2
CUSTOM8
 70
     0
 71
     1
 91
        1
 92
        1
 93
        1
 72
     4
 94
        3
 73
     0
 74
     0
 95
       15
 96
       11
 40
0.0
 40
0.0
 40
0.0
 40
0.0
 40
0.2785535985097974
 40
0.5215624748200037
 40
0.6076917376040006
 40
0.6938210001740985
 40
0.9405019146453983
 40
1.221691403489004
 40
1.300471877080907
 40
1.379252341684718
 40
1.379252341684718
 40
1.379252341684718
 40
1.379252341684718
 10
448.4487731590175
 20
518.6038149054671
 10
448.5102255753355
 20
518.5514286980906
 10
448.6252887933288
 20
518.4533410001453
 10
448.9203586456421
 20
518.3034100911354
 10
448.7831385591032
 20
518.2179445073133
 10
448.6847465802954
 20
518.0853700841787
 10
448.5936271549824
 20
518.3906820899773
 10
448.2443077439833
 20
518.4541909268169
 10
448.3925496335747
 20
518.5534773309721
 10
448.4300319833413
 20
518.5870357161871
 10
448.4487731590175
 20
518.6038149054671
 97
        1
330
B1
 75
     1
 76
     2
 52
45.0
 41
0.1
 77
     0
 78
     1
 53
45.0
 43
0.0
 44
0.0
 45
-0.282842712474619
 46
0.0
 79
     0
 98
        1
 10
0.0
 20
0.0
  0
HATCH
  5
CF
330
48
100
AcDbEntity
  8
1
  6
Continuous
 62
     2
100
AcDbHatch
 10
0.0
 20
0.0
 30
0.0
210
0.0
220
0.0
230
1.0
  2
CUSTOM9
 70
     0
 71
     1
 91
        1
 92
        1
 93
        1
 72
     4
 94
        3
 73
     0
 74
     0
 95
       35
 96
       31
 40
0.0
 40
0.0
 40
0.0
 40
0.0
 40
0.0335231036620993
 40
0.0713218571713322
 40
0.4278866681488057
 40
0.8116865841964777
 40
1.198190238000193
 40
1.561379546812896
 40
1.659983174622221
 40
1.759315573807415
 40
2.132719617231264
 40
2.525233363589055
 40
2.910815397779925
 40
3.26524436430357
 40
3.592606723582358
 40
3.964386154604211
 40
4.359942131738074
 40
4.758154118639476
 40
4.843846538699965
 40
4.93665006554334
 40
5.256616602537473
 40
5.581707404416296
 40
5.899719158308362
 40
6.198363494280952
 40
6.466301046615897
 40
6.493895311537154
 40
6.559697020197008
 40
6.638234543442637
 40
6.704036252154354
 40
6.731630508423163
 40
6.731630508423163
 40
6.731630508423163
 40
6.731630508423163
 10
450.8542248527845
 20
518.6091506693547
 10
450.8482244056964
 20
518.5993191375863
 10
450.8354582058334
 20
518.5784021179612
 10
450.6755599965729
 20
518.5457834974901
 10
451.1128263801512
 20
518.2565790355303
 10
451.315163278744
 20
518.054923615748
 10
451.5625802227148
 20
517.812006108196
 10
452.0637751583785
 20
517.7349888597412
 10
451.8931800158146
 20
517.5932816239099
 10
451.8189537422377
 20
517.3916158942543
 10
451.4937670207363
 20
517.7440751039104
 10
451.2083979629841
 20
517.9062643577589
 10
450.9143842036834
 20
518.1113835326937
 10
450.6890690650309
 20
518.5927871181179
 10
450.4799323014698
 20
518.1279426982554
 10
450.201411163401
 20
517.9180217546922
 10
449.9177621136384
 20
517.7487567957633
 10
449.5884877487005
 20
517.3759358412426
 10
449.5083250277402
 20
517.5715923767533
 10
449.3565962868918
 20
517.6994232740691
 10
449.7889633785973
 20
517.7790525498226
 10
449.9768803288942
 20
517.9747785813179
 10
450.227471537968
 20
518.1908422013307
 10
450.4520588429338
 20
518.3564221551641
 10
450.5066013368887
 20
518.6358518785307
 10
450.6300898988188
 20
518.6218917362443
 10
450.6866511303695
 20
518.6197249208396
 10
450.7568108944121
 20
518.6149808309768
 10
450.8139651981281
 20
518.6116065256689
 10
450.8450428280015
 20
518.6097107792745
 10
450.8542248527845
 20
518.6091506693547
 97
        1
330
B2
 75
     1
 76
     2
 52
45.0
 41
0.1
 77
     0
 78
     1
 53
45.0
 43
0.0
 44
0.0
 45
-0.282842712474619
 46
0.0
 79
     0
 98
        1
 10
0.0
 20
0.0
  0
HATCH
  5
D0
330
48
100
AcDbEntity
  8
1
  6
Continuous
 62
     2
100
AcDbHatch
 10
0.0
 20
0.0
 30
0.0
210
0.0
220
0.0
230
1.0
  2
CUSTOM10
 70
     0
 71
     1
 91
        1
 92
        1
 93
        1
 72
     4
 94
        3
 73
     0
 74
     0
 95
       91
 96
       87
 40
0.0
 40
0.0
 40
0.0
 40
0.0
 40
0.0267532254356417
 40
0.0856103386464617
 40
0.1444674521995928
 40
0.1712206856618657
 40
0.2039416005642963
 40
0.2955601971652911
 40
0.4362601844616776
 40
0.6162252844508245
 40
0.825639218970484
 40
1.054685709844425
 40
1.293548478893517
 40
1.532411247938289
 40
1.761457738799554
 40
1.970871673298522
 40
2.150836773256747
 40
2.291536760495551
 40
2.383155356836657
 40
2.415876284101278
 40
2.442629517487949
 40
2.501486630949107
 40
2.560343744424249
 40
2.587096977826495
 40
2.617068194440894
 40
2.699247336756064
 40
2.822032643466291
 40
2.973822353257906
 40
3.14301470482332
 40
3.318007936879842
 40
3.487200288186675
 40
3.638989997548156
 40
3.761775303794654
 40
3.843954445753018
 40
3.873925662229742
 40
3.890812773500489
 40
3.907699884771631
 40
3.937960767857377
 40
3.980983618142441
 40
4.199085915228512
 40
4.439444339237323
 40
4.677588241260884
 40
5.05069831783774
 40
5.448212454763071
 40
5.855291218044538
 40
6.138575438885201
 40
6.417434507584002
 40
6.444551104393607
 40
6.504207617362858
 40
6.563864130314237
 40
6.590980727103799
 40
6.848609460381321
 40
7.10961199066831
 40
7.352910904445866
 40
7.55783022070533
 40
7.587518925913209
 40
7.652834077375665
 40
7.718149228845661
 40
7.747837934061904
 40
7.854880190300972
 40
7.976511257403488
 40
8.369487896592318
 40
8.757514959223581
 40
9.126072419331104
 40
9.46063938039211
 40
9.746695593035817
 40
9.777569943118687
 40
9.807050320931914
 40
9.830377336129072
 40
9.886003295436161
 40
9.95239556943008
 40
10.00802152870646
 40
10.03134854388247
 40
10.21356951009618
 40
10.422034792929
 40
10.66154556731087
 40
10.91693789564325
 40
11.15832906556584
 40
11.18982674596633
 40
11.27286608520415
 40
11.39026653033368
 40
11.52484752840904
 40
11.65942852648464
 40
11.77682897161496
 40
11.85986831085693
 40
11.89136598230441
 40
11.89136598230441
 40
11.89136598230441
 40
11.89136598230441
 10
449.5834122967372
 20
517.081508239181
 10
449.5834475724463
 20
517.0903907052831
 10
449.5835604669974
 20
517.1188146026367
 10
449.5819222527663
 20
517.1686086238611
 10
449.5875988252088
 20
517.2110878769449
 10
449.5763166690882
 20
517.2618137807317
 10
449.6438534938208
 20
517.2446412395641
 10
449.7194267169878
 20
517.2574145038234
 10
449.8634595015177
 20
517.250809526737
 10
450.0375657144602
 20
517.253396854228
 10
450.2445837570181
 20
517.2525181517188
 10
450.4700926131552
 20
517.2527943113636
 10
450.7057400252582
 20
517.25269562875
 10
450.9413878490525
 20
517.2527940762909
 10
451.1668955539802
 20
517.2525190140711
 10
451.373917259198
 20
517.2533940948706
 10
451.5480126874465
 20
517.2508174589478
 10
451.692073003116
 20
517.2573951366555
 10
451.7675929874467
 20
517.2446746662188
 10
451.8352013996206
 20
517.2617762340803
 10
451.8237078099851
 20
517.2112600901926
 10
451.8311342540908
 20
517.1670447544282
 10
451.8235076887165
 20
517.1231918971994
 10
451.8352727418599
 20
517.0732959769564
 10
451.7737026451161
 20
517.0884445092887
 10
451.7063029697844
 20
517.0776188856695
 10
451.5819242015399
 20
517.0830325484258
 10
451.4360666195746
 20
517.0810042860712
 10
451.2699814399261
 20
517.081670007947
 10
451.09946505809
 20
517.0814086673756
 10
450.9326028814565
 20
517.081727766074
 10
450.789358478628
 20
517.0808652580708
 10
450.6579551829013
 20
517.0831452369933
 10
450.6046097093831
 20
517.0785892759051
 10
450.5291426416089
 20
517.084511382092
 10
450.5575313738408
 20
517.0754539255968
 10
450.5839890368719
 20
517.0717713548527
 10
450.5439760866879
 20
517.041054951846
 10
450.4519901651041
 20
517.0511881439093
 10
450.4245634166246
 20
516.8048372546411
 10
450.3285031926411
 20
516.649507819807
 10
450.0723515923652
 20
516.3197664114791
 10
450.6433775691939
 20
516.4588124542677
 10
450.8979894279692
 20
516.4574300318968
 10
451.5085885007792
 20
516.3724179245842
 10
451.214693653726
 20
516.6713664077454
 10
450.8939542245691
 20
516.8178208011809
 10
451.0119781319611
 20
516.8747676403462
 10
451.0530954425437
 20
516.8987132308968
 10
451.0963050353588
 20
516.9205098202758
 10
451.1980812053624
 20
516.9837994447023
 10
451.3135105584423
 20
516.725983746251
 10
451.5135829601453
 20
516.5906726433001
 10
451.6075315346403
 20
516.4124401835521
 10
451.836506770557
 20
516.2544904424337
 10
451.7402269805882
 20
516.2036719579261
 10
451.6974197722956
 20
516.1733251573936
 10
451.6524481487954
 20
516.1491735349778
 10
451.5927958884389
 20
516.1000336996386
 10
451.5595969020501
 20
516.2344869888992
 10
451.4388251309971
 20
516.390454885029
 10
451.0777213965154
 20
516.2602115127586
 10
450.7191299914717
 20
516.2767591762581
 10
450.3377158409254
 20
516.2678245256818
 10
450.050969324207
 20
516.2033389488872
 10
449.7398293558886
 20
516.3168189140918
 10
449.7074975777965
 20
516.2057348314409
 10
449.670241621249
 20
516.1864753706631
 10
449.6671975591931
 20
516.2332600730363
 10
449.6486130819782
 20
516.2725807713545
 10
449.6318674575956
 20
516.3321720669458
 10
449.6189968874928
 20
516.3765319308761
 10
449.5848565765607
 20
516.4655755433654
 10
449.8288952416929
 20
516.396322661601
 10
450.0247632445848
 20
516.3748159227408
 10
450.1201664340451
 20
516.656777076948
 10
450.1751373728774
 20
516.8181426863746
 10
450.3965857316331
 20
517.0884240080602
 10
450.2655477340392
 20
517.0799967007008
 10
450.1916264515032
 20
517.0823023171329
 10
450.0783697835418
 20
517.0812260153797
 10
449.9500489766662
 20
517.0815886229286
 10
449.821048998959
 20
517.0814894768239
 10
449.7094078905468
 20
517.0815115592891
 10
449.6320901929201
 20
517.08150802406
 10
449.5939114491187
 20
517.0815081906142
 10
449.5834122967372
 20
517.081508239181
 97
        1
330
B3
 75
     1
 76
     2
 52
45.0
 41
0.1
 77
     0
 78
     1
 53
45.0
 43
0.0
 44
0.0
 45
-0.282842712474619
 46
0.0
 79
     0
 98
        1
 10
0.0
 20
0.0
  0
HATCH
  5
D1
330
48
100
AcDbEntity
  8
1
  6
Continuous
 62
     2
100
AcDbHatch
 10
0.0
 20
0.0
 30
0.0
210
0.0
220
0.0
230
1.0
  2
CUSTOM11
 70
     0
 71
     1
 91
        1
 92
        1
 93
        1
 72
     4
 94
        3
 73
     0
 74
     0
 95
      131
 96
      127
 40
0.0
 40
0.0
 40
0.0
 40
0.0
 40
0.0195577029826128
 40
0.0426490537461031
 40
0.2863607575855612
 40
0.5344948436188945
 40
0.7842238845573715
 40
0.8737315789468991
 40
0.9803832810314745
 40
1.092842274517186
 40
1.199761146656965
 40
1.289788768186588
 40
1.351573580786316
 40
1.370727117561568
 40
1.416400936017988
 40
1.470914848356112
 40
1.516588666792014
 40
1.535742203553138
 40
1.634216592293479
 40
1.760283341175317
 40
1.897966686682357
 40
2.031216387369174
 40
2.04968975113815
 40
2.101115601646999
 40
2.179502577740156
 40
2.278859318314236
 40
2.393194462258923
 40
2.516516648384088
 40
2.642834515406154
 40
2.766156701983679
 40
2.880491846754869
 40
2.979848588358724
 40
3.05823556544414
 40
3.109661416669216
 40
3.128134780704333
 40
3.146783742386678
 40
3.191254343315567
 40
3.244332157316198
 40
3.288802758226101
 40
3.307451719895373
 40
3.327717853845062
 40
3.383747753580284
 40
3.468388665924696
 40
3.574487837699
 40
3.694892515729127
 40
3.822449946852263
 40
3.950007377920603
 40
4.070412055800663
 40
4.176511227368284
 40
4.261152139501693
 40
4.317182039076958
 40
4.337448172964802
 40
4.620011002696328
 40
4.88509663839764
 40
4.945373043518466
 40
5.014107710488799
 40
5.070481727652095
 40
5.319246955636678
 40
5.584812164506199
 40
5.859000912057139
 40
6.133746937542272
 40
6.401732212969116
 40
6.420736683995735
 40
6.472845717451301
 40
6.550702743894285
 40
6.646951193874522
 40
6.754234497930875
 40
6.865196086587653
 40
6.972479390358083
 40
7.068727839772273
 40
7.146584865451282
 40
7.19869389818954
 40
7.217698368905681
 40
7.234950401631218
 40
7.276089864270184
 40
7.325191803516341
 40
7.366331266090733
 40
7.38358329877
 40
7.402779163492405
 40
7.453386443254751
 40
7.524934666445838
 40
7.606953361406092
 40
7.688972056429273
 40
7.760520279784466
 40
7.811127559734737
 40
7.830323424546386
 40
7.847844055300052
 40
7.894799345667061
 40
7.962779392744701
 40
8.043374293560795
 40
8.12817414514965
 40
8.208769044817508
 40
8.276749090377201
 40
8.323704379669756
 40
8.341225010056554
 40
8.35849761480071
 40
8.40167912668686
 40
8.457815092185998
 40
8.513951057728457
 40
8.557132569708383
 40
8.574405174505403
 40
8.602340668616808
 40
8.643455660540388
 40
8.66322527196707
 40
8.715345156564643
 40
8.789031889629035
 40
8.873502045520757
 40
8.957972194324332
 40
9.031658925568143
 40
9.083778811234941
 40
9.103548423003366
 40
9.119550083123903
 40
9.160817522380176
 40
9.217244429110456
 40
9.278724491644999
 40
9.335151398295755
 40
9.376418837358022
 40
9.392420497300867
 40
9.401196302735087
 40
9.41749422938448
 40
9.426270027749785
 40
9.440875075477857
 40
9.475702496999052
 40
9.517270709866226
 40
9.552098131994398
 40
9.566703169884548
 40
9.566703169884548
 40
9.566703169884548
 40
9.566703169884548
 10
453.4976492107654
 20
518.0446709472735
 10
453.4940583052547
 20
518.0390491391848
 10
453.48622770828
 20
518.0267897763542
 10
453.3936206933723
 20
517.9905313925732
 10
453.3693860192423
 20
517.7759966742904
 10
453.2664947805115
 20
517.5964850772604
 10
453.0026730323479
 20
517.4106679701447
 10
453.1651709528356
 20
517.334105597824
 10
453.2413463720016
 20
517.2730791641178
 10
453.3298409031934
 20
517.2096702776107
 10
453.4196168192287
 20
517.1497685743589
 10
453.4690055595221
 20
517.0955337806555
 10
453.5551946116557
 20
517.0673746375812
 10
453.5217498633406
 20
517.0316453286918
 10
453.5020909125485
 20
517.0000161120821
 10
453.4726126177059
 20
516.9592709601241
 10
453.4495227405208
 20
516.9295588670598
 10
453.4186443927532
 20
516.876626458848
 10
453.3535431324918
 20
517.0019155815523
 10
453.2602238081591
 20
517.0566512345026
 10
453.1756874244317
 20
517.1136764715567
 10
453.0528736084917
 20
517.2712651064382
 10
453.0570688806478
 20
517.1948702998317
 10
453.0557716611855
 20
517.1481250337761
 10
453.0564364407252
 20
517.0703600902893
 10
453.0561787946133
 20
516.9735329154074
 10
453.0562669199099
 20
516.8610150229514
 10
453.0562315261457
 20
516.7397530916202
 10
453.0562749717454
 20
516.615381210753
 10
453.0561437901582
 20
516.4941890684764
 10
453.0565715521223
 20
516.3814237213606
 10
453.0552916161486
 20
516.2853413698506
 10
453.0585997810218
 20
516.2056504968501
 10
453.0521435699261
 20
516.162663990051
 10
453.0612446664734
 20
516.1240665558837
 10
453.0254148299109
 20
516.1326211094039
 10
452.9921461774427
 20
516.1279374320177
 10
452.9410800535218
 20
516.1280252197612
 10
452.9075961931988
 20
516.1324565350016
 10
452.8713823367929
 20
516.1241201705883
 10
452.8816020527842
 20
516.1659650039562
 10
452.8742725846948
 20
516.212297840365
 10
452.8779871095277
 20
516.2982605432233
 10
452.8765718514071
 20
516.4005636592118
 10
452.8770343513817
 20
516.5190444714785
 10
452.8769011645404
 20
516.6440890636966
 10
452.8769253869222
 20
516.7692705132338
 10
452.8769592884726
 20
516.8873786859538
 10
452.8768298252309
 20
516.9907997192583
 10
452.8771745508257
 20
517.0738325937
 10
452.8764936237865
 20
517.1259459173756
 10
452.88008245598
 20
517.2536413103768
 10
452.6632409345609
 20
516.9549994003594
 10
452.4827592881129
 20
516.7271520472784
 10
452.4296560254787
 20
516.8682466650614
 10
452.4006667092325
 20
516.9177699077725
 10
452.3002886021994
 20
517.0209300300642
 10
452.6211365682438
 20
517.1014625824009
 10
452.7496134964604
 20
517.2851750625276
 10
452.9712692284537
 20
517.493832189881
 10
453.0576462853244
 20
517.6679043444465
 10
453.3355632188252
 20
517.9441827455887
 10
453.2152485798462
 20
517.9398578276745
 10
453.1669435310525
 20
517.940660794189
 10
453.0908615414081
 20
517.9402580536291
 10
452.9973247968926
 20
517.9404149882795
 10
452.8923832747733
 20
517.9403372579254
 10
452.7840125697894
 20
517.9404668759489
 10
452.6787692195073
 20
517.94005616707
 10
452.5862475778589
 20
517.9413329688795
 10
452.5074368759884
 20
517.9379198975116
 10
452.4645912524556
 20
517.9447457325267
 10
452.4255737545691
 20
517.9351628741745
 10
452.433260323104
 20
517.9687200278187
 10
452.4291702363487
 20
517.9997477353857
 10
452.4291769327991
 20
518.0468775248722
 10
452.4332477684088
 20
518.077921648631
 10
452.4255733533758
 20
518.1115308485222
 10
452.4641057364673
 20
518.1019963363723
 10
452.5047465973655
 20
518.1084865871437
 10
452.5757709809641
 20
518.105513738666
 10
452.653555610881
 20
518.1062598461549
 10
452.7313530205649
 20
518.1069903726084
 10
452.8023470049084
 20
518.104054587305
 10
452.8430517750994
 20
518.1104669198928
 10
452.8816091449087
 20
518.1010174739234
 10
452.8733580714102
 20
518.1371591537511
 10
452.8788584628535
 20
518.1758106082956
 10
452.8761992165338
 20
518.2436475177817
 10
452.8772053430707
 20
518.3204286475507
 10
452.8766415977497
 20
518.403006167991
 10
452.8776952485767
 20
518.479685524462
 10
452.8748913822305
 20
518.5478321399303
 10
452.8806940680481
 20
518.5858362302569
 10
452.8721892510334
 20
518.6220967129399
 10
452.90618481923
 20
518.6120694698817
 10
452.9400813642276
 20
518.6152449003002
 10
452.9932907019523
 20
518.6096018885694
 10
453.0467006533659
 20
518.6088599765276
 10
453.0802152608666
 20
518.6027044669931
 10
453.1194324142215
 20
518.6079725298993
 10
453.0926501657667
 20
518.567046040098
 10
453.0514348960901
 20
518.5782242775443
 10
453.058887950005
 20
518.5331827940845
 10
453.0548465911361
 20
518.4886350124445
 10
453.0567952008817
 20
518.4167479583803
 10
453.0558602808935
 20
518.3361985380509
 10
453.0571345149206
 20
518.2562521862133
 10
453.053828175304
 20
518.182930602995
 10
453.0608344139138
 20
518.141398662189
 10
453.0507678339302
 20
518.1020364178444
 10
453.0836052763098
 20
518.109192866473
 10
453.1170815255656
 20
518.1047846635428
 10
453.1721291435194
 20
518.1066916656423
 10
453.229574055449
 20
518.106365896236
 10
453.2829264207486
 20
518.1055753194944
 10
453.3204778855815
 20
518.1076518233438
 10
453.3429410482412
 20
518.1047356138345
 10
453.3557916032907
 20
518.1102377586037
 10
453.3664493645065
 20
518.1125234141413
 10
453.3792873609317
 20
518.1194619580436
 10
453.3952228992246
 20
518.1030426952999
 10
453.4216861880066
 20
518.0916034553576
 10
453.4533043212935
 20
518.0709591105153
 10
453.4793493851328
 20
518.0556809284462
 10
453.4934755683149
 20
518.047181995395
 10
453.4976492107654
 20
518.0446709472735
 97
        1
330
B4
 75
     1
 76
     2
 52
45.0
 41
0.1
 77
     0
 78
     1
 53
45.0
 43
0.0
 44
0.0
 45
-0.282842712474619
 46
0.0
 79
     0
 98
        1
 10
0.0
 20
0.0
  0
HATCH
  5
D2
330
48
100
AcDbEntity
  8
1
  6
Continuous
 62
     2
100
AcDbHatch
 10
0.0
 20
0.0
 30
0.0
210
0.0
220
0.0
230
1.0
  2
CUSTOM12
 70
     0
 71
     1
 91
        1
 92
        1
 93
        1
 72
     4
 94
        3
 73
     0
 74
     0
 95
      124
 96
      120
 40
0.0
 40
0.0
 40
0.0
 40
0.0
 40
0.0278187229624795
 40
0.1011590162383417
 40
0.2048470170590239
 40
0.3237088716559245
 40
0.4425707262521431
 40
0.5462587270698694
 40
0.6195990203311798
 40
0.647417752257866
 40
0.6750060736114851
 40
0.7357003855241835
 40
0.7963946998053195
 40
0.8239830245570381
 40
0.8540933811101474
 40
0.9373396629408723
 40
1.063094687343096
 40
1.220731268637906
 40
1.399622220914637
 40
1.589140358637565
 40
1.77865849642376
 40
1.95754944894037
 40
2.115186030872963
 40
2.240941056914267
 40
2.324187341760365
 40
2.354297700109215
 40
2.381886024671645
 40
2.442580338710287
 40
2.503274652750179
 40
2.530862977314315
 40
2.560983949278239
 40
2.640393784452614
 40
2.75266286175878
 40
2.881361560117853
 40
3.010060258454872
 40
3.122329335705047
 40
3.20173917081769
 40
3.231860142753022
 40
3.264298024030041
 40
3.352343701778069
 40
3.482095226868524
 40
3.639650650172713
 40
3.811108022565237
 40
3.982565394927748
 40
4.140120818152355
 40
4.269872343141061
 40
4.357918020802118
 40
4.390355902043667
 40
4.423256253992293
 40
4.508104530072729
 40
4.624121560636469
 40
4.750528176031254
 40
4.866545206601701
 40
4.951393482691743
 40
4.984293834645087
 40
5.011450833241953
 40
5.071196230151714
 40
5.130941627056701
 40
5.158098625648337
 40
5.190998977600942
 40
5.275847253688768
 40
5.391864284256315
 40
5.518270899647804
 40
5.634287930208814
 40
5.719136206287488
 40
5.752036558235376
 40
5.782130946282394
 40
5.862783906228572
 40
5.979550131774489
 40
6.117984316639821
 40
6.263641154587334
 40
6.402075339413558
 40
6.518841564907405
 40
6.599494524815044
 40
6.629588912848193
 40
6.654403028225704
 40
6.713575149487499
 40
6.784199939328849
 40
6.843372060492888
 40
6.868186175802109
 40
6.896246243201263
 40
6.939586233757607
 40
6.967846564564068
 40
7.043584251089213
 40
7.153234334450984
 40
7.283231855733787
 40
7.420011856034874
 40
7.550009376579167
 40
7.659659458834652
 40
7.73539714441665
 40
7.7636574748509
 40
7.796409728010529
 40
7.880876065095945
 40
7.996370852465303
 40
8.122208446418083
 40
8.237703224798791
 40
8.3221695620104
 40
8.354921815205442
 40
8.382078813307201
 40
8.441824209206514
 40
8.501569605239522
 40
8.528726603485095
 40
8.561478856695087
 40
8.645945193877195
 40
8.761439980864678
 40
8.887277580763906
 40
9.00277236200037
 40
9.087238696660618
 40
9.119990949235044
 40
9.15242883061279
 40
9.240474508637758
 40
9.370226034148855
 40
9.527781457983847
 40
9.69923883098073
 40
9.870696203977955
 40
10.0282516278134
 40
10.15800315332495
 40
10.2460488313506
 40
10.27848670378461
 40
10.27848670378461
 40
10.27848670378461
 40
10.27848670378461
 10
454.2628065523559
 20
516.3886174060208
 10
454.2720792696699
 20
516.3886172172759
 10
454.3057982496039
 20
516.3886165409306
 10
454.3740944771641
 20
516.3886303045962
 10
454.4726379670757
 20
516.3885444743588
 10
454.5868304423987
 20
516.3889297882856
 10
454.6992132376248
 20
516.3875205911388
 10
454.8020614559293
 20
516.3917034063854
 10
454.8613077834024
 20
516.3827431246832
 10
454.9177503896209
 20
516.3961565774238
 10
454.9052493546131
 20
516.345384218297
 10
454.913578759488
 20
516.3004054415541
 10
454.9054408800295
 20
516.2550797620679
 10
454.9176767173632
 20
516.2038315562481
 10
454.8554011449509
 20
516.218991785816
 10
454.7866750986044
 20
516.2081097392708
 10
454.6588994708766
 20
516.2136252796429
 10
454.5069222470819
 20
516.2115207447005
 10
454.33089339317
 20
516.2122222580481
 10
454.1450669893462
 20
516.2119646074763
 10
453.9592405396352
 20
516.2122222836092
 10
453.7832118101344
 20
516.2115206506406
 10
453.6312342113371
 20
516.2136255544632
 10
453.5034595623731
 20
516.2081090398397
 10
453.4347315795756
 20
516.2189930034228
 10
453.372458700206
 20
516.2038300990055
 10
453.3846854249193
 20
516.2550873402149
 10
453.3766242421774
 20
516.3003369648876
 10
453.384691376907
 20
516.3455758117163
 10
453.3724476446259
 20
516.3968540012628
 10
453.4331255079873
 20
516.3820080057945
 10
453.4969048704912
 20
516.3920767138707
 10
453.6083552312678
 20
516.3874586742832
 10
453.7303771402999
 20
516.3886455212178
 10
453.8525776096999
 20
516.3896708711696
 10
453.9636032246569
 20
516.3854369883973
 10
454.0282755373133
 20
516.3946980773806
 10
454.0897400769678
 20
516.3805564626601
 10
454.0736303560512
 20
516.4468675110082
 10
454.0849218286533
 20
516.518990133383
 10
454.0793638781736
 20
516.6496498410461
 10
454.0814273020869
 20
516.8005854692458
 10
454.0806405086469
 20
516.967870963242
 10
454.0814083174805
 20
517.1351233354864
 10
454.0794276744803
 20
517.2861451248624
 10
454.0847544115799
 20
517.4165729276932
 10
454.07393393476
 20
517.4891666582223
 10
454.0896564389051
 20
517.5560169265311
 10
454.0238946091667
 20
517.5403173570714
 10
453.9562605789938
 20
517.550604663003
 10
453.8422123252986
 20
517.5456501006345
 10
453.7257480634079
 20
517.548653512468
 10
453.6112792080654
 20
517.5433152635974
 10
453.5446562616987
 20
517.5545249129115
 10
453.4797007674363
 20
517.5380035588134
 10
453.4914227717884
 20
517.5892494369339
 10
453.4839068148295
 20
517.6340155700041
 10
453.4914227838012
 20
517.6787816811427
 10
453.4797007464524
 20
517.7300275934606
 10
453.5446564298375
 20
517.713506049831
 10
453.6112771298998
 20
517.7247179459026
 10
453.7257590817239
 20
517.7193665992698
 10
453.8421692396139
 20
517.7224241198742
 10
453.9563898133818
 20
517.7172972222706
 10
454.0236388398403
 20
517.7279695657187
 10
454.0889563900614
 20
517.7119330588541
 10
454.0747629407726
 20
517.7740090896637
 10
454.0842297422172
 20
517.8403798484509
 10
454.0796506963262
 20
517.9569119595828
 10
454.0813934515124
 20
518.088779082387
 10
454.0803789454567
 20
518.230671833666
 10
454.0823429303549
 20
518.3622027391889
 10
454.0770906513029
 20
518.4797580049934
 10
454.0879646722648
 20
518.543990122179
 10
454.072577460103
 20
518.6056002576137
 10
454.1213829496976
 20
518.5915363059843
 10
454.1660233523901
 20
518.5940596529165
 10
454.2344881905917
 20
518.5896402061803
 10
454.2765344128279
 20
518.5806424876037
 10
454.3293782717951
 20
518.5886293808285
 10
454.301327296119
 20
518.5456514082799
 10
454.2555380207771
 20
518.5571077526017
 10
454.267577703244
 20
518.4962474322147
 10
454.2602324029821
 20
518.4322052268512
 10
454.2637433785338
 20
518.3236059208024
 10
454.262604471935
 20
518.1994554236107
 10
454.262541273944
 20
518.0664094304622
 10
454.2639110926044
 20
517.9424860446586
 10
454.2597876760489
 20
517.8331956106568
 10
454.268400106274
 20
517.7705980331045
 10
454.2552995413578
 20
517.7119135651269
 10
454.3200122287373
 20
517.7281333702716
 10
454.3866643912332
 20
517.7172148359963
 10
454.5005017500278
 20
517.7224496339006
 10
454.6163497081273
 20
517.7193677073323
 10
454.7303162222457
 20
517.7246948302883
 10
454.7966578977275
 20
517.7135543138285
 10
454.8613426484656
 20
517.7299820280948
 10
454.8496058731898
 20
517.6787714842637
 10
454.8571406022218
 20
517.6340155733733
 10
454.8496058951436
 20
517.5892596222635
 10
454.8613426099912
 20
517.5380491408737
 10
454.7966582034429
 20
517.5544765101052
 10
454.730312439
 20
517.543340076636
 10
454.6163697446189
 20
517.5486433910944
 10
454.5004233582232
 20
517.5456598780988
 10
454.3868994841296
 20
517.5505811548469
 10
454.3195469277981
 20
517.5403631072986
 10
454.254052308167
 20
517.5559721935514
 10
454.2697951578392
 20
517.4891507504374
 10
454.258951395739
 20
517.4165828103222
 10
454.2642819588968
 20
517.2861347083074
 10
454.2623374111033
 20
517.1351578140157
 10
454.262937164239
 20
516.9677346715047
 10
454.2627744518781
 20
516.8010739933471
 10
454.2628133447311
 20
516.6481136613796
 10
454.2628054372276
 20
516.5230040220204
 10
454.262806634192
 20
516.4395911420771
 10
454.2628065675385
 20
516.3994300149832
 10
454.2628065523559
 20
516.3886174060208
 97
        1
330
B5
 75
     1
 76
     2
 52
45.0
 41
0.1
 77
     0
 78
     1
 53
45.0
 43
0.0
 44
0.0
 45
-0.282842712474619
 46
0.0
 79
     0
 98
        1
 10
0.0
 20
0.0
  0
HATCH
  5
D3
330
48
100
AcDbEntity
  8
1
  6
Continuous
 62
     2
100
AcDbHatch
 10
0.0
 20
0.0
 30
0.0
210
0.0
220
0.0
230
1.0
  2
CUSTOM13
 70
     0
 71
     1
 91
        1
 92
        1
 93
        3
 72
     4
 94
        3
 73
     0
 74
     0
 95
       24
 96
       20
 40
0.0
 40
0.0
 40
0.0
 40
0.0
 40
0.2211075008753202
 40
0.4273218586246217
 40
0.508017467924035
 40
0.5914835907872358
 40
0.8143265690194474
 40
1.054651302686811
 40
1.295452694023351
 40
1.518109231329029
 40
1.540864321905702
 40
1.595126460622927
 40
1.659890947896338
 40
1.714153085187531
 40
1.73690817496191
 40
1.764951100735659
 40
1.801562291221174
 40
1.95391442454386
 40
2.126104167379862
 40
2.126104167379862
 40
2.126104167379862
 40
2.126104167379862
 10
444.8181607516065
 20
517.9644051832934
 10
444.7918817040987
 20
517.9054885145069
 10
444.7410936853603
 20
517.791623628956
 10
444.6938022798286
 20
517.5189318144937
 10
444.5849720761796
 20
517.6189670579181
 10
444.4321038238812
 20
517.6456981658363
 10
444.6492393140376
 20
517.8596935823398
 10
444.6644721633556
 20
518.077833409988
 10
444.7713127451174
 20
518.2590280228276
 10
444.7111618906258
 20
518.5436444952777
 10
444.8140555354578
 20
518.5156531243878
 10
444.8586171427326
 20
518.5069447481865
 10
444.9187080354574
 20
518.4959087739967
 10
444.9562857546613
 20
518.4821874627187
 10
445.0058704887783
 20
518.4820729937654
 10
444.9736396878501
 20
518.4475781561492
 10
444.8978040181057
 20
518.4585532775429
 10
444.9235685118869
 20
518.2731019279876
 10
444.8862134723026
 20
518.1815353676592
 10
444.8663942920786
 20
518.1329535861403
 72
     4
 94
        3
 73
     0
 74
     0
 95
       70
 96
       66
 40
0.0
 40
0.0
 40
0.0
 40
0.0
 40
0.0241731073021472
 40
0.0846058988987013
 40
0.1631685280352715
 40
0.2417311571788903
 40
0.3021639488291614
 40
0.3263370654894973
 40
0.3533118254249538
 40
0.4228783438921951
 40
0.517999909531342
 40
0.6216398239466813
 40
0.7167613891499528
 40
0.7863279069649721
 40
0.8133026791762191
 40
0.8372943998772076
 40
0.894505426137354
 40
0.9627895541963867
 40
1.020000580349167
 40
1.043992300975355
 40
1.071934345523143
 40
1.113121768773126
 40
1.145225199332471
 40
1.225483775412967
 40
1.329819923771665
 40
1.434156071994507
 40
1.514414647796015
 40
1.546518078208478
 40
1.578974764260194
 40
1.662678849314104
 40
1.77713137366841
 40
1.901833377474772
 40
2.01628590050059
 40
2.099989982527872
 40
2.132446666570231
 40
2.158782354485779
 40
2.216720867907624
 40
2.274659381333904
 40
2.300995069255932
 40
2.333451754065961
 40
2.417155836543613
 40
2.531608358985024
 40
2.656310362283491
 40
2.770762886388595
 40
2.854466971339732
 40
2.886923657363538
 40
2.913597976832945
 40
2.98238964287482
 40
3.076451716946806
 40
3.178937260458226
 40
3.272999334739736
 40
3.341791001059007
 40
3.36846532066336
 40
3.396976080738638
 40
3.472140811845875
 40
3.57840819030845
 40
3.700226892456
 40
3.822045594634075
 40
3.928312973256154
 40
4.003477705314608
 40
4.031988456866674
 40
4.058324144797456
 40
4.116262658236582
 40
4.174201171400244
 40
4.200536849608187
 40
4.200536849608187
 40
4.200536849608187
 40
4.200536849608187
 10
444.8663942920786
 20
518.1329535861403
 10
444.8744497503856
 20
518.1329558302801
 10
444.9026438622417
 20
518.1329636924911
 10
444.9571772762849
 20
518.132819780447
 10
445.028912976778
 20
518.1336034371622
 10
445.1042478096239
 20
518.1307879368015
 10
445.1519290325615
 20
518.1374962661727
 10
445.2001309204793
 20
518.1264878690876
 10
445.186880975905
 20
518.1799762621336
 10
445.1957331923714
 20
518.2350080675942
 10
445.1914935995461
 20
518.3287113194243
 10
445.1939721440457
 20
518.4241070543485
 10
445.1897176665236
 20
518.5180804519971
 10
445.1986056625022
 20
518.5724628565436
 10
445.1853215369122
 20
518.6268522090778
 10
445.2320357236284
 20
518.6129343955167
 10
445.2749492504913
 20
518.6155510059037
 10
445.3411681415862
 20
518.6109964566708
 10
445.3819580230975
 20
518.6022938535049
 10
445.4331383649997
 20
518.6098302310653
 10
445.4059958446376
 20
518.568011934396
 10
445.3609334014884
 20
518.5773621528892
 10
445.3748303004226
 20
518.5129243058815
 10
445.3664652390831
 20
518.4482944284372
 10
445.3709870137575
 20
518.3498036441019
 10
445.3660979270344
 20
518.2504715605888
 10
445.3756496951256
 20
518.1874433876927
 10
445.3605999414379
 20
518.1241523471613
 10
445.4255397416385
 20
518.1396629616057
 10
445.4922484358675
 20
518.1295061091415
 10
445.6047673430003
 20
518.1344002331568
 10
445.7196473408131
 20
518.1314242794912
 10
445.8326109958923
 20
518.136728874013
 10
445.8982505556853
 20
518.1255852968843
 10
445.9622514650227
 20
518.1419575553616
 10
445.9509380848367
 20
518.0921291312161
 10
445.9581577830686
 20
518.0486793842846
 10
445.9509380570445
 20
518.0052296880376
 10
445.962251513517
 20
517.9554011841321
 10
445.8982501558148
 20
517.971773893077
 10
445.8326159199635
 20
517.9606249487791
 10
445.7196212276506
 20
517.9659608042318
 10
445.6048694507821
 20
517.9628556888017
 10
445.4919421646038
 20
517.968161178989
 10
445.4261458862761
 20
517.9570852323592
 10
445.3622335934535
 20
517.9733882106394
 10
445.3742253124302
 20
517.9187474761208
 10
445.3668342572183
 20
517.8630551826418
 10
445.369892280116
 20
517.7710091235688
 10
445.3699660744859
 20
517.6763033308941
 10
445.3666551537536
 20
517.584040061186
 10
445.3745743949079
 20
517.5288699195245
 10
445.3621314570794
 20
517.4750939231645
 10
445.4195354510808
 20
517.4890499207906
 10
445.4800946099561
 20
517.4796268110057
 10
445.5854918814258
 20
517.4839410914501
 10
445.7010532029798
 20
517.4828672782835
 10
445.8165926836973
 20
517.481771891173
 10
445.9220419090016
 20
517.4861374898694
 10
445.982491843098
 20
517.4766064924698
 10
446.0399075698285
 20
517.4906851282268
 10
446.0284011835884
 20
517.4415837648199
 10
446.0343804740926
 20
517.4001588123496
 10
446.0326549009978
 20
517.3510290118305
 10
446.0327738082146
 20
517.3230565166392
 10
446.0328109651009
 20
517.3143151141228
 72
     4
 94
        3
 73
     0
 74
     0
 95
       62
 96
       58
 40
0.0
 40
0.0
 40
0.0
 40
0.0
 40
0.0598250028309053
 40
0.20248464868979
 40
0.3727558389221599
 40
0.515415484793607
 40
0.5752404975785907
 40
0.9332326775488929
 40
1.290451762839639
 40
1.602077253146051
 40
1.69993163411235
 40
1.799359756425194
 40
2.270120149657084
 40
2.804661928461683
 40
2.882342287383408
 40
3.076543185719316
 40
3.329004354835802
 40
3.581465524568585
 40
3.775666424543856
 40
3.853346784558453
 40
3.899120679595256
 40
3.984129341792282
 40
4.029903236817659
 40
4.105797496059863
 40
4.295533144152642
 40
4.542189486611988
 40
4.788845828875906
 40
4.978581476410255
 40
5.054475735244437
 40
5.621734664339357
 40
6.130867242037473
 40
6.225249780948661
 40
6.31891303972748
 40
6.663579954559098
 40
7.047498900224929
 40
7.435230791575879
 40
7.498943906668291
 40
7.650875181210228
 40
7.832212509001824
 40
7.984143783697238
 40
8.047856898903337
 40
8.09155463273284
 40
8.172707566964409
 40
8.216405300768105
 40
8.289021782161019
 40
8.462184160757392
 40
8.66886183800553
 40
8.842024215264036
 40
8.914640695475232
 40
8.989881580861397
 40
9.155411528827376
 40
9.320941477744231
 40
9.396182352487491
 40
9.454709011144038
 40
9.583467660171001
 40
9.712226309013223
 40
9.770752957989734
 40
9.770752957989734
 40
9.770752957989734
 40
9.770752957989734
 10
446.0328109651009
 20
517.3143151141228
 10
446.01285861308
 20
517.3143209878501
 10
445.945327567564
 20
517.3143408702249
 10
445.8216850120963
 20
517.3140058573664
 10
445.6669418109233
 20
517.3155889696686
 10
445.5503587441656
 20
517.3113730207681
 10
445.3357180593413
 20
517.3266642854798
 10
445.7325186366405
 20
516.9664994450251
 10
445.7751894028444
 20
516.7496172661348
 10
446.1995400105785
 20
516.5677628572777
 10
446.0246059455253
 20
516.464364197844
 10
445.9000761884253
 20
516.2528274642904
 10
445.6472515195119
 20
516.7225730421787
 10
445.3603840852805
 20
517.369627402009
 10
445.3712573885836
 20
517.0623389537101
 10
445.3689130737138
 20
516.8973984018812
 10
445.3667334085587
 20
516.6633089392801
 10
445.3787012355524
 20
516.4194929563812
 10
445.3494222699807
 20
516.2730702007731
 10
445.3920760584647
 20
516.1256471339087
 10
445.3046051964816
 20
516.1413702052256
 10
445.257476556592
 20
516.1414552675977
 10
445.1705211166889
 20
516.1256064869925
 10
445.2119711980899
 20
516.2697899463908
 10
445.183611296346
 20
516.4130627591477
 10
445.1952211734475
 20
516.6512617058158
 10
445.1930413607449
 20
516.8796845845668
 10
445.1909349087169
 20
517.041569525923
 10
445.2014273397501
 20
517.3560493255006
 10
444.8935201212068
 20
516.6668069408873
 10
444.5861496226629
 20
516.1892797345936
 10
444.4657605025451
 20
516.4119233585375
 10
444.2880845869897
 20
516.5246225817189
 10
444.7659564322071
 20
516.699993666818
 10
444.8160197016384
 20
516.9354315246836
 10
445.2390037580892
 20
517.3277421256096
 10
445.0082992232718
 20
517.3110653024538
 10
444.8855923818517
 20
517.3172074216511
 10
444.7131721054836
 20
517.3076404591588
 10
444.6019462653625
 20
517.32900041706
 10
444.4832017586624
 20
517.2958748857375
 10
444.4989407665863
 20
517.3765512382321
 10
444.4984788892938
 20
517.4209663750717
 10
444.4834119849107
 20
517.5041830499484
 10
444.6178618894619
 20
517.4651387520018
 10
444.7425993504924
 20
517.4919095254472
 10
444.9434993196455
 20
517.4751517226036
 10
445.0727778908529
 20
517.4965544912932
 10
445.213465788747
 20
517.4632000206974
 10
445.1787165411791
 20
517.6010309900138
 10
445.2028423625889
 20
517.7241448056582
 10
445.1773324141568
 20
517.8447527888663
 10
445.2139489105862
 20
517.9799108835784
 10
445.1017654986945
 20
517.955457689982
 10
445.0086594416313
 20
517.9675897305835
 10
444.8997785538996
 20
517.9640885328635
 10
444.837593560014
 20
517.9643297916792
 10
444.8181607516422
 20
517.9644051834048
 97
        3
330
B7
330
B8
330
B6
 75
     1
 76
     2
 52
45.0
 41
0.1
 77
     0
 78
     1
 53
45.0
 43
0.0
 44
0.0
 45
-0.282842712474619
 46
0.0
 79
     0
 98
        1
 10
0.0
 20
0.0
  0
HATCH
  5
D4
330
48
100
AcDbEntity
  8
1
  6
Continuous
 62
     2
100
AcDbHatch
 10
0.0
 20
0.0
 30
0.0
210
0.0
220
0.0
230
1.0
  2
CUSTOM14
 70
     0
 71
     1
 91
        1
 92
        1
 93
        4
 72
     1
 10
451.3384375991848
 20
517.6032665723837
 11
450.0409209656207
 21
517.6032665723837
 72
     1
 10
450.0409209656207
 20
517.6032665723837
 11
450.0409209656207
 21
517.7717356001194
 72
     1
 10
450.0409209656207
 20
517.7717356001194
 11
451.3384375991848
 21
517.7717356001194
 72
     1
 10
451.3384375991848
 20
517.7717356001194
 11
451.3384375991848
 21
517.6032665723837
 97
        1
330
B9
 75
     1
 76
     2
 52
45.0
 41
0.1
 77
     0
 78
     1
 53
45.0
 43
0.0
 44
0.0
 45
-0.282842712474619
 46
0.0
 79
     0
 98
        1
 10
0.0
 20
0.0
  0
ENDBLK
  5
4A
330
48
100
AcDbEntity
  8
0
100
AcDbBlockEnd
  0
BLOCK
  5
4D
330
4B
100
AcDbEntity
  8
0
100
AcDbBlockBegin
  2
開示A4枠
 70
     0
 10
258.8806237959176
 20
502.3745122321632
 30
0.0
  3
開示A4枠
  1

  0
INSERT
  5
4C
330
4B
100
AcDbEntity
  8
1
100
AcDbBlockReference
  2
開示A4
 10
258.8806237959176
 20
502.3745122321632
 30
0.0
  0
ENDBLK
  5
4E
330
4B
100
AcDbEntity
  8
0
100
AcDbBlockEnd
  0
BLOCK
  5
50
330
4F
100
AcDbEntity
  8
0
100
AcDbBlockBegin
  2
H41-100-1
 70
     0
 10
251.0952207600746
 20
499.357882903184
 30
0.0
  3
H41-100-1
  1

  0
LINE
  5
D5
330
4F
100
AcDbEntity
  8
1
  6
Continuous
 62
     7
100
AcDbLine
 10
320.8452207600748
 20
577.107882903184
 30
0.0
 11
374.3452207600748
 21
577.107882903184
 31
0.0
  0
LINE
  5
D6
330
4F
100
AcDbEntity
  8
1
  6
Continuous
 62
     7
100
AcDbLine
 10
315.8452207600748
 20
602.607882903184
 30
0.0
 11
374.3452207600748
 21
602.607882903184
 31
0.0
  0
LINE
  5
D7
330
4F
100
AcDbEntity
  8
1
  6
Continuous
 62
     7
100
AcDbLine
 10
315.8452207600748
 20
605.607882903184
 30
0.0
 11
374.3452207600748
 21
605.607882903184
 31
0.0
  0
LINE
  5
D8
330
4F
100
AcDbEntity
  8
1
  6
Continuous
 62
     7
100
AcDbLine
 10
320.8452207600748
 20
602.107882903184
 30
0.0
 11
374.3452207600748
 21
602.107882903184
 31
0.0
  0
LINE
  5
D9
330
4F
100
AcDbEntity
  8
1
  6
Continuous
 62
     7
100
AcDbLine
 10
316.3452207600748
 20
602.107882903184
 30
0.0
 11
315.8452207600748
 21
602.607882903184
 31
0.0
  0
LINE
  5
DA
330
4F
100
AcDbEntity
  8
1
  6
Continuous
 62
     7
100
AcDbLine
 10
315.8452207600748
 20
605.607882903184
 30
0.0
 11
316.3452207600748
 21
606.107882903184
 31
0.0
  0
LINE
  5
DB
330
4F
100
AcDbEntity
  8
1
  6
Continuous
 62
     7
100
AcDbLine
 10
374.3452207600748
 20
574.107882903184
 30
0.0
 11
321.8452207600748
 21
574.107882903184
 31
0.0
  0
LINE
  5
DC
330
4F
100
AcDbEntity
  8
1
  6
Continuous
 62
     7
100
AcDbLine
 10
316.3452207600748
 20
606.107882903184
 30
0.0
 11
374.3452207600748
 21
606.107882903184
 31
0.0
  0
LINE
  5
DD
330
4F
100
AcDbEntity
  8
1
  6
Continuous
 62
     7
100
AcDbLine
 10
321.8452207600748
 20
574.107882903184
 30
0.0
 11
320.8452207600748
 21
577.107882903184
 31
0.0
  0
LINE
  5
DE
330
4F
100
AcDbEntity
  8
1
  6
Continuous
 62
     7
100
AcDbLine
 10
320.8452207600748
 20
577.107882903184
 30
0.0
 11
320.8452207600748
 21
602.107882903184
 31
0.0
  0
LINE
  5
DF
330
4F
100
AcDbEntity
  8
1
  6
Continuous
 62
     7
100
AcDbLine
 10
320.8452207600748
 20
602.107882903184
 30
0.0
 11
316.3452207600748
 21
602.107882903184
 31
0.0
  0
LINE
  5
E0
330
4F
100
AcDbEntity
  8
1
  6
Continuous
 62
     7
100
AcDbLine
 10
315.8452207600748
 20
602.607882903184
 30
0.0
 11
315.8452207600748
 21
605.607882903184
 31
0.0
  0
LINE
  5
E1
330
4F
100
AcDbEntity
  8
1
  6
Continuous
 62
     7
100
AcDbLine
 10
432.8452207600748
 20
602.607882903184
 30
0.0
 11
432.3452207600748
 21
602.107882903184
 31
0.0
  0
LINE
  5
E2
330
4F
100
AcDbEntity
  8
1
  6
Continuous
 62
     7
100
AcDbLine
 10
432.3452207600748
 20
606.107882903184
 30
0.0
 11
432.8452207600748
 21
605.607882903184
 31
0.0
  0
LINE
  5
E3
330
4F
100
AcDbEntity
  8
1
  6
Continuous
 62
     7
100
AcDbLine
 10
426.8452207600748
 20
574.107882903184
 30
0.0
 11
374.3452207600748
 21
574.107882903184
 31
0.0
  0
LINE
  5
E4
330
4F
100
AcDbEntity
  8
1
  6
Continuous
 62
     7
100
AcDbLine
 10
427.8452207600748
 20
577.107882903184
 30
0.0
 11
426.8452207600748
 21
574.107882903184
 31
0.0
  0
LINE
  5
E5
330
4F
100
AcDbEntity
  8
1
  6
Continuous
 62
     7
100
AcDbLine
 10
427.8452207600748
 20
602.107882903184
 30
0.0
 11
427.8452207600748
 21
577.107882903184
 31
0.0
  0
LINE
  5
E6
330
4F
100
AcDbEntity
  8
1
  6
Continuous
 62
     7
100
AcDbLine
 10
432.3452207600748
 20
602.107882903184
 30
0.0
 11
427.8452207600748
 21
602.107882903184
 31
0.0
  0
LINE
  5
E7
330
4F
100
AcDbEntity
  8
1
  6
Continuous
 62
     7
100
AcDbLine
 10
432.8452207600748
 20
605.607882903184
 30
0.0
 11
432.8452207600748
 21
602.607882903184
 31
0.0
  0
LINE
  5
E8
330
4F
100
AcDbEntity
  8
1
  6
Continuous
 62
     7
100
AcDbLine
 10
374.3452207600748
 20
606.107882903184
 30
0.0
 11
432.3452207600748
 21
606.107882903184
 31
0.0
  0
LINE
  5
E9
330
4F
100
AcDbEntity
  8
1
  6
Continuous
 62
     7
100
AcDbLine
 10
374.3452207600748
 20
577.107882903184
 30
0.0
 11
427.8452207600748
 21
577.107882903184
 31
0.0
  0
LINE
  5
EA
330
4F
100
AcDbEntity
  8
1
  6
Continuous
 62
     7
100
AcDbLine
 10
374.3452207600748
 20
602.107882903184
 30
0.0
 11
427.8452207600748
 21
602.107882903184
 31
0.0
  0
LINE
  5
EB
330
4F
100
AcDbEntity
  8
1
  6
Continuous
 62
     7
100
AcDbLine
 10
374.3452207600748
 20
602.107882903184
 30
0.0
 11
427.8452207600748
 21
602.107882903184
 31
0.0
  0
LINE
  5
EC
330
4F
100
AcDbEntity
  8
1
  6
Continuous
 62
     7
100
AcDbLine
 10
320.8452207600748
 20
602.107882903184
 30
0.0
 11
374.3452207600748
 21
602.107882903184
 31
0.0
  0
LINE
  5
ED
330
4F
100
AcDbEntity
  8
1
  6
Continuous
 62
     7
100
AcDbLine
 10
374.3452207600748
 20
602.607882903184
 30
0.0
 11
432.8452207600748
 21
602.607882903184
 31
0.0
  0
LINE
  5
EE
330
4F
100
AcDbEntity
  8
1
  6
Continuous
 62
     7
100
AcDbLine
 10
374.3452207600748
 20
605.607882903184
 30
0.0
 11
432.8452207600748
 21
605.607882903184
 31
0.0
  0
ARC
  5
EF
330
4F
100
AcDbEntity
  8
0
  6
Continuous
 62
     7
100
AcDbCircle
 10
374.3452207600748
 20
691.607882903184
 30
0.0
 40
58.0
100
AcDbArc
 50
0.0
 51
180.0
  0
ARC
  5
F0
330
4F
100
AcDbEntity
  8
0
  6
Continuous
 62
     7
100
AcDbCircle
 10
374.3452207600748
 20
691.607882903184
 30
0.0
 40
58.5
100
AcDbArc
 50
0.0
 51
180.0
  0
ARC
  5
F1
330
4F
100
AcDbEntity
  8
0
  6
Continuous
 62
     7
100
AcDbCircle
 10
374.3452207600748
 20
691.607882903184
 30
0.0
 40
58.0
100
AcDbArc
 50
180.0
 51
0.0
  0
ARC
  5
F2
330
4F
100
AcDbEntity
  8
0
  6
Continuous
 62
     7
100
AcDbCircle
 10
374.3452207600748
 20
691.607882903184
 30
0.0
 40
58.5
100
AcDbArc
 50
180.0
 51
0.0
  0
ENDBLK
  5
51
330
4F
100
AcDbEntity
  8
0
100
AcDbBlockEnd
  0
BLOCK
  5
53
330
52
100
AcDbEntity
  8
0
100
AcDbBlockBegin
  2
H41-100-2
 70
     0
 10
255.917458457382
 20
522.857882903184
 30
0.0
  3
H41-100-2
  1

  0
LINE
  5
F3
330
52
100
AcDbEntity
  8
1
  6
Continuous
 62
     7
100
AcDbLine
 10
400.8452207600748
 20
691.607882903184
 30
0.0
 11
400.8452207600748
 21
694.357882903184
 31
0.0
  0
LINE
  5
F4
330
52
100
AcDbEntity
  8
1
  6
Continuous
 62
     7
100
AcDbLine
 10
353.3452207600748
 20
691.607882903184
 30
0.0
 11
353.3452207600748
 21
694.357882903184
 31
0.0
  0
LINE
  5
F5
330
52
100
AcDbEntity
  8
1
  6
Continuous
 62
     7
100
AcDbLine
 10
331.3452207600748
 20
691.607882903184
 30
0.0
 11
331.3452207600748
 21
694.357882903184
 31
0.0
  0
LINE
  5
F6
330
52
100
AcDbEntity
  8
1
  6
Continuous
 62
     7
100
AcDbLine
 10
347.8452207600748
 20
694.357882903184
 30
0.0
 11
347.8452207600748
 21
691.607882903184
 31
0.0
  0
LINE
  5
F7
330
52
100
AcDbEntity
  8
1
  6
Continuous
 62
     7
100
AcDbLine
 10
395.3452207600748
 20
694.357882903184
 30
0.0
 11
395.3452207600748
 21
691.607882903184
 31
0.0
  0
LINE
  5
F8
330
52
100
AcDbEntity
  8
1
  6
Continuous
 62
     7
100
AcDbLine
 10
417.3452207600748
 20
694.357882903184
 30
0.0
 11
417.3452207600748
 21
691.607882903184
 31
0.0
  0
LINE
  5
F9
330
52
100
AcDbEntity
  8
1
  6
Continuous
 62
     7
100
AcDbLine
 10
347.8452207600748
 20
694.357882903184
 30
0.0
 11
331.3452207600748
 21
694.357882903184
 31
0.0
  0
LINE
  5
FA
330
52
100
AcDbEntity
  8
1
  6
Continuous
 62
     7
100
AcDbLine
 10
400.8452207600748
 20
694.357882903184
 30
0.0
 11
417.3452207600748
 21
694.357882903184
 31
0.0
  0
LINE
  5
FB
330
52
100
AcDbEntity
  8
1
  6
Continuous
 62
     7
100
AcDbLine
 10
353.3452207600748
 20
694.357882903184
 30
0.0
 11
367.9080241652829
 21
694.357882903184
 31
0.0
  0
LINE
  5
FC
330
52
100
AcDbEntity
  8
1
  6
Continuous
 62
     7
100
AcDbLine
 10
395.3452207600748
 20
694.357882903184
 30
0.0
 11
380.7824173548666
 21
694.357882903184
 31
0.0
  0
LINE
  5
FD
330
52
100
AcDbEntity
  8
1
  6
Continuous
 62
     7
100
AcDbLine
 10
345.8452207600748
 20
705.357882903184
 30
0.0
 11
345.8452207600748
 21
699.857882903184
 31
0.0
  0
LINE
  5
FE
330
52
100
AcDbEntity
  8
1
  6
Continuous
 62
     7
100
AcDbLine
 10
402.8452207600748
 20
705.357882903184
 30
0.0
 11
402.8452207600748
 21
699.857882903184
 31
0.0
  0
LINE
  5
FF
330
52
100
AcDbEntity
  8
1
  6
Continuous
 62
     7
100
AcDbLine
 10
345.8452207600748
 20
699.857882903184
 30
0.0
 11
328.3289193007006
 21
699.857882903184
 31
0.0
  0
LINE
  5
100
330
52
100
AcDbEntity
  8
1
  6
Continuous
 62
     7
100
AcDbLine
 10
345.8452207600748
 20
705.357882903184
 30
0.0
 11
329.663009534577
 21
705.357882903184
 31
0.0
  0
LINE
  5
101
330
52
100
AcDbEntity
  8
1
  6
Continuous
 62
     7
100
AcDbLine
 10
402.8452207600748
 20
699.857882903184
 30
0.0
 11
420.3615222194489
 21
699.857882903184
 31
0.0
  0
LINE
  5
102
330
52
100
AcDbEntity
  8
1
  6
Continuous
 62
     7
100
AcDbLine
 10
402.8452207600748
 20
705.357882903184
 30
0.0
 11
419.0274319855726
 21
705.357882903184
 31
0.0
  0
LINE
  5
103
330
52
100
AcDbEntity
  8
1
  6
Continuous
 62
     7
100
AcDbLine
 10
379.3452207600748
 20
699.857882903184
 30
0.0
 11
379.3452207600748
 21
705.357882903184
 31
0.0
  0
LINE
  5
104
330
52
100
AcDbEntity
  8
1
  6
Continuous
 62
     7
100
AcDbLine
 10
397.3452207600748
 20
699.857882903184
 30
0.0
 11
379.3452207600748
 21
699.857882903184
 31
0.0
  0
LINE
  5
105
330
52
100
AcDbEntity
  8
1
  6
Continuous
 62
     7
100
AcDbLine
 10
397.3452207600748
 20
705.357882903184
 30
0.0
 11
397.3452207600748
 21
699.857882903184
 31
0.0
  0
LINE
  5
106
330
52
100
AcDbEntity
  8
1
  6
Continuous
 62
     7
100
AcDbLine
 10
379.3452207600748
 20
705.357882903184
 30
0.0
 11
397.3452207600748
 21
705.357882903184
 31
0.0
  0
LINE
  5
107
330
52
100
AcDbEntity
  8
1
  6
Continuous
 62
     7
100
AcDbLine
 10
351.3452207600748
 20
705.357882903184
 30
0.0
 11
351.3452207600748
 21
699.857882903184
 31
0.0
  0
LINE
  5
108
330
52
100
AcDbEntity
  8
1
  6
Continuous
 62
     7
100
AcDbLine
 10
369.3452207600748
 20
705.357882903184
 30
0.0
 11
351.3452207600748
 21
705.357882903184
 31
0.0
  0
LINE
  5
109
330
52
100
AcDbEntity
  8
1
  6
Continuous
 62
     7
100
AcDbLine
 10
369.3452207600748
 20
699.857882903184
 30
0.0
 11
369.3452207600748
 21
705.357882903184
 31
0.0
  0
LINE
  5
10A
330
52
100
AcDbEntity
  8
1
  6
Continuous
 62
     7
100
AcDbLine
 10
351.3452207600748
 20
699.857882903184
 30
0.0
 11
369.3452207600748
 21
699.857882903184
 31
0.0
  0
LINE
  5
10B
330
52
100
AcDbEntity
  8
1
  6
Continuous
 62
     7
100
AcDbLine
 10
397.3452207600748
 20
716.357882903184
 30
0.0
 11
397.3452207600748
 21
710.857882903184
 31
0.0
  0
LINE
  5
10C
330
52
100
AcDbEntity
  8
1
  6
Continuous
 62
     7
100
AcDbLine
 10
351.3452207600748
 20
716.357882903184
 30
0.0
 11
351.3452207600748
 21
710.857882903184
 31
0.0
  0
LINE
  5
10D
330
52
100
AcDbEntity
  8
1
  6
Continuous
 62
     7
100
AcDbLine
 10
351.3452207600748
 20
710.857882903184
 30
0.0
 11
331.7424039517932
 21
710.857882903184
 31
0.0
  0
LINE
  5
10E
330
52
100
AcDbEntity
  8
1
  6
Continuous
 62
     7
100
AcDbLine
 10
351.3452207600748
 20
716.357882903184
 30
0.0
 11
334.6841567299709
 21
716.357882903184
 31
0.0
  0
LINE
  5
10F
330
52
100
AcDbEntity
  8
1
  6
Continuous
 62
     7
100
AcDbLine
 10
397.3452207600748
 20
710.857882903184
 30
0.0
 11
416.9480375683564
 21
710.857882903184
 31
0.0
  0
LINE
  5
110
330
52
100
AcDbEntity
  8
1
  6
Continuous
 62
     7
100
AcDbLine
 10
397.3452207600748
 20
716.357882903184
 30
0.0
 11
414.0062847901787
 21
716.357882903184
 31
0.0
  0
LINE
  5
111
330
52
100
AcDbEntity
  8
1
  6
Continuous
 62
     7
100
AcDbLine
 10
356.8452207600748
 20
716.357882903184
 30
0.0
 11
356.8452207600748
 21
710.857882903184
 31
0.0
  0
LINE
  5
112
330
52
100
AcDbEntity
  8
1
  6
Continuous
 62
     7
100
AcDbLine
 10
391.8452207600748
 20
716.357882903184
 30
0.0
 11
356.8452207600748
 21
716.357882903184
 31
0.0
  0
LINE
  5
113
330
52
100
AcDbEntity
  8
1
  6
Continuous
 62
     7
100
AcDbLine
 10
391.8452207600748
 20
710.857882903184
 30
0.0
 11
391.8452207600748
 21
716.357882903184
 31
0.0
  0
LINE
  5
114
330
52
100
AcDbEntity
  8
1
  6
Continuous
 62
     7
100
AcDbLine
 10
356.8452207600748
 20
710.857882903184
 30
0.0
 11
391.8452207600748
 21
710.857882903184
 31
0.0
  0
LINE
  5
115
330
52
100
AcDbEntity
  8
1
  6
Continuous
 62
     7
100
AcDbLine
 10
377.0952207600748
 20
727.357882903184
 30
0.0
 11
377.0952207600748
 21
721.857882903184
 31
0.0
  0
LINE
  5
116
330
52
100
AcDbEntity
  8
1
  6
Continuous
 62
     7
100
AcDbLine
 10
371.5952207600748
 20
727.357882903184
 30
0.0
 11
371.5952207600748
 21
721.857882903184
 31
0.0
  0
LINE
  5
117
330
52
100
AcDbEntity
  8
1
  6
Continuous
 62
     7
100
AcDbLine
 10
377.0952207600748
 20
721.857882903184
 30
0.0
 11
409.989294601318
 21
721.857882903184
 31
0.0
  0
LINE
  5
118
330
52
100
AcDbEntity
  8
1
  6
Continuous
 62
     7
100
AcDbLine
 10
377.0952207600748
 20
727.357882903184
 30
0.0
 11
404.4699614228589
 21
727.357882903184
 31
0.0
  0
LINE
  5
119
330
52
100
AcDbEntity
  8
1
  6
Continuous
 62
     7
100
AcDbLine
 10
371.5952207600748
 20
721.857882903184
 30
0.0
 11
338.7011469188315
 21
721.857882903184
 31
0.0
  0
LINE
  5
11A
330
52
100
AcDbEntity
  8
1
  6
Continuous
 62
     7
100
AcDbLine
 10
371.5952207600748
 20
727.357882903184
 30
0.0
 11
344.2204800972907
 21
727.357882903184
 31
0.0
  0
LINE
  5
11B
330
52
100
AcDbEntity
  8
1
  6
Continuous
 62
     7
100
AcDbLine
 10
352.3452207600748
 20
732.857882903184
 30
0.0
 11
396.3452207600748
 21
732.857882903184
 31
0.0
  0
LINE
  5
11C
330
52
100
AcDbEntity
  8
1
  6
Continuous
 62
     7
100
AcDbLine
 10
400.8452207600748
 20
688.857882903184
 30
0.0
 11
400.8452207600748
 21
691.607882903184
 31
0.0
  0
LINE
  5
11D
330
52
100
AcDbEntity
  8
1
  6
Continuous
 62
     7
100
AcDbLine
 10
353.3452207600748
 20
688.857882903184
 30
0.0
 11
353.3452207600748
 21
691.607882903184
 31
0.0
  0
LINE
  5
11E
330
52
100
AcDbEntity
  8
1
  6
Continuous
 62
     7
100
AcDbLine
 10
331.3452207600748
 20
688.857882903184
 30
0.0
 11
331.3452207600748
 21
691.607882903184
 31
0.0
  0
LINE
  5
11F
330
52
100
AcDbEntity
  8
1
  6
Continuous
 62
     7
100
AcDbLine
 10
347.8452207600748
 20
691.607882903184
 30
0.0
 11
347.8452207600748
 21
688.857882903184
 31
0.0
  0
LINE
  5
120
330
52
100
AcDbEntity
  8
1
  6
Continuous
 62
     7
100
AcDbLine
 10
395.3452207600748
 20
691.607882903184
 30
0.0
 11
395.3452207600748
 21
688.857882903184
 31
0.0
  0
LINE
  5
121
330
52
100
AcDbEntity
  8
1
  6
Continuous
 62
     7
100
AcDbLine
 10
417.3452207600748
 20
691.607882903184
 30
0.0
 11
417.3452207600748
 21
688.857882903184
 31
0.0
  0
LINE
  5
122
330
52
100
AcDbEntity
  8
1
  6
Continuous
 62
     7
100
AcDbLine
 10
331.3452207600748
 20
688.857882903184
 30
0.0
 11
347.8452207600748
 21
688.857882903184
 31
0.0
  0
LINE
  5
123
330
52
100
AcDbEntity
  8
1
  6
Continuous
 62
     7
100
AcDbLine
 10
417.3452207600748
 20
688.857882903184
 30
0.0
 11
400.8452207600748
 21
688.857882903184
 31
0.0
  0
LINE
  5
124
330
52
100
AcDbEntity
  8
1
  6
Continuous
 62
     7
100
AcDbLine
 10
367.9080241652829
 20
688.857882903184
 30
0.0
 11
353.3452207600748
 21
688.857882903184
 31
0.0
  0
LINE
  5
125
330
52
100
AcDbEntity
  8
1
  6
Continuous
 62
     7
100
AcDbLine
 10
380.7824173548666
 20
688.857882903184
 30
0.0
 11
395.3452207600748
 21
688.857882903184
 31
0.0
  0
LINE
  5
126
330
52
100
AcDbEntity
  8
1
  6
Continuous
 62
     7
100
AcDbLine
 10
345.8452207600748
 20
683.357882903184
 30
0.0
 11
345.8452207600748
 21
677.857882903184
 31
0.0
  0
LINE
  5
127
330
52
100
AcDbEntity
  8
1
  6
Continuous
 62
     7
100
AcDbLine
 10
402.8452207600748
 20
683.357882903184
 30
0.0
 11
402.8452207600748
 21
677.857882903184
 31
0.0
  0
LINE
  5
128
330
52
100
AcDbEntity
  8
1
  6
Continuous
 62
     7
100
AcDbLine
 10
328.3289193007006
 20
683.357882903184
 30
0.0
 11
345.8452207600748
 21
683.357882903184
 31
0.0
  0
LINE
  5
129
330
52
100
AcDbEntity
  8
1
  6
Continuous
 62
     7
100
AcDbLine
 10
329.663009534577
 20
677.857882903184
 30
0.0
 11
345.8452207600748
 21
677.857882903184
 31
0.0
  0
LINE
  5
12A
330
52
100
AcDbEntity
  8
1
  6
Continuous
 62
     7
100
AcDbLine
 10
420.3615222194489
 20
683.357882903184
 30
0.0
 11
402.8452207600748
 21
683.357882903184
 31
0.0
  0
LINE
  5
12B
330
52
100
AcDbEntity
  8
1
  6
Continuous
 62
     7
100
AcDbLine
 10
419.0274319855726
 20
677.857882903184
 30
0.0
 11
402.8452207600748
 21
677.857882903184
 31
0.0
  0
LINE
  5
12C
330
52
100
AcDbEntity
  8
1
  6
Continuous
 62
     7
100
AcDbLine
 10
379.3452207600748
 20
677.857882903184
 30
0.0
 11
379.3452207600748
 21
683.357882903184
 31
0.0
  0
LINE
  5
12D
330
52
100
AcDbEntity
  8
1
  6
Continuous
 62
     7
100
AcDbLine
 10
379.3452207600748
 20
683.357882903184
 30
0.0
 11
397.3452207600748
 21
683.357882903184
 31
0.0
  0
LINE
  5
12E
330
52
100
AcDbEntity
  8
1
  6
Continuous
 62
     7
100
AcDbLine
 10
397.3452207600748
 20
683.357882903184
 30
0.0
 11
397.3452207600748
 21
677.857882903184
 31
0.0
  0
LINE
  5
12F
330
52
100
AcDbEntity
  8
1
  6
Continuous
 62
     7
100
AcDbLine
 10
397.3452207600748
 20
677.857882903184
 30
0.0
 11
379.3452207600748
 21
677.857882903184
 31
0.0
  0
LINE
  5
130
330
52
100
AcDbEntity
  8
1
  6
Continuous
 62
     7
100
AcDbLine
 10
351.3452207600748
 20
683.357882903184
 30
0.0
 11
351.3452207600748
 21
677.857882903184
 31
0.0
  0
LINE
  5
131
330
52
100
AcDbEntity
  8
1
  6
Continuous
 62
     7
100
AcDbLine
 10
351.3452207600748
 20
677.857882903184
 30
0.0
 11
369.3452207600748
 21
677.857882903184
 31
0.0
  0
LINE
  5
132
330
52
100
AcDbEntity
  8
1
  6
Continuous
 62
     7
100
AcDbLine
 10
369.3452207600748
 20
677.857882903184
 30
0.0
 11
369.3452207600748
 21
683.357882903184
 31
0.0
  0
LINE
  5
133
330
52
100
AcDbEntity
  8
1
  6
Continuous
 62
     7
100
AcDbLine
 10
369.3452207600748
 20
683.357882903184
 30
0.0
 11
351.3452207600748
 21
683.357882903184
 31
0.0
  0
LINE
  5
134
330
52
100
AcDbEntity
  8
1
  6
Continuous
 62
     7
100
AcDbLine
 10
397.3452207600748
 20
672.357882903184
 30
0.0
 11
397.3452207600748
 21
666.857882903184
 31
0.0
  0
LINE
  5
135
330
52
100
AcDbEntity
  8
1
  6
Continuous
 62
     7
100
AcDbLine
 10
351.3452207600748
 20
672.357882903184
 30
0.0
 11
351.3452207600748
 21
666.857882903184
 31
0.0
  0
LINE
  5
136
330
52
100
AcDbEntity
  8
1
  6
Continuous
 62
     7
100
AcDbLine
 10
331.7424039517932
 20
672.357882903184
 30
0.0
 11
351.3452207600748
 21
672.357882903184
 31
0.0
  0
LINE
  5
137
330
52
100
AcDbEntity
  8
1
  6
Continuous
 62
     7
100
AcDbLine
 10
334.6841567299709
 20
666.857882903184
 30
0.0
 11
351.3452207600748
 21
666.857882903184
 31
0.0
  0
LINE
  5
138
330
52
100
AcDbEntity
  8
1
  6
Continuous
 62
     7
100
AcDbLine
 10
416.9480375683564
 20
672.357882903184
 30
0.0
 11
397.3452207600748
 21
672.357882903184
 31
0.0
  0
LINE
  5
139
330
52
100
AcDbEntity
  8
1
  6
Continuous
 62
     7
100
AcDbLine
 10
414.0062847901787
 20
666.857882903184
 30
0.0
 11
397.3452207600748
 21
666.857882903184
 31
0.0
  0
LINE
  5
13A
330
52
100
AcDbEntity
  8
1
  6
Continuous
 62
     7
100
AcDbLine
 10
356.8452207600748
 20
672.357882903184
 30
0.0
 11
356.8452207600748
 21
666.857882903184
 31
0.0
  0
LINE
  5
13B
330
52
100
AcDbEntity
  8
1
  6
Continuous
 62
     7
100
AcDbLine
 10
356.8452207600748
 20
666.857882903184
 30
0.0
 11
391.8452207600748
 21
666.857882903184
 31
0.0
  0
LINE
  5
13C
330
52
100
AcDbEntity
  8
1
  6
Continuous
 62
     7
100
AcDbLine
 10
391.8452207600748
 20
666.857882903184
 30
0.0
 11
391.8452207600748
 21
672.357882903184
 31
0.0
  0
LINE
  5
13D
330
52
100
AcDbEntity
  8
1
  6
Continuous
 62
     7
100
AcDbLine
 10
391.8452207600748
 20
672.357882903184
 30
0.0
 11
356.8452207600748
 21
672.357882903184
 31
0.0
  0
LINE
  5
13E
330
52
100
AcDbEntity
  8
1
  6
Continuous
 62
     7
100
AcDbLine
 10
377.0952207600748
 20
661.357882903184
 30
0.0
 11
377.0952207600748
 21
655.857882903184
 31
0.0
  0
LINE
  5
13F
330
52
100
AcDbEntity
  8
1
  6
Continuous
 62
     7
100
AcDbLine
 10
371.5952207600748
 20
661.357882903184
 30
0.0
 11
371.5952207600748
 21
655.857882903184
 31
0.0
  0
LINE
  5
140
330
52
100
AcDbEntity
  8
1
  6
Continuous
 62
     7
100
AcDbLine
 10
409.989294601318
 20
661.357882903184
 30
0.0
 11
377.0952207600748
 21
661.357882903184
 31
0.0
  0
LINE
  5
141
330
52
100
AcDbEntity
  8
1
  6
Continuous
 62
     7
100
AcDbLine
 10
404.4699614228589
 20
655.857882903184
 30
0.0
 11
377.0952207600748
 21
655.857882903184
 31
0.0
  0
LINE
  5
142
330
52
100
AcDbEntity
  8
1
  6
Continuous
 62
     7
100
AcDbLine
 10
338.7011469188315
 20
661.357882903184
 30
0.0
 11
371.5952207600748
 21
661.357882903184
 31
0.0
  0
LINE
  5
143
330
52
100
AcDbEntity
  8
1
  6
Continuous
 62
     7
100
AcDbLine
 10
344.2204800972907
 20
655.857882903184
 30
0.0
 11
371.5952207600748
 21
655.857882903184
 31
0.0
  0
LINE
  5
144
330
52
100
AcDbEntity
  8
1
  6
Continuous
 62
     7
100
AcDbLine
 10
396.3452207600748
 20
650.357882903184
 30
0.0
 11
352.3452207600748
 21
650.357882903184
 31
0.0
  0
ARC
  5
145
330
52
100
AcDbEntity
  8
1
  6
Continuous
 62
     7
100
AcDbCircle
 10
374.3452207600748
 20
691.607882903184
 30
0.0
 40
4.0
100
AcDbArc
 50
0.0
 51
180.0
  0
ARC
  5
146
330
52
100
AcDbEntity
  8
1
  6
Continuous
 62
     7
100
AcDbCircle
 10
374.3452207600748
 20
691.607882903184
 30
0.0
 40
7.000000000000069
100
AcDbArc
 50
156.8676036007024
 51
180.0
  0
ARC
  5
147
330
52
100
AcDbEntity
  8
1
  6
Continuous
 62
     7
100
AcDbCircle
 10
374.3452207600748
 20
691.607882903184
 30
0.0
 40
57.25
100
AcDbArc
 50
0.0
 51
180.0
  0
ARC
  5
148
330
52
100
AcDbEntity
  8
1
  6
Continuous
 62
     7
100
AcDbCircle
 10
374.3452207600748
 20
691.607882903184
 30
0.0
 40
7.0
100
AcDbArc
 50
0.0
 51
23.13239639929817
  0
ARC
  5
149
330
52
100
AcDbEntity
  8
1
  6
Continuous
 62
     7
100
AcDbCircle
 10
374.3452207600748
 20
691.607882903184
 30
0.0
 40
46.75000000000006
100
AcDbArc
 50
162.8953648233562
 51
169.8357513782765
  0
ARC
  5
14A
330
52
100
AcDbEntity
  8
1
  6
Continuous
 62
     7
100
AcDbCircle
 10
374.3452207600748
 20
691.607882903184
 30
0.0
 40
46.74999999999991
100
AcDbArc
 50
10.1642486217235
 51
17.1046351766438
  0
ARC
  5
14B
330
52
100
AcDbEntity
  8
1
  6
Continuous
 62
     7
100
AcDbCircle
 10
374.3452207600748
 20
691.607882903184
 30
0.0
 40
46.75000000000006
100
AcDbArc
 50
148.0342812492031
 51
155.6842608288235
  0
ARC
  5
14C
330
52
100
AcDbEntity
  8
1
  6
Continuous
 62
     7
100
AcDbCircle
 10
374.3452207600748
 20
691.607882903184
 30
0.0
 40
46.75000000000001
100
AcDbArc
 50
24.31573917117647
 51
31.96571875079696
  0
ARC
  5
14D
330
52
100
AcDbEntity
  8
1
  6
Continuous
 62
     7
100
AcDbCircle
 10
374.3452207600748
 20
691.607882903184
 30
0.0
 40
46.74999999999998
100
AcDbArc
 50
40.32021506997067
 51
49.88083310159494
  0
ARC
  5
14E
330
52
100
AcDbEntity
  8
1
  6
Continuous
 62
     7
100
AcDbCircle
 10
374.3452207600748
 20
691.607882903184
 30
0.0
 40
46.74999999999999
100
AcDbArc
 50
130.1191668984051
 51
139.6797849300294
  0
ARC
  5
14F
330
52
100
AcDbEntity
  8
1
  6
Continuous
 62
     7
100
AcDbCircle
 10
374.3452207600748
 20
691.607882903184
 30
0.0
 40
46.75
100
AcDbArc
 50
61.92751306414705
 51
118.072486935853
  0
ARC
  5
150
330
52
100
AcDbEntity
  8
1
  6
Continuous
 62
     7
100
AcDbCircle
 10
374.3452207600748
 20
691.607882903184
 30
0.0
 40
4.0
100
AcDbArc
 50
180.0
 51
0.0
  0
ARC
  5
151
330
52
100
AcDbEntity
  8
1
  6
Continuous
 62
     7
100
AcDbCircle
 10
374.3452207600748
 20
691.607882903184
 30
0.0
 40
7.0
100
AcDbArc
 50
180.0
 51
203.1323963992976
  0
ARC
  5
152
330
52
100
AcDbEntity
  8
1
  6
Continuous
 62
     7
100
AcDbCircle
 10
374.3452207600748
 20
691.607882903184
 30
0.0
 40
57.25
100
AcDbArc
 50
180.0
 51
0.0
  0
ARC
  5
153
330
52
100
AcDbEntity
  8
1
  6
Continuous
 62
     7
100
AcDbCircle
 10
374.3452207600748
 20
691.607882903184
 30
0.0
 40
6.999999999999913
100
AcDbArc
 50
336.8676036007018
 51
0.0
  0
ARC
  5
154
330
52
100
AcDbEntity
  8
1
  6
Continuous
 62
     7
100
AcDbCircle
 10
374.3452207600748
 20
691.607882903184
 30
0.0
 40
46.75000000000008
100
AcDbArc
 50
190.1642486217235
 51
197.1046351766438
  0
ARC
  5
155
330
52
100
AcDbEntity
  8
1
  6
Continuous
 62
     7
100
AcDbCircle
 10
374.3452207600748
 20
691.607882903184
 30
0.0
 40
46.75
100
AcDbArc
 50
342.8953648233562
 51
349.8357513782765
  0
ARC
  5
156
330
52
100
AcDbEntity
  8
1
  6
Continuous
 62
     7
100
AcDbCircle
 10
374.3452207600748
 20
691.607882903184
 30
0.0
 40
46.75000000000001
100
AcDbArc
 50
204.3157391711765
 51
211.9657187507969
  0
ARC
  5
157
330
52
100
AcDbEntity
  8
1
  6
Continuous
 62
     7
100
AcDbCircle
 10
374.3452207600748
 20
691.607882903184
 30
0.0
 40
46.75000000000001
100
AcDbArc
 50
328.034281249203
 51
335.6842608288235
  0
ARC
  5
158
330
52
100
AcDbEntity
  8
1
  6
Continuous
 62
     7
100
AcDbCircle
 10
374.3452207600748
 20
691.607882903184
 30
0.0
 40
46.74999999999995
100
AcDbArc
 50
310.1191668984051
 51
319.6797849300293
  0
ARC
  5
159
330
52
100
AcDbEntity
  8
1
  6
Continuous
 62
     7
100
AcDbCircle
 10
374.3452207600748
 20
691.607882903184
 30
0.0
 40
46.75000000000006
100
AcDbArc
 50
220.3202150699706
 51
229.8808331015949
  0
ARC
  5
15A
330
52
100
AcDbEntity
  8
1
  6
Continuous
 62
     7
100
AcDbCircle
 10
374.3452207600748
 20
691.607882903184
 30
0.0
 40
46.75
100
AcDbArc
 50
241.927513064147
 51
298.072486935853
  0
CIRCLE
  5
15B
330
52
100
AcDbEntity
  8
1
  6
Continuous
 62
     7
100
AcDbCircle
 10
374.3452207600748
 20
691.607882903184
 30
0.0
 40
52.5
  0
ENDBLK
  5
54
330
52
100
AcDbEntity
  8
0
100
AcDbBlockEnd
  0
BLOCK
  5
176
330
16F
100
AcDbEntity
  8
0
100
AcDbBlockBegin
  2
*D5
 70
     1
 10
0.0
 20
0.0
 30
0.0
  3
*D5
  1

  0
LINE
  5
170
330
16F
100
AcDbEntity
  8
1
  6
Continuous
 62
     2
100
AcDbLine
 10
305.8452207600748
 20
574.107882903184
 30
0.0
 11
305.8452207600748
 21
602.107882903184
 31
0.0
  0
LINE
  5
171
330
16F
100
AcDbEntity
  8
1
  6
Continuous
 62
     2
100
AcDbLine
 10
321.8452207600748
 20
574.107882903184
 30
0.0
 11
303.8452207600748
 21
574.107882903184
 31
0.0
  0
LINE
  5
172
330
16F
100
AcDbEntity
  8
1
  6
Continuous
 62
     2
100
AcDbLine
 10
316.3452207600748
 20
602.107882903184
 30
0.0
 11
303.8452207600748
 21
602.107882903184
 31
0.0
  0
SOLID
  5
173
330
16F
100
AcDbEntity
  8
1
 62
     2
100
AcDbTrace
 10
305.384437018519
 20
577.607882903184
 30
0.0
 11
306.3060045016307
 21
577.607882903184
 31
0.0
 12
305.8452207600748
 22
574.107882903184
 32
0.0
 13
305.8452207600748
 23
574.107882903184
 33
0.0
  0
SOLID
  5
174
330
16F
100
AcDbEntity
  8
1
 62
     2
100
AcDbTrace
 10
306.3060045016307
 20
598.607882903184
 30
0.0
 11
305.384437018519
 21
598.607882903184
 31
0.0
 12
305.8452207600748
 22
602.107882903184
 32
0.0
 13
305.8452207600748
 23
602.107882903184
 33
0.0
  0
MTEXT
  5
175
330
16F
100
AcDbEntity
  8
1
 62
     7
100
AcDbMText
 10
303.8452207600748
 20
585.766658249862
 30
0.0
 40
3.0
 41
0.0
 71
     7
 72
     1
  1
28
  7
CONVERTER_12
 11
0.0
 21
1.0
 31
0.0
 73
     1
 44
0.60024009603842
  0
ENDBLK
  5
177
330
16F
100
AcDbEntity
  8
0
100
AcDbBlockEnd
  0
BLOCK
  5
181
330
17A
100
AcDbEntity
  8
0
100
AcDbBlockBegin
  2
*D6
 70
     1
 10
0.0
 20
0.0
 30
0.0
  3
*D6
  1

  0
LINE
  5
17B
330
17A
100
AcDbEntity
  8
1
  6
Continuous
 62
     2
100
AcDbLine
 10
297.8452207600748
 20
574.107882903184
 30
0.0
 11
297.8452207600748
 21
606.107882903184
 31
0.0
  0
LINE
  5
17C
330
17A
100
AcDbEntity
  8
1
  6
Continuous
 62
     2
100
AcDbLine
 10
321.8452207600748
 20
574.107882903184
 30
0.0
 11
295.8452207600748
 21
574.107882903184
 31
0.0
  0
LINE
  5
17D
330
17A
100
AcDbEntity
  8
1
  6
Continuous
 62
     2
100
AcDbLine
 10
316.3452207600748
 20
606.107882903184
 30
0.0
 11
295.8452207600748
 21
606.107882903184
 31
0.0
  0
SOLID
  5
17E
330
17A
100
AcDbEntity
  8
1
 62
     2
100
AcDbTrace
 10
297.384437018519
 20
577.607882903184
 30
0.0
 11
298.3060045016307
 21
577.607882903184
 31
0.0
 12
297.8452207600748
 22
574.107882903184
 32
0.0
 13
297.8452207600748
 23
574.107882903184
 33
0.0
  0
SOLID
  5
17F
330
17A
100
AcDbEntity
  8
1
 62
     2
100
AcDbTrace
 10
298.3060045016307
 20
602.607882903184
 30
0.0
 11
297.384437018519
 21
602.607882903184
 31
0.0
 12
297.8452207600748
 22
606.107882903184
 32
0.0
 13
297.8452207600748
 23
606.107882903184
 33
0.0
  0
MTEXT
  5
180
330
17A
100
AcDbEntity
  8
1
 62
     7
100
AcDbMText
 10
295.8452207600748
 20
587.573627276411
 30
0.0
 40
3.0
 41
0.0
 71
     7
 72
     1
  1
32
  7
CONVERTER_12
 11
0.0
 21
1.0
 31
0.0
 73
     1
 44
0.60024009603842
  0
ENDBLK
  5
182
330
17A
100
AcDbEntity
  8
0
100
AcDbBlockEnd
  0
BLOCK
  5
18C
330
185
100
AcDbEntity
  8
0
100
AcDbBlockBegin
  2
*D7
 70
     1
 10
0.0
 20
0.0
 30
0.0
  3
*D7
  1

  0
LINE
  5
186
330
185
100
AcDbEntity
  8
1
  6
Continuous
 62
     2
100
AcDbLine
 10
320.8452207600748
 20
564.107882903184
 30
0.0
 11
427.8452207600748
 21
564.107882903184
 31
0.0
  0
LINE
  5
187
330
185
100
AcDbEntity
  8
1
  6
Continuous
 62
     2
100
AcDbLine
 10
320.8452207600748
 20
577.107882903184
 30
0.0
 11
320.8452207600748
 21
562.107882903184
 31
0.0
  0
LINE
  5
188
330
185
100
AcDbEntity
  8
1
  6
Continuous
 62
     2
100
AcDbLine
 10
427.8452207600748
 20
577.107882903184
 30
0.0
 11
427.8452207600748
 21
562.107882903184
 31
0.0
  0
SOLID
  5
189
330
185
100
AcDbEntity
  8
1
 62
     2
100
AcDbTrace
 10
424.3452207600748
 20
563.647099161628
 30
0.0
 11
424.3452207600748
 21
564.5686666447399
 31
0.0
 12
427.8452207600748
 22
564.107882903184
 32
0.0
 13
427.8452207600748
 23
564.107882903184
 33
0.0
  0
SOLID
  5
18A
330
185
100
AcDbEntity
  8
1
 62
     2
100
AcDbTrace
 10
324.3452207600748
 20
564.5686666447399
 30
0.0
 11
324.3452207600748
 21
563.647099161628
 31
0.0
 12
320.8452207600748
 22
564.107882903184
 32
0.0
 13
320.8452207600748
 23
564.107882903184
 33
0.0
  0
MTEXT
  5
18B
330
185
100
AcDbEntity
  8
1
 62
     7
100
AcDbMText
 10
370.7317410525622
 20
566.1078769399757
 30
0.0
 40
3.0
 41
0.0
 71
     7
 72
     1
  1
\C7;{\Fgdt;n}\C7;107
  7
CONVERTER_12
 11
0.9999999999970619
 21
2.424068405545306E-6
 31
0.0
 73
     1
 44
0.60024009603842
  0
ENDBLK
  5
18D
330
185
100
AcDbEntity
  8
0
100
AcDbBlockEnd
  0
BLOCK
  5
197
330
190
100
AcDbEntity
  8
0
100
AcDbBlockBegin
  2
*D8
 70
     1
 10
0.0
 20
0.0
 30
0.0
  3
*D8
  1

  0
LINE
  5
191
330
190
100
AcDbEntity
  8
1
  6
Continuous
 62
     2
100
AcDbLine
 10
315.8452207600748
 20
616.107882903184
 30
0.0
 11
432.8452207600748
 21
616.107882903184
 31
0.0
  0
LINE
  5
192
330
190
100
AcDbEntity
  8
1
  6
Continuous
 62
     2
100
AcDbLine
 10
315.8452207600748
 20
605.607882903184
 30
0.0
 11
315.8452207600748
 21
618.107882903184
 31
0.0
  0
LINE
  5
193
330
190
100
AcDbEntity
  8
1
  6
Continuous
 62
     2
100
AcDbLine
 10
432.8452207600748
 20
605.607882903184
 30
0.0
 11
432.8452207600748
 21
618.107882903184
 31
0.0
  0
SOLID
  5
194
330
190
100
AcDbEntity
  8
1
 62
     2
100
AcDbTrace
 10
319.3452207600748
 20
616.5686666447399
 30
0.0
 11
319.3452207600748
 21
615.647099161628
 31
0.0
 12
315.8452207600748
 22
616.107882903184
 32
0.0
 13
315.8452207600748
 23
616.107882903184
 33
0.0
  0
SOLID
  5
195
330
190
100
AcDbEntity
  8
1
 62
     2
100
AcDbTrace
 10
429.3452207600748
 20
615.647099161628
 30
0.0
 11
429.3452207600748
 21
616.5686666447399
 31
0.0
 12
432.8452207600748
 22
616.107882903184
 32
0.0
 13
432.8452207600748
 23
616.107882903184
 33
0.0
  0
MTEXT
  5
196
330
190
100
AcDbEntity
  8
1
 62
     7
100
AcDbMText
 10
371.1817410525622
 20
618.1078769399757
 30
0.0
 40
3.0
 41
0.0
 71
     7
 72
     1
  1
\C7;{\Fgdt;n}\C7;117
  7
CONVERTER_12
 11
0.9999999999970619
 21
2.424068405545306E-6
 31
0.0
 73
     1
 44
0.60024009603842
  0
ENDBLK
  5
198
330
190
100
AcDbEntity
  8
0
100
AcDbBlockEnd
  0
BLOCK
  5
1A0
330
19B
100
AcDbEntity
  8
0
100
AcDbBlockBegin
  2
*D9
 70
     1
 10
0.0
 20
0.0
 30
0.0
  3
*D9
  1

  0
LINE
  5
19C
330
19B
100
AcDbEntity
  8
1
  6
Continuous
 62
     2
100
AcDbLine
 10
337.7379951326608
 20
653.9759678328131
 30
0.0
 11
428.7730037914881
 21
747.5591786761383
 31
0.0
  0
SOLID
  5
19D
330
19B
100
AcDbEntity
  8
1
 62
     2
100
AcDbTrace
 10
408.8422537195285
 20
726.4097081232906
 30
0.0
 11
408.1816756384603
 21
727.0522991477699
 31
0.0
 12
410.9524463874888
 22
729.2397979735548
 32
0.0
 13
410.9524463874888
 23
729.2397979735548
 33
0.0
  0
SOLID
  5
19E
330
19B
100
AcDbEntity
  8
1
 62
     2
100
AcDbTrace
 10
339.8481878006212
 20
656.8060576830774
 30
0.0
 11
340.5087658816893
 21
656.163466658598
 31
0.0
 12
337.7379951326608
 22
653.9759678328131
 32
0.0
 13
337.7379951326608
 23
653.9759678328131
 33
0.0
  0
MTEXT
  5
19F
330
19B
100
AcDbEntity
  8
1
 62
     7
100
AcDbMText
 10
421.2312299507854
 20
742.6745858235361
 30
0.0
 40
3.0
 41
0.0
 71
     7
 72
     1
  1
\C7;{\Fgdt;n}\C7;105
  7
CONVERTER_12
 11
0.6972804881412188
 21
0.7167983822927781
 31
0.0
 73
     1
 44
0.60024009603842
  0
ENDBLK
  5
1A1
330
19B
100
AcDbEntity
  8
0
100
AcDbBlockEnd
  0
ENDSEC
  0
SECTION
  2
ENTITIES
  0
INSERT
  5
55
330
1F
100
AcDbEntity
  8
0
100
AcDbBlockReference
  2
開示A4枠
 10
258.8806237959176
 20
502.3745122321632
 30
0.0
  0
INSERT
  5
56
330
1F
100
AcDbEntity
  8
0
100
AcDbBlockReference
  2
H41-100-1
 10
251.0952207600746
 20
499.357882903184
 30
0.0
  0
INSERT
  5
57
330
1F
100
AcDbEntity
  8
0
100
AcDbBlockReference
  2
H41-100-2
 10
255.917458457382
 20
522.857882903184
 30
0.0
  0
LINE
  5
15C
330
1F
100
AcDbEntity
  8
1
  6
DASH_CENTER
 62
     2
100
AcDbLine
 10
309.6952207600748
 20
691.607882903184
 30
0.0
 11
438.9952207600747
 21
691.607882903184
 31
0.0
  0
LINE
  5
15D
330
1F
100
AcDbEntity
  8
1
  6
DASH_CENTER
 62
     2
100
AcDbLine
 10
374.3452207600748
 20
753.257882903184
 30
0.0
 11
374.3452207600748
 21
688.607882903184
 31
0.0
  0
LINE
  5
15E
330
1F
100
AcDbEntity
  8
1
  6
DASH_CENTER
 62
     2
100
AcDbLine
 10
374.3452207600748
 20
609.107882903184
 30
0.0
 11
374.3452207600748
 21
571.107882903184
 31
0.0
  0
MTEXT
  5
160
330
1F
100
AcDbEntity
  8
1
 62
     7
100
AcDbMText
 10
359.6306237959176
 20
514.8745122321632
 30
0.0
 40
2.5
 41
0.0
 71
     5
 72
     1
  1
22
  7
CONVERTER_12
 73
     1
 44
0.7202881152461
  0
MTEXT
  5
161
330
1F
100
AcDbEntity
  8
1
 62
     7
100
AcDbMText
 10
371.1306237959176
 20
514.8745122321632
 30
0.0
 40
2.5
 41
0.0
 71
     5
 72
     1
  1
16
  7
CONVERTER_12
 73
     1
 44
0.7202881152461
  0
MTEXT
  5
162
330
1F
100
AcDbEntity
  8
1
 62
     7
100
AcDbMText
 10
365.3806237959176
 20
514.8745122321632
 30
0.0
 40
2.5
 41
0.0
 71
     5
 72
     1
  1
2
  7
CONVERTER_12
 73
     1
 44
0.7202881152461
  0
MTEXT
  5
163
330
1F
100
AcDbEntity
  8
1
 62
     7
100
AcDbMText
 10
376.6306237959176
 20
514.8745122321632
 30
0.0
 40
2.5
 41
0.0
 71
     5
 72
     1
  1
22
  7
CONVERTER_12
 73
     1
 44
0.7202881152461
  0
MTEXT
  5
164
330
1F
100
AcDbEntity
  8
1
 62
     7
100
AcDbMText
 10
388.1306237959176
 20
514.8745122321632
 30
0.0
 40
2.5
 41
0.0
 71
     5
 72
     1
  1
16
  7
CONVERTER_12
 73
     1
 44
0.7202881152461
  0
MTEXT
  5
165
330
1F
100
AcDbEntity
  8
1
 62
     7
100
AcDbMText
 10
382.3806237959176
 20
514.8745122321632
 30
0.0
 40
2.5
 41
0.0
 71
     5
 72
     1
  1
2
  7
CONVERTER_12
 73
     1
 44
0.7202881152461
  0
MTEXT
  5
166
330
1F
100
AcDbEntity
  8
1
 62
     7
100
AcDbMText
 10
393.6306237959176
 20
514.8745122321632
 30
0.0
 40
2.5
 41
0.0
 71
     5
 72
     1
  1
22
  7
CONVERTER_12
 73
     1
 44
0.7202881152461
  0
MTEXT
  5
167
330
1F
100
AcDbEntity
  8
1
 62
     7
100
AcDbMText
 10
405.1306237959176
 20
514.8745122321632
 30
0.0
 40
2.5
 41
0.0
 71
     5
 72
     1
  1
16
  7
CONVERTER_12
 73
     1
 44
0.7202881152461
  0
MTEXT
  5
168
330
1F
100
AcDbEntity
  8
1
 62
     7
100
AcDbMText
 10
399.3806237959176
 20
514.8745122321632
 30
0.0
 40
2.5
 41
0.0
 71
     5
 72
     1
  1
2
  7
CONVERTER_12
 73
     1
 44
0.7202881152461
  0
MTEXT
  5
169
330
1F
100
AcDbEntity
  8
1
 62
     7
100
AcDbMText
 10
410.6306237959176
 20
514.8745122321632
 30
0.0
 40
2.5
 41
0.0
 71
     5
 72
     1
  1
04
  7
CONVERTER_12
 73
     1
 44
0.7202881152461
  0
MTEXT
  5
16A
330
1F
100
AcDbEntity
  8
1
 62
     7
100
AcDbMText
 10
416.3806237959176
 20
514.8745122321632
 30
0.0
 40
2.5
 41
0.0
 71
     5
 72
     1
  1
2
  7
CONVERTER_12
 73
     1
 44
0.7202881152461
  0
MTEXT
  5
16B
330
1F
100
AcDbEntity
  8
1
 62
     7
100
AcDbMText
 10
352.6306237959176
 20
519.3745122321632
 30
0.0
 40
3.5
 41
0.0
 71
     5
 72
     1
  1
1
  7
CONVERTER_12
 73
     1
 44
0.7202881152461
  0
MTEXT
  5
16C
330
1F
100
AcDbEntity
  8
1
 62
     7
100
AcDbMText
 10
315.8806237959176
 20
516.6245122321633
 30
0.0
 40
3.5
 41
0.0
 71
     5
 72
     1
  1
H41-100
  7
CONVERTER_12
 73
     1
 44
0.7202881152461
  0
MTEXT
  5
16D
330
1F
100
AcDbEntity
  8
1
 62
     7
100
AcDbMText
 10
315.8806237959176
 20
525.1245122321634
 30
0.0
 40
3.5
 41
0.0
 71
     5
 72
     1
  1
VU目皿
  7
CONVERTER_11
 73
     1
 44
0.54545454545455
  0
MTEXT
  5
16E
330
1F
100
AcDbEntity
  8
1
 62
     7
100
AcDbMText
 10
344.1306237959176
 20
519.3745122321632
 30
0.0
 40
3.5
 41
0.0
 71
     5
 72
     1
  1
1
  7
CONVERTER_12
 73
     1
 44
0.7202881152461
  0
DIMENSION
  5
179
330
1F
100
AcDbEntity
  8
1
100
AcDbDimension
  2
*D5
 10
305.8452207600748
 20
574.107882903184
 30
0.0
 11
302.3452207600748
 21
588.016658249862
 31
0.0
 70
    32
  1
<>
 71
     5
 42
-1.0
 53
90.0
  3
ME10_DIM_10
100
AcDbAlignedDimension
 13
316.3452207600748
 23
602.107882903184
 33
0.0
 14
321.8452207600748
 24
574.107882903184
 34
0.0
 50
90.0
100
AcDbRotatedDimension
  0
DIMENSION
  5
184
330
1F
100
AcDbEntity
  8
1
100
AcDbDimension
  2
*D6
 10
297.8452207600748
 20
574.107882903184
 30
0.0
 11
294.3452207600748
 21
589.823627276411
 31
0.0
 70
    32
  1
<>
 71
     5
 42
-1.0
 53
90.0
  3
ME10_DIM_11
100
AcDbAlignedDimension
 13
316.3452207600748
 23
606.107882903184
 33
0.0
 14
321.8452207600748
 24
574.107882903184
 34
0.0
 50
90.0
100
AcDbRotatedDimension
  0
DIMENSION
  5
18F
330
1F
100
AcDbEntity
  8
1
100
AcDbDimension
  2
*D7
 10
427.8452207600748
 20
564.107882903184
 30
0.0
 11
374.541741052555
 21
567.607882903184
 31
0.0
 70
    32
  1
<>
 71
     5
 42
-1.0
 53
0.00013888888889
  3
ME10_DIM_12
100
AcDbAlignedDimension
 13
320.8452207600748
 23
577.107882903184
 33
0.0
 14
427.8452207600748
 24
577.107882903184
 34
0.0
100
AcDbRotatedDimension
  0
DIMENSION
  5
19A
330
1F
100
AcDbEntity
  8
1
100
AcDbDimension
  2
*D8
 10
315.8452207600748
 20
616.107882903184
 30
0.0
 11
374.541741052555
 21
619.607882903184
 31
0.0
 70
    32
  1
<>
 71
     5
 42
-1.0
 53
0.00013888888889
  3
ME10_DIM_13
100
AcDbAlignedDimension
 13
432.8452207600748
 23
605.607882903184
 33
0.0
 14
315.8452207600748
 24
605.607882903184
 34
0.0
100
AcDbRotatedDimension
  0
INSERT
  5
1A2
330
1F
100
AcDbEntity
  8
1
100
AcDbBlockReference
  2
*D9
 10
0.0
 20
0.0
 30
0.0
  0
ENDSEC
  0
SECTION
  2
OBJECTS
  0
DICTIONARY
  5
C
330
0
100
AcDbDictionary
281
     1
  3
ACAD_GROUP
350
D
  3
ACAD_LAYOUT
350
1A
  3
ACAD_MATERIAL
350
3B
  3
ACAD_MLEADERSTYLE
350
1A5
  3
ACAD_MLINESTYLE
350
17
  3
ACAD_PLOTSETTINGS
350
19
  3
ACAD_PLOTSTYLENAME
350
E
  3
ACAD_VISUALSTYLE
350
2A
  3
AcDbVariableDictionary
350
1A3
  0
DICTIONARY
  5
D
102
{ACAD_REACTORS
330
C
102
}
330
C
100
AcDbDictionary
281
     1
  0
DICTIONARY
  5
1A
102
{ACAD_REACTORS
330
C
102
}
330
C
100
AcDbDictionary
281
     1
  3
Layout1
350
1E
  3
Layout2
350
26
  3
Model
350
22
  0
DICTIONARY
  5
3B
102
{ACAD_REACTORS
330
C
102
}
330
C
100
AcDbDictionary
281
     1
  3
ByBlock
350
3D
  3
ByLayer
350
3C
  3
Global
350
3E
  0
DICTIONARY
  5
1A5
102
{ACAD_REACTORS
330
C
102
}
330
C
100
AcDbDictionary
281
     1
  0
DICTIONARY
  5
17
102
{ACAD_REACTORS
330
C
102
}
330
C
100
AcDbDictionary
281
     1
  3
Standard
350
18
  0
DICTIONARY
  5
19
102
{ACAD_REACTORS
330
C
102
}
330
C
100
AcDbDictionary
281
     1
  0
ACDBDICTIONARYWDFLT
  5
E
102
{ACAD_REACTORS
330
C
102
}
330
C
100
AcDbDictionary
281
     1
  3
Normal
350
F
100
AcDbDictionaryWithDefault
340
F
  0
DICTIONARY
  5
2A
102
{ACAD_REACTORS
330
C
102
}
330
C
100
AcDbDictionary
281
     1
  3
2dWireframe
350
2F
  3
3D Hidden
350
31
  3
3dWireframe
350
30
  3
Basic
350
32
  3
Brighten
350
36
  3
ColorChange
350
3A
  3
Conceptual
350
34
  3
Dim
350
35
  3
Facepattern
350
39
  3
Flat
350
2B
  3
FlatWithEdges
350
2C
  3
Gouraud
350
2D
  3
GouraudWithEdges
350
2E
  3
Linepattern
350
38
  3
Realistic
350
33
  3
Thicken
350
37
  0
DICTIONARY
  5
1A3
102
{ACAD_REACTORS
330
C
102
}
330
C
100
AcDbDictionary
281
     1
  3
DIMASSOC
350
1A6
  3
HIDETEXT
350
1A7
  0
LAYOUT
  5
1E
102
{ACAD_REACTORS
330
1A
102
}
330
1A
100
AcDbPlotSettings
  1

  2
none_device
  4

  6

 40
0.0
 41
0.0
 42
0.0
 43
0.0
 44
0.0
 45
0.0
 46
0.0
 47
0.0
 48
0.0
 49
0.0
140
0.0
141
0.0
142
1.0
143
1.0
 70
   688
 72
     0
 73
     0
 74
     5
  7

 75
    16
147
1.0
148
0.0
149
0.0
100
AcDbLayout
  1
Layout1
 70
     1
 71
     1
 10
0.0
 20
0.0
 11
12.0
 21
9.0
 12
0.0
 22
0.0
 32
0.0
 14
1.00000000000000E+20
 24
1.00000000000000E+20
 34
1.00000000000000E+20
 15
-1.00000000000000E+20
 25
-1.00000000000000E+20
 35
-1.00000000000000E+20
146
0.0
 13
0.0
 23
0.0
 33
0.0
 16
1.0
 26
0.0
 36
0.0
 17
0.0
 27
1.0
 37
0.0
 76
     0
330
1B
  0
LAYOUT
  5
26
102
{ACAD_REACTORS
330
1A
102
}
330
1A
100
AcDbPlotSettings
  1

  2
none_device
  4

  6

 40
0.0
 41
0.0
 42
0.0
 43
0.0
 44
0.0
 45
0.0
 46
0.0
 47
0.0
 48
0.0
 49
0.0
140
0.0
141
0.0
142
1.0
143
1.0
 70
   688
 72
     0
 73
     0
 74
     5
  7

 75
    16
147
1.0
148
0.0
149
0.0
100
AcDbLayout
  1
Layout2
 70
     1
 71
     2
 10
0.0
 20
0.0
 11
0.0
 21
0.0
 12
0.0
 22
0.0
 32
0.0
 14
0.0
 24
0.0
 34
0.0
 15
0.0
 25
0.0
 35
0.0
146
0.0
 13
0.0
 23
0.0
 33
0.0
 16
1.0
 26
0.0
 36
0.0
 17
0.0
 27
1.0
 37
0.0
 76
     0
330
23
  0
LAYOUT
  5
22
102
{ACAD_REACTORS
330
1A
102
}
330
1A
100
AcDbPlotSettings
  1

  2
none_device
  4

  6

 40
0.0
 41
0.0
 42
0.0
 43
0.0
 44
0.0
 45
0.0
 46
0.0
 47
0.0
 48
0.0
 49
0.0
140
0.0
141
0.0
142
1.0
143
1.0
 70
  1712
 72
     0
 73
     0
 74
     0
  7

 75
     0
147
1.0
148
0.0
149
0.0
100
AcDbLayout
  1
Model
 70
     1
 71
     0
 10
0.0
 20
0.0
 11
12.0
 21
9.0
 12
0.0
 22
0.0
 32
0.0
 14
258.8806237959176
 24
502.3745122321632
 34
0.0
 15
468.8806237959176
 25
799.3745122321632
 35
0.0
146
0.0
 13
0.0
 23
0.0
 33
0.0
 16
1.0
 26
0.0
 36
0.0
 17
0.0
 27
1.0
 37
0.0
 76
     0
330
1F
331
29
  0
MATERIAL
  5
3D
102
{ACAD_REACTORS
330
3B
102
}
102
{ACAD_XDICTIONARY
360
1CA
102
}
330
3B
100
AcDbMaterial
  1
ByBlock
  0
MATERIAL
  5
3C
102
{ACAD_REACTORS
330
3B
102
}
102
{ACAD_XDICTIONARY
360
1C8
102
}
330
3B
100
AcDbMaterial
  1
ByLayer
  0
MATERIAL
  5
3E
102
{ACAD_REACTORS
330
3B
102
}
102
{ACAD_XDICTIONARY
360
1CC
102
}
330
3B
100
AcDbMaterial
  1
Global
  0
MLINESTYLE
  5
18
102
{ACAD_REACTORS
330
17
102
}
330
17
100
AcDbMlineStyle
  2
Standard
 70
     0
  3

 62
   256
 51
90.0
 52
90.0
 71
     2
 49
0.5
 62
   256
  6
BYLAYER
 49
-0.5
 62
   256
  6
BYLAYER
  0
ACDBPLACEHOLDER
  5
F
102
{ACAD_REACTORS
330
E
102
}
330
E
  0
VISUALSTYLE
  5
2F
102
{ACAD_REACTORS
330
2A
102
}
102
{ACAD_XDICTIONARY
360
1B0
102
}
330
2A
100
AcDbVisualStyle
  2
2dWireframe
 70
     4
 71
     0
 72
     2
 73
     0
 90
        0
 40
-0.6
 41
-30.0
 62
     5
 63
     7
 74
     1
 91
        4
 64
     7
 65
   257
 75
     1
175
     1
 42
1.0
 92
        0
 66
   257
 43
1.0
 76
     1
 77
     6
 78
     2
 67
     7
 79
     5
170
     0
171
     0
290
     0
174
     0
 93
        1
 44
0.0
173
     0
291
     0
 45
0.0
1001
ACAD
1000
AcDbSavedByObjectVersion
1070
     0
  0
VISUALSTYLE
  5
31
102
{ACAD_REACTORS
330
2A
102
}
102
{ACAD_XDICTIONARY
360
1B4
102
}
330
2A
100
AcDbVisualStyle
  2
3D Hidden
 70
     6
 71
     1
 72
     2
 73
     2
 90
        0
 40
-0.6
 41
-30.0
 62
     5
 63
     7
 74
     2
 91
        2
 64
     7
 65
   257
 75
     2
175
     1
 42
40.0
 92
        0
 66
   257
 43
1.0
 76
     1
 77
     6
 78
     2
 67
     7
 79
     3
170
     0
171
     0
290
     0
174
     0
 93
        1
 44
0.0
173
     0
291
     0
 45
0.0
1001
ACAD
1000
AcDbSavedByObjectVersion
1070
     0
  0
VISUALSTYLE
  5
30
102
{ACAD_REACTORS
330
2A
102
}
102
{ACAD_XDICTIONARY
360
1B2
102
}
330
2A
100
AcDbVisualStyle
  2
3dWireframe
 70
     5
 71
     0
 72
     2
 73
     0
 90
        0
 40
-0.6
 41
-30.0
 62
     5
 63
     7
 74
     1
 91
        4
 64
     7
 65
   257
 75
     1
175
     1
 42
1.0
 92
        0
 66
   257
 43
1.0
 76
     1
 77
     6
 78
     2
 67
     7
 79
     5
170
     0
171
     0
290
     0
174
     0
 93
        1
 44
0.0
173
     0
291
     0
 45
0.0
1001
ACAD
1000
AcDbSavedByObjectVersion
1070
     0
  0
VISUALSTYLE
  5
32
102
{ACAD_REACTORS
330
2A
102
}
102
{ACAD_XDICTIONARY
360
1B6
102
}
330
2A
100
AcDbVisualStyle
  2
Basic
 70
     7
 71
     1
 72
     0
 73
     1
 90
        0
 40
-0.6
 41
-30.0
 62
     5
 63
     7
 74
     0
 91
        4
 64
     7
 65
   257
 75
     1
175
     1
 42
1.0
 92
        8
 66
     7
 43
1.0
 76
     1
 77
     6
 78
     2
 67
     7
 79
     5
170
     0
171
     0
290
     0
174
     0
 93
        1
 44
0.0
173
     0
291
     1
 45
0.0
1001
ACAD
1000
AcDbSavedByObjectVersion
1070
     0
  0
VISUALSTYLE
  5
36
102
{ACAD_REACTORS
330
2A
102
}
102
{ACAD_XDICTIONARY
360
1BE
102
}
330
2A
100
AcDbVisualStyle
  2
Brighten
 70
    12
 71
     2
 72
     2
 73
     0
 90
        0
 40
-0.6
 41
-30.0
 62
     5
 63
     7
 74
     1
 91
        4
 64
     7
 65
   257
 75
     1
175
     1
 42
1.0
 92
        8
 66
     7
 43
1.0
 76
     1
 77
     6
 78
     2
 67
     7
 79
     5
170
     0
171
     0
290
     0
174
     0
 93
        1
 44
50.0
173
     0
291
     1
 45
0.0
1001
ACAD
1000
AcDbSavedByObjectVersion
1070
     0
  0
VISUALSTYLE
  5
3A
102
{ACAD_REACTORS
330
2A
102
}
102
{ACAD_XDICTIONARY
360
1C6
102
}
330
2A
100
AcDbVisualStyle
  2
ColorChange
 70
    16
 71
     2
 72
     2
 73
     3
 90
        0
 40
-0.6
 41
-30.0
 62
     5
 63
     8
 74
     1
 91
        4
 64
     7
 65
   257
 75
     1
175
     1
 42
1.0
 92
        8
 66
     8
 43
1.0
 76
     1
 77
     6
 78
     2
 67
     7
 79
     5
170
     0
171
     0
290
     0
174
     0
 93
        1
 44
0.0
173
     0
291
     1
 45
0.0
1001
ACAD
1000
AcDbSavedByObjectVersion
1070
     0
  0
VISUALSTYLE
  5
34
102
{ACAD_REACTORS
330
2A
102
}
102
{ACAD_XDICTIONARY
360
1BA
102
}
330
2A
100
AcDbVisualStyle
  2
Conceptual
 70
     9
 71
     3
 72
     2
 73
     0
 90
        0
 40
-0.6
 41
-30.0
 62
     5
 63
     7
 74
     2
 91
        2
 64
     7
 65
   257
 75
     1
175
     1
 42
40.0
 92
        8
 66
     7
 43
1.0
 76
     1
 77
     6
 78
     2
 67
     7
 79
     3
170
     0
171
     0
290
     0
174
     0
 93
        1
 44
0.0
173
     0
291
     0
 45
0.0
1001
ACAD
1000
AcDbSavedByObjectVersion
1070
     0
  0
VISUALSTYLE
  5
35
102
{ACAD_REACTORS
330
2A
102
}
102
{ACAD_XDICTIONARY
360
1BC
102
}
330
2A
100
AcDbVisualStyle
  2
Dim
 70
    11
 71
     2
 72
     2
 73
     0
 90
        0
 40
-0.6
 41
-30.0
 62
     5
 63
     7
 74
     1
 91
        4
 64
     7
 65
   257
 75
     1
175
     1
 42
1.0
 92
        8
 66
     7
 43
1.0
 76
     1
 77
     6
 78
     2
 67
     7
 79
     5
170
     0
171
     0
290
     0
174
     0
 93
        1
 44
-50.0
173
     0
291
     1
 45
0.0
1001
ACAD
1000
AcDbSavedByObjectVersion
1070
     0
  0
VISUALSTYLE
  5
39
102
{ACAD_REACTORS
330
2A
102
}
102
{ACAD_XDICTIONARY
360
1C4
102
}
330
2A
100
AcDbVisualStyle
  2
Facepattern
 70
    15
 71
     2
 72
     2
 73
     0
 90
        0
 40
-0.6
 41
-30.0
 62
     5
 63
     7
 74
     1
 91
        4
 64
     7
 65
   257
 75
     1
175
     1
 42
1.0
 92
        8
 66
     7
 43
1.0
 76
     1
 77
     6
 78
     2
 67
     7
 79
     5
170
     0
171
     0
290
     0
174
     0
 93
        1
 44
0.0
173
     0
291
     1
 45
0.0
1001
ACAD
1000
AcDbSavedByObjectVersion
1070
     0
  0
VISUALSTYLE
  5
2B
102
{ACAD_REACTORS
330
2A
102
}
102
{ACAD_XDICTIONARY
360
1A8
102
}
330
2A
100
AcDbVisualStyle
  2
Flat
 70
     0
 71
     2
 72
     1
 73
     1
 90
        2
 40
-0.6
 41
30.0
 62
     5
 63
     7
 74
     0
 91
        4
 64
     7
 65
   257
 75
     1
175
     1
 42
1.0
 92
        8
 66
     7
 43
1.0
 76
     1
 77
     6
 78
     2
 67
     7
 79
     5
170
     0
171
     0
290
     0
174
     0
 93
       13
 44
0.0
173
     0
291
     1
 45
0.0
1001
ACAD
1000
AcDbSavedByObjectVersion
1070
     0
  0
VISUALSTYLE
  5
2C
102
{ACAD_REACTORS
330
2A
102
}
102
{ACAD_XDICTIONARY
360
1AA
102
}
330
2A
100
AcDbVisualStyle
  2
FlatWithEdges
 70
     1
 71
     2
 72
     1
 73
     1
 90
        2
 40
-0.6
 41
30.0
 62
     5
 63
     7
 74
     1
 91
        4
 64
     7
 65
   257
 75
     1
175
     1
 42
1.0
 92
        0
 66
   257
 43
1.0
 76
     1
 77
     6
 78
     2
 67
     7
 79
     5
170
     0
171
     0
290
     0
174
     0
 93
       13
 44
0.0
173
     0
291
     1
 45
0.0
1001
ACAD
1000
AcDbSavedByObjectVersion
1070
     0
  0
VISUALSTYLE
  5
2D
102
{ACAD_REACTORS
330
2A
102
}
102
{ACAD_XDICTIONARY
360
1AC
102
}
330
2A
100
AcDbVisualStyle
  2
Gouraud
 70
     2
 71
     2
 72
     2
 73
     1
 90
        2
 40
-0.6
 41
30.0
 62
     5
 63
     7
 74
     0
 91
        4
 64
     7
 65
   257
 75
     1
175
     1
 42
1.0
 92
        0
 66
     7
 43
1.0
 76
     1
 77
     6
 78
     2
 67
     7
 79
     5
170
     0
171
     0
290
     0
174
     0
 93
       13
 44
0.0
173
     0
291
     1
 45
0.0
1001
ACAD
1000
AcDbSavedByObjectVersion
1070
     0
  0
VISUALSTYLE
  5
2E
102
{ACAD_REACTORS
330
2A
102
}
102
{ACAD_XDICTIONARY
360
1AE
102
}
330
2A
100
AcDbVisualStyle
  2
GouraudWithEdges
 70
     3
 71
     2
 72
     2
 73
     1
 90
        2
 40
-0.6
 41
30.0
 62
     5
 63
     7
 74
     1
 91
        4
 64
     7
 65
   257
 75
     1
175
     1
 42
1.0
 92
        0
 66
   257
 43
1.0
 76
     1
 77
     6
 78
     2
 67
     7
 79
     5
170
     0
171
     0
290
     0
174
     0
 93
       13
 44
0.0
173
     0
291
     1
 45
0.0
1001
ACAD
1000
AcDbSavedByObjectVersion
1070
     0
  0
VISUALSTYLE
  5
38
102
{ACAD_REACTORS
330
2A
102
}
102
{ACAD_XDICTIONARY
360
1C2
102
}
330
2A
100
AcDbVisualStyle
  2
Linepattern
 70
    14
 71
     2
 72
     2
 73
     0
 90
        0
 40
-0.6
 41
-30.0
 62
     5
 63
     7
 74
     1
 91
        4
 64
     7
 65
   257
 75
     7
175
     7
 42
1.0
 92
        8
 66
     7
 43
1.0
 76
     1
 77
     6
 78
     2
 67
     7
 79
     5
170
     0
171
     0
290
     0
174
     0
 93
        1
 44
0.0
173
     0
291
     1
 45
0.0
1001
ACAD
1000
AcDbSavedByObjectVersion
1070
     0
  0
VISUALSTYLE
  5
33
102
{ACAD_REACTORS
330
2A
102
}
102
{ACAD_XDICTIONARY
360
1B8
102
}
330
2A
100
AcDbVisualStyle
  2
Realistic
 70
     8
 71
     2
 72
     2
 73
     0
 90
        0
 40
-0.6
 41
-30.0
 62
     5
 63
     7
 74
     1
 91
        0
 64
     7
 65
   257
 75
     1
175
     1
 42
1.0
 92
        8
 66
     8
 43
1.0
 76
     1
 77
     6
 78
     2
 67
     7
 79
     5
170
     0
171
     0
290
     0
174
     0
 93
       13
 44
0.0
173
     0
291
     0
 45
0.0
1001
ACAD
1000
AcDbSavedByObjectVersion
1070
     0
  0
VISUALSTYLE
  5
37
102
{ACAD_REACTORS
330
2A
102
}
102
{ACAD_XDICTIONARY
360
1C0
102
}
330
2A
100
AcDbVisualStyle
  2
Thicken
 70
    13
 71
     2
 72
     2
 73
     0
 90
        0
 40
-0.6
 41
-30.0
 62
     5
 63
     7
 74
     1
 91
        4
 64
     7
 65
   257
 75
     1
175
     1
 42
1.0
 92
       12
 66
     7
 43
1.0
 76
     1
 77
     6
 78
     2
 67
     7
 79
     5
170
     0
171
     0
290
     0
174
     0
 93
        1
 44
0.0
173
     0
291
     1
 45
0.0
1001
ACAD
1000
AcDbSavedByObjectVersion
1070
     0
  0
DICTIONARYVAR
  5
1A6
102
{ACAD_REACTORS
330
1A3
102
}
330
1A3
100
DictionaryVariables
280
     0
  1
2
  0
DICTIONARYVAR
  5
1A7
102
{ACAD_REACTORS
330
1A3
102
}
330
1A3
100
DictionaryVariables
280
     0
  1
1
  0
DICTIONARY
  5
1CA
330
3D
100
AcDbDictionary
280
     1
281
     1
  3
ACAD_XREC_ROUNDTRIP
360
1CB
  0
DICTIONARY
  5
1C8
330
3C
100
AcDbDictionary
280
     1
281
     1
  3
ACAD_XREC_ROUNDTRIP
360
1C9
  0
DICTIONARY
  5
1CC
330
3E
100
AcDbDictionary
280
     1
281
     1
  3
ACAD_XREC_ROUNDTRIP
360
1CD
  0
DICTIONARY
  5
1B0
330
2F
100
AcDbDictionary
280
     1
281
     1
  3
ACAD_XREC_ROUNDTRIP
360
1B1
  0
DICTIONARY
  5
1B4
330
31
100
AcDbDictionary
280
     1
281
     1
  3
ACAD_XREC_ROUNDTRIP
360
1B5
  0
DICTIONARY
  5
1B2
330
30
100
AcDbDictionary
280
     1
281
     1
  3
ACAD_XREC_ROUNDTRIP
360
1B3
  0
DICTIONARY
  5
1B6
330
32
100
AcDbDictionary
280
     1
281
     1
  3
ACAD_XREC_ROUNDTRIP
360
1B7
  0
DICTIONARY
  5
1BE
330
36
100
AcDbDictionary
280
     1
281
     1
  3
ACAD_XREC_ROUNDTRIP
360
1BF
  0
DICTIONARY
  5
1C6
330
3A
100
AcDbDictionary
280
     1
281
     1
  3
ACAD_XREC_ROUNDTRIP
360
1C7
  0
DICTIONARY
  5
1BA
330
34
100
AcDbDictionary
280
     1
281
     1
  3
ACAD_XREC_ROUNDTRIP
360
1BB
  0
DICTIONARY
  5
1BC
330
35
100
AcDbDictionary
280
     1
281
     1
  3
ACAD_XREC_ROUNDTRIP
360
1BD
  0
DICTIONARY
  5
1C4
330
39
100
AcDbDictionary
280
     1
281
     1
  3
ACAD_XREC_ROUNDTRIP
360
1C5
  0
DICTIONARY
  5
1A8
330
2B
100
AcDbDictionary
280
     1
281
     1
  3
ACAD_XREC_ROUNDTRIP
360
1A9
  0
DICTIONARY
  5
1AA
330
2C
100
AcDbDictionary
280
     1
281
     1
  3
ACAD_XREC_ROUNDTRIP
360
1AB
  0
DICTIONARY
  5
1AC
330
2D
100
AcDbDictionary
280
     1
281
     1
  3
ACAD_XREC_ROUNDTRIP
360
1AD
  0
DICTIONARY
  5
1AE
330
2E
100
AcDbDictionary
280
     1
281
     1
  3
ACAD_XREC_ROUNDTRIP
360
1AF
  0
DICTIONARY
  5
1C2
330
38
100
AcDbDictionary
280
     1
281
     1
  3
ACAD_XREC_ROUNDTRIP
360
1C3
  0
DICTIONARY
  5
1B8
330
33
100
AcDbDictionary
280
     1
281
     1
  3
ACAD_XREC_ROUNDTRIP
360
1B9
  0
DICTIONARY
  5
1C0
330
37
100
AcDbDictionary
280
     1
281
     1
  3
ACAD_XREC_ROUNDTRIP
360
1C1
  0
XRECORD
  5
1CB
102
{ACAD_REACTORS
330
1CA
102
}
330
1CA
100
AcDbXrecord
280
     1
102
MATERIAL
148
0.0
149
0.0
149
0.0
 93
        0
 94
      127
282
     0
 72
     1
 77
     1
171
     1
175
     1
179
     1
273
     0
  0
XRECORD
  5
1C9
102
{ACAD_REACTORS
330
1C8
102
}
330
1C8
100
AcDbXrecord
280
     1
102
MATERIAL
148
0.0
149
0.0
149
0.0
 93
        0
 94
      127
282
     0
 72
     1
 77
     1
171
     1
175
     1
179
     1
273
     0
  0
XRECORD
  5
1CD
102
{ACAD_REACTORS
330
1CC
102
}
330
1CC
100
AcDbXrecord
280
     1
102
MATERIAL
148
0.0
149
0.0
149
0.0
 93
        0
 94
      127
282
     0
 72
     1
 77
     1
171
     1
175
     1
179
     1
273
     0
  0
XRECORD
  5
1B1
102
{ACAD_REACTORS
330
1B0
102
}
330
1B0
100
AcDbXrecord
280
     1
102
RTVSPropertyOp0
 70
     1
102
RTVSPropertyOp1
 70
     1
102
RTVSPropertyOp2
 70
     1
102
RTVSPropertyOp3
 70
     1
102
RTVSPropertyOp4
 70
     1
102
RTVSPropertyOp5
 70
     1
102
RTVSPropertyOp6
 70
     1
102
RTVSPropertyOp7
 70
     1
102
RTVSPropertyOp8
 70
     1
102
RTVSPropertyOp9
 70
     1
102
RTVSPropertyOp10
 70
     1
102
RTVSPropertyOp11
 70
     1
102
RTVSPropertyOp12
 70
     1
102
RTVSPropertyOp13
 70
     1
102
RTVSPropertyOp14
 70
     1
102
RTVSPropertyOp15
 70
     1
102
RTVSPropertyOp16
 70
     1
102
RTVSPropertyOp17
 70
     1
102
RTVSPropertyOp18
 70
     1
102
RTVSPropertyOp19
 70
     1
102
RTVSPropertyOp20
 70
     1
102
RTVSPropertyOp21
 70
     1
102
RTVSPropertyOp22
 70
     1
102
RTVSPropertyOp23
 70
     1
102
RTVSPropertyOp24
 70
     1
102
RTVSPropertyOp25
 70
     1
102
RTVSPropertyOp26
 70
     1
102
RTVSPropertyOp27
 70
     1
102
RTVSPropertyOp28
 70
     1
102
RTVSPropertyOp29
 70
     1
102
RTVSPropertyOp30
 70
     1
102
RTVSPropertyOp31
 70
     1
102
RTVSPropertyOp32
 70
     1
  0
XRECORD
  5
1B5
102
{ACAD_REACTORS
330
1B4
102
}
330
1B4
100
AcDbXrecord
280
     1
102
RTVSPropertyOp0
 70
     1
102
RTVSPropertyOp1
 70
     1
102
RTVSPropertyOp2
 70
     1
102
RTVSPropertyOp3
 70
     1
102
RTVSPropertyOp4
 70
     1
102
RTVSPropertyOp5
 70
     1
102
RTVSPropertyOp6
 70
     1
102
RTVSPropertyOp7
 70
     1
102
RTVSPropertyOp8
 70
     1
102
RTVSPropertyOp9
 70
     1
102
RTVSPropertyOp10
 70
     1
102
RTVSPropertyOp11
 70
     1
102
RTVSPropertyOp12
 70
     1
102
RTVSPropertyOp13
 70
     1
102
RTVSPropertyOp14
 70
     1
102
RTVSPropertyOp15
 70
     1
102
RTVSPropertyOp16
 70
     1
102
RTVSPropertyOp17
 70
     1
102
RTVSPropertyOp18
 70
     1
102
RTVSPropertyOp19
 70
     1
102
RTVSPropertyOp20
 70
     1
102
RTVSPropertyOp21
 70
     1
102
RTVSPropertyOp22
 70
     1
102
RTVSPropertyOp23
 70
     1
102
RTVSPropertyOp24
 70
     1
102
RTVSPropertyOp25
 70
     1
102
RTVSPropertyOp26
 70
     1
102
RTVSPropertyOp27
 70
     1
102
RTVSPropertyOp28
 70
     1
102
RTVSPropertyOp29
 70
     1
102
RTVSPropertyOp30
 70
     1
102
RTVSPropertyOp31
 70
     1
102
RTVSPropertyOp32
 70
     1
  0
XRECORD
  5
1B3
102
{ACAD_REACTORS
330
1B2
102
}
330
1B2
100
AcDbXrecord
280
     1
102
RTVSPropertyOp0
 70
     1
102
RTVSPropertyOp1
 70
     1
102
RTVSPropertyOp2
 70
     1
102
RTVSPropertyOp3
 70
     1
102
RTVSPropertyOp4
 70
     1
102
RTVSPropertyOp5
 70
     1
102
RTVSPropertyOp6
 70
     1
102
RTVSPropertyOp7
 70
     1
102
RTVSPropertyOp8
 70
     1
102
RTVSPropertyOp9
 70
     1
102
RTVSPropertyOp10
 70
     1
102
RTVSPropertyOp11
 70
     1
102
RTVSPropertyOp12
 70
     1
102
RTVSPropertyOp13
 70
     1
102
RTVSPropertyOp14
 70
     1
102
RTVSPropertyOp15
 70
     1
102
RTVSPropertyOp16
 70
     1
102
RTVSPropertyOp17
 70
     1
102
RTVSPropertyOp18
 70
     1
102
RTVSPropertyOp19
 70
     1
102
RTVSPropertyOp20
 70
     1
102
RTVSPropertyOp21
 70
     1
102
RTVSPropertyOp22
 70
     1
102
RTVSPropertyOp23
 70
     1
102
RTVSPropertyOp24
 70
     1
102
RTVSPropertyOp25
 70
     1
102
RTVSPropertyOp26
 70
     1
102
RTVSPropertyOp27
 70
     1
102
RTVSPropertyOp28
 70
     1
102
RTVSPropertyOp29
 70
     1
102
RTVSPropertyOp30
 70
     1
102
RTVSPropertyOp31
 70
     1
102
RTVSPropertyOp32
 70
     1
  0
XRECORD
  5
1B7
102
{ACAD_REACTORS
330
1B6
102
}
330
1B6
100
AcDbXrecord
280
     1
102
RTVSPropertyOp0
 70
     1
102
RTVSPropertyOp1
 70
     1
102
RTVSPropertyOp2
 70
     1
102
RTVSPropertyOp3
 70
     1
102
RTVSPropertyOp4
 70
     1
102
RTVSPropertyOp5
 70
     1
102
RTVSPropertyOp6
 70
     1
102
RTVSPropertyOp7
 70
     1
102
RTVSPropertyOp8
 70
     1
102
RTVSPropertyOp9
 70
     1
102
RTVSPropertyOp10
 70
     1
102
RTVSPropertyOp11
 70
     1
102
RTVSPropertyOp12
 70
     1
102
RTVSPropertyOp13
 70
     1
102
RTVSPropertyOp14
 70
     1
102
RTVSPropertyOp15
 70
     1
102
RTVSPropertyOp16
 70
     1
102
RTVSPropertyOp17
 70
     1
102
RTVSPropertyOp18
 70
     1
102
RTVSPropertyOp19
 70
     1
102
RTVSPropertyOp20
 70
     1
102
RTVSPropertyOp21
 70
     1
102
RTVSPropertyOp22
 70
     1
102
RTVSPropertyOp23
 70
     1
102
RTVSPropertyOp24
 70
     1
102
RTVSPropertyOp25
 70
     1
102
RTVSPropertyOp26
 70
     1
102
RTVSPropertyOp27
 70
     1
102
RTVSPropertyOp28
 70
     1
102
RTVSPropertyOp29
 70
     1
102
RTVSPropertyOp30
 70
     1
102
RTVSPropertyOp31
 70
     1
102
RTVSPropertyOp32
 70
     1
  0
XRECORD
  5
1BF
102
{ACAD_REACTORS
330
1BE
102
}
330
1BE
100
AcDbXrecord
280
     1
102
RTVSPropertyOp0
 70
     1
102
RTVSPropertyOp1
 70
     1
102
RTVSPropertyOp2
 70
     1
102
RTVSPropertyOp3
 70
     1
102
RTVSPropertyOp4
 70
     1
102
RTVSPropertyOp5
 70
     1
102
RTVSPropertyOp6
 70
     1
102
RTVSPropertyOp7
 70
     1
102
RTVSPropertyOp8
 70
     1
102
RTVSPropertyOp9
 70
     1
102
RTVSPropertyOp10
 70
     1
102
RTVSPropertyOp11
 70
     1
102
RTVSPropertyOp12
 70
     1
102
RTVSPropertyOp13
 70
     1
102
RTVSPropertyOp14
 70
     1
102
RTVSPropertyOp15
 70
     1
102
RTVSPropertyOp16
 70
     1
102
RTVSPropertyOp17
 70
     1
102
RTVSPropertyOp18
 70
     1
102
RTVSPropertyOp19
 70
     1
102
RTVSPropertyOp20
 70
     1
102
RTVSPropertyOp21
 70
     1
102
RTVSPropertyOp22
 70
     1
102
RTVSPropertyOp23
 70
     1
102
RTVSPropertyOp24
 70
     1
102
RTVSPropertyOp25
 70
     1
102
RTVSPropertyOp26
 70
     1
102
RTVSPropertyOp27
 70
     1
102
RTVSPropertyOp28
 70
     1
102
RTVSPropertyOp29
 70
     1
102
RTVSPropertyOp30
 70
     1
102
RTVSPropertyOp31
 70
     1
102
RTVSPropertyOp32
 70
     1
  0
XRECORD
  5
1C7
102
{ACAD_REACTORS
330
1C6
102
}
330
1C6
100
AcDbXrecord
280
     1
102
RTVSPropertyOp0
 70
     1
102
RTVSPropertyOp1
 70
     1
102
RTVSPropertyOp2
 70
     1
102
RTVSPropertyOp3
 70
     1
102
RTVSPropertyOp4
 70
     1
102
RTVSPropertyOp5
 70
     1
102
RTVSPropertyOp6
 70
     1
102
RTVSPropertyOp7
 70
     1
102
RTVSPropertyOp8
 70
     1
102
RTVSPropertyOp9
 70
     1
102
RTVSPropertyOp10
 70
     1
102
RTVSPropertyOp11
 70
     1
102
RTVSPropertyOp12
 70
     1
102
RTVSPropertyOp13
 70
     1
102
RTVSPropertyOp14
 70
     1
102
RTVSPropertyOp15
 70
     1
102
RTVSPropertyOp16
 70
     1
102
RTVSPropertyOp17
 70
     1
102
RTVSPropertyOp18
 70
     1
102
RTVSPropertyOp19
 70
     1
102
RTVSPropertyOp20
 70
     1
102
RTVSPropertyOp21
 70
     1
102
RTVSPropertyOp22
 70
     1
102
RTVSPropertyOp23
 70
     1
102
RTVSPropertyOp24
 70
     1
102
RTVSPropertyOp25
 70
     1
102
RTVSPropertyOp26
 70
     1
102
RTVSPropertyOp27
 70
     1
102
RTVSPropertyOp28
 70
     1
102
RTVSPropertyOp29
 70
     1
102
RTVSPropertyOp30
 70
     1
102
RTVSPropertyOp31
 70
     1
102
RTVSPropertyOp32
 70
     1
  0
XRECORD
  5
1BB
102
{ACAD_REACTORS
330
1BA
102
}
330
1BA
100
AcDbXrecord
280
     1
102
RTVSPropertyOp0
 70
     1
102
RTVSPropertyOp1
 70
     1
102
RTVSPropertyOp2
 70
     1
102
RTVSPropertyOp3
 70
     1
102
RTVSPropertyOp4
 70
     1
102
RTVSPropertyOp5
 70
     1
102
RTVSPropertyOp6
 70
     1
102
RTVSPropertyOp7
 70
     1
102
RTVSPropertyOp8
 70
     1
102
RTVSPropertyOp9
 70
     1
102
RTVSPropertyOp10
 70
     1
102
RTVSPropertyOp11
 70
     1
102
RTVSPropertyOp12
 70
     1
102
RTVSPropertyOp13
 70
     1
102
RTVSPropertyOp14
 70
     1
102
RTVSPropertyOp15
 70
     1
102
RTVSPropertyOp16
 70
     1
102
RTVSPropertyOp17
 70
     1
102
RTVSPropertyOp18
 70
     1
102
RTVSPropertyOp19
 70
     1
102
RTVSPropertyOp20
 70
     1
102
RTVSPropertyOp21
 70
     1
102
RTVSPropertyOp22
 70
     1
102
RTVSPropertyOp23
 70
     1
102
RTVSPropertyOp24
 70
     1
102
RTVSPropertyOp25
 70
     1
102
RTVSPropertyOp26
 70
     1
102
RTVSPropertyOp27
 70
     1
102
RTVSPropertyOp28
 70
     1
102
RTVSPropertyOp29
 70
     1
102
RTVSPropertyOp30
 70
     1
102
RTVSPropertyOp31
 70
     1
102
RTVSPropertyOp32
 70
     1
  0
XRECORD
  5
1BD
102
{ACAD_REACTORS
330
1BC
102
}
330
1BC
100
AcDbXrecord
280
     1
102
RTVSPropertyOp0
 70
     1
102
RTVSPropertyOp1
 70
     1
102
RTVSPropertyOp2
 70
     1
102
RTVSPropertyOp3
 70
     1
102
RTVSPropertyOp4
 70
     1
102
RTVSPropertyOp5
 70
     1
102
RTVSPropertyOp6
 70
     1
102
RTVSPropertyOp7
 70
     1
102
RTVSPropertyOp8
 70
     1
102
RTVSPropertyOp9
 70
     1
102
RTVSPropertyOp10
 70
     1
102
RTVSPropertyOp11
 70
     1
102
RTVSPropertyOp12
 70
     1
102
RTVSPropertyOp13
 70
     1
102
RTVSPropertyOp14
 70
     1
102
RTVSPropertyOp15
 70
     1
102
RTVSPropertyOp16
 70
     1
102
RTVSPropertyOp17
 70
     1
102
RTVSPropertyOp18
 70
     1
102
RTVSPropertyOp19
 70
     1
102
RTVSPropertyOp20
 70
     1
102
RTVSPropertyOp21
 70
     1
102
RTVSPropertyOp22
 70
     1
102
RTVSPropertyOp23
 70
     1
102
RTVSPropertyOp24
 70
     1
102
RTVSPropertyOp25
 70
     1
102
RTVSPropertyOp26
 70
     1
102
RTVSPropertyOp27
 70
     1
102
RTVSPropertyOp28
 70
     1
102
RTVSPropertyOp29
 70
     1
102
RTVSPropertyOp30
 70
     1
102
RTVSPropertyOp31
 70
     1
102
RTVSPropertyOp32
 70
     1
  0
XRECORD
  5
1C5
102
{ACAD_REACTORS
330
1C4
102
}
330
1C4
100
AcDbXrecord
280
     1
102
RTVSPropertyOp0
 70
     1
102
RTVSPropertyOp1
 70
     1
102
RTVSPropertyOp2
 70
     1
102
RTVSPropertyOp3
 70
     1
102
RTVSPropertyOp4
 70
     1
102
RTVSPropertyOp5
 70
     1
102
RTVSPropertyOp6
 70
     1
102
RTVSPropertyOp7
 70
     1
102
RTVSPropertyOp8
 70
     1
102
RTVSPropertyOp9
 70
     1
102
RTVSPropertyOp10
 70
     1
102
RTVSPropertyOp11
 70
     1
102
RTVSPropertyOp12
 70
     1
102
RTVSPropertyOp13
 70
     1
102
RTVSPropertyOp14
 70
     1
102
RTVSPropertyOp15
 70
     1
102
RTVSPropertyOp16
 70
     1
102
RTVSPropertyOp17
 70
     1
102
RTVSPropertyOp18
 70
     1
102
RTVSPropertyOp19
 70
     1
102
RTVSPropertyOp20
 70
     1
102
RTVSPropertyOp21
 70
     1
102
RTVSPropertyOp22
 70
     1
102
RTVSPropertyOp23
 70
     1
102
RTVSPropertyOp24
 70
     1
102
RTVSPropertyOp25
 70
     1
102
RTVSPropertyOp26
 70
     1
102
RTVSPropertyOp27
 70
     1
102
RTVSPropertyOp28
 70
     1
102
RTVSPropertyOp29
 70
     1
102
RTVSPropertyOp30
 70
     1
102
RTVSPropertyOp31
 70
     1
102
RTVSPropertyOp32
 70
     1
  0
XRECORD
  5
1A9
102
{ACAD_REACTORS
330
1A8
102
}
330
1A8
100
AcDbXrecord
280
     1
102
RTVSPropertyOp0
 70
     1
102
RTVSPropertyOp1
 70
     1
102
RTVSPropertyOp2
 70
     1
102
RTVSPropertyOp3
 70
     1
102
RTVSPropertyOp4
 70
     1
102
RTVSPropertyOp5
 70
     1
102
RTVSPropertyOp6
 70
     1
102
RTVSPropertyOp7
 70
     1
102
RTVSPropertyOp8
 70
     1
102
RTVSPropertyOp9
 70
     1
102
RTVSPropertyOp10
 70
     1
102
RTVSPropertyOp11
 70
     1
102
RTVSPropertyOp12
 70
     1
102
RTVSPropertyOp13
 70
     1
102
RTVSPropertyOp14
 70
     1
102
RTVSPropertyOp15
 70
     1
102
RTVSPropertyOp16
 70
     1
102
RTVSPropertyOp17
 70
     1
102
RTVSPropertyOp18
 70
     1
102
RTVSPropertyOp19
 70
     1
102
RTVSPropertyOp20
 70
     1
102
RTVSPropertyOp21
 70
     1
102
RTVSPropertyOp22
 70
     1
102
RTVSPropertyOp23
 70
     1
102
RTVSPropertyOp24
 70
     1
102
RTVSPropertyOp25
 70
     1
102
RTVSPropertyOp26
 70
     1
102
RTVSPropertyOp27
 70
     1
102
RTVSPropertyOp28
 70
     1
102
RTVSPropertyOp29
 70
     1
102
RTVSPropertyOp30
 70
     1
102
RTVSPropertyOp31
 70
     1
102
RTVSPropertyOp32
 70
     1
  0
XRECORD
  5
1AB
102
{ACAD_REACTORS
330
1AA
102
}
330
1AA
100
AcDbXrecord
280
     1
102
RTVSPropertyOp0
 70
     1
102
RTVSPropertyOp1
 70
     1
102
RTVSPropertyOp2
 70
     1
102
RTVSPropertyOp3
 70
     1
102
RTVSPropertyOp4
 70
     1
102
RTVSPropertyOp5
 70
     1
102
RTVSPropertyOp6
 70
     1
102
RTVSPropertyOp7
 70
     1
102
RTVSPropertyOp8
 70
     1
102
RTVSPropertyOp9
 70
     1
102
RTVSPropertyOp10
 70
     1
102
RTVSPropertyOp11
 70
     1
102
RTVSPropertyOp12
 70
     1
102
RTVSPropertyOp13
 70
     1
102
RTVSPropertyOp14
 70
     1
102
RTVSPropertyOp15
 70
     1
102
RTVSPropertyOp16
 70
     1
102
RTVSPropertyOp17
 70
     1
102
RTVSPropertyOp18
 70
     1
102
RTVSPropertyOp19
 70
     1
102
RTVSPropertyOp20
 70
     1
102
RTVSPropertyOp21
 70
     1
102
RTVSPropertyOp22
 70
     1
102
RTVSPropertyOp23
 70
     1
102
RTVSPropertyOp24
 70
     1
102
RTVSPropertyOp25
 70
     1
102
RTVSPropertyOp26
 70
     1
102
RTVSPropertyOp27
 70
     1
102
RTVSPropertyOp28
 70
     1
102
RTVSPropertyOp29
 70
     1
102
RTVSPropertyOp30
 70
     1
102
RTVSPropertyOp31
 70
     1
102
RTVSPropertyOp32
 70
     1
  0
XRECORD
  5
1AD
102
{ACAD_REACTORS
330
1AC
102
}
330
1AC
100
AcDbXrecord
280
     1
102
RTVSPropertyOp0
 70
     1
102
RTVSPropertyOp1
 70
     1
102
RTVSPropertyOp2
 70
     1
102
RTVSPropertyOp3
 70
     1
102
RTVSPropertyOp4
 70
     1
102
RTVSPropertyOp5
 70
     1
102
RTVSPropertyOp6
 70
     1
102
RTVSPropertyOp7
 70
     1
102
RTVSPropertyOp8
 70
     1
102
RTVSPropertyOp9
 70
     1
102
RTVSPropertyOp10
 70
     1
102
RTVSPropertyOp11
 70
     1
102
RTVSPropertyOp12
 70
     1
102
RTVSPropertyOp13
 70
     1
102
RTVSPropertyOp14
 70
     1
102
RTVSPropertyOp15
 70
     1
102
RTVSPropertyOp16
 70
     1
102
RTVSPropertyOp17
 70
     1
102
RTVSPropertyOp18
 70
     1
102
RTVSPropertyOp19
 70
     1
102
RTVSPropertyOp20
 70
     1
102
RTVSPropertyOp21
 70
     1
102
RTVSPropertyOp22
 70
     1
102
RTVSPropertyOp23
 70
     1
102
RTVSPropertyOp24
 70
     1
102
RTVSPropertyOp25
 70
     1
102
RTVSPropertyOp26
 70
     1
102
RTVSPropertyOp27
 70
     1
102
RTVSPropertyOp28
 70
     1
102
RTVSPropertyOp29
 70
     1
102
RTVSPropertyOp30
 70
     1
102
RTVSPropertyOp31
 70
     1
102
RTVSPropertyOp32
 70
     1
  0
XRECORD
  5
1AF
102
{ACAD_REACTORS
330
1AE
102
}
330
1AE
100
AcDbXrecord
280
     1
102
RTVSPropertyOp0
 70
     1
102
RTVSPropertyOp1
 70
     1
102
RTVSPropertyOp2
 70
     1
102
RTVSPropertyOp3
 70
     1
102
RTVSPropertyOp4
 70
     1
102
RTVSPropertyOp5
 70
     1
102
RTVSPropertyOp6
 70
     1
102
RTVSPropertyOp7
 70
     1
102
RTVSPropertyOp8
 70
     1
102
RTVSPropertyOp9
 70
     1
102
RTVSPropertyOp10
 70
     1
102
RTVSPropertyOp11
 70
     1
102
RTVSPropertyOp12
 70
     1
102
RTVSPropertyOp13
 70
     1
102
RTVSPropertyOp14
 70
     1
102
RTVSPropertyOp15
 70
     1
102
RTVSPropertyOp16
 70
     1
102
RTVSPropertyOp17
 70
     1
102
RTVSPropertyOp18
 70
     1
102
RTVSPropertyOp19
 70
     1
102
RTVSPropertyOp20
 70
     1
102
RTVSPropertyOp21
 70
     1
102
RTVSPropertyOp22
 70
     1
102
RTVSPropertyOp23
 70
     1
102
RTVSPropertyOp24
 70
     1
102
RTVSPropertyOp25
 70
     1
102
RTVSPropertyOp26
 70
     1
102
RTVSPropertyOp27
 70
     1
102
RTVSPropertyOp28
 70
     1
102
RTVSPropertyOp29
 70
     1
102
RTVSPropertyOp30
 70
     1
102
RTVSPropertyOp31
 70
     1
102
RTVSPropertyOp32
 70
     1
  0
XRECORD
  5
1C3
102
{ACAD_REACTORS
330
1C2
102
}
330
1C2
100
AcDbXrecord
280
     1
102
RTVSPropertyOp0
 70
     1
102
RTVSPropertyOp1
 70
     1
102
RTVSPropertyOp2
 70
     1
102
RTVSPropertyOp3
 70
     1
102
RTVSPropertyOp4
 70
     1
102
RTVSPropertyOp5
 70
     1
102
RTVSPropertyOp6
 70
     1
102
RTVSPropertyOp7
 70
     1
102
RTVSPropertyOp8
 70
     1
102
RTVSPropertyOp9
 70
     1
102
RTVSPropertyOp10
 70
     1
102
RTVSPropertyOp11
 70
     1
102
RTVSPropertyOp12
 70
     1
102
RTVSPropertyOp13
 70
     1
102
RTVSPropertyOp14
 70
     1
102
RTVSPropertyOp15
 70
     1
102
RTVSPropertyOp16
 70
     1
102
RTVSPropertyOp17
 70
     1
102
RTVSPropertyOp18
 70
     1
102
RTVSPropertyOp19
 70
     1
102
RTVSPropertyOp20
 70
     1
102
RTVSPropertyOp21
 70
     1
102
RTVSPropertyOp22
 70
     1
102
RTVSPropertyOp23
 70
     1
102
RTVSPropertyOp24
 70
     1
102
RTVSPropertyOp25
 70
     1
102
RTVSPropertyOp26
 70
     1
102
RTVSPropertyOp27
 70
     1
102
RTVSPropertyOp28
 70
     1
102
RTVSPropertyOp29
 70
     1
102
RTVSPropertyOp30
 70
     1
102
RTVSPropertyOp31
 70
     1
102
RTVSPropertyOp32
 70
     1
  0
XRECORD
  5
1B9
102
{ACAD_REACTORS
330
1B8
102
}
330
1B8
100
AcDbXrecord
280
     1
102
RTVSPropertyOp0
 70
     1
102
RTVSPropertyOp1
 70
     1
102
RTVSPropertyOp2
 70
     1
102
RTVSPropertyOp3
 70
     1
102
RTVSPropertyOp4
 70
     1
102
RTVSPropertyOp5
 70
     1
102
RTVSPropertyOp6
 70
     1
102
RTVSPropertyOp7
 70
     1
102
RTVSPropertyOp8
 70
     1
102
RTVSPropertyOp9
 70
     1
102
RTVSPropertyOp10
 70
     1
102
RTVSPropertyOp11
 70
     1
102
RTVSPropertyOp12
 70
     1
102
RTVSPropertyOp13
 70
     1
102
RTVSPropertyOp14
 70
     1
102
RTVSPropertyOp15
 70
     1
102
RTVSPropertyOp16
 70
     1
102
RTVSPropertyOp17
 70
     1
102
RTVSPropertyOp18
 70
     1
102
RTVSPropertyOp19
 70
     1
102
RTVSPropertyOp20
 70
     1
102
RTVSPropertyOp21
 70
     1
102
RTVSPropertyOp22
 70
     1
102
RTVSPropertyOp23
 70
     1
102
RTVSPropertyOp24
 70
     1
102
RTVSPropertyOp25
 70
     1
102
RTVSPropertyOp26
 70
     1
102
RTVSPropertyOp27
 70
     1
102
RTVSPropertyOp28
 70
     1
102
RTVSPropertyOp29
 70
     1
102
RTVSPropertyOp30
 70
     1
102
RTVSPropertyOp31
 70
     1
102
RTVSPropertyOp32
 70
     1
  0
XRECORD
  5
1C1
102
{ACAD_REACTORS
330
1C0
102
}
330
1C0
100
AcDbXrecord
280
     1
102
RTVSPropertyOp0
 70
     1
102
RTVSPropertyOp1
 70
     1
102
RTVSPropertyOp2
 70
     1
102
RTVSPropertyOp3
 70
     1
102
RTVSPropertyOp4
 70
     1
102
RTVSPropertyOp5
 70
     1
102
RTVSPropertyOp6
 70
     1
102
RTVSPropertyOp7
 70
     1
102
RTVSPropertyOp8
 70
     1
102
RTVSPropertyOp9
 70
     1
102
RTVSPropertyOp10
 70
     1
102
RTVSPropertyOp11
 70
     1
102
RTVSPropertyOp12
 70
     1
102
RTVSPropertyOp13
 70
     1
102
RTVSPropertyOp14
 70
     1
102
RTVSPropertyOp15
 70
     1
102
RTVSPropertyOp16
 70
     1
102
RTVSPropertyOp17
 70
     1
102
RTVSPropertyOp18
 70
     1
102
RTVSPropertyOp19
 70
     1
102
RTVSPropertyOp20
 70
     1
102
RTVSPropertyOp21
 70
     1
102
RTVSPropertyOp22
 70
     1
102
RTVSPropertyOp23
 70
     1
102
RTVSPropertyOp24
 70
     1
102
RTVSPropertyOp25
 70
     1
102
RTVSPropertyOp26
 70
     1
102
RTVSPropertyOp27
 70
     1
102
RTVSPropertyOp28
 70
     1
102
RTVSPropertyOp29
 70
     1
102
RTVSPropertyOp30
 70
     1
102
RTVSPropertyOp31
 70
     1
102
RTVSPropertyOp32
 70
     1
  0
ENDSEC
  0
EOF
