  0
SECTION
  2
HEADER
  9
$ACADVER
  1
AC1015
  9
$ACADMAINTVER
 70
     6
  9
$DWGCODEPAGE
  3
ANSI_932
  9
$INSBASE
 10
0.0
 20
0.0
 30
0.0
  9
$EXTMIN
 10
-0.71937950704512
 20
-75.53558588979094
 30
0.0
  9
$EXTMAX
 10
209.2806204929549
 20
221.4644141102091
 30
0.0
  9
$LIMMIN
 10
0.0
 20
0.0
  9
$LIMMAX
 10
12.0
 20
9.0
  9
$ORTHOMODE
 70
     0
  9
$REGENMODE
 70
     1
  9
$FILLMODE
 70
     1
  9
$QTEXTMODE
 70
     0
  9
$MIRRTEXT
 70
     1
  9
$LTSCALE
 40
1.0
  9
$ATTMODE
 70
     1
  9
$TEXTSIZE
 40
0.2
  9
$TRACEWID
 40
0.05
  9
$TEXTSTYLE
  7
Standard
  9
$CLAYER
  8
0
  9
$CELTYPE
  6
ByLayer
  9
$CECOLOR
 62
   256
  9
$CELTSCALE
 40
1.0
  9
$DISPSILH
 70
     0
  9
$DIMSCALE
 40
1.0
  9
$DIMASZ
 40
0.18
  9
$DIMEXO
 40
0.0625
  9
$DIMDLI
 40
0.38
  9
$DIMRND
 40
0.0
  9
$DIMDLE
 40
0.0
  9
$DIMEXE
 40
0.18
  9
$DIMTP
 40
0.0
  9
$DIMTM
 40
0.0
  9
$DIMTXT
 40
0.18
  9
$DIMCEN
 40
0.09
  9
$DIMTSZ
 40
0.0
  9
$DIMTOL
 70
     0
  9
$DIMLIM
 70
     0
  9
$DIMTIH
 70
     1
  9
$DIMTOH
 70
     1
  9
$DIMSE1
 70
     0
  9
$DIMSE2
 70
     0
  9
$DIMTAD
 70
     0
  9
$DIMZIN
 70
     0
  9
$DIMBLK
  1

  9
$DIMASO
 70
     1
  9
$DIMSHO
 70
     1
  9
$DIMPOST
  1

  9
$DIMAPOST
  1

  9
$DIMALT
 70
     0
  9
$DIMALTD
 70
     2
  9
$DIMALTF
 40
25.4
  9
$DIMLFAC
 40
1.0
  9
$DIMTOFL
 70
     0
  9
$DIMTVP
 40
0.0
  9
$DIMTIX
 70
     0
  9
$DIMSOXD
 70
     0
  9
$DIMSAH
 70
     0
  9
$DIMBLK1
  1

  9
$DIMBLK2
  1

  9
$DIMSTYLE
  2
Standard
  9
$DIMCLRD
 70
     0
  9
$DIMCLRE
 70
     0
  9
$DIMCLRT
 70
     0
  9
$DIMTFAC
 40
1.0
  9
$DIMGAP
 40
0.09
  9
$DIMJUST
 70
     0
  9
$DIMSD1
 70
     0
  9
$DIMSD2
 70
     0
  9
$DIMTOLJ
 70
     1
  9
$DIMTZIN
 70
     0
  9
$DIMALTZ
 70
     0
  9
$DIMALTTZ
 70
     0
  9
$DIMUPT
 70
     0
  9
$DIMDEC
 70
     4
  9
$DIMTDEC
 70
     4
  9
$DIMALTU
 70
     2
  9
$DIMALTTD
 70
     2
  9
$DIMTXSTY
  7
Standard
  9
$DIMAUNIT
 70
     0
  9
$DIMADEC
 70
     0
  9
$DIMALTRND
 40
0.0
  9
$DIMAZIN
 70
     0
  9
$DIMDSEP
 70
    46
  9
$DIMATFIT
 70
     3
  9
$DIMFRAC
 70
     0
  9
$DIMLDRBLK
  1

  9
$DIMLUNIT
 70
     2
  9
$DIMLWD
 70
    -2
  9
$DIMLWE
 70
    -2
  9
$DIMTMOVE
 70
     0
  9
$LUNITS
 70
     2
  9
$LUPREC
 70
     4
  9
$SKETCHINC
 40
0.1
  9
$FILLETRAD
 40
0.5
  9
$AUNITS
 70
     0
  9
$AUPREC
 70
     0
  9
$MENU
  1
.
  9
$ELEVATION
 40
0.0
  9
$PELEVATION
 40
0.0
  9
$THICKNESS
 40
0.0
  9
$LIMCHECK
 70
     0
  9
$CHAMFERA
 40
0.5
  9
$CHAMFERB
 40
0.5
  9
$CHAMFERC
 40
1.0
  9
$CHAMFERD
 40
0.0
  9
$SKPOLY
 70
     0
  9
$TDCREATE
 40
2459601.43890772
  9
$TDUCREATE
 40
2459601.06390772
  9
$TDUPDATE
 40
2459601.438909896
  9
$TDUUPDATE
 40
2459601.063909896
  9
$TDINDWG
 40
0.0000000116
  9
$TDUSRTIMER
 40
0.0000000116
  9
$USRTIMER
 70
     1
  9
$ANGBASE
 50
0.0
  9
$ANGDIR
 70
     0
  9
$PDMODE
 70
     0
  9
$PDSIZE
 40
0.0
  9
$PLINEWID
 40
0.0
  9
$SPLFRAME
 70
     0
  9
$SPLINETYPE
 70
     6
  9
$SPLINESEGS
 70
     8
  9
$HANDSEED
  5
192
  9
$SURFTAB1
 70
     6
  9
$SURFTAB2
 70
     6
  9
$SURFTYPE
 70
     6
  9
$SURFU
 70
     6
  9
$SURFV
 70
     6
  9
$UCSBASE
  2

  9
$UCSNAME
  2

  9
$UCSORG
 10
0.0
 20
0.0
 30
0.0
  9
$UCSXDIR
 10
1.0
 20
0.0
 30
0.0
  9
$UCSYDIR
 10
0.0
 20
1.0
 30
0.0
  9
$UCSORTHOREF
  2

  9
$UCSORTHOVIEW
 70
     0
  9
$UCSORGTOP
 10
0.0
 20
0.0
 30
0.0
  9
$UCSORGBOTTOM
 10
0.0
 20
0.0
 30
0.0
  9
$UCSORGLEFT
 10
0.0
 20
0.0
 30
0.0
  9
$UCSORGRIGHT
 10
0.0
 20
0.0
 30
0.0
  9
$UCSORGFRONT
 10
0.0
 20
0.0
 30
0.0
  9
$UCSORGBACK
 10
0.0
 20
0.0
 30
0.0
  9
$PUCSBASE
  2

  9
$PUCSNAME
  2

  9
$PUCSORG
 10
0.0
 20
0.0
 30
0.0
  9
$PUCSXDIR
 10
1.0
 20
0.0
 30
0.0
  9
$PUCSYDIR
 10
0.0
 20
1.0
 30
0.0
  9
$PUCSORTHOREF
  2

  9
$PUCSORTHOVIEW
 70
     0
  9
$PUCSORGTOP
 10
0.0
 20
0.0
 30
0.0
  9
$PUCSORGBOTTOM
 10
0.0
 20
0.0
 30
0.0
  9
$PUCSORGLEFT
 10
0.0
 20
0.0
 30
0.0
  9
$PUCSORGRIGHT
 10
0.0
 20
0.0
 30
0.0
  9
$PUCSORGFRONT
 10
0.0
 20
0.0
 30
0.0
  9
$PUCSORGBACK
 10
0.0
 20
0.0
 30
0.0
  9
$USERI1
 70
     0
  9
$USERI2
 70
     0
  9
$USERI3
 70
     0
  9
$USERI4
 70
     0
  9
$USERI5
 70
     0
  9
$USERR1
 40
18.1
  9
$USERR2
 40
0.0
  9
$USERR3
 40
0.0
  9
$USERR4
 40
0.0
  9
$USERR5
 40
0.0
  9
$WORLDVIEW
 70
     1
  9
$SHADEDGE
 70
     3
  9
$SHADEDIF
 70
    70
  9
$TILEMODE
 70
     1
  9
$MAXACTVP
 70
    64
  9
$PINSBASE
 10
0.0
 20
0.0
 30
0.0
  9
$PLIMCHECK
 70
     0
  9
$PEXTMIN
 10
1.00000000000000E+20
 20
1.00000000000000E+20
 30
1.00000000000000E+20
  9
$PEXTMAX
 10
-1.00000000000000E+20
 20
-1.00000000000000E+20
 30
-1.00000000000000E+20
  9
$PLIMMIN
 10
0.0
 20
0.0
  9
$PLIMMAX
 10
12.0
 20
9.0
  9
$UNITMODE
 70
     0
  9
$VISRETAIN
 70
     1
  9
$PLINEGEN
 70
     0
  9
$PSLTSCALE
 70
     1
  9
$TREEDEPTH
 70
  3020
  9
$CMLSTYLE
  2
Standard
  9
$CMLJUST
 70
     0
  9
$CMLSCALE
 40
1.0
  9
$PROXYGRAPHICS
 70
     1
  9
$MEASUREMENT
 70
     1
  9
$CELWEIGHT
370
    -1
  9
$ENDCAPS
280
     0
  9
$JOINSTYLE
280
     0
  9
$LWDISPLAY
290
     0
  9
$INSUNITS
 70
     4
  9
$HYPERLINKBASE
  1

  9
$STYLESHEET
  1

  9
$XEDIT
290
     1
  9
$CEPSNTYPE
380
     0
  9
$PSTYLEMODE
290
     1
  9
$FINGERPRINTGUID
  2
{A2F308C3-0E82-4B62-8831-77023B5EF0EA}
  9
$VERSIONGUID
  2
{FAEB1C32-E019-11D5-929B-00C0DF256EC4}
  9
$EXTNAMES
290
     1
  9
$PSVPSCALE
 40
0.0
  9
$OLESTARTUP
290
     0
  0
ENDSEC
  0
SECTION
  2
CLASSES
  0
CLASS
  1
ACDBDICTIONARYWDFLT
  2
AcDbDictionaryWithDefault
  3
ObjectDBX Classes
 90
        0
280
     0
281
     0
  0
CLASS
  1
VISUALSTYLE
  2
AcDbVisualStyle
  3
ObjectDBX Classes
 90
     4095
280
     0
281
     0
  0
CLASS
  1
MATERIAL
  2
AcDbMaterial
  3
ObjectDBX Classes
 90
     1153
280
     0
281
     0
  0
CLASS
  1
DICTIONARYVAR
  2
AcDbDictionaryVar
  3
ObjectDBX Classes
 90
        0
280
     0
281
     0
  0
CLASS
  1
ACDBPLACEHOLDER
  2
AcDbPlaceHolder
  3
ObjectDBX Classes
 90
        0
280
     0
281
     0
  0
CLASS
  1
LAYOUT
  2
AcDbLayout
  3
ObjectDBX Classes
 90
        0
280
     0
281
     0
  0
ENDSEC
  0
SECTION
  2
TABLES
  0
TABLE
  2
VPORT
  5
8
330
0
100
AcDbSymbolTable
 70
     1
  0
VPORT
  5
29
330
8
100
AcDbSymbolTableRecord
100
AcDbViewportTableRecord
  2
*Active
 70
     0
 10
0.0
 20
0.0
 11
1.0
 21
1.0
 12
104.2806204929549
 22
72.96441411020908
 13
0.0
 23
0.0
 14
0.5
 24
0.5
 15
0.5
 25
0.5
 16
0.0
 26
0.0
 36
1.0
 17
0.0
 27
0.0
 37
0.0
 40
326.7000000000001
 41
1.60267857142857
 42
50.0
 43
0.0
 44
0.0
 50
0.0
 51
0.0
 71
     0
 72
   100
 73
     1
 74
     3
 75
     0
 76
     0
 77
     0
 78
     0
281
     0
 65
     1
110
0.0
120
0.0
130
0.0
111
1.0
121
0.0
131
0.0
112
0.0
122
1.0
132
0.0
 79
     0
146
0.0
  0
ENDTAB
  0
TABLE
  2
LTYPE
  5
5
330
0
100
AcDbSymbolTable
 70
     8
  0
LTYPE
  5
14
330
5
100
AcDbSymbolTableRecord
100
AcDbLinetypeTableRecord
  2
ByBlock
 70
     0
  3

 72
    65
 73
     0
 40
0.0
  0
LTYPE
  5
15
330
5
100
AcDbSymbolTableRecord
100
AcDbLinetypeTableRecord
  2
ByLayer
 70
     0
  3

 72
    65
 73
     0
 40
0.0
  0
LTYPE
  5
16
330
5
100
AcDbSymbolTableRecord
100
AcDbLinetypeTableRecord
  2
Continuous
 70
     0
  3
Solid line
 72
    65
 73
     0
 40
0.0
  0
LTYPE
  5
3F
330
5
100
AcDbSymbolTableRecord
100
AcDbLinetypeTableRecord
  2
DASHED
 70
     0
  3
Dashed
 72
    65
 73
     2
 40
15.0
 49
7.0
 74
     0
 49
-8.0
 74
     0
  0
LTYPE
  5
40
330
5
100
AcDbSymbolTableRecord
100
AcDbLinetypeTableRecord
  2
DOTTED
 70
     0
  3
Dotted
 72
    65
 73
     2
 40
1.0
 49
0.0
 74
     0
 49
-1.0
 74
     0
  0
LTYPE
  5
41
330
5
100
AcDbSymbolTableRecord
100
AcDbLinetypeTableRecord
  2
DOT_CENTER
 70
     0
  3
Dot_Center
 72
    65
 73
     4
 40
14.0
 49
12.0
 74
     0
 49
-1.0
 74
     0
 49
0.0
 74
     0
 49
-1.0
 74
     0
  0
LTYPE
  5
42
330
5
100
AcDbSymbolTableRecord
100
AcDbLinetypeTableRecord
  2
LONG_DASHED
 70
     0
  3
Long_Dashed
 72
    65
 73
     2
 40
15.0
 49
10.0
 74
     0
 49
-5.0
 74
     0
  0
LTYPE
  5
43
330
5
100
AcDbSymbolTableRecord
100
AcDbLinetypeTableRecord
  2
DASH_CENTER
 70
     0
  3
Dash_Center
 72
    65
 73
     4
 40
14.0
 49
11.0
 74
     0
 49
-1.0
 74
     0
 49
1.0
 74
     0
 49
-1.0
 74
     0
  0
LTYPE
  5
44
330
5
100
AcDbSymbolTableRecord
100
AcDbLinetypeTableRecord
  2
PHANTOM
 70
     0
  3
Phantom
 72
    65
 73
     6
 40
13.0
 49
10.0
 74
     0
 49
-1.0
 74
     0
 49
0.0
 74
     0
 49
-1.0
 74
     0
 49
0.0
 74
     0
 49
-1.0
 74
     0
  0
LTYPE
  5
45
330
5
100
AcDbSymbolTableRecord
100
AcDbLinetypeTableRecord
  2
CENTER_DASH_DASH
 70
     0
  3
Center_Dash_Dash
 72
    65
 73
     6
 40
14.0
 49
9.0
 74
     0
 49
-1.0
 74
     0
 49
1.0
 74
     0
 49
-1.0
 74
     0
 49
1.0
 74
     0
 49
-1.0
 74
     0
  0
ENDTAB
  0
TABLE
  2
LAYER
  5
2
330
0
100
AcDbSymbolTable
 70
     3
  0
LAYER
  5
10
330
2
100
AcDbSymbolTableRecord
100
AcDbLayerTableRecord
  2
0
 70
     0
 62
     7
  6
Continuous
370
    -3
390
F
  0
LAYER
  5
46
330
2
100
AcDbSymbolTableRecord
100
AcDbLayerTableRecord
  2
1
 70
     0
 62
     7
  6
Continuous
370
    -3
390
F
  0
LAYER
  5
47
330
2
100
AcDbSymbolTableRecord
100
AcDbLayerTableRecord
  2
_U_30EC_U_30A4_U_30E4_U_30FC_1
 70
     0
 62
     7
  6
Continuous
370
    -3
390
F
  0
ENDTAB
  0
TABLE
  2
STYLE
  5
3
330
0
100
AcDbSymbolTable
 70
     3
  0
STYLE
  5
11
330
3
100
AcDbSymbolTableRecord
100
AcDbTextStyleTableRecord
  2
Standard
 70
     0
 40
0.0
 41
1.0
 50
0.0
 71
     0
 42
0.2
  3
txt
  4

  0
STYLE
  5
B2
330
3
100
AcDbSymbolTableRecord
100
AcDbTextStyleTableRecord
  2
CONVERTER_11
 70
     0
 40
0.0
 41
0.89
 50
0.0
 71
     0
 42
0.2
  3
MS Mincho.ttf
  4

1001
ACAD
1000
MS Mincho
1071
    32785
  0
STYLE
  5
110
330
3
100
AcDbSymbolTableRecord
100
AcDbTextStyleTableRecord
  2
CONVERTER_12
 70
     0
 40
0.0
 41
0.9
 50
0.0
 71
     0
 42
0.2
  3
txt.shx
  4

  0
ENDTAB
  0
TABLE
  2
VIEW
  5
6
330
0
100
AcDbSymbolTable
 70
     0
  0
ENDTAB
  0
TABLE
  2
UCS
  5
7
330
0
100
AcDbSymbolTable
 70
     0
  0
ENDTAB
  0
TABLE
  2
APPID
  5
9
330
0
100
AcDbSymbolTable
 70
     1
  0
APPID
  5
12
330
9
100
AcDbSymbolTableRecord
100
AcDbRegAppTableRecord
  2
ACAD
 70
     0
  0
ENDTAB
  0
TABLE
  2
DIMSTYLE
  5
A
330
0
100
AcDbSymbolTable
 70
     7
100
AcDbDimStyleTable
  0
DIMSTYLE
105
27
330
A
100
AcDbSymbolTableRecord
100
AcDbDimStyleTableRecord
  2
Standard
 70
     0
178
     0
340
11
  0
DIMSTYLE
105
126
102
{ACAD_REACTORS
330
127
102
}
330
A
100
AcDbSymbolTableRecord
100
AcDbDimStyleTableRecord
  2
ME10_DIM_10
 70
     0
  3
{\Fgdt;n}<>
 41
3.5
 42
0.0
 44
2.0
 73
     0
 74
     0
 77
     1
 78
     8
140
3.0
147
2.0
172
     1
173
     1
174
     1
175
     1
176
     2
177
     2
271
     2
178
     7
271
     2
340
110
  0
DIMSTYLE
105
131
102
{ACAD_REACTORS
330
132
102
}
330
A
100
AcDbSymbolTableRecord
100
AcDbDimStyleTableRecord
  2
ME10_DIM_11
 70
     0
  3
{\Fgdt;n}<>
 41
3.5
 42
0.0
 44
2.0
 73
     0
 74
     0
 77
     1
 78
     8
140
3.0
147
2.0
172
     1
173
     1
174
     1
175
     1
176
     2
177
     2
271
     2
178
     7
271
     2
340
110
  0
DIMSTYLE
105
13C
102
{ACAD_REACTORS
330
13D
102
}
330
A
100
AcDbSymbolTableRecord
100
AcDbDimStyleTableRecord
  2
ME10_DIM_12
 70
     0
  3
{\Fgdt;n}<>
 41
3.5
 42
0.0
 44
2.0
 73
     0
 74
     0
 77
     1
 78
     8
140
3.0
147
2.0
172
     1
173
     1
174
     1
175
     1
176
     2
177
     2
271
     2
178
     7
271
     2
340
110
  0
DIMSTYLE
105
147
102
{ACAD_REACTORS
330
148
102
}
330
A
100
AcDbSymbolTableRecord
100
AcDbDimStyleTableRecord
  2
ME10_DIM_13
 70
     0
  3
{\Fgdt;n}<>
 41
3.5
 42
0.0
 44
2.0
 73
     0
 74
     0
 77
     1
 78
     8
140
3.0
147
2.0
172
     1
173
     1
174
     1
175
     1
176
     2
177
     2
271
     2
178
     7
271
     2
340
110
  0
DIMSTYLE
105
152
102
{ACAD_REACTORS
330
153
102
}
330
A
100
AcDbSymbolTableRecord
100
AcDbDimStyleTableRecord
  2
ME10_DIM_14
 70
     0
 41
3.5
 42
0.0
 44
2.0
 73
     0
 74
     0
 77
     1
 78
     8
140
3.0
147
2.0
172
     1
173
     1
174
     1
175
     1
176
     2
177
     2
271
     2
178
     7
271
     2
340
110
  0
DIMSTYLE
105
15D
102
{ACAD_REACTORS
330
15E
102
}
330
A
100
AcDbSymbolTableRecord
100
AcDbDimStyleTableRecord
  2
ME10_DIM_15
 70
     0
 41
3.5
 42
0.0
 44
2.0
 73
     0
 74
     0
 77
     1
 78
     8
140
3.0
147
2.0
172
     1
173
     1
174
     1
175
     1
176
     2
177
     2
271
     2
178
     7
271
     2
340
110
  0
ENDTAB
  0
TABLE
  2
BLOCK_RECORD
  5
1
330
0
100
AcDbSymbolTable
 70
    10
  0
BLOCK_RECORD
  5
1F
330
1
100
AcDbSymbolTableRecord
100
AcDbBlockTableRecord
  2
*Model_Space
340
22
  0
BLOCK_RECORD
  5
1B
330
1
100
AcDbSymbolTableRecord
100
AcDbBlockTableRecord
  2
*Paper_Space
340
1E
  0
BLOCK_RECORD
  5
23
330
1
100
AcDbSymbolTableRecord
100
AcDbBlockTableRecord
  2
*Paper_Space0
340
26
  0
BLOCK_RECORD
  5
48
330
1
100
AcDbSymbolTableRecord
100
AcDbBlockTableRecord
  2
開示A4
340
0
102
{BLKREFS
331
4C
102
}
  0
BLOCK_RECORD
  5
4B
330
1
100
AcDbSymbolTableRecord
100
AcDbBlockTableRecord
  2
開示A4枠
340
0
102
{BLKREFS
331
4F
102
}
  0
BLOCK_RECORD
  5
11D
330
1
100
AcDbSymbolTableRecord
100
AcDbBlockTableRecord
  2
*D3
340
0
  0
BLOCK_RECORD
  5
128
330
1
100
AcDbSymbolTableRecord
100
AcDbBlockTableRecord
  2
*D4
340
0
  0
BLOCK_RECORD
  5
133
330
1
100
AcDbSymbolTableRecord
100
AcDbBlockTableRecord
  2
*D5
340
0
  0
BLOCK_RECORD
  5
13E
330
1
100
AcDbSymbolTableRecord
100
AcDbBlockTableRecord
  2
*D6
340
0
  0
BLOCK_RECORD
  5
149
330
1
100
AcDbSymbolTableRecord
100
AcDbBlockTableRecord
  2
*D7
340
0
  0
BLOCK_RECORD
  5
154
330
1
100
AcDbSymbolTableRecord
100
AcDbBlockTableRecord
  2
*D8
340
0
  0
BLOCK_RECORD
  5
15F
330
1
100
AcDbSymbolTableRecord
100
AcDbBlockTableRecord
  2
*D9
340
0
102
{BLKREFS
331
166
102
}
  0
ENDTAB
  0
ENDSEC
  0
SECTION
  2
BLOCKS
  0
BLOCK
  5
20
330
1F
100
AcDbEntity
  8
0
100
AcDbBlockBegin
  2
*Model_Space
 70
     0
 10
0.0
 20
0.0
 30
0.0
  3
*Model_Space
  1

  0
ENDBLK
  5
21
330
1F
100
AcDbEntity
  8
0
100
AcDbBlockEnd
  0
BLOCK
  5
1C
330
1B
100
AcDbEntity
 67
     1
  8
0
100
AcDbBlockBegin
  2
*Paper_Space
 70
     0
 10
0.0
 20
0.0
 30
0.0
  3
*Paper_Space
  1

  0
ENDBLK
  5
1D
330
1B
100
AcDbEntity
 67
     1
  8
0
100
AcDbBlockEnd
  0
BLOCK
  5
24
330
23
100
AcDbEntity
  8
0
100
AcDbBlockBegin
  2
*Paper_Space0
 70
     0
 10
0.0
 20
0.0
 30
0.0
  3
*Paper_Space0
  1

  0
ENDBLK
  5
25
330
23
100
AcDbEntity
  8
0
100
AcDbBlockEnd
  0
BLOCK
  5
49
330
48
100
AcDbEntity
  8
0
100
AcDbBlockBegin
  2
開示A4
 70
     0
 10
-0.71937950704512
 20
-75.53558588979094
 30
0.0
  3
開示A4
  1

  0
POINT
  5
50
330
48
100
AcDbEntity
  8
1
 62
     4
100
AcDbPoint
 10
182.2806204929549
 20
-60.53558588979092
 30
0.0
  0
POINT
  5
51
330
48
100
AcDbEntity
  8
1
 62
     4
100
AcDbPoint
 10
93.03062049295485
 20
-58.53558588979092
 30
0.0
  0
POINT
  5
52
330
48
100
AcDbEntity
  8
1
 62
     4
100
AcDbPoint
 10
84.53062049295485
 20
-58.53558588979092
 30
0.0
  0
POINT
  5
53
330
48
100
AcDbEntity
  8
1
 62
     4
100
AcDbPoint
 10
105.7806204929549
 20
-56.53558588979092
 30
0.0
  0
POINT
  5
54
330
48
100
AcDbEntity
  8
1
 62
     4
100
AcDbPoint
 10
105.7806204929549
 20
-63.03558588979092
 30
0.0
  0
POINT
  5
55
330
48
100
AcDbEntity
  8
1
 62
     4
100
AcDbPoint
 10
111.5306204929549
 20
-63.03558588979092
 30
0.0
  0
POINT
  5
56
330
48
100
AcDbEntity
  8
1
 62
     4
100
AcDbPoint
 10
100.0306204929549
 20
-63.03558588979092
 30
0.0
  0
POINT
  5
57
330
48
100
AcDbEntity
  8
1
 62
     4
100
AcDbPoint
 10
122.7806204929549
 20
-56.53558588979092
 30
0.0
  0
POINT
  5
58
330
48
100
AcDbEntity
  8
1
 62
     4
100
AcDbPoint
 10
122.7806204929549
 20
-63.03558588979092
 30
0.0
  0
POINT
  5
59
330
48
100
AcDbEntity
  8
1
 62
     4
100
AcDbPoint
 10
128.5306204929549
 20
-63.03558588979092
 30
0.0
  0
POINT
  5
5A
330
48
100
AcDbEntity
  8
1
 62
     4
100
AcDbPoint
 10
117.0306204929549
 20
-63.03558588979092
 30
0.0
  0
POINT
  5
5B
330
48
100
AcDbEntity
  8
1
 62
     4
100
AcDbPoint
 10
139.7806204929549
 20
-56.53558588979092
 30
0.0
  0
POINT
  5
5C
330
48
100
AcDbEntity
  8
1
 62
     4
100
AcDbPoint
 10
139.7806204929549
 20
-63.03558588979092
 30
0.0
  0
POINT
  5
5D
330
48
100
AcDbEntity
  8
1
 62
     4
100
AcDbPoint
 10
145.5306204929549
 20
-63.03558588979092
 30
0.0
  0
POINT
  5
5E
330
48
100
AcDbEntity
  8
1
 62
     4
100
AcDbPoint
 10
134.0306204929549
 20
-63.03558588979092
 30
0.0
  0
POINT
  5
5F
330
48
100
AcDbEntity
  8
1
 62
     4
100
AcDbPoint
 10
151.0306204929549
 20
-63.03558588979092
 30
0.0
  0
POINT
  5
60
330
48
100
AcDbEntity
  8
1
 62
     4
100
AcDbPoint
 10
162.5306204929549
 20
-63.03558588979092
 30
0.0
  0
POINT
  5
61
330
48
100
AcDbEntity
  8
1
 62
     4
100
AcDbPoint
 10
156.7806204929549
 20
-63.03558588979092
 30
0.0
  0
POINT
  5
62
330
48
100
AcDbEntity
  8
1
 62
     4
100
AcDbPoint
 10
56.28062049295485
 20
-61.28558588979092
 30
0.0
  0
POINT
  5
63
330
48
100
AcDbEntity
  8
1
 62
     4
100
AcDbPoint
 10
56.28062049295485
 20
-52.78558588979092
 30
0.0
  0
POINT
  5
64
330
48
100
AcDbEntity
  8
1
 62
     4
100
AcDbPoint
 10
46.78062049295485
 20
206.4644141102094
 30
0.0
  0
POINT
  5
65
330
48
100
AcDbEntity
  8
1
 62
     4
100
AcDbPoint
 10
156.7806204929549
 20
-56.53558588979092
 30
0.0
  0
POINT
  5
66
330
48
100
AcDbEntity
  8
1
 62
     4
100
AcDbPoint
 10
56.28062049295485
 20
-59.28558588979092
 30
0.0
  0
POINT
  5
67
330
48
100
AcDbEntity
  8
1
 62
     4
100
AcDbPoint
 10
56.28062049295485
 20
-50.78558588979092
 30
0.0
  0
POINT
  5
68
330
48
100
AcDbEntity
  8
1
 62
     4
100
AcDbPoint
 10
56.28062049295485
 20
-54.78558588979092
 30
0.0
  0
POINT
  5
69
330
48
100
AcDbEntity
  8
1
 62
     4
100
AcDbPoint
 10
56.28062049295485
 20
-63.28558588979092
 30
0.0
  0
POINT
  5
6A
330
48
100
AcDbEntity
  8
1
 62
     4
100
AcDbPoint
 10
33.28062049295485
 20
-41.53558588979092
 30
0.0
  0
LINE
  5
6F
330
48
100
AcDbEntity
  8
1
  6
Continuous
 62
     7
100
AcDbLine
 10
104.2806204929549
 20
-65.53558588979092
 30
0.0
 11
199.2806204929549
 21
-65.53558588979092
 31
0.0
  0
LINE
  5
70
330
48
100
AcDbEntity
  8
1
  6
Continuous
 62
     2
100
AcDbLine
 10
104.2806204929549
 20
-65.53558588979092
 30
0.0
 11
104.2806204929549
 21
-70.53558588979095
 31
0.0
  0
LINE
  5
71
330
48
100
AcDbEntity
  8
1
  6
Continuous
 62
     7
100
AcDbLine
 10
199.2806204929549
 20
72.96441411020908
 30
0.0
 11
199.2806204929549
 21
211.4644141102094
 31
0.0
  0
LINE
  5
72
330
48
100
AcDbEntity
  8
1
  6
Continuous
 62
     2
100
AcDbLine
 10
199.2806204929549
 20
72.96441411020908
 30
0.0
 11
204.2806204929549
 21
72.96441411020908
 31
0.0
  0
LINE
  5
73
330
48
100
AcDbEntity
  8
1
  6
Continuous
 62
     7
100
AcDbLine
 10
24.28062049295488
 20
72.96441411020908
 30
0.0
 11
24.28062049295488
 21
211.4644141102094
 31
0.0
  0
LINE
  5
74
330
48
100
AcDbEntity
  8
1
  6
Continuous
 62
     2
100
AcDbLine
 10
24.28062049295488
 20
72.96441411020908
 30
0.0
 11
19.28062049295488
 21
72.96441411020908
 31
0.0
  0
LINE
  5
75
330
48
100
AcDbEntity
  8
1
  6
Continuous
 62
     7
100
AcDbLine
 10
104.2806204929549
 20
211.4644141102094
 30
0.0
 11
24.28062049295488
 21
211.4644141102094
 31
0.0
  0
LINE
  5
76
330
48
100
AcDbEntity
  8
1
  6
Continuous
 62
     2
100
AcDbLine
 10
104.2806204929549
 20
211.4644141102094
 30
0.0
 11
104.2806204929549
 21
216.4644141102094
 31
0.0
  0
LINE
  5
77
330
48
100
AcDbEntity
  8
1
  6
Continuous
 62
     2
100
AcDbLine
 10
165.2806204929549
 20
-55.53558588979092
 30
0.0
 11
199.2806204929549
 21
-55.53558588979092
 31
0.0
  0
LINE
  5
78
330
48
100
AcDbEntity
  8
1
  6
Continuous
 62
     2
100
AcDbLine
 10
97.28062049295485
 20
-48.53558588979092
 30
0.0
 11
97.28062049295485
 21
-65.53558588979095
 31
0.0
  0
LINE
  5
79
330
48
100
AcDbEntity
  8
1
  6
Continuous
 62
     2
100
AcDbLine
 10
114.2806204929549
 20
-48.53558588979092
 30
0.0
 11
114.2806204929549
 21
-65.53558588979095
 31
0.0
  0
LINE
  5
7A
330
48
100
AcDbEntity
  8
1
  6
Continuous
 62
     2
100
AcDbLine
 10
148.2806204929549
 20
-48.53558588979092
 30
0.0
 11
148.2806204929549
 21
-65.53558588979092
 31
0.0
  0
LINE
  5
7B
330
48
100
AcDbEntity
  8
1
  6
Continuous
 62
     2
100
AcDbLine
 10
131.2806204929549
 20
-48.53558588979092
 30
0.0
 11
131.2806204929549
 21
-65.53558588979095
 31
0.0
  0
LINE
  5
7C
330
48
100
AcDbEntity
  8
1
  6
Continuous
 62
     2
100
AcDbLine
 10
165.2806204929549
 20
-48.53558588979092
 30
0.0
 11
165.2806204929549
 21
-65.53558588979092
 31
0.0
  0
LINE
  5
7D
330
48
100
AcDbEntity
  8
1
  6
Continuous
 62
     2
100
AcDbLine
 10
54.28062049295485
 20
201.4644141102094
 30
0.0
 11
24.28062049295488
 21
201.4644141102094
 31
0.0
  0
LINE
  5
7E
330
48
100
AcDbEntity
  8
1
  6
Continuous
 62
     7
100
AcDbLine
 10
24.28062049295488
 20
-65.53558588979092
 30
0.0
 11
24.28062049295488
 21
72.96441411020908
 31
0.0
  0
LINE
  5
7F
330
48
100
AcDbEntity
  8
1
  6
Continuous
 62
     2
100
AcDbLine
 10
39.28062049295485
 20
211.4644141102094
 30
0.0
 11
39.28062049295485
 21
201.4644141102094
 31
0.0
  0
LINE
  5
80
330
48
100
AcDbEntity
  8
1
  6
Continuous
 62
     2
100
AcDbLine
 10
54.28062049295485
 20
211.4644141102094
 30
0.0
 11
54.28062049295485
 21
201.4644141102094
 31
0.0
  0
LINE
  5
81
330
48
100
AcDbEntity
  8
1
  6
Continuous
 62
     2
100
AcDbLine
 10
32.28062049295485
 20
-34.53558588979092
 30
0.0
 11
32.28062049295485
 21
-48.53558588979092
 31
0.0
  0
LINE
  5
82
330
48
100
AcDbEntity
  8
1
  6
Continuous
 62
     7
100
AcDbLine
 10
199.2806204929549
 20
-48.53558588979092
 30
0.0
 11
24.28062049295488
 21
-48.53558588979092
 31
0.0
  0
LINE
  5
83
330
48
100
AcDbEntity
  8
1
  6
Continuous
 62
     7
100
AcDbLine
 10
24.28062049295488
 20
-34.53558588979092
 30
0.0
 11
199.2806204929549
 21
-34.53558588979092
 31
0.0
  0
LINE
  5
84
330
48
100
AcDbEntity
  8
1
  6
PHANTOM
 62
     4
100
AcDbLine
 10
-0.71937950704512
 20
-75.53558588979094
 30
0.0
 11
209.2806204929549
 21
-75.53558588979094
 31
0.0
  0
LINE
  5
85
330
48
100
AcDbEntity
  8
1
  6
PHANTOM
 62
     4
100
AcDbLine
 10
209.2806204929549
 20
-75.53558588979094
 30
0.0
 11
209.2806204929549
 21
221.4644141102091
 31
0.0
  0
LINE
  5
86
330
48
100
AcDbEntity
  8
1
  6
PHANTOM
 62
     4
100
AcDbLine
 10
209.2806204929549
 20
221.4644141102091
 30
0.0
 11
-0.71937950704512
 21
221.4644141102091
 31
0.0
  0
LINE
  5
87
330
48
100
AcDbEntity
  8
1
  6
PHANTOM
 62
     4
100
AcDbLine
 10
-0.71937950704512
 20
221.4644141102091
 30
0.0
 11
-0.71937950704512
 21
-75.53558588979094
 31
0.0
  0
LINE
  5
88
330
48
100
AcDbEntity
  8
1
  6
Continuous
 62
     7
100
AcDbLine
 10
24.28062049295488
 20
-65.53558588979092
 30
0.0
 11
104.2806204929549
 21
-65.53558588979092
 31
0.0
  0
LINE
  5
89
330
48
100
AcDbEntity
  8
1
  6
Continuous
 62
     7
100
AcDbLine
 10
199.2806204929549
 20
-65.53558588979092
 30
0.0
 11
199.2806204929549
 21
72.96441411020908
 31
0.0
  0
LINE
  5
8A
330
48
100
AcDbEntity
  8
1
  6
Continuous
 62
     7
100
AcDbLine
 10
199.2806204929549
 20
211.4644141102094
 30
0.0
 11
104.2806204929549
 21
211.4644141102094
 31
0.0
  0
LINE
  5
8B
330
48
100
AcDbEntity
  8
1
  6
Continuous
 62
     2
100
AcDbLine
 10
24.28062049295488
 20
-57.03558588979092
 30
0.0
 11
80.28062049295485
 21
-57.03558588979092
 31
0.0
  0
LINE
  5
8C
330
48
100
AcDbEntity
  8
1
  6
Continuous
 62
     2
100
AcDbLine
 10
32.28062049295485
 20
-48.53558588979092
 30
0.0
 11
32.28062049295485
 21
-65.53558588979092
 31
0.0
  0
LINE
  5
8D
330
48
100
AcDbEntity
  8
1
  6
Continuous
 62
     7
100
AcDbLine
 10
190.2806204929549
 20
-50.83558588979093
 30
0.0
 11
190.2806204929549
 21
-53.23558588979091
 31
0.0
  0
LINE
  5
8E
330
48
100
AcDbEntity
  8
1
  6
Continuous
 62
     7
100
AcDbLine
 10
190.2806204929549
 20
-50.83558588979093
 30
0.0
 11
195.2806204929549
 21
-50.03558588979092
 31
0.0
  0
LINE
  5
8F
330
48
100
AcDbEntity
  8
1
  6
Continuous
 62
     7
100
AcDbLine
 10
195.2806204929549
 20
-50.03558588979092
 30
0.0
 11
195.2806204929549
 21
-54.03558588979092
 31
0.0
  0
LINE
  5
90
330
48
100
AcDbEntity
  8
1
  6
Continuous
 62
     7
100
AcDbLine
 10
195.2806204929549
 20
-54.03558588979092
 30
0.0
 11
190.2806204929549
 21
-53.23558588979091
 31
0.0
  0
LINE
  5
91
330
48
100
AcDbEntity
  8
1
  6
DOT_CENTER
 62
     2
100
AcDbLine
 10
183.2806204929549
 20
-52.03558588979092
 30
0.0
 11
196.2806204929549
 21
-52.03558588979092
 31
0.0
  0
LINE
  5
92
330
48
100
AcDbEntity
  8
1
  6
DOT_CENTER
 62
     2
100
AcDbLine
 10
186.2806204929549
 20
-49.03558588979092
 30
0.0
 11
186.2806204929549
 21
-55.03558588979092
 31
0.0
  0
LINE
  5
93
330
48
100
AcDbEntity
  8
1
  6
Continuous
 62
     2
100
AcDbLine
 10
80.28062049295485
 20
-48.53558588979092
 30
0.0
 11
80.28062049295485
 21
-65.53558588979092
 31
0.0
  0
CIRCLE
  5
94
330
48
100
AcDbEntity
  8
1
  6
Continuous
 62
     7
100
AcDbCircle
 10
102.7806204929549
 20
-63.03558588979092
 30
0.0
 40
0.3000000000000114
  0
CIRCLE
  5
95
330
48
100
AcDbEntity
  8
1
  6
Continuous
 62
     7
100
AcDbCircle
 10
108.7806204929549
 20
-63.03558588979092
 30
0.0
 40
0.3000000000000114
  0
CIRCLE
  5
96
330
48
100
AcDbEntity
  8
1
  6
Continuous
 62
     7
100
AcDbCircle
 10
119.7806204929549
 20
-63.03558588979092
 30
0.0
 40
0.3000000000000114
  0
CIRCLE
  5
97
330
48
100
AcDbEntity
  8
1
  6
Continuous
 62
     7
100
AcDbCircle
 10
125.7806204929549
 20
-63.03558588979092
 30
0.0
 40
0.3000000000000114
  0
CIRCLE
  5
98
330
48
100
AcDbEntity
  8
1
  6
Continuous
 62
     7
100
AcDbCircle
 10
136.7806204929549
 20
-63.03558588979092
 30
0.0
 40
0.2999999999999829
  0
CIRCLE
  5
99
330
48
100
AcDbEntity
  8
1
  6
Continuous
 62
     7
100
AcDbCircle
 10
142.7806204929549
 20
-63.03558588979092
 30
0.0
 40
0.2999999999999829
  0
CIRCLE
  5
9A
330
48
100
AcDbEntity
  8
1
  6
Continuous
 62
     7
100
AcDbCircle
 10
159.7806204929549
 20
-63.03558588979092
 30
0.0
 40
0.2999999999999829
  0
CIRCLE
  5
9B
330
48
100
AcDbEntity
  8
1
  6
Continuous
 62
     7
100
AcDbCircle
 10
153.7806204929549
 20
-63.03558588979092
 30
0.0
 40
0.2999999999999829
  0
CIRCLE
  5
9C
330
48
100
AcDbEntity
  8
1
  6
Continuous
 62
     7
100
AcDbCircle
 10
186.2806204929549
 20
-52.03558588979092
 30
0.0
 40
1.200000000000102
  0
CIRCLE
  5
9D
330
48
100
AcDbEntity
  8
1
  6
Continuous
 62
     7
100
AcDbCircle
 10
186.2806204929549
 20
-52.03558588979092
 30
0.0
 40
2.0
  0
CIRCLE
  5
9E
330
48
100
AcDbEntity
  8
1
  6
DOT_CENTER
 62
     7
100
AcDbCircle
 10
88.78062049295485
 20
-59.53558588979092
 30
0.0
 40
0.1000000000000227
  0
CIRCLE
  5
9F
330
48
100
AcDbEntity
  8
1
  6
DOT_CENTER
 62
     7
100
AcDbCircle
 10
88.78062049295485
 20
-57.53558588979092
 30
0.0
 40
0.1000000000000227
  0
SPLINE
  5
A0
102
{ACAD_REACTORS
330
BF
102
}
330
48
100
AcDbEntity
  8
_U_30EC_U_30A4_U_30E4_U_30FC_1
  6
Continuous
 62
     2
100
AcDbSpline
210
0.0
220
0.0
230
1.0
 70
     8
 71
     3
 72
    24
 73
    20
 74
    18
 42
0.000000001
 43
0.0000000001
 44
0.00000001
 40
0.0
 40
0.0
 40
0.0
 40
0.0
 40
0.221107500875387
 40
0.427321858624535
 40
0.5080174679239086
 40
0.5914835907870515
 40
0.8143265690193074
 40
1.054651302686602
 40
1.295452694023204
 40
1.518109231328861
 40
1.540864321905476
 40
1.595126460622767
 40
1.659890947896081
 40
1.71415308518744
 40
1.73690817496174
 40
1.764951100735434
 40
1.801562291220998
 40
1.953914424543671
 40
2.126104167379749
 40
2.126104167379749
 40
2.126104167379749
 40
2.126104167379749
 10
185.2181574486438
 20
-59.94569293866078
 30
0.0
 10
185.1918784011361
 20
-60.00460960744719
 30
0.0
 10
185.1410903823975
 20
-60.11847449299835
 30
0.0
 10
185.0937989768661
 20
-60.39116630745979
 30
0.0
 10
184.9849687732166
 20
-60.29113106403636
 30
0.0
 10
184.8321005209187
 20
-60.26439995611769
 30
0.0
 10
185.0492360110748
 20
-60.05040453961463
 30
0.0
 10
185.0644688603929
 20
-59.83226471196606
 30
0.0
 10
185.1713094421549
 20
-59.6510700991267
 30
0.0
 10
185.1111585876626
 20
-59.36645362667693
 30
0.0
 10
185.214052232495
 20
-59.39444499756642
 30
0.0
 10
185.2586138397698
 20
-59.40315337376795
 30
0.0
 10
185.3187047324946
 20
-59.4141893479574
 30
0.0
 10
185.3562824516987
 20
-59.42791065923537
 30
0.0
 10
185.4058671858155
 20
-59.42802512818871
 30
0.0
 10
185.3736363848874
 20
-59.46251996580469
 30
0.0
 10
185.2978007151431
 20
-59.45154484441137
 30
0.0
 10
185.3235652089242
 20
-59.63699619396641
 30
0.0
 10
185.2862101693399
 20
-59.72856275429503
 30
0.0
 10
185.2663909891158
 20
-59.77714453581388
 30
0.0
 11
185.2181574486438
 21
-59.94569293866078
 31
0.0
 11
185.1422676258101
 21
-60.15336880660534
 31
0.0
 11
185.0523607167982
 21
-60.33895196622902
 31
0.0
 11
184.9817698852659
 21
-60.29985316415544
 31
0.0
 11
184.90517301222
 21
-60.26669425791374
 31
0.0
 11
185.0020231877004
 21
-60.06599787775556
 31
0.0
 11
185.080084639702
 21
-59.83870425802071
 31
0.0
 11
185.1395921859269
 21
-59.60537152370403
 31
0.0
 11
185.1807806440775
 21
-59.38655779980039
 31
0.0
 11
185.2030388751763
 21
-59.39128699757699
 31
0.0
 11
185.2561161954889
 21
-59.40256431535195
 31
0.0
 11
185.3194665455393
 21
-59.41602433979303
 31
0.0
 11
185.3725438658519
 21
-59.42730165756798
 31
0.0
 11
185.3948020969507
 21
-59.43203085534458
 31
0.0
 11
185.3770302087009
 21
-59.45372338138084
 31
0.0
 11
185.341232792762
 21
-59.46139960533728
 31
0.0
 11
185.3088158231029
 21
-59.6102630080778
 31
0.0
 11
185.2663909891158
 21
-59.77714453581388
 31
0.0
  0
SPLINE
  5
A1
102
{ACAD_REACTORS
330
BF
102
}
330
48
100
AcDbEntity
  8
_U_30EC_U_30A4_U_30E4_U_30FC_1
  6
Continuous
 62
     2
100
AcDbSpline
210
0.0
220
0.0
230
1.0
 70
     8
 71
     3
 72
    70
 73
    66
 74
    64
 42
0.000000001
 43
0.0000000001
 44
0.00000001
 40
0.0
 40
0.0
 40
0.0
 40
0.0
 40
0.0241731073021188
 40
0.0846058988987013
 40
0.1631685280353284
 40
0.241731157179004
 40
0.3021639488292751
 40
0.3263370654895825
 40
0.3533118254249254
 40
0.4228783438922378
 40
0.5179999095313633
 40
0.6216398239466315
 40
0.7167613891500025
 40
0.7863279069650148
 40
0.813302679176212
 40
0.8372943998771681
 40
0.8945054261373151
 40
0.9627895541962638
 40
1.020000580349074
 40
1.043992300975172
 40
1.071934345522923
 40
1.113121768772883
 40
1.1452251993322
 40
1.225483775412746
 40
1.329819923771458
 40
1.434156071994342
 40
1.514414647795751
 40
1.546518078208363
 40
1.578974764260165
 40
1.662678849314131
 40
1.777131373668352
 40
1.901833377474714
 40
2.016285900500532
 40
2.099989982527871
 40
2.13244666657023
 40
2.158782354485955
 40
2.216720867907744
 40
2.274659381334165
 40
2.300995069256101
 40
2.333451754066073
 40
2.417155836543726
 40
2.531608358985165
 40
2.65631036228366
 40
2.770762886388793
 40
2.854466971339929
 40
2.886923657363764
 40
2.913597976833193
 40
2.982389642874997
 40
3.076451716946882
 40
3.178937260458488
 40
3.272999334739891
 40
3.341791001059119
 40
3.368465320663437
 40
3.396976080738687
 40
3.472140811845895
 40
3.578408190308584
 40
3.700226892456049
 40
3.822045594634238
 40
3.928312973256316
 40
4.00347770531477
 40
4.031988456866808
 40
4.058324144797604
 40
4.116262658236765
 40
4.17420117140057
 40
4.200536849608499
 40
4.200536849608499
 40
4.200536849608499
 40
4.200536849608499
 10
185.2663909891158
 20
-59.77714453581388
 30
0.0
 10
185.2744464474228
 20
-59.77714229167407
 30
0.0
 10
185.302640559279
 20
-59.77713442946293
 30
0.0
 10
185.3571739733221
 20
-59.77727834150723
 30
0.0
 10
185.4289096738153
 20
-59.77649468479195
 30
0.0
 10
185.504244506661
 20
-59.77931018515284
 30
0.0
 10
185.5519257295988
 20
-59.77260185578134
 30
0.0
 10
185.6001276175165
 20
-59.78361025286661
 30
0.0
 10
185.5868776729422
 20
-59.7301218598206
 30
0.0
 10
185.5957298894086
 20
-59.67509005436
 30
0.0
 10
185.5914902965835
 20
-59.58138680252986
 30
0.0
 10
185.5939688410829
 20
-59.48599106760562
 30
0.0
 10
185.5897143635609
 20
-59.39201766995704
 30
0.0
 10
185.5986023595397
 20
-59.33763526541083
 30
0.0
 10
185.5853182339494
 20
-59.28324591287633
 30
0.0
 10
185.6320324206658
 20
-59.29716372643738
 30
0.0
 10
185.6749459475286
 20
-59.2945471160505
 30
0.0
 10
185.7411648386233
 20
-59.29910166528339
 30
0.0
 10
185.7819547201348
 20
-59.3078042684493
 30
0.0
 10
185.8331350620367
 20
-59.30026789088899
 30
0.0
 10
185.8059925416749
 20
-59.34208618755807
 30
0.0
 10
185.7609300985256
 20
-59.33273596906499
 30
0.0
 10
185.77482699746
 20
-59.39717381607257
 30
0.0
 10
185.7664619361203
 20
-59.46180369351697
 30
0.0
 10
185.7709837107947
 20
-59.56029447785207
 30
0.0
 10
185.7660946240717
 20
-59.65962656136523
 30
0.0
 10
185.775646392163
 20
-59.72265473426125
 30
0.0
 10
185.7605966384749
 20
-59.78594577479306
 30
0.0
 10
185.8255364386758
 20
-59.77043516034821
 30
0.0
 10
185.8922451329046
 20
-59.7805920128128
 30
0.0
 10
186.0047640400376
 20
-59.77569788879728
 30
0.0
 10
186.1196440378503
 20
-59.77867384246309
 30
0.0
 10
186.2326076929296
 20
-59.77336924794101
 30
0.0
 10
186.2982472527226
 20
-59.78451282507002
 30
0.0
 10
186.3622481620602
 20
-59.76814056659236
 30
0.0
 10
186.3509347818738
 20
-59.81796899073818
 30
0.0
 10
186.3581544801058
 20
-59.86141873766971
 30
0.0
 10
186.3509347540819
 20
-59.90486843391649
 30
0.0
 10
186.3622482105542
 20
-59.95469693782216
 30
0.0
 10
186.2982468528521
 20
-59.93832422887728
 30
0.0
 10
186.2326126170008
 20
-59.94947317317506
 30
0.0
 10
186.119617924688
 20
-59.94413731772238
 30
0.0
 10
186.0048661478192
 20
-59.94724243315272
 30
0.0
 10
185.8919388616411
 20
-59.94193694296503
 30
0.0
 10
185.8261425833133
 20
-59.95301288959499
 30
0.0
 10
185.7622302904907
 20
-59.93670991131474
 30
0.0
 10
185.7742220094675
 20
-59.99135064583351
 30
0.0
 10
185.7668309542555
 20
-60.04704293931252
 30
0.0
 10
185.7698889771532
 20
-60.13908899838523
 30
0.0
 10
185.7699627715232
 20
-60.23379479105994
 30
0.0
 10
185.7666518507909
 20
-60.32605806076829
 30
0.0
 10
185.7745710919452
 20
-60.38122820242954
 30
0.0
 10
185.7621281541166
 20
-60.43500419878961
 30
0.0
 10
185.8195321481181
 20
-60.42104820116311
 30
0.0
 10
185.8800913069932
 20
-60.43047131094869
 30
0.0
 10
185.985488578463
 20
-60.42615703050392
 30
0.0
 10
186.1010499000172
 20
-60.42723084367063
 30
0.0
 10
186.2165893807345
 20
-60.42832623078102
 30
0.0
 10
186.3220386060391
 20
-60.42396063208463
 30
0.0
 10
186.3824885401353
 20
-60.43349162948425
 30
0.0
 10
186.4399042668659
 20
-60.41941299372714
 30
0.0
 10
186.4283978806258
 20
-60.46851435713413
 30
0.0
 10
186.4343771711299
 20
-60.50993930960446
 30
0.0
 10
186.432651598035
 20
-60.55906911012397
 30
0.0
 10
186.432770505252
 20
-60.58704160531485
 30
0.0
 10
186.4328076621382
 20
-60.59578300783144
 30
0.0
 11
185.2663909891158
 21
-59.77714453581388
 31
0.0
 11
185.290564105783
 21
-59.77714453581387
 31
0.0
 11
185.3509968974511
 21
-59.77714453581389
 31
0.0
 11
185.4295595266197
 21
-59.77714453581388
 31
0.0
 11
185.5081221557883
 21
-59.77714453581389
 31
0.0
 11
185.5685549474563
 21
-59.77714453581387
 31
0.0
 11
185.5927280641236
 21
-59.77714453581388
 31
0.0
 11
185.5927280641236
 21
-59.75016976359029
 31
0.0
 11
185.5927280641235
 21
-59.68060324575055
 31
0.0
 11
185.5927280641236
 21
-59.58548168054109
 31
0.0
 11
185.5927280641236
 21
-59.48184176620838
 31
0.0
 11
185.5927280641236
 21
-59.38672020099891
 31
0.0
 11
185.5927280641236
 21
-59.31715368315915
 31
0.0
 11
185.5927280641236
 21
-59.29017891093557
 31
0.0
 11
185.6166612534441
 21
-59.29185375871294
 31
0.0
 11
185.6737327049007
 21
-59.29584762648971
 31
0.0
 11
185.7418502437359
 21
-59.30061450093297
 31
0.0
 11
185.7989216951925
 21
-59.30460836870976
 31
0.0
 11
185.822854884513
 21
-59.30628321648712
 31
0.0
 11
185.8081177660778
 21
-59.33002295606454
 31
0.0
 11
185.7692845179525
 21
-59.34374821647782
 31
0.0
 11
185.7692845179525
 21
-59.37585164753975
 31
0.0
 11
185.7692845179525
 21
-59.45611022519458
 31
0.0
 11
185.7692845179525
 21
-59.56044637614585
 31
0.0
 11
185.7692845179525
 21
-59.66478252709713
 31
0.0
 11
185.7692845179525
 21
-59.74504110475195
 31
0.0
 11
185.7692845179525
 21
-59.77714453581388
 31
0.0
 11
185.8017412040373
 21
-59.77714453581387
 31
0.0
 11
185.8854452892035
 21
-59.77714453581388
 31
0.0
 11
185.9998978138183
 21
-59.77714453581389
 31
0.0
 11
186.1245998182495
 21
-59.77714453581388
 31
0.0
 11
186.2390523428644
 21
-59.77714453581387
 31
0.0
 11
186.3227564280305
 21
-59.77714453581387
 31
0.0
 11
186.3552131141153
 21
-59.77714453581388
 31
0.0
 11
186.3552131141153
 21
-59.80348022374132
 31
0.0
 11
186.3552131141153
 21
-59.86141873718169
 31
0.0
 11
186.3552131141153
 21
-59.91935725062206
 31
0.0
 11
186.3552131141153
 21
-59.94569293854949
 31
0.0
 11
186.3227564280305
 21
-59.94569293854948
 31
0.0
 11
186.2390523428644
 21
-59.94569293854948
 31
0.0
 11
186.1245998182495
 21
-59.94569293854949
 31
0.0
 11
185.9998978138183
 21
-59.94569293854949
 31
0.0
 11
185.8854452892034
 21
-59.94569293854948
 31
0.0
 11
185.8017412040373
 21
-59.94569293854948
 31
0.0
 11
185.7692845179525
 21
-59.94569293854949
 31
0.0
 11
185.7692845179525
 21
-59.97236725827071
 31
0.0
 11
185.7692845179525
 21
-60.04115892492018
 31
0.0
 11
185.7692845179525
 21
-60.13522099972661
 31
0.0
 11
185.7692845179525
 21
-60.23770654391866
 31
0.0
 11
185.7692845179525
 21
-60.33176861872508
 31
0.0
 11
185.7692845179525
 21
-60.40056028537455
 31
0.0
 11
185.7692845179525
 21
-60.42723460509578
 31
0.0
 11
185.7977952780543
 21
-60.42723460509577
 31
0.0
 11
185.8729600092315
 21
-60.42723460509578
 31
0.0
 11
185.9792273877925
 21
-60.42723460509578
 31
0.0
 11
186.1010460900454
 21
-60.42723460509578
 31
0.0
 11
186.2228647922982
 21
-60.42723460509578
 31
0.0
 11
186.3291321708592
 21
-60.42723460509578
 31
0.0
 11
186.4042969020365
 21
-60.42723460509578
 31
0.0
 11
186.4328076621382
 21
-60.42723460509578
 31
0.0
 11
186.4328076621382
 21
-60.45357029302322
 31
0.0
 11
186.4328076621382
 21
-60.51150880646361
 31
0.0
 11
186.4328076621382
 21
-60.569447319904
 31
0.0
 11
186.4328076621382
 21
-60.59578300783144
 31
0.0
  0
SPLINE
  5
A2
102
{ACAD_REACTORS
330
BF
102
}
330
48
100
AcDbEntity
  8
_U_30EC_U_30A4_U_30E4_U_30FC_1
  6
Continuous
 62
     2
100
AcDbSpline
210
0.0
220
0.0
230
1.0
 70
     8
 71
     3
 72
    62
 73
    58
 74
    56
 42
0.000000001
 43
0.0000000001
 44
0.00000001
 40
0.0
 40
0.0
 40
0.0
 40
0.0
 40
0.0598250028308769
 40
0.2024846486897331
 40
0.3727558389220746
 40
0.515415484793607
 40
0.5752404975785339
 40
0.9332326775487276
 40
1.290451762839474
 40
1.60207725314585
 40
1.699931634112066
 40
1.799359756425003
 40
2.270120149657085
 40
2.804661928461516
 40
2.882342287383234
 40
3.076543185719092
 40
3.32900435483555
 40
3.581465524568382
 40
3.775666424543661
 40
3.853346784558286
 40
3.89912067959506
 40
3.98412934179203
 40
4.029903236817378
 40
4.10579749605954
 40
4.295533144152489
 40
4.542189486611735
 40
4.788845828875689
 40
4.978581476410073
 40
5.05447573524432
 40
5.621734664339362
 40
6.130867242037368
 40
6.225249780948597
 40
6.318913039727282
 40
6.663579954558892
 40
7.047498900224742
 40
7.435230791575683
 40
7.498943906668095
 40
7.650875181210089
 40
7.832212509001599
 40
7.984143783696985
 40
8.047856898903142
 40
8.091554632732645
 40
8.172707566964299
 40
8.216405300768024
 40
8.289021782160937
 40
8.462184160757253
 40
8.66886183800542
 40
8.842024215263983
 40
8.914640695475178
 40
8.989881580861386
 40
9.155411528827294
 40
9.320941477744093
 40
9.396182352487346
 40
9.454709011143835
 40
9.583467660170855
 40
9.712226309013078
 40
9.77075295798956
 40
9.77075295798956
 40
9.77075295798956
 40
9.77075295798956
 10
186.4328076621382
 20
-60.59578300783144
 30
0.0
 10
186.4128553101172
 20
-60.59577713410425
 30
0.0
 10
186.3453242646015
 20
-60.59575725172935
 30
0.0
 10
186.2216817091337
 20
-60.5960922645877
 30
0.0
 10
186.0669385079605
 20
-60.59450915228582
 30
0.0
 10
185.950355441203
 20
-60.59872510118602
 30
0.0
 10
185.7357147563788
 20
-60.58343383647463
 30
0.0
 10
186.1325153336778
 20
-60.94359867692906
 30
0.0
 10
186.1751860998816
 20
-61.16048085581927
 30
0.0
 10
186.5995367076159
 20
-61.34233526467643
 30
0.0
 10
186.4246026425623
 20
-61.44573392411025
 30
0.0
 10
186.3000728854632
 20
-61.65727065766365
 30
0.0
 10
186.0472482165492
 20
-61.1875250797754
 30
0.0
 10
185.7603807823174
 20
-60.54047071994572
 30
0.0
 10
185.771254085621
 20
-60.847759168244
 30
0.0
 10
185.7689097707508
 20
-61.01269972007315
 30
0.0
 10
185.766730105596
 20
-61.24678918267402
 30
0.0
 10
185.7786979325896
 20
-61.49060516557311
 30
0.0
 10
185.749418967018
 20
-61.63702792118112
 30
0.0
 10
185.7920727555019
 20
-61.78445098804555
 30
0.0
 10
185.7046018935188
 20
-61.76872791672876
 30
0.0
 10
185.6574732536293
 20
-61.76864285435642
 30
0.0
 10
185.5705178137262
 20
-61.78449163496185
 30
0.0
 10
185.6119678951271
 20
-61.64030817556333
 30
0.0
 10
185.5836079933835
 20
-61.49703536280639
 30
0.0
 10
185.5952178704848
 20
-61.25883641613831
 30
0.0
 10
185.5930380577821
 20
-61.03041353738748
 30
0.0
 10
185.5909316057543
 20
-60.868528596031
 30
0.0
 10
185.6014240367872
 20
-60.55404879645341
 30
0.0
 10
185.2935168182441
 20
-61.24329118106653
 30
0.0
 10
184.9861463197005
 20
-61.72081838736051
 30
0.0
 10
184.8657571995823
 20
-61.49817476341664
 30
0.0
 10
184.6880812840271
 20
-61.38547554023534
 30
0.0
 10
185.1659531292443
 20
-61.2101044551363
 30
0.0
 10
185.2160163986757
 20
-60.97466659727064
 30
0.0
 10
185.6390004551266
 20
-60.58235599634484
 30
0.0
 10
185.4082959203089
 20
-60.59903281950031
 30
0.0
 10
185.285589078889
 20
-60.59289070030323
 30
0.0
 10
185.1131688025211
 20
-60.6024576627952
 30
0.0
 10
185.0019429623997
 20
-60.5810977048943
 30
0.0
 10
184.8831984556996
 20
-60.61422323621674
 30
0.0
 10
184.8989374636234
 20
-60.53354688372211
 30
0.0
 10
184.8984755863311
 20
-60.48913174688241
 30
0.0
 10
184.883408681948
 20
-60.40591507200561
 30
0.0
 10
185.0178585864992
 20
-60.44495936995212
 30
0.0
 10
185.1425960475296
 20
-60.41818859650673
 30
0.0
 10
185.3434960166828
 20
-60.43494639935042
 30
0.0
 10
185.4727745878903
 20
-60.4135436306609
 30
0.0
 10
185.6134624857843
 20
-60.44689810125675
 30
0.0
 10
185.5787132382165
 20
-60.30906713194027
 30
0.0
 10
185.6028390596261
 20
-60.18595331629612
 30
0.0
 10
185.5773291111941
 20
-60.06534533308761
 30
0.0
 10
185.6139456076234
 20
-59.93018723837599
 30
0.0
 10
185.5017621957319
 20
-59.95464043197205
 30
0.0
 10
185.4086561386686
 20
-59.94250839137069
 30
0.0
 10
185.2997752509368
 20
-59.94600958909101
 30
0.0
 10
185.2375902570513
 20
-59.94576833027491
 30
0.0
 10
185.2181574486795
 20
-59.94569293854949
 30
0.0
 11
186.4328076621382
 21
-60.59578300783144
 31
0.0
 11
186.3729826493531
 21
-60.59578300783144
 31
0.0
 11
186.2303230034809
 21
-60.59578300783144
 31
0.0
 11
186.0600518132463
 21
-60.59578300783144
 31
0.0
 11
185.917392167374
 21
-60.59578300783144
 31
0.0
 11
185.8575671545889
 21
-60.59578300783144
 31
0.0
 11
186.0486165684391
 21
-60.89853461012203
 31
0.0
 11
186.2747477715179
 21
-61.17506698402409
 31
0.0
 11
186.505073110292
 21
-61.38497335485636
 31
0.0
 11
186.4327801260253
 21
-61.45092185310377
 31
0.0
 11
186.3685569332192
 21
-61.52682529926534
 31
0.0
 11
186.0539023145107
 21
-61.17667130629731
 31
0.0
 11
185.7692845179525
 21
-60.72420293835492
 31
0.0
 11
185.7692845179525
 21
-60.80188329841781
 31
0.0
 11
185.7692845179525
 21
-60.99608419857502
 31
0.0
 11
185.7692845179525
 21
-61.24854536877938
 31
0.0
 11
185.7692845179525
 21
-61.50100653898375
 31
0.0
 11
185.7692845179525
 21
-61.69520743914094
 31
0.0
 11
185.7692845179525
 21
-61.77288779920383
 31
0.0
 11
185.7235106225154
 21
-61.77288779920383
 31
0.0
 11
185.6385019595607
 21
-61.77288779920384
 31
0.0
 11
185.5927280641236
 21
-61.77288779920383
 31
0.0
 11
185.5927280641236
 21
-61.69699353996354
 31
0.0
 11
185.5927280641236
 21
-61.50725789186284
 31
0.0
 11
185.5927280641236
 21
-61.26060154933191
 31
0.0
 11
185.5927280641236
 21
-61.01394520680098
 31
0.0
 11
185.5927280641236
 21
-60.82420955870028
 31
0.0
 11
185.5927280641236
 21
-60.74831529945999
 31
0.0
 11
185.2793831328815
 21
-61.22117642781402
 31
0.0
 11
184.9158533591697
 21
-61.57763411869712
 31
0.0
 11
184.8580132391176
 21
-61.50305138434072
 31
0.0
 11
184.790105723489
 21
-61.43854266039853
 31
0.0
 11
185.0556926827868
 21
-61.21886369183204
 31
0.0
 11
185.303996990161
 21
-60.92605193007397
 31
0.0
 11
185.5071187734809
 21
-60.59578300783144
 31
0.0
 11
185.443405658227
 21
-60.59578300783145
 31
0.0
 11
185.2914743833908
 21
-60.59578300783145
 31
0.0
 11
185.1101370553604
 21
-60.59578300783144
 31
0.0
 11
184.9582057805242
 21
-60.59578300783144
 31
0.0
 11
184.8944926652703
 21
-60.59578300783144
 31
0.0
 11
184.8944926652703
 21
-60.55208527378886
 31
0.0
 11
184.8944926652703
 21
-60.47093233913836
 31
0.0
 11
184.8944926652703
 21
-60.42723460509578
 31
0.0
 11
184.9671091467511
 21
-60.42723460509578
 31
0.0
 11
185.1402715256667
 21
-60.42723460509578
 31
0.0
 11
185.3469492037273
 21
-60.42723460509578
 31
0.0
 11
185.5201115826429
 21
-60.42723460509578
 31
0.0
 11
185.5927280641236
 21
-60.42723460509578
 31
0.0
 11
185.5927280641236
 21
-60.35199371969792
 31
0.0
 11
185.5927280641236
 21
-60.18646377182264
 31
0.0
 11
185.5927280641236
 21
-60.02093382394735
 31
0.0
 11
185.5927280641236
 21
-59.94569293854949
 31
0.0
 11
185.5342014054605
 21
-59.9456929385495
 31
0.0
 11
185.4054427564016
 21
-59.94569293854949
 31
0.0
 11
185.2766841073426
 21
-59.9456929385495
 31
0.0
 11
185.2181574486795
 21
-59.94569293854949
 31
0.0
  0
SPLINE
  5
A3
102
{ACAD_REACTORS
330
C0
102
}
330
48
100
AcDbEntity
  8
_U_30EC_U_30A4_U_30E4_U_30FC_1
  6
Continuous
 62
     2
100
AcDbSpline
210
0.0
220
0.0
230
1.0
 70
    11
 71
     3
 72
   124
 73
   120
 74
   118
 42
0.000000001
 43
0.0000000001
 44
0.00000001
 40
0.0
 40
0.0
 40
0.0
 40
0.0
 40
0.0278187229624795
 40
0.101159016238427
 40
0.2048470170589955
 40
0.3237088716558961
 40
0.4425707262522
 40
0.5462587270699547
 40
0.6195990203311798
 40
0.647417752257866
 40
0.6750060736115278
 40
0.7357003855242759
 40
0.7963946998054545
 40
0.8239830245571802
 40
0.8540933811102895
 40
0.9373396629409292
 40
1.063094687343239
 40
1.220731268638105
 40
1.39962222091478
 40
1.589140358637736
 40
1.778658496423845
 40
1.957549448940512
 40
2.115186030873134
 40
2.240941056914438
 40
2.324187341760507
 40
2.354297700109357
 40
2.381886024671865
 40
2.44258033871045
 40
2.503274652750478
 40
2.530862977314578
 40
2.560983949278502
 40
2.640393784452905
 40
2.7526628617591
 40
2.881361560118088
 40
3.010060258455135
 40
3.122329335705282
 40
3.201739170817896
 40
3.231860142753257
 40
3.264298024030311
 40
3.352343701778175
 40
3.482095226868702
 40
3.639650650172954
 40
3.811108022565421
 40
3.982565394927918
 40
4.140120818152504
 40
4.26987234314121
 40
4.357918020802274
 40
4.390355902043901
 40
4.423256253992471
 40
4.508104530072964
 40
4.624121560636731
 40
4.750528176031488
 40
4.866545206601935
 40
4.951393482691892
 40
4.984293834645293
 40
5.011450833242209
 40
5.071196230152005
 40
5.130941627057084
 40
5.158098625648756
 40
5.19099897760139
 40
5.275847253689244
 40
5.391864284256735
 40
5.518270899648223
 40
5.634287930209234
 40
5.719136206287907
 40
5.752036558235823
 40
5.782130946282842
 40
5.86278390622902
 40
5.979550131774887
 40
6.117984316640297
 40
6.263641154587838
 40
6.402075339414034
 40
6.518841564907825
 40
6.599494524815413
 40
6.629588912848647
 40
6.654403028226224
 40
6.713575149487991
 40
6.784199939329337
 40
6.843372060493411
 40
6.868186175802657
 40
6.896246243201722
 40
6.939586233758142
 40
6.967846564564773
 40
7.043584251089712
 40
7.153234334451568
 40
7.283231855734321
 40
7.420011856035352
 40
7.550009376579716
 40
7.659659458835108
 40
7.735397144417107
 40
7.763657474851279
 40
7.796409728010936
 40
7.88087606509621
 40
7.996370852465596
 40
8.122208446418462
 40
8.237703224799084
 40
8.322169562010778
 40
8.354921815205792
 40
8.38207881330758
 40
8.441824209206885
 40
8.501569605240043
 40
8.52872660348563
 40
8.561478856695679
 40
8.64594519387773
 40
8.76143998086527
 40
8.887277580764383
 40
9.002772362000904
 40
9.087238696661124
 40
9.119990949235579
 40
9.152428830613275
 40
9.240474508638492
 40
9.370226034149447
 40
9.527781457984332
 40
9.699238830981308
 40
9.87069620397849
 40
10.02825162781392
 40
10.15800315332553
 40
10.24604883135108
 40
10.27848670378511
 40
10.27848670378511
 40
10.27848670378511
 40
10.27848670378511
 10
194.6628032493932
 20
-61.52148071593337
 30
0.0
 10
194.6720759667072
 20
-61.5214809046782
 30
0.0
 10
194.7057949466409
 20
-61.52148158102381
 30
0.0
 10
194.7740911742014
 20
-61.52146781735789
 30
0.0
 10
194.8726346641129
 20
-61.52155364759551
 30
0.0
 10
194.986827139436
 20
-61.52116833366843
 30
0.0
 10
195.0992099346619
 20
-61.52257753081549
 30
0.0
 10
195.2020581529667
 20
-61.5183947155685
 30
0.0
 10
195.2613044804398
 20
-61.52735499727113
 30
0.0
 10
195.3177470866581
 20
-61.51394154453032
 30
0.0
 10
195.3052460516504
 20
-61.56471390365736
 30
0.0
 10
195.3135754565252
 20
-61.60969268040026
 30
0.0
 10
195.3054375770669
 20
-61.65501835988607
 30
0.0
 10
195.3176734144006
 20
-61.70626656570629
 30
0.0
 10
195.2553978419882
 20
-61.6911063361382
 30
0.0
 10
195.1866717956417
 20
-61.7019883826835
 30
0.0
 10
195.0588961679141
 20
-61.69647284231124
 30
0.0
 10
194.9069189441191
 20
-61.69857737725394
 30
0.0
 10
194.7308900902072
 20
-61.69787586390623
 30
0.0
 10
194.5450636863835
 20
-61.69813351447801
 30
0.0
 10
194.3592372366725
 20
-61.69787583834493
 30
0.0
 10
194.1832085071717
 20
-61.69857747131363
 30
0.0
 10
194.0312309083744
 20
-61.69647256749106
 30
0.0
 10
193.9034562594103
 20
-61.70198908211453
 30
0.0
 10
193.8347282766129
 20
-61.69110511853154
 30
0.0
 10
193.7724553972432
 20
-61.70626802294884
 30
0.0
 10
193.7846821219567
 20
-61.65501078173925
 30
0.0
 10
193.7766209392146
 20
-61.60976115706669
 30
0.0
 10
193.7846880739442
 20
-61.56452231023772
 30
0.0
 10
193.7724443416632
 20
-61.51324412069138
 30
0.0
 10
193.8331222050247
 20
-61.52809011615958
 30
0.0
 10
193.8969015675285
 20
-61.51802140808362
 30
0.0
 10
194.0083519283052
 20
-61.52263944767093
 30
0.0
 10
194.1303738373373
 20
-61.52145260073627
 30
0.0
 10
194.2525743067372
 20
-61.52042725078459
 30
0.0
 10
194.3635999216941
 20
-61.52466113355695
 30
0.0
 10
194.4282722343508
 20
-61.51540004457357
 30
0.0
 10
194.489736774005
 20
-61.52954165929412
 30
0.0
 10
194.4736270530885
 20
-61.46323061094577
 30
0.0
 10
194.4849185256907
 20
-61.39110798857118
 30
0.0
 10
194.4793605752109
 20
-61.26044828090812
 30
0.0
 10
194.4814239991239
 20
-61.10951265270853
 30
0.0
 10
194.4806372056844
 20
-60.9422271587121
 30
0.0
 10
194.4814050145176
 20
-60.77497478646792
 30
0.0
 10
194.4794243715177
 20
-60.62395299709182
 30
0.0
 10
194.4847511086169
 20
-60.493525194261
 30
0.0
 10
194.4739306317973
 20
-60.42093146373197
 30
0.0
 10
194.4896531359424
 20
-60.35408119542299
 30
0.0
 10
194.4238913062039
 20
-60.36978076488268
 30
0.0
 10
194.3562572760313
 20
-60.35949345895104
 30
0.0
 10
194.2422090223358
 20
-60.3644480213197
 30
0.0
 10
194.1257447604452
 20
-60.36144460948623
 30
0.0
 10
194.0112759051025
 20
-60.36678285835703
 30
0.0
 10
193.9446529587362
 20
-60.35557320904274
 30
0.0
 10
193.8796974644734
 20
-60.37209456314084
 30
0.0
 10
193.8914194688258
 20
-60.32084868502037
 30
0.0
 10
193.8839035118669
 20
-60.27608255195004
 30
0.0
 10
193.8914194808385
 20
-60.23131644081133
 30
0.0
 10
193.8796974434895
 20
-60.18007052849354
 30
0.0
 10
193.9446531268749
 20
-60.19659207212275
 30
0.0
 10
194.011273826937
 20
-60.18538017605151
 30
0.0
 10
194.1257557787612
 20
-60.19073152268428
 30
0.0
 10
194.2421659366511
 20
-60.18767400207977
 30
0.0
 10
194.3563865104189
 20
-60.19280089968385
 30
0.0
 10
194.4236355368775
 20
-60.18212855623494
 30
0.0
 10
194.4889530870987
 20
-60.19816506310017
 30
0.0
 10
194.4747596378101
 20
-60.13608903229041
 30
0.0
 10
194.4842264392544
 20
-60.06971827350331
 30
0.0
 10
194.4796473933633
 20
-59.95318616237128
 30
0.0
 10
194.4813901485496
 20
-59.82131903956716
 30
0.0
 10
194.4803756424941
 20
-59.67942628828821
 30
0.0
 10
194.482339627392
 20
-59.54789538276513
 30
0.0
 10
194.47708734834
 20
-59.43034011696095
 30
0.0
 10
194.4879613693022
 20
-59.36610799977508
 30
0.0
 10
194.4725741571402
 20
-59.30449786434048
 30
0.0
 10
194.5213796467349
 20
-59.31856181596984
 30
0.0
 10
194.5660200494275
 20
-59.31603846903777
 30
0.0
 10
194.6344848876291
 20
-59.32045791577387
 30
0.0
 10
194.6765311098652
 20
-59.32945563435058
 30
0.0
 10
194.7293749688324
 20
-59.32146874112583
 30
0.0
 10
194.7013239931563
 20
-59.36444671367421
 30
0.0
 10
194.6555347178143
 20
-59.35299036935255
 30
0.0
 10
194.6675744002813
 20
-59.41385068973956
 30
0.0
 10
194.660229100019
 20
-59.47789289510317
 30
0.0
 10
194.663740075571
 20
-59.58649220115181
 30
0.0
 10
194.6626011689722
 20
-59.7106426983434
 30
0.0
 10
194.6625379709811
 20
-59.84368869149216
 30
0.0
 10
194.6639077896416
 20
-59.96761207729536
 30
0.0
 10
194.6597843730862
 20
-60.07690251129755
 30
0.0
 10
194.6683968033113
 20
-60.13950008884921
 30
0.0
 10
194.6552962383951
 20
-60.1981845568273
 30
0.0
 10
194.7200089257747
 20
-60.18196475168188
 30
0.0
 10
194.7866610882704
 20
-60.19288328595784
 30
0.0
 10
194.9004984470651
 20
-60.18764848805334
 30
0.0
 10
195.0163464051646
 20
-60.19073041462183
 30
0.0
 10
195.1303129192829
 20
-60.18540329166582
 30
0.0
 10
195.1966545947648
 20
-60.19654380812549
 30
0.0
 10
195.2613393455028
 20
-60.18011609385914
 30
0.0
 10
195.2496025702271
 20
-60.23132663769044
 30
0.0
 10
195.257137299259
 20
-60.27608254858093
 30
0.0
 10
195.2496025921807
 20
-60.32083849969067
 30
0.0
 10
195.2613393070285
 20
-60.37204898108055
 30
0.0
 10
195.1966549004801
 20
-60.35562161184876
 30
0.0
 10
195.1303091360374
 20
-60.36675804531827
 30
0.0
 10
195.016366441656
 20
-60.36145473085975
 30
0.0
 10
194.9004200552604
 20
-60.36443824385552
 30
0.0
 10
194.7868961811671
 20
-60.35951696710704
 30
0.0
 10
194.7195436248353
 20
-60.36973501465572
 30
0.0
 10
194.6540490052044
 20
-60.35412592840282
 30
0.0
 10
194.6697918548766
 20
-60.42094737151683
 30
0.0
 10
194.6589480927762
 20
-60.49351531163219
 30
0.0
 10
194.664278655934
 20
-60.62396341364679
 30
0.0
 10
194.6623341081404
 20
-60.77494030793869
 30
0.0
 10
194.6629338612763
 20
-60.94236345044937
 30
0.0
 10
194.6627711489153
 20
-61.10902412860722
 30
0.0
 10
194.6628100417684
 20
-61.26198446057458
 30
0.0
 10
194.6628021342648
 20
-61.3870940999339
 30
0.0
 10
194.6628033312293
 20
-61.47050697987673
 30
0.0
 10
194.6628032645757
 20
-61.51066810697119
 30
0.0
 10
194.6628032493932
 20
-61.52148071593337
 30
0.0
 11
194.6628032493932
 21
-61.52148071593337
 31
0.0
 11
194.6906219813224
 21
-61.52148071593337
 31
0.0
 11
194.7639622745902
 21
-61.52148071593337
 31
0.0
 11
194.8676502754171
 21
-61.52148071593336
 31
0.0
 11
194.9865121300235
 21
-61.52148071593337
 31
0.0
 11
195.10537398463
 21
-61.52148071593337
 31
0.0
 11
195.2090619854569
 21
-61.52148071593338
 31
0.0
 11
195.2824022787247
 21
-61.52148071593337
 31
0.0
 11
195.3102210106539
 21
-61.52148071593337
 31
0.0
 11
195.3102210106539
 21
-61.54906904057925
 31
0.0
 11
195.3102210106539
 21
-61.60976335480017
 31
0.0
 11
195.3102210106539
 21
-61.6704576690211
 31
0.0
 11
195.3102210106539
 21
-61.69804599366697
 31
0.0
 11
195.2801106523043
 21
-61.69804599366697
 31
0.0
 11
195.1968643674553
 21
-61.69804599366697
 31
0.0
 11
195.071109341407
 21
-61.69804599366697
 31
0.0
 11
194.913472759459
 21
-61.69804599366697
 31
0.0
 11
194.7345818069113
 21
-61.69804599366698
 31
0.0
 11
194.5450636690638
 21
-61.69804599366697
 31
0.0
 11
194.3555455312162
 21
-61.69804599366697
 31
0.0
 11
194.1766545786685
 21
-61.69804599366698
 31
0.0
 11
194.0190179967205
 21
-61.69804599366697
 31
0.0
 11
193.8932629706721
 21
-61.69804599366697
 31
0.0
 11
193.8100166858232
 21
-61.69804599366697
 31
0.0
 11
193.7799063274736
 21
-61.69804599366697
 31
0.0
 11
193.7799063274736
 21
-61.6704576690211
 31
0.0
 11
193.7799063274736
 21
-61.60976335480017
 31
0.0
 11
193.7799063274736
 21
-61.54906904057924
 31
0.0
 11
193.7799063274736
 21
-61.52148071593337
 31
0.0
 11
193.8100272994496
 21
-61.52148071593337
 31
0.0
 11
193.8894371346589
 21
-61.52148071593337
 31
0.0
 11
194.0017062120239
 21
-61.52148071593336
 31
0.0
 11
194.1304049104667
 21
-61.52148071593337
 31
0.0
 11
194.2591036089094
 21
-61.52148071593337
 31
0.0
 11
194.3713726862744
 21
-61.52148071593338
 31
0.0
 11
194.4507825214837
 21
-61.52148071593337
 31
0.0
 11
194.4809034934597
 21
-61.52148071593337
 31
0.0
 11
194.4809034934597
 21
-61.48904283455259
 31
0.0
 11
194.4809034934597
 21
-61.40099715651905
 31
0.0
 11
194.4809034934597
 21
-61.27124563099592
 31
0.0
 11
194.4809034934597
 21
-61.11369020714642
 31
0.0
 11
194.4809034934597
 21
-60.94223283413371
 31
0.0
 11
194.4809034934597
 21
-60.77077546112102
 31
0.0
 11
194.4809034934597
 21
-60.6132200372715
 31
0.0
 11
194.4809034934597
 21
-60.48346851174838
 31
0.0
 11
194.4809034934597
 21
-60.39542283371483
 31
0.0
 11
194.4809034934597
 21
-60.36298495233405
 31
0.0
 11
194.4480031415077
 21
-60.36298495233405
 31
0.0
 11
194.3631548654211
 21
-60.36298495233406
 31
0.0
 11
194.2471378348537
 21
-60.36298495233405
 31
0.0
 11
194.1207312194593
 21
-60.36298495233406
 31
0.0
 11
194.0047141888919
 21
-60.36298495233406
 31
0.0
 11
193.9198659128052
 21
-60.36298495233405
 31
0.0
 11
193.8869655608533
 21
-60.36298495233405
 31
0.0
 11
193.8869655608533
 21
-60.33582795364293
 31
0.0
 11
193.8869655608533
 21
-60.27608255652244
 31
0.0
 11
193.8869655608533
 21
-60.21633715940196
 31
0.0
 11
193.8869655608533
 21
-60.18918016071083
 31
0.0
 11
193.9198659128052
 21
-60.18918016071083
 31
0.0
 11
194.0047141888919
 21
-60.18918016071083
 31
0.0
 11
194.1207312194593
 21
-60.18918016071083
 31
0.0
 11
194.2471378348537
 21
-60.18918016071083
 31
0.0
 11
194.3631548654211
 21
-60.18918016071083
 31
0.0
 11
194.4480031415077
 21
-60.18918016071083
 31
0.0
 11
194.4809034934597
 21
-60.18918016071083
 31
0.0
 11
194.4809034934597
 21
-60.15908577247724
 31
0.0
 11
194.4809034934597
 21
-60.0784328120112
 31
0.0
 11
194.4809034934597
 21
-59.96166658566484
 31
0.0
 11
194.4809034934597
 21
-59.8232323997903
 31
0.0
 11
194.4809034934597
 21
-59.6775755607397
 31
0.0
 11
194.4809034934597
 21
-59.53914137486517
 31
0.0
 11
194.4809034934597
 21
-59.42237514851881
 31
0.0
 11
194.4809034934597
 21
-59.34172218805277
 31
0.0
 11
194.4809034934597
 21
-59.31162779981918
 31
0.0
 11
194.5056610218167
 21
-59.31330264759654
 31
0.0
 11
194.5646982048218
 21
-59.31729651537329
 31
0.0
 11
194.6351619393763
 21
-59.32206338981653
 31
0.0
 11
194.6941991223814
 21
-59.32605725759329
 31
0.0
 11
194.7189566507384
 21
-59.32773210537064
 31
0.0
 11
194.7039272153579
 21
-59.35142774772584
 31
0.0
 11
194.6628032493932
 21
-59.36510891091689
 31
0.0
 11
194.6628032493932
 21
-59.39336924184261
 31
0.0
 11
194.6628032493932
 21
-59.46910692872353
 31
0.0
 11
194.6628032493932
 21
-59.57875701271531
 31
0.0
 11
194.6628032493932
 21
-59.70875453497362
 31
0.0
 11
194.6628032493932
 21
-59.84553453665409
 31
0.0
 11
194.6628032493932
 21
-59.97553205891241
 31
0.0
 11
194.6628032493932
 21
-60.08518214290419
 31
0.0
 11
194.6628032493932
 21
-60.16091982978512
 31
0.0
 11
194.6628032493932
 21
-60.18918016071083
 31
0.0
 11
194.6955555025664
 21
-60.18918016071083
 31
0.0
 11
194.7800218396971
 21
-60.18918016071083
 31
0.0
 11
194.8955166272025
 21
-60.18918016071083
 31
0.0
 11
195.0213542314994
 21
-60.18918016071083
 31
0.0
 11
195.1368490190047
 21
-60.18918016071083
 31
0.0
 11
195.2213153561355
 21
-60.18918016071083
 31
0.0
 11
195.2540676093087
 21
-60.18918016071083
 31
0.0
 11
195.2540676093087
 21
-60.21633715940196
 31
0.0
 11
195.2540676093087
 21
-60.27608255652244
 31
0.0
 11
195.2540676093087
 21
-60.33582795364292
 31
0.0
 11
195.2540676093087
 21
-60.36298495233405
 31
0.0
 11
195.2213153561355
 21
-60.36298495233405
 31
0.0
 11
195.1368490190047
 21
-60.36298495233405
 31
0.0
 11
195.0213542314994
 21
-60.36298495233405
 31
0.0
 11
194.8955166272025
 21
-60.36298495233406
 31
0.0
 11
194.7800218396971
 21
-60.36298495233405
 31
0.0
 11
194.6955555025663
 21
-60.36298495233405
 31
0.0
 11
194.6628032493932
 21
-60.36298495233405
 31
0.0
 11
194.6628032493932
 21
-60.39542283371483
 31
0.0
 11
194.6628032493932
 21
-60.48346851174838
 31
0.0
 11
194.6628032493932
 21
-60.61322003727151
 31
0.0
 11
194.6628032493932
 21
-60.77077546112102
 31
0.0
 11
194.6628032493932
 21
-60.94223283413371
 31
0.0
 11
194.6628032493932
 21
-61.1136902071464
 31
0.0
 11
194.6628032493932
 21
-61.27124563099592
 31
0.0
 11
194.6628032493932
 21
-61.40099715651904
 31
0.0
 11
194.6628032493932
 21
-61.48904283455258
 31
0.0
 11
194.6628032493932
 21
-61.52148071593337
 31
0.0
  0
SPLINE
  5
A4
102
{ACAD_REACTORS
330
C1
102
}
330
48
100
AcDbEntity
  8
_U_30EC_U_30A4_U_30E4_U_30FC_1
  6
Continuous
 62
     2
100
AcDbSpline
210
0.0
220
0.0
230
1.0
 70
    11
 71
     3
 72
   131
 73
   127
 74
   125
 42
0.000000001
 43
0.0000000001
 44
0.00000001
 40
0.0
 40
0.0
 40
0.0
 40
0.0
 40
0.0195577029826372
 40
0.0426490537461447
 40
0.2863607575856728
 40
0.5344948436189122
 40
0.7842238845573049
 40
0.8737315789467214
 40
0.9803832810312478
 40
1.092842274517024
 40
1.199761146656756
 40
1.289788768186477
 40
1.351573580786168
 40
1.370727117561416
 40
1.416400936017828
 40
1.470914848355991
 40
1.516588666791802
 40
1.535742203552897
 40
1.634216592293191
 40
1.760283341174985
 40
1.897966686682096
 40
2.031216387368905
 40
2.049689751137895
 40
2.101115601646837
 40
2.179502577739958
 40
2.278859318314067
 40
2.393194462258724
 40
2.516516648383847
 40
2.64283451540597
 40
2.766156701983474
 40
2.880491846754578
 40
2.979848588358626
 40
3.0582355654438
 40
3.109661416668954
 40
3.128134780704135
 40
3.14678374238648
 40
3.191254343315284
 40
3.244332157315971
 40
3.288802758225875
 40
3.307451719895118
 40
3.327717853844722
 40
3.383747753580093
 40
3.468388665924477
 40
3.574487837698795
 40
3.694892515728893
 40
3.82244994685203
 40
3.950007377920419
 40
4.070412055800515
 40
4.176511227368065
 40
4.26115213950151
 40
4.317182039076696
 40
4.337448172964619
 40
4.620011002696248
 40
4.885096638397476
 40
4.945373043518303
 40
5.014107710488605
 40
5.070481727651991
 40
5.319246955636488
 40
5.584812164506005
 40
5.859000912056838
 40
6.133746937542004
 40
6.401732212968815
 40
6.420736683995434
 40
6.472845717451056
 40
6.550702743894012
 40
6.646951193874193
 40
6.754234497930517
 40
6.865196086587295
 40
6.972479390357725
 40
7.068727839771858
 40
7.146584865450896
 40
7.198693898189125
 40
7.217698368905266
 40
7.234950401630739
 40
7.276089864269784
 40
7.32519180351589
 40
7.366331266090276
 40
7.383583298769635
 40
7.40277916349204
 40
7.453386443254443
 40
7.524934666445445
 40
7.606953361405756
 40
7.688972056428907
 40
7.760520279784158
 40
7.8111275597344
 40
7.830323424546021
 40
7.847844055299651
 40
7.894799345666696
 40
7.962779392744386
 40
8.043374293560438
 40
8.12817414514935
 40
8.208769044817144
 40
8.276749090376844
 40
8.323704379669413
 40
8.341225010056148
 40
8.358497614800296
 40
8.40167912668653
 40
8.457815092185559
 40
8.513951057727992
 40
8.557132569707917
 40
8.574405174504989
 40
8.602340668616362
 40
8.643455660539932
 40
8.663225271966606
 40
8.715345156564243
 40
8.789031889628578
 40
8.873502045520315
 40
8.957972194323933
 40
9.031658925567836
 40
9.083778811234527
 40
9.103548423002987
 40
9.119550083123553
 40
9.160817522379855
 40
9.217244429110192
 40
9.278724491644677
 40
9.335151398295462
 40
9.376418837357757
 40
9.392420497300545
 40
9.401196302734764
 40
9.417494229384241
 40
9.42627002774954
 40
9.440875075477548
 40
9.475702496998748
 40
9.517270709865938
 40
9.552098131994105
 40
9.566703169884288
 40
9.566703169884288
 40
9.566703169884288
 40
9.566703169884288
 10
193.8976459078028
 20
-59.86542717468066
 30
0.0
 10
193.894055002292
 20
-59.87104898276932
 30
0.0
 10
193.8862244053174
 20
-59.88330834559982
 30
0.0
 10
193.7936173904095
 20
-59.91956672938122
 30
0.0
 10
193.7693827162796
 20
-60.1341014476638
 30
0.0
 10
193.6664914775487
 20
-60.31361304469385
 30
0.0
 10
193.4026697293854
 20
-60.49943015180947
 30
0.0
 10
193.5651676498729
 20
-60.57599252413011
 30
0.0
 10
193.6413430690387
 20
-60.63701895783652
 30
0.0
 10
193.7298376002307
 20
-60.70042784434331
 30
0.0
 10
193.8196135162659
 20
-60.76032954759536
 30
0.0
 10
193.8690022565594
 20
-60.81456434129881
 30
0.0
 10
193.9551913086931
 20
-60.8427234843726
 30
0.0
 10
193.9217465603777
 20
-60.87845279326279
 30
0.0
 10
193.9020876095859
 20
-60.91008200987188
 30
0.0
 10
193.872609314743
 20
-60.95082716183021
 30
0.0
 10
193.849519437558
 20
-60.98053925489452
 30
0.0
 10
193.8186410897904
 20
-61.03347166310594
 30
0.0
 10
193.7535398295288
 20
-60.90818254040196
 30
0.0
 10
193.6602205051964
 20
-60.85344688745158
 30
0.0
 10
193.5756841214687
 20
-60.79642165039755
 30
0.0
 10
193.452870305529
 20
-60.6388330155157
 30
0.0
 10
193.4570655776851
 20
-60.71522782212256
 30
0.0
 10
193.4557683582227
 20
-60.76197308817799
 30
0.0
 10
193.4564331377625
 20
-60.83973803166491
 30
0.0
 10
193.4561754916506
 20
-60.93656520654672
 30
0.0
 10
193.456263616947
 20
-61.04908309900283
 30
0.0
 10
193.4562282231829
 20
-61.17034503033395
 30
0.0
 10
193.4562716687828
 20
-61.29471691120131
 30
0.0
 10
193.4561404871954
 20
-61.41590905347758
 30
0.0
 10
193.4565682491594
 20
-61.52867440059349
 30
0.0
 10
193.455288313186
 20
-61.62475675210349
 30
0.0
 10
193.4585964780592
 20
-61.70444762510393
 30
0.0
 10
193.4521402669635
 20
-61.74743413190309
 30
0.0
 10
193.4612413635105
 20
-61.78603156607051
 30
0.0
 10
193.4254115269483
 20
-61.77747701255022
 30
0.0
 10
193.3921428744801
 20
-61.78216068993648
 30
0.0
 10
193.341076750559
 20
-61.78207290219311
 30
0.0
 10
193.3075928902361
 20
-61.77764158695272
 30
0.0
 10
193.2713790338303
 20
-61.78597795136584
 30
0.0
 10
193.2815987498213
 20
-61.74413311799805
 30
0.0
 10
193.2742692817322
 20
-61.6978002815892
 30
0.0
 10
193.2779838065652
 20
-61.61183757873079
 30
0.0
 10
193.2765685484445
 20
-61.50953446274244
 30
0.0
 10
193.2770310484187
 20
-61.39105365047583
 30
0.0
 10
193.276897861578
 20
-61.26600905825738
 30
0.0
 10
193.2769220839593
 20
-61.14082760872043
 30
0.0
 10
193.27695598551
 20
-61.02271943600037
 30
0.0
 10
193.276826522268
 20
-60.91929840269576
 30
0.0
 10
193.277171247863
 20
-60.83626552825427
 30
0.0
 10
193.2764903208239
 20
-60.78415220457853
 30
0.0
 10
193.2800791530172
 20
-60.65645681157729
 30
0.0
 10
193.0632376315984
 20
-60.95509872159471
 30
0.0
 10
192.88275598515
 20
-61.18294607467577
 30
0.0
 10
192.829652722516
 20
-61.0418514568928
 30
0.0
 10
192.8006634062698
 20
-60.99232821418152
 30
0.0
 10
192.7002852992368
 20
-60.88916809188989
 30
0.0
 10
193.021133265281
 20
-60.80863553955312
 30
0.0
 10
193.1496101934979
 20
-60.62492305942666
 30
0.0
 10
193.3712659254908
 20
-60.41626593207332
 30
0.0
 10
193.4576429823617
 20
-60.24219377750752
 30
0.0
 10
193.7355599158625
 20
-59.96591537636579
 30
0.0
 10
193.6152452768832
 20
-59.97024029427982
 30
0.0
 10
193.5669402280897
 20
-59.96943732776541
 30
0.0
 10
193.4908582384454
 20
-59.96984006832512
 30
0.0
 10
193.3973214939299
 20
-59.96968313367485
 30
0.0
 10
193.2923799718105
 20
-59.96976086402872
 30
0.0
 10
193.1840092668266
 20
-59.96963124600541
 30
0.0
 10
193.0787659165446
 20
-59.97004195488403
 30
0.0
 10
192.9862442748962
 20
-59.96876515307504
 30
0.0
 10
192.9074335730256
 20
-59.97217822444244
 30
0.0
 10
192.8645879494929
 20
-59.96535238942776
 30
0.0
 10
192.8255704516064
 20
-59.97493524777972
 30
0.0
 10
192.8332570201413
 20
-59.94137809413552
 30
0.0
 10
192.829166933386
 20
-59.91035038656861
 30
0.0
 10
192.8291736298364
 20
-59.86322059708196
 30
0.0
 10
192.833244465446
 20
-59.83217647332316
 30
0.0
 10
192.8255700504132
 20
-59.79856727343193
 30
0.0
 10
192.8641024335044
 20
-59.80810178558227
 30
0.0
 10
192.9047432944028
 20
-59.80161153481022
 30
0.0
 10
192.9757676780012
 20
-59.80458438328843
 30
0.0
 10
193.0535523079183
 20
-59.80383827579935
 30
0.0
 10
193.1313497176024
 20
-59.80310774934573
 30
0.0
 10
193.2023437019456
 20
-59.80604353464933
 30
0.0
 10
193.2430484721369
 20
-59.79963120206144
 30
0.0
 10
193.2816058419458
 20
-59.80908064803091
 30
0.0
 10
193.2733547684477
 20
-59.77293896820312
 30
0.0
 10
193.2788551598907
 20
-59.73428751365866
 30
0.0
 10
193.2761959135711
 20
-59.66645060417257
 30
0.0
 10
193.2772020401082
 20
-59.58966947440354
 30
0.0
 10
193.2766382947867
 20
-59.50709195396337
 30
0.0
 10
193.2776919456142
 20
-59.43041259749218
 30
0.0
 10
193.2748880792679
 20
-59.36226598202393
 30
0.0
 10
193.2806907650852
 20
-59.3242618916975
 30
0.0
 10
193.2721859480708
 20
-59.28800140901448
 30
0.0
 10
193.3061815162673
 20
-59.29802865207242
 30
0.0
 10
193.3400780612648
 20
-59.29485322165386
 30
0.0
 10
193.3932873989895
 20
-59.30049623338485
 30
0.0
 10
193.4466973504032
 20
-59.30123814542669
 30
0.0
 10
193.480211957904
 20
-59.30739365496115
 30
0.0
 10
193.5194291112587
 20
-59.30212559205497
 30
0.0
 10
193.4926468628042
 20
-59.34305208185608
 30
0.0
 10
193.4514315931272
 20
-59.33187384440983
 30
0.0
 10
193.4588846470422
 20
-59.37691532786971
 30
0.0
 10
193.4548432881733
 20
-59.4214631095095
 30
0.0
 10
193.4567918979188
 20
-59.49335016357389
 30
0.0
 10
193.4558569779307
 20
-59.57389958390326
 30
0.0
 10
193.4571312119579
 20
-59.653845935741
 30
0.0
 10
193.4538248723412
 20
-59.72716751895913
 30
0.0
 10
193.4608311109509
 20
-59.76869945976527
 30
0.0
 10
193.4507645309674
 20
-59.80806170410983
 30
0.0
 10
193.483601973347
 20
-59.80090525548114
 30
0.0
 10
193.5170782226029
 20
-59.8053134584115
 30
0.0
 10
193.5721258405568
 20
-59.80340645631198
 30
0.0
 10
193.6295707524863
 20
-59.80373222571806
 30
0.0
 10
193.6829231177858
 20
-59.80452280246012
 30
0.0
 10
193.7204745826187
 20
-59.8024462986102
 30
0.0
 10
193.7429377452786
 20
-59.80536250811986
 30
0.0
 10
193.7557883003279
 20
-59.79986036335039
 30
0.0
 10
193.7664460615437
 20
-59.79757470781304
 30
0.0
 10
193.7792840579693
 20
-59.79063616391043
 30
0.0
 10
193.7952195962619
 20
-59.80705542665422
 30
0.0
 10
193.8216828850441
 20
-59.81849466659647
 30
0.0
 10
193.8533010183307
 20
-59.83913901143904
 30
0.0
 10
193.87934608217
 20
-59.85441719350797
 30
0.0
 10
193.8934722653522
 20
-59.8629161265591
 30
0.0
 10
193.8976459078028
 20
-59.86542717468066
 30
0.0
 11
193.8976459078028
 21
-59.86542717468066
 31
0.0
 11
193.8856194931792
 21
-59.88085017814906
 31
0.0
 11
193.8655166725114
 21
-59.89221182745177
 31
0.0
 11
193.7585191285362
 21
-60.11117968747936
 31
0.0
 11
193.6283244863873
 21
-60.32241387466932
 31
0.0
 11
193.480274529562
 21
-60.52352529951614
 31
0.0
 11
193.5541163183284
 21
-60.57411204043714
 31
0.0
 11
193.6411869241349
 21
-60.63570177325354
 31
0.0
 11
193.7324208679954
 21
-60.70145428384668
 31
0.0
 11
193.8187526709236
 21
-60.76452935809789
 31
0.0
 11
193.8911168539336
 21
-60.8180867818885
 31
0.0
 11
193.9404479380392
 21
-60.85528634109988
 31
0.0
 11
193.9293145631762
 21
-60.87087178109599
 31
0.0
 11
193.9027657461952
 21
-60.90803706108669
 31
0.0
 11
193.8710784485081
 21
-60.9523956210756
 31
0.0
 11
193.8445296315271
 21
-60.98956090106631
 31
0.0
 11
193.8333962566641
 21
-61.00514634106241
 31
0.0
 11
193.7613218292496
 21
-60.93804580288477
 31
0.0
 11
193.665906191493
 21
-60.85565234804426
 31
0.0
 11
193.5599469081718
 21
-60.76773571612178
 31
0.0
 11
193.4562415440639
 21
-60.68406564669826
 31
0.0
 11
193.4562415440639
 21
-60.70253901078229
 31
0.0
 11
193.4562415440639
 21
-60.75396486215138
 31
0.0
 11
193.4562415440639
 21
-60.83235183948094
 31
0.0
 11
193.4562415440639
 21
-60.93170858144644
 31
0.0
 11
193.4562415440639
 21
-61.04604372672333
 31
0.0
 11
193.4562415440639
 21
-61.16936591398704
 31
0.0
 11
193.4562415440639
 21
-61.29568378191303
 31
0.0
 11
193.4562415440639
 21
-61.41900596917674
 31
0.0
 11
193.4562415440639
 21
-61.53334111445362
 31
0.0
 11
193.4562415440639
 21
-61.63269785641913
 31
0.0
 11
193.4562415440639
 21
-61.71108483374869
 31
0.0
 11
193.4562415440639
 21
-61.76251068511777
 31
0.0
 11
193.4562415440639
 21
-61.78098404920181
 31
0.0
 11
193.4375925823174
 21
-61.78098404920181
 31
0.0
 11
193.3931219812299
 21
-61.78098404920181
 31
0.0
 11
193.3400441670285
 21
-61.78098404920182
 31
0.0
 11
193.2955735659408
 21
-61.78098404920181
 31
0.0
 11
193.2769246041944
 21
-61.78098404920181
 31
0.0
 11
193.2769246041944
 21
-61.76071791518875
 31
0.0
 11
193.2769246041944
 21
-61.70468801527026
 31
0.0
 11
193.2769246041944
 21
-61.62004710262746
 31
0.0
 11
193.2769246041944
 21
-61.5139479304414
 31
0.0
 11
193.2769246041944
 21
-61.39354325189318
 31
0.0
 11
193.2769246041944
 21
-61.26598582016388
 31
0.0
 11
193.2769246041944
 21
-61.13842838843458
 31
0.0
 11
193.2769246041944
 21
-61.01802370988635
 31
0.0
 11
193.2769246041944
 21
-60.9119245377003
 31
0.0
 11
193.2769246041944
 21
-60.82728362505749
 31
0.0
 11
193.2769246041944
 21
-60.77125372513902
 31
0.0
 11
193.2769246041944
 21
-60.75098759112595
 31
0.0
 11
193.068947777903
 21
-60.94226590705037
 31
0.0
 11
192.8569691287974
 21
-61.10143703548283
 31
0.0
 11
192.8301833944032
 21
-61.04743917026998
 31
0.0
 11
192.7944970344573
 21
-60.98869448407068
 31
0.0
 11
192.7605902423673
 21
-60.94365717441119
 31
0.0
 11
192.9636492671868
 21
-60.79995201778043
 31
0.0
 11
193.1624736887809
 21
-60.62390165449108
 31
0.0
 11
193.3483246373727
 21
-60.42231074454146
 31
0.0
 11
193.5124632431852
 21
-60.20198394792987
 31
0.0
 11
193.6461506364413
 21
-59.9697259246546
 31
0.0
 11
193.627146165403
 21
-59.9697259246546
 31
0.0
 11
193.5750371319111
 21
-59.9697259246546
 31
0.0
 11
193.4971801053996
 21
-59.96972592465459
 31
0.0
 11
193.4009316553027
 21
-59.9697259246546
 31
0.0
 11
193.2936483510546
 21
-59.9697259246546
 31
0.0
 11
193.1826867620894
 21
-59.9697259246546
 31
0.0
 11
193.0754034578413
 21
-59.9697259246546
 31
0.0
 11
192.9791550077444
 21
-59.9697259246546
 31
0.0
 11
192.9012979812329
 21
-59.9697259246546
 31
0.0
 11
192.8491889477409
 21
-59.9697259246546
 31
0.0
 11
192.8301844767027
 21
-59.9697259246546
 31
0.0
 11
192.8301844767027
 21
-59.95247389188113
 31
0.0
 11
192.8301844767027
 21
-59.91133442911364
 31
0.0
 11
192.8301844767027
 21
-59.86223248968147
 31
0.0
 11
192.8301844767027
 21
-59.82109302691397
 31
0.0
 11
192.8301844767027
 21
-59.8038409941405
 31
0.0
 11
192.8493803415559
 21
-59.80384099414051
 31
0.0
 11
192.8999876216233
 21
-59.8038409941405
 31
0.0
 11
192.9715358451669
 21
-59.8038409941405
 31
0.0
 11
193.0535545404485
 21
-59.8038409941405
 31
0.0
 11
193.1355732357302
 21
-59.8038409941405
 31
0.0
 11
193.2071214592738
 21
-59.8038409941405
 31
0.0
 11
193.2577287393412
 21
-59.8038409941405
 31
0.0
 11
193.2769246041944
 21
-59.8038409941405
 31
0.0
 11
193.2769246041944
 21
-59.78632036323877
 31
0.0
 11
193.2769246041944
 21
-59.73936507242213
 31
0.0
 11
193.2769246041944
 21
-59.67138502452342
 31
0.0
 11
193.2769246041944
 21
-59.59079012237545
 31
0.0
 11
193.2769246041944
 21
-59.50599026881108
 31
0.0
 11
193.2769246041944
 21
-59.42539536666312
 31
0.0
 11
193.2769246041944
 21
-59.35741531876441
 31
0.0
 11
193.2769246041944
 21
-59.31046002794777
 31
0.0
 11
193.2769246041944
 21
-59.29293939704604
 31
0.0
 11
193.294168904166
 21
-59.29392782811574
 31
0.0
 11
193.337279654095
 21
-59.29639890579002
 31
0.0
 11
193.3933236290026
 21
-59.29961130676658
 31
0.0
 11
193.4493676039102
 21
-59.30282370774314
 31
0.0
 11
193.4924783538392
 21
-59.30529478541741
 31
0.0
 11
193.5097226538108
 21
-59.30628321648712
 31
0.0
 11
193.49499796044
 21
-59.33002295606454
 31
0.0
 11
193.4562415440639
 21
-59.34374821647782
 31
0.0
 11
193.4562415440639
 21
-59.36351782801802
 31
0.0
 11
193.4562415440639
 21
-59.41563771298762
 31
0.0
 11
193.4562415440639
 21
-59.48932444691015
 31
0.0
 11
193.4562415440639
 21
-59.57379460530916
 31
0.0
 11
193.4562415440639
 21
-59.65826476370816
 31
0.0
 11
193.4562415440639
 21
-59.73195149763071
 31
0.0
 11
193.4562415440639
 21
-59.78407138260031
 31
0.0
 11
193.4562415440639
 21
-59.8038409941405
 31
0.0
 11
193.4722432042485
 21
-59.8038409941405
 31
0.0
 11
193.5135106436719
 21
-59.80384099414049
 31
0.0
 11
193.5699375506386
 21
-59.8038409941405
 31
0.0
 11
193.631417613453
 21
-59.8038409941405
 31
0.0
 11
193.6878445204197
 21
-59.8038409941405
 31
0.0
 11
193.7291119598431
 21
-59.8038409941405
 31
0.0
 11
193.7451136200277
 21
-59.8038409941405
 31
0.0
 11
193.7534411352473
 21
-59.80107201523174
 31
0.0
 11
193.7689065206552
 21
-59.79592962582976
 31
0.0
 11
193.7772340358749
 21
-59.793160646921
 31
0.0
 11
193.7897568705554
 21
-59.80067636580801
 31
0.0
 11
193.8196190147935
 21
-59.8185984646924
 31
0.0
 11
193.8552609288842
 21
-59.83998935690926
 31
0.0
 11
193.8851230731223
 21
-59.85791145579365
 31
0.0
 11
193.8976459078028
 21
-59.86542717468066
 31
0.0
  0
SPLINE
  5
A5
102
{ACAD_REACTORS
330
C2
102
}
330
48
100
AcDbEntity
  8
_U_30EC_U_30A4_U_30E4_U_30FC_1
  6
Continuous
 62
     2
100
AcDbSpline
210
0.0
220
0.0
230
1.0
 70
    11
 71
     3
 72
    91
 73
    87
 74
    85
 42
0.000000001
 43
0.0000000001
 44
0.00000001
 40
0.0
 40
0.0
 40
0.0
 40
0.0
 40
0.0267532254356701
 40
0.085610338646412
 40
0.1444674521996852
 40
0.1712206856618728
 40
0.2039416005642749
 40
0.2955601971652413
 40
0.4362601844616847
 40
0.6162252844507463
 40
0.8256392189704911
 40
1.05468570984446
 40
1.293548478893553
 40
1.532411247938296
 40
1.761457738799589
 40
1.970871673298529
 40
2.150836773256725
 40
2.291536760495586
 40
2.383155356836693
 40
2.415876284101313
 40
2.442629517487956
 40
2.501486630949093
 40
2.560343744424256
 40
2.587096977826531
 40
2.61706819444093
 40
2.699247336756099
 40
2.822032643466412
 40
2.973822353257941
 40
3.143014704823384
 40
3.318007936879963
 40
3.487200288186767
 40
3.638989997548248
 40
3.761775303794775
 40
3.843954445753082
 40
3.873925662229778
 40
3.890812773500482
 40
3.90769988477166
 40
3.937960767857252
 40
3.98098361814231
 40
4.199085915228465
 40
4.439444339237251
 40
4.677588241260895
 40
5.050698317837781
 40
5.448212454763167
 40
5.855291218044692
 40
6.138575438885384
 40
6.41743450758422
 40
6.444551104393875
 40
6.504207617363181
 40
6.563864130314506
 40
6.590980727104077
 40
6.848609460381492
 40
7.109611990668489
 40
7.35291090444615
 40
7.557830220705497
 40
7.587518925913417
 40
7.652834077375886
 40
7.718149228845822
 40
7.747837934062149
 40
7.854880190301078
 40
7.976511257403594
 40
8.369487896592394
 40
8.757514959223688
 40
9.12607241933115
 40
9.460639380392212
 40
9.746695593035925
 40
9.77756994311869
 40
9.807050320931815
 40
9.830377336128947
 40
9.886003295436023
 40
9.952395569429939
 40
10.00802152870631
 40
10.03134854388223
 40
10.21356951009593
 40
10.42203479292876
 40
10.66154556731066
 40
10.91693789564306
 40
11.15832906556568
 40
11.18982674596622
 40
11.27286608520407
 40
11.39026653033354
 40
11.52484752840888
 40
11.65942852648447
 40
11.77682897161488
 40
11.85986831085685
 40
11.8913659823043
 40
11.8913659823043
 40
11.8913659823043
 40
11.8913659823043
 10
189.9834089937745
 20
-60.82858988277323
 30
0.0
 10
189.9834442694837
 20
-60.81970741667109
 30
0.0
 10
189.9835571640345
 20
-60.79128351931747
 30
0.0
 10
189.9819189498037
 20
-60.7414894980929
 30
0.0
 10
189.987595522246
 20
-60.69901024500938
 30
0.0
 10
189.9763133661255
 20
-60.64828434122247
 30
0.0
 10
190.0438501908581
 20
-60.66545688238982
 30
0.0
 10
190.1194234140249
 20
-60.652683618131
 30
0.0
 10
190.263456198555
 20
-60.65928859521712
 30
0.0
 10
190.4375624114976
 20
-60.65670126772629
 30
0.0
 10
190.6445804540552
 20
-60.65757997023537
 30
0.0
 10
190.8700893101926
 20
-60.65730381059066
 30
0.0
 10
191.1057367222954
 20
-60.65740249320433
 30
0.0
 10
191.3413845460897
 20
-60.65730404566325
 30
0.0
 10
191.5668922510175
 20
-60.65757910788302
 30
0.0
 10
191.7739139562354
 20
-60.6567040270836
 30
0.0
 10
191.9480093844837
 20
-60.65928066300647
 30
0.0
 10
192.0920697001534
 20
-60.65270298529882
 30
0.0
 10
192.1675896844841
 20
-60.66542345573487
 30
0.0
 10
192.2351980966579
 20
-60.64832188787408
 30
0.0
 10
192.2237045070224
 20
-60.69883803176152
 30
0.0
 10
192.2311309511283
 20
-60.74305336752594
 30
0.0
 10
192.2235043857535
 20
-60.78690622475484
 30
0.0
 10
192.2352694388973
 20
-60.83680214499766
 30
0.0
 10
192.1736993421532
 20
-60.82165361266583
 30
0.0
 10
192.106299666822
 20
-60.83247923628423
 30
0.0
 10
191.981920898577
 20
-60.82706557352857
 30
0.0
 10
191.8360633166119
 20
-60.82909383588309
 30
0.0
 10
191.6699781369634
 20
-60.8284281140071
 30
0.0
 10
191.4994617551273
 20
-60.82868945457852
 30
0.0
 10
191.3325995784937
 20
-60.82837035588003
 30
0.0
 10
191.1893551756654
 20
-60.82923286388331
 30
0.0
 10
191.0579518799382
 20
-60.82695288496109
 30
0.0
 10
191.0046064064206
 20
-60.83150884604891
 30
0.0
 10
190.9291393386461
 20
-60.82558673986219
 30
0.0
 10
190.9575280708782
 20
-60.83464419635742
 30
0.0
 10
190.9839857339091
 20
-60.83832676710166
 30
0.0
 10
190.9439727837251
 20
-60.86904317010823
 30
0.0
 10
190.8519868621417
 20
-60.85890997804454
 30
0.0
 10
190.8245601136618
 20
-61.10526086731311
 30
0.0
 10
190.7284998896783
 20
-61.26059030214721
 30
0.0
 10
190.4723482894022
 20
-61.59033171047525
 30
0.0
 10
191.0433742662312
 20
-61.45128566768645
 30
0.0
 10
191.2979861250065
 20
-61.4526680900573
 30
0.0
 10
191.9085851978166
 20
-61.53768019737009
 30
0.0
 10
191.6146903507633
 20
-61.2387317142089
 30
0.0
 10
191.2939509216065
 20
-61.09227732077315
 30
0.0
 10
191.4119748289982
 20
-61.03533048160807
 30
0.0
 10
191.453092139581
 20
-61.01138489105743
 30
0.0
 10
191.496301732396
 20
-60.98958830167867
 30
0.0
 10
191.5980779023997
 20
-60.92629867725176
 30
0.0
 10
191.7135072554796
 20
-61.18411437570322
 30
0.0
 10
191.9135796571826
 20
-61.31942547865408
 30
0.0
 10
192.0075282316777
 20
-61.49765793840211
 30
0.0
 10
192.2365034675941
 20
-61.65560767952044
 30
0.0
 10
192.1402236776257
 20
-61.70642616402795
 30
0.0
 10
192.0974164693327
 20
-61.73677296456037
 30
0.0
 10
192.0524448458327
 20
-61.76092458697637
 30
0.0
 10
191.9927925854762
 20
-61.81006442231522
 30
0.0
 10
191.9595935990873
 20
-61.67561113305484
 30
0.0
 10
191.8388218280344
 20
-61.51964323692513
 30
0.0
 10
191.4777180935527
 20
-61.64988660919536
 30
0.0
 10
191.119126688509
 20
-61.63333894569613
 30
0.0
 10
190.7377125379628
 20
-61.64227359627228
 30
0.0
 10
190.4509660212441
 20
-61.70675917306691
 30
0.0
 10
190.1398260529262
 20
-61.59327920786262
 30
0.0
 10
190.1074942748337
 20
-61.70436329051329
 30
0.0
 10
190.0702383182867
 20
-61.72362275129081
 30
0.0
 10
190.0671942562302
 20
-61.67683804891798
 30
0.0
 10
190.0486097790156
 20
-61.6375173505996
 30
0.0
 10
190.0318641546326
 20
-61.57792605500858
 30
0.0
 10
190.0189935845302
 20
-61.53356619107812
 30
0.0
 10
189.9848532735978
 20
-61.44452257858886
 30
0.0
 10
190.2288919387303
 20
-61.51377546035327
 30
0.0
 10
190.424759941622
 20
-61.53528219921348
 30
0.0
 10
190.5201631310826
 20
-61.25332104500631
 30
0.0
 10
190.5751340699145
 20
-61.09195543557971
 30
0.0
 10
190.7965824286705
 20
-60.82167411389362
 30
0.0
 10
190.6655444310765
 20
-60.83010142125359
 30
0.0
 10
190.5916231485404
 20
-60.82779580482126
 30
0.0
 10
190.4783664805792
 20
-60.82887210657437
 30
0.0
 10
190.3500456737033
 20
-60.82850949902585
 30
0.0
 10
190.2210456959965
 20
-60.8286086451301
 30
0.0
 10
190.1094045875839
 20
-60.82858656266521
 30
0.0
 10
190.0320868899577
 20
-60.82859009789426
 30
0.0
 10
189.9939081461558
 20
-60.82858993134014
 30
0.0
 10
189.9834089937745
 20
-60.82858988277323
 30
0.0
 11
189.9834089937745
 21
-60.82858988277323
 31
0.0
 11
189.9834089937745
 21
-60.80183664927297
 31
0.0
 11
189.9834089937745
 21
-60.74297953557241
 31
0.0
 11
189.9834089937745
 21
-60.68412242187183
 31
0.0
 11
189.9834089937745
 21
-60.65736918837158
 31
0.0
 11
190.0161299210538
 21
-60.65736918837158
 31
0.0
 11
190.1077485174358
 21
-60.65736918837159
 31
0.0
 11
190.2484485047367
 21
-60.65736918837159
 31
0.0
 11
190.4284136047729
 21
-60.65736918837159
 31
0.0
 11
190.6378275393603
 21
-60.65736918837158
 31
0.0
 11
190.8668740303153
 21
-60.65736918837158
 31
0.0
 11
191.1057367994541
 21
-60.65736918837159
 31
0.0
 11
191.344599568593
 21
-60.65736918837158
 31
0.0
 11
191.573646059548
 21
-60.65736918837158
 31
0.0
 11
191.7830599941354
 21
-60.65736918837158
 31
0.0
 11
191.9630250941716
 21
-60.65736918837159
 31
0.0
 11
192.1037250814725
 21
-60.65736918837159
 31
0.0
 11
192.1953436778545
 21
-60.65736918837158
 31
0.0
 11
192.2280646051338
 21
-60.65736918837158
 31
0.0
 11
192.2280646051338
 21
-60.68412242187183
 31
0.0
 11
192.2280646051338
 21
-60.7429795355724
 31
0.0
 11
192.2280646051338
 21
-60.80183664927298
 31
0.0
 11
192.2280646051338
 21
-60.82858988277323
 31
0.0
 11
192.1980933884307
 21
-60.82858988277323
 31
0.0
 11
192.1159142458575
 21
-60.82858988277324
 31
0.0
 11
191.9931289387188
 21
-60.82858988277322
 31
0.0
 11
191.8413392283191
 21
-60.82858988277324
 31
0.0
 11
191.6721468759626
 21
-60.82858988277323
 31
0.0
 11
191.4971536429539
 21
-60.82858988277324
 31
0.0
 11
191.3279612905975
 21
-60.82858988277324
 31
0.0
 11
191.1761715801977
 21
-60.82858988277323
 31
0.0
 11
191.0533862730591
 21
-60.82858988277323
 31
0.0
 11
190.9712071304859
 21
-60.82858988277323
 31
0.0
 11
190.9412359137828
 21
-60.82858988277323
 31
0.0
 11
190.9572564342074
 21
-60.83393005638301
 31
0.0
 11
190.973276954632
 21
-60.83927022999279
 31
0.0
 11
190.951236061097
 21
-60.86000474387652
 31
0.0
 11
190.9091066784912
 21
-60.86872717442984
 31
0.0
 11
190.8171440470926
 21
-61.06649341666437
 31
0.0
 11
190.7085283451312
 21
-61.28091077000586
 31
0.0
 11
190.5933705754356
 21
-61.48936029927475
 31
0.0
 11
190.9663571604569
 21
-61.47976147726067
 31
0.0
 11
191.3636904965699
 21
-61.467773565741
 31
0.0
 11
191.7705547120694
 21
-61.45455877150562
 31
0.0
 11
191.5789324426527
 21
-61.24591827676613
 31
0.0
 11
191.3772956943247
 21
-61.05329168827262
 31
0.0
 11
191.4011152724298
 21
-61.0403326170953
 31
0.0
 11
191.453518344261
 21
-61.01182266050517
 31
0.0
 11
191.5059214160922
 21
-60.98331270391505
 31
0.0
 11
191.5297409941973
 21
-60.97035363273773
 31
0.0
 11
191.7193306488175
 21
-61.14479080608826
 31
0.0
 11
191.9006515869984
 21
-61.33252742605003
 31
0.0
 11
192.0583934160696
 21
-61.51776207986657
 31
0.0
 11
192.1772457433607
 21
-61.68469335478144
 31
0.0
 11
192.1521613147472
 21
-61.70057386693024
 31
0.0
 11
192.0969755717974
 21
-61.73551099365761
 31
0.0
 11
192.0417898288476
 21
-61.77044812038498
 31
0.0
 11
192.0167054002341
 21
-61.78632863253378
 31
0.0
 11
191.9581723081161
 21
-61.69670764297284
 31
0.0
 11
191.8856220008006
 21
-61.59908300758062
 31
0.0
 11
191.4931617853644
 21
-61.61922302035335
 31
0.0
 11
191.1055678999109
 21
-61.63755285979321
 31
0.0
 11
190.7373583905762
 21
-61.65356410256699
 31
0.0
 11
190.4030513034961
 21
-61.66674832534147
 31
0.0
 11
190.1171646848067
 21
-61.67659710478344
 31
0.0
 11
190.1018067251289
 21
-61.70338065512399
 31
0.0
 11
190.0743639220095
 21
-61.71415029921849
 31
0.0
 11
190.0674132121868
 21
-61.69188289533517
 31
0.0
 11
190.0508384426097
 21
-61.63878370145955
 31
0.0
 11
190.0310556531145
 21
-61.57540724425317
 31
0.0
 11
190.0144808835374
 21
-61.52230805037755
 31
0.0
 11
190.0075301737147
 21
-61.50004064649423
 31
0.0
 11
190.1897404788702
 21
-61.49806950066142
 31
0.0
 11
190.3981180778137
 21
-61.49202377149621
 31
0.0
 11
190.5109408056765
 21
-61.2807503867754
 31
0.0
 11
190.6214141651584
 21
-61.05048775823215
 31
0.0
 11
190.7164459195176
 21
-60.82858988277323
 31
0.0
 11
190.6849482391146
 21
-60.82858988277323
 31
0.0
 11
190.6019088998703
 21
-60.82858988277323
 31
0.0
 11
190.4845084547317
 21
-60.82858988277323
 31
0.0
 11
190.3499274566461
 21
-60.82858988277323
 31
0.0
 11
190.2153464585604
 21
-60.82858988277323
 31
0.0
 11
190.0979460134218
 21
-60.82858988277324
 31
0.0
 11
190.0149066741775
 21
-60.82858988277323
 31
0.0
 11
189.9834089937745
 21
-60.82858988277323
 31
0.0
  0
SPLINE
  5
A6
102
{ACAD_REACTORS
330
C3
102
}
330
48
100
AcDbEntity
  8
_U_30EC_U_30A4_U_30E4_U_30FC_1
  6
Continuous
 62
     2
100
AcDbSpline
210
0.0
220
0.0
230
1.0
 70
    11
 71
     3
 72
    35
 73
    31
 74
    29
 42
0.000000001
 43
0.0000000001
 44
0.00000001
 40
0.0
 40
0.0
 40
0.0
 40
0.0
 40
0.03352310366207
 40
0.0713218571712133
 40
0.4278866681486978
 40
0.8116865841963976
 40
1.19819023800003
 40
1.561379546812681
 40
1.659983174622042
 40
1.759315573807184
 40
2.132719617231072
 40
2.525233363588808
 40
2.910815397779714
 40
3.265244364303283
 40
3.592606723582016
 40
3.96438615460395
 40
4.359942131737787
 40
4.758154118639299
 40
4.843846538699902
 40
4.936650065543233
 40
5.25661660253731
 40
5.581707404416019
 40
5.899719158308137
 40
6.198363494280725
 40
6.466301046615778
 40
6.493895311537071
 40
6.559697020196892
 40
6.638234543442495
 40
6.704036252154247
 40
6.731630508423025
 40
6.731630508423025
 40
6.731630508423025
 40
6.731630508423025
 10
191.2542215498218
 20
-59.30094745259959
 30
0.0
 10
191.2482211027338
 20
-59.31077898436769
 30
0.0
 10
191.2354549028705
 20
-59.33169600399295
 30
0.0
 10
191.0755566936107
 20
-59.36431462446412
 30
0.0
 10
191.5128230771883
 20
-59.65351908642389
 30
0.0
 10
191.7151599757811
 20
-59.85517450620657
 30
0.0
 10
191.9625769197522
 20
-60.0980920137582
 30
0.0
 10
192.4637718554155
 20
-60.17510926221316
 30
0.0
 10
192.2931767128519
 20
-60.31681649804439
 30
0.0
 10
192.218950439275
 20
-60.51848222769988
 30
0.0
 10
191.8937637177736
 20
-60.1660230180437
 30
0.0
 10
191.6083946600214
 20
-60.00383376419529
 30
0.0
 10
191.3143809007207
 20
-59.7987145892605
 30
0.0
 10
191.0890657620683
 20
-59.31731100383639
 30
0.0
 10
190.8799289985071
 20
-59.7821554236987
 30
0.0
 10
190.6014078604384
 20
-59.99207636726184
 30
0.0
 10
190.3177588106758
 20
-60.16134132619104
 30
0.0
 10
189.988484445738
 20
-60.53416228071164
 30
0.0
 10
189.9083217247774
 20
-60.33850574520089
 30
0.0
 10
189.7565929839293
 20
-60.21067484788502
 30
0.0
 10
190.1889600756343
 20
-60.13104557213157
 30
0.0
 10
190.3768770259315
 20
-59.93531954063621
 30
0.0
 10
190.6274682350052
 20
-59.71925592062341
 30
0.0
 10
190.852055539971
 20
-59.55367596679034
 30
0.0
 10
190.9065980339261
 20
-59.27424624342265
 30
0.0
 10
191.030086595856
 20
-59.28820638571017
 30
0.0
 10
191.0866478274069
 20
-59.29037320111448
 30
0.0
 10
191.1568075914493
 20
-59.29511729097734
 30
0.0
 10
191.2139618951655
 20
-59.29849159628552
 30
0.0
 10
191.2450395250388
 20
-59.30038734267973
 30
0.0
 10
191.2542215498218
 20
-59.30094745259959
 30
0.0
 11
191.2542215498218
 21
-59.30094745259959
 31
0.0
 11
191.2331523999433
 21
-59.32702214009308
 31
0.0
 11
191.1980669488974
 21
-59.34108474425625
 31
0.0
 11
191.4318579698643
 21
-59.61030627847713
 31
0.0
 11
191.7220790887115
 21
-59.86145181009834
 31
0.0
 11
192.0419002413232
 21
-60.0784760136031
 31
0.0
 11
192.3644913635838
 21
-60.24533356347456
 31
0.0
 11
192.3019504797625
 21
-60.32156553394167
 31
0.0
 11
192.2494240748524
 21
-60.40587391065671
 31
0.0
 11
191.9242484025363
 21
-60.22232184147515
 31
0.0
 11
191.6043432697985
 21
-59.99488449235665
 31
0.0
 11
191.3160405088157
 21
-59.73884733855784
 31
0.0
 11
191.0856719517644
 21
-59.46949585533528
 31
0.0
 11
190.8801736649065
 21
-59.72432240258058
 31
0.0
 11
190.6094506271085
 21
-59.97913406701338
 31
0.0
 11
190.2925743352795
 21
-60.21589122624238
 31
0.0
 11
189.948616286329
 21
-60.41655425787627
 31
0.0
 11
189.9025060270887
 21
-60.34432521275539
 31
0.0
 11
189.8443175389897
 21
-60.27203002180127
 31
0.0
 11
190.1239245418564
 21
-60.1164713201735
 31
0.0
 11
190.3899209550703
 21
-59.9295757918869
 31
0.0
 11
190.6306202389295
 21
-59.72174092693886
 31
0.0
 11
190.8343358537323
 21
-59.50336421532678
 31
0.0
 11
190.9893812597767
 21
-59.28484314704807
 31
0.0
 11
191.0169246499414
 21
-59.28651799482543
 31
0.0
 11
191.0826050418726
 21
-59.29051186260221
 31
0.0
 11
191.160997767726
 21
-59.29527873704546
 31
0.0
 11
191.2266781596571
 21
-59.29927260482223
 31
0.0
 11
191.2542215498218
 21
-59.30094745259959
 31
0.0
  0
SPLINE
  5
A7
102
{ACAD_REACTORS
330
C4
102
}
330
48
100
AcDbEntity
  8
_U_30EC_U_30A4_U_30E4_U_30FC_1
  6
Continuous
 62
     2
100
AcDbSpline
210
0.0
220
0.0
230
1.0
 70
    11
 71
     3
 72
    15
 73
    11
 74
     9
 42
0.000000001
 43
0.0000000001
 44
0.00000001
 40
0.0
 40
0.0
 40
0.0
 40
0.0
 40
0.2785535985097094
 40
0.5215624748199088
 40
0.6076917376040492
 40
0.693821000174125
 40
0.940501914645515
 40
1.221691403489147
 40
1.300471877081049
 40
1.379252341684819
 40
1.379252341684819
 40
1.379252341684819
 40
1.379252341684819
 10
188.8487698560548
 20
-59.30628321648712
 30
0.0
 10
188.9102222723727
 20
-59.35866942386376
 30
0.0
 10
189.0252854903662
 20
-59.45675712180868
 30
0.0
 10
189.3203553426793
 20
-59.60668803081871
 30
0.0
 10
189.1831352561405
 20
-59.69215361464082
 30
0.0
 10
189.0847432773328
 20
-59.82472803777541
 30
0.0
 10
188.9936238520199
 20
-59.51941603197674
 30
0.0
 10
188.6443044410204
 20
-59.45590719513721
 30
0.0
 10
188.792546330612
 20
-59.35662079098216
 30
0.0
 10
188.8300286803785
 20
-59.3230624057671
 30
0.0
 10
188.8487698560548
 20
-59.30628321648712
 30
0.0
 11
188.8487698560548
 21
-59.30628321648712
 31
0.0
 11
189.0725427370145
 21
-59.47216814700121
 31
0.0
 11
189.2501251235932
 21
-59.63805307751531
 31
0.0
 11
189.1872513057528
 21
-59.69691845944503
 31
0.0
 11
189.1243774879124
 21
-59.75578384137475
 31
0.0
 11
188.9494740047274
 21
-59.58182911919603
 31
0.0
 11
188.7284461785689
 21
-59.40800668868391
 31
0.0
 11
188.7886080173118
 21
-59.35714495258551
 31
0.0
 11
188.8487698560548
 21
-59.30628321648712
 31
0.0
  0
SPLINE
  5
A8
102
{ACAD_REACTORS
330
C5
102
}
330
48
100
AcDbEntity
  8
_U_30EC_U_30A4_U_30E4_U_30FC_1
  6
Continuous
 62
     2
100
AcDbSpline
210
0.0
220
0.0
230
1.0
 70
    11
 71
     3
 72
    75
 73
    71
 74
    69
 42
0.000000001
 43
0.0000000001
 44
0.00000001
 40
0.0
 40
0.0
 40
0.0
 40
0.0
 40
0.0342546099129638
 40
0.1245622414432364
 40
0.25223854808975
 40
0.3985991922940573
 40
0.5449598364980732
 40
0.6726361431438763
 40
0.76294377467368
 40
0.7971983935297831
 40
1.101723623449674
 40
1.408591244036679
 40
1.433332471690384
 40
1.487763172450178
 40
1.542193873082017
 40
1.566935100592559
 40
1.923523931821898
 40
2.271755704953671
 40
2.590579755100941
 40
2.858943305581202
 40
2.889120339309217
 40
2.918305855191166
 40
2.941366645531291
 40
2.99635776097316
 40
3.061992318140741
 40
3.116983433626933
 40
3.140044223997621
 40
3.411273122936542
 40
3.732441619741232
 40
3.761068217532925
 40
3.837787499630489
 40
3.948858699126122
 40
4.080541049104513
 40
4.219093782625885
 40
4.350776132722432
 40
4.461847332405769
 40
4.538566614678496
 40
4.567193212544739
 40
4.594907573999025
 40
4.666381453557536
 40
4.764111044011175
 40
4.870592538125978
 40
4.968322128642429
 40
5.039796008287114
 40
5.067510369784573
 40
5.094263603185789
 40
5.153120716668427
 40
5.211977830150866
 40
5.238731063551876
 40
5.272290535139115
 40
5.363380529444976
 40
5.497618415781654
 40
5.660621563453896
 40
5.838007341749597
 40
6.01539311991092
 40
6.178396267038574
 40
6.312634151842525
 40
6.403724143059515
 40
6.43728361267261
 40
6.464036846261232
 40
6.522893960004852
 40
6.581751071484115
 40
6.608504301591063
 40
6.637253941281211
 40
6.711397748903062
 40
6.812778057283646
 40
6.923237199249451
 40
7.024617507624095
 40
7.098761315207748
 40
7.127510946007698
 40
7.127510946007698
 40
7.127510946007698
 40
7.127510946007698
 10
187.7224827320113
 20
-60.57709460505831
 30
0.0
 10
187.7224827749255
 20
-60.58851275570374
 30
0.0
 10
187.7224829410678
 20
-60.63003331136468
 30
0.0
 10
187.7224798011335
 20
-60.71411666975321
 30
0.0
 10
187.7224993209348
 20
-60.83554091656769
 30
0.0
 10
187.7224117117287
 20
-60.97578094931646
 30
0.0
 10
187.7227321164778
 20
-61.1155203218452
 30
0.0
 10
187.721781083929
 20
-61.23813550084167
 30
0.0
 10
187.7238183525515
 20
-61.31971514541049
 30
0.0
 10
187.7155638108296
 20
-61.47287321901403
 30
0.0
 10
188.023700287045
 20
-61.30998352924374
 30
0.0
 10
188.3156850103285
 20
-61.1407565029109
 30
0.0
 10
188.3214559378257
 20
-61.27585353197183
 30
0.0
 10
188.326167664944
 20
-61.31941367818649
 30
0.0
 10
188.3288740341468
 20
-61.36347339628548
 30
0.0
 10
188.3478750602505
 20
-61.51285998615962
 30
0.0
 10
187.9390147176853
 20
-61.44877416737829
 30
0.0
 10
187.659991527838
 20
-61.56262247568081
 30
0.0
 10
187.3824286516715
 20
-61.66194493167947
 30
0.0
 10
187.090604211395
 20
-61.61927901382745
 30
0.0
 10
187.0675349608206
 20
-61.72236909234553
 30
0.0
 10
187.0343679312882
 20
-61.74867497734626
 30
0.0
 10
187.0286858892287
 20
-61.70103279942794
 30
0.0
 10
187.0090419488593
 20
-61.66378252864023
 30
0.0
 10
186.9901294415172
 20
-61.60551201131534
 30
0.0
 10
186.9749054797256
 20
-61.56173387971288
 30
0.0
 10
186.9283451302484
 20
-61.44799167932782
 30
0.0
 10
187.2697102241999
 20
-61.47982287859047
 30
0.0
 10
187.5485854296935
 20
-61.51397153872611
 30
0.0
 10
187.5423957964456
 20
-61.36644612499443
 30
0.0
 10
187.5437140382322
 20
-61.29545438070261
 30
0.0
 10
187.5431036619497
 20
-61.18838821020434
 30
0.0
 10
187.5432076500274
 20
-61.06160059193096
 30
0.0
 10
187.5436192893604
 20
-60.92709345483043
 30
0.0
 10
187.5420112771518
 20
-60.80163039027909
 30
0.0
 10
187.5466107497475
 20
-60.69053342259978
 30
0.0
 10
187.5370391431759
 20
-60.62796702178405
 30
0.0
 10
187.551020671324
 20
-60.56963200684094
 30
0.0
 10
187.4953589316254
 20
-60.58268878396857
 30
0.0
 10
187.438186012737
 20
-60.57422281229597
 30
0.0
 10
187.3422253855197
 20
-60.57828612898459
 30
0.0
 10
187.2439972452369
 20
-60.5758769912662
 30
0.0
 10
187.1478787387109
 20
-60.58006988365708
 30
0.0
 10
187.091085345536
 20
-60.57129242537931
 30
0.0
 10
187.0356561802933
 20
-60.58463652128975
 30
0.0
 10
187.0476884357466
 20
-60.5352167801984
 30
0.0
 10
187.0398208103487
 20
-60.49164600948698
 30
0.0
 10
187.0472500493377
 20
-60.4472811986057
 30
0.0
 10
187.0358135493692
 20
-60.39656291215105
 30
0.0
 10
187.1038307299682
 20
-60.41396128221351
 30
0.0
 10
187.1774701809295
 20
-60.4014113874191
 30
0.0
 10
187.3131268987759
 20
-60.40758911967996
 30
0.0
 10
187.4691113954074
 20
-60.40529385886013
 30
0.0
 10
187.6422131287692
 20
-60.40617620716565
 30
0.0
 10
187.8153147893731
 20
-60.40529381836688
 30
0.0
 10
187.9712994740765
 20
-60.40758926023544
 30
0.0
 10
188.1069556819346
 20
-60.40141102716663
 30
0.0
 10
188.1805961635201
 20
-60.4139619476076
 30
0.0
 10
188.2486119104273
 20
-60.39656215966951
 30
0.0
 10
188.2371795815471
 20
-60.44728458564541
 30
0.0
 10
188.2445744387846
 20
-60.49161528167988
 30
0.0
 10
188.2368244841819
 20
-60.53530281428898
 30
0.0
 10
188.2487408671425
 20
-60.58494998880619
 30
0.0
 10
188.1914375153166
 20
-60.57097177640667
 30
0.0
 10
188.1326350719321
 20
-60.58018833305842
 30
0.0
 10
188.0331498562748
 20
-60.57606320814164
 30
0.0
 10
187.9300485027899
 20
-60.5773582895321
 30
0.0
 10
187.8344051284122
 20
-60.57704511901454
 30
0.0
 10
187.7663672901165
 20
-60.57709812281948
 30
0.0
 10
187.7320667142992
 20
-60.57709537107439
 30
0.0
 10
187.7224827320113
 20
-60.57709460505831
 30
0.0
 11
187.7224827320113
 21
-60.57709460505831
 31
0.0
 11
187.7224827320113
 21
-60.61134922391911
 31
0.0
 11
187.7224827320113
 21
-60.7016568554612
 31
0.0
 11
187.7224827320113
 21
-60.82933316212416
 31
0.0
 11
187.7224827320113
 21
-60.97569380634755
 31
0.0
 11
187.7224827320113
 21
-61.12205445057094
 31
0.0
 11
187.7224827320113
 21
-61.24973075723391
 31
0.0
 11
187.7224827320113
 21
-61.34003838877599
 31
0.0
 11
187.7224827320113
 21
-61.37429300763679
 31
0.0
 11
188.0198137574116
 21
-61.30849113265326
 31
0.0
 11
188.3190828556794
 21
-61.24062550767022
 31
0.0
 11
188.3211692054526
 21
-61.26527861096266
 31
0.0
 11
188.3257591749536
 21
-61.31951543820604
 31
0.0
 11
188.3303491444545
 21
-61.37375226544943
 31
0.0
 11
188.3324354942277
 21
-61.39840536874186
 31
0.0
 11
187.9862601818789
 21
-61.48395218838196
 31
0.0
 11
187.6475858068387
 21
-61.56497711349193
 31
0.0
 11
187.3369936446236
 21
-61.63695824954165
 31
0.0
 11
187.0750649707504
 21
-61.69537370200104
 31
0.0
 11
187.0623719958841
 21
-61.72275146241082
 31
0.0
 11
187.0375999717062
 21
-61.7381832853236
 31
0.0
 11
187.029807251905
 21
-61.71647905588459
 31
0.0
 11
187.0112246123791
 21
-61.6647228164531
 31
0.0
 11
186.9890453329448
 21
-61.60294924035743
 31
0.0
 11
186.9704626934189
 21
-61.55119300092593
 31
0.0
 11
186.9626699736177
 21
-61.52948877148691
 31
0.0
 11
187.228898126548
 21
-61.47764587219427
 31
0.0
 11
187.5432539865838
 21
-61.41184620207184
 31
0.0
 11
187.5432539865838
 21
-61.3832196040947
 31
0.0
 11
187.5432539865838
 21
-61.30650032151595
 31
0.0
 11
187.5432539865838
 21
-61.19542912136463
 31
0.0
 11
187.5432539865838
 21
-61.06374677066976
 31
0.0
 11
187.5432539865838
 21
-60.92519403646039
 31
0.0
 11
187.5432539865838
 21
-60.79351168576552
 31
0.0
 11
187.5432539865838
 21
-60.6824404856142
 31
0.0
 11
187.5432539865838
 21
-60.60572120303546
 31
0.0
 11
187.5432539865838
 21
-60.57709460505831
 31
0.0
 11
187.5155396250657
 21
-60.57709460505831
 31
0.0
 11
187.4440657453613
 21
-60.57709460505831
 31
0.0
 11
187.3463361547449
 21
-60.57709460505831
 31
0.0
 11
187.2398546604913
 21
-60.57709460505831
 31
0.0
 11
187.1421250698749
 21
-60.57709460505831
 31
0.0
 11
187.0706511901705
 21
-60.57709460505831
 31
0.0
 11
187.0429368286524
 21
-60.57709460505831
 31
0.0
 11
187.0429368286524
 21
-60.55034137155806
 31
0.0
 11
187.0429368286524
 21
-60.49148425785751
 31
0.0
 11
187.0429368286524
 21
-60.43262714415697
 31
0.0
 11
187.0429368286524
 21
-60.40587391065671
 31
0.0
 11
187.0764963002423
 21
-60.40587391065671
 31
0.0
 11
187.167586294558
 21
-60.40587391065671
 31
0.0
 11
187.3018241809178
 21
-60.40587391065672
 31
0.0
 11
187.4648273286405
 21
-60.40587391065672
 31
0.0
 11
187.6422131070445
 21
-60.40587391065671
 31
0.0
 11
187.8195988854486
 21
-60.40587391065671
 31
0.0
 11
187.9826020331713
 21
-60.40587391065672
 31
0.0
 11
188.1168399195311
 21
-60.40587391065671
 31
0.0
 11
188.2079299138467
 21
-60.40587391065671
 31
0.0
 11
188.2414893854367
 21
-60.40587391065671
 31
0.0
 11
188.2414893854367
 21
-60.43262714415696
 31
0.0
 11
188.2414893854367
 21
-60.49148425785751
 31
0.0
 11
188.2414893854367
 21
-60.55034137155806
 31
0.0
 11
188.2414893854367
 21
-60.57709460505831
 31
0.0
 11
188.2127397457426
 21
-60.57709460505831
 31
0.0
 11
188.1385959381104
 21
-60.57709460505831
 31
0.0
 11
188.0372156297153
 21
-60.57709460505831
 31
0.0
 11
187.9267564877326
 21
-60.57709460505831
 31
0.0
 11
187.8253761793376
 21
-60.57709460505831
 31
0.0
 11
187.7512323717054
 21
-60.57709460505831
 31
0.0
 11
187.7224827320113
 21
-60.57709460505831
 31
0.0
  0
SPLINE
  5
A9
102
{ACAD_REACTORS
330
C6
102
}
330
48
100
AcDbEntity
  8
_U_30EC_U_30A4_U_30E4_U_30FC_1
  6
Continuous
 62
     2
100
AcDbSpline
210
0.0
220
0.0
230
1.0
 70
    11
 71
     3
 72
    91
 73
    87
 74
    85
 42
0.000000001
 43
0.0000000001
 44
0.00000001
 40
0.0
 40
0.0
 40
0.0
 40
0.0
 40
0.0345987051695718
 40
0.1258134969461085
 40
0.2547723404888703
 40
0.4026032099154125
 40
0.5504340793416704
 40
0.6793929228836364
 40
0.7706077146571035
 40
0.8052064287780925
 40
1.124852390615281
 40
1.427402236308874
 40
1.706356627453523
 40
1.955541417875212
 40
2.169485938566365
 40
2.344350786664806
 40
2.480568411561983
 40
2.590440557429004
 40
2.649189927151135
 40
2.749320643306348
 40
2.912632739880043
 40
3.147745656000261
 40
3.24482749638511
 40
3.338490056946748
 40
3.58381541320718
 40
3.761423943238538
 40
3.886956104362708
 40
3.985855451886913
 40
4.091766255337769
 40
4.250186473811962
 40
4.422734315084633
 40
4.628285684838706
 40
4.872093227758541
 40
5.152549652145664
 40
5.464967135837639
 40
5.803201477852559
 40
6.160362988814038
 40
6.193449448276064
 40
6.284170385501747
 40
6.419718138764646
 40
6.587285046385867
 40
6.774063446723781
 40
6.967245678113793
 40
7.154024078817779
 40
7.321590987026164
 40
7.457138740890523
 40
7.547859678556259
 40
7.580946138182819
 40
7.608533084714866
 40
7.669224367077826
 40
7.729915649430035
 40
7.757502595950088
 40
7.79027806255357
 40
7.880146277431011
 40
8.014419963180474
 40
8.180411842398003
 40
8.365434637679444
 40
8.556801071622774
 40
8.74182386683083
 40
8.907815745916396
 40
9.04208943150755
 40
9.131957646249676
 40
9.164733112797252
 40
9.415425063140198
 40
9.66798618095866
 40
9.6941698074628
 40
9.75660768604773
 40
9.831130315322593
 40
9.893568193900029
 40
9.919751820398874
 40
9.950967964690708
 40
9.996421631210845
 40
10.22087981037474
 40
10.44341866197563
 40
10.47847970788879
 40
10.57091337438774
 40
10.70159545461251
 40
10.85140174170379
 40
11.00120802880496
 40
11.13189010907404
 40
11.22432377583029
 40
11.25938480938975
 40
11.28697175596163
 40
11.34766303835937
 40
11.40835432042086
 40
11.4359412589212
 40
11.4359412589212
 40
11.4359412589212
 40
11.4359412589212
 10
189.3624319262838
 20
-59.98315793854016
 30
0.0
 10
189.3508990774489
 20
-59.98315798691176
 30
0.0
 10
189.3089614374547
 20
-59.9831581527493
 30
0.0
 10
189.2240334648575
 20
-59.98315463178184
 30
0.0
 10
189.1013893482677
 20
-59.98317662543214
 30
0.0
 10
188.9597411846542
 20
-59.9830778780204
 30
0.0
 10
188.8185958628038
 20
-59.9834390274667
 30
0.0
 10
188.6947556247453
 20
-59.98236705370007
 30
0.0
 10
188.612342275493
 20
-59.98466339887824
 30
0.0
 10
188.4533996159241
 20
-59.97510019605675
 30
0.0
 10
188.6309607282925
 20
-60.3377319466772
 30
0.0
 10
188.6185944135001
 20
-60.5831546125598
 30
0.0
 10
188.6870724403413
 20
-60.86696087654258
 30
0.0
 10
188.7499229250519
 20
-61.10307589040058
 30
0.0
 10
188.8258458361278
 20
-61.30231848582964
 30
0.0
 10
188.9109394506565
 20
-61.45813241527721
 30
0.0
 10
189.0050812522485
 20
-61.55900731197704
 30
0.0
 10
189.1088853137276
 20
-61.6109273634013
 30
0.0
 10
189.1932076960323
 20
-61.55952104599478
 30
0.0
 10
189.2157527109001
 20
-61.44414044941578
 30
0.0
 10
189.2551935904919
 20
-61.31673439276712
 30
0.0
 10
189.2009124664492
 20
-60.99936260892339
 30
0.0
 10
189.3257423002022
 20
-61.14576408838191
 30
0.0
 10
189.4825496443152
 20
-61.17763288647919
 30
0.0
 10
189.3753924936606
 20
-61.41137231211465
 30
0.0
 10
189.3614916139416
 20
-61.57585812395438
 30
0.0
 10
189.3040914396775
 20
-61.70427719856615
 30
0.0
 10
189.2141225074557
 20
-61.77539786626267
 30
0.0
 10
189.0901479587426
 20
-61.79126264836842
 30
0.0
 10
188.9440478126409
 20
-61.75564791424921
 30
0.0
 10
188.8050099249833
 20
-61.63558018478818
 30
0.0
 10
188.6908208891693
 20
-61.46122906428775
 30
0.0
 10
188.5952346231035
 20
-61.23611985867852
 30
0.0
 10
188.5124857502175
 20
-60.97170342972652
 30
0.0
 10
188.4613384185961
 20
-60.6537065588055
 30
0.0
 10
188.3576394136887
 20
-60.38014860490181
 30
0.0
 10
188.484904613807
 20
-59.97552770366229
 30
0.0
 10
188.3164095552567
 20
-59.98446221129414
 30
0.0
 10
188.2318200716627
 20
-59.98242627560731
 30
0.0
 10
188.0996081317176
 20
-59.98344651590686
 30
0.0
 10
187.9366710023653
 20
-59.98305358660666
 30
0.0
 10
187.7539964100083
 20
-59.98322892665724
 30
0.0
 10
187.5653262302931
 20
-59.98298483671626
 30
0.0
 10
187.3820673949738
 20
-59.98372931072858
 30
0.0
 10
187.2210951762267
 20
-59.98142228456667
 30
0.0
 10
187.0836013264824
 20
-59.98758784095427
 30
0.0
 10
187.0095795301859
 20
-59.97525750520885
 30
0.0
 10
186.9419420116405
 20
-59.99229265255534
 30
0.0
 10
186.9538578648818
 20
-59.94034150531569
 30
0.0
 10
186.9461882215243
 20
-59.89487164012565
 30
0.0
 10
186.9538797154664
 20
-59.8494413527539
 30
0.0
 10
186.9419346727311
 20
-59.79756192994527
 30
0.0
 10
187.0089793235414
 20
-59.81439445488829
 30
0.0
 10
187.0823580595226
 20
-59.80223179886428
 30
0.0
 10
187.2185333234821
 20
-59.80831357904138
 30
0.0
 10
187.378001673106
 20
-59.80603754664038
 30
0.0
 10
187.5595378015385
 20
-59.80677354980135
 30
0.0
 10
187.7464239791727
 20
-59.80652634782961
 30
0.0
 10
187.9274217246384
 20
-59.80672188179843
 30
0.0
 10
188.0887007508427
 20
-59.80626354264255
 30
0.0
 10
188.2200087054435
 20
-59.80745915227891
 30
0.0
 10
188.3031256252145
 20
-59.80507241659354
 30
0.0
 10
188.4362441477363
 20
-59.81327983253632
 30
0.0
 10
188.3452098432209
 20
-59.55805720026444
 30
0.0
 10
188.2595838003966
 20
-59.29394230650841
 30
0.0
 10
188.3796793933004
 20
-59.30654146009931
 30
0.0
 10
188.4320469878092
 20
-59.30864353216018
 30
0.0
 10
188.5020702499265
 20
-59.31023189089439
 30
0.0
 10
188.5478127267365
 20
-59.3195602144098
 30
0.0
 10
188.6027017576482
 20
-59.31012622063666
 30
0.0
 10
188.576977971523
 20
-59.35825560323924
 30
0.0
 10
188.4631602501002
 20
-59.35291759234921
 30
0.0
 10
188.5965551550685
 20
-59.5810941440232
 30
0.0
 10
188.474986366502
 20
-59.81401732383175
 30
0.0
 10
188.6029393698962
 20
-59.80471330094657
 30
0.0
 10
188.685525333601
 20
-59.80757587224416
 30
0.0
 10
188.8113419780373
 20
-59.80635151566796
 30
0.0
 10
188.9547674767607
 20
-59.80626157090131
 30
0.0
 10
189.0963625881277
 20
-59.80812425795243
 30
0.0
 10
189.2265332179516
 20
-59.80225513041933
 30
0.0
 10
189.299965721574
 20
-59.81488248155895
 30
0.0
 10
189.3697317851644
 20
-59.79681025868683
 30
0.0
 10
189.3581977534945
 20
-59.8494573843277
 30
0.0
 10
189.3639389276231
 20
-59.89337271292547
 30
0.0
 10
189.362282070046
 20
-59.94468606302545
 30
0.0
 10
189.3623962491219
 20
-59.97399796957458
 30
0.0
 10
189.3624319262838
 20
-59.98315793854016
 30
0.0
 11
189.3624319262838
 21
-59.98315793854016
 31
0.0
 11
189.32783321216
 21
-59.98315793854016
 31
0.0
 11
189.236618420379
 21
-59.98315793854016
 31
0.0
 11
189.1076595768266
 21
-59.98315793854016
 31
0.0
 11
188.9598287073884
 21
-59.98315793854016
 31
0.0
 11
188.8119978379503
 21
-59.98315793854016
 31
0.0
 11
188.6830389943979
 21
-59.98315793854016
 31
0.0
 11
188.5918242026169
 21
-59.98315793854016
 31
0.0
 11
188.5572254884931
 21
-59.98315793854016
 31
0.0
 11
188.5889345427242
 21
-60.30122724048972
 31
0.0
 11
188.6334071586414
 21
-60.60049066191012
 31
0.0
 11
188.6898594047869
 21
-60.87367319466517
 31
0.0
 11
188.7575073497027
 21
-61.11349983061866
 31
0.0
 11
188.835567061931
 21
-61.3126955616344
 31
0.0
 11
188.923254610014
 21
-61.46398537957617
 31
0.0
 11
189.0197860624938
 21
-61.56009427630779
 31
0.0
 11
189.1243774879124
 21
-61.59374724369303
 31
0.0
 11
189.1749282232335
 21
-61.5638121200026
 31
0.0
 11
189.2116793921101
 21
-61.47066969164048
 31
0.0
 11
189.2368845907076
 21
-61.30931437267041
 31
0.0
 11
189.2527974151917
 21
-61.07474057715612
 31
0.0
 11
189.3300287612132
 21
-61.13356406672476
 31
0.0
 11
189.4133389113934
 21
-61.17636703546404
 31
0.0
 11
189.3872570740766
 21
-61.42030200318084
 31
0.0
 11
189.3479522734654
 21
-61.59350686091532
 31
0.0
 11
189.2911907526314
 21
-61.70547316533177
 31
0.0
 11
189.2127387546459
 21
-61.76569247309449
 31
0.0
 11
189.1083625225805
 21
-61.78365634086777
 31
0.0
 11
188.9544799994646
 21
-61.74601148966733
 31
0.0
 11
188.8195107306296
 21
-61.63851240101691
 31
0.0
 11
188.7027944845712
 21
-61.46931227234285
 31
0.0
 11
188.6036710297849
 21
-61.24656430107151
 31
0.0
 11
188.5214801347662
 21
-60.97842168462922
 31
0.0
 11
188.4555615680108
 21
-60.67303762044234
 31
0.0
 11
188.4052550980142
 21
-60.3385653059372
 31
0.0
 11
188.369900493272
 21
-59.98315793854016
 31
0.0
 11
188.3368140335393
 21
-59.98315793854017
 31
0.0
 11
188.2460930955624
 21
-59.98315793854016
 31
0.0
 11
188.1105453411734
 21
-59.98315793854016
 31
0.0
 11
187.9429784322044
 21
-59.98315793854017
 31
0.0
 11
187.7562000304873
 21
-59.98315793854015
 31
0.0
 11
187.5630177978541
 21
-59.98315793854016
 31
0.0
 11
187.3762393961371
 21
-59.98315793854016
 31
0.0
 11
187.208672487168
 21
-59.98315793854015
 31
0.0
 11
187.073124732779
 21
-59.98315793854016
 31
0.0
 11
186.9824037948021
 21
-59.98315793854016
 31
0.0
 11
186.9493173350694
 21
-59.98315793854016
 31
0.0
 11
186.9493173350694
 21
-59.95557099193248
 31
0.0
 11
186.9493173350694
 21
-59.89487970939557
 31
0.0
 11
186.9493173350694
 21
-59.83418842685867
 31
0.0
 11
186.9493173350694
 21
-59.80660148025098
 31
0.0
 11
186.982092801718
 21
-59.80660148025098
 31
0.0
 11
187.0719610167222
 21
-59.80660148025099
 31
0.0
 11
187.2062347026697
 21
-59.80660148025098
 31
0.0
 11
187.3722265821481
 21
-59.80660148025098
 31
0.0
 11
187.557249377745
 21
-59.80660148025098
 31
0.0
 11
187.7486158120481
 21
-59.80660148025098
 31
0.0
 11
187.933638607645
 21
-59.80660148025098
 31
0.0
 11
188.0996304871234
 21
-59.80660148025098
 31
0.0
 11
188.2339041730709
 21
-59.80660148025098
 31
0.0
 11
188.3237723880751
 21
-59.80660148025098
 31
0.0
 11
188.3565478547237
 21
-59.80660148025098
 31
0.0
 11
188.3465388879652
 21
-59.55610941434136
 31
0.0
 11
188.3405317440212
 21
-59.30361974426563
 31
0.0
 11
188.3666780800208
 21
-59.30501667370973
 31
0.0
 11
188.4290270350968
 21
-59.30834781315333
 31
0.0
 11
188.5034435298649
 21
-59.31232368926344
 31
0.0
 11
188.5657924849408
 21
-59.31565482870705
 31
0.0
 11
188.5919388209404
 21
-59.31705175815114
 31
0.0
 11
188.5789136042589
 21
-59.34542060363015
 31
0.0
 11
188.5357854195954
 21
-59.3597731470293
 31
0.0
 11
188.538119689137
 21
-59.58421918863987
 31
0.0
 11
188.5464657665452
 21
-59.80660148025098
 31
0.0
 11
188.5815268124715
 21
-59.80660148025098
 31
0.0
 11
188.6739604790043
 21
-59.80660148025098
 31
0.0
 11
188.804642559275
 21
-59.80660148025099
 31
0.0
 11
188.9544488464145
 21
-59.80660148025098
 31
0.0
 11
189.104255133554
 21
-59.80660148025098
 31
0.0
 11
189.2349372138247
 21
-59.80660148025098
 31
0.0
 11
189.3273708803575
 21
-59.80660148025099
 31
0.0
 11
189.3624319262838
 21
-59.80660148025098
 31
0.0
 11
189.3624319262838
 21
-59.83418842685866
 31
0.0
 11
189.3624319262838
 21
-59.89487970939557
 31
0.0
 11
189.3624319262838
 21
-59.95557099193248
 31
0.0
 11
189.3624319262838
 21
-59.98315793854016
 31
0.0
  0
SPLINE
  5
AA
102
{ACAD_REACTORS
330
C7
102
}
330
48
100
AcDbEntity
  8
_U_30EC_U_30A4_U_30E4_U_30FC_1
  6
Continuous
 62
     2
100
AcDbSpline
210
0.0
220
0.0
230
1.0
 70
    11
 71
     3
 72
   118
 73
   114
 74
   112
 42
0.000000001
 43
0.0000000001
 44
0.00000001
 40
0.0
 40
0.0
 40
0.0
 40
0.0
 40
0.1054708162973293
 40
0.2466098270051597
 40
0.3965912874591178
 40
0.5285525069753653
 40
0.6156245055642127
 40
0.6431434105797342
 40
0.7036850037985947
 40
0.7642265984504402
 40
0.7917455052354677
 40
0.9287404319989874
 40
1.106572819088018
 40
1.287544879681033
 40
1.317578308030552
 40
1.399928030857194
 40
1.522968204799963
 40
1.675072986590597
 40
1.844616533180674
 40
2.019973001638744
 40
2.189516548880055
 40
2.341621331585391
 40
2.464661506320536
 40
2.547011229647102
 40
2.577044658168067
 40
2.603797890893138
 40
2.662655002908854
 40
2.721512114949665
 40
2.748265347702817
 40
2.774215307344893
 40
2.845959313407225
 40
2.954338556588422
 40
3.09019422758561
 40
3.244367517100568
 40
3.407699615844334
 40
3.571031714539484
 40
3.725205003920157
 40
3.861060674729669
 40
3.969439917716355
 40
4.041183923629025
 40
4.067133883213022
 40
4.311886746012195
 40
4.547897258335576
 40
4.76474708304403
 40
4.952749679951837
 40
5.045772974195956
 40
5.137862019645054
 40
5.330543169793115
 40
5.553448265244096
 40
5.795083855888253
 40
6.043293412177323
 40
6.285761695541275
 40
6.313902908752787
 40
6.384255941793377
 40
6.475714884766937
 40
6.567173827758999
 40
6.637526860839777
 40
6.665668074074141
 40
6.692018920328117
 40
6.74999078207118
 40
6.807962643790539
 40
6.834313490018012
 40
6.85639308424529
 40
6.913335195649914
 40
6.991194817302606
 40
7.076026942283868
 40
7.153886563725386
 40
7.210828674844912
 40
7.232908268931276
 40
7.258199334923802
 40
7.324875781592446
 40
7.419142481925114
 40
7.527204308842052
 40
7.63526613523063
 40
7.729532834168623
 40
7.796209279292938
 40
7.821500344594888
 40
7.844652988851016
 40
7.899863140541738
 40
7.965759128053875
 40
8.020969279771217
 40
8.044121924046655
 40
8.069356610160755
 40
8.10913439544153
 40
8.13223810019123
 40
8.1931478677866
 40
8.279261678876765
 40
8.377977512673986
 40
8.476693347146778
 40
8.562807160411829
 40
8.623716930826617
 40
8.646820636853569
 40
8.67198879377441
 40
8.734909185828293
 40
8.816705695188979
 40
8.89850220481555
 40
8.96142259737801
 40
8.986590754551123
 40
9.012941600733285
 40
9.07091346238036
 40
9.12888532408185
 40
9.155236170325168
 40
9.18040432792921
 40
9.243324721948284
 40
9.325121234212048
 40
9.406917746637731
 40
9.469838141978158
 40
9.495006288270933
 40
9.517811184379074
 40
9.572192090487082
 40
9.637098333281305
 40
9.691479239515512
 40
9.714284125643548
 40
9.714284125643548
 40
9.714284125643548
 40
9.714284125643548
 10
184.5680673958202
 20
-60.26669425791374
 30
0.0
 10
184.5897195498586
 20
-60.29446719736281
 30
0.0
 10
184.6403462039022
 20
-60.35940534417857
 30
0.0
 10
184.715558813214
 20
-60.466675286662
 30
0.0
 10
184.8054687203895
 20
-60.58181150712462
 30
0.0
 10
184.8515374606222
 20
-60.68201543230779
 30
0.0
 10
184.9462030224203
 20
-60.75124582164148
 30
0.0
 10
184.9010644249962
 20
-60.79786949300824
 30
0.0
 10
184.8753252715339
 20
-60.83898280113054
 30
0.0
 10
184.8451401637561
 20
-60.87492617251156
 30
0.0
 10
184.7999889660111
 20
-60.94978806383001
 30
0.0
 10
184.7516709388111
 20
-60.7277606472549
 30
0.0
 10
184.6774744642622
 20
-60.69047911641384
 30
0.0
 10
184.5642252254155
 20
-60.4194838684849
 30
0.0
 10
184.5691338507718
 20
-60.53463260532865
 30
0.0
 10
184.5674691485854
 20
-60.60721913197466
 30
0.0
 10
184.5683035006264
 20
-60.72933000495107
 30
0.0
 10
184.5679814469813
 20
-60.87644788168632
 30
0.0
 10
184.5681281842005
 20
-61.04251525022536
 30
0.0
 10
184.5679155022271
 20
-61.21371034370492
 30
0.0
 10
184.5685702181582
 20
-61.38005760343596
 30
0.0
 10
184.5665397390688
 20
-61.526234159234
 30
0.0
 10
184.5719665329479
 20
-61.65087541504482
 30
0.0
 10
184.5611135798257
 20
-61.7183993243847
 30
0.0
 10
184.5762944085103
 20
-61.78009527562072
 30
0.0
 10
184.5264100037683
 20
-61.76831085082093
 30
0.0
 10
184.4823355272071
 20
-61.77614766199126
 30
0.0
 10
184.438857655975
 20
-61.76798147606392
 30
0.0
 10
184.3898551716037
 20
-61.78020532240626
 30
0.0
 10
184.4024936164374
 20
-61.72597921729783
 30
0.0
 10
184.3936387897999
 20
-61.66621670071537
 30
0.0
 10
184.3981263699862
 20
-61.55636559934725
 30
0.0
 10
184.396416506554
 20
-61.42528613573417
 30
0.0
 10
184.3969755845536
 20
-61.27360577534768
 30
0.0
 10
184.3968133698243
 20
-61.1134751404914
 30
0.0
 10
184.3968474854224
 20
-60.95321723304529
 30
0.0
 10
184.3968719889675
 20
-60.80188341458655
 30
0.0
 10
184.3967658472774
 20
-60.66976432640493
 30
0.0
 10
184.397050407148
 20
-60.562637864459
 30
0.0
 10
184.3964880477117
 20
-60.4974996939962
 30
0.0
 10
184.3986970013237
 20
-60.36939631120421
 30
0.0
 10
184.3125640928152
 20
-60.74460978587521
 30
0.0
 10
184.2361345748048
 20
-60.89640395855699
 30
0.0
 10
184.1466245697382
 20
-61.05792382532788
 30
0.0
 10
184.0446618146875
 20
-61.33086740158922
 30
0.0
 10
183.9994181420588
 20
-61.16841242382582
 30
0.0
 10
183.8908560871218
 20
-61.07953156920975
 30
0.0
 10
184.0801996681302
 20
-60.93008794017688
 30
0.0
 10
184.1371545475249
 20
-60.7380945200417
 30
0.0
 10
184.2523725922901
 20
-60.50658966072336
 30
0.0
 10
184.2746356559681
 20
-60.31761329220032
 30
0.0
 10
184.4578110081688
 20
-60.04104499653158
 30
0.0
 10
184.3344238527101
 20
-60.04859610147001
 30
0.0
 10
184.2731889096382
 20
-60.04701816612975
 30
0.0
 10
184.1888204546613
 20
-60.04675996405418
 30
0.0
 10
184.1010440015515
 20
-60.05013743227889
 30
0.0
 10
184.0462973625671
 20
-60.04163773997073
 30
0.0
 10
183.9910907955573
 20
-60.05510027929304
 30
0.0
 10
184.0029027965085
 20
-60.00627146852332
 30
0.0
 10
183.9948701081343
 20
-59.96289584082383
 30
0.0
 10
184.0034391034226
 20
-59.92049150669521
 30
0.0
 10
183.9909148338705
 20
-59.87290792426975
 30
0.0
 10
184.0361306468284
 20
-59.88291375983986
 30
0.0
 10
184.0821020492272
 20
-59.87664483805032
 30
0.0
 10
184.1583426977259
 20
-59.87965027573223
 30
0.0
 10
184.2367501061543
 20
-59.87788140700552
 30
0.0
 10
184.3130197578481
 20
-59.88093794997434
 30
0.0
 10
184.3589214389024
 20
-59.87454617602918
 30
0.0
 10
184.4037938894949
 20
-59.884647660002
 30
0.0
 10
184.3911757205182
 20
-59.83401387397195
 30
0.0
 10
184.3998141512256
 20
-59.78057327097024
 30
0.0
 10
184.3958566524991
 20
-59.68695333847415
 30
0.0
 10
184.3968529997884
 20
-59.58445982290171
 30
0.0
 10
184.3978132342622
 20
-59.4820531873093
 30
0.0
 10
184.3939416387555
 20
-59.38822659369772
 30
0.0
 10
184.4023994743913
 20
-59.33522046138741
 30
0.0
 10
184.3899280862384
 20
-59.28347153327903
 30
0.0
 10
184.43483113194
 20
-59.2970784175234
 30
0.0
 10
184.4761288766321
 20
-59.29458108658506
 30
0.0
 10
184.54015492106
 20
-59.29910528404608
 30
0.0
 10
184.5792316078335
 20
-59.30777585935783
 30
0.0
 10
184.6282748428291
 20
-59.30043486908406
 30
0.0
 10
184.6031284960139
 20
-59.33955692927335
 30
0.0
 10
184.5622106263272
 20
-59.32994746523285
 30
0.0
 10
184.5716314546152
 20
-59.38018440809316
 30
0.0
 10
184.5661852248295
 20
-59.43172643339605
 30
0.0
 10
184.5687904531353
 20
-59.51598881394572
 30
0.0
 10
184.5676307131704
 20
-59.60999453395686
 30
0.0
 10
184.5689795993779
 20
-59.70361723583567
 30
0.0
 10
184.5656175031058
 20
-59.78879071426873
 30
0.0
 10
184.5727164847318
 20
-59.8384173290705
 30
0.0
 10
184.5618774084095
 20
-59.88564894009107
 30
0.0
 10
184.6110215154794
 20
-59.8735691404224
 30
0.0
 10
184.6601082559696
 20
-59.88111195616082
 30
0.0
 10
184.737991921019
 20
-59.87872518617662
 30
0.0
 10
184.8156570102444
 20
-59.87659207073681
 30
0.0
 10
184.8651598860904
 20
-59.88365197056638
 30
0.0
 10
184.9150799680188
 20
-59.87198437042881
 30
0.0
 10
184.9029403446429
 20
-59.92018353607703
 30
0.0
 10
184.9112043158692
 20
-59.96309369177858
 30
0.0
 10
184.9029403580332
 20
-60.00600387127708
 30
0.0
 10
184.9150799479403
 20
-60.0542030022423
 30
0.0
 10
184.8651600088294
 20
-60.04253554507576
 30
0.0
 10
184.8156555580752
 20
-60.0495938654405
 30
0.0
 10
184.7379989312522
 20
-60.04746923750489
 30
0.0
 10
184.6600848795309
 20
-60.04505199613335
 30
0.0
 10
184.6110705282265
 20
-60.05266740784604
 30
0.0
 10
184.5619451038492
 20
-60.04050636421501
 30
0.0
 10
184.5721764918121
 20
-60.08485575554935
 30
0.0
 10
184.5662882607602
 20
-60.12633152776182
 30
0.0
 10
184.5684993235118
 20
-60.18643194663787
 30
0.0
 10
184.5680314275695
 20
-60.23332806216207
 30
0.0
 10
184.5680591922462
 20
-60.25908442560895
 30
0.0
 10
184.5680673958202
 20
-60.26669425791374
 30
0.0
 11
184.5680673958202
 21
-60.26669425791374
 31
0.0
 11
184.6323182464033
 21
-60.35033589344837
 31
0.0
 11
184.7154463765048
 21
-60.46439699230873
 31
0.0
 11
184.8023036498445
 21
-60.5866682178337
 31
0.0
 11
184.8777419301421
 21
-60.69494023336217
 31
0.0
 11
184.9266130811175
 21
-60.76700370223304
 31
0.0
 11
184.9103026214642
 21
-60.78916806854696
 31
0.0
 11
184.8744196102269
 21
-60.83792967443755
 31
0.0
 11
184.8385365989895
 21
-60.88669128032815
 31
0.0
 11
184.8222261393362
 21
-60.90885564664205
 31
0.0
 11
184.7569272038995
 21
-60.7884244995528
 31
0.0
 11
184.6654639172783
 21
-60.63591605308887
 31
0.0
 11
184.5680673958202
 21
-60.4833880078595
 31
0.0
 11
184.5680673958202
 21
-60.51342143650839
 31
0.0
 11
184.5680673958202
 21
-60.59577116022309
 31
0.0
 11
184.5680673958202
 21
-60.71881133565564
 31
0.0
 11
184.5680673958202
 21
-60.8709161194581
 31
0.0
 11
184.5680673958202
 21
-61.04045966828248
 31
0.0
 11
184.5680673958202
 21
-61.21581613878085
 31
0.0
 11
184.5680673958202
 21
-61.38535968760523
 31
0.0
 11
184.5680673958202
 21
-61.53746447140767
 31
0.0
 11
184.5680673958202
 21
-61.66050464684024
 31
0.0
 11
184.5680673958202
 21
-61.74285437055494
 31
0.0
 11
184.5680673958202
 21
-61.77288779920383
 31
0.0
 11
184.5413141629958
 21
-61.77288779920383
 31
0.0
 11
184.482457050782
 21
-61.77288779920383
 31
0.0
 11
184.4235999385683
 21
-61.77288779920383
 31
0.0
 11
184.3968467057439
 21
-61.77288779920383
 31
0.0
 11
184.3968467057439
 21
-61.74693783947845
 31
0.0
 11
184.3968467057439
 21
-61.67519383317887
 31
0.0
 11
184.3968467057439
 21
-61.56681458961994
 31
0.0
 11
184.3968467057439
 21
-61.43095891811647
 31
0.0
 11
184.3968467057439
 21
-61.27678562798334
 31
0.0
 11
184.3968467057439
 21
-61.11345352853536
 31
0.0
 11
184.3968467057439
 21
-60.95012142908738
 31
0.0
 11
184.3968467057439
 21
-60.79594813895424
 31
0.0
 11
184.3968467057439
 21
-60.66009246745078
 31
0.0
 11
184.3968467057439
 21
-60.55171322389185
 31
0.0
 11
184.3968467057439
 21
-60.47996921759227
 31
0.0
 11
184.3968467057439
 21
-60.45401925786689
 31
0.0
 11
184.3186070791271
 21
-60.68592985676722
 31
0.0
 11
184.2303315718852
 21
-60.90480972650416
 31
0.0
 11
184.1350311859594
 21
-61.09959597645548
 31
0.0
 11
184.0357169232905
 21
-61.25922571599892
 31
0.0
 11
183.9915403271955
 21
-61.17736142782495
 31
0.0
 11
183.9394262313029
 21
-61.10143703548283
 31
0.0
 11
184.0433507519848
 21
-60.93918501052337
 31
0.0
 11
184.1435524794284
 21
-60.74007123557314
 31
0.0
 11
184.235665153745
 21
-60.51668141062898
 31
0.0
 11
184.315322515046
 21
-60.28160123568775
 31
0.0
 11
184.3781583034429
 21
-60.04741641074628
 31
0.0
 11
184.3500170901691
 21
-60.04741641074628
 31
0.0
 11
184.2796640569846
 21
-60.04741641074628
 31
0.0
 11
184.1882051138447
 21
-60.04741641074628
 31
0.0
 11
184.0967461707048
 21
-60.04741641074628
 31
0.0
 11
184.0263931375203
 21
-60.04741641074628
 31
0.0
 11
183.9982519242465
 21
-60.04741641074628
 31
0.0
 11
183.9982519242465
 21
-60.0210655643987
 31
0.0
 11
183.9982519242465
 21
-59.96309370243405
 31
0.0
 11
183.9982519242465
 21
-59.9051218404694
 31
0.0
 11
183.9982519242465
 21
-59.87877099412182
 31
0.0
 11
184.0203315185568
 21
-59.87877099412182
 31
0.0
 11
184.0772736301993
 21
-59.87877099412182
 31
0.0
 11
184.1551332522411
 21
-59.87877099412182
 31
0.0
 11
184.2399653777493
 21
-59.87877099412182
 31
0.0
 11
184.3178249997911
 21
-59.87877099412182
 31
0.0
 11
184.3747671114335
 21
-59.87877099412182
 31
0.0
 11
184.3968467057439
 21
-59.87877099412182
 31
0.0
 11
184.3968467057439
 21
-59.85347992804741
 31
0.0
 11
184.3968467057439
 21
-59.78680348112398
 31
0.0
 11
184.3968467057439
 21
-59.69253678030117
 31
0.0
 11
184.3968467057439
 21
-59.5844749525287
 31
0.0
 11
184.3968467057439
 21
-59.47641312475622
 31
0.0
 11
184.3968467057439
 21
-59.38214642393342
 31
0.0
 11
184.3968467057439
 21
-59.31546997700998
 31
0.0
 11
184.3968467057439
 21
-59.29017891093557
 31
0.0
 11
184.4199386918215
 21
-59.29185375871294
 31
0.0
 11
184.4750041970833
 21
-59.29584762648972
 31
0.0
 11
184.5407275420733
 21
-59.30061450093297
 31
0.0
 11
184.5957930473352
 21
-59.30460836870976
 31
0.0
 11
184.6188850334127
 21
-59.30628321648712
 31
0.0
 11
184.6055217573911
 21
-59.32768911057902
 31
0.0
 11
184.5680673958202
 21
-59.34108474425625
 31
0.0
 11
184.5680673958202
 21
-59.36418845030516
 31
0.0
 11
184.5680673958202
 21
-59.42509822079774
 31
0.0
 11
184.5680673958202
 21
-59.51121203425277
 31
0.0
 11
184.5680673958202
 21
-59.60992786918904
 31
0.0
 11
184.5680673958202
 21
-59.70864370412529
 31
0.0
 11
184.5680673958202
 21
-59.79475751758033
 31
0.0
 11
184.5680673958202
 21
-59.85566728807292
 31
0.0
 11
184.5680673958202
 21
-59.87877099412182
 31
0.0
 11
184.5932355534358
 21
-59.87877099412182
 31
0.0
 11
184.6561559474748
 21
-59.87877099412182
 31
0.0
 11
184.7379524597254
 21
-59.87877099412182
 31
0.0
 11
184.8197489719761
 21
-59.87877099412182
 31
0.0
 11
184.8826693660151
 21
-59.87877099412182
 31
0.0
 11
184.9078375236307
 21
-59.87877099412182
 31
0.0
 11
184.9078375236307
 21
-59.9051218404694
 31
0.0
 11
184.9078375236307
 21
-59.96309370243405
 31
0.0
 11
184.9078375236307
 21
-60.02106556439871
 31
0.0
 11
184.9078375236307
 21
-60.04741641074628
 31
0.0
 11
184.8826693660151
 21
-60.04741641074627
 31
0.0
 11
184.8197489719761
 21
-60.04741641074628
 31
0.0
 11
184.7379524597254
 21
-60.04741641074628
 31
0.0
 11
184.6561559474748
 21
-60.04741641074628
 31
0.0
 11
184.5932355534358
 21
-60.04741641074627
 31
0.0
 11
184.5680673958202
 21
-60.04741641074628
 31
0.0
 11
184.5680673958202
 21
-60.07022130685169
 31
0.0
 11
184.5680673958202
 21
-60.12460221294923
 31
0.0
 11
184.5680673958202
 21
-60.18950845571079
 31
0.0
 11
184.5680673958202
 21
-60.24388936180833
 31
0.0
 11
184.5680673958202
 21
-60.26669425791374
 31
0.0
  0
SPLINE
  5
AB
102
{ACAD_REACTORS
330
C8
102
}
330
48
100
AcDbEntity
  8
_U_30EC_U_30A4_U_30E4_U_30FC_1
  6
Continuous
 62
     2
100
AcDbSpline
210
0.0
220
0.0
230
1.0
 70
    11
 71
     3
 72
    47
 73
    43
 74
    41
 42
0.000000001
 43
0.0000000001
 44
0.00000001
 40
0.0
 40
0.0
 40
0.0
 40
0.0
 40
0.2207912809957095
 40
0.4459404186303061
 40
0.4902387190459281
 40
0.5327473892722243
 40
0.5742260451225558
 40
0.6155432630560564
 40
0.6568164066315763
 40
0.69825116187804
 40
0.7407663929316909
 40
0.7851366743175271
 40
1.01028883383634
 40
1.23108050700218
 40
1.451765243652402
 40
1.676638205891708
 40
1.720461045359679
 40
1.830018144043544
 40
1.972442372353173
 40
2.114866600677539
 40
2.224423699395169
 40
2.268246538883405
 40
2.493628801207244
 40
2.715602830286649
 40
2.934211330706393
 40
3.14950236985538
 40
3.231387784851025
 40
3.318231873854089
 40
3.405143198198048
 40
3.486970301720484
 40
3.702258172493921
 40
3.920866283534145
 40
4.14283932593194
 40
4.3682219038654
 40
4.412044743359882
 40
4.521601842095894
 40
4.664026070452376
 40
4.806450298809079
 40
4.916007397546782
 40
4.959830237043104
 40
5.184703515847144
 40
5.405387250767517
 40
5.405387250767517
 40
5.405387250767517
 40
5.405387250767517
 10
181.9313632188194
 20
-59.80152148025221
 30
0.0
 10
181.9374344349552
 20
-59.73800106477884
 30
0.0
 10
181.9496967036791
 20
-59.60970650289463
 30
0.0
 10
181.8410911808962
 20
-59.33392368805021
 30
0.0
 10
181.9568190826153
 20
-59.36370455547039
 30
0.0
 10
181.9978047438565
 20
-59.36793032716275
 30
0.0
 10
182.0397410727066
 20
-59.37248142589485
 30
0.0
 10
182.0810401555259
 20
-59.37356606049607
 30
0.0
 10
182.1223237045104
 20
-59.37248250783867
 30
0.0
 10
182.1642353200196
 20
-59.3679247626775
 30
0.0
 10
182.2052188478568
 20
-59.36371158769367
 30
0.0
 10
182.3211127773038
 20
-59.33380977661555
 30
0.0
 10
182.2101857657005
 20
-59.61218782369207
 30
0.0
 10
182.2381061294816
 20
-59.79275448154141
 30
0.0
 10
182.2210472276518
 20
-60.0259754663262
 30
0.0
 10
182.2220842211651
 20
-60.1865196643595
 30
0.0
 10
182.2220304328952
 20
-60.31273771420371
 30
0.0
 10
182.2220482302029
 20
-60.41129625642856
 30
0.0
 10
182.2220393510627
 20
-60.54277886536129
 30
0.0
 10
182.2220468857582
 20
-60.67425744010447
 30
0.0
 10
182.2220334334676
 20
-60.77282366285004
 30
0.0
 10
182.2220736647041
 20
-60.89918853354942
 30
0.0
 10
182.2212951333365
 20
-61.06076520156223
 30
0.0
 10
182.2372163248816
 20
-61.2919676708618
 30
0.0
 10
182.2139673814956
 20
-61.47684237007094
 30
0.0
 10
182.3166388373914
 20
-61.74622986209036
 30
0.0
 10
182.1626443292385
 20
-61.7089847629328
 30
0.0
 10
182.0810334732381
 20
-61.71420594298557
 30
0.0
 10
181.9994397222132
 20
-61.70897968600744
 30
0.0
 10
181.8454718596391
 20
-61.74621519093706
 30
0.0
 10
181.9480388351466
 20
-61.47683459116216
 30
0.0
 10
181.9248250245637
 20
-61.2919700365368
 30
0.0
 10
181.9406649584687
 20
-61.06076370413457
 30
0.0
 10
181.9399501242976
 20
-60.89918876670593
 30
0.0
 10
181.9399869499455
 20
-60.77282357768573
 30
0.0
 10
181.9399753929819
 20
-60.67425832343113
 30
0.0
 10
181.9399779948762
 20
-60.54277461561873
 30
0.0
 10
181.9399853461328
 20
-60.41131040947896
 30
0.0
 10
181.93996474709
 20
-60.31270802703767
 30
0.0
 10
181.9400287121576
 20
-60.18662439624668
 30
0.0
 10
181.938793887714
 20
-60.02348497595323
 30
0.0
 10
181.9338245326294
 20
-59.87504405201543
 30
0.0
 10
181.9313632188194
 20
-59.80152148025221
 30
0.0
 11
181.9313632188194
 21
-59.80152148025221
 31
0.0
 11
181.9223533129928
 21
-59.58091410183517
 31
0.0
 11
181.9124974635695
 21
-59.35598078591914
 31
0.0
 11
181.956319077035
 21
-59.36246197515365
 31
0.0
 11
181.9984605863764
 21
-59.36803696647169
 31
0.0
 11
182.039757633934
 21
-59.37191421473462
 31
0.0
 11
182.0810546814914
 21
-59.37320516091486
 31
0.0
 11
182.1223076318279
 21
-59.37191421473463
 31
0.0
 11
182.1635605821646
 21
-59.36803696647169
 31
0.0
 11
182.2057087060892
 21
-59.36246197515366
 31
0.0
 11
182.2496030799694
 21
-59.35598078591914
 31
0.0
 11
182.239678262344
 21
-59.58091410183517
 31
0.0
 11
182.2306589137859
 21
-59.80152148025221
 31
0.0
 11
182.2241843392983
 21
-60.02211121978038
 31
0.0
 11
182.2220423167834
 21
-60.24697398014087
 31
0.0
 11
182.2220423167834
 21
-60.29079681963609
 31
0.0
 11
182.2220423167834
 21
-60.40035391837412
 31
0.0
 11
182.2220423167834
 21
-60.54277814673357
 31
0.0
 11
182.2220423167834
 21
-60.68520237509302
 31
0.0
 11
182.2220423167834
 21
-60.79475947383106
 31
0.0
 11
182.2220423167834
 21
-60.83858231332627
 31
0.0
 11
182.2241843392983
 21
-61.06395439660329
 31
0.0
 11
182.2306589137859
 21
-61.28583397988115
 31
0.0
 11
182.239678262344
 21
-61.50425634093765
 31
0.0
 11
182.2496030799694
 21
-61.71931849366166
 31
0.0
 11
182.1678821098319
 21
-61.71413155789909
 31
0.0
 11
182.0810546814914
 21
-61.71243050755231
 31
0.0
 11
181.9941600048888
 21
-61.71413155789909
 31
0.0
 11
181.9124974635695
 21
-61.71931849366166
 31
0.0
 11
181.9223533129928
 21
-61.50425634093765
 31
0.0
 11
181.9313632188194
 21
-61.28583397988115
 31
0.0
 11
181.9378038768347
 21
-61.06395439660328
 31
0.0
 11
181.9399788517572
 21
-60.83858231332627
 31
0.0
 11
181.9399788517572
 21
-60.79475947383106
 31
0.0
 11
181.9399788517572
 21
-60.68520237509302
 31
0.0
 11
181.9399788517572
 21
-60.54277814673357
 31
0.0
 11
181.9399788517572
 21
-60.40035391837413
 31
0.0
 11
181.9399788517572
 21
-60.29079681963609
 31
0.0
 11
181.9399788517572
 21
-60.24697398014087
 31
0.0
 11
181.9378038768347
 21
-60.02211121978039
 31
0.0
 11
181.9313632188194
 21
-59.80152148025221
 31
0.0
  0
SPLINE
  5
AC
102
{ACAD_REACTORS
330
C9
102
}
330
48
100
AcDbEntity
  8
_U_30EC_U_30A4_U_30E4_U_30FC_1
  6
Continuous
 62
     2
100
AcDbSpline
210
0.0
220
0.0
230
1.0
 70
    11
 71
     3
 72
   110
 73
   106
 74
   104
 42
0.000000001
 43
0.0000000001
 44
0.00000001
 40
0.0
 40
0.0
 40
0.0
 40
0.0
 40
0.2203406257277702
 40
0.4407808782838197
 40
0.5952494494615181
 40
0.7488431659393187
 40
0.9023581831308884
 40
1.056801968670415
 40
1.210736449099944
 40
1.363041386539822
 40
1.515315729683165
 40
1.669377239148088
 40
1.721611652756581
 40
1.773199502942975
 40
1.824933793210025
 40
1.877110426488005
 40
1.98268228120674
 40
2.078781667087549
 40
2.172809640822299
 40
2.271937807378954
 40
2.378349933379347
 40
2.494131557736506
 40
2.62668168394364
 40
2.783145050796096
 40
2.890701232940959
 40
2.993130312454869
 40
3.099869730691841
 40
3.220237816691334
 40
3.352695482737616
 40
3.481732806389863
 40
3.593499473690393
 40
3.674323013331915
 40
3.817951711952837
 40
3.946167120793891
 40
4.061405053453548
 40
4.166480796003216
 40
4.262478775059282
 40
4.350736673551211
 40
4.433071991254096
 40
4.511216293814698
 40
4.564262454118023
 40
4.618474415571654
 40
4.670128488754218
 40
4.722296879126431
 40
4.819540945314327
 40
4.931194984128155
 40
5.049996040257797
 40
5.168643755415343
 40
5.283970811762612
 40
5.392260784910466
 40
5.486512254876455
 40
5.559178233949883
 40
5.591425852853559
 40
5.626215969637935
 40
5.667155838674472
 40
5.71744929021428
 40
5.738402360944892
 40
5.784499116553864
 40
5.830595872164839
 40
5.851548942897697
 40
5.873019280661818
 40
5.924217778408345
 40
5.985325662817733
 40
6.03652416056774
 40
6.057994498334271
 40
6.236847789607523
 40
6.381409928945689
 40
6.493190424178726
 40
6.574067534230526
 40
6.691018086205649
 40
6.814881554220566
 40
6.94430782324049
 40
7.071266716066142
 40
7.193488604461958
 40
7.309042773128186
 40
7.414007203170838
 40
7.505140441886567
 40
7.53115036059973
 40
7.559221645322311
 40
7.587202218920971
 40
7.61256915949918
 40
7.66255080948107
 40
7.70287887576418
 40
7.857328205230965
 40
8.010799568088611
 40
8.165256399657562
 40
8.3222326987139
 40
8.479564855016616
 40
8.635216230290819
 40
8.790882550925737
 40
8.948305154947302
 40
9.168271839032988
 40
9.387358980987266
 40
9.608047961033495
 40
9.832914234792694
 40
9.85833869496303
 40
9.92536681723004
 40
10.02013071422763
 40
10.12876249859002
 40
10.23739428295252
 40
10.33215817995193
 40
10.39918630222397
 40
10.42461076239786
 40
10.64992019336946
 40
10.87188524531191
 40
10.87188524531191
 40
10.87188524531191
 40
10.87188524531191
 10
179.1863993306167
 20
-59.79635328580903
 30
0.0
 10
179.189906986309
 20
-59.72942126905291
 30
0.0
 10
179.1969238917212
 20
-59.59552697063234
 30
0.0
 10
179.1004232528621
 20
-59.31010034007623
 30
0.0
 10
179.3316339655657
 20
-59.37274202788809
 30
0.0
 10
179.4725494986705
 20
-59.36557034923106
 30
0.0
 10
179.6296622687136
 20
-59.37322705900847
 30
0.0
 10
179.7832118356837
 20
-59.37305836696055
 30
0.0
 10
179.935130986463
 20
-59.37376548443661
 30
0.0
 10
180.094841974278
 20
-59.36348430627455
 30
0.0
 10
180.2215177530666
 20
-59.38062077898344
 30
0.0
 10
180.417702605163
 20
-59.3083132887195
 30
0.0
 10
180.3840600208627
 20
-59.40917889898977
 30
0.0
 10
180.3858216246733
 20
-59.45939335031426
 30
0.0
 10
180.3833547003007
 20
-59.50846253392628
 30
0.0
 10
180.415328189556
 20
-59.59495098132097
 30
0.0
 10
180.2816604832805
 20
-59.54561150370759
 30
0.0
 10
180.1978413617605
 20
-59.55127954664926
 30
0.0
 10
180.0980066068873
 20
-59.54093072272796
 30
0.0
 10
179.9992781649695
 20
-59.53472138568006
 30
0.0
 10
179.8927737700659
 20
-59.52860825162315
 30
0.0
 10
179.7716716627609
 20
-59.51969705494511
 30
0.0
 10
179.6509586432003
 20
-59.53036983066708
 30
0.0
 10
179.4618758772985
 20
-59.47090085898725
 30
0.0
 10
179.493523343486
 20
-59.63000268901554
 30
0.0
 10
179.4801768246382
 20
-59.7271946063919
 30
0.0
 10
179.4781163355999
 20
-59.8392452386899
 30
0.0
 10
179.476439297422
 20
-59.95858903349743
 30
0.0
 10
179.4779541723782
 20
-60.08525996823984
 30
0.0
 10
179.4762787408219
 20
-60.21257000962977
 30
0.0
 10
179.4865049201206
 20
-60.31107022574628
 30
0.0
 10
179.4585211526131
 20
-60.45169886353461
 30
0.0
 10
179.6314234928854
 20
-60.39569037845001
 30
0.0
 10
179.745122513232
 20
-60.40838637500595
 30
0.0
 10
179.8646356601788
 20
-60.40110211927838
 30
0.0
 10
179.969469635462
 20
-60.39680571922341
 30
0.0
 10
180.0649289828161
 20
-60.39228020720118
 30
0.0
 10
180.1570028436581
 20
-60.38409387832893
 30
0.0
 10
180.2282756711988
 20
-60.38914738340984
 30
0.0
 10
180.3351136635234
 20
-60.3502216394742
 30
0.0
 10
180.3032808527585
 20
-60.43041466973216
 30
0.0
 10
180.3072369433478
 20
-60.47995652133061
 30
0.0
 10
180.3040707321562
 20
-60.53001110939276
 30
0.0
 10
180.3356996420134
 20
-60.61429741367073
 30
0.0
 10
180.201633860724
 20
-60.56133223483939
 30
0.0
 10
180.1098527722749
 20
-60.57018508088652
 30
0.0
 10
179.9885934119151
 20
-60.55988539013939
 30
0.0
 10
179.872031804932
 20
-60.55809677211592
 30
0.0
 10
179.7589580675427
 20
-60.55771571869398
 30
0.0
 10
179.648545123802
 20
-60.55143139506913
 30
0.0
 10
179.5704328997389
 20
-60.5636945572373
 30
0.0
 10
179.4719830763192
 20
-60.53104701362968
 30
0.0
 10
179.481856010311
 20
-60.58788840924888
 30
0.0
 10
179.4780128173952
 20
-60.62166458421112
 30
0.0
 10
179.4772994813817
 20
-60.66438984269681
 30
0.0
 10
179.4769574572524
 20
-60.70156981716941
 30
0.0
 10
179.4770039184894
 20
-60.74071351608324
 30
0.0
 10
179.4769854359476
 20
-60.77841739481408
 30
0.0
 10
179.4769908361355
 20
-60.81613633746692
 30
0.0
 10
179.476990214375
 20
-60.84564264233945
 30
0.0
 10
179.4769903081094
 20
-60.87685011279793
 30
0.0
 10
179.4769909217469
 20
-60.92144164071009
 30
0.0
 10
179.4769876428887
 20
-60.97594632470245
 30
0.0
 10
179.476996455303
 20
-61.02053048777645
 30
0.0
 10
179.4769564582967
 20
-61.10440780393356
 30
0.0
 10
179.4782229199803
 20
-61.21821068301416
 30
0.0
 10
179.4756479047391
 20
-61.36728193045384
 30
0.0
 10
179.4871214311268
 20
-61.46961385165187
 30
0.0
 10
179.4629711151812
 20
-61.60219685093262
 30
0.0
 10
179.6139198876025
 20
-61.55662856707071
 30
0.0
 10
179.7234641601104
 20
-61.57131576816742
 30
0.0
 10
179.854017540347
 20
-61.56638153854031
 30
0.0
 10
179.9796517139062
 20
-61.56300883655734
 30
0.0
 10
180.099493555515
 20
-61.55847091480321
 30
0.0
 10
180.2197567540975
 20
-61.54510052797089
 30
0.0
 10
180.3028966593064
 20
-61.55489876196501
 30
0.0
 10
180.4262285350624
 20
-61.49432374355774
 30
0.0
 10
180.4050474133505
 20
-61.55026128845073
 30
0.0
 10
180.4042155199666
 20
-61.57619339606747
 30
0.0
 10
180.4025168637107
 20
-61.60361332788155
 30
0.0
 10
180.4024179818377
 20
-61.63820393772709
 30
0.0
 10
180.4009864230879
 20
-61.67508180758327
 30
0.0
 10
180.4339009121738
 20
-61.76711747957285
 30
0.0
 10
180.2357511917658
 20
-61.69426573004266
 30
0.0
 10
180.1106753224439
 20
-61.71732862470486
 30
0.0
 10
179.9479276224705
 20
-61.71104566993307
 30
0.0
 10
179.7935571379549
 20
-61.71297645069166
 30
0.0
 10
179.6372875366493
 20
-61.71164826379827
 30
0.0
 10
179.477674939483
 20
-61.71498716491231
 30
0.0
 10
179.3346531271786
 20
-61.70292793250854
 30
0.0
 10
179.1003349811177
 20
-61.76606587002174
 30
0.0
 10
179.1980015680746
 20
-61.47938061512777
 30
0.0
 10
179.1813073709608
 20
-61.28570280836433
 30
0.0
 10
179.1952501639233
 20
-61.05710346098798
 30
0.0
 10
179.1949192776182
 20
-60.90173995024047
 30
0.0
 10
179.1949283048812
 20
-60.79592252534968
 30
0.0
 10
179.1949260805866
 20
-60.73352804854881
 30
0.0
 10
179.1949270481437
 20
-60.64338163730766
 30
0.0
 10
179.194927040281
 20
-60.53937421821654
 30
0.0
 10
179.1949258790651
 20
-60.43536457603797
 30
0.0
 10
179.1949295901052
 20
-60.34522345290328
 30
0.0
 10
179.19492159806
 20
-60.28281785881879
 30
0.0
 10
179.1949539204568
 20
-60.17689753017977
 30
0.0
 10
179.1937645717868
 20
-60.01931872434354
 30
0.0
 10
179.1888421418805
 20
-59.87030369157027
 30
0.0
 10
179.1863993306167
 20
-59.79635328580903
 30
0.0
 11
179.1863993306167
 21
-59.79635328580903
 31
0.0
 11
179.1773123153289
 21
-59.57620010878076
 31
0.0
 11
179.1674454502682
 21
-59.35598078591914
 31
0.0
 11
179.3217780070949
 21
-59.36246197515365
 31
0.0
 11
179.4752705118595
 21
-59.36803696647169
 31
0.0
 11
179.6287365582915
 21
-59.37191421473462
 31
0.0
 11
179.7831749484488
 21
-59.37320516091486
 31
0.0
 11
179.9371040157022
 21
-59.37191421473463
 31
0.0
 11
180.0893595934149
 21
-59.36803696647169
 31
0.0
 11
180.2415318480623
 21
-59.36246197515366
 31
0.0
 11
180.3954569692032
 21
-59.35598078591914
 31
0.0
 11
180.3877016632673
 21
-59.40763627201736
 31
0.0
 11
180.385119655314
 21
-59.45915946644891
 31
0.0
 11
180.3877016632673
 21
-59.51082928414435
 31
0.0
 11
180.3954569692032
 21
-59.56242634142311
 31
0.0
 11
180.290107898396
 21
-59.55557142823037
 31
0.0
 11
180.1942580629609
 21
-59.54865036920438
 31
0.0
 11
180.1004798101452
 21
-59.54180207059495
 31
0.0
 11
180.001588484543
 21
-59.53495377198553
 31
0.0
 11
179.8953737129472
 21
-59.5284758900427
 31
0.0
 11
179.7797265457587
 21
-59.52289759143301
 31
0.0
 11
179.6472331376807
 21
-59.51902034317006
 31
0.0
 11
179.4907750947972
 21
-59.51772939698981
 31
0.0
 11
179.486886822327
 21
-59.62521527369907
 31
0.0
 11
179.4821584977949
 21
-59.72753516082631
 31
0.0
 11
179.4782812496298
 21
-59.83420413649407
 31
0.0
 11
179.4769903034821
 21
-59.95456529965844
 31
0.0
 11
179.4774004076384
 21
-60.08702233087529
 31
0.0
 11
179.4787100951051
 21
-60.21605300792638
 31
0.0
 11
179.4800279506598
 21
-60.32781190546784
 31
0.0
 11
179.4804396083209
 21
-60.4086343967671
 31
0.0
 11
179.6240657865423
 21
-60.40778332037844
 31
0.0
 11
179.7522548860307
 21
-60.40518599399016
 31
0.0
 11
179.8674283151344
 21
-60.4013307943384
 31
0.0
 11
179.9723961241769
 21
-60.39656939677019
 31
0.0
 11
180.068255121897
 21
-60.3914056120492
 31
0.0
 11
180.1563618303742
 21
-60.38624182732826
 31
0.0
 11
180.2385086368045
 21
-60.38067345059355
 31
0.0
 11
180.316389726512
 21
-60.3742650217757
 31
0.0
 11
180.3086385374735
 21
-60.42674181863758
 31
0.0
 11
180.3060533378866
 21
-60.48089210508238
 31
0.0
 11
180.3086385374735
 21
-60.53248144534726
 31
0.0
 11
180.316389726512
 21
-60.58407078561211
 31
0.0
 11
180.2196018383563
 21
-60.57466264325338
 31
0.0
 11
180.1082155651564
 21
-60.56693460506082
 31
0.0
 11
179.9895466358922
 21
-60.56133315540949
 31
0.0
 11
179.8709372378762
 21
-60.55831800784083
 31
0.0
 11
179.755623004707
 21
-60.55659821617455
 31
0.0
 11
179.6473466880248
 21
-60.55487842450836
 31
0.0
 11
179.5531044247257
 21
-60.55356101999477
 31
0.0
 11
179.4804396083209
 21
-60.55314981339765
 31
0.0
 11
179.4800279506598
 21
-60.58539480470904
 31
0.0
 11
179.4787100951051
 21
-60.62015995226977
 31
0.0
 11
179.4774004076385
 21
-60.6610788671901
 31
0.0
 11
179.4769903034821
 21
-60.71137064669142
 31
0.0
 11
179.4769903034821
 21
-60.73232371743272
 31
0.0
 11
179.4769903034821
 21
-60.77842047306358
 31
0.0
 11
179.4769903034821
 21
-60.82451722869443
 31
0.0
 11
179.4769903034821
 21
-60.84547029943573
 31
0.0
 11
179.4769903034821
 21
-60.86694063720815
 31
0.0
 11
179.4769903034821
 21
-60.9181391349731
 31
0.0
 11
179.4769903034821
 21
-60.97924701940227
 31
0.0
 11
179.4769903034821
 21
-61.03044551716723
 31
0.0
 11
179.4769903034821
 21
-61.05191585493964
 31
0.0
 11
179.4774004076384
 21
-61.23076867607546
 31
0.0
 11
179.4787100951051
 21
-61.37532488263651
 31
0.0
 11
179.4809073519258
 21
-61.48708378017805
 31
0.0
 11
179.4838791916534
 21
-61.56790627147728
 31
0.0
 11
179.6008297446996
 21
-61.56790627147728
 31
0.0
 11
179.7246932138295
 21
-61.56790627147728
 31
0.0
 11
179.8541130455971
 21
-61.56661532529704
 31
0.0
 11
179.9810127211793
 21
-61.56273807703411
 31
0.0
 11
180.1030862997522
 21
-61.55671880620228
 31
0.0
 11
180.2183792429012
 21
-61.54895328537091
 31
0.0
 11
180.3227959503067
 21
-61.53824427495692
 31
0.0
 11
180.4126804184997
 21
-61.52320932704402
 31
0.0
 11
180.4070458960739
 21
-61.54860161002379
 31
0.0
 11
180.4040638214972
 21
-61.57651404925292
 31
0.0
 11
180.4027544810748
 21
-61.60446397112092
 31
0.0
 11
180.4023440298743
 21
-61.62982759090622
 31
0.0
 11
180.4049292294613
 21
-61.67974233915769
 31
0.0
 11
180.4126804184997
 21
-61.71931849366166
 31
0.0
 11
180.2583182107893
 21
-61.71413155789909
 31
0.0
 11
180.1048562748314
 21
-61.71243050755231
 31
0.0
 11
179.9503994426032
 21
-61.71243050755231
 31
0.0
 11
179.7934231426317
 21
-61.71243050755231
 31
0.0
 11
179.6360909851085
 21
-61.71243050755231
 31
0.0
 11
179.4804396083209
 21
-61.71243050755231
 31
0.0
 11
179.324782580379
 21
-61.71413155789909
 31
0.0
 11
179.1674454502682
 21
-61.71931849366166
 31
0.0
 11
179.1773123153289
 21
-61.49957321593884
 31
0.0
 11
179.1863993306167
 21
-61.28067460488242
 31
0.0
 11
179.1927926447949
 21
-61.06007825077091
 31
0.0
 11
179.1949268384558
 21
-60.83522210499379
 31
0.0
 11
179.1949268384558
 21
-60.8097976448222
 31
0.0
 11
179.1949268384558
 21
-60.74276952255163
 31
0.0
 11
179.1949268384558
 21
-60.6480056255484
 31
0.0
 11
179.1949268384558
 21
-60.53937384117886
 31
0.0
 11
179.1949268384558
 21
-60.43074205680931
 31
0.0
 11
179.1949268384558
 21
-60.3359781598061
 31
0.0
 11
179.1949268384558
 21
-60.26895003753553
 31
0.0
 11
179.1949268384558
 21
-60.24352557736393
 31
0.0
 11
179.1927926447949
 21
-60.01822625450359
 31
0.0
 11
179.1863993306167
 21
-59.79635328580903
 31
0.0
  0
SPLINE
  5
AD
102
{ACAD_REACTORS
330
CA
102
}
330
48
100
AcDbEntity
  8
_U_30EC_U_30A4_U_30E4_U_30FC_1
  6
Continuous
 62
     2
100
AcDbSpline
210
0.0
220
0.0
230
1.0
 70
    11
 71
     3
 72
    95
 73
    91
 74
    89
 42
0.000000001
 43
0.0000000001
 44
0.00000001
 40
0.0
 40
0.0
 40
0.0
 40
0.0
 40
0.6550406656910797
 40
1.30808728903188
 40
1.420803739835735
 40
1.566130759770738
 40
1.757067341888409
 40
2.006513545026405
 40
2.087328263121482
 40
2.185328872295552
 40
2.294612454748297
 40
2.408936380534745
 40
2.526802767798515
 40
2.646360524615564
 40
2.762535723971543
 40
2.870057342870111
 40
2.966883448431588
 40
3.050803243518218
 40
3.115818222436564
 40
3.156030057150181
 40
3.213914225080082
 40
3.276689026450454
 40
3.342960320981232
 40
3.404230667150508
 40
3.453822809493301
 40
3.532499827188372
 40
3.634775188507098
 40
3.754909333008096
 40
3.889736761660589
 40
4.035769602175151
 40
4.187256681197547
 40
4.338733685675881
 40
4.488478734676051
 40
4.634708317831524
 40
4.771493189921208
 40
4.892686571561145
 40
5.199775528944379
 40
5.460353566929574
 40
5.667603142345444
 40
5.814722905404419
 40
5.828990806219745
 40
5.855488336304414
 40
5.869756237118717
 40
6.189796507762731
 40
6.531890469872899
 40
6.883053637016905
 40
7.230512024911388
 40
7.566966656764482
 40
7.885203559707319
 40
8.172887439719128
 40
8.418011594062644
 40
8.443926721190568
 40
8.510760470613047
 40
8.602145393795556
 40
8.70171404164699
 40
8.793098965075227
 40
8.859932715057806
 40
8.885847842603443
 40
9.242301256612665
 40
9.589275455016617
 40
9.921808543164012
 40
10.23479624298454
 40
10.29968150889165
 40
10.35323493887753
 40
10.40154625355134
 40
10.4648292247781
 40
10.55973900668393
 40
10.69239545985606
 40
10.8492035347566
 40
11.01626328594766
 40
11.1867202436743
 40
11.35372582577197
 40
11.50257442292413
 40
11.61866495023278
 40
11.71329869152861
 40
11.82511050573894
 40
11.94464880845701
 40
12.06929242642495
 40
12.19707290435163
 40
12.32562632860517
 40
12.45034565331267
 40
12.56646595170314
 40
12.67099007414622
 40
12.7607762593677
 40
12.82703233506682
 40
12.8742913278598
 40
12.89831990323319
 40
12.92234847860008
 40
13.53984767410307
 40
14.18294284359357
 40
14.18294284359357
 40
14.18294284359357
 40
14.18294284359357
 10
176.5874140577569
 20
-60.82660550777371
 30
0.0
 10
176.4558224688099
 20
-60.7129353037586
 30
0.0
 10
176.1930398732278
 20
-60.48594092662932
 30
0.0
 10
175.6803598370568
 20
-59.64344126022804
 30
0.0
 10
175.6912859524912
 20
-60.00135211402076
 30
0.0
 10
175.684743145754
 20
-60.14291196706959
 30
0.0
 10
175.6834231561321
 20
-60.34137283679814
 30
0.0
 10
175.6824322532087
 20
-60.51408292933111
 30
0.0
 10
175.6830306681524
 20
-60.65693215721514
 30
0.0
 10
175.6845199231432
 20
-60.75293583565735
 30
0.0
 10
175.6861888518021
 20
-60.86013085715952
 30
0.0
 10
175.6878139884167
 20
-60.97394377461512
 30
0.0
 10
175.6898634431234
 20
-61.09117016374505
 30
0.0
 10
175.6929370431475
 20
-61.20902177746125
 30
0.0
 10
175.6962544626593
 20
-61.32330501658475
 30
0.0
 10
175.6999810269828
 20
-61.43037187111819
 30
0.0
 10
175.7023543090973
 20
-61.52551180212172
 30
0.0
 10
175.7084923817905
 20
-61.61000031773398
 30
0.0
 10
175.7045989425496
 20
-61.66635501680952
 30
0.0
 10
175.7261435372625
 20
-61.73733566506738
 30
0.0
 10
175.6487144988167
 20
-61.70655911374613
 30
0.0
 10
175.592255816974
 20
-61.71547346461479
 30
0.0
 10
175.5346700826356
 20
-61.70662370580821
 30
0.0
 10
175.4496368408021
 20
-61.73820363753148
 30
0.0
 10
175.4815919075931
 20
-61.65463432986905
 30
0.0
 10
175.4796910212088
 20
-61.58675980010785
 30
0.0
 10
175.4914164976849
 20
-61.48325332214675
 30
0.0
 10
175.4970445982549
 20
-61.365564633624
 30
0.0
 10
175.504410710849
 20
-61.23169979814671
 30
0.0
 10
175.512696463116
 20
-61.08794436106465
 30
0.0
 10
175.5205056826976
 20
-60.9384456613565
 30
0.0
 10
175.5263776152206
 20
-60.78766039577015
 30
0.0
 10
175.5309872747517
 20
-60.63858645100657
 30
0.0
 10
175.5348837047092
 20
-60.49435675816073
 30
0.0
 10
175.5376920056113
 20
-60.35974683766077
 30
0.0
 10
175.5382903684571
 20
-60.17088974631739
 30
0.0
 10
175.5422228796699
 20
-59.94583094665941
 30
0.0
 10
175.5248380308047
 20
-59.67191497853388
 30
0.0
 10
175.565662227213
 20
-59.50771476880493
 30
0.0
 10
175.4801358185553
 20
-59.30808927514005
 30
0.0
 10
175.5466763837237
 20
-59.31173130575116
 30
0.0
 10
175.564492920278
 20
-59.31145141818242
 30
0.0
 10
175.6863006727048
 20
-59.30925661580476
 30
0.0
 10
175.7886975265013
 20
-59.5888347025758
 30
0.0
 10
176.0386226438904
 20
-59.78995580443093
 30
0.0
 10
176.267624026066
 20
-60.05765973991176
 30
0.0
 10
176.5051356142658
 20
-60.3091217511672
 30
0.0
 10
176.7292295670321
 20
-60.54588614917732
 30
0.0
 10
176.9556921212559
 20
-60.80339896396018
 30
0.0
 10
177.1131892816063
 20
-60.91909253922168
 30
0.0
 10
177.3278334542223
 20
-61.25561436440294
 30
0.0
 10
177.3228850904167
 20
-61.13093834887491
 30
0.0
 10
177.3240136532095
 20
-61.07230897043355
 30
0.0
 10
177.3235082771065
 20
-60.98514926607118
 30
0.0
 10
177.3236680087662
 20
-60.8914244579622
 30
0.0
 10
177.3236259820867
 20
-60.80539617682059
 30
0.0
 10
177.3236406969921
 20
-60.74404697033599
 30
0.0
 10
177.3235911185533
 20
-60.59423357458099
 30
0.0
 10
177.3265016452359
 20
-60.35568976468989
 30
0.0
 10
177.3065725970711
 20
-59.99072079110394
 30
0.0
 10
177.3556638865796
 20
-59.72758956985683
 30
0.0
 10
177.1984156438729
 20
-59.3162968403134
 30
0.0
 10
177.356831780197
 20
-59.37160306427345
 30
0.0
 10
177.4117885408177
 20
-59.37358902478917
 30
0.0
 10
177.4634092696289
 20
-59.37293810730842
 30
0.0
 10
177.5519403894915
 20
-59.33189061240846
 30
0.0
 10
177.5011103232716
 20
-59.47862262356105
 30
0.0
 10
177.5119594859831
 20
-59.58538617024664
 30
0.0
 10
177.4972241924396
 20
-59.74472883564983
 30
0.0
 10
177.4906181375754
 20
-59.90705527326221
 30
0.0
 10
177.4821166329464
 20
-60.07566067086698
 30
0.0
 10
177.4749432131748
 20
-60.23743774275554
 30
0.0
 10
177.4695268144937
 20
-60.38136257521161
 30
0.0
 10
177.4677918897197
 20
-60.50121095512169
 30
0.0
 10
177.4681645601868
 20
-60.60872487388578
 30
0.0
 10
177.4679861055812
 20
-60.71738564333506
 30
0.0
 10
177.4683215792687
 20
-60.83605018813563
 30
0.0
 10
177.4696245551733
 20
-60.96003425466353
 30
0.0
 10
177.4715092281123
 20
-61.08700294807991
 30
0.0
 10
177.47312093844
 20
-61.21404727428063
 30
0.0
 10
177.4747608066978
 20
-61.33703704486916
 30
0.0
 10
177.47687756753
 20
-61.45257657595336
 30
0.0
 10
177.4770053351913
 20
-61.55467685023257
 30
0.0
 10
177.4812719326103
 20
-61.64548740140938
 30
0.0
 10
177.4714645014838
 20
-61.70344967770308
 30
0.0
 10
177.4924679701238
 20
-61.77041458847064
 30
0.0
 10
177.4531844669445
 20
-61.76267435012407
 30
0.0
 10
177.2401512047298
 20
-61.778033348339
 30
0.0
 10
177.0442502872734
 20
-61.22155530884622
 30
0.0
 10
176.7417402561092
 20
-60.96002553630583
 30
0.0
 10
176.5874140577569
 20
-60.82660550777371
 30
0.0
 11
176.5874140577569
 21
-60.82660550777371
 31
0.0
 11
176.140173426806
 21
-60.34800953567117
 31
0.0
 11
175.6930254000192
 21
-59.87205939690125
 31
0.0
 11
175.6895869192043
 21
-59.98472338992861
 31
0.0
 11
175.6861815113049
 21
-60.13001050794784
 31
0.0
 11
175.6835841849823
 21
-60.32092943151127
 31
0.0
 11
175.6827331086152
 21
-60.57037418839337
 31
0.0
 11
175.6831444159838
 21
-60.65118786024813
 31
0.0
 11
175.6844625259366
 21
-60.74917960501531
 31
0.0
 11
175.6861397197267
 21
-60.85845031679354
 31
0.0
 11
175.6878572057067
 21
-60.97276134107054
 31
0.0
 11
175.6900212768321
 21
-61.09060786013829
 31
0.0
 11
175.6930254000192
 21
-61.21012786878896
 31
0.0
 11
175.6964564662687
 21
-61.3262523913294
 31
0.0
 11
175.6999133859547
 21
-61.43371842428866
 31
0.0
 11
175.7033290182637
 21
-61.53048426627829
 31
0.0
 11
175.7068101913341
 21
-61.6143318270212
 31
0.0
 11
175.7102211113861
 21
-61.67925726971335
 31
0.0
 11
175.7136981772697
 21
-61.71931849366166
 31
0.0
 11
175.656046875112
 21
-61.71413155789909
 31
0.0
 11
175.5932951247858
 21
-61.71243050755231
 31
0.0
 11
175.5270456646706
 21
-61.71413155789909
 31
0.0
 11
175.4659952669224
 21
-61.71931849366166
 31
0.0
 11
175.4732977667361
 21
-61.67026694853504
 31
0.0
 11
175.4814998498603
 21
-61.59201863258238
 31
0.0
 11
175.4896303751897
 21
-61.49006695726065
 31
0.0
 11
175.4969611370946
 21
-61.37015668819342
 31
0.0
 11
175.5042563209971
 21
-61.23552676635205
 31
0.0
 11
175.5124649185145
 21
-61.0897248132635
 31
0.0
 11
175.5201709079015
 21
-60.93843385844021
 31
0.0
 11
175.5261967931642
 21
-60.78707675778361
 31
0.0
 11
175.5309251176965
 21
-60.63740637587659
 31
0.0
 11
175.5348133901669
 21
-60.49122849396872
 31
0.0
 11
175.5373732338514
 21
-60.35446757386398
 31
0.0
 11
175.5382529734123
 21
-60.23327738292204
 31
0.0
 11
175.5378131036319
 21
-59.9261887371655
 31
0.0
 11
175.5365331817896
 21
-59.66561384139729
 31
0.0
 11
175.5334863647441
 21
-59.45838666262969
 31
0.0
 11
175.5279254042312
 21
-59.31137203593033
 31
0.0
 11
175.5421933051018
 21
-59.31137203593033
 31
0.0
 11
175.5686908352901
 21
-59.31137203593033
 31
0.0
 11
175.5829587361607
 21
-59.31137203593033
 31
0.0
 11
175.8000948579826
 21
-59.54648409316322
 31
0.0
 11
176.0318949052628
 21
-59.79807307747532
 31
0.0
 11
176.2701020948388
 21
-60.05609033435523
 31
0.0
 11
176.506627948707
 21
-60.31061509123606
 31
0.0
 11
176.7361903647254
 21
-60.55658829429956
 31
0.0
 11
176.9538002289652
 21
-60.78879654944987
 31
0.0
 11
177.1519929843256
 21
-60.99731908411993
 31
0.0
 11
177.3236348028635
 21
-61.17231891046504
 31
0.0
 11
177.3236348028635
 21
-61.1464037829205
 31
0.0
 11
177.3236348028635
 21
-61.07957003293722
 31
0.0
 11
177.3236348028635
 21
-60.98818510949069
 31
0.0
 11
177.3236348028635
 21
-60.88861646155641
 31
0.0
 11
177.3236348028635
 21
-60.79723153810987
 31
0.0
 11
177.3236348028635
 21
-60.73039778812658
 31
0.0
 11
177.3236348028635
 21
-60.70448266058205
 31
0.0
 11
177.3223438567158
 21
-60.34803158428227
 31
0.0
 11
177.3184666085507
 21
-60.00107904964679
 31
0.0
 11
177.3102402719551
 21
-59.66864773028544
 31
0.0
 11
177.2960740396777
 21
-59.35598078591914
 31
0.0
 11
177.3596556179167
 21
-59.36892221820759
 31
0.0
 11
177.413037508916
 21
-59.37320516091486
 31
0.0
 11
177.4611586014382
 21
-59.36892221820759
 31
0.0
 11
177.5231041727746
 21
-59.35598078591914
 31
0.0
 11
177.5157421417123
 21
-59.45060460533994
 31
0.0
 11
177.5075995898366
 21
-59.58301092475131
 31
0.0
 11
177.4989910293553
 21
-59.73958252193439
 31
0.0
 11
177.4903752152764
 21
-59.90641995244823
 31
0.0
 11
177.4822392779838
 21
-60.07668263469733
 31
0.0
 11
177.4748706323384
 21
-60.24352557736393
 31
0.0
 11
177.469761186107
 21
-60.39228645406284
 31
0.0
 11
177.4680708408453
 21
-60.50836467451993
 31
0.0
 11
177.4680708408453
 21
-60.60299841581575
 31
0.0
 11
177.4680708408453
 21
-60.71481023002386
 31
0.0
 11
177.4684666134045
 21
-60.83434787756344
 31
0.0
 11
177.4697024380257
 21
-60.95898536885176
 31
0.0
 11
177.4714597122866
 21
-61.08675376291703
 31
0.0
 11
177.4731508407157
 21
-61.21529606323216
 31
0.0
 11
177.4749081149764
 21
-61.34000300764539
 31
0.0
 11
177.4765992434054
 21
-61.45611099372744
 31
0.0
 11
177.4779089308721
 21
-61.56062692252076
 31
0.0
 11
177.4783190350284
 21
-61.65041217423442
 31
0.0
 11
177.4783190350284
 21
-61.71666825060679
 31
0.0
 11
177.4783190350284
 21
-61.76392724365053
 31
0.0
 11
177.4542904592525
 21
-61.76392724365053
 31
0.0
 11
177.4302618834766
 21
-61.76392724365053
 31
0.0
 11
177.0216934129972
 21
-61.30091853716904
 31
0.0
 11
176.5874140577569
 21
-60.82660550777371
 31
0.0
  0
SPLINE
  5
AE
102
{ACAD_REACTORS
330
CB
102
}
330
48
100
AcDbEntity
  8
_U_30EC_U_30A4_U_30E4_U_30FC_1
  6
Continuous
 62
     2
100
AcDbSpline
210
0.0
220
0.0
230
1.0
 70
    11
 71
     3
 72
    25
 73
    21
 74
    19
 42
0.000000001
 43
0.0000000001
 44
0.00000001
 40
0.0
 40
0.0
 40
0.0
 40
0.0
 40
0.0911479969064824
 40
0.1858117896204666
 40
0.2804128399734492
 40
0.3715889190713659
 40
0.4679080494218141
 40
0.564268380922895
 40
0.6605683222644708
 40
0.7569653015809973
 40
0.8561348172522505
 40
1.092615965104258
 40
1.374867658141827
 40
1.611348812011545
 40
1.710518328425201
 40
1.809403163726528
 40
2.04520546329404
 40
2.326646917622063
 40
2.562449217190546
 40
2.661334043833852
 40
2.661334043833852
 40
2.661334043833852
 40
2.661334043833852
 10
172.5489905496748
 20
-60.64944050781801
 30
0.0
 10
172.5793730847471
 20
-60.64960509264539
 30
0.0
 10
172.6413100818661
 20
-60.64994060289176
 30
0.0
 10
172.7347561889879
 20
-60.65289533527093
 30
0.0
 10
172.8281300165906
 20
-60.65580836101944
 30
0.0
 10
172.9223965683025
 20
-60.65664387335677
 30
0.0
 10
173.0161169720515
 20
-60.65561944321048
 30
0.0
 10
173.1158245232753
 20
-60.65641611508119
 30
0.0
 10
173.1995154475862
 20
-60.64637178743877
 30
0.0
 10
173.3444201244594
 20
-60.67323971304926
 30
0.0
 10
173.220233737435
 20
-60.4989305869905
 30
0.0
 10
173.177207221583
 20
-60.33906877972998
 30
0.0
 10
173.0615127071759
 20
-60.08040130428881
 30
0.0
 10
172.9823770360806
 20
-59.94327536117233
 30
0.0
 10
172.9237781551365
 20
-59.72621555845018
 30
0.0
 10
172.8671008868987
 20
-59.94292454765666
 30
0.0
 10
172.7859014830026
 20
-60.08231576540858
 30
0.0
 10
172.6869906211038
 20
-60.331516196089
 30
0.0
 10
172.6059830023807
 20
-60.51632758753018
 30
0.0
 10
172.5619888255387
 20
-60.61908142122977
 30
0.0
 10
172.5489905496748
 20
-60.64944050781801
 30
0.0
 11
172.5489905496748
 21
-60.64944050781801
 31
0.0
 11
172.6401342667369
 21
-60.65032465712335
 31
0.0
 11
172.734763322713
 21
-60.65288891059495
 31
0.0
 11
172.8293287109255
 21
-60.65548623698317
 31
0.0
 11
172.9205008179744
 21
-60.65633731337184
 31
0.0
 11
173.0168190707254
 21
-60.65592610677472
 31
0.0
 11
173.1131703963925
 21
-60.65460870226121
 31
0.0
 11
173.2094467567835
 21
-60.6524777039978
 31
0.0
 11
173.3057958775892
 21
-60.64944050781801
 31
0.0
 11
173.266083825269
 21
-60.55856946784073
 31
0.0
 11
173.1713858543517
 21
-60.34187698789491
 31
0.0
 11
173.058359243902
 21
-60.08324402795959
 31
0.0
 11
172.9636612729846
 21
-59.86655154801377
 31
0.0
 11
172.9239492206644
 21
-59.77568050803649
 31
0.0
 11
172.8849535188815
 21
-59.86655154801377
 31
0.0
 11
172.7919637684761
 21
-60.08324402795959
 31
0.0
 11
172.6809760018632
 21
-60.34187698789491
 31
0.0
 11
172.5879862514577
 21
-60.55856946784073
 31
0.0
 11
172.5489905496748
 21
-60.64944050781801
 31
0.0
  0
SPLINE
  5
AF
102
{ACAD_REACTORS
330
CB
102
}
330
48
100
AcDbEntity
  8
_U_30EC_U_30A4_U_30E4_U_30FC_1
  6
Continuous
 62
     2
100
AcDbSpline
210
0.0
220
0.0
230
1.0
 70
    11
 71
     3
 72
    57
 73
    53
 74
    51
 42
0.000000001
 43
0.0000000001
 44
0.00000001
 40
0.0
 40
0.0
 40
0.0
 40
0.0
 40
0.0471632082809213
 40
0.0914861054631853
 40
0.1357762519702089
 40
0.1826527001610668
 40
0.2295203288572293
 40
0.2737751972220462
 40
0.3181310461542774
 40
0.3652607198398211
 40
0.457100728631419
 40
0.5671851029164929
 40
0.6894623283867931
 40
0.8181758272545584
 40
0.951008722927382
 40
1.08585222967402
 40
1.218126164475277
 40
1.34354513114235
 40
1.454537202956738
 40
1.567187607530776
 40
1.680710966642337
 40
1.794226869736758
 40
1.900009184247529
 40
2.004085860447809
 40
2.108162674451725
 40
2.214000150155242
 40
2.49603857735208
 40
2.762350745479224
 40
2.997275353279357
 40
3.185110082137661
 40
3.246407890063915
 40
3.312607550212731
 40
3.378877742711576
 40
3.440140399651373
 40
4.100501696006384
 40
4.754913085563437
 40
5.411331693423827
 40
6.077890432568614
 40
6.110575292670893
 40
6.143260152775673
 40
6.367989363395038
 40
6.610525374951441
 40
6.863389136467208
 40
7.119380025547493
 40
7.376036605090984
 40
7.631164770966151
 40
7.876722425456313
 40
8.104953735855855
 40
8.3129166859242
 40
8.497730294941205
 40
8.651018984313755
 40
8.764738853624468
 40
8.764738853624468
 40
8.764738853624468
 40
8.764738853624468
 10
174.0728854430062
 20
-61.71931849366166
 30
0.0
 10
174.0572821656479
 20
-61.71732357900017
 30
0.0
 10
174.0270152889851
 20
-61.71345387618796
 30
0.0
 10
173.9817199131801
 20
-61.71216604011826
 30
0.0
 10
173.9365758058898
 20
-61.71249905425042
 30
0.0
 10
173.8905222052948
 20
-61.7124393030487
 30
0.0
 10
173.8446701101645
 20
-61.71232775329093
 30
0.0
 10
173.7989916577714
 20
-61.71280755522501
 30
0.0
 10
173.7557016471158
 20
-61.71097479360375
 30
0.0
 10
173.6846152881062
 20
-61.73509032164434
 30
0.0
 10
173.6863682190989
 20
-61.61373895001844
 30
0.0
 10
173.6392401300118
 20
-61.52832349227864
 30
0.0
 10
173.5997683181311
 20
-61.4107165963396
 30
0.0
 10
173.5512840462194
 20
-61.29325836438656
 30
0.0
 10
173.5007222332071
 20
-61.17152653217583
 30
0.0
 10
173.4524839540026
 20
-61.04482621116627
 30
0.0
 10
173.3941437877143
 20
-60.93624901194143
 30
0.0
 10
173.378709759681
 20
-60.77937931844687
 30
0.0
 10
173.2372791260184
 20
-60.81185142430773
 30
0.0
 10
173.1314602344453
 20
-60.80045700296915
 30
0.0
 10
173.0164774654771
 20
-60.80165997464479
 30
0.0
 10
172.905934718169
 20
-60.80051643631685
 30
0.0
 10
172.7982788452332
 20
-60.80140238941568
 30
0.0
 10
172.6927527458791
 20
-60.80141986588576
 30
0.0
 10
172.5915397611562
 20
-60.80844556506679
 30
0.0
 10
172.4073009757302
 20
-60.78422729119229
 30
0.0
 10
172.396359861496
 20
-61.08816897857208
 30
0.0
 10
172.2893896564298
 20
-61.31205411725696
 30
0.0
 10
172.1904353533895
 20
-61.49663274686598
 30
0.0
 10
172.2031295453556
 20
-61.74028384174884
 30
0.0
 10
172.0856296645945
 20
-61.71050542225899
 30
0.0
 10
172.0228260797858
 20
-61.71300499469488
 30
0.0
 10
171.9592077022948
 20
-61.71214513876289
 30
0.0
 10
171.6752219123624
 20
-61.75460549037147
 30
0.0
 10
172.305784342893
 20
-61.03476636534307
 30
0.0
 10
172.389385021862
 20
-60.52282049543363
 30
0.0
 10
172.7735457718887
 20
-60.0020484542905
 30
0.0
 10
172.7583413218115
 20
-59.30038962725882
 30
0.0
 10
173.0045470652246
 20
-59.31212955897839
 30
0.0
 10
173.1062551087111
 20
-59.30333584526321
 30
0.0
 10
173.1055956965367
 20
-59.55498938248748
 30
0.0
 10
173.2234522085377
 20
-59.73740568245137
 30
0.0
 10
173.3121720190034
 20
-59.97994848316226
 30
0.0
 10
173.4128497414808
 20
-60.21218558448966
 30
0.0
 10
173.5117347641792
 20
-60.44883944412177
 30
0.0
 10
173.6105881920217
 20
-60.68096849809007
 30
0.0
 10
173.7062371320475
 20
-60.90436366190303
 30
0.0
 10
173.796610950282
 20
-61.11286039929778
 30
0.0
 10
173.8796149497738
 20
-61.30250140449775
 30
0.0
 10
173.9532293512348
 20
-61.46895482910993
 30
0.0
 10
174.0149020825094
 20
-61.60640889352995
 30
0.0
 10
174.0555663815153
 20
-61.68559349549061
 30
0.0
 10
174.0728854430062
 20
-61.71931849366166
 30
0.0
 11
174.0728854430062
 21
-61.71931849366166
 31
0.0
 11
174.0260083246996
 21
-61.71413155789909
 31
0.0
 11
173.9817180825674
 21
-61.71243050755231
 31
0.0
 11
173.9374279361278
 21
-61.71243050755231
 31
0.0
 11
173.8905514876708
 21
-61.71243050755231
 31
0.0
 11
173.8436838586582
 21
-61.71243050755231
 31
0.0
 11
173.7994289899957
 21
-61.71243050755231
 31
0.0
 11
173.7551057706403
 21
-61.71413155789909
 31
0.0
 11
173.7082623950992
 21
-61.71931849366166
 31
0.0
 11
173.6798737065874
 21
-61.63197622805851
 31
0.0
 11
173.6428926745446
 21
-61.52828932704276
 31
0.0
 11
173.599459116625
 21
-61.41398601977968
 31
0.0
 11
173.5517260796485
 21
-61.29445057710126
 31
0.0
 11
173.5014365062786
 21
-61.17150531671528
 31
0.0
 11
173.4502671933481
 21
-61.04674766049647
 31
0.0
 11
173.4003736730875
 21
-60.92424447476323
 31
0.0
 11
173.353932404139
 21
-60.80774071611177
 31
0.0
 11
173.2429816837138
 21
-60.80471123694588
 31
0.0
 11
173.1303514154638
 21
-60.80258134111304
 31
0.0
 11
173.0168356998998
 21
-60.80126393659954
 31
0.0
 11
172.9033205406349
 21
-60.80085273000242
 31
0.0
 11
172.7975390242365
 21
-60.80126393659954
 31
0.0
 11
172.6934706848774
 21
-60.80258134111304
 31
0.0
 11
172.5894156653594
 21
-60.80471123694588
 31
0.0
 11
172.4836215545145
 21
-60.80774071611177
 31
0.0
 11
172.3787119679687
 21
-61.06954151465743
 31
0.0
 11
172.284107361988
 21
-61.31848356320634
 31
0.0
 11
172.2058436139847
 21
-61.53998832009538
 31
0.0
 11
172.1499636154104
 21
-61.71931849366166
 31
0.0
 11
172.088885656899
 21
-61.71413155789909
 31
0.0
 11
172.0227078547678
 21
-61.71243050755231
 31
0.0
 11
171.9564594970831
 21
-61.71413155789909
 31
0.0
 11
171.8954168163487
 21
-61.71931849366166
 31
0.0
 11
172.1705889881479
 21
-61.11902080283951
 31
0.0
 11
172.4389150663719
 21
-60.52214946618318
 31
0.0
 11
172.7046482279953
 21
-59.92192343334713
 31
0.0
 11
172.9720945666582
 21
-59.31137203593033
 31
0.0
 11
173.0047794269355
 21
-59.31137203593033
 31
0.0
 11
173.0374642872128
 21
-59.31137203593033
 31
0.0
 11
173.1234505610606
 21
-59.5190004994201
 31
0.0
 11
173.2163490743158
 21
-59.74303974415577
 31
0.0
 11
173.3134919451012
 21
-59.97649925798625
 31
0.0
 11
173.412414138758
 21
-60.21260460514949
 31
0.0
 11
173.5121546179476
 21
-60.4490880859931
 31
0.0
 11
173.6119276058901
 21
-60.68389807725384
 31
0.0
 11
173.7086813186997
 21
-60.90959096782244
 31
0.0
 11
173.7994289899957
 21
-61.11900536881174
 31
0.0
 11
173.8828355764095
 21
-61.30950977848634
 31
0.0
 11
173.9576498192926
 21
-61.47850356316627
 31
0.0
 11
174.0216934116152
 21
-61.61777251278426
 31
0.0
 11
174.0728854430062
 21
-61.71931849366166
 31
0.0
  0
SPLINE
  5
B0
102
{ACAD_REACTORS
330
CC
102
}
330
48
100
AcDbEntity
  8
_U_30EC_U_30A4_U_30E4_U_30FC_1
  6
Continuous
 62
     2
100
AcDbSpline
210
0.0
220
0.0
230
1.0
 70
    11
 71
     3
 72
    99
 73
    95
 74
    93
 42
0.000000001
 43
0.0000000001
 44
0.00000001
 40
0.0
 40
0.0
 40
0.0
 40
0.0
 40
0.079641717227306
 40
0.1621768542356465
 40
0.2486489160957909
 40
0.340496966852483
 40
0.4381912511165186
 40
0.5434463660245481
 40
0.6518115192847805
 40
0.7530190937887075
 40
0.8492196919725578
 40
0.9419290312998437
 40
1.034249663570072
 40
1.12907860062022
 40
1.22669702757326
 40
1.327220425421724
 40
1.47057213493804
 40
1.595489863371255
 40
1.719934125348409
 40
1.850576620127454
 40
1.989059629987362
 40
2.134139054226953
 40
2.28069800720727
 40
2.424529739039546
 40
2.565929576985906
 40
2.708239260773607
 40
2.861717887443724
 40
3.045168540347438
 40
3.183798301138666
 40
3.314813961455532
 40
3.442083470447373
 40
3.569912708373022
 40
3.702177512509428
 40
3.842307559659598
 40
3.992872223245971
 40
4.156750662218387
 40
4.310981861107608
 40
4.445859909322651
 40
4.572393936131617
 40
4.70165671978202
 40
4.768279086008504
 40
4.835960697898467
 40
4.912788918729376
 40
5.006285208481573
 40
5.026909478751649
 40
5.047533749021242
 40
5.101808031471308
 40
5.162325165538628
 40
5.226919745995919
 40
5.294231806596774
 40
5.364544852554892
 40
5.438319055467986
 40
5.517877651324322
 40
5.607647714861606
 40
5.700449642544426
 40
5.788251142364214
 40
5.872714706039869
 40
5.955167292575425
 40
6.037192395190488
 40
6.120669181469192
 40
6.206848616686426
 40
6.296680855416855
 40
6.442558392872688
 40
6.568190371608357
 40
6.692904567360445
 40
6.824220446557193
 40
6.96312185032943
 40
7.107843738851247
 40
7.253431663907357
 40
7.39518746803676
 40
7.533140753237793
 40
7.670550457175294
 40
7.816236511769316
 40
7.98769165735927
 40
8.142277421969293
 40
8.293662615415045
 40
8.442962460879315
 40
8.591598316185372
 40
8.743678992361819
 40
8.903725323699202
 40
9.076307008890552
 40
9.265578604680634
 40
9.459203795360752
 40
9.617619810273565
 40
9.753609671361973
 40
9.874873300004124
 40
9.954520184977836
 40
10.02416413719253
 40
10.0976976440545
 40
10.18909955924978
 40
10.2097458642014
 40
10.23039218263383
 40
10.30057101881268
 40
10.37632012987546
 40
10.37632012987546
 40
10.37632012987546
 40
10.37632012987546
 10
169.4272159765399
 20
-61.397629257631
 30
0.0
 10
169.4438422780767
 20
-61.41837980133781
 30
0.0
 10
169.4776989136126
 20
-61.46063477267191
 30
0.0
 10
169.5406027470585
 20
-61.51528777587018
 30
0.0
 10
169.6138705869942
 20
-61.56259563858045
 30
0.0
 10
169.6982174168184
 20
-61.60031357541155
 30
0.0
 10
169.7938445545009
 20
-61.62517969247143
 30
0.0
 10
169.8978058704895
 20
-61.63249029633158
 30
0.0
 10
170.0030225149954
 20
-61.6241626618504
 30
0.0
 10
170.1012831300882
 20
-61.59409409327565
 30
0.0
 10
170.1865191357097
 20
-61.5470976600722
 30
0.0
 10
170.2585425135651
 20
-61.48605597728235
 30
0.0
 10
170.3157122638645
 20
-61.41145619400513
 30
0.0
 10
170.3574073676988
 20
-61.32556124318919
 30
0.0
 10
170.3833157775841
 20
-61.23072738546883
 30
0.0
 10
170.3924242262202
 20
-61.11703609940728
 30
0.0
 10
170.3793069726036
 20
-60.99226001208316
 30
0.0
 10
170.3131535263963
 20
-60.87543869807202
 30
0.0
 10
170.2175575849118
 20
-60.7904604940172
 30
0.0
 10
170.1055885951918
 20
-60.72141904519931
 30
0.0
 10
169.9799864512818
 20
-60.66354446933206
 30
0.0
 10
169.8462896550406
 20
-60.61184865694755
 30
0.0
 10
169.7119327748379
 20
-60.55659496581913
 30
0.0
 10
169.5858188916425
 20
-60.48618818337442
 30
0.0
 10
169.4732784917084
 20
-60.39773048247845
 30
0.0
 10
169.3776167994006
 20
-60.28577521110621
 30
0.0
 10
169.3140362081375
 20
-60.1360867887771
 30
0.0
 10
169.3006911434564
 20
-59.97625794593951
 30
0.0
 10
169.3126715916997
 20
-59.82510183672247
 30
0.0
 10
169.351850385839
 20
-59.69749344387556
 30
0.0
 10
169.4161192680459
 20
-59.58477714948248
 30
0.0
 10
169.5044409929289
 20
-59.4890997971041
 30
0.0
 10
169.6144296137177
 20
-59.41204373993342
 30
0.0
 10
169.7438489330814
 20
-59.35407192042815
 30
0.0
 10
169.8918043897342
 20
-59.31819411390271
 30
0.0
 10
170.0488274385036
 20
-59.30811869928533
 30
0.0
 10
170.1981145395979
 20
-59.31694951216503
 30
0.0
 10
170.3402458543719
 20
-59.34483689638741
 30
0.0
 10
170.4402127539174
 20
-59.40145274277957
 30
0.0
 10
170.5931279665734
 20
-59.44883986873586
 30
0.0
 10
170.5261336646716
 20
-59.5336103597791
 30
0.0
 10
170.5102684049818
 20
-59.60119687105611
 30
0.0
 10
170.4784955460846
 20
-59.66632496185905
 30
0.0
 10
170.4956407139119
 20
-59.76835135722142
 30
0.0
 10
170.4472632137781
 20
-59.76065377297192
 30
0.0
 10
170.4121994370314
 20
-59.76751817254287
 30
0.0
 10
170.4102902915267
 20
-59.70294757820896
 30
0.0
 10
170.3791897861537
 20
-59.65732949357702
 30
0.0
 10
170.3470756558004
 20
-59.59997552350637
 30
0.0
 10
170.3014243404717
 20
-59.55018126286536
 30
0.0
 10
170.2464713147936
 20
-59.50563775260096
 30
0.0
 10
170.1817046102556
 20
-59.46794600142545
 30
0.0
 10
170.1038582240145
 20
-59.44275213187742
 30
0.0
 10
170.0161365482901
 20
-59.43627357980981
 30
0.0
 10
169.9259108207355
 20
-59.44322879693489
 30
0.0
 10
169.8400799623613
 20
-59.46649398518171
 30
0.0
 10
169.7634548568145
 20
-59.50426944871552
 30
0.0
 10
169.6971470565749
 20
-59.55506947889515
 30
0.0
 10
169.6428765466512
 20
-59.61827445571885
 30
0.0
 10
169.6031130275008
 20
-59.69282133268729
 30
0.0
 10
169.5782980440136
 20
-59.7764127498133
 30
0.0
 10
169.5698329192419
 20
-59.8836564059681
 30
0.0
 10
169.5825902916653
 20
-60.00593131711535
 30
0.0
 10
169.6487753338821
 20
-60.12408864687885
 30
0.0
 10
169.7447182329382
 20
-60.20952263269567
 30
0.0
 10
169.8564119892731
 20
-60.2797522667237
 30
0.0
 10
169.9817068598251
 20
-60.3389942667379
 30
0.0
 10
170.1156028870996
 20
-60.38941880892963
 30
0.0
 10
170.2496135262699
 20
-60.4423607199471
 30
0.0
 10
170.3757090246464
 20
-60.5080841835392
 30
0.0
 10
170.4882421567966
 20
-60.59078236441776
 30
0.0
 10
170.5837575213782
 20
-60.6956258266902
 30
0.0
 10
170.6478911416511
 20
-60.83621471727524
 30
0.0
 10
170.6617308654827
 20
-60.99493179527502
 30
0.0
 10
170.6480159641778
 20
-61.15405433761218
 30
0.0
 10
170.6050944083534
 20
-61.30074760159887
 30
0.0
 10
170.5352111258614
 20
-61.43438792391952
 30
0.0
 10
170.4380797143378
 20
-61.55026201279803
 30
0.0
 10
170.3154010953207
 20
-61.64468607209009
 30
0.0
 10
170.1680613342716
 20
-61.71379318327111
 30
0.0
 10
169.9983337426674
 20
-61.75605378120245
 30
0.0
 10
169.8123609909145
 20
-61.76776852748686
 30
0.0
 10
169.6335160855732
 20
-61.75749102295657
 30
0.0
 10
169.4687938683292
 20
-61.71592015209939
 30
0.0
 10
169.3640615770606
 20
-61.64760946095158
 30
0.0
 10
169.2157165719914
 20
-61.59883369946989
 30
0.0
 10
169.2786583124278
 20
-61.50581997688251
 30
0.0
 10
169.2878479359609
 20
-61.43262052730813
 30
0.0
 10
169.3109916230781
 20
-61.36622294477748
 30
0.0
 10
169.2840793264865
 20
-61.26583779451511
 30
0.0
 10
169.3327543885888
 20
-61.27324555461716
 30
0.0
 10
169.3722735510244
 20
-61.26664525358196
 30
0.0
 10
169.3802409874251
 20
-61.34479885760163
 30
0.0
 10
169.4111641897472
 20
-61.37957661603237
 30
0.0
 10
169.4272159765399
 20
-61.397629257631
 30
0.0
 11
169.4272159765399
 21
-61.397629257631
 31
0.0
 11
169.4788243005413
 21
-61.45828719164358
 31
0.0
 11
169.5407310430884
 21
-61.51287293815773
 31
0.0
 11
169.6133968939351
 21
-61.5597460805071
 31
0.0
 11
169.6972673585392
 21
-61.59718682702555
 31
0.0
 11
169.7918415661959
 21
-61.62167952667217
 31
0.0
 11
169.8967808256714
 21
-61.62982759090622
 31
0.0
 11
170.0046944427101
 21
-61.61994540340871
 31
0.0
 11
170.1014624871165
 21
-61.59029884091612
 31
0.0
 11
170.1856981012868
 21
-61.54383470030276
 31
0.0
 11
170.2562349137235
 21
-61.48367175760944
 31
0.0
 11
170.3125647039529
 21
-61.41052769512774
 31
0.0
 11
170.3542894945552
 21
-61.32537154931572
 31
0.0
 11
170.3800885737581
 21
-61.23122397989482
 31
0.0
 11
170.3887029658995
 21
-61.13107036880874
 31
0.0
 11
170.3684722632906
 21
-60.98915338099697
 31
0.0
 11
170.307872759628
 21
-60.87991904942706
 31
0.0
 11
170.2171176215835
 21
-60.79477282548999
 31
0.0
 11
170.1066306814289
 21
-60.72505842446577
 31
0.0
 11
169.9814728460803
 21
-60.66578734809173
 31
0.0
 11
169.8469156880547
 21
-60.61154335504975
 31
0.0
 11
169.7123089206556
 21
-60.5535731467309
 31
0.0
 11
169.5872006946807
 21
-60.48261189674861
 31
0.0
 11
169.4766481027829
 21
-60.39445273010399
 31
0.0
 11
169.3859586164814
 21
-60.28478293846476
 31
0.0
 11
169.3253260399033
 21
-60.14378868502778
 31
0.0
 11
169.3051284102102
 21
-59.96145328576779
 31
0.0
 11
169.3180235400896
 21
-59.82342457052452
 31
0.0
 11
169.356722158894
 21
-59.69825460527804
 31
0.0
 11
169.4199346661055
 21
-59.58779326850011
 31
0.0
 11
169.5063704884094
 21
-59.49361703588474
 31
0.0
 11
169.6142697738511
 21
-59.41712048208444
 31
0.0
 11
169.7419731212877
 21
-59.35942918869606
 31
0.0
 11
169.8881598189471
 21
-59.32338522169121
 31
0.0
 11
170.0515973494999
 21
-59.31137203593033
 31
0.0
 11
170.2055123360838
 21
-59.32124319912231
 31
0.0
 11
170.3371092172156
 21
-59.35081259147597
 31
0.0
 11
170.4531841274488
 21
-59.40118595083841
 31
0.0
 11
170.5606997670671
 21
-59.47294425811217
 31
0.0
 11
170.5323198979993
 21
-59.53321964872208
 31
0.0
 11
170.5091060183832
 21
-59.59679571641448
 31
0.0
 11
170.4884585970349
 21
-59.67079746986825
 31
0.0
 11
170.4678045611036
 21
-59.76198391081766
 31
0.0
 11
170.4471802907964
 21
-59.76198391081766
 31
0.0
 11
170.4265560204892
 21
-59.76198391081766
 31
0.0
 11
170.4062911425339
 21
-59.71163480492748
 31
0.0
 11
170.3800863688969
 21
-59.65708543862164
 31
0.0
 11
170.3456673854
 21
-59.60242472682978
 31
0.0
 11
170.3009759542486
 21
-59.55208995253682
 31
0.0
 11
170.246353828906
 21
-59.50781413657565
 31
0.0
 11
170.1822926933875
 21
-59.47122446644593
 31
0.0
 11
170.1065887890689
 21
-59.44676042999367
 31
0.0
 11
170.0171926975998
 21
-59.43857488312071
 31
0.0
 11
169.9247142103757
 21
-59.44631615047992
 31
0.0
 11
169.8400277021194
 21
-59.46949585533528
 31
0.0
 11
169.7643229418388
 21
-59.50695093345086
 31
0.0
 11
169.6989959696064
 21
-59.55725814697991
 31
0.0
 11
169.6456692817213
 21
-59.61958295599215
 31
0.0
 11
169.606101416345
 21
-59.69308641083487
 31
0.0
 11
169.581572868426
 21
-59.77570145421703
 31
0.0
 11
169.5734159033657
 21
-59.86516259134743
 31
0.0
 11
169.5936300695167
 21
-60.00963280832521
 31
0.0
 11
169.6542461096369
 21
-60.11967411906159
 31
0.0
 11
169.7449684250307
 21
-60.20524918848463
 31
0.0
 11
169.8554881878362
 21
-60.27616634124468
 31
0.0
 11
169.9806294867268
 21
-60.33644283428514
 31
0.0
 11
170.1152031812102
 21
-60.38968141066073
 31
0.0
 11
170.2497934121517
 21
-60.4451909939802
 31
0.0
 11
170.3749181745846
 21
-60.51181307729684
 31
0.0
 11
170.4854214009319
 21
-60.59439725262345
 31
0.0
 11
170.5761602527837
 21
-60.69758585502822
 31
0.0
 11
170.6367762929037
 21
-60.8300627299951
 31
0.0
 11
170.6569904590546
 21
-61.00032210495255
 31
0.0
 11
170.6428044677546
 21
-61.15425558581681
 31
0.0
 11
170.6002291938742
 21
-61.29953057709997
 31
0.0
 11
170.5305957813814
 21
-61.43159734790026
 31
0.0
 11
170.4351197008262
 21
-61.54551370203848
 31
0.0
 11
170.3147265702173
 21
-61.63843316382077
 31
0.0
 11
170.1702365131395
 21
-61.70726231310914
 31
0.0
 11
170.0029724462262
 21
-61.74977313775128
 31
0.0
 11
169.8142308277775
 21
-61.76392724365053
 31
0.0
 11
169.6211236655937
 21
-61.74977313775128
 31
0.0
 11
169.468518083046
 21
-61.70726231310914
 31
0.0
 11
169.3468102871751
 21
-61.64659555965206
 31
0.0
 11
169.2466466755912
 21
-61.57824266036357
 31
0.0
 11
169.2728525516588
 21
-61.50303043816017
 31
0.0
 11
169.2896326467167
 21
-61.4354382159548
 31
0.0
 11
169.3012401377401
 21
-61.36282662743132
 31
0.0
 11
169.3119811183688
 21
-61.27205800766234
 31
0.0
 11
169.3326274372864
 21
-61.27205800766234
 31
0.0
 11
169.3532737562041
 21
-61.27205800766234
 31
0.0
 11
169.3855121321178
 21
-61.3343938409801
 31
0.0
 11
169.4272159765399
 21
-61.397629257631
 31
0.0
  0
LWPOLYLINE
  5
B1
102
{ACAD_REACTORS
330
BE
102
}
330
48
100
AcDbEntity
  8
_U_30EC_U_30A4_U_30E4_U_30FC_1
  6
Continuous
 62
     2
100
AcDbPolyline
 90
        5
 70
     1
 43
0.0
 10
191.738434296222
 20
-60.13836252183469
 10
191.738434296222
 20
-60.30683154957038
 10
190.440917662658
 20
-60.30683154957038
 10
190.440917662658
 20
-60.13836252183469
 10
191.738434296222
 20
-60.13836252183469
  0
MTEXT
  5
B3
330
48
100
AcDbEntity
  8
1
 62
     2
100
AcDbMText
 10
31.78062049295485
 20
206.4644141102094
 30
0.0
 40
5.0
 41
0.0
 71
     5
 72
     1
  1
図番
  7
CONVERTER_11
 73
     1
 44
0.45454545454545
  0
MTEXT
  5
B4
330
48
100
AcDbEntity
  8
1
 62
     2
100
AcDbMText
 10
28.28062049295485
 20
-41.53558588979092
 30
0.0
 40
3.5
 41
0.0
 71
     5
 72
     1
  1
備考
  7
CONVERTER_11
 73
     1
 44
0.45454545454545
  0
MTEXT
  5
B5
330
48
100
AcDbEntity
  8
1
 62
     2
100
AcDbMText
 10
28.28062049295485
 20
-52.78558588979092
 30
0.0
 40
3.5
 41
0.0
 71
     5
 72
     1
  1
品名
  7
CONVERTER_11
 73
     1
 44
0.72727272727273
  0
MTEXT
  5
B6
330
48
100
AcDbEntity
  8
1
 62
     2
100
AcDbMText
 10
28.28062049295485
 20
-61.28558588979092
 30
0.0
 40
3.5
 41
0.0
 71
     5
 72
     1
  1
品番
  7
CONVERTER_11
 73
     1
 44
0.72727272727273
  0
MTEXT
  5
B7
330
48
100
AcDbEntity
  8
1
 62
     2
100
AcDbMText
 10
100.7806204929549
 20
-50.53558588979092
 30
0.0
 40
3.0
 41
0.0
 71
     5
 72
     1
  1
承認
  7
CONVERTER_11
 73
     1
 44
0.59090909090909
  0
MTEXT
  5
B8
330
48
100
AcDbEntity
  8
1
 62
     2
100
AcDbMText
 10
174.2806204929549
 20
-52.03558588979092
 30
0.0
 40
3.5
 41
0.0
 71
     5
 72
     1
  1
第三角法
  7
CONVERTER_11
 73
     1
 44
0.54545454545455
  0
MTEXT
  5
B9
330
48
100
AcDbEntity
  8
1
 62
     2
100
AcDbMText
 10
117.7806204929549
 20
-50.53558588979092
 30
0.0
 40
3.0
 41
0.0
 71
     5
 72
     1
  1
検図
  7
CONVERTER_11
 73
     1
 44
0.59090909090909
  0
MTEXT
  5
BA
330
48
100
AcDbEntity
  8
1
 62
     2
100
AcDbMText
 10
151.7806204929549
 20
-50.53558588979092
 30
0.0
 40
3.0
 41
0.0
 71
     5
 72
     1
  1
設計
  7
CONVERTER_11
 73
     1
 44
0.59090909090909
  0
MTEXT
  5
BB
330
48
100
AcDbEntity
  8
1
 62
     2
100
AcDbMText
 10
134.7806204929549
 20
-50.53558588979092
 30
0.0
 40
3.0
 41
0.0
 71
     5
 72
     1
  1
製図
  7
CONVERTER_11
 73
     1
 44
0.59090909090909
  0
MTEXT
  5
BC
330
48
100
AcDbEntity
  8
1
 62
     2
100
AcDbMText
 10
88.78062049295485
 20
-51.53558588979092
 30
0.0
 40
3.5
 41
0.0
 71
     5
 72
     1
  1
尺度
  7
CONVERTER_11
 73
     1
 44
0.54545454545455
  0
MTEXT
  5
BD
330
48
100
AcDbEntity
  8
1
 62
   250
100
AcDbMText
 10
24.28062049295488
 20
-70.53558588979092
 30
0.0
 40
3.5
 41
0.0
 71
     4
 72
     1
  1
備考欄の文字列 原点位置=4
  7
CONVERTER_11
 73
     1
 44
0.54545454545455
  0
HATCH
  5
BE
330
48
100
AcDbEntity
  8
1
  6
Continuous
 62
     2
100
AcDbHatch
 10
0.0
 20
0.0
 30
0.0
210
0.0
220
0.0
230
1.0
  2
CUSTOM0
 70
     0
 71
     1
 91
        1
 92
        1
 93
        4
 72
     1
 10
191.738434296222
 20
-60.13836252183469
 11
191.738434296222
 21
-60.30683154957038
 72
     1
 10
191.738434296222
 20
-60.30683154957038
 11
190.440917662658
 21
-60.30683154957038
 72
     1
 10
190.440917662658
 20
-60.30683154957038
 11
190.440917662658
 21
-60.13836252183469
 72
     1
 10
190.440917662658
 20
-60.13836252183469
 11
191.738434296222
 21
-60.13836252183469
 97
        1
330
B1
 75
     1
 76
     2
 52
45.0
 41
0.1
 77
     0
 78
     1
 53
45.0
 43
0.0
 44
0.0
 45
-0.282842712474619
 46
0.0
 79
     0
 98
        1
 10
0.0
 20
0.0
  0
HATCH
  5
BF
330
48
100
AcDbEntity
  8
1
  6
Continuous
 62
     2
100
AcDbHatch
 10
0.0
 20
0.0
 30
0.0
210
0.0
220
0.0
230
1.0
  2
CUSTOM1
 70
     0
 71
     1
 91
        1
 92
        1
 93
        3
 72
     4
 94
        3
 73
     0
 74
     0
 95
       24
 96
       20
 40
0.0
 40
0.0
 40
0.0
 40
0.0
 40
0.221107500875387
 40
0.427321858624535
 40
0.5080174679239086
 40
0.5914835907870515
 40
0.8143265690193074
 40
1.054651302686602
 40
1.295452694023204
 40
1.518109231328861
 40
1.540864321905476
 40
1.595126460622767
 40
1.659890947896081
 40
1.71415308518744
 40
1.73690817496174
 40
1.764951100735434
 40
1.801562291220998
 40
1.953914424543671
 40
2.126104167379749
 40
2.126104167379749
 40
2.126104167379749
 40
2.126104167379749
 10
185.2181574486438
 20
-59.94569293866078
 10
185.1918784011361
 20
-60.00460960744719
 10
185.1410903823975
 20
-60.11847449299835
 10
185.0937989768661
 20
-60.39116630745979
 10
184.9849687732166
 20
-60.29113106403636
 10
184.8321005209187
 20
-60.26439995611769
 10
185.0492360110748
 20
-60.05040453961463
 10
185.0644688603929
 20
-59.83226471196606
 10
185.1713094421549
 20
-59.6510700991267
 10
185.1111585876626
 20
-59.36645362667693
 10
185.214052232495
 20
-59.39444499756642
 10
185.2586138397698
 20
-59.40315337376795
 10
185.3187047324946
 20
-59.4141893479574
 10
185.3562824516987
 20
-59.42791065923537
 10
185.4058671858155
 20
-59.42802512818871
 10
185.3736363848874
 20
-59.46251996580469
 10
185.2978007151431
 20
-59.45154484441137
 10
185.3235652089242
 20
-59.63699619396641
 10
185.2862101693399
 20
-59.72856275429503
 10
185.2663909891158
 20
-59.77714453581388
 72
     4
 94
        3
 73
     0
 74
     0
 95
       70
 96
       66
 40
0.0
 40
0.0
 40
0.0
 40
0.0
 40
0.0241731073021188
 40
0.0846058988987013
 40
0.1631685280353284
 40
0.241731157179004
 40
0.3021639488292751
 40
0.3263370654895825
 40
0.3533118254249254
 40
0.4228783438922378
 40
0.5179999095313633
 40
0.6216398239466315
 40
0.7167613891500025
 40
0.7863279069650148
 40
0.813302679176212
 40
0.8372943998771681
 40
0.8945054261373151
 40
0.9627895541962638
 40
1.020000580349074
 40
1.043992300975172
 40
1.071934345522923
 40
1.113121768772883
 40
1.1452251993322
 40
1.225483775412746
 40
1.329819923771458
 40
1.434156071994342
 40
1.514414647795751
 40
1.546518078208363
 40
1.578974764260165
 40
1.662678849314131
 40
1.777131373668352
 40
1.901833377474714
 40
2.016285900500532
 40
2.099989982527871
 40
2.13244666657023
 40
2.158782354485955
 40
2.216720867907744
 40
2.274659381334165
 40
2.300995069256101
 40
2.333451754066073
 40
2.417155836543726
 40
2.531608358985165
 40
2.65631036228366
 40
2.770762886388793
 40
2.854466971339929
 40
2.886923657363764
 40
2.913597976833193
 40
2.982389642874997
 40
3.076451716946882
 40
3.178937260458488
 40
3.272999334739891
 40
3.341791001059119
 40
3.368465320663437
 40
3.396976080738687
 40
3.472140811845895
 40
3.578408190308584
 40
3.700226892456049
 40
3.822045594634238
 40
3.928312973256316
 40
4.00347770531477
 40
4.031988456866808
 40
4.058324144797604
 40
4.116262658236765
 40
4.17420117140057
 40
4.200536849608499
 40
4.200536849608499
 40
4.200536849608499
 40
4.200536849608499
 10
185.2663909891158
 20
-59.77714453581388
 10
185.2744464474228
 20
-59.77714229167407
 10
185.302640559279
 20
-59.77713442946293
 10
185.3571739733221
 20
-59.77727834150723
 10
185.4289096738153
 20
-59.77649468479195
 10
185.504244506661
 20
-59.77931018515284
 10
185.5519257295988
 20
-59.77260185578134
 10
185.6001276175165
 20
-59.78361025286661
 10
185.5868776729422
 20
-59.7301218598206
 10
185.5957298894086
 20
-59.67509005436
 10
185.5914902965835
 20
-59.58138680252986
 10
185.5939688410829
 20
-59.48599106760562
 10
185.5897143635609
 20
-59.39201766995704
 10
185.5986023595397
 20
-59.33763526541083
 10
185.5853182339494
 20
-59.28324591287633
 10
185.6320324206658
 20
-59.29716372643738
 10
185.6749459475286
 20
-59.2945471160505
 10
185.7411648386233
 20
-59.29910166528339
 10
185.7819547201348
 20
-59.3078042684493
 10
185.8331350620367
 20
-59.30026789088899
 10
185.8059925416749
 20
-59.34208618755807
 10
185.7609300985256
 20
-59.33273596906499
 10
185.77482699746
 20
-59.39717381607257
 10
185.7664619361203
 20
-59.46180369351697
 10
185.7709837107947
 20
-59.56029447785207
 10
185.7660946240717
 20
-59.65962656136523
 10
185.775646392163
 20
-59.72265473426125
 10
185.7605966384749
 20
-59.78594577479306
 10
185.8255364386758
 20
-59.77043516034821
 10
185.8922451329046
 20
-59.7805920128128
 10
186.0047640400376
 20
-59.77569788879728
 10
186.1196440378503
 20
-59.77867384246309
 10
186.2326076929296
 20
-59.77336924794101
 10
186.2982472527226
 20
-59.78451282507002
 10
186.3622481620602
 20
-59.76814056659236
 10
186.3509347818738
 20
-59.81796899073818
 10
186.3581544801058
 20
-59.86141873766971
 10
186.3509347540819
 20
-59.90486843391649
 10
186.3622482105542
 20
-59.95469693782216
 10
186.2982468528521
 20
-59.93832422887728
 10
186.2326126170008
 20
-59.94947317317506
 10
186.119617924688
 20
-59.94413731772238
 10
186.0048661478192
 20
-59.94724243315272
 10
185.8919388616411
 20
-59.94193694296503
 10
185.8261425833133
 20
-59.95301288959499
 10
185.7622302904907
 20
-59.93670991131474
 10
185.7742220094675
 20
-59.99135064583351
 10
185.7668309542555
 20
-60.04704293931252
 10
185.7698889771532
 20
-60.13908899838523
 10
185.7699627715232
 20
-60.23379479105994
 10
185.7666518507909
 20
-60.32605806076829
 10
185.7745710919452
 20
-60.38122820242954
 10
185.7621281541166
 20
-60.43500419878961
 10
185.8195321481181
 20
-60.42104820116311
 10
185.8800913069932
 20
-60.43047131094869
 10
185.985488578463
 20
-60.42615703050392
 10
186.1010499000172
 20
-60.42723084367063
 10
186.2165893807345
 20
-60.42832623078102
 10
186.3220386060391
 20
-60.42396063208463
 10
186.3824885401353
 20
-60.43349162948425
 10
186.4399042668659
 20
-60.41941299372714
 10
186.4283978806258
 20
-60.46851435713413
 10
186.4343771711299
 20
-60.50993930960446
 10
186.432651598035
 20
-60.55906911012397
 10
186.432770505252
 20
-60.58704160531485
 10
186.4328076621382
 20
-60.59578300783144
 72
     4
 94
        3
 73
     0
 74
     0
 95
       62
 96
       58
 40
0.0
 40
0.0
 40
0.0
 40
0.0
 40
0.0598250028308769
 40
0.2024846486897331
 40
0.3727558389220746
 40
0.515415484793607
 40
0.5752404975785339
 40
0.9332326775487276
 40
1.290451762839474
 40
1.60207725314585
 40
1.699931634112066
 40
1.799359756425003
 40
2.270120149657085
 40
2.804661928461516
 40
2.882342287383234
 40
3.076543185719092
 40
3.32900435483555
 40
3.581465524568382
 40
3.775666424543661
 40
3.853346784558286
 40
3.89912067959506
 40
3.98412934179203
 40
4.029903236817378
 40
4.10579749605954
 40
4.295533144152489
 40
4.542189486611735
 40
4.788845828875689
 40
4.978581476410073
 40
5.05447573524432
 40
5.621734664339362
 40
6.130867242037368
 40
6.225249780948597
 40
6.318913039727282
 40
6.663579954558892
 40
7.047498900224742
 40
7.435230791575683
 40
7.498943906668095
 40
7.650875181210089
 40
7.832212509001599
 40
7.984143783696985
 40
8.047856898903142
 40
8.091554632732645
 40
8.172707566964299
 40
8.216405300768024
 40
8.289021782160937
 40
8.462184160757253
 40
8.66886183800542
 40
8.842024215263983
 40
8.914640695475178
 40
8.989881580861386
 40
9.155411528827294
 40
9.320941477744093
 40
9.396182352487346
 40
9.454709011143835
 40
9.583467660170855
 40
9.712226309013078
 40
9.77075295798956
 40
9.77075295798956
 40
9.77075295798956
 40
9.77075295798956
 10
186.4328076621382
 20
-60.59578300783144
 10
186.4128553101172
 20
-60.59577713410425
 10
186.3453242646015
 20
-60.59575725172935
 10
186.2216817091337
 20
-60.5960922645877
 10
186.0669385079605
 20
-60.59450915228582
 10
185.950355441203
 20
-60.59872510118602
 10
185.7357147563788
 20
-60.58343383647463
 10
186.1325153336778
 20
-60.94359867692906
 10
186.1751860998816
 20
-61.16048085581927
 10
186.5995367076159
 20
-61.34233526467643
 10
186.4246026425623
 20
-61.44573392411025
 10
186.3000728854632
 20
-61.65727065766365
 10
186.0472482165492
 20
-61.1875250797754
 10
185.7603807823174
 20
-60.54047071994572
 10
185.771254085621
 20
-60.847759168244
 10
185.7689097707508
 20
-61.01269972007315
 10
185.766730105596
 20
-61.24678918267402
 10
185.7786979325896
 20
-61.49060516557311
 10
185.749418967018
 20
-61.63702792118112
 10
185.7920727555019
 20
-61.78445098804555
 10
185.7046018935188
 20
-61.76872791672876
 10
185.6574732536293
 20
-61.76864285435642
 10
185.5705178137262
 20
-61.78449163496185
 10
185.6119678951271
 20
-61.64030817556333
 10
185.5836079933835
 20
-61.49703536280639
 10
185.5952178704848
 20
-61.25883641613831
 10
185.5930380577821
 20
-61.03041353738748
 10
185.5909316057543
 20
-60.868528596031
 10
185.6014240367872
 20
-60.55404879645341
 10
185.2935168182441
 20
-61.24329118106653
 10
184.9861463197005
 20
-61.72081838736051
 10
184.8657571995823
 20
-61.49817476341664
 10
184.6880812840271
 20
-61.38547554023534
 10
185.1659531292443
 20
-61.2101044551363
 10
185.2160163986757
 20
-60.97466659727064
 10
185.6390004551266
 20
-60.58235599634484
 10
185.4082959203089
 20
-60.59903281950031
 10
185.285589078889
 20
-60.59289070030323
 10
185.1131688025211
 20
-60.6024576627952
 10
185.0019429623997
 20
-60.5810977048943
 10
184.8831984556996
 20
-60.61422323621674
 10
184.8989374636234
 20
-60.53354688372211
 10
184.8984755863311
 20
-60.48913174688241
 10
184.883408681948
 20
-60.40591507200561
 10
185.0178585864992
 20
-60.44495936995212
 10
185.1425960475296
 20
-60.41818859650673
 10
185.3434960166828
 20
-60.43494639935042
 10
185.4727745878903
 20
-60.4135436306609
 10
185.6134624857843
 20
-60.44689810125675
 10
185.5787132382165
 20
-60.30906713194027
 10
185.6028390596261
 20
-60.18595331629612
 10
185.5773291111941
 20
-60.06534533308761
 10
185.6139456076234
 20
-59.93018723837599
 10
185.5017621957319
 20
-59.95464043197205
 10
185.4086561386686
 20
-59.94250839137069
 10
185.2997752509368
 20
-59.94600958909101
 10
185.2375902570513
 20
-59.94576833027491
 10
185.2181574486795
 20
-59.94569293854949
 97
        3
330
A2
330
A0
330
A1
 75
     1
 76
     2
 52
45.0
 41
0.1
 77
     0
 78
     1
 53
45.0
 43
0.0
 44
0.0
 45
-0.282842712474619
 46
0.0
 79
     0
 98
        1
 10
0.0
 20
0.0
  0
HATCH
  5
C0
330
48
100
AcDbEntity
  8
1
  6
Continuous
 62
     2
100
AcDbHatch
 10
0.0
 20
0.0
 30
0.0
210
0.0
220
0.0
230
1.0
  2
CUSTOM2
 70
     0
 71
     1
 91
        1
 92
        1
 93
        1
 72
     4
 94
        3
 73
     0
 74
     0
 95
      124
 96
      120
 40
0.0
 40
0.0
 40
0.0
 40
0.0
 40
0.0278187229624795
 40
0.101159016238427
 40
0.2048470170589955
 40
0.3237088716558961
 40
0.4425707262522
 40
0.5462587270699547
 40
0.6195990203311798
 40
0.647417752257866
 40
0.6750060736115278
 40
0.7357003855242759
 40
0.7963946998054545
 40
0.8239830245571802
 40
0.8540933811102895
 40
0.9373396629409292
 40
1.063094687343239
 40
1.220731268638105
 40
1.39962222091478
 40
1.589140358637736
 40
1.778658496423845
 40
1.957549448940512
 40
2.115186030873134
 40
2.240941056914438
 40
2.324187341760507
 40
2.354297700109357
 40
2.381886024671865
 40
2.44258033871045
 40
2.503274652750478
 40
2.530862977314578
 40
2.560983949278502
 40
2.640393784452905
 40
2.7526628617591
 40
2.881361560118088
 40
3.010060258455135
 40
3.122329335705282
 40
3.201739170817896
 40
3.231860142753257
 40
3.264298024030311
 40
3.352343701778175
 40
3.482095226868702
 40
3.639650650172954
 40
3.811108022565421
 40
3.982565394927918
 40
4.140120818152504
 40
4.26987234314121
 40
4.357918020802274
 40
4.390355902043901
 40
4.423256253992471
 40
4.508104530072964
 40
4.624121560636731
 40
4.750528176031488
 40
4.866545206601935
 40
4.951393482691892
 40
4.984293834645293
 40
5.011450833242209
 40
5.071196230152005
 40
5.130941627057084
 40
5.158098625648756
 40
5.19099897760139
 40
5.275847253689244
 40
5.391864284256735
 40
5.518270899648223
 40
5.634287930209234
 40
5.719136206287907
 40
5.752036558235823
 40
5.782130946282842
 40
5.86278390622902
 40
5.979550131774887
 40
6.117984316640297
 40
6.263641154587838
 40
6.402075339414034
 40
6.518841564907825
 40
6.599494524815413
 40
6.629588912848647
 40
6.654403028226224
 40
6.713575149487991
 40
6.784199939329337
 40
6.843372060493411
 40
6.868186175802657
 40
6.896246243201722
 40
6.939586233758142
 40
6.967846564564773
 40
7.043584251089712
 40
7.153234334451568
 40
7.283231855734321
 40
7.420011856035352
 40
7.550009376579716
 40
7.659659458835108
 40
7.735397144417107
 40
7.763657474851279
 40
7.796409728010936
 40
7.88087606509621
 40
7.996370852465596
 40
8.122208446418462
 40
8.237703224799084
 40
8.322169562010778
 40
8.354921815205792
 40
8.38207881330758
 40
8.441824209206885
 40
8.501569605240043
 40
8.52872660348563
 40
8.561478856695679
 40
8.64594519387773
 40
8.76143998086527
 40
8.887277580764383
 40
9.002772362000904
 40
9.087238696661124
 40
9.119990949235579
 40
9.152428830613275
 40
9.240474508638492
 40
9.370226034149447
 40
9.527781457984332
 40
9.699238830981308
 40
9.87069620397849
 40
10.02825162781392
 40
10.15800315332553
 40
10.24604883135108
 40
10.27848670378511
 40
10.27848670378511
 40
10.27848670378511
 40
10.27848670378511
 10
194.6628032493932
 20
-61.52148071593337
 10
194.6720759667072
 20
-61.5214809046782
 10
194.7057949466409
 20
-61.52148158102381
 10
194.7740911742014
 20
-61.52146781735789
 10
194.8726346641129
 20
-61.52155364759551
 10
194.986827139436
 20
-61.52116833366843
 10
195.0992099346619
 20
-61.52257753081549
 10
195.2020581529667
 20
-61.5183947155685
 10
195.2613044804398
 20
-61.52735499727113
 10
195.3177470866581
 20
-61.51394154453032
 10
195.3052460516504
 20
-61.56471390365736
 10
195.3135754565252
 20
-61.60969268040026
 10
195.3054375770669
 20
-61.65501835988607
 10
195.3176734144006
 20
-61.70626656570629
 10
195.2553978419882
 20
-61.6911063361382
 10
195.1866717956417
 20
-61.7019883826835
 10
195.0588961679141
 20
-61.69647284231124
 10
194.9069189441191
 20
-61.69857737725394
 10
194.7308900902072
 20
-61.69787586390623
 10
194.5450636863835
 20
-61.69813351447801
 10
194.3592372366725
 20
-61.69787583834493
 10
194.1832085071717
 20
-61.69857747131363
 10
194.0312309083744
 20
-61.69647256749106
 10
193.9034562594103
 20
-61.70198908211453
 10
193.8347282766129
 20
-61.69110511853154
 10
193.7724553972432
 20
-61.70626802294884
 10
193.7846821219567
 20
-61.65501078173925
 10
193.7766209392146
 20
-61.60976115706669
 10
193.7846880739442
 20
-61.56452231023772
 10
193.7724443416632
 20
-61.51324412069138
 10
193.8331222050247
 20
-61.52809011615958
 10
193.8969015675285
 20
-61.51802140808362
 10
194.0083519283052
 20
-61.52263944767093
 10
194.1303738373373
 20
-61.52145260073627
 10
194.2525743067372
 20
-61.52042725078459
 10
194.3635999216941
 20
-61.52466113355695
 10
194.4282722343508
 20
-61.51540004457357
 10
194.489736774005
 20
-61.52954165929412
 10
194.4736270530885
 20
-61.46323061094577
 10
194.4849185256907
 20
-61.39110798857118
 10
194.4793605752109
 20
-61.26044828090812
 10
194.4814239991239
 20
-61.10951265270853
 10
194.4806372056844
 20
-60.9422271587121
 10
194.4814050145176
 20
-60.77497478646792
 10
194.4794243715177
 20
-60.62395299709182
 10
194.4847511086169
 20
-60.493525194261
 10
194.4739306317973
 20
-60.42093146373197
 10
194.4896531359424
 20
-60.35408119542299
 10
194.4238913062039
 20
-60.36978076488268
 10
194.3562572760313
 20
-60.35949345895104
 10
194.2422090223358
 20
-60.3644480213197
 10
194.1257447604452
 20
-60.36144460948623
 10
194.0112759051025
 20
-60.36678285835703
 10
193.9446529587362
 20
-60.35557320904274
 10
193.8796974644734
 20
-60.37209456314084
 10
193.8914194688258
 20
-60.32084868502037
 10
193.8839035118669
 20
-60.27608255195004
 10
193.8914194808385
 20
-60.23131644081133
 10
193.8796974434895
 20
-60.18007052849354
 10
193.9446531268749
 20
-60.19659207212275
 10
194.011273826937
 20
-60.18538017605151
 10
194.1257557787612
 20
-60.19073152268428
 10
194.2421659366511
 20
-60.18767400207977
 10
194.3563865104189
 20
-60.19280089968385
 10
194.4236355368775
 20
-60.18212855623494
 10
194.4889530870987
 20
-60.19816506310017
 10
194.4747596378101
 20
-60.13608903229041
 10
194.4842264392544
 20
-60.06971827350331
 10
194.4796473933633
 20
-59.95318616237128
 10
194.4813901485496
 20
-59.82131903956716
 10
194.4803756424941
 20
-59.67942628828821
 10
194.482339627392
 20
-59.54789538276513
 10
194.47708734834
 20
-59.43034011696095
 10
194.4879613693022
 20
-59.36610799977508
 10
194.4725741571402
 20
-59.30449786434048
 10
194.5213796467349
 20
-59.31856181596984
 10
194.5660200494275
 20
-59.31603846903777
 10
194.6344848876291
 20
-59.32045791577387
 10
194.6765311098652
 20
-59.32945563435058
 10
194.7293749688324
 20
-59.32146874112583
 10
194.7013239931563
 20
-59.36444671367421
 10
194.6555347178143
 20
-59.35299036935255
 10
194.6675744002813
 20
-59.41385068973956
 10
194.660229100019
 20
-59.47789289510317
 10
194.663740075571
 20
-59.58649220115181
 10
194.6626011689722
 20
-59.7106426983434
 10
194.6625379709811
 20
-59.84368869149216
 10
194.6639077896416
 20
-59.96761207729536
 10
194.6597843730862
 20
-60.07690251129755
 10
194.6683968033113
 20
-60.13950008884921
 10
194.6552962383951
 20
-60.1981845568273
 10
194.7200089257747
 20
-60.18196475168188
 10
194.7866610882704
 20
-60.19288328595784
 10
194.9004984470651
 20
-60.18764848805334
 10
195.0163464051646
 20
-60.19073041462183
 10
195.1303129192829
 20
-60.18540329166582
 10
195.1966545947648
 20
-60.19654380812549
 10
195.2613393455028
 20
-60.18011609385914
 10
195.2496025702271
 20
-60.23132663769044
 10
195.257137299259
 20
-60.27608254858093
 10
195.2496025921807
 20
-60.32083849969067
 10
195.2613393070285
 20
-60.37204898108055
 10
195.1966549004801
 20
-60.35562161184876
 10
195.1303091360374
 20
-60.36675804531827
 10
195.016366441656
 20
-60.36145473085975
 10
194.9004200552604
 20
-60.36443824385552
 10
194.7868961811671
 20
-60.35951696710704
 10
194.7195436248353
 20
-60.36973501465572
 10
194.6540490052044
 20
-60.35412592840282
 10
194.6697918548766
 20
-60.42094737151683
 10
194.6589480927762
 20
-60.49351531163219
 10
194.664278655934
 20
-60.62396341364679
 10
194.6623341081404
 20
-60.77494030793869
 10
194.6629338612763
 20
-60.94236345044937
 10
194.6627711489153
 20
-61.10902412860722
 10
194.6628100417684
 20
-61.26198446057458
 10
194.6628021342648
 20
-61.3870940999339
 10
194.6628033312293
 20
-61.47050697987673
 10
194.6628032645757
 20
-61.51066810697119
 10
194.6628032493932
 20
-61.52148071593337
 97
        1
330
A3
 75
     1
 76
     2
 52
45.0
 41
0.1
 77
     0
 78
     1
 53
45.0
 43
0.0
 44
0.0
 45
-0.282842712474619
 46
0.0
 79
     0
 98
        1
 10
0.0
 20
0.0
  0
HATCH
  5
C1
330
48
100
AcDbEntity
  8
1
  6
Continuous
 62
     2
100
AcDbHatch
 10
0.0
 20
0.0
 30
0.0
210
0.0
220
0.0
230
1.0
  2
CUSTOM3
 70
     0
 71
     1
 91
        1
 92
        1
 93
        1
 72
     4
 94
        3
 73
     0
 74
     0
 95
      131
 96
      127
 40
0.0
 40
0.0
 40
0.0
 40
0.0
 40
0.0195577029826372
 40
0.0426490537461447
 40
0.2863607575856728
 40
0.5344948436189122
 40
0.7842238845573049
 40
0.8737315789467214
 40
0.9803832810312478
 40
1.092842274517024
 40
1.199761146656756
 40
1.289788768186477
 40
1.351573580786168
 40
1.370727117561416
 40
1.416400936017828
 40
1.470914848355991
 40
1.516588666791802
 40
1.535742203552897
 40
1.634216592293191
 40
1.760283341174985
 40
1.897966686682096
 40
2.031216387368905
 40
2.049689751137895
 40
2.101115601646837
 40
2.179502577739958
 40
2.278859318314067
 40
2.393194462258724
 40
2.516516648383847
 40
2.64283451540597
 40
2.766156701983474
 40
2.880491846754578
 40
2.979848588358626
 40
3.0582355654438
 40
3.109661416668954
 40
3.128134780704135
 40
3.14678374238648
 40
3.191254343315284
 40
3.244332157315971
 40
3.288802758225875
 40
3.307451719895118
 40
3.327717853844722
 40
3.383747753580093
 40
3.468388665924477
 40
3.574487837698795
 40
3.694892515728893
 40
3.82244994685203
 40
3.950007377920419
 40
4.070412055800515
 40
4.176511227368065
 40
4.26115213950151
 40
4.317182039076696
 40
4.337448172964619
 40
4.620011002696248
 40
4.885096638397476
 40
4.945373043518303
 40
5.014107710488605
 40
5.070481727651991
 40
5.319246955636488
 40
5.584812164506005
 40
5.859000912056838
 40
6.133746937542004
 40
6.401732212968815
 40
6.420736683995434
 40
6.472845717451056
 40
6.550702743894012
 40
6.646951193874193
 40
6.754234497930517
 40
6.865196086587295
 40
6.972479390357725
 40
7.068727839771858
 40
7.146584865450896
 40
7.198693898189125
 40
7.217698368905266
 40
7.234950401630739
 40
7.276089864269784
 40
7.32519180351589
 40
7.366331266090276
 40
7.383583298769635
 40
7.40277916349204
 40
7.453386443254443
 40
7.524934666445445
 40
7.606953361405756
 40
7.688972056428907
 40
7.760520279784158
 40
7.8111275597344
 40
7.830323424546021
 40
7.847844055299651
 40
7.894799345666696
 40
7.962779392744386
 40
8.043374293560438
 40
8.12817414514935
 40
8.208769044817144
 40
8.276749090376844
 40
8.323704379669413
 40
8.341225010056148
 40
8.358497614800296
 40
8.40167912668653
 40
8.457815092185559
 40
8.513951057727992
 40
8.557132569707917
 40
8.574405174504989
 40
8.602340668616362
 40
8.643455660539932
 40
8.663225271966606
 40
8.715345156564243
 40
8.789031889628578
 40
8.873502045520315
 40
8.957972194323933
 40
9.031658925567836
 40
9.083778811234527
 40
9.103548423002987
 40
9.119550083123553
 40
9.160817522379855
 40
9.217244429110192
 40
9.278724491644677
 40
9.335151398295462
 40
9.376418837357757
 40
9.392420497300545
 40
9.401196302734764
 40
9.417494229384241
 40
9.42627002774954
 40
9.440875075477548
 40
9.475702496998748
 40
9.517270709865938
 40
9.552098131994105
 40
9.566703169884288
 40
9.566703169884288
 40
9.566703169884288
 40
9.566703169884288
 10
193.8976459078028
 20
-59.86542717468066
 10
193.894055002292
 20
-59.87104898276932
 10
193.8862244053174
 20
-59.88330834559982
 10
193.7936173904095
 20
-59.91956672938122
 10
193.7693827162796
 20
-60.1341014476638
 10
193.6664914775487
 20
-60.31361304469385
 10
193.4026697293854
 20
-60.49943015180947
 10
193.5651676498729
 20
-60.57599252413011
 10
193.6413430690387
 20
-60.63701895783652
 10
193.7298376002307
 20
-60.70042784434331
 10
193.8196135162659
 20
-60.76032954759536
 10
193.8690022565594
 20
-60.81456434129881
 10
193.9551913086931
 20
-60.8427234843726
 10
193.9217465603777
 20
-60.87845279326279
 10
193.9020876095859
 20
-60.91008200987188
 10
193.872609314743
 20
-60.95082716183021
 10
193.849519437558
 20
-60.98053925489452
 10
193.8186410897904
 20
-61.03347166310594
 10
193.7535398295288
 20
-60.90818254040196
 10
193.6602205051964
 20
-60.85344688745158
 10
193.5756841214687
 20
-60.79642165039755
 10
193.452870305529
 20
-60.6388330155157
 10
193.4570655776851
 20
-60.71522782212256
 10
193.4557683582227
 20
-60.76197308817799
 10
193.4564331377625
 20
-60.83973803166491
 10
193.4561754916506
 20
-60.93656520654672
 10
193.456263616947
 20
-61.04908309900283
 10
193.4562282231829
 20
-61.17034503033395
 10
193.4562716687828
 20
-61.29471691120131
 10
193.4561404871954
 20
-61.41590905347758
 10
193.4565682491594
 20
-61.52867440059349
 10
193.455288313186
 20
-61.62475675210349
 10
193.4585964780592
 20
-61.70444762510393
 10
193.4521402669635
 20
-61.74743413190309
 10
193.4612413635105
 20
-61.78603156607051
 10
193.4254115269483
 20
-61.77747701255022
 10
193.3921428744801
 20
-61.78216068993648
 10
193.341076750559
 20
-61.78207290219311
 10
193.3075928902361
 20
-61.77764158695272
 10
193.2713790338303
 20
-61.78597795136584
 10
193.2815987498213
 20
-61.74413311799805
 10
193.2742692817322
 20
-61.6978002815892
 10
193.2779838065652
 20
-61.61183757873079
 10
193.2765685484445
 20
-61.50953446274244
 10
193.2770310484187
 20
-61.39105365047583
 10
193.276897861578
 20
-61.26600905825738
 10
193.2769220839593
 20
-61.14082760872043
 10
193.27695598551
 20
-61.02271943600037
 10
193.276826522268
 20
-60.91929840269576
 10
193.277171247863
 20
-60.83626552825427
 10
193.2764903208239
 20
-60.78415220457853
 10
193.2800791530172
 20
-60.65645681157729
 10
193.0632376315984
 20
-60.95509872159471
 10
192.88275598515
 20
-61.18294607467577
 10
192.829652722516
 20
-61.0418514568928
 10
192.8006634062698
 20
-60.99232821418152
 10
192.7002852992368
 20
-60.88916809188989
 10
193.021133265281
 20
-60.80863553955312
 10
193.1496101934979
 20
-60.62492305942666
 10
193.3712659254908
 20
-60.41626593207332
 10
193.4576429823617
 20
-60.24219377750752
 10
193.7355599158625
 20
-59.96591537636579
 10
193.6152452768832
 20
-59.97024029427982
 10
193.5669402280897
 20
-59.96943732776541
 10
193.4908582384454
 20
-59.96984006832512
 10
193.3973214939299
 20
-59.96968313367485
 10
193.2923799718105
 20
-59.96976086402872
 10
193.1840092668266
 20
-59.96963124600541
 10
193.0787659165446
 20
-59.97004195488403
 10
192.9862442748962
 20
-59.96876515307504
 10
192.9074335730256
 20
-59.97217822444244
 10
192.8645879494929
 20
-59.96535238942776
 10
192.8255704516064
 20
-59.97493524777972
 10
192.8332570201413
 20
-59.94137809413552
 10
192.829166933386
 20
-59.91035038656861
 10
192.8291736298364
 20
-59.86322059708196
 10
192.833244465446
 20
-59.83217647332316
 10
192.8255700504132
 20
-59.79856727343193
 10
192.8641024335044
 20
-59.80810178558227
 10
192.9047432944028
 20
-59.80161153481022
 10
192.9757676780012
 20
-59.80458438328843
 10
193.0535523079183
 20
-59.80383827579935
 10
193.1313497176024
 20
-59.80310774934573
 10
193.2023437019456
 20
-59.80604353464933
 10
193.2430484721369
 20
-59.79963120206144
 10
193.2816058419458
 20
-59.80908064803091
 10
193.2733547684477
 20
-59.77293896820312
 10
193.2788551598907
 20
-59.73428751365866
 10
193.2761959135711
 20
-59.66645060417257
 10
193.2772020401082
 20
-59.58966947440354
 10
193.2766382947867
 20
-59.50709195396337
 10
193.2776919456142
 20
-59.43041259749218
 10
193.2748880792679
 20
-59.36226598202393
 10
193.2806907650852
 20
-59.3242618916975
 10
193.2721859480708
 20
-59.28800140901448
 10
193.3061815162673
 20
-59.29802865207242
 10
193.3400780612648
 20
-59.29485322165386
 10
193.3932873989895
 20
-59.30049623338485
 10
193.4466973504032
 20
-59.30123814542669
 10
193.480211957904
 20
-59.30739365496115
 10
193.5194291112587
 20
-59.30212559205497
 10
193.4926468628042
 20
-59.34305208185608
 10
193.4514315931272
 20
-59.33187384440983
 10
193.4588846470422
 20
-59.37691532786971
 10
193.4548432881733
 20
-59.4214631095095
 10
193.4567918979188
 20
-59.49335016357389
 10
193.4558569779307
 20
-59.57389958390326
 10
193.4571312119579
 20
-59.653845935741
 10
193.4538248723412
 20
-59.72716751895913
 10
193.4608311109509
 20
-59.76869945976527
 10
193.4507645309674
 20
-59.80806170410983
 10
193.483601973347
 20
-59.80090525548114
 10
193.5170782226029
 20
-59.8053134584115
 10
193.5721258405568
 20
-59.80340645631198
 10
193.6295707524863
 20
-59.80373222571806
 10
193.6829231177858
 20
-59.80452280246012
 10
193.7204745826187
 20
-59.8024462986102
 10
193.7429377452786
 20
-59.80536250811986
 10
193.7557883003279
 20
-59.79986036335039
 10
193.7664460615437
 20
-59.79757470781304
 10
193.7792840579693
 20
-59.79063616391043
 10
193.7952195962619
 20
-59.80705542665422
 10
193.8216828850441
 20
-59.81849466659647
 10
193.8533010183307
 20
-59.83913901143904
 10
193.87934608217
 20
-59.85441719350797
 10
193.8934722653522
 20
-59.8629161265591
 10
193.8976459078028
 20
-59.86542717468066
 97
        1
330
A4
 75
     1
 76
     2
 52
45.0
 41
0.1
 77
     0
 78
     1
 53
45.0
 43
0.0
 44
0.0
 45
-0.282842712474619
 46
0.0
 79
     0
 98
        1
 10
0.0
 20
0.0
  0
HATCH
  5
C2
330
48
100
AcDbEntity
  8
1
  6
Continuous
 62
     2
100
AcDbHatch
 10
0.0
 20
0.0
 30
0.0
210
0.0
220
0.0
230
1.0
  2
CUSTOM4
 70
     0
 71
     1
 91
        1
 92
        1
 93
        1
 72
     4
 94
        3
 73
     0
 74
     0
 95
       91
 96
       87
 40
0.0
 40
0.0
 40
0.0
 40
0.0
 40
0.0267532254356701
 40
0.085610338646412
 40
0.1444674521996852
 40
0.1712206856618728
 40
0.2039416005642749
 40
0.2955601971652413
 40
0.4362601844616847
 40
0.6162252844507463
 40
0.8256392189704911
 40
1.05468570984446
 40
1.293548478893553
 40
1.532411247938296
 40
1.761457738799589
 40
1.970871673298529
 40
2.150836773256725
 40
2.291536760495586
 40
2.383155356836693
 40
2.415876284101313
 40
2.442629517487956
 40
2.501486630949093
 40
2.560343744424256
 40
2.587096977826531
 40
2.61706819444093
 40
2.699247336756099
 40
2.822032643466412
 40
2.973822353257941
 40
3.143014704823384
 40
3.318007936879963
 40
3.487200288186767
 40
3.638989997548248
 40
3.761775303794775
 40
3.843954445753082
 40
3.873925662229778
 40
3.890812773500482
 40
3.90769988477166
 40
3.937960767857252
 40
3.98098361814231
 40
4.199085915228465
 40
4.439444339237251
 40
4.677588241260895
 40
5.050698317837781
 40
5.448212454763167
 40
5.855291218044692
 40
6.138575438885384
 40
6.41743450758422
 40
6.444551104393875
 40
6.504207617363181
 40
6.563864130314506
 40
6.590980727104077
 40
6.848609460381492
 40
7.109611990668489
 40
7.35291090444615
 40
7.557830220705497
 40
7.587518925913417
 40
7.652834077375886
 40
7.718149228845822
 40
7.747837934062149
 40
7.854880190301078
 40
7.976511257403594
 40
8.369487896592394
 40
8.757514959223688
 40
9.12607241933115
 40
9.460639380392212
 40
9.746695593035925
 40
9.77756994311869
 40
9.807050320931815
 40
9.830377336128947
 40
9.886003295436023
 40
9.952395569429939
 40
10.00802152870631
 40
10.03134854388223
 40
10.21356951009593
 40
10.42203479292876
 40
10.66154556731066
 40
10.91693789564306
 40
11.15832906556568
 40
11.18982674596622
 40
11.27286608520407
 40
11.39026653033354
 40
11.52484752840888
 40
11.65942852648447
 40
11.77682897161488
 40
11.85986831085685
 40
11.8913659823043
 40
11.8913659823043
 40
11.8913659823043
 40
11.8913659823043
 10
189.9834089937745
 20
-60.82858988277323
 10
189.9834442694837
 20
-60.81970741667109
 10
189.9835571640345
 20
-60.79128351931747
 10
189.9819189498037
 20
-60.7414894980929
 10
189.987595522246
 20
-60.69901024500938
 10
189.9763133661255
 20
-60.64828434122247
 10
190.0438501908581
 20
-60.66545688238982
 10
190.1194234140249
 20
-60.652683618131
 10
190.263456198555
 20
-60.65928859521712
 10
190.4375624114976
 20
-60.65670126772629
 10
190.6445804540552
 20
-60.65757997023537
 10
190.8700893101926
 20
-60.65730381059066
 10
191.1057367222954
 20
-60.65740249320433
 10
191.3413845460897
 20
-60.65730404566325
 10
191.5668922510175
 20
-60.65757910788302
 10
191.7739139562354
 20
-60.6567040270836
 10
191.9480093844837
 20
-60.65928066300647
 10
192.0920697001534
 20
-60.65270298529882
 10
192.1675896844841
 20
-60.66542345573487
 10
192.2351980966579
 20
-60.64832188787408
 10
192.2237045070224
 20
-60.69883803176152
 10
192.2311309511283
 20
-60.74305336752594
 10
192.2235043857535
 20
-60.78690622475484
 10
192.2352694388973
 20
-60.83680214499766
 10
192.1736993421532
 20
-60.82165361266583
 10
192.106299666822
 20
-60.83247923628423
 10
191.981920898577
 20
-60.82706557352857
 10
191.8360633166119
 20
-60.82909383588309
 10
191.6699781369634
 20
-60.8284281140071
 10
191.4994617551273
 20
-60.82868945457852
 10
191.3325995784937
 20
-60.82837035588003
 10
191.1893551756654
 20
-60.82923286388331
 10
191.0579518799382
 20
-60.82695288496109
 10
191.0046064064206
 20
-60.83150884604891
 10
190.9291393386461
 20
-60.82558673986219
 10
190.9575280708782
 20
-60.83464419635742
 10
190.9839857339091
 20
-60.83832676710166
 10
190.9439727837251
 20
-60.86904317010823
 10
190.8519868621417
 20
-60.85890997804454
 10
190.8245601136618
 20
-61.10526086731311
 10
190.7284998896783
 20
-61.26059030214721
 10
190.4723482894022
 20
-61.59033171047525
 10
191.0433742662312
 20
-61.45128566768645
 10
191.2979861250065
 20
-61.4526680900573
 10
191.9085851978166
 20
-61.53768019737009
 10
191.6146903507633
 20
-61.2387317142089
 10
191.2939509216065
 20
-61.09227732077315
 10
191.4119748289982
 20
-61.03533048160807
 10
191.453092139581
 20
-61.01138489105743
 10
191.496301732396
 20
-60.98958830167867
 10
191.5980779023997
 20
-60.92629867725176
 10
191.7135072554796
 20
-61.18411437570322
 10
191.9135796571826
 20
-61.31942547865408
 10
192.0075282316777
 20
-61.49765793840211
 10
192.2365034675941
 20
-61.65560767952044
 10
192.1402236776257
 20
-61.70642616402795
 10
192.0974164693327
 20
-61.73677296456037
 10
192.0524448458327
 20
-61.76092458697637
 10
191.9927925854762
 20
-61.81006442231522
 10
191.9595935990873
 20
-61.67561113305484
 10
191.8388218280344
 20
-61.51964323692513
 10
191.4777180935527
 20
-61.64988660919536
 10
191.119126688509
 20
-61.63333894569613
 10
190.7377125379628
 20
-61.64227359627228
 10
190.4509660212441
 20
-61.70675917306691
 10
190.1398260529262
 20
-61.59327920786262
 10
190.1074942748337
 20
-61.70436329051329
 10
190.0702383182867
 20
-61.72362275129081
 10
190.0671942562302
 20
-61.67683804891798
 10
190.0486097790156
 20
-61.6375173505996
 10
190.0318641546326
 20
-61.57792605500858
 10
190.0189935845302
 20
-61.53356619107812
 10
189.9848532735978
 20
-61.44452257858886
 10
190.2288919387303
 20
-61.51377546035327
 10
190.424759941622
 20
-61.53528219921348
 10
190.5201631310826
 20
-61.25332104500631
 10
190.5751340699145
 20
-61.09195543557971
 10
190.7965824286705
 20
-60.82167411389362
 10
190.6655444310765
 20
-60.83010142125359
 10
190.5916231485404
 20
-60.82779580482126
 10
190.4783664805792
 20
-60.82887210657437
 10
190.3500456737033
 20
-60.82850949902585
 10
190.2210456959965
 20
-60.8286086451301
 10
190.1094045875839
 20
-60.82858656266521
 10
190.0320868899577
 20
-60.82859009789426
 10
189.9939081461558
 20
-60.82858993134014
 10
189.9834089937745
 20
-60.82858988277323
 97
        1
330
A5
 75
     1
 76
     2
 52
45.0
 41
0.1
 77
     0
 78
     1
 53
45.0
 43
0.0
 44
0.0
 45
-0.282842712474619
 46
0.0
 79
     0
 98
        1
 10
0.0
 20
0.0
  0
HATCH
  5
C3
330
48
100
AcDbEntity
  8
1
  6
Continuous
 62
     2
100
AcDbHatch
 10
0.0
 20
0.0
 30
0.0
210
0.0
220
0.0
230
1.0
  2
CUSTOM5
 70
     0
 71
     1
 91
        1
 92
        1
 93
        1
 72
     4
 94
        3
 73
     0
 74
     0
 95
       35
 96
       31
 40
0.0
 40
0.0
 40
0.0
 40
0.0
 40
0.03352310366207
 40
0.0713218571712133
 40
0.4278866681486978
 40
0.8116865841963976
 40
1.19819023800003
 40
1.561379546812681
 40
1.659983174622042
 40
1.759315573807184
 40
2.132719617231072
 40
2.525233363588808
 40
2.910815397779714
 40
3.265244364303283
 40
3.592606723582016
 40
3.96438615460395
 40
4.359942131737787
 40
4.758154118639299
 40
4.843846538699902
 40
4.936650065543233
 40
5.25661660253731
 40
5.581707404416019
 40
5.899719158308137
 40
6.198363494280725
 40
6.466301046615778
 40
6.493895311537071
 40
6.559697020196892
 40
6.638234543442495
 40
6.704036252154247
 40
6.731630508423025
 40
6.731630508423025
 40
6.731630508423025
 40
6.731630508423025
 10
191.2542215498218
 20
-59.30094745259959
 10
191.2482211027338
 20
-59.31077898436769
 10
191.2354549028705
 20
-59.33169600399295
 10
191.0755566936107
 20
-59.36431462446412
 10
191.5128230771883
 20
-59.65351908642389
 10
191.7151599757811
 20
-59.85517450620657
 10
191.9625769197522
 20
-60.0980920137582
 10
192.4637718554155
 20
-60.17510926221316
 10
192.2931767128519
 20
-60.31681649804439
 10
192.218950439275
 20
-60.51848222769988
 10
191.8937637177736
 20
-60.1660230180437
 10
191.6083946600214
 20
-60.00383376419529
 10
191.3143809007207
 20
-59.7987145892605
 10
191.0890657620683
 20
-59.31731100383639
 10
190.8799289985071
 20
-59.7821554236987
 10
190.6014078604384
 20
-59.99207636726184
 10
190.3177588106758
 20
-60.16134132619104
 10
189.988484445738
 20
-60.53416228071164
 10
189.9083217247774
 20
-60.33850574520089
 10
189.7565929839293
 20
-60.21067484788502
 10
190.1889600756343
 20
-60.13104557213157
 10
190.3768770259315
 20
-59.93531954063621
 10
190.6274682350052
 20
-59.71925592062341
 10
190.852055539971
 20
-59.55367596679034
 10
190.9065980339261
 20
-59.27424624342265
 10
191.030086595856
 20
-59.28820638571017
 10
191.0866478274069
 20
-59.29037320111448
 10
191.1568075914493
 20
-59.29511729097734
 10
191.2139618951655
 20
-59.29849159628552
 10
191.2450395250388
 20
-59.30038734267973
 10
191.2542215498218
 20
-59.30094745259959
 97
        1
330
A6
 75
     1
 76
     2
 52
45.0
 41
0.1
 77
     0
 78
     1
 53
45.0
 43
0.0
 44
0.0
 45
-0.282842712474619
 46
0.0
 79
     0
 98
        1
 10
0.0
 20
0.0
  0
HATCH
  5
C4
330
48
100
AcDbEntity
  8
1
  6
Continuous
 62
     2
100
AcDbHatch
 10
0.0
 20
0.0
 30
0.0
210
0.0
220
0.0
230
1.0
  2
CUSTOM6
 70
     0
 71
     1
 91
        1
 92
        1
 93
        1
 72
     4
 94
        3
 73
     0
 74
     0
 95
       15
 96
       11
 40
0.0
 40
0.0
 40
0.0
 40
0.0
 40
0.2785535985097094
 40
0.5215624748199088
 40
0.6076917376040492
 40
0.693821000174125
 40
0.940501914645515
 40
1.221691403489147
 40
1.300471877081049
 40
1.379252341684819
 40
1.379252341684819
 40
1.379252341684819
 40
1.379252341684819
 10
188.8487698560548
 20
-59.30628321648712
 10
188.9102222723727
 20
-59.35866942386376
 10
189.0252854903662
 20
-59.45675712180868
 10
189.3203553426793
 20
-59.60668803081871
 10
189.1831352561405
 20
-59.69215361464082
 10
189.0847432773328
 20
-59.82472803777541
 10
188.9936238520199
 20
-59.51941603197674
 10
188.6443044410204
 20
-59.45590719513721
 10
188.792546330612
 20
-59.35662079098216
 10
188.8300286803785
 20
-59.3230624057671
 10
188.8487698560548
 20
-59.30628321648712
 97
        1
330
A7
 75
     1
 76
     2
 52
45.0
 41
0.1
 77
     0
 78
     1
 53
45.0
 43
0.0
 44
0.0
 45
-0.282842712474619
 46
0.0
 79
     0
 98
        1
 10
0.0
 20
0.0
  0
HATCH
  5
C5
330
48
100
AcDbEntity
  8
1
  6
Continuous
 62
     2
100
AcDbHatch
 10
0.0
 20
0.0
 30
0.0
210
0.0
220
0.0
230
1.0
  2
CUSTOM7
 70
     0
 71
     1
 91
        1
 92
        1
 93
        1
 72
     4
 94
        3
 73
     0
 74
     0
 95
       75
 96
       71
 40
0.0
 40
0.0
 40
0.0
 40
0.0
 40
0.0342546099129638
 40
0.1245622414432364
 40
0.25223854808975
 40
0.3985991922940573
 40
0.5449598364980732
 40
0.6726361431438763
 40
0.76294377467368
 40
0.7971983935297831
 40
1.101723623449674
 40
1.408591244036679
 40
1.433332471690384
 40
1.487763172450178
 40
1.542193873082017
 40
1.566935100592559
 40
1.923523931821898
 40
2.271755704953671
 40
2.590579755100941
 40
2.858943305581202
 40
2.889120339309217
 40
2.918305855191166
 40
2.941366645531291
 40
2.99635776097316
 40
3.061992318140741
 40
3.116983433626933
 40
3.140044223997621
 40
3.411273122936542
 40
3.732441619741232
 40
3.761068217532925
 40
3.837787499630489
 40
3.948858699126122
 40
4.080541049104513
 40
4.219093782625885
 40
4.350776132722432
 40
4.461847332405769
 40
4.538566614678496
 40
4.567193212544739
 40
4.594907573999025
 40
4.666381453557536
 40
4.764111044011175
 40
4.870592538125978
 40
4.968322128642429
 40
5.039796008287114
 40
5.067510369784573
 40
5.094263603185789
 40
5.153120716668427
 40
5.211977830150866
 40
5.238731063551876
 40
5.272290535139115
 40
5.363380529444976
 40
5.497618415781654
 40
5.660621563453896
 40
5.838007341749597
 40
6.01539311991092
 40
6.178396267038574
 40
6.312634151842525
 40
6.403724143059515
 40
6.43728361267261
 40
6.464036846261232
 40
6.522893960004852
 40
6.581751071484115
 40
6.608504301591063
 40
6.637253941281211
 40
6.711397748903062
 40
6.812778057283646
 40
6.923237199249451
 40
7.024617507624095
 40
7.098761315207748
 40
7.127510946007698
 40
7.127510946007698
 40
7.127510946007698
 40
7.127510946007698
 10
187.7224827320113
 20
-60.57709460505831
 10
187.7224827749255
 20
-60.58851275570374
 10
187.7224829410678
 20
-60.63003331136468
 10
187.7224798011335
 20
-60.71411666975321
 10
187.7224993209348
 20
-60.83554091656769
 10
187.7224117117287
 20
-60.97578094931646
 10
187.7227321164778
 20
-61.1155203218452
 10
187.721781083929
 20
-61.23813550084167
 10
187.7238183525515
 20
-61.31971514541049
 10
187.7155638108296
 20
-61.47287321901403
 10
188.023700287045
 20
-61.30998352924374
 10
188.3156850103285
 20
-61.1407565029109
 10
188.3214559378257
 20
-61.27585353197183
 10
188.326167664944
 20
-61.31941367818649
 10
188.3288740341468
 20
-61.36347339628548
 10
188.3478750602505
 20
-61.51285998615962
 10
187.9390147176853
 20
-61.44877416737829
 10
187.659991527838
 20
-61.56262247568081
 10
187.3824286516715
 20
-61.66194493167947
 10
187.090604211395
 20
-61.61927901382745
 10
187.0675349608206
 20
-61.72236909234553
 10
187.0343679312882
 20
-61.74867497734626
 10
187.0286858892287
 20
-61.70103279942794
 10
187.0090419488593
 20
-61.66378252864023
 10
186.9901294415172
 20
-61.60551201131534
 10
186.9749054797256
 20
-61.56173387971288
 10
186.9283451302484
 20
-61.44799167932782
 10
187.2697102241999
 20
-61.47982287859047
 10
187.5485854296935
 20
-61.51397153872611
 10
187.5423957964456
 20
-61.36644612499443
 10
187.5437140382322
 20
-61.29545438070261
 10
187.5431036619497
 20
-61.18838821020434
 10
187.5432076500274
 20
-61.06160059193096
 10
187.5436192893604
 20
-60.92709345483043
 10
187.5420112771518
 20
-60.80163039027909
 10
187.5466107497475
 20
-60.69053342259978
 10
187.5370391431759
 20
-60.62796702178405
 10
187.551020671324
 20
-60.56963200684094
 10
187.4953589316254
 20
-60.58268878396857
 10
187.438186012737
 20
-60.57422281229597
 10
187.3422253855197
 20
-60.57828612898459
 10
187.2439972452369
 20
-60.5758769912662
 10
187.1478787387109
 20
-60.58006988365708
 10
187.091085345536
 20
-60.57129242537931
 10
187.0356561802933
 20
-60.58463652128975
 10
187.0476884357466
 20
-60.5352167801984
 10
187.0398208103487
 20
-60.49164600948698
 10
187.0472500493377
 20
-60.4472811986057
 10
187.0358135493692
 20
-60.39656291215105
 10
187.1038307299682
 20
-60.41396128221351
 10
187.1774701809295
 20
-60.4014113874191
 10
187.3131268987759
 20
-60.40758911967996
 10
187.4691113954074
 20
-60.40529385886013
 10
187.6422131287692
 20
-60.40617620716565
 10
187.8153147893731
 20
-60.40529381836688
 10
187.9712994740765
 20
-60.40758926023544
 10
188.1069556819346
 20
-60.40141102716663
 10
188.1805961635201
 20
-60.4139619476076
 10
188.2486119104273
 20
-60.39656215966951
 10
188.2371795815471
 20
-60.44728458564541
 10
188.2445744387846
 20
-60.49161528167988
 10
188.2368244841819
 20
-60.53530281428898
 10
188.2487408671425
 20
-60.58494998880619
 10
188.1914375153166
 20
-60.57097177640667
 10
188.1326350719321
 20
-60.58018833305842
 10
188.0331498562748
 20
-60.57606320814164
 10
187.9300485027899
 20
-60.5773582895321
 10
187.8344051284122
 20
-60.57704511901454
 10
187.7663672901165
 20
-60.57709812281948
 10
187.7320667142992
 20
-60.57709537107439
 10
187.7224827320113
 20
-60.57709460505831
 97
        1
330
A8
 75
     1
 76
     2
 52
45.0
 41
0.1
 77
     0
 78
     1
 53
45.0
 43
0.0
 44
0.0
 45
-0.282842712474619
 46
0.0
 79
     0
 98
        1
 10
0.0
 20
0.0
  0
HATCH
  5
C6
330
48
100
AcDbEntity
  8
1
  6
Continuous
 62
     2
100
AcDbHatch
 10
0.0
 20
0.0
 30
0.0
210
0.0
220
0.0
230
1.0
  2
CUSTOM8
 70
     0
 71
     1
 91
        1
 92
        1
 93
        1
 72
     4
 94
        3
 73
     0
 74
     0
 95
       91
 96
       87
 40
0.0
 40
0.0
 40
0.0
 40
0.0
 40
0.0345987051695718
 40
0.1258134969461085
 40
0.2547723404888703
 40
0.4026032099154125
 40
0.5504340793416704
 40
0.6793929228836364
 40
0.7706077146571035
 40
0.8052064287780925
 40
1.124852390615281
 40
1.427402236308874
 40
1.706356627453523
 40
1.955541417875212
 40
2.169485938566365
 40
2.344350786664806
 40
2.480568411561983
 40
2.590440557429004
 40
2.649189927151135
 40
2.749320643306348
 40
2.912632739880043
 40
3.147745656000261
 40
3.24482749638511
 40
3.338490056946748
 40
3.58381541320718
 40
3.761423943238538
 40
3.886956104362708
 40
3.985855451886913
 40
4.091766255337769
 40
4.250186473811962
 40
4.422734315084633
 40
4.628285684838706
 40
4.872093227758541
 40
5.152549652145664
 40
5.464967135837639
 40
5.803201477852559
 40
6.160362988814038
 40
6.193449448276064
 40
6.284170385501747
 40
6.419718138764646
 40
6.587285046385867
 40
6.774063446723781
 40
6.967245678113793
 40
7.154024078817779
 40
7.321590987026164
 40
7.457138740890523
 40
7.547859678556259
 40
7.580946138182819
 40
7.608533084714866
 40
7.669224367077826
 40
7.729915649430035
 40
7.757502595950088
 40
7.79027806255357
 40
7.880146277431011
 40
8.014419963180474
 40
8.180411842398003
 40
8.365434637679444
 40
8.556801071622774
 40
8.74182386683083
 40
8.907815745916396
 40
9.04208943150755
 40
9.131957646249676
 40
9.164733112797252
 40
9.415425063140198
 40
9.66798618095866
 40
9.6941698074628
 40
9.75660768604773
 40
9.831130315322593
 40
9.893568193900029
 40
9.919751820398874
 40
9.950967964690708
 40
9.996421631210845
 40
10.22087981037474
 40
10.44341866197563
 40
10.47847970788879
 40
10.57091337438774
 40
10.70159545461251
 40
10.85140174170379
 40
11.00120802880496
 40
11.13189010907404
 40
11.22432377583029
 40
11.25938480938975
 40
11.28697175596163
 40
11.34766303835937
 40
11.40835432042086
 40
11.4359412589212
 40
11.4359412589212
 40
11.4359412589212
 40
11.4359412589212
 10
189.3624319262838
 20
-59.98315793854016
 10
189.3508990774489
 20
-59.98315798691176
 10
189.3089614374547
 20
-59.9831581527493
 10
189.2240334648575
 20
-59.98315463178184
 10
189.1013893482677
 20
-59.98317662543214
 10
188.9597411846542
 20
-59.9830778780204
 10
188.8185958628038
 20
-59.9834390274667
 10
188.6947556247453
 20
-59.98236705370007
 10
188.612342275493
 20
-59.98466339887824
 10
188.4533996159241
 20
-59.97510019605675
 10
188.6309607282925
 20
-60.3377319466772
 10
188.6185944135001
 20
-60.5831546125598
 10
188.6870724403413
 20
-60.86696087654258
 10
188.7499229250519
 20
-61.10307589040058
 10
188.8258458361278
 20
-61.30231848582964
 10
188.9109394506565
 20
-61.45813241527721
 10
189.0050812522485
 20
-61.55900731197704
 10
189.1088853137276
 20
-61.6109273634013
 10
189.1932076960323
 20
-61.55952104599478
 10
189.2157527109001
 20
-61.44414044941578
 10
189.2551935904919
 20
-61.31673439276712
 10
189.2009124664492
 20
-60.99936260892339
 10
189.3257423002022
 20
-61.14576408838191
 10
189.4825496443152
 20
-61.17763288647919
 10
189.3753924936606
 20
-61.41137231211465
 10
189.3614916139416
 20
-61.57585812395438
 10
189.3040914396775
 20
-61.70427719856615
 10
189.2141225074557
 20
-61.77539786626267
 10
189.0901479587426
 20
-61.79126264836842
 10
188.9440478126409
 20
-61.75564791424921
 10
188.8050099249833
 20
-61.63558018478818
 10
188.6908208891693
 20
-61.46122906428775
 10
188.5952346231035
 20
-61.23611985867852
 10
188.5124857502175
 20
-60.97170342972652
 10
188.4613384185961
 20
-60.6537065588055
 10
188.3576394136887
 20
-60.38014860490181
 10
188.484904613807
 20
-59.97552770366229
 10
188.3164095552567
 20
-59.98446221129414
 10
188.2318200716627
 20
-59.98242627560731
 10
188.0996081317176
 20
-59.98344651590686
 10
187.9366710023653
 20
-59.98305358660666
 10
187.7539964100083
 20
-59.98322892665724
 10
187.5653262302931
 20
-59.98298483671626
 10
187.3820673949738
 20
-59.98372931072858
 10
187.2210951762267
 20
-59.98142228456667
 10
187.0836013264824
 20
-59.98758784095427
 10
187.0095795301859
 20
-59.97525750520885
 10
186.9419420116405
 20
-59.99229265255534
 10
186.9538578648818
 20
-59.94034150531569
 10
186.9461882215243
 20
-59.89487164012565
 10
186.9538797154664
 20
-59.8494413527539
 10
186.9419346727311
 20
-59.79756192994527
 10
187.0089793235414
 20
-59.81439445488829
 10
187.0823580595226
 20
-59.80223179886428
 10
187.2185333234821
 20
-59.80831357904138
 10
187.378001673106
 20
-59.80603754664038
 10
187.5595378015385
 20
-59.80677354980135
 10
187.7464239791727
 20
-59.80652634782961
 10
187.9274217246384
 20
-59.80672188179843
 10
188.0887007508427
 20
-59.80626354264255
 10
188.2200087054435
 20
-59.80745915227891
 10
188.3031256252145
 20
-59.80507241659354
 10
188.4362441477363
 20
-59.81327983253632
 10
188.3452098432209
 20
-59.55805720026444
 10
188.2595838003966
 20
-59.29394230650841
 10
188.3796793933004
 20
-59.30654146009931
 10
188.4320469878092
 20
-59.30864353216018
 10
188.5020702499265
 20
-59.31023189089439
 10
188.5478127267365
 20
-59.3195602144098
 10
188.6027017576482
 20
-59.31012622063666
 10
188.576977971523
 20
-59.35825560323924
 10
188.4631602501002
 20
-59.35291759234921
 10
188.5965551550685
 20
-59.5810941440232
 10
188.474986366502
 20
-59.81401732383175
 10
188.6029393698962
 20
-59.80471330094657
 10
188.685525333601
 20
-59.80757587224416
 10
188.8113419780373
 20
-59.80635151566796
 10
188.9547674767607
 20
-59.80626157090131
 10
189.0963625881277
 20
-59.80812425795243
 10
189.2265332179516
 20
-59.80225513041933
 10
189.299965721574
 20
-59.81488248155895
 10
189.3697317851644
 20
-59.79681025868683
 10
189.3581977534945
 20
-59.8494573843277
 10
189.3639389276231
 20
-59.89337271292547
 10
189.362282070046
 20
-59.94468606302545
 10
189.3623962491219
 20
-59.97399796957458
 10
189.3624319262838
 20
-59.98315793854016
 97
        1
330
A9
 75
     1
 76
     2
 52
45.0
 41
0.1
 77
     0
 78
     1
 53
45.0
 43
0.0
 44
0.0
 45
-0.282842712474619
 46
0.0
 79
     0
 98
        1
 10
0.0
 20
0.0
  0
HATCH
  5
C7
330
48
100
AcDbEntity
  8
1
  6
Continuous
 62
     2
100
AcDbHatch
 10
0.0
 20
0.0
 30
0.0
210
0.0
220
0.0
230
1.0
  2
CUSTOM9
 70
     0
 71
     1
 91
        1
 92
        1
 93
        1
 72
     4
 94
        3
 73
     0
 74
     0
 95
      118
 96
      114
 40
0.0
 40
0.0
 40
0.0
 40
0.0
 40
0.1054708162973293
 40
0.2466098270051597
 40
0.3965912874591178
 40
0.5285525069753653
 40
0.6156245055642127
 40
0.6431434105797342
 40
0.7036850037985947
 40
0.7642265984504402
 40
0.7917455052354677
 40
0.9287404319989874
 40
1.106572819088018
 40
1.287544879681033
 40
1.317578308030552
 40
1.399928030857194
 40
1.522968204799963
 40
1.675072986590597
 40
1.844616533180674
 40
2.019973001638744
 40
2.189516548880055
 40
2.341621331585391
 40
2.464661506320536
 40
2.547011229647102
 40
2.577044658168067
 40
2.603797890893138
 40
2.662655002908854
 40
2.721512114949665
 40
2.748265347702817
 40
2.774215307344893
 40
2.845959313407225
 40
2.954338556588422
 40
3.09019422758561
 40
3.244367517100568
 40
3.407699615844334
 40
3.571031714539484
 40
3.725205003920157
 40
3.861060674729669
 40
3.969439917716355
 40
4.041183923629025
 40
4.067133883213022
 40
4.311886746012195
 40
4.547897258335576
 40
4.76474708304403
 40
4.952749679951837
 40
5.045772974195956
 40
5.137862019645054
 40
5.330543169793115
 40
5.553448265244096
 40
5.795083855888253
 40
6.043293412177323
 40
6.285761695541275
 40
6.313902908752787
 40
6.384255941793377
 40
6.475714884766937
 40
6.567173827758999
 40
6.637526860839777
 40
6.665668074074141
 40
6.692018920328117
 40
6.74999078207118
 40
6.807962643790539
 40
6.834313490018012
 40
6.85639308424529
 40
6.913335195649914
 40
6.991194817302606
 40
7.076026942283868
 40
7.153886563725386
 40
7.210828674844912
 40
7.232908268931276
 40
7.258199334923802
 40
7.324875781592446
 40
7.419142481925114
 40
7.527204308842052
 40
7.63526613523063
 40
7.729532834168623
 40
7.796209279292938
 40
7.821500344594888
 40
7.844652988851016
 40
7.899863140541738
 40
7.965759128053875
 40
8.020969279771217
 40
8.044121924046655
 40
8.069356610160755
 40
8.10913439544153
 40
8.13223810019123
 40
8.1931478677866
 40
8.279261678876765
 40
8.377977512673986
 40
8.476693347146778
 40
8.562807160411829
 40
8.623716930826617
 40
8.646820636853569
 40
8.67198879377441
 40
8.734909185828293
 40
8.816705695188979
 40
8.89850220481555
 40
8.96142259737801
 40
8.986590754551123
 40
9.012941600733285
 40
9.07091346238036
 40
9.12888532408185
 40
9.155236170325168
 40
9.18040432792921
 40
9.243324721948284
 40
9.325121234212048
 40
9.406917746637731
 40
9.469838141978158
 40
9.495006288270933
 40
9.517811184379074
 40
9.572192090487082
 40
9.637098333281305
 40
9.691479239515512
 40
9.714284125643548
 40
9.714284125643548
 40
9.714284125643548
 40
9.714284125643548
 10
184.5680673958202
 20
-60.26669425791374
 10
184.5897195498586
 20
-60.29446719736281
 10
184.6403462039022
 20
-60.35940534417857
 10
184.715558813214
 20
-60.466675286662
 10
184.8054687203895
 20
-60.58181150712462
 10
184.8515374606222
 20
-60.68201543230779
 10
184.9462030224203
 20
-60.75124582164148
 10
184.9010644249962
 20
-60.79786949300824
 10
184.8753252715339
 20
-60.83898280113054
 10
184.8451401637561
 20
-60.87492617251156
 10
184.7999889660111
 20
-60.94978806383001
 10
184.7516709388111
 20
-60.7277606472549
 10
184.6774744642622
 20
-60.69047911641384
 10
184.5642252254155
 20
-60.4194838684849
 10
184.5691338507718
 20
-60.53463260532865
 10
184.5674691485854
 20
-60.60721913197466
 10
184.5683035006264
 20
-60.72933000495107
 10
184.5679814469813
 20
-60.87644788168632
 10
184.5681281842005
 20
-61.04251525022536
 10
184.5679155022271
 20
-61.21371034370492
 10
184.5685702181582
 20
-61.38005760343596
 10
184.5665397390688
 20
-61.526234159234
 10
184.5719665329479
 20
-61.65087541504482
 10
184.5611135798257
 20
-61.7183993243847
 10
184.5762944085103
 20
-61.78009527562072
 10
184.5264100037683
 20
-61.76831085082093
 10
184.4823355272071
 20
-61.77614766199126
 10
184.438857655975
 20
-61.76798147606392
 10
184.3898551716037
 20
-61.78020532240626
 10
184.4024936164374
 20
-61.72597921729783
 10
184.3936387897999
 20
-61.66621670071537
 10
184.3981263699862
 20
-61.55636559934725
 10
184.396416506554
 20
-61.42528613573417
 10
184.3969755845536
 20
-61.27360577534768
 10
184.3968133698243
 20
-61.1134751404914
 10
184.3968474854224
 20
-60.95321723304529
 10
184.3968719889675
 20
-60.80188341458655
 10
184.3967658472774
 20
-60.66976432640493
 10
184.397050407148
 20
-60.562637864459
 10
184.3964880477117
 20
-60.4974996939962
 10
184.3986970013237
 20
-60.36939631120421
 10
184.3125640928152
 20
-60.74460978587521
 10
184.2361345748048
 20
-60.89640395855699
 10
184.1466245697382
 20
-61.05792382532788
 10
184.0446618146875
 20
-61.33086740158922
 10
183.9994181420588
 20
-61.16841242382582
 10
183.8908560871218
 20
-61.07953156920975
 10
184.0801996681302
 20
-60.93008794017688
 10
184.1371545475249
 20
-60.7380945200417
 10
184.2523725922901
 20
-60.50658966072336
 10
184.2746356559681
 20
-60.31761329220032
 10
184.4578110081688
 20
-60.04104499653158
 10
184.3344238527101
 20
-60.04859610147001
 10
184.2731889096382
 20
-60.04701816612975
 10
184.1888204546613
 20
-60.04675996405418
 10
184.1010440015515
 20
-60.05013743227889
 10
184.0462973625671
 20
-60.04163773997073
 10
183.9910907955573
 20
-60.05510027929304
 10
184.0029027965085
 20
-60.00627146852332
 10
183.9948701081343
 20
-59.96289584082383
 10
184.0034391034226
 20
-59.92049150669521
 10
183.9909148338705
 20
-59.87290792426975
 10
184.0361306468284
 20
-59.88291375983986
 10
184.0821020492272
 20
-59.87664483805032
 10
184.1583426977259
 20
-59.87965027573223
 10
184.2367501061543
 20
-59.87788140700552
 10
184.3130197578481
 20
-59.88093794997434
 10
184.3589214389024
 20
-59.87454617602918
 10
184.4037938894949
 20
-59.884647660002
 10
184.3911757205182
 20
-59.83401387397195
 10
184.3998141512256
 20
-59.78057327097024
 10
184.3958566524991
 20
-59.68695333847415
 10
184.3968529997884
 20
-59.58445982290171
 10
184.3978132342622
 20
-59.4820531873093
 10
184.3939416387555
 20
-59.38822659369772
 10
184.4023994743913
 20
-59.33522046138741
 10
184.3899280862384
 20
-59.28347153327903
 10
184.43483113194
 20
-59.2970784175234
 10
184.4761288766321
 20
-59.29458108658506
 10
184.54015492106
 20
-59.29910528404608
 10
184.5792316078335
 20
-59.30777585935783
 10
184.6282748428291
 20
-59.30043486908406
 10
184.6031284960139
 20
-59.33955692927335
 10
184.5622106263272
 20
-59.32994746523285
 10
184.5716314546152
 20
-59.38018440809316
 10
184.5661852248295
 20
-59.43172643339605
 10
184.5687904531353
 20
-59.51598881394572
 10
184.5676307131704
 20
-59.60999453395686
 10
184.5689795993779
 20
-59.70361723583567
 10
184.5656175031058
 20
-59.78879071426873
 10
184.5727164847318
 20
-59.8384173290705
 10
184.5618774084095
 20
-59.88564894009107
 10
184.6110215154794
 20
-59.8735691404224
 10
184.6601082559696
 20
-59.88111195616082
 10
184.737991921019
 20
-59.87872518617662
 10
184.8156570102444
 20
-59.87659207073681
 10
184.8651598860904
 20
-59.88365197056638
 10
184.9150799680188
 20
-59.87198437042881
 10
184.9029403446429
 20
-59.92018353607703
 10
184.9112043158692
 20
-59.96309369177858
 10
184.9029403580332
 20
-60.00600387127708
 10
184.9150799479403
 20
-60.0542030022423
 10
184.8651600088294
 20
-60.04253554507576
 10
184.8156555580752
 20
-60.0495938654405
 10
184.7379989312522
 20
-60.04746923750489
 10
184.6600848795309
 20
-60.04505199613335
 10
184.6110705282265
 20
-60.05266740784604
 10
184.5619451038492
 20
-60.04050636421501
 10
184.5721764918121
 20
-60.08485575554935
 10
184.5662882607602
 20
-60.12633152776182
 10
184.5684993235118
 20
-60.18643194663787
 10
184.5680314275695
 20
-60.23332806216207
 10
184.5680591922462
 20
-60.25908442560895
 10
184.5680673958202
 20
-60.26669425791374
 97
        1
330
AA
 75
     1
 76
     2
 52
45.0
 41
0.1
 77
     0
 78
     1
 53
45.0
 43
0.0
 44
0.0
 45
-0.282842712474619
 46
0.0
 79
     0
 98
        1
 10
0.0
 20
0.0
  0
HATCH
  5
C8
330
48
100
AcDbEntity
  8
1
  6
Continuous
 62
     2
100
AcDbHatch
 10
0.0
 20
0.0
 30
0.0
210
0.0
220
0.0
230
1.0
  2
CUSTOM10
 70
     0
 71
     1
 91
        1
 92
        1
 93
        1
 72
     4
 94
        3
 73
     0
 74
     0
 95
       47
 96
       43
 40
0.0
 40
0.0
 40
0.0
 40
0.0
 40
0.2207912809957095
 40
0.4459404186303061
 40
0.4902387190459281
 40
0.5327473892722243
 40
0.5742260451225558
 40
0.6155432630560564
 40
0.6568164066315763
 40
0.69825116187804
 40
0.7407663929316909
 40
0.7851366743175271
 40
1.01028883383634
 40
1.23108050700218
 40
1.451765243652402
 40
1.676638205891708
 40
1.720461045359679
 40
1.830018144043544
 40
1.972442372353173
 40
2.114866600677539
 40
2.224423699395169
 40
2.268246538883405
 40
2.493628801207244
 40
2.715602830286649
 40
2.934211330706393
 40
3.14950236985538
 40
3.231387784851025
 40
3.318231873854089
 40
3.405143198198048
 40
3.486970301720484
 40
3.702258172493921
 40
3.920866283534145
 40
4.14283932593194
 40
4.3682219038654
 40
4.412044743359882
 40
4.521601842095894
 40
4.664026070452376
 40
4.806450298809079
 40
4.916007397546782
 40
4.959830237043104
 40
5.184703515847144
 40
5.405387250767517
 40
5.405387250767517
 40
5.405387250767517
 40
5.405387250767517
 10
181.9313632188194
 20
-59.80152148025221
 10
181.9374344349552
 20
-59.73800106477884
 10
181.9496967036791
 20
-59.60970650289463
 10
181.8410911808962
 20
-59.33392368805021
 10
181.9568190826153
 20
-59.36370455547039
 10
181.9978047438565
 20
-59.36793032716275
 10
182.0397410727066
 20
-59.37248142589485
 10
182.0810401555259
 20
-59.37356606049607
 10
182.1223237045104
 20
-59.37248250783867
 10
182.1642353200196
 20
-59.3679247626775
 10
182.2052188478568
 20
-59.36371158769367
 10
182.3211127773038
 20
-59.33380977661555
 10
182.2101857657005
 20
-59.61218782369207
 10
182.2381061294816
 20
-59.79275448154141
 10
182.2210472276518
 20
-60.0259754663262
 10
182.2220842211651
 20
-60.1865196643595
 10
182.2220304328952
 20
-60.31273771420371
 10
182.2220482302029
 20
-60.41129625642856
 10
182.2220393510627
 20
-60.54277886536129
 10
182.2220468857582
 20
-60.67425744010447
 10
182.2220334334676
 20
-60.77282366285004
 10
182.2220736647041
 20
-60.89918853354942
 10
182.2212951333365
 20
-61.06076520156223
 10
182.2372163248816
 20
-61.2919676708618
 10
182.2139673814956
 20
-61.47684237007094
 10
182.3166388373914
 20
-61.74622986209036
 10
182.1626443292385
 20
-61.7089847629328
 10
182.0810334732381
 20
-61.71420594298557
 10
181.9994397222132
 20
-61.70897968600744
 10
181.8454718596391
 20
-61.74621519093706
 10
181.9480388351466
 20
-61.47683459116216
 10
181.9248250245637
 20
-61.2919700365368
 10
181.9406649584687
 20
-61.06076370413457
 10
181.9399501242976
 20
-60.89918876670593
 10
181.9399869499455
 20
-60.77282357768573
 10
181.9399753929819
 20
-60.67425832343113
 10
181.9399779948762
 20
-60.54277461561873
 10
181.9399853461328
 20
-60.41131040947896
 10
181.93996474709
 20
-60.31270802703767
 10
181.9400287121576
 20
-60.18662439624668
 10
181.938793887714
 20
-60.02348497595323
 10
181.9338245326294
 20
-59.87504405201543
 10
181.9313632188194
 20
-59.80152148025221
 97
        1
330
AB
 75
     1
 76
     2
 52
45.0
 41
0.1
 77
     0
 78
     1
 53
45.0
 43
0.0
 44
0.0
 45
-0.282842712474619
 46
0.0
 79
     0
 98
        1
 10
0.0
 20
0.0
  0
HATCH
  5
C9
330
48
100
AcDbEntity
  8
1
  6
Continuous
 62
     2
100
AcDbHatch
 10
0.0
 20
0.0
 30
0.0
210
0.0
220
0.0
230
1.0
  2
CUSTOM11
 70
     0
 71
     1
 91
        1
 92
        1
 93
        1
 72
     4
 94
        3
 73
     0
 74
     0
 95
      110
 96
      106
 40
0.0
 40
0.0
 40
0.0
 40
0.0
 40
0.2203406257277702
 40
0.4407808782838197
 40
0.5952494494615181
 40
0.7488431659393187
 40
0.9023581831308884
 40
1.056801968670415
 40
1.210736449099944
 40
1.363041386539822
 40
1.515315729683165
 40
1.669377239148088
 40
1.721611652756581
 40
1.773199502942975
 40
1.824933793210025
 40
1.877110426488005
 40
1.98268228120674
 40
2.078781667087549
 40
2.172809640822299
 40
2.271937807378954
 40
2.378349933379347
 40
2.494131557736506
 40
2.62668168394364
 40
2.783145050796096
 40
2.890701232940959
 40
2.993130312454869
 40
3.099869730691841
 40
3.220237816691334
 40
3.352695482737616
 40
3.481732806389863
 40
3.593499473690393
 40
3.674323013331915
 40
3.817951711952837
 40
3.946167120793891
 40
4.061405053453548
 40
4.166480796003216
 40
4.262478775059282
 40
4.350736673551211
 40
4.433071991254096
 40
4.511216293814698
 40
4.564262454118023
 40
4.618474415571654
 40
4.670128488754218
 40
4.722296879126431
 40
4.819540945314327
 40
4.931194984128155
 40
5.049996040257797
 40
5.168643755415343
 40
5.283970811762612
 40
5.392260784910466
 40
5.486512254876455
 40
5.559178233949883
 40
5.591425852853559
 40
5.626215969637935
 40
5.667155838674472
 40
5.71744929021428
 40
5.738402360944892
 40
5.784499116553864
 40
5.830595872164839
 40
5.851548942897697
 40
5.873019280661818
 40
5.924217778408345
 40
5.985325662817733
 40
6.03652416056774
 40
6.057994498334271
 40
6.236847789607523
 40
6.381409928945689
 40
6.493190424178726
 40
6.574067534230526
 40
6.691018086205649
 40
6.814881554220566
 40
6.94430782324049
 40
7.071266716066142
 40
7.193488604461958
 40
7.309042773128186
 40
7.414007203170838
 40
7.505140441886567
 40
7.53115036059973
 40
7.559221645322311
 40
7.587202218920971
 40
7.61256915949918
 40
7.66255080948107
 40
7.70287887576418
 40
7.857328205230965
 40
8.010799568088611
 40
8.165256399657562
 40
8.3222326987139
 40
8.479564855016616
 40
8.635216230290819
 40
8.790882550925737
 40
8.948305154947302
 40
9.168271839032988
 40
9.387358980987266
 40
9.608047961033495
 40
9.832914234792694
 40
9.85833869496303
 40
9.92536681723004
 40
10.02013071422763
 40
10.12876249859002
 40
10.23739428295252
 40
10.33215817995193
 40
10.39918630222397
 40
10.42461076239786
 40
10.64992019336946
 40
10.87188524531191
 40
10.87188524531191
 40
10.87188524531191
 40
10.87188524531191
 10
179.1863993306167
 20
-59.79635328580903
 10
179.189906986309
 20
-59.72942126905291
 10
179.1969238917212
 20
-59.59552697063234
 10
179.1004232528621
 20
-59.31010034007623
 10
179.3316339655657
 20
-59.37274202788809
 10
179.4725494986705
 20
-59.36557034923106
 10
179.6296622687136
 20
-59.37322705900847
 10
179.7832118356837
 20
-59.37305836696055
 10
179.935130986463
 20
-59.37376548443661
 10
180.094841974278
 20
-59.36348430627455
 10
180.2215177530666
 20
-59.38062077898344
 10
180.417702605163
 20
-59.3083132887195
 10
180.3840600208627
 20
-59.40917889898977
 10
180.3858216246733
 20
-59.45939335031426
 10
180.3833547003007
 20
-59.50846253392628
 10
180.415328189556
 20
-59.59495098132097
 10
180.2816604832805
 20
-59.54561150370759
 10
180.1978413617605
 20
-59.55127954664926
 10
180.0980066068873
 20
-59.54093072272796
 10
179.9992781649695
 20
-59.53472138568006
 10
179.8927737700659
 20
-59.52860825162315
 10
179.7716716627609
 20
-59.51969705494511
 10
179.6509586432003
 20
-59.53036983066708
 10
179.4618758772985
 20
-59.47090085898725
 10
179.493523343486
 20
-59.63000268901554
 10
179.4801768246382
 20
-59.7271946063919
 10
179.4781163355999
 20
-59.8392452386899
 10
179.476439297422
 20
-59.95858903349743
 10
179.4779541723782
 20
-60.08525996823984
 10
179.4762787408219
 20
-60.21257000962977
 10
179.4865049201206
 20
-60.31107022574628
 10
179.4585211526131
 20
-60.45169886353461
 10
179.6314234928854
 20
-60.39569037845001
 10
179.745122513232
 20
-60.40838637500595
 10
179.8646356601788
 20
-60.40110211927838
 10
179.969469635462
 20
-60.39680571922341
 10
180.0649289828161
 20
-60.39228020720118
 10
180.1570028436581
 20
-60.38409387832893
 10
180.2282756711988
 20
-60.38914738340984
 10
180.3351136635234
 20
-60.3502216394742
 10
180.3032808527585
 20
-60.43041466973216
 10
180.3072369433478
 20
-60.47995652133061
 10
180.3040707321562
 20
-60.53001110939276
 10
180.3356996420134
 20
-60.61429741367073
 10
180.201633860724
 20
-60.56133223483939
 10
180.1098527722749
 20
-60.57018508088652
 10
179.9885934119151
 20
-60.55988539013939
 10
179.872031804932
 20
-60.55809677211592
 10
179.7589580675427
 20
-60.55771571869398
 10
179.648545123802
 20
-60.55143139506913
 10
179.5704328997389
 20
-60.5636945572373
 10
179.4719830763192
 20
-60.53104701362968
 10
179.481856010311
 20
-60.58788840924888
 10
179.4780128173952
 20
-60.62166458421112
 10
179.4772994813817
 20
-60.66438984269681
 10
179.4769574572524
 20
-60.70156981716941
 10
179.4770039184894
 20
-60.74071351608324
 10
179.4769854359476
 20
-60.77841739481408
 10
179.4769908361355
 20
-60.81613633746692
 10
179.476990214375
 20
-60.84564264233945
 10
179.4769903081094
 20
-60.87685011279793
 10
179.4769909217469
 20
-60.92144164071009
 10
179.4769876428887
 20
-60.97594632470245
 10
179.476996455303
 20
-61.02053048777645
 10
179.4769564582967
 20
-61.10440780393356
 10
179.4782229199803
 20
-61.21821068301416
 10
179.4756479047391
 20
-61.36728193045384
 10
179.4871214311268
 20
-61.46961385165187
 10
179.4629711151812
 20
-61.60219685093262
 10
179.6139198876025
 20
-61.55662856707071
 10
179.7234641601104
 20
-61.57131576816742
 10
179.854017540347
 20
-61.56638153854031
 10
179.9796517139062
 20
-61.56300883655734
 10
180.099493555515
 20
-61.55847091480321
 10
180.2197567540975
 20
-61.54510052797089
 10
180.3028966593064
 20
-61.55489876196501
 10
180.4262285350624
 20
-61.49432374355774
 10
180.4050474133505
 20
-61.55026128845073
 10
180.4042155199666
 20
-61.57619339606747
 10
180.4025168637107
 20
-61.60361332788155
 10
180.4024179818377
 20
-61.63820393772709
 10
180.4009864230879
 20
-61.67508180758327
 10
180.4339009121738
 20
-61.76711747957285
 10
180.2357511917658
 20
-61.69426573004266
 10
180.1106753224439
 20
-61.71732862470486
 10
179.9479276224705
 20
-61.71104566993307
 10
179.7935571379549
 20
-61.71297645069166
 10
179.6372875366493
 20
-61.71164826379827
 10
179.477674939483
 20
-61.71498716491231
 10
179.3346531271786
 20
-61.70292793250854
 10
179.1003349811177
 20
-61.76606587002174
 10
179.1980015680746
 20
-61.47938061512777
 10
179.1813073709608
 20
-61.28570280836433
 10
179.1952501639233
 20
-61.05710346098798
 10
179.1949192776182
 20
-60.90173995024047
 10
179.1949283048812
 20
-60.79592252534968
 10
179.1949260805866
 20
-60.73352804854881
 10
179.1949270481437
 20
-60.64338163730766
 10
179.194927040281
 20
-60.53937421821654
 10
179.1949258790651
 20
-60.43536457603797
 10
179.1949295901052
 20
-60.34522345290328
 10
179.19492159806
 20
-60.28281785881879
 10
179.1949539204568
 20
-60.17689753017977
 10
179.1937645717868
 20
-60.01931872434354
 10
179.1888421418805
 20
-59.87030369157027
 10
179.1863993306167
 20
-59.79635328580903
 97
        1
330
AC
 75
     1
 76
     2
 52
45.0
 41
0.1
 77
     0
 78
     1
 53
45.0
 43
0.0
 44
0.0
 45
-0.282842712474619
 46
0.0
 79
     0
 98
        1
 10
0.0
 20
0.0
  0
HATCH
  5
CA
330
48
100
AcDbEntity
  8
1
  6
Continuous
 62
     2
100
AcDbHatch
 10
0.0
 20
0.0
 30
0.0
210
0.0
220
0.0
230
1.0
  2
CUSTOM12
 70
     0
 71
     1
 91
        1
 92
        1
 93
        1
 72
     4
 94
        3
 73
     0
 74
     0
 95
       95
 96
       91
 40
0.0
 40
0.0
 40
0.0
 40
0.0
 40
0.6550406656910797
 40
1.30808728903188
 40
1.420803739835735
 40
1.566130759770738
 40
1.757067341888409
 40
2.006513545026405
 40
2.087328263121482
 40
2.185328872295552
 40
2.294612454748297
 40
2.408936380534745
 40
2.526802767798515
 40
2.646360524615564
 40
2.762535723971543
 40
2.870057342870111
 40
2.966883448431588
 40
3.050803243518218
 40
3.115818222436564
 40
3.156030057150181
 40
3.213914225080082
 40
3.276689026450454
 40
3.342960320981232
 40
3.404230667150508
 40
3.453822809493301
 40
3.532499827188372
 40
3.634775188507098
 40
3.754909333008096
 40
3.889736761660589
 40
4.035769602175151
 40
4.187256681197547
 40
4.338733685675881
 40
4.488478734676051
 40
4.634708317831524
 40
4.771493189921208
 40
4.892686571561145
 40
5.199775528944379
 40
5.460353566929574
 40
5.667603142345444
 40
5.814722905404419
 40
5.828990806219745
 40
5.855488336304414
 40
5.869756237118717
 40
6.189796507762731
 40
6.531890469872899
 40
6.883053637016905
 40
7.230512024911388
 40
7.566966656764482
 40
7.885203559707319
 40
8.172887439719128
 40
8.418011594062644
 40
8.443926721190568
 40
8.510760470613047
 40
8.602145393795556
 40
8.70171404164699
 40
8.793098965075227
 40
8.859932715057806
 40
8.885847842603443
 40
9.242301256612665
 40
9.589275455016617
 40
9.921808543164012
 40
10.23479624298454
 40
10.29968150889165
 40
10.35323493887753
 40
10.40154625355134
 40
10.4648292247781
 40
10.55973900668393
 40
10.69239545985606
 40
10.8492035347566
 40
11.01626328594766
 40
11.1867202436743
 40
11.35372582577197
 40
11.50257442292413
 40
11.61866495023278
 40
11.71329869152861
 40
11.82511050573894
 40
11.94464880845701
 40
12.06929242642495
 40
12.19707290435163
 40
12.32562632860517
 40
12.45034565331267
 40
12.56646595170314
 40
12.67099007414622
 40
12.7607762593677
 40
12.82703233506682
 40
12.8742913278598
 40
12.89831990323319
 40
12.92234847860008
 40
13.53984767410307
 40
14.18294284359357
 40
14.18294284359357
 40
14.18294284359357
 40
14.18294284359357
 10
176.5874140577569
 20
-60.82660550777371
 10
176.4558224688099
 20
-60.7129353037586
 10
176.1930398732278
 20
-60.48594092662932
 10
175.6803598370568
 20
-59.64344126022804
 10
175.6912859524912
 20
-60.00135211402076
 10
175.684743145754
 20
-60.14291196706959
 10
175.6834231561321
 20
-60.34137283679814
 10
175.6824322532087
 20
-60.51408292933111
 10
175.6830306681524
 20
-60.65693215721514
 10
175.6845199231432
 20
-60.75293583565735
 10
175.6861888518021
 20
-60.86013085715952
 10
175.6878139884167
 20
-60.97394377461512
 10
175.6898634431234
 20
-61.09117016374505
 10
175.6929370431475
 20
-61.20902177746125
 10
175.6962544626593
 20
-61.32330501658475
 10
175.6999810269828
 20
-61.43037187111819
 10
175.7023543090973
 20
-61.52551180212172
 10
175.7084923817905
 20
-61.61000031773398
 10
175.7045989425496
 20
-61.66635501680952
 10
175.7261435372625
 20
-61.73733566506738
 10
175.6487144988167
 20
-61.70655911374613
 10
175.592255816974
 20
-61.71547346461479
 10
175.5346700826356
 20
-61.70662370580821
 10
175.4496368408021
 20
-61.73820363753148
 10
175.4815919075931
 20
-61.65463432986905
 10
175.4796910212088
 20
-61.58675980010785
 10
175.4914164976849
 20
-61.48325332214675
 10
175.4970445982549
 20
-61.365564633624
 10
175.504410710849
 20
-61.23169979814671
 10
175.512696463116
 20
-61.08794436106465
 10
175.5205056826976
 20
-60.9384456613565
 10
175.5263776152206
 20
-60.78766039577015
 10
175.5309872747517
 20
-60.63858645100657
 10
175.5348837047092
 20
-60.49435675816073
 10
175.5376920056113
 20
-60.35974683766077
 10
175.5382903684571
 20
-60.17088974631739
 10
175.5422228796699
 20
-59.94583094665941
 10
175.5248380308047
 20
-59.67191497853388
 10
175.565662227213
 20
-59.50771476880493
 10
175.4801358185553
 20
-59.30808927514005
 10
175.5466763837237
 20
-59.31173130575116
 10
175.564492920278
 20
-59.31145141818242
 10
175.6863006727048
 20
-59.30925661580476
 10
175.7886975265013
 20
-59.5888347025758
 10
176.0386226438904
 20
-59.78995580443093
 10
176.267624026066
 20
-60.05765973991176
 10
176.5051356142658
 20
-60.3091217511672
 10
176.7292295670321
 20
-60.54588614917732
 10
176.9556921212559
 20
-60.80339896396018
 10
177.1131892816063
 20
-60.91909253922168
 10
177.3278334542223
 20
-61.25561436440294
 10
177.3228850904167
 20
-61.13093834887491
 10
177.3240136532095
 20
-61.07230897043355
 10
177.3235082771065
 20
-60.98514926607118
 10
177.3236680087662
 20
-60.8914244579622
 10
177.3236259820867
 20
-60.80539617682059
 10
177.3236406969921
 20
-60.74404697033599
 10
177.3235911185533
 20
-60.59423357458099
 10
177.3265016452359
 20
-60.35568976468989
 10
177.3065725970711
 20
-59.99072079110394
 10
177.3556638865796
 20
-59.72758956985683
 10
177.1984156438729
 20
-59.3162968403134
 10
177.356831780197
 20
-59.37160306427345
 10
177.4117885408177
 20
-59.37358902478917
 10
177.4634092696289
 20
-59.37293810730842
 10
177.5519403894915
 20
-59.33189061240846
 10
177.5011103232716
 20
-59.47862262356105
 10
177.5119594859831
 20
-59.58538617024664
 10
177.4972241924396
 20
-59.74472883564983
 10
177.4906181375754
 20
-59.90705527326221
 10
177.4821166329464
 20
-60.07566067086698
 10
177.4749432131748
 20
-60.23743774275554
 10
177.4695268144937
 20
-60.38136257521161
 10
177.4677918897197
 20
-60.50121095512169
 10
177.4681645601868
 20
-60.60872487388578
 10
177.4679861055812
 20
-60.71738564333506
 10
177.4683215792687
 20
-60.83605018813563
 10
177.4696245551733
 20
-60.96003425466353
 10
177.4715092281123
 20
-61.08700294807991
 10
177.47312093844
 20
-61.21404727428063
 10
177.4747608066978
 20
-61.33703704486916
 10
177.47687756753
 20
-61.45257657595336
 10
177.4770053351913
 20
-61.55467685023257
 10
177.4812719326103
 20
-61.64548740140938
 10
177.4714645014838
 20
-61.70344967770308
 10
177.4924679701238
 20
-61.77041458847064
 10
177.4531844669445
 20
-61.76267435012407
 10
177.2401512047298
 20
-61.778033348339
 10
177.0442502872734
 20
-61.22155530884622
 10
176.7417402561092
 20
-60.96002553630583
 10
176.5874140577569
 20
-60.82660550777371
 97
        1
330
AD
 75
     1
 76
     2
 52
45.0
 41
0.1
 77
     0
 78
     1
 53
45.0
 43
0.0
 44
0.0
 45
-0.282842712474619
 46
0.0
 79
     0
 98
        1
 10
0.0
 20
0.0
  0
HATCH
  5
CB
330
48
100
AcDbEntity
  8
1
  6
Continuous
 62
     2
100
AcDbHatch
 10
0.0
 20
0.0
 30
0.0
210
0.0
220
0.0
230
1.0
  2
CUSTOM13
 70
     0
 71
     1
 91
        2
 92
        1
 93
        1
 72
     4
 94
        3
 73
     0
 74
     0
 95
       57
 96
       53
 40
0.0
 40
0.0
 40
0.0
 40
0.0
 40
0.0471632082809213
 40
0.0914861054631853
 40
0.1357762519702089
 40
0.1826527001610668
 40
0.2295203288572293
 40
0.2737751972220462
 40
0.3181310461542774
 40
0.3652607198398211
 40
0.457100728631419
 40
0.5671851029164929
 40
0.6894623283867931
 40
0.8181758272545584
 40
0.951008722927382
 40
1.08585222967402
 40
1.218126164475277
 40
1.34354513114235
 40
1.454537202956738
 40
1.567187607530776
 40
1.680710966642337
 40
1.794226869736758
 40
1.900009184247529
 40
2.004085860447809
 40
2.108162674451725
 40
2.214000150155242
 40
2.49603857735208
 40
2.762350745479224
 40
2.997275353279357
 40
3.185110082137661
 40
3.246407890063915
 40
3.312607550212731
 40
3.378877742711576
 40
3.440140399651373
 40
4.100501696006384
 40
4.754913085563437
 40
5.411331693423827
 40
6.077890432568614
 40
6.110575292670893
 40
6.143260152775673
 40
6.367989363395038
 40
6.610525374951441
 40
6.863389136467208
 40
7.119380025547493
 40
7.376036605090984
 40
7.631164770966151
 40
7.876722425456313
 40
8.104953735855855
 40
8.3129166859242
 40
8.497730294941205
 40
8.651018984313755
 40
8.764738853624468
 40
8.764738853624468
 40
8.764738853624468
 40
8.764738853624468
 10
174.0728854430062
 20
-61.71931849366166
 10
174.0572821656479
 20
-61.71732357900017
 10
174.0270152889851
 20
-61.71345387618796
 10
173.9817199131801
 20
-61.71216604011826
 10
173.9365758058898
 20
-61.71249905425042
 10
173.8905222052948
 20
-61.7124393030487
 10
173.8446701101645
 20
-61.71232775329093
 10
173.7989916577714
 20
-61.71280755522501
 10
173.7557016471158
 20
-61.71097479360375
 10
173.6846152881062
 20
-61.73509032164434
 10
173.6863682190989
 20
-61.61373895001844
 10
173.6392401300118
 20
-61.52832349227864
 10
173.5997683181311
 20
-61.4107165963396
 10
173.5512840462194
 20
-61.29325836438656
 10
173.5007222332071
 20
-61.17152653217583
 10
173.4524839540026
 20
-61.04482621116627
 10
173.3941437877143
 20
-60.93624901194143
 10
173.378709759681
 20
-60.77937931844687
 10
173.2372791260184
 20
-60.81185142430773
 10
173.1314602344453
 20
-60.80045700296915
 10
173.0164774654771
 20
-60.80165997464479
 10
172.905934718169
 20
-60.80051643631685
 10
172.7982788452332
 20
-60.80140238941568
 10
172.6927527458791
 20
-60.80141986588576
 10
172.5915397611562
 20
-60.80844556506679
 10
172.4073009757302
 20
-60.78422729119229
 10
172.396359861496
 20
-61.08816897857208
 10
172.2893896564298
 20
-61.31205411725696
 10
172.1904353533895
 20
-61.49663274686598
 10
172.2031295453556
 20
-61.74028384174884
 10
172.0856296645945
 20
-61.71050542225899
 10
172.0228260797858
 20
-61.71300499469488
 10
171.9592077022948
 20
-61.71214513876289
 10
171.6752219123624
 20
-61.75460549037147
 10
172.305784342893
 20
-61.03476636534307
 10
172.389385021862
 20
-60.52282049543363
 10
172.7735457718887
 20
-60.0020484542905
 10
172.7583413218115
 20
-59.30038962725882
 10
173.0045470652246
 20
-59.31212955897839
 10
173.1062551087111
 20
-59.30333584526321
 10
173.1055956965367
 20
-59.55498938248748
 10
173.2234522085377
 20
-59.73740568245137
 10
173.3121720190034
 20
-59.97994848316226
 10
173.4128497414808
 20
-60.21218558448966
 10
173.5117347641792
 20
-60.44883944412177
 10
173.6105881920217
 20
-60.68096849809007
 10
173.7062371320475
 20
-60.90436366190303
 10
173.796610950282
 20
-61.11286039929778
 10
173.8796149497738
 20
-61.30250140449775
 10
173.9532293512348
 20
-61.46895482910993
 10
174.0149020825094
 20
-61.60640889352995
 10
174.0555663815153
 20
-61.68559349549061
 10
174.0728854430062
 20
-61.71931849366166
 97
        1
330
AF
 92
       16
 93
        1
 72
     4
 94
        3
 73
     0
 74
     0
 95
       25
 96
       21
 40
0.0
 40
0.0
 40
0.0
 40
0.0
 40
0.0911479969064824
 40
0.1858117896204666
 40
0.2804128399734492
 40
0.3715889190713659
 40
0.4679080494218141
 40
0.564268380922895
 40
0.6605683222644708
 40
0.7569653015809973
 40
0.8561348172522505
 40
1.092615965104258
 40
1.374867658141827
 40
1.611348812011545
 40
1.710518328425201
 40
1.809403163726528
 40
2.04520546329404
 40
2.326646917622063
 40
2.562449217190546
 40
2.661334043833852
 40
2.661334043833852
 40
2.661334043833852
 40
2.661334043833852
 10
172.5489905496748
 20
-60.64944050781801
 10
172.5793730847471
 20
-60.64960509264539
 10
172.6413100818661
 20
-60.64994060289176
 10
172.7347561889879
 20
-60.65289533527093
 10
172.8281300165906
 20
-60.65580836101944
 10
172.9223965683025
 20
-60.65664387335677
 10
173.0161169720515
 20
-60.65561944321048
 10
173.1158245232753
 20
-60.65641611508119
 10
173.1995154475862
 20
-60.64637178743877
 10
173.3444201244594
 20
-60.67323971304926
 10
173.220233737435
 20
-60.4989305869905
 10
173.177207221583
 20
-60.33906877972998
 10
173.0615127071759
 20
-60.08040130428881
 10
172.9823770360806
 20
-59.94327536117233
 10
172.9237781551365
 20
-59.72621555845018
 10
172.8671008868987
 20
-59.94292454765666
 10
172.7859014830026
 20
-60.08231576540858
 10
172.6869906211038
 20
-60.331516196089
 10
172.6059830023807
 20
-60.51632758753018
 10
172.5619888255387
 20
-60.61908142122977
 10
172.5489905496748
 20
-60.64944050781801
 97
        1
330
AE
 75
     1
 76
     2
 52
45.0
 41
0.1
 77
     0
 78
     1
 53
45.0
 43
0.0
 44
0.0
 45
-0.282842712474619
 46
0.0
 79
     0
 98
        1
 10
0.0
 20
0.0
  0
HATCH
  5
CC
330
48
100
AcDbEntity
  8
1
  6
Continuous
 62
     2
100
AcDbHatch
 10
0.0
 20
0.0
 30
0.0
210
0.0
220
0.0
230
1.0
  2
CUSTOM14
 70
     0
 71
     1
 91
        1
 92
        1
 93
        1
 72
     4
 94
        3
 73
     0
 74
     0
 95
       99
 96
       95
 40
0.0
 40
0.0
 40
0.0
 40
0.0
 40
0.079641717227306
 40
0.1621768542356465
 40
0.2486489160957909
 40
0.340496966852483
 40
0.4381912511165186
 40
0.5434463660245481
 40
0.6518115192847805
 40
0.7530190937887075
 40
0.8492196919725578
 40
0.9419290312998437
 40
1.034249663570072
 40
1.12907860062022
 40
1.22669702757326
 40
1.327220425421724
 40
1.47057213493804
 40
1.595489863371255
 40
1.719934125348409
 40
1.850576620127454
 40
1.989059629987362
 40
2.134139054226953
 40
2.28069800720727
 40
2.424529739039546
 40
2.565929576985906
 40
2.708239260773607
 40
2.861717887443724
 40
3.045168540347438
 40
3.183798301138666
 40
3.314813961455532
 40
3.442083470447373
 40
3.569912708373022
 40
3.702177512509428
 40
3.842307559659598
 40
3.992872223245971
 40
4.156750662218387
 40
4.310981861107608
 40
4.445859909322651
 40
4.572393936131617
 40
4.70165671978202
 40
4.768279086008504
 40
4.835960697898467
 40
4.912788918729376
 40
5.006285208481573
 40
5.026909478751649
 40
5.047533749021242
 40
5.101808031471308
 40
5.162325165538628
 40
5.226919745995919
 40
5.294231806596774
 40
5.364544852554892
 40
5.438319055467986
 40
5.517877651324322
 40
5.607647714861606
 40
5.700449642544426
 40
5.788251142364214
 40
5.872714706039869
 40
5.955167292575425
 40
6.037192395190488
 40
6.120669181469192
 40
6.206848616686426
 40
6.296680855416855
 40
6.442558392872688
 40
6.568190371608357
 40
6.692904567360445
 40
6.824220446557193
 40
6.96312185032943
 40
7.107843738851247
 40
7.253431663907357
 40
7.39518746803676
 40
7.533140753237793
 40
7.670550457175294
 40
7.816236511769316
 40
7.98769165735927
 40
8.142277421969293
 40
8.293662615415045
 40
8.442962460879315
 40
8.591598316185372
 40
8.743678992361819
 40
8.903725323699202
 40
9.076307008890552
 40
9.265578604680634
 40
9.459203795360752
 40
9.617619810273565
 40
9.753609671361973
 40
9.874873300004124
 40
9.954520184977836
 40
10.02416413719253
 40
10.0976976440545
 40
10.18909955924978
 40
10.2097458642014
 40
10.23039218263383
 40
10.30057101881268
 40
10.37632012987546
 40
10.37632012987546
 40
10.37632012987546
 40
10.37632012987546
 10
169.4272159765399
 20
-61.397629257631
 10
169.4438422780767
 20
-61.41837980133781
 10
169.4776989136126
 20
-61.46063477267191
 10
169.5406027470585
 20
-61.51528777587018
 10
169.6138705869942
 20
-61.56259563858045
 10
169.6982174168184
 20
-61.60031357541155
 10
169.7938445545009
 20
-61.62517969247143
 10
169.8978058704895
 20
-61.63249029633158
 10
170.0030225149954
 20
-61.6241626618504
 10
170.1012831300882
 20
-61.59409409327565
 10
170.1865191357097
 20
-61.5470976600722
 10
170.2585425135651
 20
-61.48605597728235
 10
170.3157122638645
 20
-61.41145619400513
 10
170.3574073676988
 20
-61.32556124318919
 10
170.3833157775841
 20
-61.23072738546883
 10
170.3924242262202
 20
-61.11703609940728
 10
170.3793069726036
 20
-60.99226001208316
 10
170.3131535263963
 20
-60.87543869807202
 10
170.2175575849118
 20
-60.7904604940172
 10
170.1055885951918
 20
-60.72141904519931
 10
169.9799864512818
 20
-60.66354446933206
 10
169.8462896550406
 20
-60.61184865694755
 10
169.7119327748379
 20
-60.55659496581913
 10
169.5858188916425
 20
-60.48618818337442
 10
169.4732784917084
 20
-60.39773048247845
 10
169.3776167994006
 20
-60.28577521110621
 10
169.3140362081375
 20
-60.1360867887771
 10
169.3006911434564
 20
-59.97625794593951
 10
169.3126715916997
 20
-59.82510183672247
 10
169.351850385839
 20
-59.69749344387556
 10
169.4161192680459
 20
-59.58477714948248
 10
169.5044409929289
 20
-59.4890997971041
 10
169.6144296137177
 20
-59.41204373993342
 10
169.7438489330814
 20
-59.35407192042815
 10
169.8918043897342
 20
-59.31819411390271
 10
170.0488274385036
 20
-59.30811869928533
 10
170.1981145395979
 20
-59.31694951216503
 10
170.3402458543719
 20
-59.34483689638741
 10
170.4402127539174
 20
-59.40145274277957
 10
170.5931279665734
 20
-59.44883986873586
 10
170.5261336646716
 20
-59.5336103597791
 10
170.5102684049818
 20
-59.60119687105611
 10
170.4784955460846
 20
-59.66632496185905
 10
170.4956407139119
 20
-59.76835135722142
 10
170.4472632137781
 20
-59.76065377297192
 10
170.4121994370314
 20
-59.76751817254287
 10
170.4102902915267
 20
-59.70294757820896
 10
170.3791897861537
 20
-59.65732949357702
 10
170.3470756558004
 20
-59.59997552350637
 10
170.3014243404717
 20
-59.55018126286536
 10
170.2464713147936
 20
-59.50563775260096
 10
170.1817046102556
 20
-59.46794600142545
 10
170.1038582240145
 20
-59.44275213187742
 10
170.0161365482901
 20
-59.43627357980981
 10
169.9259108207355
 20
-59.44322879693489
 10
169.8400799623613
 20
-59.46649398518171
 10
169.7634548568145
 20
-59.50426944871552
 10
169.6971470565749
 20
-59.55506947889515
 10
169.6428765466512
 20
-59.61827445571885
 10
169.6031130275008
 20
-59.69282133268729
 10
169.5782980440136
 20
-59.7764127498133
 10
169.5698329192419
 20
-59.8836564059681
 10
169.5825902916653
 20
-60.00593131711535
 10
169.6487753338821
 20
-60.12408864687885
 10
169.7447182329382
 20
-60.20952263269567
 10
169.8564119892731
 20
-60.2797522667237
 10
169.9817068598251
 20
-60.3389942667379
 10
170.1156028870996
 20
-60.38941880892963
 10
170.2496135262699
 20
-60.4423607199471
 10
170.3757090246464
 20
-60.5080841835392
 10
170.4882421567966
 20
-60.59078236441776
 10
170.5837575213782
 20
-60.6956258266902
 10
170.6478911416511
 20
-60.83621471727524
 10
170.6617308654827
 20
-60.99493179527502
 10
170.6480159641778
 20
-61.15405433761218
 10
170.6050944083534
 20
-61.30074760159887
 10
170.5352111258614
 20
-61.43438792391952
 10
170.4380797143378
 20
-61.55026201279803
 10
170.3154010953207
 20
-61.64468607209009
 10
170.1680613342716
 20
-61.71379318327111
 10
169.9983337426674
 20
-61.75605378120245
 10
169.8123609909145
 20
-61.76776852748686
 10
169.6335160855732
 20
-61.75749102295657
 10
169.4687938683292
 20
-61.71592015209939
 10
169.3640615770606
 20
-61.64760946095158
 10
169.2157165719914
 20
-61.59883369946989
 10
169.2786583124278
 20
-61.50581997688251
 10
169.2878479359609
 20
-61.43262052730813
 10
169.3109916230781
 20
-61.36622294477748
 10
169.2840793264865
 20
-61.26583779451511
 10
169.3327543885888
 20
-61.27324555461716
 10
169.3722735510244
 20
-61.26664525358196
 10
169.3802409874251
 20
-61.34479885760163
 10
169.4111641897472
 20
-61.37957661603237
 10
169.4272159765399
 20
-61.397629257631
 97
        1
330
B0
 75
     1
 76
     2
 52
45.0
 41
0.1
 77
     0
 78
     1
 53
45.0
 43
0.0
 44
0.0
 45
-0.282842712474619
 46
0.0
 79
     0
 98
        1
 10
0.0
 20
0.0
  0
ENDBLK
  5
4A
330
48
100
AcDbEntity
  8
0
100
AcDbBlockEnd
  0
BLOCK
  5
4D
330
4B
100
AcDbEntity
  8
0
100
AcDbBlockBegin
  2
開示A4枠
 70
     0
 10
-0.71937950704512
 20
-75.53558588979094
 30
0.0
  3
開示A4枠
  1

  0
INSERT
  5
4C
330
4B
100
AcDbEntity
  8
1
100
AcDbBlockReference
  2
開示A4
 10
-0.71937950704512
 20
-75.53558588979094
 30
0.0
  0
ENDBLK
  5
4E
330
4B
100
AcDbEntity
  8
0
100
AcDbBlockEnd
  0
BLOCK
  5
124
330
11D
100
AcDbEntity
  8
0
100
AcDbBlockBegin
  2
*D3
 70
     1
 10
0.0
 20
0.0
 30
0.0
  3
*D3
  1

  0
LINE
  5
11E
330
11D
100
AcDbEntity
  8
0
  6
Continuous
 62
     2
100
AcDbLine
 10
97.2123608017817
 20
-15.5
 30
0.0
 11
141.2123608017817
 21
-15.5
 31
0.0
  0
LINE
  5
11F
330
11D
100
AcDbEntity
  8
0
  6
Continuous
 62
     2
100
AcDbLine
 10
141.2123608017817
 20
17.5
 30
0.0
 11
141.2123608017817
 21
-17.5
 31
0.0
  0
LINE
  5
120
330
11D
100
AcDbEntity
  8
0
  6
Continuous
 62
     2
100
AcDbLine
 10
97.2123608017817
 20
17.5
 30
0.0
 11
97.2123608017817
 21
-17.5
 31
0.0
  0
SOLID
  5
121
330
11D
100
AcDbEntity
  8
0
 62
     2
100
AcDbTrace
 10
100.7123608017817
 20
-15.03921625844411
 30
0.0
 11
100.7123608017817
 21
-15.96078374155589
 31
0.0
 12
97.2123608017817
 22
-15.5
 32
0.0
 13
97.2123608017817
 23
-15.5
 33
0.0
  0
SOLID
  5
122
330
11D
100
AcDbEntity
  8
0
 62
     2
100
AcDbTrace
 10
137.7123608017817
 20
-15.96078374155588
 30
0.0
 11
137.7123608017817
 21
-15.03921625844411
 31
0.0
 12
141.2123608017817
 22
-15.5
 32
0.0
 13
141.2123608017817
 23
-15.5
 33
0.0
  0
MTEXT
  5
123
330
11D
100
AcDbEntity
  8
0
 62
     7
100
AcDbMText
 10
116.2294041587922
 20
-13.50000596320828
 30
0.0
 40
3.0
 41
0.0
 71
     7
 72
     1
  1
\C7;{\Fgdt;n}\C7;44
  7
CONVERTER_12
 11
0.9999999999970619
 21
2.424068405545306E-6
 31
0.0
 73
     1
 44
0.60024009603842
  0
ENDBLK
  5
125
330
11D
100
AcDbEntity
  8
0
100
AcDbBlockEnd
  0
BLOCK
  5
12F
330
128
100
AcDbEntity
  8
0
100
AcDbBlockBegin
  2
*D4
 70
     1
 10
0.0
 20
0.0
 30
0.0
  3
*D4
  1

  0
LINE
  5
129
330
128
100
AcDbEntity
  8
1
  6
Continuous
 62
     2
100
AcDbLine
 10
85.2123608017817
 20
-23.5
 30
0.0
 11
153.2123608017817
 21
-23.5
 31
0.0
  0
LINE
  5
12A
330
128
100
AcDbEntity
  8
1
  6
Continuous
 62
     2
100
AcDbLine
 10
153.2123608017817
 20
34.5
 30
0.0
 11
153.2123608017817
 21
-25.5
 31
0.0
  0
LINE
  5
12B
330
128
100
AcDbEntity
  8
1
  6
Continuous
 62
     2
100
AcDbLine
 10
85.2123608017817
 20
34.5
 30
0.0
 11
85.2123608017817
 21
-25.5
 31
0.0
  0
SOLID
  5
12C
330
128
100
AcDbEntity
  8
1
 62
     2
100
AcDbTrace
 10
88.7123608017817
 20
-23.03921625844411
 30
0.0
 11
88.7123608017817
 21
-23.96078374155589
 31
0.0
 12
85.2123608017817
 22
-23.5
 32
0.0
 13
85.2123608017817
 23
-23.5
 33
0.0
  0
SOLID
  5
12D
330
128
100
AcDbEntity
  8
1
 62
     2
100
AcDbTrace
 10
149.7123608017817
 20
-23.96078374155589
 30
0.0
 11
149.7123608017817
 21
-23.03921625844411
 31
0.0
 12
153.2123608017817
 22
-23.5
 32
0.0
 13
153.2123608017817
 23
-23.5
 33
0.0
  0
MTEXT
  5
12E
330
128
100
AcDbEntity
  8
1
 62
     7
100
AcDbMText
 10
116.4856894315222
 20
-21.50000596320828
 30
0.0
 40
3.0
 41
0.0
 71
     7
 72
     1
  1
\C7;{\Fgdt;n}\C7;68
  7
CONVERTER_12
 11
0.9999999999970619
 21
2.424068405545306E-6
 31
0.0
 73
     1
 44
0.60024009603842
  0
ENDBLK
  5
130
330
128
100
AcDbEntity
  8
0
100
AcDbBlockEnd
  0
BLOCK
  5
13A
330
133
100
AcDbEntity
  8
0
100
AcDbBlockBegin
  2
*D5
 70
     1
 10
0.0
 20
0.0
 30
0.0
  3
*D5
  1

  0
LINE
  5
134
330
133
100
AcDbEntity
  8
1
  6
Continuous
 62
     2
100
AcDbLine
 10
99.2123608017817
 20
-7.5
 30
0.0
 11
139.2123608017817
 21
-7.5
 31
0.0
  0
LINE
  5
135
330
133
100
AcDbEntity
  8
1
  6
Continuous
 62
     2
100
AcDbLine
 10
139.2123608017817
 20
3.5
 30
0.0
 11
139.2123608017817
 21
-9.5
 31
0.0
  0
LINE
  5
136
330
133
100
AcDbEntity
  8
1
  6
Continuous
 62
     2
100
AcDbLine
 10
99.2123608017817
 20
3.5
 30
0.0
 11
99.2123608017817
 21
-9.5
 31
0.0
  0
SOLID
  5
137
330
133
100
AcDbEntity
  8
1
 62
     2
100
AcDbTrace
 10
102.7123608017817
 20
-7.03921625844411
 30
0.0
 11
102.7123608017817
 21
-7.96078374155589
 31
0.0
 12
99.2123608017817
 22
-7.5
 32
0.0
 13
99.2123608017817
 23
-7.5
 33
0.0
  0
SOLID
  5
138
330
133
100
AcDbEntity
  8
1
 62
     2
100
AcDbTrace
 10
135.7123608017817
 20
-7.96078374155588
 30
0.0
 11
135.7123608017817
 21
-7.03921625844411
 31
0.0
 12
139.2123608017817
 22
-7.5
 32
0.0
 13
139.2123608017817
 23
-7.5
 33
0.0
  0
MTEXT
  5
139
330
133
100
AcDbEntity
  8
1
 62
     7
100
AcDbMText
 10
116.5077447437652
 20
-5.50000596320828
 30
0.0
 40
3.0
 41
0.0
 71
     7
 72
     1
  1
\C7;{\Fgdt;n}\C7;40
  7
CONVERTER_12
 11
0.9999999999970619
 21
2.424068405545306E-6
 31
0.0
 73
     1
 44
0.60024009603842
  0
ENDBLK
  5
13B
330
133
100
AcDbEntity
  8
0
100
AcDbBlockEnd
  0
BLOCK
  5
145
330
13E
100
AcDbEntity
  8
0
100
AcDbBlockBegin
  2
*D6
 70
     1
 10
0.0
 20
0.0
 30
0.0
  3
*D6
  1

  0
LINE
  5
13F
330
13E
100
AcDbEntity
  8
1
  6
Continuous
 62
     2
100
AcDbLine
 10
76.2123608017817
 20
72.5
 30
0.0
 11
162.2123608017817
 21
72.5
 31
0.0
  0
LINE
  5
140
330
13E
100
AcDbEntity
  8
1
  6
Continuous
 62
     2
100
AcDbLine
 10
162.2123608017817
 20
60.5
 30
0.0
 11
162.2123608017817
 21
74.5
 31
0.0
  0
LINE
  5
141
330
13E
100
AcDbEntity
  8
1
  6
Continuous
 62
     2
100
AcDbLine
 10
76.2123608017817
 20
60.5
 30
0.0
 11
76.2123608017817
 21
74.5
 31
0.0
  0
SOLID
  5
142
330
13E
100
AcDbEntity
  8
1
 62
     2
100
AcDbTrace
 10
79.7123608017817
 20
72.96078374155589
 30
0.0
 11
79.7123608017817
 21
72.03921625844411
 31
0.0
 12
76.2123608017817
 22
72.5
 32
0.0
 13
76.2123608017817
 23
72.5
 33
0.0
  0
SOLID
  5
143
330
13E
100
AcDbEntity
  8
1
 62
     2
100
AcDbTrace
 10
158.7123608017817
 20
72.03921625844411
 30
0.0
 11
158.7123608017817
 21
72.96078374155589
 31
0.0
 12
162.2123608017817
 22
72.5
 32
0.0
 13
162.2123608017817
 23
72.5
 33
0.0
  0
MTEXT
  5
144
330
13E
100
AcDbEntity
  8
1
 62
     7
100
AcDbMText
 10
116.7798587285642
 20
74.49999403679172
 30
0.0
 40
3.0
 41
0.0
 71
     7
 72
     1
  1
\C7;{\Fgdt;n}\C7;86
  7
CONVERTER_12
 11
0.9999999999970619
 21
2.424068405545306E-6
 31
0.0
 73
     1
 44
0.60024009603842
  0
ENDBLK
  5
146
330
13E
100
AcDbEntity
  8
0
100
AcDbBlockEnd
  0
BLOCK
  5
150
330
149
100
AcDbEntity
  8
0
100
AcDbBlockBegin
  2
*D7
 70
     1
 10
0.0
 20
0.0
 30
0.0
  3
*D7
  1

  0
LINE
  5
14A
330
149
100
AcDbEntity
  8
1
  6
Continuous
 62
     2
100
AcDbLine
 10
66.2123608017817
 20
27.5
 30
0.0
 11
66.2123608017817
 21
62.5
 31
0.0
  0
LINE
  5
14B
330
149
100
AcDbEntity
  8
1
  6
Continuous
 62
     2
100
AcDbLine
 10
78.2123608017817
 20
62.5
 30
0.0
 11
64.2123608017817
 21
62.5
 31
0.0
  0
LINE
  5
14C
330
149
100
AcDbEntity
  8
1
  6
Continuous
 62
     2
100
AcDbLine
 10
92.2123608017817
 20
27.5
 30
0.0
 11
64.2123608017817
 21
27.5
 31
0.0
  0
SOLID
  5
14D
330
149
100
AcDbEntity
  8
1
 62
     2
100
AcDbTrace
 10
66.67314454333759
 20
59.0
 30
0.0
 11
65.75157706022581
 21
59.0
 31
0.0
 12
66.2123608017817
 22
62.5
 32
0.0
 13
66.2123608017817
 23
62.5
 33
0.0
  0
SOLID
  5
14E
330
149
100
AcDbEntity
  8
1
 62
     2
100
AcDbTrace
 10
65.75157706022581
 20
31.0
 30
0.0
 11
66.67314454333759
 21
31.0
 31
0.0
 12
66.2123608017817
 22
27.5
 32
0.0
 13
66.2123608017817
 23
27.5
 33
0.0
  0
MTEXT
  5
14F
330
149
100
AcDbEntity
  8
1
 62
     7
100
AcDbMText
 10
64.2123608017817
 20
41.6515618720313
 30
0.0
 40
3.0
 41
0.0
 71
     7
 72
     1
  1
35
  7
CONVERTER_12
 11
0.0
 21
1.0
 31
0.0
 73
     1
 44
0.60024009603842
  0
ENDBLK
  5
151
330
149
100
AcDbEntity
  8
0
100
AcDbBlockEnd
  0
BLOCK
  5
15B
330
154
100
AcDbEntity
  8
0
100
AcDbBlockBegin
  2
*D8
 70
     1
 10
0.0
 20
0.0
 30
0.0
  3
*D8
  1

  0
LINE
  5
155
330
154
100
AcDbEntity
  8
1
  6
Continuous
 62
     2
100
AcDbLine
 10
58.21236080178169
 20
2.5
 30
0.0
 11
58.21236080178169
 21
62.5
 31
0.0
  0
LINE
  5
156
330
154
100
AcDbEntity
  8
1
  6
Continuous
 62
     2
100
AcDbLine
 10
78.2123608017817
 20
62.5
 30
0.0
 11
56.21236080178169
 21
62.5
 31
0.0
  0
LINE
  5
157
330
154
100
AcDbEntity
  8
1
  6
Continuous
 62
     2
100
AcDbLine
 10
100.2123608017817
 20
2.5
 30
0.0
 11
56.21236080178169
 21
2.5
 31
0.0
  0
SOLID
  5
158
330
154
100
AcDbEntity
  8
1
 62
     2
100
AcDbTrace
 10
58.67314454333758
 20
59.0
 30
0.0
 11
57.75157706022581
 21
59.0
 31
0.0
 12
58.21236080178169
 22
62.5
 32
0.0
 13
58.21236080178169
 23
62.5
 33
0.0
  0
SOLID
  5
159
330
154
100
AcDbEntity
  8
1
 62
     2
100
AcDbTrace
 10
57.75157706022581
 20
6.0
 30
0.0
 11
58.67314454333758
 21
6.0
 31
0.0
 12
58.21236080178169
 22
2.5
 32
0.0
 13
58.21236080178169
 23
2.5
 33
0.0
  0
MTEXT
  5
15A
330
154
100
AcDbEntity
  8
1
 62
     7
100
AcDbMText
 10
56.21236080178169
 20
30.25
 30
0.0
 40
3.0
 41
0.0
 71
     7
 72
     1
  1
60
  7
CONVERTER_12
 11
0.0
 21
1.0
 31
0.0
 73
     1
 44
0.60024009603842
  0
ENDBLK
  5
15C
330
154
100
AcDbEntity
  8
0
100
AcDbBlockEnd
  0
BLOCK
  5
164
330
15F
100
AcDbEntity
  8
0
100
AcDbBlockBegin
  2
*D9
 70
     1
 10
0.0
 20
0.0
 30
0.0
  3
*D9
  1

  0
LINE
  5
160
330
15F
100
AcDbEntity
  8
1
  6
Continuous
 62
     2
100
AcDbLine
 10
144.1202915577932
 20
161.5075181536096
 30
0.0
 11
79.72362146287784
 21
96.1097169897576
 31
0.0
  0
SOLID
  5
161
330
15F
100
AcDbEntity
  8
1
 62
     2
100
AcDbTrace
 10
96.43181484572003
 20
113.7343927530402
 30
0.0
 11
97.08846821179439
 21
113.0877916528616
 31
0.0
 12
94.30443004577016
 22
110.9172034499538
 32
0.0
 13
94.30443004577016
 23
110.9172034499538
 33
0.0
  0
SOLID
  5
162
330
15F
100
AcDbEntity
  8
1
 62
     2
100
AcDbTrace
 10
141.9929067578433
 20
158.6903288505232
 30
0.0
 11
141.336253391769
 21
159.3369299507018
 31
0.0
 12
144.1202915577932
 22
161.5075181536096
 32
0.0
 13
144.1202915577932
 23
161.5075181536096
 33
0.0
  0
MTEXT
  5
163
330
15F
100
AcDbEntity
  8
1
 62
     7
100
AcDbMText
 10
79.09840248705243
 20
98.32527588815495
 30
0.0
 40
3.0
 41
0.0
 71
     7
 72
     1
  1
\C7;{\Fgdt;n}\C7;71
  7
CONVERTER_12
 11
0.7016318522820152
 21
0.7125396437134628
 31
0.0
 73
     1
 44
0.60024009603842
  0
ENDBLK
  5
165
330
15F
100
AcDbEntity
  8
0
100
AcDbBlockEnd
  0
ENDSEC
  0
SECTION
  2
ENTITIES
  0
INSERT
  5
4F
330
1F
100
AcDbEntity
  8
0
100
AcDbBlockReference
  2
開示A4枠
 10
-0.71937950704512
 20
-75.53558588979094
 30
0.0
  0
LINE
  5
CD
330
1F
100
AcDbEntity
  8
1
  6
DASH_CENTER
 62
     2
100
AcDbLine
 10
73.21236080178168
 20
136.2123608017817
 30
0.0
 11
165.2123608017817
 21
136.2123608017817
 31
0.0
  0
LINE
  5
CE
330
1F
100
AcDbEntity
  8
1
  6
DASH_CENTER
 62
     2
100
AcDbLine
 10
119.2123608017817
 20
65.5
 30
0.0
 11
119.2123608017817
 21
-0.5
 31
0.0
  0
LINE
  5
CF
330
1F
100
AcDbEntity
  8
1
  6
Continuous
 62
     7
100
AcDbLine
 10
119.2123608017817
 20
3.5
 30
0.0
 11
99.2123608017817
 21
3.5
 31
0.0
  0
LINE
  5
D0
330
1F
100
AcDbEntity
  8
1
  6
Continuous
 62
     7
100
AcDbLine
 10
99.2123608017817
 20
3.5
 30
0.0
 11
100.2123608017817
 21
2.5
 31
0.0
  0
LINE
  5
D1
330
1F
100
AcDbEntity
  8
1
  6
Continuous
 62
     7
100
AcDbLine
 10
119.2123608017817
 20
62.5
 30
0.0
 11
78.2123608017817
 21
62.5
 31
0.0
  0
LINE
  5
D2
330
1F
100
AcDbEntity
  8
1
  6
Continuous
 62
     7
100
AcDbLine
 10
119.2123608017817
 20
57.5
 30
0.0
 11
76.2123608017817
 21
57.5
 31
0.0
  0
LINE
  5
D3
330
1F
100
AcDbEntity
  8
1
  6
Continuous
 62
     7
100
AcDbLine
 10
119.2123608017817
 20
27.5
 30
0.0
 11
92.2123608017817
 21
27.5
 31
0.0
  0
LINE
  5
D4
330
1F
100
AcDbEntity
  8
1
  6
Continuous
 62
     7
100
AcDbLine
 10
119.2123608017817
 20
17.5
 30
0.0
 11
97.2123608017817
 21
17.5
 31
0.0
  0
LINE
  5
D5
330
1F
100
AcDbEntity
  8
1
  6
Continuous
 62
     7
100
AcDbLine
 10
119.2123608017817
 20
2.5
 30
0.0
 11
100.2123608017817
 21
2.5
 31
0.0
  0
LINE
  5
D6
330
1F
100
AcDbEntity
  8
1
  6
Continuous
 62
     7
100
AcDbLine
 10
99.2123608017817
 20
3.5
 30
0.0
 11
99.2123608017817
 21
17.5
 31
0.0
  0
LINE
  5
D7
330
1F
100
AcDbEntity
  8
1
  6
Continuous
 62
     7
100
AcDbLine
 10
97.2123608017817
 20
17.5
 30
0.0
 11
97.2123608017817
 21
27.5
 31
0.0
  0
LINE
  5
D8
330
1F
100
AcDbEntity
  8
1
  6
Continuous
 62
     7
100
AcDbLine
 10
85.2123608017817
 20
34.5
 30
0.0
 11
85.2123608017817
 21
55.5
 31
0.0
  0
LINE
  5
D9
330
1F
100
AcDbEntity
  8
1
  6
Continuous
 62
     7
100
AcDbLine
 10
76.2123608017817
 20
57.5
 30
0.0
 11
76.2123608017817
 21
60.5
 31
0.0
  0
LINE
  5
DA
330
1F
100
AcDbEntity
  8
1
  6
Continuous
 62
     7
100
AcDbLine
 10
139.2123608017817
 20
3.5
 30
0.0
 11
119.2123608017817
 21
3.5
 31
0.0
  0
LINE
  5
DB
330
1F
100
AcDbEntity
  8
1
  6
Continuous
 62
     7
100
AcDbLine
 10
138.2123608017817
 20
2.5
 30
0.0
 11
139.2123608017817
 21
3.5
 31
0.0
  0
LINE
  5
DC
330
1F
100
AcDbEntity
  8
1
  6
Continuous
 62
     7
100
AcDbLine
 10
160.2123608017817
 20
62.5
 30
0.0
 11
119.2123608017817
 21
62.5
 31
0.0
  0
LINE
  5
DD
330
1F
100
AcDbEntity
  8
1
  6
Continuous
 62
     7
100
AcDbLine
 10
162.2123608017817
 20
57.5
 30
0.0
 11
119.2123608017817
 21
57.5
 31
0.0
  0
LINE
  5
DE
330
1F
100
AcDbEntity
  8
1
  6
Continuous
 62
     7
100
AcDbLine
 10
146.2123608017817
 20
27.5
 30
0.0
 11
119.2123608017817
 21
27.5
 31
0.0
  0
LINE
  5
DF
330
1F
100
AcDbEntity
  8
1
  6
Continuous
 62
     7
100
AcDbLine
 10
141.2123608017817
 20
17.5
 30
0.0
 11
119.2123608017817
 21
17.5
 31
0.0
  0
LINE
  5
E0
330
1F
100
AcDbEntity
  8
1
  6
Continuous
 62
     7
100
AcDbLine
 10
138.2123608017817
 20
2.5
 30
0.0
 11
119.2123608017817
 21
2.5
 31
0.0
  0
LINE
  5
E1
330
1F
100
AcDbEntity
  8
1
  6
Continuous
 62
     7
100
AcDbLine
 10
139.2123608017817
 20
17.5
 30
0.0
 11
139.2123608017817
 21
3.5
 31
0.0
  0
LINE
  5
E2
330
1F
100
AcDbEntity
  8
1
  6
Continuous
 62
     7
100
AcDbLine
 10
141.2123608017817
 20
27.5
 30
0.0
 11
141.2123608017817
 21
17.5
 31
0.0
  0
LINE
  5
E3
330
1F
100
AcDbEntity
  8
1
  6
Continuous
 62
     7
100
AcDbLine
 10
153.2123608017817
 20
55.5
 30
0.0
 11
153.2123608017817
 21
34.5
 31
0.0
  0
LINE
  5
E4
330
1F
100
AcDbEntity
  8
1
  6
Continuous
 62
     7
100
AcDbLine
 10
162.2123608017817
 20
60.5
 30
0.0
 11
162.2123608017817
 21
57.5
 31
0.0
  0
LINE
  5
E5
330
1F
100
AcDbEntity
  8
1
  6
DASH_CENTER
 62
     2
100
AcDbLine
 10
119.2123608017817
 20
90.2123608017817
 30
0.0
 11
119.2123608017817
 21
182.2123608017817
 31
0.0
  0
LINE
  5
E6
330
1F
100
AcDbEntity
  8
1
  6
Continuous
 62
     7
100
AcDbLine
 10
148.4623608017817
 20
133.9623608017817
 30
0.0
 11
126.4623608017817
 21
133.9623608017817
 31
0.0
  0
LINE
  5
E7
330
1F
100
AcDbEntity
  8
1
  6
Continuous
 62
     7
100
AcDbLine
 10
148.0085925751899
 20
138.4161290283735
 30
0.0
 11
126.9161290283735
 21
138.4161290283735
 31
0.0
  0
LINE
  5
E8
330
1F
100
AcDbEntity
  8
1
  6
Continuous
 62
     7
100
AcDbLine
 10
111.9623608017817
 20
133.9623608017817
 30
0.0
 11
89.96236080178166
 21
133.9623608017817
 31
0.0
  0
LINE
  5
E9
330
1F
100
AcDbEntity
  8
1
  6
Continuous
 62
     7
100
AcDbLine
 10
111.5085925751899
 20
138.4161290283735
 30
0.0
 11
90.41612902837346
 21
138.4161290283735
 31
0.0
  0
LINE
  5
EA
330
1F
100
AcDbEntity
  8
1
  6
Continuous
 62
     7
100
AcDbLine
 10
91.21236080178168
 20
129.2123608017817
 30
0.0
 11
147.2123608017817
 21
129.2123608017817
 31
0.0
  0
LINE
  5
EB
330
1F
100
AcDbEntity
  8
1
  6
Continuous
 62
     7
100
AcDbLine
 10
91.21236080178168
 20
125.2123608017817
 30
0.0
 11
147.2123608017817
 21
125.2123608017817
 31
0.0
  0
LINE
  5
EC
330
1F
100
AcDbEntity
  8
1
  6
Continuous
 62
     7
100
AcDbLine
 10
96.21236080178168
 20
120.7123608017817
 30
0.0
 11
142.2123608017817
 21
120.7123608017817
 31
0.0
  0
LINE
  5
ED
330
1F
100
AcDbEntity
  8
1
  6
Continuous
 62
     7
100
AcDbLine
 10
96.21236080178168
 20
116.7123608017817
 30
0.0
 11
142.2123608017817
 21
116.7123608017817
 31
0.0
  0
LINE
  5
EE
330
1F
100
AcDbEntity
  8
1
  6
Continuous
 62
     7
100
AcDbLine
 10
105.2750009370153
 20
111.7123608017817
 30
0.0
 11
133.149720666548
 21
111.7123608017817
 31
0.0
  0
LINE
  5
EF
330
1F
100
AcDbEntity
  8
1
  6
Continuous
 62
     7
100
AcDbLine
 10
147.2123608017817
 20
143.2123608017817
 30
0.0
 11
91.21236080178168
 21
143.2123608017817
 31
0.0
  0
LINE
  5
F0
330
1F
100
AcDbEntity
  8
1
  6
Continuous
 62
     7
100
AcDbLine
 10
147.2123608017817
 20
147.2123608017817
 30
0.0
 11
91.21236080178168
 21
147.2123608017817
 31
0.0
  0
LINE
  5
F1
330
1F
100
AcDbEntity
  8
1
  6
Continuous
 62
     7
100
AcDbLine
 10
142.2123608017817
 20
151.7123608017817
 30
0.0
 11
96.21236080178168
 21
151.7123608017817
 31
0.0
  0
LINE
  5
F2
330
1F
100
AcDbEntity
  8
1
  6
Continuous
 62
     7
100
AcDbLine
 10
142.2123608017817
 20
155.7123608017817
 30
0.0
 11
96.21236080178168
 21
155.7123608017817
 31
0.0
  0
LINE
  5
F3
330
1F
100
AcDbEntity
  8
1
  6
Continuous
 62
     7
100
AcDbLine
 10
133.149720666548
 20
160.7123608017817
 30
0.0
 11
105.2750009370153
 21
160.7123608017817
 31
0.0
  0
ARC
  5
F4
330
1F
100
AcDbEntity
  8
1
  6
Continuous
 62
     7
100
AcDbCircle
 10
148.4623608017817
 20
136.2123608017817
 30
0.0
 40
2.25
100
AcDbArc
 50
270.0
 51
101.6349119792235
  0
ARC
  5
F5
330
1F
100
AcDbEntity
  8
1
  6
Continuous
 62
     7
100
AcDbCircle
 10
89.96236080178166
 20
136.2123608017817
 30
0.0
 40
2.249999999999955
100
AcDbArc
 50
78.36508802077613
 51
270.0
  0
ARC
  5
F6
330
1F
100
AcDbEntity
  8
1
  6
Continuous
 62
     7
100
AcDbCircle
 10
126.4623608017817
 20
136.2123608017817
 30
0.0
 40
2.249999999999955
100
AcDbArc
 50
78.36508802077613
 51
270.0
  0
ARC
  5
F7
330
1F
100
AcDbEntity
  8
1
  6
Continuous
 62
     7
100
AcDbCircle
 10
111.9623608017817
 20
136.2123608017817
 30
0.0
 40
2.25
100
AcDbArc
 50
270.0
 51
101.6349119792239
  0
ARC
  5
F8
330
1F
100
AcDbEntity
  8
1
  6
Continuous
 62
     7
100
AcDbCircle
 10
147.2123608017817
 20
127.2123608017817
 30
0.0
 40
2.0
100
AcDbArc
 50
270.0
 51
90.0
  0
ARC
  5
F9
330
1F
100
AcDbEntity
  8
1
  6
Continuous
 62
     7
100
AcDbCircle
 10
91.21236080178168
 20
127.2123608017817
 30
0.0
 40
2.0
100
AcDbArc
 50
90.0
 51
270.0
  0
ARC
  5
FA
330
1F
100
AcDbEntity
  8
1
  6
Continuous
 62
     7
100
AcDbCircle
 10
142.2123608017817
 20
118.7123608017817
 30
0.0
 40
2.0
100
AcDbArc
 50
270.0
 51
90.0
  0
ARC
  5
FB
330
1F
100
AcDbEntity
  8
1
  6
Continuous
 62
     7
100
AcDbCircle
 10
96.21236080178168
 20
118.7123608017817
 30
0.0
 40
2.0
100
AcDbArc
 50
90.0
 51
270.0
  0
ARC
  5
FC
330
1F
100
AcDbEntity
  8
1
  6
Continuous
 62
     7
100
AcDbCircle
 10
119.2123608017817
 20
136.2123608017817
 30
0.0
 40
31.00000000000002
100
AcDbArc
 50
241.8063637647578
 51
298.1936362352422
  0
ARC
  5
FD
330
1F
100
AcDbEntity
  8
1
  6
Continuous
 62
     7
100
AcDbCircle
 10
147.2123608017817
 20
145.2123608017817
 30
0.0
 40
2.0
100
AcDbArc
 50
270.0
 51
90.0
  0
ARC
  5
FE
330
1F
100
AcDbEntity
  8
1
  6
Continuous
 62
     7
100
AcDbCircle
 10
91.21236080178168
 20
145.2123608017817
 30
0.0
 40
2.0
100
AcDbArc
 50
90.0
 51
270.0
  0
ARC
  5
FF
330
1F
100
AcDbEntity
  8
1
  6
Continuous
 62
     7
100
AcDbCircle
 10
142.2123608017817
 20
153.7123608017817
 30
0.0
 40
2.0
100
AcDbArc
 50
270.0
 51
90.0
  0
ARC
  5
100
330
1F
100
AcDbEntity
  8
1
  6
Continuous
 62
     7
100
AcDbCircle
 10
96.21236080178168
 20
153.7123608017817
 30
0.0
 40
2.0
100
AcDbArc
 50
90.0
 51
270.0
  0
ARC
  5
101
330
1F
100
AcDbEntity
  8
1
  6
Continuous
 62
     7
100
AcDbCircle
 10
119.2123608017817
 20
136.2123608017817
 30
0.0
 40
31.00000000000004
100
AcDbArc
 50
61.8063637647578
 51
118.1936362352422
  0
CIRCLE
  5
102
330
1F
100
AcDbEntity
  8
1
  6
Continuous
 62
     7
100
AcDbCircle
 10
119.2123608017817
 20
136.2123608017817
 30
0.0
 40
2.0
  0
CIRCLE
  5
103
330
1F
100
AcDbEntity
  8
1
  6
Continuous
 62
     7
100
AcDbCircle
 10
119.2123608017817
 20
136.2123608017817
 30
0.0
 40
43.0
  0
CIRCLE
  5
104
330
1F
100
AcDbEntity
  8
1
  6
Continuous
 62
     7
100
AcDbCircle
 10
119.2123608017817
 20
136.2123608017817
 30
0.0
 40
35.5
  0
CIRCLE
  5
105
330
1F
100
AcDbEntity
  8
1
  6
Continuous
 62
     7
100
AcDbCircle
 10
119.2123608017817
 20
136.2123608017817
 30
0.0
 40
3.0
  0
ARC
  5
106
330
1F
100
AcDbEntity
  8
1
  6
Continuous
 62
     7
100
AcDbCircle
 10
92.2123608017817
 20
34.5
 30
0.0
 40
7.0
100
AcDbArc
 50
180.0
 51
270.0
  0
ARC
  5
107
330
1F
100
AcDbEntity
  8
1
  6
Continuous
 62
     7
100
AcDbCircle
 10
83.2123608017817
 20
55.5
 30
0.0
 40
2.0
100
AcDbArc
 50
0.0
 51
90.0
  0
ARC
  5
108
330
1F
100
AcDbEntity
  8
1
  6
Continuous
 62
     7
100
AcDbCircle
 10
78.2123608017817
 20
60.5
 30
0.0
 40
2.0
100
AcDbArc
 50
90.0
 51
180.0
  0
ARC
  5
109
330
1F
100
AcDbEntity
  8
1
  6
Continuous
 62
     7
100
AcDbCircle
 10
146.2123608017817
 20
34.5
 30
0.0
 40
7.0
100
AcDbArc
 50
270.0
 51
0.0
  0
ARC
  5
10A
330
1F
100
AcDbEntity
  8
1
  6
Continuous
 62
     7
100
AcDbCircle
 10
155.2123608017817
 20
55.5
 30
0.0
 40
2.0
100
AcDbArc
 50
90.0
 51
180.0
  0
ARC
  5
10B
330
1F
100
AcDbEntity
  8
1
  6
Continuous
 62
     7
100
AcDbCircle
 10
160.2123608017817
 20
60.5
 30
0.0
 40
2.0
100
AcDbArc
 50
0.0
 51
90.0
  0
ARC
  5
10C
330
1F
100
AcDbEntity
  8
1
  6
Continuous
 62
     7
100
AcDbCircle
 10
133.149720666548
 20
110.2123608017817
 30
0.0
 40
1.500000000000048
100
AcDbArc
 50
298.1936362352448
 51
90.0
  0
ARC
  5
10D
330
1F
100
AcDbEntity
  8
1
  6
Continuous
 62
     7
100
AcDbCircle
 10
105.2750009370153
 20
110.2123608017817
 30
0.0
 40
1.5
100
AcDbArc
 50
90.0
 51
241.806363764758
  0
ARC
  5
10E
330
1F
100
AcDbEntity
  8
1
  6
Continuous
 62
     7
100
AcDbCircle
 10
133.149720666548
 20
162.2123608017817
 30
0.0
 40
1.5
100
AcDbArc
 50
270.0
 51
61.80636376475542
  0
ARC
  5
10F
330
1F
100
AcDbEntity
  8
1
  6
Continuous
 62
     7
100
AcDbCircle
 10
105.2750009370153
 20
162.2123608017817
 30
0.0
 40
1.50000000000002
100
AcDbArc
 50
118.1936362352417
 51
270.0
  0
MTEXT
  5
111
330
1F
100
AcDbEntity
  8
1
 62
     7
100
AcDbMText
 10
156.7806204929549
 20
-63.03558588979092
 30
0.0
 40
2.5
 41
0.0
 71
     5
 72
     1
  1
6
  7
CONVERTER_12
 73
     1
 44
0.7202881152461
  0
MTEXT
  5
112
330
1F
100
AcDbEntity
  8
1
 62
     7
100
AcDbMText
 10
151.0306204929549
 20
-63.03558588979092
 30
0.0
 40
2.5
 41
0.0
 71
     5
 72
     1
  1
04
  7
CONVERTER_12
 73
     1
 44
0.7202881152461
  0
MTEXT
  5
113
330
1F
100
AcDbEntity
  8
1
 62
     7
100
AcDbMText
 10
139.7806204929549
 20
-63.03558588979092
 30
0.0
 40
2.5
 41
0.0
 71
     5
 72
     1
  1
6
  7
CONVERTER_12
 73
     1
 44
0.7202881152461
  0
MTEXT
  5
114
330
1F
100
AcDbEntity
  8
1
 62
     7
100
AcDbMText
 10
134.0306204929549
 20
-63.03558588979092
 30
0.0
 40
2.5
 41
0.0
 71
     5
 72
     1
  1
04
  7
CONVERTER_12
 73
     1
 44
0.7202881152461
  0
MTEXT
  5
115
330
1F
100
AcDbEntity
  8
1
 62
     7
100
AcDbMText
 10
122.7806204929549
 20
-63.03558588979092
 30
0.0
 40
2.5
 41
0.0
 71
     5
 72
     1
  1
6
  7
CONVERTER_12
 73
     1
 44
0.7202881152461
  0
MTEXT
  5
116
330
1F
100
AcDbEntity
  8
1
 62
     7
100
AcDbMText
 10
117.0306204929549
 20
-63.03558588979092
 30
0.0
 40
2.5
 41
0.0
 71
     5
 72
     1
  1
04
  7
CONVERTER_12
 73
     1
 44
0.7202881152461
  0
MTEXT
  5
117
330
1F
100
AcDbEntity
  8
1
 62
     7
100
AcDbMText
 10
100.0306204929549
 20
-63.03558588979092
 30
0.0
 40
2.5
 41
0.0
 71
     5
 72
     1
  1
04
  7
CONVERTER_12
 73
     1
 44
0.7202881152461
  0
MTEXT
  5
118
330
1F
100
AcDbEntity
  8
1
 62
     7
100
AcDbMText
 10
105.7806204929549
 20
-63.03558588979092
 30
0.0
 40
2.5
 41
0.0
 71
     5
 72
     1
  1
6
  7
CONVERTER_12
 73
     1
 44
0.7202881152461
  0
MTEXT
  5
119
330
1F
100
AcDbEntity
  8
1
 62
     7
100
AcDbMText
 10
84.53062049295485
 20
-58.53558588979094
 30
0.0
 40
3.5
 41
0.0
 71
     5
 72
     1
  1
1
  7
CONVERTER_12
 73
     1
 44
0.7202881152461
  0
MTEXT
  5
11A
330
1F
100
AcDbEntity
  8
1
 62
     7
100
AcDbMText
 10
56.28062049295485
 20
-52.78558588979092
 30
0.0
 40
3.5
 41
0.0
 71
     5
 72
     1
  1
ステンレスワントラップ
  7
CONVERTER_11
 73
     1
 44
0.54545454545455
  0
MTEXT
  5
11B
330
1F
100
AcDbEntity
  8
1
 62
     7
100
AcDbMText
 10
56.28062049295485
 20
-61.28558588979094
 30
0.0
 40
3.5
 41
0.0
 71
     5
 72
     1
  1
H500-75X40
  7
CONVERTER_12
 73
     1
 44
0.7202881152461
  0
MTEXT
  5
11C
330
1F
100
AcDbEntity
  8
1
 62
     7
100
AcDbMText
 10
93.03062049295485
 20
-58.53558588979094
 30
0.0
 40
3.5
 41
0.0
 71
     5
 72
     1
  1
1
  7
CONVERTER_12
 73
     1
 44
0.7202881152461
  0
DIMENSION
  5
127
330
1F
100
AcDbEntity
  8
0
100
AcDbDimension
  2
*D3
 10
97.2123608017817
 20
-15.5
 30
0.0
 11
119.139404158785
 21
-12.0
 31
0.0
 70
    33
  1
<>
 71
     5
 42
-1.0
 53
0.00013888888889
  3
ME10_DIM_10
100
AcDbAlignedDimension
 13
141.2123608017817
 23
17.5
 33
0.0
 14
97.2123608017817
 24
17.5
 34
0.0
  0
DIMENSION
  5
132
330
1F
100
AcDbEntity
  8
1
100
AcDbDimension
  2
*D4
 10
85.2123608017817
 20
-23.5
 30
0.0
 11
119.395689431515
 21
-20.0
 31
0.0
 70
    32
  1
<>
 71
     5
 42
-1.0
 53
0.00013888888889
  3
ME10_DIM_11
100
AcDbAlignedDimension
 13
153.2123608017817
 23
34.5
 33
0.0
 14
85.2123608017817
 24
34.5
 34
0.0
100
AcDbRotatedDimension
  0
DIMENSION
  5
13D
330
1F
100
AcDbEntity
  8
1
100
AcDbDimension
  2
*D5
 10
99.2123608017817
 20
-7.5
 30
0.0
 11
119.417744743758
 21
-4.0
 31
0.0
 70
    32
  1
<>
 71
     5
 42
-1.0
 53
0.00013888888889
  3
ME10_DIM_12
100
AcDbAlignedDimension
 13
139.2123608017817
 23
3.5
 33
0.0
 14
99.2123608017817
 24
3.5
 34
0.0
100
AcDbRotatedDimension
  0
DIMENSION
  5
148
330
1F
100
AcDbEntity
  8
1
100
AcDbDimension
  2
*D6
 10
76.2123608017817
 20
72.5
 30
0.0
 11
119.689858728557
 21
76.0
 31
0.0
 70
    32
  1
<>
 71
     5
 42
-1.0
 53
0.00013888888889
  3
ME10_DIM_13
100
AcDbAlignedDimension
 13
162.2123608017817
 23
60.5
 33
0.0
 14
76.2123608017817
 24
60.5
 34
0.0
100
AcDbRotatedDimension
  0
DIMENSION
  5
153
330
1F
100
AcDbEntity
  8
1
100
AcDbDimension
  2
*D7
 10
66.2123608017817
 20
62.5
 30
0.0
 11
62.7123608017817
 21
43.9015618720313
 31
0.0
 70
    32
  1
<>
 71
     5
 42
-1.0
 53
90.0
  3
ME10_DIM_14
100
AcDbAlignedDimension
 13
92.2123608017817
 23
27.5
 33
0.0
 14
78.2123608017817
 24
62.5
 34
0.0
 50
90.0
100
AcDbRotatedDimension
  0
DIMENSION
  5
15E
330
1F
100
AcDbEntity
  8
1
100
AcDbDimension
  2
*D8
 10
58.21236080178169
 20
62.5
 30
0.0
 11
54.71236080178169
 21
32.5
 31
0.0
 70
    32
  1
<>
 71
     5
 42
-1.0
 53
90.0
  3
ME10_DIM_15
100
AcDbAlignedDimension
 13
100.2123608017817
 23
2.5
 33
0.0
 14
78.2123608017817
 24
62.5
 34
0.0
 50
90.0
100
AcDbRotatedDimension
  0
INSERT
  5
166
330
1F
100
AcDbEntity
  8
1
100
AcDbBlockReference
  2
*D9
 10
0.0
 20
0.0
 30
0.0
  0
ENDSEC
  0
SECTION
  2
OBJECTS
  0
DICTIONARY
  5
C
330
0
100
AcDbDictionary
281
     1
  3
ACAD_GROUP
350
D
  3
ACAD_LAYOUT
350
1A
  3
ACAD_MATERIAL
350
3B
  3
ACAD_MLEADERSTYLE
350
169
  3
ACAD_MLINESTYLE
350
17
  3
ACAD_PLOTSETTINGS
350
19
  3
ACAD_PLOTSTYLENAME
350
E
  3
ACAD_VISUALSTYLE
350
2A
  3
AcDbVariableDictionary
350
167
  0
DICTIONARY
  5
D
102
{ACAD_REACTORS
330
C
102
}
330
C
100
AcDbDictionary
281
     1
  0
DICTIONARY
  5
1A
102
{ACAD_REACTORS
330
C
102
}
330
C
100
AcDbDictionary
281
     1
  3
Layout1
350
1E
  3
Layout2
350
26
  3
Model
350
22
  0
DICTIONARY
  5
3B
102
{ACAD_REACTORS
330
C
102
}
330
C
100
AcDbDictionary
281
     1
  3
ByBlock
350
3D
  3
ByLayer
350
3C
  3
Global
350
3E
  0
DICTIONARY
  5
169
102
{ACAD_REACTORS
330
C
102
}
330
C
100
AcDbDictionary
281
     1
  0
DICTIONARY
  5
17
102
{ACAD_REACTORS
330
C
102
}
330
C
100
AcDbDictionary
281
     1
  3
Standard
350
18
  0
DICTIONARY
  5
19
102
{ACAD_REACTORS
330
C
102
}
330
C
100
AcDbDictionary
281
     1
  0
ACDBDICTIONARYWDFLT
  5
E
102
{ACAD_REACTORS
330
C
102
}
330
C
100
AcDbDictionary
281
     1
  3
Normal
350
F
100
AcDbDictionaryWithDefault
340
F
  0
DICTIONARY
  5
2A
102
{ACAD_REACTORS
330
C
102
}
330
C
100
AcDbDictionary
281
     1
  3
2dWireframe
350
2F
  3
3D Hidden
350
31
  3
3dWireframe
350
30
  3
Basic
350
32
  3
Brighten
350
36
  3
ColorChange
350
3A
  3
Conceptual
350
34
  3
Dim
350
35
  3
Facepattern
350
39
  3
Flat
350
2B
  3
FlatWithEdges
350
2C
  3
Gouraud
350
2D
  3
GouraudWithEdges
350
2E
  3
Linepattern
350
38
  3
Realistic
350
33
  3
Thicken
350
37
  0
DICTIONARY
  5
167
102
{ACAD_REACTORS
330
C
102
}
330
C
100
AcDbDictionary
281
     1
  3
DIMASSOC
350
16A
  3
HIDETEXT
350
16B
  0
LAYOUT
  5
1E
102
{ACAD_REACTORS
330
1A
102
}
330
1A
100
AcDbPlotSettings
  1

  2
none_device
  4

  6

 40
0.0
 41
0.0
 42
0.0
 43
0.0
 44
0.0
 45
0.0
 46
0.0
 47
0.0
 48
0.0
 49
0.0
140
0.0
141
0.0
142
1.0
143
1.0
 70
   688
 72
     0
 73
     0
 74
     5
  7

 75
    16
147
1.0
148
0.0
149
0.0
100
AcDbLayout
  1
Layout1
 70
     1
 71
     1
 10
0.0
 20
0.0
 11
12.0
 21
9.0
 12
0.0
 22
0.0
 32
0.0
 14
1.00000000000000E+20
 24
1.00000000000000E+20
 34
1.00000000000000E+20
 15
-1.00000000000000E+20
 25
-1.00000000000000E+20
 35
-1.00000000000000E+20
146
0.0
 13
0.0
 23
0.0
 33
0.0
 16
1.0
 26
0.0
 36
0.0
 17
0.0
 27
1.0
 37
0.0
 76
     0
330
1B
  0
LAYOUT
  5
26
102
{ACAD_REACTORS
330
1A
102
}
330
1A
100
AcDbPlotSettings
  1

  2
none_device
  4

  6

 40
0.0
 41
0.0
 42
0.0
 43
0.0
 44
0.0
 45
0.0
 46
0.0
 47
0.0
 48
0.0
 49
0.0
140
0.0
141
0.0
142
1.0
143
1.0
 70
   688
 72
     0
 73
     0
 74
     5
  7

 75
    16
147
1.0
148
0.0
149
0.0
100
AcDbLayout
  1
Layout2
 70
     1
 71
     2
 10
0.0
 20
0.0
 11
0.0
 21
0.0
 12
0.0
 22
0.0
 32
0.0
 14
0.0
 24
0.0
 34
0.0
 15
0.0
 25
0.0
 35
0.0
146
0.0
 13
0.0
 23
0.0
 33
0.0
 16
1.0
 26
0.0
 36
0.0
 17
0.0
 27
1.0
 37
0.0
 76
     0
330
23
  0
LAYOUT
  5
22
102
{ACAD_REACTORS
330
1A
102
}
330
1A
100
AcDbPlotSettings
  1

  2
none_device
  4

  6

 40
0.0
 41
0.0
 42
0.0
 43
0.0
 44
0.0
 45
0.0
 46
0.0
 47
0.0
 48
0.0
 49
0.0
140
0.0
141
0.0
142
1.0
143
1.0
 70
  1712
 72
     0
 73
     0
 74
     0
  7

 75
     0
147
1.0
148
0.0
149
0.0
100
AcDbLayout
  1
Model
 70
     1
 71
     0
 10
0.0
 20
0.0
 11
12.0
 21
9.0
 12
0.0
 22
0.0
 32
0.0
 14
-0.71937950704512
 24
-75.53558588979094
 34
0.0
 15
209.2806204929549
 25
221.4644141102091
 35
0.0
146
0.0
 13
0.0
 23
0.0
 33
0.0
 16
1.0
 26
0.0
 36
0.0
 17
0.0
 27
1.0
 37
0.0
 76
     0
330
1F
331
29
  0
MATERIAL
  5
3D
102
{ACAD_REACTORS
330
3B
102
}
102
{ACAD_XDICTIONARY
360
18E
102
}
330
3B
100
AcDbMaterial
  1
ByBlock
  0
MATERIAL
  5
3C
102
{ACAD_REACTORS
330
3B
102
}
102
{ACAD_XDICTIONARY
360
18C
102
}
330
3B
100
AcDbMaterial
  1
ByLayer
  0
MATERIAL
  5
3E
102
{ACAD_REACTORS
330
3B
102
}
102
{ACAD_XDICTIONARY
360
190
102
}
330
3B
100
AcDbMaterial
  1
Global
  0
MLINESTYLE
  5
18
102
{ACAD_REACTORS
330
17
102
}
330
17
100
AcDbMlineStyle
  2
Standard
 70
     0
  3

 62
   256
 51
90.0
 52
90.0
 71
     2
 49
0.5
 62
   256
  6
BYLAYER
 49
-0.5
 62
   256
  6
BYLAYER
  0
ACDBPLACEHOLDER
  5
F
102
{ACAD_REACTORS
330
E
102
}
330
E
  0
VISUALSTYLE
  5
2F
102
{ACAD_REACTORS
330
2A
102
}
102
{ACAD_XDICTIONARY
360
174
102
}
330
2A
100
AcDbVisualStyle
  2
2dWireframe
 70
     4
 71
     0
 72
     2
 73
     0
 90
        0
 40
-0.6
 41
-30.0
 62
     5
 63
     7
 74
     1
 91
        4
 64
     7
 65
   257
 75
     1
175
     1
 42
1.0
 92
        0
 66
   257
 43
1.0
 76
     1
 77
     6
 78
     2
 67
     7
 79
     5
170
     0
171
     0
290
     0
174
     0
 93
        1
 44
0.0
173
     0
291
     0
 45
0.0
1001
ACAD
1000
AcDbSavedByObjectVersion
1070
     0
  0
VISUALSTYLE
  5
31
102
{ACAD_REACTORS
330
2A
102
}
102
{ACAD_XDICTIONARY
360
178
102
}
330
2A
100
AcDbVisualStyle
  2
3D Hidden
 70
     6
 71
     1
 72
     2
 73
     2
 90
        0
 40
-0.6
 41
-30.0
 62
     5
 63
     7
 74
     2
 91
        2
 64
     7
 65
   257
 75
     2
175
     1
 42
40.0
 92
        0
 66
   257
 43
1.0
 76
     1
 77
     6
 78
     2
 67
     7
 79
     3
170
     0
171
     0
290
     0
174
     0
 93
        1
 44
0.0
173
     0
291
     0
 45
0.0
1001
ACAD
1000
AcDbSavedByObjectVersion
1070
     0
  0
VISUALSTYLE
  5
30
102
{ACAD_REACTORS
330
2A
102
}
102
{ACAD_XDICTIONARY
360
176
102
}
330
2A
100
AcDbVisualStyle
  2
3dWireframe
 70
     5
 71
     0
 72
     2
 73
     0
 90
        0
 40
-0.6
 41
-30.0
 62
     5
 63
     7
 74
     1
 91
        4
 64
     7
 65
   257
 75
     1
175
     1
 42
1.0
 92
        0
 66
   257
 43
1.0
 76
     1
 77
     6
 78
     2
 67
     7
 79
     5
170
     0
171
     0
290
     0
174
     0
 93
        1
 44
0.0
173
     0
291
     0
 45
0.0
1001
ACAD
1000
AcDbSavedByObjectVersion
1070
     0
  0
VISUALSTYLE
  5
32
102
{ACAD_REACTORS
330
2A
102
}
102
{ACAD_XDICTIONARY
360
17A
102
}
330
2A
100
AcDbVisualStyle
  2
Basic
 70
     7
 71
     1
 72
     0
 73
     1
 90
        0
 40
-0.6
 41
-30.0
 62
     5
 63
     7
 74
     0
 91
        4
 64
     7
 65
   257
 75
     1
175
     1
 42
1.0
 92
        8
 66
     7
 43
1.0
 76
     1
 77
     6
 78
     2
 67
     7
 79
     5
170
     0
171
     0
290
     0
174
     0
 93
        1
 44
0.0
173
     0
291
     1
 45
0.0
1001
ACAD
1000
AcDbSavedByObjectVersion
1070
     0
  0
VISUALSTYLE
  5
36
102
{ACAD_REACTORS
330
2A
102
}
102
{ACAD_XDICTIONARY
360
182
102
}
330
2A
100
AcDbVisualStyle
  2
Brighten
 70
    12
 71
     2
 72
     2
 73
     0
 90
        0
 40
-0.6
 41
-30.0
 62
     5
 63
     7
 74
     1
 91
        4
 64
     7
 65
   257
 75
     1
175
     1
 42
1.0
 92
        8
 66
     7
 43
1.0
 76
     1
 77
     6
 78
     2
 67
     7
 79
     5
170
     0
171
     0
290
     0
174
     0
 93
        1
 44
50.0
173
     0
291
     1
 45
0.0
1001
ACAD
1000
AcDbSavedByObjectVersion
1070
     0
  0
VISUALSTYLE
  5
3A
102
{ACAD_REACTORS
330
2A
102
}
102
{ACAD_XDICTIONARY
360
18A
102
}
330
2A
100
AcDbVisualStyle
  2
ColorChange
 70
    16
 71
     2
 72
     2
 73
     3
 90
        0
 40
-0.6
 41
-30.0
 62
     5
 63
     8
 74
     1
 91
        4
 64
     7
 65
   257
 75
     1
175
     1
 42
1.0
 92
        8
 66
     8
 43
1.0
 76
     1
 77
     6
 78
     2
 67
     7
 79
     5
170
     0
171
     0
290
     0
174
     0
 93
        1
 44
0.0
173
     0
291
     1
 45
0.0
1001
ACAD
1000
AcDbSavedByObjectVersion
1070
     0
  0
VISUALSTYLE
  5
34
102
{ACAD_REACTORS
330
2A
102
}
102
{ACAD_XDICTIONARY
360
17E
102
}
330
2A
100
AcDbVisualStyle
  2
Conceptual
 70
     9
 71
     3
 72
     2
 73
     0
 90
        0
 40
-0.6
 41
-30.0
 62
     5
 63
     7
 74
     2
 91
        2
 64
     7
 65
   257
 75
     1
175
     1
 42
40.0
 92
        8
 66
     7
 43
1.0
 76
     1
 77
     6
 78
     2
 67
     7
 79
     3
170
     0
171
     0
290
     0
174
     0
 93
        1
 44
0.0
173
     0
291
     0
 45
0.0
1001
ACAD
1000
AcDbSavedByObjectVersion
1070
     0
  0
VISUALSTYLE
  5
35
102
{ACAD_REACTORS
330
2A
102
}
102
{ACAD_XDICTIONARY
360
180
102
}
330
2A
100
AcDbVisualStyle
  2
Dim
 70
    11
 71
     2
 72
     2
 73
     0
 90
        0
 40
-0.6
 41
-30.0
 62
     5
 63
     7
 74
     1
 91
        4
 64
     7
 65
   257
 75
     1
175
     1
 42
1.0
 92
        8
 66
     7
 43
1.0
 76
     1
 77
     6
 78
     2
 67
     7
 79
     5
170
     0
171
     0
290
     0
174
     0
 93
        1
 44
-50.0
173
     0
291
     1
 45
0.0
1001
ACAD
1000
AcDbSavedByObjectVersion
1070
     0
  0
VISUALSTYLE
  5
39
102
{ACAD_REACTORS
330
2A
102
}
102
{ACAD_XDICTIONARY
360
188
102
}
330
2A
100
AcDbVisualStyle
  2
Facepattern
 70
    15
 71
     2
 72
     2
 73
     0
 90
        0
 40
-0.6
 41
-30.0
 62
     5
 63
     7
 74
     1
 91
        4
 64
     7
 65
   257
 75
     1
175
     1
 42
1.0
 92
        8
 66
     7
 43
1.0
 76
     1
 77
     6
 78
     2
 67
     7
 79
     5
170
     0
171
     0
290
     0
174
     0
 93
        1
 44
0.0
173
     0
291
     1
 45
0.0
1001
ACAD
1000
AcDbSavedByObjectVersion
1070
     0
  0
VISUALSTYLE
  5
2B
102
{ACAD_REACTORS
330
2A
102
}
102
{ACAD_XDICTIONARY
360
16C
102
}
330
2A
100
AcDbVisualStyle
  2
Flat
 70
     0
 71
     2
 72
     1
 73
     1
 90
        2
 40
-0.6
 41
30.0
 62
     5
 63
     7
 74
     0
 91
        4
 64
     7
 65
   257
 75
     1
175
     1
 42
1.0
 92
        8
 66
     7
 43
1.0
 76
     1
 77
     6
 78
     2
 67
     7
 79
     5
170
     0
171
     0
290
     0
174
     0
 93
       13
 44
0.0
173
     0
291
     1
 45
0.0
1001
ACAD
1000
AcDbSavedByObjectVersion
1070
     0
  0
VISUALSTYLE
  5
2C
102
{ACAD_REACTORS
330
2A
102
}
102
{ACAD_XDICTIONARY
360
16E
102
}
330
2A
100
AcDbVisualStyle
  2
FlatWithEdges
 70
     1
 71
     2
 72
     1
 73
     1
 90
        2
 40
-0.6
 41
30.0
 62
     5
 63
     7
 74
     1
 91
        4
 64
     7
 65
   257
 75
     1
175
     1
 42
1.0
 92
        0
 66
   257
 43
1.0
 76
     1
 77
     6
 78
     2
 67
     7
 79
     5
170
     0
171
     0
290
     0
174
     0
 93
       13
 44
0.0
173
     0
291
     1
 45
0.0
1001
ACAD
1000
AcDbSavedByObjectVersion
1070
     0
  0
VISUALSTYLE
  5
2D
102
{ACAD_REACTORS
330
2A
102
}
102
{ACAD_XDICTIONARY
360
170
102
}
330
2A
100
AcDbVisualStyle
  2
Gouraud
 70
     2
 71
     2
 72
     2
 73
     1
 90
        2
 40
-0.6
 41
30.0
 62
     5
 63
     7
 74
     0
 91
        4
 64
     7
 65
   257
 75
     1
175
     1
 42
1.0
 92
        0
 66
     7
 43
1.0
 76
     1
 77
     6
 78
     2
 67
     7
 79
     5
170
     0
171
     0
290
     0
174
     0
 93
       13
 44
0.0
173
     0
291
     1
 45
0.0
1001
ACAD
1000
AcDbSavedByObjectVersion
1070
     0
  0
VISUALSTYLE
  5
2E
102
{ACAD_REACTORS
330
2A
102
}
102
{ACAD_XDICTIONARY
360
172
102
}
330
2A
100
AcDbVisualStyle
  2
GouraudWithEdges
 70
     3
 71
     2
 72
     2
 73
     1
 90
        2
 40
-0.6
 41
30.0
 62
     5
 63
     7
 74
     1
 91
        4
 64
     7
 65
   257
 75
     1
175
     1
 42
1.0
 92
        0
 66
   257
 43
1.0
 76
     1
 77
     6
 78
     2
 67
     7
 79
     5
170
     0
171
     0
290
     0
174
     0
 93
       13
 44
0.0
173
     0
291
     1
 45
0.0
1001
ACAD
1000
AcDbSavedByObjectVersion
1070
     0
  0
VISUALSTYLE
  5
38
102
{ACAD_REACTORS
330
2A
102
}
102
{ACAD_XDICTIONARY
360
186
102
}
330
2A
100
AcDbVisualStyle
  2
Linepattern
 70
    14
 71
     2
 72
     2
 73
     0
 90
        0
 40
-0.6
 41
-30.0
 62
     5
 63
     7
 74
     1
 91
        4
 64
     7
 65
   257
 75
     7
175
     7
 42
1.0
 92
        8
 66
     7
 43
1.0
 76
     1
 77
     6
 78
     2
 67
     7
 79
     5
170
     0
171
     0
290
     0
174
     0
 93
        1
 44
0.0
173
     0
291
     1
 45
0.0
1001
ACAD
1000
AcDbSavedByObjectVersion
1070
     0
  0
VISUALSTYLE
  5
33
102
{ACAD_REACTORS
330
2A
102
}
102
{ACAD_XDICTIONARY
360
17C
102
}
330
2A
100
AcDbVisualStyle
  2
Realistic
 70
     8
 71
     2
 72
     2
 73
     0
 90
        0
 40
-0.6
 41
-30.0
 62
     5
 63
     7
 74
     1
 91
        0
 64
     7
 65
   257
 75
     1
175
     1
 42
1.0
 92
        8
 66
     8
 43
1.0
 76
     1
 77
     6
 78
     2
 67
     7
 79
     5
170
     0
171
     0
290
     0
174
     0
 93
       13
 44
0.0
173
     0
291
     0
 45
0.0
1001
ACAD
1000
AcDbSavedByObjectVersion
1070
     0
  0
VISUALSTYLE
  5
37
102
{ACAD_REACTORS
330
2A
102
}
102
{ACAD_XDICTIONARY
360
184
102
}
330
2A
100
AcDbVisualStyle
  2
Thicken
 70
    13
 71
     2
 72
     2
 73
     0
 90
        0
 40
-0.6
 41
-30.0
 62
     5
 63
     7
 74
     1
 91
        4
 64
     7
 65
   257
 75
     1
175
     1
 42
1.0
 92
       12
 66
     7
 43
1.0
 76
     1
 77
     6
 78
     2
 67
     7
 79
     5
170
     0
171
     0
290
     0
174
     0
 93
        1
 44
0.0
173
     0
291
     1
 45
0.0
1001
ACAD
1000
AcDbSavedByObjectVersion
1070
     0
  0
DICTIONARYVAR
  5
16A
102
{ACAD_REACTORS
330
167
102
}
330
167
100
DictionaryVariables
280
     0
  1
2
  0
DICTIONARYVAR
  5
16B
102
{ACAD_REACTORS
330
167
102
}
330
167
100
DictionaryVariables
280
     0
  1
1
  0
DICTIONARY
  5
18E
330
3D
100
AcDbDictionary
280
     1
281
     1
  3
ACAD_XREC_ROUNDTRIP
360
18F
  0
DICTIONARY
  5
18C
330
3C
100
AcDbDictionary
280
     1
281
     1
  3
ACAD_XREC_ROUNDTRIP
360
18D
  0
DICTIONARY
  5
190
330
3E
100
AcDbDictionary
280
     1
281
     1
  3
ACAD_XREC_ROUNDTRIP
360
191
  0
DICTIONARY
  5
174
330
2F
100
AcDbDictionary
280
     1
281
     1
  3
ACAD_XREC_ROUNDTRIP
360
175
  0
DICTIONARY
  5
178
330
31
100
AcDbDictionary
280
     1
281
     1
  3
ACAD_XREC_ROUNDTRIP
360
179
  0
DICTIONARY
  5
176
330
30
100
AcDbDictionary
280
     1
281
     1
  3
ACAD_XREC_ROUNDTRIP
360
177
  0
DICTIONARY
  5
17A
330
32
100
AcDbDictionary
280
     1
281
     1
  3
ACAD_XREC_ROUNDTRIP
360
17B
  0
DICTIONARY
  5
182
330
36
100
AcDbDictionary
280
     1
281
     1
  3
ACAD_XREC_ROUNDTRIP
360
183
  0
DICTIONARY
  5
18A
330
3A
100
AcDbDictionary
280
     1
281
     1
  3
ACAD_XREC_ROUNDTRIP
360
18B
  0
DICTIONARY
  5
17E
330
34
100
AcDbDictionary
280
     1
281
     1
  3
ACAD_XREC_ROUNDTRIP
360
17F
  0
DICTIONARY
  5
180
330
35
100
AcDbDictionary
280
     1
281
     1
  3
ACAD_XREC_ROUNDTRIP
360
181
  0
DICTIONARY
  5
188
330
39
100
AcDbDictionary
280
     1
281
     1
  3
ACAD_XREC_ROUNDTRIP
360
189
  0
DICTIONARY
  5
16C
330
2B
100
AcDbDictionary
280
     1
281
     1
  3
ACAD_XREC_ROUNDTRIP
360
16D
  0
DICTIONARY
  5
16E
330
2C
100
AcDbDictionary
280
     1
281
     1
  3
ACAD_XREC_ROUNDTRIP
360
16F
  0
DICTIONARY
  5
170
330
2D
100
AcDbDictionary
280
     1
281
     1
  3
ACAD_XREC_ROUNDTRIP
360
171
  0
DICTIONARY
  5
172
330
2E
100
AcDbDictionary
280
     1
281
     1
  3
ACAD_XREC_ROUNDTRIP
360
173
  0
DICTIONARY
  5
186
330
38
100
AcDbDictionary
280
     1
281
     1
  3
ACAD_XREC_ROUNDTRIP
360
187
  0
DICTIONARY
  5
17C
330
33
100
AcDbDictionary
280
     1
281
     1
  3
ACAD_XREC_ROUNDTRIP
360
17D
  0
DICTIONARY
  5
184
330
37
100
AcDbDictionary
280
     1
281
     1
  3
ACAD_XREC_ROUNDTRIP
360
185
  0
XRECORD
  5
18F
102
{ACAD_REACTORS
330
18E
102
}
330
18E
100
AcDbXrecord
280
     1
102
MATERIAL
148
0.0
149
0.0
149
0.0
 93
        0
 94
      127
282
     0
 72
     1
 77
     1
171
     1
175
     1
179
     1
273
     0
  0
XRECORD
  5
18D
102
{ACAD_REACTORS
330
18C
102
}
330
18C
100
AcDbXrecord
280
     1
102
MATERIAL
148
0.0
149
0.0
149
0.0
 93
        0
 94
      127
282
     0
 72
     1
 77
     1
171
     1
175
     1
179
     1
273
     0
  0
XRECORD
  5
191
102
{ACAD_REACTORS
330
190
102
}
330
190
100
AcDbXrecord
280
     1
102
MATERIAL
148
0.0
149
0.0
149
0.0
 93
        0
 94
      127
282
     0
 72
     1
 77
     1
171
     1
175
     1
179
     1
273
     0
  0
XRECORD
  5
175
102
{ACAD_REACTORS
330
174
102
}
330
174
100
AcDbXrecord
280
     1
102
RTVSPropertyOp0
 70
     1
102
RTVSPropertyOp1
 70
     1
102
RTVSPropertyOp2
 70
     1
102
RTVSPropertyOp3
 70
     1
102
RTVSPropertyOp4
 70
     1
102
RTVSPropertyOp5
 70
     1
102
RTVSPropertyOp6
 70
     1
102
RTVSPropertyOp7
 70
     1
102
RTVSPropertyOp8
 70
     1
102
RTVSPropertyOp9
 70
     1
102
RTVSPropertyOp10
 70
     1
102
RTVSPropertyOp11
 70
     1
102
RTVSPropertyOp12
 70
     1
102
RTVSPropertyOp13
 70
     1
102
RTVSPropertyOp14
 70
     1
102
RTVSPropertyOp15
 70
     1
102
RTVSPropertyOp16
 70
     1
102
RTVSPropertyOp17
 70
     1
102
RTVSPropertyOp18
 70
     1
102
RTVSPropertyOp19
 70
     1
102
RTVSPropertyOp20
 70
     1
102
RTVSPropertyOp21
 70
     1
102
RTVSPropertyOp22
 70
     1
102
RTVSPropertyOp23
 70
     1
102
RTVSPropertyOp24
 70
     1
102
RTVSPropertyOp25
 70
     1
102
RTVSPropertyOp26
 70
     1
102
RTVSPropertyOp27
 70
     1
102
RTVSPropertyOp28
 70
     1
102
RTVSPropertyOp29
 70
     1
102
RTVSPropertyOp30
 70
     1
102
RTVSPropertyOp31
 70
     1
102
RTVSPropertyOp32
 70
     1
  0
XRECORD
  5
179
102
{ACAD_REACTORS
330
178
102
}
330
178
100
AcDbXrecord
280
     1
102
RTVSPropertyOp0
 70
     1
102
RTVSPropertyOp1
 70
     1
102
RTVSPropertyOp2
 70
     1
102
RTVSPropertyOp3
 70
     1
102
RTVSPropertyOp4
 70
     1
102
RTVSPropertyOp5
 70
     1
102
RTVSPropertyOp6
 70
     1
102
RTVSPropertyOp7
 70
     1
102
RTVSPropertyOp8
 70
     1
102
RTVSPropertyOp9
 70
     1
102
RTVSPropertyOp10
 70
     1
102
RTVSPropertyOp11
 70
     1
102
RTVSPropertyOp12
 70
     1
102
RTVSPropertyOp13
 70
     1
102
RTVSPropertyOp14
 70
     1
102
RTVSPropertyOp15
 70
     1
102
RTVSPropertyOp16
 70
     1
102
RTVSPropertyOp17
 70
     1
102
RTVSPropertyOp18
 70
     1
102
RTVSPropertyOp19
 70
     1
102
RTVSPropertyOp20
 70
     1
102
RTVSPropertyOp21
 70
     1
102
RTVSPropertyOp22
 70
     1
102
RTVSPropertyOp23
 70
     1
102
RTVSPropertyOp24
 70
     1
102
RTVSPropertyOp25
 70
     1
102
RTVSPropertyOp26
 70
     1
102
RTVSPropertyOp27
 70
     1
102
RTVSPropertyOp28
 70
     1
102
RTVSPropertyOp29
 70
     1
102
RTVSPropertyOp30
 70
     1
102
RTVSPropertyOp31
 70
     1
102
RTVSPropertyOp32
 70
     1
  0
XRECORD
  5
177
102
{ACAD_REACTORS
330
176
102
}
330
176
100
AcDbXrecord
280
     1
102
RTVSPropertyOp0
 70
     1
102
RTVSPropertyOp1
 70
     1
102
RTVSPropertyOp2
 70
     1
102
RTVSPropertyOp3
 70
     1
102
RTVSPropertyOp4
 70
     1
102
RTVSPropertyOp5
 70
     1
102
RTVSPropertyOp6
 70
     1
102
RTVSPropertyOp7
 70
     1
102
RTVSPropertyOp8
 70
     1
102
RTVSPropertyOp9
 70
     1
102
RTVSPropertyOp10
 70
     1
102
RTVSPropertyOp11
 70
     1
102
RTVSPropertyOp12
 70
     1
102
RTVSPropertyOp13
 70
     1
102
RTVSPropertyOp14
 70
     1
102
RTVSPropertyOp15
 70
     1
102
RTVSPropertyOp16
 70
     1
102
RTVSPropertyOp17
 70
     1
102
RTVSPropertyOp18
 70
     1
102
RTVSPropertyOp19
 70
     1
102
RTVSPropertyOp20
 70
     1
102
RTVSPropertyOp21
 70
     1
102
RTVSPropertyOp22
 70
     1
102
RTVSPropertyOp23
 70
     1
102
RTVSPropertyOp24
 70
     1
102
RTVSPropertyOp25
 70
     1
102
RTVSPropertyOp26
 70
     1
102
RTVSPropertyOp27
 70
     1
102
RTVSPropertyOp28
 70
     1
102
RTVSPropertyOp29
 70
     1
102
RTVSPropertyOp30
 70
     1
102
RTVSPropertyOp31
 70
     1
102
RTVSPropertyOp32
 70
     1
  0
XRECORD
  5
17B
102
{ACAD_REACTORS
330
17A
102
}
330
17A
100
AcDbXrecord
280
     1
102
RTVSPropertyOp0
 70
     1
102
RTVSPropertyOp1
 70
     1
102
RTVSPropertyOp2
 70
     1
102
RTVSPropertyOp3
 70
     1
102
RTVSPropertyOp4
 70
     1
102
RTVSPropertyOp5
 70
     1
102
RTVSPropertyOp6
 70
     1
102
RTVSPropertyOp7
 70
     1
102
RTVSPropertyOp8
 70
     1
102
RTVSPropertyOp9
 70
     1
102
RTVSPropertyOp10
 70
     1
102
RTVSPropertyOp11
 70
     1
102
RTVSPropertyOp12
 70
     1
102
RTVSPropertyOp13
 70
     1
102
RTVSPropertyOp14
 70
     1
102
RTVSPropertyOp15
 70
     1
102
RTVSPropertyOp16
 70
     1
102
RTVSPropertyOp17
 70
     1
102
RTVSPropertyOp18
 70
     1
102
RTVSPropertyOp19
 70
     1
102
RTVSPropertyOp20
 70
     1
102
RTVSPropertyOp21
 70
     1
102
RTVSPropertyOp22
 70
     1
102
RTVSPropertyOp23
 70
     1
102
RTVSPropertyOp24
 70
     1
102
RTVSPropertyOp25
 70
     1
102
RTVSPropertyOp26
 70
     1
102
RTVSPropertyOp27
 70
     1
102
RTVSPropertyOp28
 70
     1
102
RTVSPropertyOp29
 70
     1
102
RTVSPropertyOp30
 70
     1
102
RTVSPropertyOp31
 70
     1
102
RTVSPropertyOp32
 70
     1
  0
XRECORD
  5
183
102
{ACAD_REACTORS
330
182
102
}
330
182
100
AcDbXrecord
280
     1
102
RTVSPropertyOp0
 70
     1
102
RTVSPropertyOp1
 70
     1
102
RTVSPropertyOp2
 70
     1
102
RTVSPropertyOp3
 70
     1
102
RTVSPropertyOp4
 70
     1
102
RTVSPropertyOp5
 70
     1
102
RTVSPropertyOp6
 70
     1
102
RTVSPropertyOp7
 70
     1
102
RTVSPropertyOp8
 70
     1
102
RTVSPropertyOp9
 70
     1
102
RTVSPropertyOp10
 70
     1
102
RTVSPropertyOp11
 70
     1
102
RTVSPropertyOp12
 70
     1
102
RTVSPropertyOp13
 70
     1
102
RTVSPropertyOp14
 70
     1
102
RTVSPropertyOp15
 70
     1
102
RTVSPropertyOp16
 70
     1
102
RTVSPropertyOp17
 70
     1
102
RTVSPropertyOp18
 70
     1
102
RTVSPropertyOp19
 70
     1
102
RTVSPropertyOp20
 70
     1
102
RTVSPropertyOp21
 70
     1
102
RTVSPropertyOp22
 70
     1
102
RTVSPropertyOp23
 70
     1
102
RTVSPropertyOp24
 70
     1
102
RTVSPropertyOp25
 70
     1
102
RTVSPropertyOp26
 70
     1
102
RTVSPropertyOp27
 70
     1
102
RTVSPropertyOp28
 70
     1
102
RTVSPropertyOp29
 70
     1
102
RTVSPropertyOp30
 70
     1
102
RTVSPropertyOp31
 70
     1
102
RTVSPropertyOp32
 70
     1
  0
XRECORD
  5
18B
102
{ACAD_REACTORS
330
18A
102
}
330
18A
100
AcDbXrecord
280
     1
102
RTVSPropertyOp0
 70
     1
102
RTVSPropertyOp1
 70
     1
102
RTVSPropertyOp2
 70
     1
102
RTVSPropertyOp3
 70
     1
102
RTVSPropertyOp4
 70
     1
102
RTVSPropertyOp5
 70
     1
102
RTVSPropertyOp6
 70
     1
102
RTVSPropertyOp7
 70
     1
102
RTVSPropertyOp8
 70
     1
102
RTVSPropertyOp9
 70
     1
102
RTVSPropertyOp10
 70
     1
102
RTVSPropertyOp11
 70
     1
102
RTVSPropertyOp12
 70
     1
102
RTVSPropertyOp13
 70
     1
102
RTVSPropertyOp14
 70
     1
102
RTVSPropertyOp15
 70
     1
102
RTVSPropertyOp16
 70
     1
102
RTVSPropertyOp17
 70
     1
102
RTVSPropertyOp18
 70
     1
102
RTVSPropertyOp19
 70
     1
102
RTVSPropertyOp20
 70
     1
102
RTVSPropertyOp21
 70
     1
102
RTVSPropertyOp22
 70
     1
102
RTVSPropertyOp23
 70
     1
102
RTVSPropertyOp24
 70
     1
102
RTVSPropertyOp25
 70
     1
102
RTVSPropertyOp26
 70
     1
102
RTVSPropertyOp27
 70
     1
102
RTVSPropertyOp28
 70
     1
102
RTVSPropertyOp29
 70
     1
102
RTVSPropertyOp30
 70
     1
102
RTVSPropertyOp31
 70
     1
102
RTVSPropertyOp32
 70
     1
  0
XRECORD
  5
17F
102
{ACAD_REACTORS
330
17E
102
}
330
17E
100
AcDbXrecord
280
     1
102
RTVSPropertyOp0
 70
     1
102
RTVSPropertyOp1
 70
     1
102
RTVSPropertyOp2
 70
     1
102
RTVSPropertyOp3
 70
     1
102
RTVSPropertyOp4
 70
     1
102
RTVSPropertyOp5
 70
     1
102
RTVSPropertyOp6
 70
     1
102
RTVSPropertyOp7
 70
     1
102
RTVSPropertyOp8
 70
     1
102
RTVSPropertyOp9
 70
     1
102
RTVSPropertyOp10
 70
     1
102
RTVSPropertyOp11
 70
     1
102
RTVSPropertyOp12
 70
     1
102
RTVSPropertyOp13
 70
     1
102
RTVSPropertyOp14
 70
     1
102
RTVSPropertyOp15
 70
     1
102
RTVSPropertyOp16
 70
     1
102
RTVSPropertyOp17
 70
     1
102
RTVSPropertyOp18
 70
     1
102
RTVSPropertyOp19
 70
     1
102
RTVSPropertyOp20
 70
     1
102
RTVSPropertyOp21
 70
     1
102
RTVSPropertyOp22
 70
     1
102
RTVSPropertyOp23
 70
     1
102
RTVSPropertyOp24
 70
     1
102
RTVSPropertyOp25
 70
     1
102
RTVSPropertyOp26
 70
     1
102
RTVSPropertyOp27
 70
     1
102
RTVSPropertyOp28
 70
     1
102
RTVSPropertyOp29
 70
     1
102
RTVSPropertyOp30
 70
     1
102
RTVSPropertyOp31
 70
     1
102
RTVSPropertyOp32
 70
     1
  0
XRECORD
  5
181
102
{ACAD_REACTORS
330
180
102
}
330
180
100
AcDbXrecord
280
     1
102
RTVSPropertyOp0
 70
     1
102
RTVSPropertyOp1
 70
     1
102
RTVSPropertyOp2
 70
     1
102
RTVSPropertyOp3
 70
     1
102
RTVSPropertyOp4
 70
     1
102
RTVSPropertyOp5
 70
     1
102
RTVSPropertyOp6
 70
     1
102
RTVSPropertyOp7
 70
     1
102
RTVSPropertyOp8
 70
     1
102
RTVSPropertyOp9
 70
     1
102
RTVSPropertyOp10
 70
     1
102
RTVSPropertyOp11
 70
     1
102
RTVSPropertyOp12
 70
     1
102
RTVSPropertyOp13
 70
     1
102
RTVSPropertyOp14
 70
     1
102
RTVSPropertyOp15
 70
     1
102
RTVSPropertyOp16
 70
     1
102
RTVSPropertyOp17
 70
     1
102
RTVSPropertyOp18
 70
     1
102
RTVSPropertyOp19
 70
     1
102
RTVSPropertyOp20
 70
     1
102
RTVSPropertyOp21
 70
     1
102
RTVSPropertyOp22
 70
     1
102
RTVSPropertyOp23
 70
     1
102
RTVSPropertyOp24
 70
     1
102
RTVSPropertyOp25
 70
     1
102
RTVSPropertyOp26
 70
     1
102
RTVSPropertyOp27
 70
     1
102
RTVSPropertyOp28
 70
     1
102
RTVSPropertyOp29
 70
     1
102
RTVSPropertyOp30
 70
     1
102
RTVSPropertyOp31
 70
     1
102
RTVSPropertyOp32
 70
     1
  0
XRECORD
  5
189
102
{ACAD_REACTORS
330
188
102
}
330
188
100
AcDbXrecord
280
     1
102
RTVSPropertyOp0
 70
     1
102
RTVSPropertyOp1
 70
     1
102
RTVSPropertyOp2
 70
     1
102
RTVSPropertyOp3
 70
     1
102
RTVSPropertyOp4
 70
     1
102
RTVSPropertyOp5
 70
     1
102
RTVSPropertyOp6
 70
     1
102
RTVSPropertyOp7
 70
     1
102
RTVSPropertyOp8
 70
     1
102
RTVSPropertyOp9
 70
     1
102
RTVSPropertyOp10
 70
     1
102
RTVSPropertyOp11
 70
     1
102
RTVSPropertyOp12
 70
     1
102
RTVSPropertyOp13
 70
     1
102
RTVSPropertyOp14
 70
     1
102
RTVSPropertyOp15
 70
     1
102
RTVSPropertyOp16
 70
     1
102
RTVSPropertyOp17
 70
     1
102
RTVSPropertyOp18
 70
     1
102
RTVSPropertyOp19
 70
     1
102
RTVSPropertyOp20
 70
     1
102
RTVSPropertyOp21
 70
     1
102
RTVSPropertyOp22
 70
     1
102
RTVSPropertyOp23
 70
     1
102
RTVSPropertyOp24
 70
     1
102
RTVSPropertyOp25
 70
     1
102
RTVSPropertyOp26
 70
     1
102
RTVSPropertyOp27
 70
     1
102
RTVSPropertyOp28
 70
     1
102
RTVSPropertyOp29
 70
     1
102
RTVSPropertyOp30
 70
     1
102
RTVSPropertyOp31
 70
     1
102
RTVSPropertyOp32
 70
     1
  0
XRECORD
  5
16D
102
{ACAD_REACTORS
330
16C
102
}
330
16C
100
AcDbXrecord
280
     1
102
RTVSPropertyOp0
 70
     1
102
RTVSPropertyOp1
 70
     1
102
RTVSPropertyOp2
 70
     1
102
RTVSPropertyOp3
 70
     1
102
RTVSPropertyOp4
 70
     1
102
RTVSPropertyOp5
 70
     1
102
RTVSPropertyOp6
 70
     1
102
RTVSPropertyOp7
 70
     1
102
RTVSPropertyOp8
 70
     1
102
RTVSPropertyOp9
 70
     1
102
RTVSPropertyOp10
 70
     1
102
RTVSPropertyOp11
 70
     1
102
RTVSPropertyOp12
 70
     1
102
RTVSPropertyOp13
 70
     1
102
RTVSPropertyOp14
 70
     1
102
RTVSPropertyOp15
 70
     1
102
RTVSPropertyOp16
 70
     1
102
RTVSPropertyOp17
 70
     1
102
RTVSPropertyOp18
 70
     1
102
RTVSPropertyOp19
 70
     1
102
RTVSPropertyOp20
 70
     1
102
RTVSPropertyOp21
 70
     1
102
RTVSPropertyOp22
 70
     1
102
RTVSPropertyOp23
 70
     1
102
RTVSPropertyOp24
 70
     1
102
RTVSPropertyOp25
 70
     1
102
RTVSPropertyOp26
 70
     1
102
RTVSPropertyOp27
 70
     1
102
RTVSPropertyOp28
 70
     1
102
RTVSPropertyOp29
 70
     1
102
RTVSPropertyOp30
 70
     1
102
RTVSPropertyOp31
 70
     1
102
RTVSPropertyOp32
 70
     1
  0
XRECORD
  5
16F
102
{ACAD_REACTORS
330
16E
102
}
330
16E
100
AcDbXrecord
280
     1
102
RTVSPropertyOp0
 70
     1
102
RTVSPropertyOp1
 70
     1
102
RTVSPropertyOp2
 70
     1
102
RTVSPropertyOp3
 70
     1
102
RTVSPropertyOp4
 70
     1
102
RTVSPropertyOp5
 70
     1
102
RTVSPropertyOp6
 70
     1
102
RTVSPropertyOp7
 70
     1
102
RTVSPropertyOp8
 70
     1
102
RTVSPropertyOp9
 70
     1
102
RTVSPropertyOp10
 70
     1
102
RTVSPropertyOp11
 70
     1
102
RTVSPropertyOp12
 70
     1
102
RTVSPropertyOp13
 70
     1
102
RTVSPropertyOp14
 70
     1
102
RTVSPropertyOp15
 70
     1
102
RTVSPropertyOp16
 70
     1
102
RTVSPropertyOp17
 70
     1
102
RTVSPropertyOp18
 70
     1
102
RTVSPropertyOp19
 70
     1
102
RTVSPropertyOp20
 70
     1
102
RTVSPropertyOp21
 70
     1
102
RTVSPropertyOp22
 70
     1
102
RTVSPropertyOp23
 70
     1
102
RTVSPropertyOp24
 70
     1
102
RTVSPropertyOp25
 70
     1
102
RTVSPropertyOp26
 70
     1
102
RTVSPropertyOp27
 70
     1
102
RTVSPropertyOp28
 70
     1
102
RTVSPropertyOp29
 70
     1
102
RTVSPropertyOp30
 70
     1
102
RTVSPropertyOp31
 70
     1
102
RTVSPropertyOp32
 70
     1
  0
XRECORD
  5
171
102
{ACAD_REACTORS
330
170
102
}
330
170
100
AcDbXrecord
280
     1
102
RTVSPropertyOp0
 70
     1
102
RTVSPropertyOp1
 70
     1
102
RTVSPropertyOp2
 70
     1
102
RTVSPropertyOp3
 70
     1
102
RTVSPropertyOp4
 70
     1
102
RTVSPropertyOp5
 70
     1
102
RTVSPropertyOp6
 70
     1
102
RTVSPropertyOp7
 70
     1
102
RTVSPropertyOp8
 70
     1
102
RTVSPropertyOp9
 70
     1
102
RTVSPropertyOp10
 70
     1
102
RTVSPropertyOp11
 70
     1
102
RTVSPropertyOp12
 70
     1
102
RTVSPropertyOp13
 70
     1
102
RTVSPropertyOp14
 70
     1
102
RTVSPropertyOp15
 70
     1
102
RTVSPropertyOp16
 70
     1
102
RTVSPropertyOp17
 70
     1
102
RTVSPropertyOp18
 70
     1
102
RTVSPropertyOp19
 70
     1
102
RTVSPropertyOp20
 70
     1
102
RTVSPropertyOp21
 70
     1
102
RTVSPropertyOp22
 70
     1
102
RTVSPropertyOp23
 70
     1
102
RTVSPropertyOp24
 70
     1
102
RTVSPropertyOp25
 70
     1
102
RTVSPropertyOp26
 70
     1
102
RTVSPropertyOp27
 70
     1
102
RTVSPropertyOp28
 70
     1
102
RTVSPropertyOp29
 70
     1
102
RTVSPropertyOp30
 70
     1
102
RTVSPropertyOp31
 70
     1
102
RTVSPropertyOp32
 70
     1
  0
XRECORD
  5
173
102
{ACAD_REACTORS
330
172
102
}
330
172
100
AcDbXrecord
280
     1
102
RTVSPropertyOp0
 70
     1
102
RTVSPropertyOp1
 70
     1
102
RTVSPropertyOp2
 70
     1
102
RTVSPropertyOp3
 70
     1
102
RTVSPropertyOp4
 70
     1
102
RTVSPropertyOp5
 70
     1
102
RTVSPropertyOp6
 70
     1
102
RTVSPropertyOp7
 70
     1
102
RTVSPropertyOp8
 70
     1
102
RTVSPropertyOp9
 70
     1
102
RTVSPropertyOp10
 70
     1
102
RTVSPropertyOp11
 70
     1
102
RTVSPropertyOp12
 70
     1
102
RTVSPropertyOp13
 70
     1
102
RTVSPropertyOp14
 70
     1
102
RTVSPropertyOp15
 70
     1
102
RTVSPropertyOp16
 70
     1
102
RTVSPropertyOp17
 70
     1
102
RTVSPropertyOp18
 70
     1
102
RTVSPropertyOp19
 70
     1
102
RTVSPropertyOp20
 70
     1
102
RTVSPropertyOp21
 70
     1
102
RTVSPropertyOp22
 70
     1
102
RTVSPropertyOp23
 70
     1
102
RTVSPropertyOp24
 70
     1
102
RTVSPropertyOp25
 70
     1
102
RTVSPropertyOp26
 70
     1
102
RTVSPropertyOp27
 70
     1
102
RTVSPropertyOp28
 70
     1
102
RTVSPropertyOp29
 70
     1
102
RTVSPropertyOp30
 70
     1
102
RTVSPropertyOp31
 70
     1
102
RTVSPropertyOp32
 70
     1
  0
XRECORD
  5
187
102
{ACAD_REACTORS
330
186
102
}
330
186
100
AcDbXrecord
280
     1
102
RTVSPropertyOp0
 70
     1
102
RTVSPropertyOp1
 70
     1
102
RTVSPropertyOp2
 70
     1
102
RTVSPropertyOp3
 70
     1
102
RTVSPropertyOp4
 70
     1
102
RTVSPropertyOp5
 70
     1
102
RTVSPropertyOp6
 70
     1
102
RTVSPropertyOp7
 70
     1
102
RTVSPropertyOp8
 70
     1
102
RTVSPropertyOp9
 70
     1
102
RTVSPropertyOp10
 70
     1
102
RTVSPropertyOp11
 70
     1
102
RTVSPropertyOp12
 70
     1
102
RTVSPropertyOp13
 70
     1
102
RTVSPropertyOp14
 70
     1
102
RTVSPropertyOp15
 70
     1
102
RTVSPropertyOp16
 70
     1
102
RTVSPropertyOp17
 70
     1
102
RTVSPropertyOp18
 70
     1
102
RTVSPropertyOp19
 70
     1
102
RTVSPropertyOp20
 70
     1
102
RTVSPropertyOp21
 70
     1
102
RTVSPropertyOp22
 70
     1
102
RTVSPropertyOp23
 70
     1
102
RTVSPropertyOp24
 70
     1
102
RTVSPropertyOp25
 70
     1
102
RTVSPropertyOp26
 70
     1
102
RTVSPropertyOp27
 70
     1
102
RTVSPropertyOp28
 70
     1
102
RTVSPropertyOp29
 70
     1
102
RTVSPropertyOp30
 70
     1
102
RTVSPropertyOp31
 70
     1
102
RTVSPropertyOp32
 70
     1
  0
XRECORD
  5
17D
102
{ACAD_REACTORS
330
17C
102
}
330
17C
100
AcDbXrecord
280
     1
102
RTVSPropertyOp0
 70
     1
102
RTVSPropertyOp1
 70
     1
102
RTVSPropertyOp2
 70
     1
102
RTVSPropertyOp3
 70
     1
102
RTVSPropertyOp4
 70
     1
102
RTVSPropertyOp5
 70
     1
102
RTVSPropertyOp6
 70
     1
102
RTVSPropertyOp7
 70
     1
102
RTVSPropertyOp8
 70
     1
102
RTVSPropertyOp9
 70
     1
102
RTVSPropertyOp10
 70
     1
102
RTVSPropertyOp11
 70
     1
102
RTVSPropertyOp12
 70
     1
102
RTVSPropertyOp13
 70
     1
102
RTVSPropertyOp14
 70
     1
102
RTVSPropertyOp15
 70
     1
102
RTVSPropertyOp16
 70
     1
102
RTVSPropertyOp17
 70
     1
102
RTVSPropertyOp18
 70
     1
102
RTVSPropertyOp19
 70
     1
102
RTVSPropertyOp20
 70
     1
102
RTVSPropertyOp21
 70
     1
102
RTVSPropertyOp22
 70
     1
102
RTVSPropertyOp23
 70
     1
102
RTVSPropertyOp24
 70
     1
102
RTVSPropertyOp25
 70
     1
102
RTVSPropertyOp26
 70
     1
102
RTVSPropertyOp27
 70
     1
102
RTVSPropertyOp28
 70
     1
102
RTVSPropertyOp29
 70
     1
102
RTVSPropertyOp30
 70
     1
102
RTVSPropertyOp31
 70
     1
102
RTVSPropertyOp32
 70
     1
  0
XRECORD
  5
185
102
{ACAD_REACTORS
330
184
102
}
330
184
100
AcDbXrecord
280
     1
102
RTVSPropertyOp0
 70
     1
102
RTVSPropertyOp1
 70
     1
102
RTVSPropertyOp2
 70
     1
102
RTVSPropertyOp3
 70
     1
102
RTVSPropertyOp4
 70
     1
102
RTVSPropertyOp5
 70
     1
102
RTVSPropertyOp6
 70
     1
102
RTVSPropertyOp7
 70
     1
102
RTVSPropertyOp8
 70
     1
102
RTVSPropertyOp9
 70
     1
102
RTVSPropertyOp10
 70
     1
102
RTVSPropertyOp11
 70
     1
102
RTVSPropertyOp12
 70
     1
102
RTVSPropertyOp13
 70
     1
102
RTVSPropertyOp14
 70
     1
102
RTVSPropertyOp15
 70
     1
102
RTVSPropertyOp16
 70
     1
102
RTVSPropertyOp17
 70
     1
102
RTVSPropertyOp18
 70
     1
102
RTVSPropertyOp19
 70
     1
102
RTVSPropertyOp20
 70
     1
102
RTVSPropertyOp21
 70
     1
102
RTVSPropertyOp22
 70
     1
102
RTVSPropertyOp23
 70
     1
102
RTVSPropertyOp24
 70
     1
102
RTVSPropertyOp25
 70
     1
102
RTVSPropertyOp26
 70
     1
102
RTVSPropertyOp27
 70
     1
102
RTVSPropertyOp28
 70
     1
102
RTVSPropertyOp29
 70
     1
102
RTVSPropertyOp30
 70
     1
102
RTVSPropertyOp31
 70
     1
102
RTVSPropertyOp32
 70
     1
  0
ENDSEC
  0
EOF
