  0
SECTION
  2
HEADER
  9
$ACADVER
  1
AC1015
  9
$ACADMAINTVER
 70
     6
  9
$DWGCODEPAGE
  3
ANSI_932
  9
$INSBASE
 10
0.0
 20
0.0
 30
0.0
  9
$EXTMIN
 10
-132.2193795070449
 20
-88.20979955456568
 30
0.0
  9
$EXTMAX
 10
287.7806204929552
 20
505.7902004454344
 30
0.0
  9
$LIMMIN
 10
0.0
 20
0.0
  9
$LIMMAX
 10
12.0
 20
9.0
  9
$ORTHOMODE
 70
     0
  9
$REGENMODE
 70
     1
  9
$FILLMODE
 70
     1
  9
$QTEXTMODE
 70
     0
  9
$MIRRTEXT
 70
     1
  9
$LTSCALE
 40
1.0
  9
$ATTMODE
 70
     1
  9
$TEXTSIZE
 40
0.2
  9
$TRACEWID
 40
0.05
  9
$TEXTSTYLE
  7
Standard
  9
$CLAYER
  8
0
  9
$CELTYPE
  6
ByLayer
  9
$CECOLOR
 62
   256
  9
$CELTSCALE
 40
1.0
  9
$DISPSILH
 70
     0
  9
$DIMSCALE
 40
1.0
  9
$DIMASZ
 40
0.18
  9
$DIMEXO
 40
0.0625
  9
$DIMDLI
 40
0.38
  9
$DIMRND
 40
0.0
  9
$DIMDLE
 40
0.0
  9
$DIMEXE
 40
0.18
  9
$DIMTP
 40
0.0
  9
$DIMTM
 40
0.0
  9
$DIMTXT
 40
0.18
  9
$DIMCEN
 40
0.09
  9
$DIMTSZ
 40
0.0
  9
$DIMTOL
 70
     0
  9
$DIMLIM
 70
     0
  9
$DIMTIH
 70
     1
  9
$DIMTOH
 70
     1
  9
$DIMSE1
 70
     0
  9
$DIMSE2
 70
     0
  9
$DIMTAD
 70
     0
  9
$DIMZIN
 70
     0
  9
$DIMBLK
  1

  9
$DIMASO
 70
     1
  9
$DIMSHO
 70
     1
  9
$DIMPOST
  1

  9
$DIMAPOST
  1

  9
$DIMALT
 70
     0
  9
$DIMALTD
 70
     2
  9
$DIMALTF
 40
25.4
  9
$DIMLFAC
 40
1.0
  9
$DIMTOFL
 70
     0
  9
$DIMTVP
 40
0.0
  9
$DIMTIX
 70
     0
  9
$DIMSOXD
 70
     0
  9
$DIMSAH
 70
     0
  9
$DIMBLK1
  1

  9
$DIMBLK2
  1

  9
$DIMSTYLE
  2
Standard
  9
$DIMCLRD
 70
     0
  9
$DIMCLRE
 70
     0
  9
$DIMCLRT
 70
     0
  9
$DIMTFAC
 40
1.0
  9
$DIMGAP
 40
0.09
  9
$DIMJUST
 70
     0
  9
$DIMSD1
 70
     0
  9
$DIMSD2
 70
     0
  9
$DIMTOLJ
 70
     1
  9
$DIMTZIN
 70
     0
  9
$DIMALTZ
 70
     0
  9
$DIMALTTZ
 70
     0
  9
$DIMUPT
 70
     0
  9
$DIMDEC
 70
     4
  9
$DIMTDEC
 70
     4
  9
$DIMALTU
 70
     2
  9
$DIMALTTD
 70
     2
  9
$DIMTXSTY
  7
Standard
  9
$DIMAUNIT
 70
     0
  9
$DIMADEC
 70
     0
  9
$DIMALTRND
 40
0.0
  9
$DIMAZIN
 70
     0
  9
$DIMDSEP
 70
    46
  9
$DIMATFIT
 70
     3
  9
$DIMFRAC
 70
     0
  9
$DIMLDRBLK
  1

  9
$DIMLUNIT
 70
     2
  9
$DIMLWD
 70
    -2
  9
$DIMLWE
 70
    -2
  9
$DIMTMOVE
 70
     0
  9
$LUNITS
 70
     2
  9
$LUPREC
 70
     4
  9
$SKETCHINC
 40
0.1
  9
$FILLETRAD
 40
0.5
  9
$AUNITS
 70
     0
  9
$AUPREC
 70
     0
  9
$MENU
  1
.
  9
$ELEVATION
 40
0.0
  9
$PELEVATION
 40
0.0
  9
$THICKNESS
 40
0.0
  9
$LIMCHECK
 70
     0
  9
$CHAMFERA
 40
0.5
  9
$CHAMFERB
 40
0.5
  9
$CHAMFERC
 40
1.0
  9
$CHAMFERD
 40
0.0
  9
$SKPOLY
 70
     0
  9
$TDCREATE
 40
2459615.483737187
  9
$TDUCREATE
 40
2459615.108737187
  9
$TDUPDATE
 40
2459615.483739028
  9
$TDUUPDATE
 40
2459615.108739028
  9
$TDINDWG
 40
0.0000000116
  9
$TDUSRTIMER
 40
0.0000000116
  9
$USRTIMER
 70
     1
  9
$ANGBASE
 50
0.0
  9
$ANGDIR
 70
     0
  9
$PDMODE
 70
     0
  9
$PDSIZE
 40
0.0
  9
$PLINEWID
 40
0.0
  9
$SPLFRAME
 70
     0
  9
$SPLINETYPE
 70
     6
  9
$SPLINESEGS
 70
     8
  9
$HANDSEED
  5
18D
  9
$SURFTAB1
 70
     6
  9
$SURFTAB2
 70
     6
  9
$SURFTYPE
 70
     6
  9
$SURFU
 70
     6
  9
$SURFV
 70
     6
  9
$UCSBASE
  2

  9
$UCSNAME
  2

  9
$UCSORG
 10
0.0
 20
0.0
 30
0.0
  9
$UCSXDIR
 10
1.0
 20
0.0
 30
0.0
  9
$UCSYDIR
 10
0.0
 20
1.0
 30
0.0
  9
$UCSORTHOREF
  2

  9
$UCSORTHOVIEW
 70
     0
  9
$UCSORGTOP
 10
0.0
 20
0.0
 30
0.0
  9
$UCSORGBOTTOM
 10
0.0
 20
0.0
 30
0.0
  9
$UCSORGLEFT
 10
0.0
 20
0.0
 30
0.0
  9
$UCSORGRIGHT
 10
0.0
 20
0.0
 30
0.0
  9
$UCSORGFRONT
 10
0.0
 20
0.0
 30
0.0
  9
$UCSORGBACK
 10
0.0
 20
0.0
 30
0.0
  9
$PUCSBASE
  2

  9
$PUCSNAME
  2

  9
$PUCSORG
 10
0.0
 20
0.0
 30
0.0
  9
$PUCSXDIR
 10
1.0
 20
0.0
 30
0.0
  9
$PUCSYDIR
 10
0.0
 20
1.0
 30
0.0
  9
$PUCSORTHOREF
  2

  9
$PUCSORTHOVIEW
 70
     0
  9
$PUCSORGTOP
 10
0.0
 20
0.0
 30
0.0
  9
$PUCSORGBOTTOM
 10
0.0
 20
0.0
 30
0.0
  9
$PUCSORGLEFT
 10
0.0
 20
0.0
 30
0.0
  9
$PUCSORGRIGHT
 10
0.0
 20
0.0
 30
0.0
  9
$PUCSORGFRONT
 10
0.0
 20
0.0
 30
0.0
  9
$PUCSORGBACK
 10
0.0
 20
0.0
 30
0.0
  9
$USERI1
 70
     0
  9
$USERI2
 70
     0
  9
$USERI3
 70
     0
  9
$USERI4
 70
     0
  9
$USERI5
 70
     0
  9
$USERR1
 40
18.1
  9
$USERR2
 40
0.0
  9
$USERR3
 40
0.0
  9
$USERR4
 40
0.0
  9
$USERR5
 40
0.0
  9
$WORLDVIEW
 70
     1
  9
$SHADEDGE
 70
     3
  9
$SHADEDIF
 70
    70
  9
$TILEMODE
 70
     1
  9
$MAXACTVP
 70
    64
  9
$PINSBASE
 10
0.0
 20
0.0
 30
0.0
  9
$PLIMCHECK
 70
     0
  9
$PEXTMIN
 10
1.00000000000000E+20
 20
1.00000000000000E+20
 30
1.00000000000000E+20
  9
$PEXTMAX
 10
-1.00000000000000E+20
 20
-1.00000000000000E+20
 30
-1.00000000000000E+20
  9
$PLIMMIN
 10
0.0
 20
0.0
  9
$PLIMMAX
 10
12.0
 20
9.0
  9
$UNITMODE
 70
     0
  9
$VISRETAIN
 70
     1
  9
$PLINEGEN
 70
     0
  9
$PSLTSCALE
 70
     1
  9
$TREEDEPTH
 70
  3020
  9
$CMLSTYLE
  2
Standard
  9
$CMLJUST
 70
     0
  9
$CMLSCALE
 40
1.0
  9
$PROXYGRAPHICS
 70
     1
  9
$MEASUREMENT
 70
     1
  9
$CELWEIGHT
370
    -1
  9
$ENDCAPS
280
     0
  9
$JOINSTYLE
280
     0
  9
$LWDISPLAY
290
     0
  9
$INSUNITS
 70
     4
  9
$HYPERLINKBASE
  1

  9
$STYLESHEET
  1

  9
$XEDIT
290
     1
  9
$CEPSNTYPE
380
     0
  9
$PSTYLEMODE
290
     1
  9
$FINGERPRINTGUID
  2
{0FB299F0-FB4A-4965-BA3A-ECFD2B27537C}
  9
$VERSIONGUID
  2
{FAEB1C32-E019-11D5-929B-00C0DF256EC4}
  9
$EXTNAMES
290
     1
  9
$PSVPSCALE
 40
0.0
  9
$OLESTARTUP
290
     0
  0
ENDSEC
  0
SECTION
  2
CLASSES
  0
CLASS
  1
ACDBDICTIONARYWDFLT
  2
AcDbDictionaryWithDefault
  3
ObjectDBX Classes
 90
        0
280
     0
281
     0
  0
CLASS
  1
VISUALSTYLE
  2
AcDbVisualStyle
  3
ObjectDBX Classes
 90
     4095
280
     0
281
     0
  0
CLASS
  1
MATERIAL
  2
AcDbMaterial
  3
ObjectDBX Classes
 90
     1153
280
     0
281
     0
  0
CLASS
  1
DICTIONARYVAR
  2
AcDbDictionaryVar
  3
ObjectDBX Classes
 90
        0
280
     0
281
     0
  0
CLASS
  1
ACDBPLACEHOLDER
  2
AcDbPlaceHolder
  3
ObjectDBX Classes
 90
        0
280
     0
281
     0
  0
CLASS
  1
LAYOUT
  2
AcDbLayout
  3
ObjectDBX Classes
 90
        0
280
     0
281
     0
  0
ENDSEC
  0
SECTION
  2
TABLES
  0
TABLE
  2
VPORT
  5
8
330
0
100
AcDbSymbolTable
 70
     1
  0
VPORT
  5
29
330
8
100
AcDbSymbolTableRecord
100
AcDbViewportTableRecord
  2
*Active
 70
     0
 10
0.0
 20
0.0
 11
1.0
 21
1.0
 12
77.78062049295517
 22
208.7902004454344
 13
0.0
 23
0.0
 14
0.5
 24
0.5
 15
0.5
 25
0.5
 16
0.0
 26
0.0
 36
1.0
 17
0.0
 27
0.0
 37
0.0
 40
653.4000000000001
 41
1.60267857142857
 42
50.0
 43
0.0
 44
0.0
 50
0.0
 51
0.0
 71
     0
 72
   100
 73
     1
 74
     3
 75
     0
 76
     0
 77
     0
 78
     0
281
     0
 65
     1
110
0.0
120
0.0
130
0.0
111
1.0
121
0.0
131
0.0
112
0.0
122
1.0
132
0.0
 79
     0
146
0.0
  0
ENDTAB
  0
TABLE
  2
LTYPE
  5
5
330
0
100
AcDbSymbolTable
 70
     8
  0
LTYPE
  5
14
330
5
100
AcDbSymbolTableRecord
100
AcDbLinetypeTableRecord
  2
ByBlock
 70
     0
  3

 72
    65
 73
     0
 40
0.0
  0
LTYPE
  5
15
330
5
100
AcDbSymbolTableRecord
100
AcDbLinetypeTableRecord
  2
ByLayer
 70
     0
  3

 72
    65
 73
     0
 40
0.0
  0
LTYPE
  5
16
330
5
100
AcDbSymbolTableRecord
100
AcDbLinetypeTableRecord
  2
Continuous
 70
     0
  3
Solid line
 72
    65
 73
     0
 40
0.0
  0
LTYPE
  5
3F
330
5
100
AcDbSymbolTableRecord
100
AcDbLinetypeTableRecord
  2
DASHED
 70
     0
  3
Dashed
 72
    65
 73
     2
 40
15.0
 49
7.0
 74
     0
 49
-8.0
 74
     0
  0
LTYPE
  5
40
330
5
100
AcDbSymbolTableRecord
100
AcDbLinetypeTableRecord
  2
DOTTED
 70
     0
  3
Dotted
 72
    65
 73
     2
 40
1.0
 49
0.0
 74
     0
 49
-1.0
 74
     0
  0
LTYPE
  5
41
330
5
100
AcDbSymbolTableRecord
100
AcDbLinetypeTableRecord
  2
DOT_CENTER
 70
     0
  3
Dot_Center
 72
    65
 73
     4
 40
14.0
 49
12.0
 74
     0
 49
-1.0
 74
     0
 49
0.0
 74
     0
 49
-1.0
 74
     0
  0
LTYPE
  5
42
330
5
100
AcDbSymbolTableRecord
100
AcDbLinetypeTableRecord
  2
LONG_DASHED
 70
     0
  3
Long_Dashed
 72
    65
 73
     2
 40
15.0
 49
10.0
 74
     0
 49
-5.0
 74
     0
  0
LTYPE
  5
43
330
5
100
AcDbSymbolTableRecord
100
AcDbLinetypeTableRecord
  2
DASH_CENTER
 70
     0
  3
Dash_Center
 72
    65
 73
     4
 40
14.0
 49
11.0
 74
     0
 49
-1.0
 74
     0
 49
1.0
 74
     0
 49
-1.0
 74
     0
  0
LTYPE
  5
44
330
5
100
AcDbSymbolTableRecord
100
AcDbLinetypeTableRecord
  2
PHANTOM
 70
     0
  3
Phantom
 72
    65
 73
     6
 40
13.0
 49
10.0
 74
     0
 49
-1.0
 74
     0
 49
0.0
 74
     0
 49
-1.0
 74
     0
 49
0.0
 74
     0
 49
-1.0
 74
     0
  0
LTYPE
  5
45
330
5
100
AcDbSymbolTableRecord
100
AcDbLinetypeTableRecord
  2
CENTER_DASH_DASH
 70
     0
  3
Center_Dash_Dash
 72
    65
 73
     6
 40
14.0
 49
9.0
 74
     0
 49
-1.0
 74
     0
 49
1.0
 74
     0
 49
-1.0
 74
     0
 49
1.0
 74
     0
 49
-1.0
 74
     0
  0
ENDTAB
  0
TABLE
  2
LAYER
  5
2
330
0
100
AcDbSymbolTable
 70
     3
  0
LAYER
  5
10
330
2
100
AcDbSymbolTableRecord
100
AcDbLayerTableRecord
  2
0
 70
     0
 62
     7
  6
Continuous
370
    -3
390
F
  0
LAYER
  5
46
330
2
100
AcDbSymbolTableRecord
100
AcDbLayerTableRecord
  2
1
 70
     0
 62
     7
  6
Continuous
370
    -3
390
F
  0
LAYER
  5
47
330
2
100
AcDbSymbolTableRecord
100
AcDbLayerTableRecord
  2
_U_30EC_U_30A4_U_30E4_U_30FC_1
 70
     0
 62
     7
  6
Continuous
370
    -3
390
F
  0
ENDTAB
  0
TABLE
  2
STYLE
  5
3
330
0
100
AcDbSymbolTable
 70
     3
  0
STYLE
  5
11
330
3
100
AcDbSymbolTableRecord
100
AcDbTextStyleTableRecord
  2
Standard
 70
     0
 40
0.0
 41
1.0
 50
0.0
 71
     0
 42
0.2
  3
txt
  4

  0
STYLE
  5
B2
330
3
100
AcDbSymbolTableRecord
100
AcDbTextStyleTableRecord
  2
CONVERTER_11
 70
     0
 40
0.0
 41
0.89
 50
0.0
 71
     0
 42
0.2
  3
MS Mincho.ttf
  4

1001
ACAD
1000
MS Mincho
1071
    32785
  0
STYLE
  5
115
330
3
100
AcDbSymbolTableRecord
100
AcDbTextStyleTableRecord
  2
CONVERTER_12
 70
     0
 40
0.0
 41
0.9
 50
0.0
 71
     0
 42
0.2
  3
txt.shx
  4

  0
ENDTAB
  0
TABLE
  2
VIEW
  5
6
330
0
100
AcDbSymbolTable
 70
     0
  0
ENDTAB
  0
TABLE
  2
UCS
  5
7
330
0
100
AcDbSymbolTable
 70
     0
  0
ENDTAB
  0
TABLE
  2
APPID
  5
9
330
0
100
AcDbSymbolTable
 70
     1
  0
APPID
  5
12
330
9
100
AcDbSymbolTableRecord
100
AcDbRegAppTableRecord
  2
ACAD
 70
     0
  0
ENDTAB
  0
TABLE
  2
DIMSTYLE
  5
A
330
0
100
AcDbSymbolTable
 70
     6
100
AcDbDimStyleTable
  0
DIMSTYLE
105
27
330
A
100
AcDbSymbolTableRecord
100
AcDbDimStyleTableRecord
  2
Standard
 70
     0
178
     0
340
11
  0
DIMSTYLE
105
12C
102
{ACAD_REACTORS
330
12D
102
}
330
A
100
AcDbSymbolTableRecord
100
AcDbDimStyleTableRecord
  2
ME10_DIM_10
 70
     0
 41
7.0
 42
0.0
 44
4.0
 73
     0
 74
     0
 77
     1
 78
     8
140
6.0
147
4.0
172
     1
173
     1
174
     1
175
     1
176
     2
177
     2
271
     2
178
     7
271
     2
340
115
  0
DIMSTYLE
105
137
102
{ACAD_REACTORS
330
138
102
}
330
A
100
AcDbSymbolTableRecord
100
AcDbDimStyleTableRecord
  2
ME10_DIM_11
 70
     0
  3
{\Fgdt;n}<>(アダプター取外時{\Fgdt;n}51)
 41
7.0
 42
0.0
 44
4.0
 73
     0
 74
     0
 77
     1
 78
     8
140
6.0
147
4.0
172
     1
173
     1
174
     1
175
     1
176
     2
177
     2
271
     2
178
     7
271
     2
340
B2
  0
DIMSTYLE
105
142
102
{ACAD_REACTORS
330
143
102
}
330
A
100
AcDbSymbolTableRecord
100
AcDbDimStyleTableRecord
  2
ME10_DIM_12
 70
     0
  3
{\Fgdt;n}<>
 41
7.0
 42
0.0
 44
4.0
 73
     0
 74
     0
 77
     1
 78
     8
140
6.0
147
4.0
172
     1
173
     1
174
     1
175
     1
176
     2
177
     2
271
     2
178
     7
271
     2
340
115
  0
DIMSTYLE
105
14D
102
{ACAD_REACTORS
330
14E
102
}
330
A
100
AcDbSymbolTableRecord
100
AcDbDimStyleTableRecord
  2
ME10_DIM_13
 70
     0
  3
{\Fgdt;n}<>
 41
7.0
 42
0.0
 44
4.0
 73
     0
 74
     0
 77
     1
 78
     8
140
6.0
147
4.0
172
     1
173
     1
174
     1
175
     1
176
     2
177
     2
271
     2
178
     7
271
     2
340
115
  0
DIMSTYLE
105
158
102
{ACAD_REACTORS
330
159
102
}
330
A
100
AcDbSymbolTableRecord
100
AcDbDimStyleTableRecord
  2
ME10_DIM_14
 70
     0
 41
7.0
 42
0.0
 44
4.0
 73
     0
 74
     0
 77
     1
 78
     8
140
6.0
147
4.0
172
     1
173
     1
174
     1
175
     1
176
     2
177
     2
271
     2
178
     7
271
     2
340
115
  0
ENDTAB
  0
TABLE
  2
BLOCK_RECORD
  5
1
330
0
100
AcDbSymbolTable
 70
     9
  0
BLOCK_RECORD
  5
1F
330
1
100
AcDbSymbolTableRecord
100
AcDbBlockTableRecord
  2
*Model_Space
340
22
  0
BLOCK_RECORD
  5
1B
330
1
100
AcDbSymbolTableRecord
100
AcDbBlockTableRecord
  2
*Paper_Space
340
1E
  0
BLOCK_RECORD
  5
23
330
1
100
AcDbSymbolTableRecord
100
AcDbBlockTableRecord
  2
*Paper_Space0
340
26
  0
BLOCK_RECORD
  5
48
330
1
100
AcDbSymbolTableRecord
100
AcDbBlockTableRecord
  2
開示A4
340
0
102
{BLKREFS
331
4C
102
}
  0
BLOCK_RECORD
  5
4B
330
1
100
AcDbSymbolTableRecord
100
AcDbBlockTableRecord
  2
開示A4枠
340
0
102
{BLKREFS
331
4F
102
}
  0
BLOCK_RECORD
  5
123
330
1
100
AcDbSymbolTableRecord
100
AcDbBlockTableRecord
  2
*D3
340
0
  0
BLOCK_RECORD
  5
12E
330
1
100
AcDbSymbolTableRecord
100
AcDbBlockTableRecord
  2
*D4
340
0
  0
BLOCK_RECORD
  5
139
330
1
100
AcDbSymbolTableRecord
100
AcDbBlockTableRecord
  2
*D5
340
0
  0
BLOCK_RECORD
  5
144
330
1
100
AcDbSymbolTableRecord
100
AcDbBlockTableRecord
  2
*D6
340
0
  0
BLOCK_RECORD
  5
14F
330
1
100
AcDbSymbolTableRecord
100
AcDbBlockTableRecord
  2
*D7
340
0
  0
BLOCK_RECORD
  5
15A
330
1
100
AcDbSymbolTableRecord
100
AcDbBlockTableRecord
  2
*D8
340
0
102
{BLKREFS
331
161
102
}
  0
ENDTAB
  0
ENDSEC
  0
SECTION
  2
BLOCKS
  0
BLOCK
  5
20
330
1F
100
AcDbEntity
  8
0
100
AcDbBlockBegin
  2
*Model_Space
 70
     0
 10
0.0
 20
0.0
 30
0.0
  3
*Model_Space
  1

  0
ENDBLK
  5
21
330
1F
100
AcDbEntity
  8
0
100
AcDbBlockEnd
  0
BLOCK
  5
1C
330
1B
100
AcDbEntity
 67
     1
  8
0
100
AcDbBlockBegin
  2
*Paper_Space
 70
     0
 10
0.0
 20
0.0
 30
0.0
  3
*Paper_Space
  1

  0
ENDBLK
  5
1D
330
1B
100
AcDbEntity
 67
     1
  8
0
100
AcDbBlockEnd
  0
BLOCK
  5
24
330
23
100
AcDbEntity
  8
0
100
AcDbBlockBegin
  2
*Paper_Space0
 70
     0
 10
0.0
 20
0.0
 30
0.0
  3
*Paper_Space0
  1

  0
ENDBLK
  5
25
330
23
100
AcDbEntity
  8
0
100
AcDbBlockEnd
  0
BLOCK
  5
49
330
48
100
AcDbEntity
  8
0
100
AcDbBlockBegin
  2
開示A4
 70
     0
 10
-66.10968975352245
 20
-44.10489977728284
 30
0.0
  3
開示A4
  1

  0
POINT
  5
50
330
48
100
AcDbEntity
  8
1
 62
     4
100
AcDbPoint
 10
116.8903102464776
 20
-29.10489977728282
 30
0.0
  0
POINT
  5
51
330
48
100
AcDbEntity
  8
1
 62
     4
100
AcDbPoint
 10
27.64031024647755
 20
-27.10489977728284
 30
0.0
  0
POINT
  5
52
330
48
100
AcDbEntity
  8
1
 62
     4
100
AcDbPoint
 10
19.14031024647755
 20
-27.10489977728284
 30
0.0
  0
POINT
  5
53
330
48
100
AcDbEntity
  8
1
 62
     4
100
AcDbPoint
 10
40.39031024647755
 20
-25.10489977728282
 30
0.0
  0
POINT
  5
54
330
48
100
AcDbEntity
  8
1
 62
     4
100
AcDbPoint
 10
40.39031024647755
 20
-31.60489977728284
 30
0.0
  0
POINT
  5
55
330
48
100
AcDbEntity
  8
1
 62
     4
100
AcDbPoint
 10
46.14031024647755
 20
-31.60489977728284
 30
0.0
  0
POINT
  5
56
330
48
100
AcDbEntity
  8
1
 62
     4
100
AcDbPoint
 10
34.64031024647755
 20
-31.60489977728284
 30
0.0
  0
POINT
  5
57
330
48
100
AcDbEntity
  8
1
 62
     4
100
AcDbPoint
 10
57.39031024647755
 20
-25.10489977728282
 30
0.0
  0
POINT
  5
58
330
48
100
AcDbEntity
  8
1
 62
     4
100
AcDbPoint
 10
57.39031024647755
 20
-31.60489977728284
 30
0.0
  0
POINT
  5
59
330
48
100
AcDbEntity
  8
1
 62
     4
100
AcDbPoint
 10
63.14031024647755
 20
-31.60489977728284
 30
0.0
  0
POINT
  5
5A
330
48
100
AcDbEntity
  8
1
 62
     4
100
AcDbPoint
 10
51.64031024647755
 20
-31.60489977728284
 30
0.0
  0
POINT
  5
5B
330
48
100
AcDbEntity
  8
1
 62
     4
100
AcDbPoint
 10
74.39031024647755
 20
-25.10489977728282
 30
0.0
  0
POINT
  5
5C
330
48
100
AcDbEntity
  8
1
 62
     4
100
AcDbPoint
 10
74.39031024647755
 20
-31.60489977728284
 30
0.0
  0
POINT
  5
5D
330
48
100
AcDbEntity
  8
1
 62
     4
100
AcDbPoint
 10
80.14031024647755
 20
-31.60489977728284
 30
0.0
  0
POINT
  5
5E
330
48
100
AcDbEntity
  8
1
 62
     4
100
AcDbPoint
 10
68.64031024647755
 20
-31.60489977728284
 30
0.0
  0
POINT
  5
5F
330
48
100
AcDbEntity
  8
1
 62
     4
100
AcDbPoint
 10
85.64031024647755
 20
-31.60489977728284
 30
0.0
  0
POINT
  5
60
330
48
100
AcDbEntity
  8
1
 62
     4
100
AcDbPoint
 10
97.14031024647755
 20
-31.60489977728284
 30
0.0
  0
POINT
  5
61
330
48
100
AcDbEntity
  8
1
 62
     4
100
AcDbPoint
 10
91.39031024647755
 20
-31.60489977728284
 30
0.0
  0
POINT
  5
62
330
48
100
AcDbEntity
  8
1
 62
     4
100
AcDbPoint
 10
-9.10968975352245
 20
-29.85489977728284
 30
0.0
  0
POINT
  5
63
330
48
100
AcDbEntity
  8
1
 62
     4
100
AcDbPoint
 10
-9.10968975352245
 20
-21.35489977728282
 30
0.0
  0
POINT
  5
64
330
48
100
AcDbEntity
  8
1
 62
     4
100
AcDbPoint
 10
-18.60968975352245
 20
237.8951002227175
 30
0.0
  0
POINT
  5
65
330
48
100
AcDbEntity
  8
1
 62
     4
100
AcDbPoint
 10
91.39031024647755
 20
-25.10489977728282
 30
0.0
  0
POINT
  5
66
330
48
100
AcDbEntity
  8
1
 62
     4
100
AcDbPoint
 10
-9.10968975352245
 20
-27.85489977728284
 30
0.0
  0
POINT
  5
67
330
48
100
AcDbEntity
  8
1
 62
     4
100
AcDbPoint
 10
-9.10968975352245
 20
-19.35489977728282
 30
0.0
  0
POINT
  5
68
330
48
100
AcDbEntity
  8
1
 62
     4
100
AcDbPoint
 10
-9.10968975352245
 20
-23.35489977728282
 30
0.0
  0
POINT
  5
69
330
48
100
AcDbEntity
  8
1
 62
     4
100
AcDbPoint
 10
-9.10968975352245
 20
-31.85489977728284
 30
0.0
  0
POINT
  5
6A
330
48
100
AcDbEntity
  8
1
 62
     4
100
AcDbPoint
 10
-32.10968975352245
 20
-10.10489977728284
 30
0.0
  0
LINE
  5
6F
330
48
100
AcDbEntity
  8
1
  6
Continuous
 62
     7
100
AcDbLine
 10
38.89031024647755
 20
-34.10489977728284
 30
0.0
 11
133.8903102464776
 21
-34.10489977728284
 31
0.0
  0
LINE
  5
70
330
48
100
AcDbEntity
  8
1
  6
Continuous
 62
     2
100
AcDbLine
 10
38.89031024647755
 20
-34.10489977728284
 30
0.0
 11
38.89031024647755
 21
-39.10489977728284
 31
0.0
  0
LINE
  5
71
330
48
100
AcDbEntity
  8
1
  6
Continuous
 62
     7
100
AcDbLine
 10
133.8903102464776
 20
104.3951002227172
 30
0.0
 11
133.8903102464776
 21
242.8951002227175
 31
0.0
  0
LINE
  5
72
330
48
100
AcDbEntity
  8
1
  6
Continuous
 62
     2
100
AcDbLine
 10
133.8903102464776
 20
104.3951002227172
 30
0.0
 11
138.8903102464776
 21
104.3951002227172
 31
0.0
  0
LINE
  5
73
330
48
100
AcDbEntity
  8
1
  6
Continuous
 62
     7
100
AcDbLine
 10
-41.10968975352245
 20
104.3951002227172
 30
0.0
 11
-41.10968975352245
 21
242.8951002227175
 31
0.0
  0
LINE
  5
74
330
48
100
AcDbEntity
  8
1
  6
Continuous
 62
     2
100
AcDbLine
 10
-41.10968975352245
 20
104.3951002227172
 30
0.0
 11
-46.10968975352245
 21
104.3951002227172
 31
0.0
  0
LINE
  5
75
330
48
100
AcDbEntity
  8
1
  6
Continuous
 62
     7
100
AcDbLine
 10
38.89031024647755
 20
242.8951002227175
 30
0.0
 11
-41.10968975352245
 21
242.8951002227175
 31
0.0
  0
LINE
  5
76
330
48
100
AcDbEntity
  8
1
  6
Continuous
 62
     2
100
AcDbLine
 10
38.89031024647755
 20
242.8951002227175
 30
0.0
 11
38.89031024647755
 21
247.8951002227175
 31
0.0
  0
LINE
  5
77
330
48
100
AcDbEntity
  8
1
  6
Continuous
 62
     2
100
AcDbLine
 10
99.89031024647755
 20
-24.10489977728282
 30
0.0
 11
133.8903102464776
 21
-24.10489977728282
 31
0.0
  0
LINE
  5
78
330
48
100
AcDbEntity
  8
1
  6
Continuous
 62
     2
100
AcDbLine
 10
31.89031024647755
 20
-17.10489977728282
 30
0.0
 11
31.89031024647755
 21
-34.10489977728284
 31
0.0
  0
LINE
  5
79
330
48
100
AcDbEntity
  8
1
  6
Continuous
 62
     2
100
AcDbLine
 10
48.89031024647755
 20
-17.10489977728282
 30
0.0
 11
48.89031024647755
 21
-34.10489977728285
 31
0.0
  0
LINE
  5
7A
330
48
100
AcDbEntity
  8
1
  6
Continuous
 62
     2
100
AcDbLine
 10
82.89031024647755
 20
-17.10489977728282
 30
0.0
 11
82.89031024647755
 21
-34.10489977728284
 31
0.0
  0
LINE
  5
7B
330
48
100
AcDbEntity
  8
1
  6
Continuous
 62
     2
100
AcDbLine
 10
65.89031024647755
 20
-17.10489977728282
 30
0.0
 11
65.89031024647755
 21
-34.10489977728285
 31
0.0
  0
LINE
  5
7C
330
48
100
AcDbEntity
  8
1
  6
Continuous
 62
     2
100
AcDbLine
 10
99.89031024647755
 20
-17.10489977728282
 30
0.0
 11
99.89031024647755
 21
-34.10489977728284
 31
0.0
  0
LINE
  5
7D
330
48
100
AcDbEntity
  8
1
  6
Continuous
 62
     2
100
AcDbLine
 10
-11.10968975352245
 20
232.8951002227175
 30
0.0
 11
-41.10968975352245
 21
232.8951002227175
 31
0.0
  0
LINE
  5
7E
330
48
100
AcDbEntity
  8
1
  6
Continuous
 62
     7
100
AcDbLine
 10
-41.10968975352245
 20
-34.10489977728284
 30
0.0
 11
-41.10968975352245
 21
104.3951002227172
 31
0.0
  0
LINE
  5
7F
330
48
100
AcDbEntity
  8
1
  6
Continuous
 62
     2
100
AcDbLine
 10
-26.10968975352245
 20
242.8951002227175
 30
0.0
 11
-26.10968975352245
 21
232.8951002227175
 31
0.0
  0
LINE
  5
80
330
48
100
AcDbEntity
  8
1
  6
Continuous
 62
     2
100
AcDbLine
 10
-11.10968975352245
 20
242.8951002227175
 30
0.0
 11
-11.10968975352245
 21
232.8951002227175
 31
0.0
  0
LINE
  5
81
330
48
100
AcDbEntity
  8
1
  6
Continuous
 62
     2
100
AcDbLine
 10
-33.10968975352245
 20
-3.10489977728284
 30
0.0
 11
-33.10968975352245
 21
-17.10489977728284
 31
0.0
  0
LINE
  5
82
330
48
100
AcDbEntity
  8
1
  6
Continuous
 62
     7
100
AcDbLine
 10
133.8903102464776
 20
-17.10489977728282
 30
0.0
 11
-41.10968975352245
 21
-17.10489977728282
 31
0.0
  0
LINE
  5
83
330
48
100
AcDbEntity
  8
1
  6
Continuous
 62
     7
100
AcDbLine
 10
-41.10968975352245
 20
-3.10489977728284
 30
0.0
 11
133.8903102464776
 21
-3.10489977728284
 31
0.0
  0
LINE
  5
84
330
48
100
AcDbEntity
  8
1
  6
PHANTOM
 62
     4
100
AcDbLine
 10
-66.10968975352245
 20
-44.10489977728284
 30
0.0
 11
143.8903102464776
 21
-44.10489977728284
 31
0.0
  0
LINE
  5
85
330
48
100
AcDbEntity
  8
1
  6
PHANTOM
 62
     4
100
AcDbLine
 10
143.8903102464776
 20
-44.10489977728284
 30
0.0
 11
143.8903102464776
 21
252.8951002227172
 31
0.0
  0
LINE
  5
86
330
48
100
AcDbEntity
  8
1
  6
PHANTOM
 62
     4
100
AcDbLine
 10
143.8903102464776
 20
252.8951002227172
 30
0.0
 11
-66.10968975352245
 21
252.8951002227172
 31
0.0
  0
LINE
  5
87
330
48
100
AcDbEntity
  8
1
  6
PHANTOM
 62
     4
100
AcDbLine
 10
-66.10968975352245
 20
252.8951002227172
 30
0.0
 11
-66.10968975352245
 21
-44.10489977728284
 31
0.0
  0
LINE
  5
88
330
48
100
AcDbEntity
  8
1
  6
Continuous
 62
     7
100
AcDbLine
 10
-41.10968975352245
 20
-34.10489977728284
 30
0.0
 11
38.89031024647755
 21
-34.10489977728284
 31
0.0
  0
LINE
  5
89
330
48
100
AcDbEntity
  8
1
  6
Continuous
 62
     7
100
AcDbLine
 10
133.8903102464776
 20
-34.10489977728284
 30
0.0
 11
133.8903102464776
 21
104.3951002227172
 31
0.0
  0
LINE
  5
8A
330
48
100
AcDbEntity
  8
1
  6
Continuous
 62
     7
100
AcDbLine
 10
133.8903102464776
 20
242.8951002227175
 30
0.0
 11
38.89031024647755
 21
242.8951002227175
 31
0.0
  0
LINE
  5
8B
330
48
100
AcDbEntity
  8
1
  6
Continuous
 62
     2
100
AcDbLine
 10
-41.10968975352245
 20
-25.60489977728282
 30
0.0
 11
14.89031024647755
 21
-25.60489977728282
 31
0.0
  0
LINE
  5
8C
330
48
100
AcDbEntity
  8
1
  6
Continuous
 62
     2
100
AcDbLine
 10
-33.10968975352245
 20
-17.10489977728284
 30
0.0
 11
-33.10968975352245
 21
-34.10489977728284
 31
0.0
  0
LINE
  5
8D
330
48
100
AcDbEntity
  8
1
  6
Continuous
 62
     7
100
AcDbLine
 10
124.8903102464776
 20
-19.40489977728282
 30
0.0
 11
124.8903102464776
 21
-21.80489977728283
 31
0.0
  0
LINE
  5
8E
330
48
100
AcDbEntity
  8
1
  6
Continuous
 62
     7
100
AcDbLine
 10
124.8903102464776
 20
-19.40489977728282
 30
0.0
 11
129.8903102464776
 21
-18.60489977728282
 31
0.0
  0
LINE
  5
8F
330
48
100
AcDbEntity
  8
1
  6
Continuous
 62
     7
100
AcDbLine
 10
129.8903102464776
 20
-18.60489977728282
 30
0.0
 11
129.8903102464776
 21
-22.60489977728282
 31
0.0
  0
LINE
  5
90
330
48
100
AcDbEntity
  8
1
  6
Continuous
 62
     7
100
AcDbLine
 10
129.8903102464776
 20
-22.60489977728282
 30
0.0
 11
124.8903102464776
 21
-21.80489977728283
 31
0.0
  0
LINE
  5
91
330
48
100
AcDbEntity
  8
1
  6
DOT_CENTER
 62
     2
100
AcDbLine
 10
117.8903102464776
 20
-20.60489977728282
 30
0.0
 11
130.8903102464776
 21
-20.60489977728282
 31
0.0
  0
LINE
  5
92
330
48
100
AcDbEntity
  8
1
  6
DOT_CENTER
 62
     2
100
AcDbLine
 10
120.8903102464776
 20
-17.60489977728282
 30
0.0
 11
120.8903102464776
 21
-23.60489977728282
 31
0.0
  0
LINE
  5
93
330
48
100
AcDbEntity
  8
1
  6
Continuous
 62
     2
100
AcDbLine
 10
14.89031024647755
 20
-17.10489977728282
 30
0.0
 11
14.89031024647755
 21
-34.10489977728284
 31
0.0
  0
CIRCLE
  5
94
330
48
100
AcDbEntity
  8
1
  6
Continuous
 62
     7
100
AcDbCircle
 10
37.39031024647755
 20
-31.60489977728284
 30
0.0
 40
0.3000000000000256
  0
CIRCLE
  5
95
330
48
100
AcDbEntity
  8
1
  6
Continuous
 62
     7
100
AcDbCircle
 10
43.39031024647755
 20
-31.60489977728284
 30
0.0
 40
0.3000000000000256
  0
CIRCLE
  5
96
330
48
100
AcDbEntity
  8
1
  6
Continuous
 62
     7
100
AcDbCircle
 10
54.39031024647755
 20
-31.60489977728284
 30
0.0
 40
0.3000000000000256
  0
CIRCLE
  5
97
330
48
100
AcDbEntity
  8
1
  6
Continuous
 62
     7
100
AcDbCircle
 10
60.39031024647755
 20
-31.60489977728284
 30
0.0
 40
0.3000000000000256
  0
CIRCLE
  5
98
330
48
100
AcDbEntity
  8
1
  6
Continuous
 62
     7
100
AcDbCircle
 10
71.39031024647755
 20
-31.60489977728284
 30
0.0
 40
0.3000000000000114
  0
CIRCLE
  5
99
330
48
100
AcDbEntity
  8
1
  6
Continuous
 62
     7
100
AcDbCircle
 10
77.39031024647755
 20
-31.60489977728284
 30
0.0
 40
0.3000000000000114
  0
CIRCLE
  5
9A
330
48
100
AcDbEntity
  8
1
  6
Continuous
 62
     7
100
AcDbCircle
 10
94.39031024647755
 20
-31.60489977728284
 30
0.0
 40
0.3000000000000114
  0
CIRCLE
  5
9B
330
48
100
AcDbEntity
  8
1
  6
Continuous
 62
     7
100
AcDbCircle
 10
88.39031024647755
 20
-31.60489977728284
 30
0.0
 40
0.3000000000000114
  0
CIRCLE
  5
9C
330
48
100
AcDbEntity
  8
1
  6
Continuous
 62
     7
100
AcDbCircle
 10
120.8903102464776
 20
-20.60489977728282
 30
0.0
 40
1.200000000000102
  0
CIRCLE
  5
9D
330
48
100
AcDbEntity
  8
1
  6
Continuous
 62
     7
100
AcDbCircle
 10
120.8903102464776
 20
-20.60489977728282
 30
0.0
 40
2.0
  0
CIRCLE
  5
9E
330
48
100
AcDbEntity
  8
1
  6
DOT_CENTER
 62
     7
100
AcDbCircle
 10
23.39031024647755
 20
-28.10489977728284
 30
0.0
 40
0.1000000000000298
  0
CIRCLE
  5
9F
330
48
100
AcDbEntity
  8
1
  6
DOT_CENTER
 62
     7
100
AcDbCircle
 10
23.39031024647755
 20
-26.10489977728284
 30
0.0
 40
0.1000000000000298
  0
SPLINE
  5
A0
102
{ACAD_REACTORS
330
BF
102
}
330
48
100
AcDbEntity
  8
_U_30EC_U_30A4_U_30E4_U_30FC_1
  6
Continuous
 62
     2
100
AcDbSpline
210
0.0
220
0.0
230
1.0
 70
     8
 71
     3
 72
    24
 73
    20
 74
    18
 42
0.000000001
 43
0.0000000001
 44
0.00000001
 40
0.0
 40
0.0
 40
0.0
 40
0.0
 40
0.2211075008753757
 40
0.4273218586245363
 40
0.5080174679239275
 40
0.5914835907870575
 40
0.8143265690192826
 40
1.054651302686583
 40
1.295452694023181
 40
1.518109231328841
 40
1.540864321905457
 40
1.595126460622676
 40
1.659890947896044
 40
1.714153085187389
 40
1.736908174961675
 40
1.764951100735392
 40
1.801562291220939
 40
1.953914424543618
 40
2.126104167379693
 40
2.126104167379693
 40
2.126104167379693
 40
2.126104167379693
 10
119.8278472021665
 20
-28.51500682615267
 30
0.0
 10
119.8015681546588
 20
-28.57392349493909
 30
0.0
 10
119.7507801359202
 20
-28.68778838049028
 30
0.0
 10
119.7034887303888
 20
-28.9604801949517
 30
0.0
 10
119.5946585267394
 20
-28.86044495152828
 30
0.0
 10
119.4417902744413
 20
-28.83371384360955
 30
0.0
 10
119.6589257645975
 20
-28.61971842710651
 30
0.0
 10
119.6741586139156
 20
-28.40157859945797
 30
0.0
 10
119.7809991956776
 20
-28.22038398661858
 30
0.0
 10
119.7208483411853
 20
-27.93576751416885
 30
0.0
 10
119.8237419860178
 20
-27.96375888505832
 30
0.0
 10
119.8683035932926
 20
-27.97246726125986
 30
0.0
 10
119.9283944860173
 20
-27.98350323544928
 30
0.0
 10
119.9659722052214
 20
-27.99722454672724
 30
0.0
 10
120.0155569393382
 20
-27.99733901568063
 30
0.0
 10
119.9833261384101
 20
-28.03183385329658
 30
0.0
 10
119.9074904686657
 20
-28.02085873190325
 30
0.0
 10
119.9332549624468
 20
-28.20631008145831
 30
0.0
 10
119.8958999228626
 20
-28.29787664178694
 30
0.0
 10
119.8760807426385
 20
-28.34645842330579
 30
0.0
 11
119.8278472021665
 21
-28.51500682615267
 31
0.0
 11
119.7519573793328
 21
-28.72268269409724
 31
0.0
 11
119.6620504703209
 21
-28.90826585372092
 31
0.0
 11
119.5914596387886
 21
-28.86916705164733
 31
0.0
 11
119.5148627657427
 21
-28.83600814540564
 31
0.0
 11
119.6117129412231
 21
-28.63531176524746
 31
0.0
 11
119.6897743932246
 21
-28.4080181455126
 31
0.0
 11
119.7492819394496
 21
-28.17468541119593
 31
0.0
 11
119.7904703976002
 21
-27.9558716872923
 31
0.0
 11
119.812728628699
 21
-27.9606008850689
 31
0.0
 11
119.8658059490116
 21
-27.97187820284385
 31
0.0
 11
119.929156299062
 21
-27.98533822728492
 31
0.0
 11
119.9822336193746
 21
-27.99661554505987
 31
0.0
 11
120.0044918504734
 21
-28.00134474283647
 31
0.0
 11
119.9867199622236
 21
-28.02303726887274
 31
0.0
 11
119.9509225462847
 21
-28.03071349282917
 31
0.0
 11
119.9185055766255
 21
-28.1795768955697
 31
0.0
 11
119.8760807426385
 21
-28.34645842330579
 31
0.0
  0
SPLINE
  5
A1
102
{ACAD_REACTORS
330
BF
102
}
330
48
100
AcDbEntity
  8
_U_30EC_U_30A4_U_30E4_U_30FC_1
  6
Continuous
 62
     2
100
AcDbSpline
210
0.0
220
0.0
230
1.0
 70
     8
 71
     3
 72
    70
 73
    66
 74
    64
 42
0.000000001
 43
0.0000000001
 44
0.00000001
 40
0.0
 40
0.0
 40
0.0
 40
0.0
 40
0.0241731073021472
 40
0.0846058988987155
 40
0.1631685280353284
 40
0.2417311571789613
 40
0.3021639488292751
 40
0.3263370654895825
 40
0.3533118254249183
 40
0.4228783438922413
 40
0.5179999095313704
 40
0.6216398239466386
 40
0.7167613891500061
 40
0.7863279069650254
 40
0.8133026791762156
 40
0.8372943998771855
 40
0.8945054261372761
 40
0.9627895541962814
 40
1.020000580349077
 40
1.043992300975175
 40
1.071934345522916
 40
1.113121768772916
 40
1.145225199332237
 40
1.225483775412775
 40
1.329819923771484
 40
1.434156071994375
 40
1.514414647795791
 40
1.546518078208403
 40
1.578974764260176
 40
1.662678849314114
 40
1.777131373668392
 40
1.901833377474797
 40
2.016285900500601
 40
2.099989982527968
 40
2.132446666570298
 40
2.158782354486021
 40
2.216720867907813
 40
2.274659381334238
 40
2.30099506925617
 40
2.333451754066142
 40
2.417155836543823
 40
2.531608358985305
 40
2.656310362283771
 40
2.770762886388904
 40
2.854466971340041
 40
2.886923657363876
 40
2.913597976833301
 40
2.982389642875105
 40
3.076451716946976
 40
3.178937260458585
 40
3.272999334739988
 40
3.341791001059206
 40
3.36846532066352
 40
3.396976080738756
 40
3.472140811845949
 40
3.578408190308653
 40
3.700226892456103
 40
3.822045594634264
 40
3.928312973256342
 40
4.003477705314768
 40
4.031988456866819
 40
4.058324144797619
 40
4.116262658236784
 40
4.174201171400585
 40
4.200536849608521
 40
4.200536849608521
 40
4.200536849608521
 40
4.200536849608521
 10
119.8760807426385
 20
-28.34645842330579
 30
0.0
 10
119.8841362009455
 20
-28.34645617916597
 30
0.0
 10
119.9123303128017
 20
-28.34644831695485
 30
0.0
 10
119.9668637268449
 20
-28.34659222899913
 30
0.0
 10
120.0385994273379
 20
-28.34580857228386
 30
0.0
 10
120.1139342601838
 20
-28.34862407264474
 30
0.0
 10
120.1616154831215
 20
-28.34191574327326
 30
0.0
 10
120.2098173710392
 20
-28.35292414035853
 30
0.0
 10
120.1965674264649
 20
-28.29943574731251
 30
0.0
 10
120.2054196429314
 20
-28.24440394185192
 30
0.0
 10
120.2011800501062
 20
-28.15070069002175
 30
0.0
 10
120.2036585946056
 20
-28.05530495509753
 30
0.0
 10
120.1994041170836
 20
-27.96133155744896
 30
0.0
 10
120.2082921130622
 20
-27.90694915290271
 30
0.0
 10
120.1950079874721
 20
-27.85255980036824
 30
0.0
 10
120.2417221741885
 20
-27.86647761392926
 30
0.0
 10
120.2846357010513
 20
-27.86386100354241
 30
0.0
 10
120.350854592146
 20
-27.86841555277528
 30
0.0
 10
120.3916444736574
 20
-27.87711815594122
 30
0.0
 10
120.4428248155594
 20
-27.86958177838089
 30
0.0
 10
120.4156822951976
 20
-27.91140007504998
 30
0.0
 10
120.3706198520483
 20
-27.90204985655689
 30
0.0
 10
120.3845167509827
 20
-27.96648770356447
 30
0.0
 10
120.376151689643
 20
-28.03111758100885
 30
0.0
 10
120.3806734643174
 20
-28.12960836534398
 30
0.0
 10
120.3757843775943
 20
-28.22894044885713
 30
0.0
 10
120.3853361456858
 20
-28.29196862175315
 30
0.0
 10
120.3702863919976
 20
-28.35525966228496
 30
0.0
 10
120.4352261921984
 20
-28.33974904784015
 30
0.0
 10
120.5019348864273
 20
-28.34990590030471
 30
0.0
 10
120.6144537935603
 20
-28.34501177628918
 30
0.0
 10
120.729333791373
 20
-28.34798772995501
 30
0.0
 10
120.8422974464523
 20
-28.34268313543293
 30
0.0
 10
120.9079370062454
 20
-28.35382671256195
 30
0.0
 10
120.9719379155829
 20
-28.33745445408427
 30
0.0
 10
120.9606245353965
 20
-28.3872828782301
 30
0.0
 10
120.9678442336286
 20
-28.43073262516161
 30
0.0
 10
120.9606245076045
 20
-28.4741823214084
 30
0.0
 10
120.971937964077
 20
-28.52401082531408
 30
0.0
 10
120.9079366063747
 20
-28.5076381163692
 30
0.0
 10
120.8423023705235
 20
-28.51878706066697
 30
0.0
 10
120.7293076782107
 20
-28.5134512052143
 30
0.0
 10
120.6145559013418
 20
-28.51655632064463
 30
0.0
 10
120.5016286151637
 20
-28.51125083045695
 30
0.0
 10
120.435832336836
 20
-28.5223267770869
 30
0.0
 10
120.3719200440134
 20
-28.50602379880666
 30
0.0
 10
120.3839117629902
 20
-28.56066453332541
 30
0.0
 10
120.3765207077781
 20
-28.61635682680442
 30
0.0
 10
120.3795787306759
 20
-28.70840288587713
 30
0.0
 10
120.3796525250459
 20
-28.80310867855184
 30
0.0
 10
120.3763416043135
 20
-28.89537194826018
 30
0.0
 10
120.3842608454679
 20
-28.95054208992142
 30
0.0
 10
120.3718179076393
 20
-29.00431808628149
 30
0.0
 10
120.4292219016407
 20
-28.990362088655
 30
0.0
 10
120.4897810605159
 20
-28.99978519844058
 30
0.0
 10
120.5951783319856
 20
-28.99547091799579
 30
0.0
 10
120.7107396535398
 20
-28.99654473116252
 30
0.0
 10
120.8262791342572
 20
-28.99764011827289
 30
0.0
 10
120.9317283595616
 20
-28.9932745195765
 30
0.0
 10
120.9921782936579
 20
-29.00280551697612
 30
0.0
 10
121.0495940203886
 20
-28.98872688121904
 30
0.0
 10
121.0380876341484
 20
-29.037828244626
 30
0.0
 10
121.0440669246524
 20
-29.07925319709634
 30
0.0
 10
121.0423413515577
 20
-29.12838299761589
 30
0.0
 10
121.0424602587747
 20
-29.15635549280676
 30
0.0
 10
121.0424974156608
 20
-29.16509689532334
 30
0.0
 11
119.8760807426385
 21
-28.34645842330579
 31
0.0
 11
119.9002538593057
 21
-28.34645842330579
 31
0.0
 11
119.9606866509739
 21
-28.34645842330579
 31
0.0
 11
120.0392492801424
 21
-28.34645842330579
 31
0.0
 11
120.1178119093109
 21
-28.34645842330579
 31
0.0
 11
120.1782447009791
 21
-28.34645842330579
 31
0.0
 11
120.2024178176463
 21
-28.34645842330579
 31
0.0
 11
120.2024178176463
 21
-28.31948365108221
 31
0.0
 11
120.2024178176463
 21
-28.24991713324245
 31
0.0
 11
120.2024178176463
 21
-28.15479556803299
 31
0.0
 11
120.2024178176463
 21
-28.05115565370028
 31
0.0
 11
120.2024178176463
 21
-27.95603408849081
 31
0.0
 11
120.2024178176463
 21
-27.88646757065105
 31
0.0
 11
120.2024178176463
 21
-27.85949279842748
 31
0.0
 11
120.2263510069668
 21
-27.86116764620484
 31
0.0
 11
120.2834224584234
 21
-27.86516151398162
 31
0.0
 11
120.3515399972586
 21
-27.86992838842488
 31
0.0
 11
120.4086114487152
 21
-27.87392225620167
 31
0.0
 11
120.4325446380357
 21
-27.87559710397903
 31
0.0
 11
120.4178075196005
 21
-27.89933684355644
 31
0.0
 11
120.3789742714752
 21
-27.91306210396972
 31
0.0
 11
120.3789742714752
 21
-27.94516553503165
 31
0.0
 11
120.3789742714752
 21
-28.02542411268648
 31
0.0
 11
120.3789742714752
 21
-28.12976026363776
 31
0.0
 11
120.3789742714752
 21
-28.23409641458903
 31
0.0
 11
120.3789742714752
 21
-28.31435499224386
 31
0.0
 11
120.3789742714752
 21
-28.34645842330579
 31
0.0
 11
120.41143095756
 21
-28.34645842330579
 31
0.0
 11
120.4951350427261
 21
-28.34645842330579
 31
0.0
 11
120.609587567341
 21
-28.34645842330579
 31
0.0
 11
120.7342895717722
 21
-28.34645842330579
 31
0.0
 11
120.8487420963871
 21
-28.34645842330579
 31
0.0
 11
120.9324461815532
 21
-28.34645842330579
 31
0.0
 11
120.964902867638
 21
-28.34645842330579
 31
0.0
 11
120.964902867638
 21
-28.37279411123323
 31
0.0
 11
120.964902867638
 21
-28.4307326246736
 31
0.0
 11
120.964902867638
 21
-28.48867113811396
 31
0.0
 11
120.964902867638
 21
-28.5150068260414
 31
0.0
 11
120.9324461815532
 21
-28.5150068260414
 31
0.0
 11
120.8487420963871
 21
-28.5150068260414
 31
0.0
 11
120.7342895717722
 21
-28.5150068260414
 31
0.0
 11
120.609587567341
 21
-28.5150068260414
 31
0.0
 11
120.4951350427261
 21
-28.5150068260414
 31
0.0
 11
120.41143095756
 21
-28.5150068260414
 31
0.0
 11
120.3789742714752
 21
-28.5150068260414
 31
0.0
 11
120.3789742714752
 21
-28.54168114576262
 31
0.0
 11
120.3789742714752
 21
-28.61047281241208
 31
0.0
 11
120.3789742714752
 21
-28.7045348872185
 31
0.0
 11
120.3789742714752
 21
-28.80702043141056
 31
0.0
 11
120.3789742714752
 21
-28.90108250621697
 31
0.0
 11
120.3789742714752
 21
-28.96987417286644
 31
0.0
 11
120.3789742714752
 21
-28.99654849258766
 31
0.0
 11
120.4074850315769
 21
-28.99654849258766
 31
0.0
 11
120.4826497627542
 21
-28.99654849258766
 31
0.0
 11
120.5889171413152
 21
-28.99654849258766
 31
0.0
 11
120.710735843568
 21
-28.99654849258766
 31
0.0
 11
120.8325545458208
 21
-28.99654849258766
 31
0.0
 11
120.9388219243818
 21
-28.99654849258766
 31
0.0
 11
121.0139866555591
 21
-28.99654849258766
 31
0.0
 11
121.0424974156608
 21
-28.99654849258766
 31
0.0
 11
121.0424974156608
 21
-29.02288418051511
 31
0.0
 11
121.0424974156608
 21
-29.0808226939555
 31
0.0
 11
121.0424974156608
 21
-29.13876120739589
 31
0.0
 11
121.0424974156608
 21
-29.16509689532334
 31
0.0
  0
SPLINE
  5
A2
102
{ACAD_REACTORS
330
BF
102
}
330
48
100
AcDbEntity
  8
_U_30EC_U_30A4_U_30E4_U_30FC_1
  6
Continuous
 62
     2
100
AcDbSpline
210
0.0
220
0.0
230
1.0
 70
     8
 71
     3
 72
    62
 73
    58
 74
    56
 42
0.000000001
 43
0.0000000001
 44
0.00000001
 40
0.0
 40
0.0
 40
0.0
 40
0.0
 40
0.0598250028308485
 40
0.2024846486897189
 40
0.372755838922032
 40
0.5154154847935359
 40
0.5752404975784629
 40
0.9332326775486566
 40
1.290451762839421
 40
1.60207725314581
 40
1.699931634112057
 40
1.799359756425028
 40
2.270120149657051
 40
2.804661928461488
 40
2.882342287383203
 40
3.076543185719053
 40
3.329004354835511
 40
3.581465524568336
 40
3.775666424543615
 40
3.853346784558237
 40
3.899120679595011
 40
3.98412934179198
 40
4.029903236817315
 40
4.105797496059473
 40
4.295533144152433
 40
4.542189486611676
 40
4.788845828875619
 40
4.978581476410007
 40
5.05447573524425
 40
5.621734664339275
 40
6.130867242037296
 40
6.225249780948525
 40
6.318913039727235
 40
6.663579954558824
 40
7.047498900224661
 40
7.435230791575578
 40
7.498943906667976
 40
7.650875181209941
 40
7.832212509001452
 40
7.984143783696809
 40
8.047856898902936
 40
8.09155463273244
 40
8.172707566964103
 40
8.216405300767832
 40
8.289021782160702
 40
8.462184160757076
 40
8.668861838005213
 40
8.842024215263777
 40
8.914640695474986
 40
8.98988158086119
 40
9.155411528827095
 40
9.320941477743872
 40
9.396182352487122
 40
9.454709011143654
 40
9.583467660170646
 40
9.71222630901284
 40
9.77075295798935
 40
9.77075295798935
 40
9.77075295798935
 40
9.77075295798935
 10
121.0424974156608
 20
-29.16509689532334
 30
0.0
 10
121.0225450636398
 20
-29.16509102159614
 30
0.0
 10
120.955014018124
 20
-29.16507113922124
 30
0.0
 10
120.8313714626564
 20
-29.1654061520796
 30
0.0
 10
120.6766282614832
 20
-29.16382303977772
 30
0.0
 10
120.5600451947255
 20
-29.1680389886779
 30
0.0
 10
120.3454045099016
 20
-29.15274772396658
 30
0.0
 10
120.7422050872005
 20
-29.51291256442095
 30
0.0
 10
120.7848758534043
 20
-29.72979474331117
 30
0.0
 10
121.2092264611387
 20
-29.91164915216836
 30
0.0
 10
121.034292396085
 20
-30.01504781160215
 30
0.0
 10
120.9097626389858
 20
-30.22658454515552
 30
0.0
 10
120.656937970072
 20
-29.75683896726727
 30
0.0
 10
120.3700705358401
 20
-29.10978460743765
 30
0.0
 10
120.3809438391436
 20
-29.4170730557359
 30
0.0
 10
120.3785995242735
 20
-29.58201360756507
 30
0.0
 10
120.3764198591187
 20
-29.81610307016591
 30
0.0
 10
120.3883876861122
 20
-30.05991905306502
 30
0.0
 10
120.3591087205406
 20
-30.20634180867301
 30
0.0
 10
120.4017625090246
 20
-30.35376487553746
 30
0.0
 10
120.3142916470415
 20
-30.33804180422064
 30
0.0
 10
120.267163007152
 20
-30.3379567418483
 30
0.0
 10
120.1802075672489
 20
-30.35380552245375
 30
0.0
 10
120.2216576486499
 20
-30.20962206305522
 30
0.0
 10
120.1932977469061
 20
-30.06634925029828
 30
0.0
 10
120.2049076240076
 20
-29.8281503036302
 30
0.0
 10
120.2027278113048
 20
-29.59972742487938
 30
0.0
 10
120.200621359277
 20
-29.4378424835229
 30
0.0
 10
120.2111137903099
 20
-29.1233626839453
 30
0.0
 10
119.9032065717669
 20
-29.81260506855848
 30
0.0
 10
119.5958360732232
 20
-30.29013227485235
 30
0.0
 10
119.475446953105
 20
-30.06748865090856
 30
0.0
 10
119.2977710375498
 20
-29.95478942772719
 30
0.0
 10
119.775642882767
 20
-29.77941834262823
 30
0.0
 10
119.8257061521983
 20
-29.54398048476254
 30
0.0
 10
120.2486902086492
 20
-29.15166988383675
 30
0.0
 10
120.0179856738316
 20
-29.1683467069922
 30
0.0
 10
119.8952788324116
 20
-29.16220458779514
 30
0.0
 10
119.7228585560437
 20
-29.1717715502871
 30
0.0
 10
119.6116327159224
 20
-29.15041159238618
 30
0.0
 10
119.4928882092224
 20
-29.18353712370864
 30
0.0
 10
119.5086272171462
 20
-29.10286077121401
 30
0.0
 10
119.5081653398538
 20
-29.05844563437429
 30
0.0
 10
119.4930984354706
 20
-28.9752289594975
 30
0.0
 10
119.6275483400219
 20
-29.014273257444
 30
0.0
 10
119.7522858010522
 20
-28.98750248399863
 30
0.0
 10
119.9531857702056
 20
-29.00426028684231
 30
0.0
 10
120.0824643414129
 20
-28.98285751815278
 30
0.0
 10
120.2231522393071
 20
-29.01621198874863
 30
0.0
 10
120.1884029917391
 20
-28.87838101943215
 30
0.0
 10
120.2125288131489
 20
-28.75526720378802
 30
0.0
 10
120.1870188647168
 20
-28.63465922057948
 30
0.0
 10
120.2236353611461
 20
-28.49950112586791
 30
0.0
 10
120.1114519492545
 20
-28.52395431946393
 30
0.0
 10
120.0183458921912
 20
-28.51182227886262
 30
0.0
 10
119.9094650044596
 20
-28.51532347658292
 30
0.0
 10
119.847280010574
 20
-28.51508221776681
 30
0.0
 10
119.8278472022022
 20
-28.5150068260414
 30
0.0
 11
121.0424974156608
 21
-29.16509689532334
 31
0.0
 11
120.9826724028757
 21
-29.16509689532334
 31
0.0
 11
120.8400127570035
 21
-29.16509689532334
 31
0.0
 11
120.6697415667689
 21
-29.16509689532334
 31
0.0
 11
120.5270819208967
 21
-29.16509689532334
 31
0.0
 11
120.4672569081116
 21
-29.16509689532334
 31
0.0
 11
120.6583063219618
 21
-29.46784849761394
 31
0.0
 11
120.8844375250406
 21
-29.744380871516
 31
0.0
 11
121.1147628638147
 21
-29.95428724234827
 31
0.0
 11
121.042469879548
 21
-30.02023574059568
 31
0.0
 11
120.9782466867418
 21
-30.09613918675724
 31
0.0
 11
120.6635920680333
 21
-29.74598519378921
 31
0.0
 11
120.3789742714752
 21
-29.29351682584684
 31
0.0
 11
120.3789742714752
 21
-29.37119718590972
 31
0.0
 11
120.3789742714752
 21
-29.56539808606692
 31
0.0
 11
120.3789742714752
 21
-29.81785925627128
 31
0.0
 11
120.3789742714752
 21
-30.07032042647564
 31
0.0
 11
120.3789742714752
 21
-30.26452132663284
 31
0.0
 11
120.3789742714752
 21
-30.34220168669572
 31
0.0
 11
120.3332003760381
 21
-30.34220168669572
 31
0.0
 11
120.2481917130834
 21
-30.34220168669572
 31
0.0
 11
120.2024178176463
 21
-30.34220168669572
 31
0.0
 11
120.2024178176463
 21
-30.26630742745544
 31
0.0
 11
120.2024178176463
 21
-30.07657177935473
 31
0.0
 11
120.2024178176463
 21
-29.8299154368238
 31
0.0
 11
120.2024178176463
 21
-29.58325909429288
 31
0.0
 11
120.2024178176463
 21
-29.39352344619217
 31
0.0
 11
120.2024178176463
 21
-29.31762918695189
 31
0.0
 11
119.8890728864042
 21
-29.79049031530591
 31
0.0
 11
119.5255431126924
 21
-30.14694800618902
 31
0.0
 11
119.4677029926403
 21
-30.07236527183262
 31
0.0
 11
119.3997954770117
 21
-30.00785654789041
 31
0.0
 11
119.6653824363095
 21
-29.78817757932395
 31
0.0
 11
119.9136867436837
 21
-29.49536581756587
 31
0.0
 11
120.1168085270035
 21
-29.16509689532334
 31
0.0
 11
120.0530954117496
 21
-29.16509689532334
 31
0.0
 11
119.9011641369134
 21
-29.16509689532334
 31
0.0
 11
119.7198268088831
 21
-29.16509689532334
 31
0.0
 11
119.5678955340469
 21
-29.16509689532334
 31
0.0
 11
119.504182418793
 21
-29.16509689532334
 31
0.0
 11
119.504182418793
 21
-29.12139916128076
 31
0.0
 11
119.504182418793
 21
-29.04024622663025
 31
0.0
 11
119.504182418793
 21
-28.99654849258766
 31
0.0
 11
119.5767989002737
 21
-28.99654849258766
 31
0.0
 11
119.7499612791894
 21
-28.99654849258767
 31
0.0
 11
119.95663895725
 21
-28.99654849258766
 31
0.0
 11
120.1298013361656
 21
-28.99654849258766
 31
0.0
 11
120.2024178176463
 21
-28.99654849258766
 31
0.0
 11
120.2024178176463
 21
-28.92130760718981
 31
0.0
 11
120.2024178176463
 21
-28.75577765931453
 31
0.0
 11
120.2024178176463
 21
-28.59024771143925
 31
0.0
 11
120.2024178176463
 21
-28.5150068260414
 31
0.0
 11
120.1438911589832
 21
-28.5150068260414
 31
0.0
 11
120.0151325099242
 21
-28.5150068260414
 31
0.0
 11
119.8863738608653
 21
-28.5150068260414
 31
0.0
 11
119.8278472022022
 21
-28.5150068260414
 31
0.0
  0
SPLINE
  5
A3
102
{ACAD_REACTORS
330
C0
102
}
330
48
100
AcDbEntity
  8
_U_30EC_U_30A4_U_30E4_U_30FC_1
  6
Continuous
 62
     2
100
AcDbSpline
210
0.0
220
0.0
230
1.0
 70
    11
 71
     3
 72
   124
 73
   120
 74
   118
 42
0.000000001
 43
0.0000000001
 44
0.00000001
 40
0.0
 40
0.0
 40
0.0
 40
0.0
 40
0.0278187229624795
 40
0.101159016238427
 40
0.2048470170589955
 40
0.3237088716558961
 40
0.4425707262522
 40
0.5462587270699263
 40
0.6195990203312082
 40
0.647417752257866
 40
0.6750060736115207
 40
0.7357003855242794
 40
0.7963946998054439
 40
0.8239830245571802
 40
0.8540933811102895
 40
0.9373396629409008
 40
1.063094687343239
 40
1.220731268638105
 40
1.399622220914751
 40
1.589140358637736
 40
1.778658496423845
 40
1.957549448940484
 40
2.115186030873134
 40
2.240941056914409
 40
2.324187341760479
 40
2.354297700109357
 40
2.381886024671862
 40
2.44258033871045
 40
2.503274652750474
 40
2.530862977314581
 40
2.560983949278506
 40
2.640393784452908
 40
2.752662861759075
 40
2.881361560118063
 40
3.010060258455138
 40
3.122329335705314
 40
3.201739170817871
 40
3.23186014275326
 40
3.264298024030311
 40
3.35234370177819
 40
3.482095226868712
 40
3.639650650172968
 40
3.811108022565429
 40
3.982565394927936
 40
4.140120818152519
 40
4.269872343141228
 40
4.357918020802292
 40
4.390355902043919
 40
4.423256253992517
 40
4.508104530072981
 40
4.624121560636749
 40
4.750528176031506
 40
4.866545206601981
 40
4.95139348269191
 40
4.984293834645311
 40
5.011450833242223
 40
5.071196230152009
 40
5.130941627057081
 40
5.158098625648745
 40
5.190998977601379
 40
5.275847253689233
 40
5.391864284256696
 40
5.518270899648241
 40
5.634287930209251
 40
5.719136206287897
 40
5.752036558235813
 40
5.782130946282838
 40
5.862783906229009
 40
5.97955013177488
 40
6.117984316640283
 40
6.263641154587835
 40
6.402075339414034
 40
6.518841564907828
 40
6.599494524815413
 40
6.629588912848651
 40
6.654403028226227
 40
6.713575149487994
 40
6.78419993932934
 40
6.843372060493413
 40
6.868186175802659
 40
6.896246243201748
 40
6.939586233758144
 40
6.967846564564775
 40
7.04358425108971
 40
7.153234334451573
 40
7.283231855734313
 40
7.420011856035353
 40
7.550009376579704
 40
7.659659458835103
 40
7.735397144417094
 40
7.76365747485127
 40
7.796409728010927
 40
7.880876065096201
 40
7.996370852465587
 40
8.122208446418453
 40
8.237703224799075
 40
8.322169562010798
 40
8.354921815205783
 40
8.382078813307563
 40
8.441824209206866
 40
8.501569605240013
 40
8.52872660348559
 40
8.561478856695638
 40
8.645945193877688
 40
8.761439980865228
 40
8.887277580764371
 40
9.002772362000863
 40
9.087238696661055
 40
9.119990949235538
 40
9.152428830613234
 40
9.240474508638455
 40
9.37022603414941
 40
9.527781457984288
 40
9.699238830981281
 40
9.87069620397847
 40
10.02825162781389
 40
10.15800315332551
 40
10.24604883135106
 40
10.27848670378509
 40
10.27848670378509
 40
10.27848670378509
 40
10.27848670378509
 10
129.2724930029159
 20
-30.09079460342527
 30
0.0
 10
129.2817657202299
 20
-30.0907947921701
 30
0.0
 10
129.3154847001636
 20
-30.0907954685157
 30
0.0
 10
129.3837809277242
 20
-30.09078170484979
 30
0.0
 10
129.4823244176356
 20
-30.09086753508741
 30
0.0
 10
129.5965168929587
 20
-30.09048222116033
 30
0.0
 10
129.7088996881847
 20
-30.09189141830739
 30
0.0
 10
129.8117479064894
 20
-30.08770860306041
 30
0.0
 10
129.8709942339625
 20
-30.09666888476302
 30
0.0
 10
129.9274368401809
 20
-30.08325543202224
 30
0.0
 10
129.9149358051731
 20
-30.13402779114923
 30
0.0
 10
129.9232652100479
 20
-30.17900656789217
 30
0.0
 10
129.9151273305895
 20
-30.22433224737796
 30
0.0
 10
129.9273631679233
 20
-30.27558045319818
 30
0.0
 10
129.8650875955109
 20
-30.26042022363007
 30
0.0
 10
129.7963615491644
 20
-30.2713022701754
 30
0.0
 10
129.6685859214367
 20
-30.26578672980312
 30
0.0
 10
129.5166086976419
 20
-30.26789126474586
 30
0.0
 10
129.3405798437298
 20
-30.26718975139811
 30
0.0
 10
129.1547534399063
 20
-30.26744740196993
 30
0.0
 10
128.9689269901951
 20
-30.26718972583682
 30
0.0
 10
128.7928982606945
 20
-30.26789135880553
 30
0.0
 10
128.640920661897
 20
-30.26578645498296
 30
0.0
 10
128.5131460129331
 20
-30.27130296960643
 30
0.0
 10
128.4444180301356
 20
-30.26041900602342
 30
0.0
 10
128.3821451507659
 20
-30.27558191044075
 30
0.0
 10
128.3943718754794
 20
-30.22432466923113
 30
0.0
 10
128.3863106927373
 20
-30.17907504455859
 30
0.0
 10
128.3943778274668
 20
-30.1338361977296
 30
0.0
 10
128.3821340951859
 20
-30.08255800818328
 30
0.0
 10
128.4428119585474
 20
-30.09740400365149
 30
0.0
 10
128.5065913210512
 20
-30.08733529557549
 30
0.0
 10
128.6180416818279
 20
-30.09195333516284
 30
0.0
 10
128.7400635908598
 20
-30.09076648822816
 30
0.0
 10
128.86226406026
 20
-30.08974113827649
 30
0.0
 10
128.9732896752167
 20
-30.09397502104881
 30
0.0
 10
129.0379619878734
 20
-30.08471393206547
 30
0.0
 10
129.0994265275277
 20
-30.09885554678602
 30
0.0
 10
129.0833168066113
 20
-30.03254449843767
 30
0.0
 10
129.0946082792134
 20
-29.96042187606308
 30
0.0
 10
129.0890503287336
 20
-29.82976216839998
 30
0.0
 10
129.0911137526466
 20
-29.67882654020044
 30
0.0
 10
129.090326959207
 20
-29.51154104620397
 30
0.0
 10
129.0910947680403
 20
-29.34428867395981
 30
0.0
 10
129.0891141250405
 20
-29.1932668845837
 30
0.0
 10
129.0944408621396
 20
-29.06283908175289
 30
0.0
 10
129.0836203853201
 20
-28.99024535122384
 30
0.0
 10
129.0993428894651
 20
-28.92339508291484
 30
0.0
 10
129.0335810597266
 20
-28.93909465237457
 30
0.0
 10
128.965947029554
 20
-28.92880734644289
 30
0.0
 10
128.8518987758586
 20
-28.93376190881162
 30
0.0
 10
128.7354345139678
 20
-28.93075849697807
 30
0.0
 10
128.6209656586254
 20
-28.93609674584896
 30
0.0
 10
128.5543427122587
 20
-28.92488709653459
 30
0.0
 10
128.4893872179962
 20
-28.94140845063271
 30
0.0
 10
128.5011092223484
 20
-28.89016257251225
 30
0.0
 10
128.4935932653897
 20
-28.84539643944193
 30
0.0
 10
128.5011092343611
 20
-28.80063032830322
 30
0.0
 10
128.4893871970123
 20
-28.74938441598545
 30
0.0
 10
128.5543428803976
 20
-28.76590595961468
 30
0.0
 10
128.6209635804597
 20
-28.7546940635434
 30
0.0
 10
128.7354455322839
 20
-28.76004541017619
 30
0.0
 10
128.8518556901738
 20
-28.75698788957166
 30
0.0
 10
128.9660762639417
 20
-28.76211478717576
 30
0.0
 10
129.0333252904002
 20
-28.75144244372685
 30
0.0
 10
129.0986428406214
 20
-28.76747895059207
 30
0.0
 10
129.0844493913327
 20
-28.7054029197823
 30
0.0
 10
129.0939161927771
 20
-28.63903216099521
 30
0.0
 10
129.0893371468861
 20
-28.52250004986318
 30
0.0
 10
129.0910799020724
 20
-28.39063292705908
 30
0.0
 10
129.0900653960168
 20
-28.24874017578011
 30
0.0
 10
129.0920293809148
 20
-28.11720927025704
 30
0.0
 10
129.0867771018627
 20
-27.99965400445281
 30
0.0
 10
129.097651122825
 20
-27.935421887267
 30
0.0
 10
129.0822639106629
 20
-27.87381175183237
 30
0.0
 10
129.1310694002576
 20
-27.88787570346173
 30
0.0
 10
129.1757098029501
 20
-27.8853523565297
 30
0.0
 10
129.2441746411518
 20
-27.88977180326574
 30
0.0
 10
129.2862208633878
 20
-27.89876952184247
 30
0.0
 10
129.3390647223551
 20
-27.89078262861773
 30
0.0
 10
129.3110137466789
 20
-27.9337606011661
 30
0.0
 10
129.265224471337
 20
-27.92230425684447
 30
0.0
 10
129.277264153804
 20
-27.98316457723147
 30
0.0
 10
129.2699188535418
 20
-28.04720678259511
 30
0.0
 10
129.2734298290937
 20
-28.15580608864373
 30
0.0
 10
129.272290922495
 20
-28.27995658583531
 30
0.0
 10
129.2722277245038
 20
-28.41300257898406
 30
0.0
 10
129.2735975431643
 20
-28.53692596478729
 30
0.0
 10
129.2694741266089
 20
-28.64621639878946
 30
0.0
 10
129.278086556834
 20
-28.70881397634114
 30
0.0
 10
129.2649859919178
 20
-28.76749844431919
 30
0.0
 10
129.3296986792973
 20
-28.7512786391738
 30
0.0
 10
129.3963508417932
 20
-28.76219717344974
 30
0.0
 10
129.5101882005878
 20
-28.75696237554527
 30
0.0
 10
129.6260361586872
 20
-28.76004430211371
 30
0.0
 10
129.7400026728056
 20
-28.75471717915772
 30
0.0
 10
129.8063443482875
 20
-28.7658576956174
 30
0.0
 10
129.8710290990256
 20
-28.74942998135107
 30
0.0
 10
129.8592923237498
 20
-28.80064052518233
 30
0.0
 10
129.8668270527816
 20
-28.84539643607282
 30
0.0
 10
129.8592923457034
 20
-28.89015238718257
 30
0.0
 10
129.8710290605512
 20
-28.94136286857243
 30
0.0
 10
129.8063446540028
 20
-28.92493549934063
 30
0.0
 10
129.73999888956
 20
-28.93607193281015
 30
0.0
 10
129.6260561951788
 20
-28.93076861835164
 30
0.0
 10
129.510109808783
 20
-28.93375213134738
 30
0.0
 10
129.3965859346898
 20
-28.92883085459891
 30
0.0
 10
129.329233378358
 20
-28.93904890214762
 30
0.0
 10
129.2637387587271
 20
-28.92343981589467
 30
0.0
 10
129.2794816083994
 20
-28.99026125900872
 30
0.0
 10
129.2686378462989
 20
-29.06282919912406
 30
0.0
 10
129.2739684094568
 20
-29.19327730113866
 30
0.0
 10
129.2720238616631
 20
-29.34425419543058
 30
0.0
 10
129.272623614799
 20
-29.51167733794126
 30
0.0
 10
129.2724609024381
 20
-29.67833801609912
 30
0.0
 10
129.2724997952911
 20
-29.83129834806648
 30
0.0
 10
129.2724918877875
 20
-29.95640798742578
 30
0.0
 10
129.272493084752
 20
-30.03982086736864
 30
0.0
 10
129.2724930180984
 20
-30.07998199446308
 30
0.0
 10
129.2724930029159
 20
-30.09079460342527
 30
0.0
 11
129.2724930029159
 21
-30.09079460342527
 31
0.0
 11
129.3003117348451
 21
-30.09079460342527
 31
0.0
 11
129.3736520281129
 21
-30.09079460342527
 31
0.0
 11
129.4773400289398
 21
-30.09079460342527
 31
0.0
 11
129.5962018835462
 21
-30.09079460342527
 31
0.0
 11
129.7150637381527
 21
-30.09079460342527
 31
0.0
 11
129.8187517389796
 21
-30.09079460342527
 31
0.0
 11
129.8920920322474
 21
-30.09079460342527
 31
0.0
 11
129.9199107641766
 21
-30.09079460342527
 31
0.0
 11
129.9199107641766
 21
-30.11838292807114
 31
0.0
 11
129.9199107641766
 21
-30.17907724229207
 31
0.0
 11
129.9199107641766
 21
-30.23977155651299
 31
0.0
 11
129.9199107641766
 21
-30.26735988115887
 31
0.0
 11
129.889800405827
 21
-30.26735988115887
 31
0.0
 11
129.8065541209781
 21
-30.26735988115886
 31
0.0
 11
129.6807990949297
 21
-30.26735988115887
 31
0.0
 11
129.5231625129817
 21
-30.26735988115887
 31
0.0
 11
129.344271560434
 21
-30.26735988115887
 31
0.0
 11
129.1547534225865
 21
-30.26735988115887
 31
0.0
 11
128.9652352847389
 21
-30.26735988115887
 31
0.0
 11
128.7863443321912
 21
-30.26735988115887
 31
0.0
 11
128.6287077502432
 21
-30.26735988115887
 31
0.0
 11
128.5029527241949
 21
-30.26735988115887
 31
0.0
 11
128.4197064393459
 21
-30.26735988115887
 31
0.0
 11
128.3895960809963
 21
-30.26735988115887
 31
0.0
 11
128.3895960809963
 21
-30.23977155651299
 31
0.0
 11
128.3895960809963
 21
-30.17907724229207
 31
0.0
 11
128.3895960809963
 21
-30.11838292807114
 31
0.0
 11
128.3895960809963
 21
-30.09079460342527
 31
0.0
 11
128.4197170529723
 21
-30.09079460342527
 31
0.0
 11
128.4991268881816
 21
-30.09079460342527
 31
0.0
 11
128.6113959655466
 21
-30.09079460342527
 31
0.0
 11
128.7400946639893
 21
-30.09079460342527
 31
0.0
 11
128.8687933624321
 21
-30.09079460342527
 31
0.0
 11
128.9810624397971
 21
-30.09079460342527
 31
0.0
 11
129.0604722750064
 21
-30.09079460342527
 31
0.0
 11
129.0905932469824
 21
-30.09079460342527
 31
0.0
 11
129.0905932469824
 21
-30.05835672204449
 31
0.0
 11
129.0905932469824
 21
-29.97031104401093
 31
0.0
 11
129.0905932469824
 21
-29.84055951848781
 31
0.0
 11
129.0905932469824
 21
-29.6830040946383
 31
0.0
 11
129.0905932469824
 21
-29.5115467216256
 31
0.0
 11
129.0905932469824
 21
-29.3400893486129
 31
0.0
 11
129.0905932469824
 21
-29.18253392476339
 31
0.0
 11
129.0905932469824
 21
-29.05278239924026
 31
0.0
 11
129.0905932469824
 21
-28.96473672120671
 31
0.0
 11
129.0905932469824
 21
-28.93229883982593
 31
0.0
 11
129.0576928950304
 21
-28.93229883982593
 31
0.0
 11
128.9728446189438
 21
-28.93229883982593
 31
0.0
 11
128.8568275883764
 21
-28.93229883982593
 31
0.0
 11
128.730420972982
 21
-28.93229883982593
 31
0.0
 11
128.6144039424146
 21
-28.93229883982593
 31
0.0
 11
128.529555666328
 21
-28.93229883982593
 31
0.0
 11
128.496655314376
 21
-28.93229883982593
 31
0.0
 11
128.496655314376
 21
-28.90514184113481
 31
0.0
 11
128.496655314376
 21
-28.84539644401433
 31
0.0
 11
128.496655314376
 21
-28.78565104689386
 31
0.0
 11
128.496655314376
 21
-28.75849404820274
 31
0.0
 11
128.5295556663279
 21
-28.75849404820274
 31
0.0
 11
128.6144039424146
 21
-28.75849404820274
 31
0.0
 11
128.730420972982
 21
-28.75849404820274
 31
0.0
 11
128.8568275883764
 21
-28.75849404820274
 31
0.0
 11
128.9728446189438
 21
-28.75849404820274
 31
0.0
 11
129.0576928950304
 21
-28.75849404820273
 31
0.0
 11
129.0905932469824
 21
-28.75849404820274
 31
0.0
 11
129.0905932469824
 21
-28.72839965996914
 31
0.0
 11
129.0905932469824
 21
-28.64774669950311
 31
0.0
 11
129.0905932469824
 21
-28.53098047315675
 31
0.0
 11
129.0905932469824
 21
-28.39254628728221
 31
0.0
 11
129.0905932469824
 21
-28.2468894482316
 31
0.0
 11
129.0905932469824
 21
-28.10845526235706
 31
0.0
 11
129.0905932469824
 21
-27.9916890360107
 31
0.0
 11
129.0905932469824
 21
-27.91103607554466
 31
0.0
 11
129.0905932469824
 21
-27.88094168731107
 31
0.0
 11
129.1153507753394
 21
-27.88261653508842
 31
0.0
 11
129.1743879583445
 21
-27.88661040286519
 31
0.0
 11
129.244851692899
 21
-27.89137727730843
 31
0.0
 11
129.3038888759041
 21
-27.89537114508519
 31
0.0
 11
129.3286464042611
 21
-27.89704599286254
 31
0.0
 11
129.3136169688806
 21
-27.92074163521774
 31
0.0
 11
129.2724930029159
 21
-27.9344227984088
 31
0.0
 11
129.2724930029159
 21
-27.96268312933452
 31
0.0
 11
129.2724930029159
 21
-28.03842081621544
 31
0.0
 11
129.2724930029159
 21
-28.14807090020723
 31
0.0
 11
129.2724930029159
 21
-28.27806842246553
 31
0.0
 11
129.2724930029159
 21
-28.41484842414601
 31
0.0
 11
129.2724930029159
 21
-28.54484594640431
 31
0.0
 11
129.2724930029159
 21
-28.6544960303961
 31
0.0
 11
129.2724930029159
 21
-28.73023371727702
 31
0.0
 11
129.2724930029159
 21
-28.75849404820274
 31
0.0
 11
129.3052452560891
 21
-28.75849404820274
 31
0.0
 11
129.3897115932198
 21
-28.75849404820274
 31
0.0
 11
129.5052063807252
 21
-28.75849404820274
 31
0.0
 11
129.6310439850221
 21
-28.75849404820274
 31
0.0
 11
129.7465387725274
 21
-28.75849404820274
 31
0.0
 11
129.8310051096582
 21
-28.75849404820273
 31
0.0
 11
129.8637573628314
 21
-28.75849404820274
 31
0.0
 11
129.8637573628314
 21
-28.78565104689386
 31
0.0
 11
129.8637573628314
 21
-28.84539644401433
 31
0.0
 11
129.8637573628314
 21
-28.90514184113481
 31
0.0
 11
129.8637573628314
 21
-28.93229883982593
 31
0.0
 11
129.8310051096582
 21
-28.93229883982593
 31
0.0
 11
129.7465387725274
 21
-28.93229883982593
 31
0.0
 11
129.6310439850221
 21
-28.93229883982593
 31
0.0
 11
129.5052063807252
 21
-28.93229883982593
 31
0.0
 11
129.3897115932198
 21
-28.93229883982593
 31
0.0
 11
129.3052452560891
 21
-28.93229883982593
 31
0.0
 11
129.2724930029159
 21
-28.93229883982593
 31
0.0
 11
129.2724930029159
 21
-28.96473672120671
 31
0.0
 11
129.2724930029159
 21
-29.05278239924026
 31
0.0
 11
129.2724930029159
 21
-29.18253392476339
 31
0.0
 11
129.2724930029159
 21
-29.3400893486129
 31
0.0
 11
129.2724930029159
 21
-29.5115467216256
 31
0.0
 11
129.2724930029159
 21
-29.6830040946383
 31
0.0
 11
129.2724930029159
 21
-29.84055951848781
 31
0.0
 11
129.2724930029159
 21
-29.97031104401094
 31
0.0
 11
129.2724930029159
 21
-30.05835672204449
 31
0.0
 11
129.2724930029159
 21
-30.09079460342527
 31
0.0
  0
SPLINE
  5
A4
102
{ACAD_REACTORS
330
C1
102
}
330
48
100
AcDbEntity
  8
_U_30EC_U_30A4_U_30E4_U_30FC_1
  6
Continuous
 62
     2
100
AcDbSpline
210
0.0
220
0.0
230
1.0
 70
    11
 71
     3
 72
   131
 73
   127
 74
   125
 42
0.000000001
 43
0.0000000001
 44
0.00000001
 40
0.0
 40
0.0
 40
0.0
 40
0.0
 40
0.0195577029826051
 40
0.0426490537460826
 40
0.2863607575856013
 40
0.5344948436188857
 40
0.7842238845572614
 40
0.8737315789466545
 40
0.9803832810312294
 40
1.092842274516975
 40
1.19976114665671
 40
1.289788768186436
 40
1.351573580786133
 40
1.370727117561375
 40
1.416400936017771
 40
1.470914848355911
 40
1.516588666791706
 40
1.535742203552781
 40
1.634216592293134
 40
1.760283341174966
 40
1.897966686682095
 40
2.031216387368939
 40
2.049689751137929
 40
2.101115601646867
 40
2.179502577739988
 40
2.278859318314101
 40
2.393194462258758
 40
2.516516648383873
 40
2.642834515406001
 40
2.766156701983508
 40
2.880491846754615
 40
2.97984858835866
 40
3.058235565443833
 40
3.109661416668988
 40
3.128134780704165
 40
3.146783742386482
 40
3.191254343315314
 40
3.244332157315959
 40
3.28880275822582
 40
3.307451719895048
 40
3.327717853844657
 40
3.383747753580021
 40
3.468388665924418
 40
3.574487837698722
 40
3.694892515728827
 40
3.822449946851964
 40
3.95000737792035
 40
4.07041205580045
 40
4.176511227368003
 40
4.261152139501455
 40
4.317182039076634
 40
4.33744817296456
 40
4.620011002696194
 40
4.885096638397402
 40
4.945373043518217
 40
5.014107710488545
 40
5.070481727651946
 40
5.319246955636457
 40
5.584812164505948
 40
5.859000912056801
 40
6.133746937541967
 40
6.401732212968771
 40
6.420736683995362
 40
6.472845717450984
 40
6.55070274389394
 40
6.646951193874178
 40
6.754234497930473
 40
6.865196086587294
 40
6.972479390357766
 40
7.068727839771914
 40
7.146584865450923
 40
7.198693898189153
 40
7.217698368905322
 40
7.234950401630798
 40
7.27608986426984
 40
7.325191803515939
 40
7.366331266090328
 40
7.38358329876968
 40
7.402779163492071
 40
7.453386443254503
 40
7.524934666445518
 40
7.606953361405872
 40
7.688972056429024
 40
7.76052027978426
 40
7.811127559734531
 40
7.83032342454618
 40
7.84784405529981
 40
7.894799345666855
 40
7.962779392744541
 40
8.043374293560593
 40
8.128174145149497
 40
8.208769044817299
 40
8.276749090377002
 40
8.323704379669561
 40
8.341225010056295
 40
8.358497614800486
 40
8.401679126686663
 40
8.45781509218572
 40
8.513951057728153
 40
8.55713256970811
 40
8.574405174505152
 40
8.602340668616531
 40
8.643455660540154
 40
8.663225271966821
 40
8.715345156564469
 40
8.789031889628808
 40
8.87350204552053
 40
8.957972194324155
 40
9.031658925568047
 40
9.083778811234735
 40
9.103548423003202
 40
9.119550083123768
 40
9.16081752238007
 40
9.217244429110407
 40
9.27872449164492
 40
9.335151398295677
 40
9.376418837358
 40
9.39242049730076
 40
9.401196302735006
 40
9.417494229384452
 40
9.426270027749753
 40
9.440875075477738
 40
9.475702496998963
 40
9.517270709866127
 40
9.55209813199432
 40
9.566703169884503
 40
9.566703169884503
 40
9.566703169884503
 40
9.566703169884503
 10
128.5073356613254
 20
-28.43474106217256
 30
0.0
 10
128.5037447558146
 20
-28.44036287026125
 30
0.0
 10
128.49591415884
 20
-28.45262223309171
 30
0.0
 10
128.4033071439323
 20
-28.48888061687316
 30
0.0
 10
128.3790724698023
 20
-28.70341533515569
 30
0.0
 10
128.2761812310714
 20
-28.88292693218575
 30
0.0
 10
128.0123594829082
 20
-29.06874403930138
 30
0.0
 10
128.1748574033955
 20
-29.14530641162204
 30
0.0
 10
128.2510328225614
 20
-29.20633284532842
 30
0.0
 10
128.3395273537535
 20
-29.26974173183523
 30
0.0
 10
128.4293032697886
 20
-29.32964343508726
 30
0.0
 10
128.4786920100822
 20
-29.38387822879075
 30
0.0
 10
128.5648810622158
 20
-29.41203737186452
 30
0.0
 10
128.5314363139005
 20
-29.4477666807547
 30
0.0
 10
128.5117773631086
 20
-29.4793958973638
 30
0.0
 10
128.4822990682658
 20
-29.52014104932214
 30
0.0
 10
128.4592091910807
 20
-29.54985314238641
 30
0.0
 10
128.4283308433133
 20
-29.60278555059789
 30
0.0
 10
128.3632295830516
 20
-29.47749642789383
 30
0.0
 10
128.2699102587191
 20
-29.42276077494348
 30
0.0
 10
128.1853738749915
 20
-29.36573553788946
 30
0.0
 10
128.0625600590516
 20
-29.2081469030076
 30
0.0
 10
128.0667553312077
 20
-29.28454170961448
 30
0.0
 10
128.0654581117452
 20
-29.33128697566988
 30
0.0
 10
128.0661228912852
 20
-29.40905191915684
 30
0.0
 10
128.0658652451731
 20
-29.50587909403862
 30
0.0
 10
128.0659533704696
 20
-29.61839698649475
 30
0.0
 10
128.0659179767056
 20
-29.73965891782585
 30
0.0
 10
128.0659614223054
 20
-29.86403079869323
 30
0.0
 10
128.065830240718
 20
-29.98522294096948
 30
0.0
 10
128.0662580026821
 20
-30.09798828808541
 30
0.0
 10
128.0649780667085
 20
-30.1940706395954
 30
0.0
 10
128.0682862315818
 20
-30.27376151259585
 30
0.0
 10
128.0618300204861
 20
-30.316748019395
 30
0.0
 10
128.0709311170331
 20
-30.35534545356241
 30
0.0
 10
128.035101280471
 20
-30.34679090004214
 30
0.0
 10
128.0018326280028
 20
-30.35147457742838
 30
0.0
 10
127.9507665040816
 20
-30.351386789685
 30
0.0
 10
127.9172826437588
 20
-30.34695547444464
 30
0.0
 10
127.881068787353
 20
-30.35529183885775
 30
0.0
 10
127.8912885033441
 20
-30.31344700549
 30
0.0
 10
127.8839590352549
 20
-30.26711416908112
 30
0.0
 10
127.8876735600878
 20
-30.18115146622269
 30
0.0
 10
127.8862583019672
 20
-30.07884835023435
 30
0.0
 10
127.8867208019414
 20
-29.96036753796772
 30
0.0
 10
127.8865876151006
 20
-29.83532294574929
 30
0.0
 10
127.8866118374821
 20
-29.71014149621234
 30
0.0
 10
127.8866457390327
 20
-29.59203332349227
 30
0.0
 10
127.8865162757908
 20
-29.48861229018767
 30
0.0
 10
127.8868610013857
 20
-29.40557941574619
 30
0.0
 10
127.8861800743466
 20
-29.3534660920704
 30
0.0
 10
127.8897689065399
 20
-29.22577069906925
 30
0.0
 10
127.6729273851212
 20
-29.52441260908657
 30
0.0
 10
127.4924457386728
 20
-29.75225996216768
 30
0.0
 10
127.4393424760387
 20
-29.61116534438469
 30
0.0
 10
127.4103531597925
 20
-29.56164210167341
 30
0.0
 10
127.3099750527596
 20
-29.45848197938177
 30
0.0
 10
127.6308230188037
 20
-29.37794942704504
 30
0.0
 10
127.7592999470205
 20
-29.1942369469185
 30
0.0
 10
127.9809556790135
 20
-28.98557981956523
 30
0.0
 10
128.0673327358843
 20
-28.81150766499939
 30
0.0
 10
128.3452496693852
 20
-28.5352292638577
 30
0.0
 10
128.224935030406
 20
-28.5395541817717
 30
0.0
 10
128.1766299816125
 20
-28.53875121525731
 30
0.0
 10
128.100547991968
 20
-28.53915395581699
 30
0.0
 10
128.0070112474526
 20
-28.53899702116675
 30
0.0
 10
127.9020697253331
 20
-28.53907475152058
 30
0.0
 10
127.7936990203493
 20
-28.5389451334973
 30
0.0
 10
127.6884556700672
 20
-28.53935584237591
 30
0.0
 10
127.5959340284188
 20
-28.53807904056691
 30
0.0
 10
127.5171233265483
 20
-28.54149211193433
 30
0.0
 10
127.4742777030155
 20
-28.53466627691963
 30
0.0
 10
127.4352602051291
 20
-28.54424913527161
 30
0.0
 10
127.4429467736639
 20
-28.51069198162741
 30
0.0
 10
127.4388566869087
 20
-28.47966427406051
 30
0.0
 10
127.4388633833589
 20
-28.43253448457385
 30
0.0
 10
127.4429342189687
 20
-28.40149036081505
 30
0.0
 10
127.4352598039358
 20
-28.36788116092383
 30
0.0
 10
127.473792187027
 20
-28.37741567307412
 30
0.0
 10
127.5144330479255
 20
-28.37092542230214
 30
0.0
 10
127.5854574315239
 20
-28.37389827078031
 30
0.0
 10
127.6632420614409
 20
-28.37315216329126
 30
0.0
 10
127.741039471125
 20
-28.37242163683759
 30
0.0
 10
127.8120334554683
 20
-28.37535742214123
 30
0.0
 10
127.8527382256596
 20
-28.36894508955332
 30
0.0
 10
127.8912955954685
 20
-28.37839453552281
 30
0.0
 10
127.8830445219703
 20
-28.34225285569501
 30
0.0
 10
127.8885449134135
 20
-28.30360140115057
 30
0.0
 10
127.8858856670938
 20
-28.23576449166444
 30
0.0
 10
127.8868917936309
 20
-28.15898336189545
 30
0.0
 10
127.8863280483095
 20
-28.07640584145527
 30
0.0
 10
127.8873816991368
 20
-27.99972648498406
 30
0.0
 10
127.8845778327905
 20
-27.93157986951585
 30
0.0
 10
127.8903805186079
 20
-27.89357577918936
 30
0.0
 10
127.8818757015934
 20
-27.85731529650637
 30
0.0
 10
127.9158712697901
 20
-27.86734253956432
 30
0.0
 10
127.9497678147875
 20
-27.86416710914578
 30
0.0
 10
128.0029771525122
 20
-27.86981012087676
 30
0.0
 10
128.0563871039259
 20
-27.8705520329186
 30
0.0
 10
128.0899017114266
 20
-27.87670754245304
 30
0.0
 10
128.1291188647815
 20
-27.87143947954691
 30
0.0
 10
128.1023366163267
 20
-27.91236596934798
 30
0.0
 10
128.0611213466499
 20
-27.90118773190171
 30
0.0
 10
128.0685744005648
 20
-27.9462292153616
 30
0.0
 10
128.0645330416959
 20
-27.9907769970014
 30
0.0
 10
128.0664816514415
 20
-28.06266405106581
 30
0.0
 10
128.0655467314534
 20
-28.14321347139513
 30
0.0
 10
128.0668209654804
 20
-28.2231598232329
 30
0.0
 10
128.0635146258639
 20
-28.29648140645101
 30
0.0
 10
128.0705208644736
 20
-28.33801334725717
 30
0.0
 10
128.06045428449
 20
-28.37737559160172
 30
0.0
 10
128.0932917268697
 20
-28.37021914297303
 30
0.0
 10
128.1267679761255
 20
-28.37462734590338
 30
0.0
 10
128.1818155940794
 20
-28.37272034380388
 30
0.0
 10
128.239260506009
 20
-28.37304611320995
 30
0.0
 10
128.2926128713084
 20
-28.37383668995202
 30
0.0
 10
128.3301643361414
 20
-28.3717601861021
 30
0.0
 10
128.3526274988012
 20
-28.37467639561174
 30
0.0
 10
128.3654780538506
 20
-28.3691742508423
 30
0.0
 10
128.3761358150664
 20
-28.36688859530494
 30
0.0
 10
128.3889738114918
 20
-28.35995005140231
 30
0.0
 10
128.4049093497846
 20
-28.37636931414617
 30
0.0
 10
128.4313726385667
 20
-28.38780855408832
 30
0.0
 10
128.4629907718533
 20
-28.40845289893095
 30
0.0
 10
128.4890358356927
 20
-28.42373108099988
 30
0.0
 10
128.5031620188748
 20
-28.432230014051
 30
0.0
 10
128.5073356613254
 20
-28.43474106217256
 30
0.0
 11
128.5073356613254
 21
-28.43474106217256
 31
0.0
 11
128.4953092467019
 21
-28.45016406564096
 31
0.0
 11
128.4752064260341
 21
-28.46152571494366
 31
0.0
 11
128.3682088820589
 21
-28.68049357497125
 31
0.0
 11
128.23801423991
 21
-28.89172776216123
 31
0.0
 11
128.0899642830847
 21
-29.09283918700805
 31
0.0
 11
128.1638060718511
 21
-29.14342592792905
 31
0.0
 11
128.2508766776576
 21
-29.20501566074545
 31
0.0
 11
128.3421106215181
 21
-29.27076817133858
 31
0.0
 11
128.4284424244463
 21
-29.3338432455898
 31
0.0
 11
128.5008066074563
 21
-29.38740066938042
 31
0.0
 11
128.5501376915619
 21
-29.4246002285918
 31
0.0
 11
128.5390043166989
 21
-29.4401856685879
 31
0.0
 11
128.5124554997179
 21
-29.47735094857861
 31
0.0
 11
128.4807682020309
 21
-29.52170950856751
 31
0.0
 11
128.4542193850499
 21
-29.55887478855822
 31
0.0
 11
128.4430860101869
 21
-29.57446022855432
 31
0.0
 11
128.3710115827723
 21
-29.50735969037666
 31
0.0
 11
128.2755959450157
 21
-29.42496623553615
 31
0.0
 11
128.1696366616945
 21
-29.33704960361368
 31
0.0
 11
128.0659312975865
 21
-29.25337953419017
 31
0.0
 11
128.0659312975865
 21
-29.2718528982742
 31
0.0
 11
128.0659312975865
 21
-29.32327874964329
 31
0.0
 11
128.0659312975865
 21
-29.40166572697285
 31
0.0
 11
128.0659312975865
 21
-29.50102246893835
 31
0.0
 11
128.0659312975865
 21
-29.61535761421524
 31
0.0
 11
128.0659312975865
 21
-29.73867980147895
 31
0.0
 11
128.0659312975865
 21
-29.86499766940494
 31
0.0
 11
128.0659312975865
 21
-29.98831985666866
 31
0.0
 11
128.0659312975865
 21
-30.10265500194554
 31
0.0
 11
128.0659312975865
 21
-30.20201174391104
 31
0.0
 11
128.0659312975865
 21
-30.2803987212406
 31
0.0
 11
128.0659312975865
 21
-30.33182457260968
 31
0.0
 11
128.0659312975865
 21
-30.35029793669372
 31
0.0
 11
128.0472823358401
 21
-30.35029793669372
 31
0.0
 11
128.0028117347525
 21
-30.35029793669372
 31
0.0
 11
127.9497339205511
 21
-30.35029793669372
 31
0.0
 11
127.9052633194635
 21
-30.35029793669372
 31
0.0
 11
127.8866143577171
 21
-30.35029793669372
 31
0.0
 11
127.8866143577171
 21
-30.33003180268066
 31
0.0
 11
127.8866143577171
 21
-30.27400190276218
 31
0.0
 11
127.8866143577171
 21
-30.18936099011936
 31
0.0
 11
127.8866143577171
 21
-30.08326181793331
 31
0.0
 11
127.8866143577171
 21
-29.96285713938509
 31
0.0
 11
127.8866143577171
 21
-29.83529970765579
 31
0.0
 11
127.8866143577171
 21
-29.70774227592648
 31
0.0
 11
127.8866143577171
 21
-29.58733759737826
 31
0.0
 11
127.8866143577171
 21
-29.4812384251922
 31
0.0
 11
127.8866143577171
 21
-29.39659751254939
 31
0.0
 11
127.8866143577171
 21
-29.34056761263092
 31
0.0
 11
127.8866143577171
 21
-29.32030147861785
 31
0.0
 11
127.6786375314257
 21
-29.51157979454228
 31
0.0
 11
127.4666588823201
 21
-29.67075092297473
 31
0.0
 11
127.4398731479259
 21
-29.61675305776189
 31
0.0
 11
127.40418678798
 21
-29.55800837156258
 31
0.0
 11
127.37027999589
 21
-29.51297106190307
 31
0.0
 11
127.5733390207095
 21
-29.3692659052723
 31
0.0
 11
127.7721634423036
 21
-29.19321554198295
 31
0.0
 11
127.9580143908954
 21
-28.99162463203334
 31
0.0
 11
128.1221529967079
 21
-28.77129783542175
 31
0.0
 11
128.255840389964
 21
-28.53903981214648
 31
0.0
 11
128.2368359189257
 21
-28.53903981214648
 31
0.0
 11
128.1847268854338
 21
-28.53903981214648
 31
0.0
 11
128.1068698589223
 21
-28.53903981214648
 31
0.0
 11
128.0106214088254
 21
-28.53903981214648
 31
0.0
 11
127.9033381045773
 21
-28.53903981214648
 31
0.0
 11
127.792376515612
 21
-28.53903981214648
 31
0.0
 11
127.6850932113639
 21
-28.53903981214648
 31
0.0
 11
127.588844761267
 21
-28.53903981214648
 31
0.0
 11
127.5109877347555
 21
-28.53903981214648
 31
0.0
 11
127.4588787012636
 21
-28.53903981214648
 31
0.0
 11
127.4398742302253
 21
-28.53903981214648
 31
0.0
 11
127.4398742302253
 21
-28.52178777937302
 31
0.0
 11
127.4398742302253
 21
-28.48064831660552
 31
0.0
 11
127.4398742302253
 21
-28.43154637717335
 31
0.0
 11
127.4398742302253
 21
-28.39040691440586
 31
0.0
 11
127.4398742302253
 21
-28.37315488163239
 31
0.0
 11
127.4590700950785
 21
-28.37315488163239
 31
0.0
 11
127.5096773751459
 21
-28.37315488163239
 31
0.0
 11
127.5812255986895
 21
-28.3731548816324
 31
0.0
 11
127.6632442939712
 21
-28.37315488163239
 31
0.0
 11
127.7452629892529
 21
-28.37315488163239
 31
0.0
 11
127.8168112127965
 21
-28.37315488163239
 31
0.0
 11
127.8674184928639
 21
-28.37315488163239
 31
0.0
 11
127.8866143577171
 21
-28.37315488163239
 31
0.0
 11
127.8866143577171
 21
-28.35563425073066
 31
0.0
 11
127.8866143577171
 21
-28.30867895991402
 31
0.0
 11
127.8866143577171
 21
-28.24069891201531
 31
0.0
 11
127.8866143577171
 21
-28.16010400986735
 31
0.0
 11
127.8866143577171
 21
-28.07530415630298
 31
0.0
 11
127.8866143577171
 21
-27.99470925415502
 31
0.0
 11
127.8866143577171
 21
-27.9267292062563
 31
0.0
 11
127.8866143577171
 21
-27.87977391543967
 31
0.0
 11
127.8866143577171
 21
-27.86225328453794
 31
0.0
 11
127.9038586576887
 21
-27.86324171560765
 31
0.0
 11
127.9469694076176
 21
-27.86571279328193
 31
0.0
 11
128.0030133825253
 21
-27.86892519425848
 31
0.0
 11
128.0590573574329
 21
-27.87213759523505
 31
0.0
 11
128.1021681073619
 21
-27.87460867290932
 31
0.0
 11
128.1194124073335
 21
-27.87559710397903
 31
0.0
 11
128.1046877139627
 21
-27.89933684355644
 31
0.0
 11
128.0659312975865
 21
-27.91306210396972
 31
0.0
 11
128.0659312975865
 21
-27.93283171550991
 31
0.0
 11
128.0659312975865
 21
-27.98495160047952
 31
0.0
 11
128.0659312975865
 21
-28.05863833440205
 31
0.0
 11
128.0659312975865
 21
-28.14310849280105
 31
0.0
 11
128.0659312975865
 21
-28.22757865120006
 31
0.0
 11
128.0659312975865
 21
-28.3012653851226
 31
0.0
 11
128.0659312975865
 21
-28.3533852700922
 31
0.0
 11
128.0659312975865
 21
-28.37315488163239
 31
0.0
 11
128.0819329577711
 21
-28.37315488163239
 31
0.0
 11
128.1232003971945
 21
-28.37315488163239
 31
0.0
 11
128.1796273041612
 21
-28.3731548816324
 31
0.0
 11
128.2411073669757
 21
-28.37315488163239
 31
0.0
 11
128.2975342739423
 21
-28.37315488163239
 31
0.0
 11
128.3388017133657
 21
-28.37315488163239
 31
0.0
 11
128.3548033735503
 21
-28.37315488163239
 31
0.0
 11
128.36313088877
 21
-28.37038590272363
 31
0.0
 11
128.3785962741779
 21
-28.36524351332166
 31
0.0
 11
128.3869237893975
 21
-28.3624745344129
 31
0.0
 11
128.399446624078
 21
-28.36999025329991
 31
0.0
 11
128.4293087683161
 21
-28.3879123521843
 31
0.0
 11
128.4649506824068
 21
-28.40930324440116
 31
0.0
 11
128.4948128266449
 21
-28.42722534328556
 31
0.0
 11
128.5073356613254
 21
-28.43474106217256
 31
0.0
  0
SPLINE
  5
A5
102
{ACAD_REACTORS
330
C2
102
}
330
48
100
AcDbEntity
  8
_U_30EC_U_30A4_U_30E4_U_30FC_1
  6
Continuous
 62
     2
100
AcDbSpline
210
0.0
220
0.0
230
1.0
 70
    11
 71
     3
 72
    91
 73
    87
 74
    85
 42
0.000000001
 43
0.0000000001
 44
0.00000001
 40
0.0
 40
0.0
 40
0.0
 40
0.0
 40
0.0267532254356666
 40
0.085610338646412
 40
0.1444674521996603
 40
0.1712206856618514
 40
0.2039416005642536
 40
0.2955601971652342
 40
0.4362601844616634
 40
0.6162252844507392
 40
0.8256392189704698
 40
1.054685709844439
 40
1.293548478893517
 40
1.532411247938275
 40
1.761457738799554
 40
1.970871673298508
 40
2.150836773256676
 40
2.291536760495565
 40
2.383155356836686
 40
2.415876284101278
 40
2.442629517487924
 40
2.501486630949054
 40
2.560343744424203
 40
2.587096977826474
 40
2.617068194440887
 40
2.699247336756071
 40
2.822032643466341
 40
2.97382235325787
 40
3.143014704823327
 40
3.318007936879877
 40
3.487200288186711
 40
3.638989997548177
 40
3.761775303794676
 40
3.843954445753039
 40
3.873925662229735
 40
3.890812773500429
 40
3.907699884771621
 40
3.937960767857252
 40
3.980983618142242
 40
4.199085915228408
 40
4.439444339237178
 40
4.677588241260826
 40
5.050698317837683
 40
5.448212454763069
 40
5.855291218044608
 40
6.138575438885303
 40
6.417434507584105
 40
6.444551104393776
 40
6.504207617363051
 40
6.563864130314373
 40
6.590980727103918
 40
6.848609460381365
 40
7.109611990668295
 40
7.352910904445966
 40
7.55783022070536
 40
7.587518925913287
 40
7.652834077375681
 40
7.718149228845617
 40
7.747837934061921
 40
7.854880190300897
 40
7.976511257403419
 40
8.36948789659222
 40
8.757514959223542
 40
9.126072419331033
 40
9.460639380392095
 40
9.746695593035765
 40
9.777569943118541
 40
9.807050320931733
 40
9.830377336128862
 40
9.886003295435946
 40
9.952395569429854
 40
10.00802152870623
 40
10.03134854388214
 40
10.21356951009591
 40
10.42203479292864
 40
10.6615455673106
 40
10.91693789564301
 40
11.15832906556563
 40
11.18982674596618
 40
11.27286608520403
 40
11.3902665303335
 40
11.52484752840883
 40
11.65942852648445
 40
11.77682897161482
 40
11.85986831085679
 40
11.89136598230424
 40
11.89136598230424
 40
11.89136598230424
 40
11.89136598230424
 10
124.5930987472972
 20
-29.39790377026512
 30
0.0
 10
124.5931340230064
 20
-29.38902130416299
 30
0.0
 10
124.5932469175572
 20
-29.36059740680939
 30
0.0
 10
124.5916087033265
 20
-29.3108033855848
 30
0.0
 10
124.5972852757687
 20
-29.2683241325013
 30
0.0
 10
124.5860031196482
 20
-29.21759822871437
 30
0.0
 10
124.6535399443808
 20
-29.23477076988175
 30
0.0
 10
124.7291131675475
 20
-29.22199750562288
 30
0.0
 10
124.8731459520777
 20
-29.22860248270903
 30
0.0
 10
125.0472521650202
 20
-29.22601515521819
 30
0.0
 10
125.2542702075779
 20
-29.22689385772731
 30
0.0
 10
125.4797790637153
 20
-29.22661769808258
 30
0.0
 10
125.7154264758182
 20
-29.22671638069622
 30
0.0
 10
125.9510742996124
 20
-29.22661793315516
 30
0.0
 10
126.1765820045402
 20
-29.22689299537495
 30
0.0
 10
126.3836037097581
 20
-29.22601791457549
 30
0.0
 10
126.5576991380064
 20
-29.22859455049839
 30
0.0
 10
126.7017594536761
 20
-29.22201687279071
 30
0.0
 10
126.7772794380069
 20
-29.23473734322679
 30
0.0
 10
126.8448878501806
 20
-29.21763577536599
 30
0.0
 10
126.8333942605452
 20
-29.26815191925343
 30
0.0
 10
126.8408207046508
 20
-29.31236725501783
 30
0.0
 10
126.8331941392762
 20
-29.35622011224673
 30
0.0
 10
126.8449591924201
 20
-29.40611603248957
 30
0.0
 10
126.7833890956758
 20
-29.39096750015771
 30
0.0
 10
126.7159894203447
 20
-29.40179312377612
 30
0.0
 10
126.5916106520997
 20
-29.39637946102047
 30
0.0
 10
126.4457530701347
 20
-29.39840772337499
 30
0.0
 10
126.2796678904861
 20
-29.39774200149898
 30
0.0
 10
126.10915150865
 20
-29.39800334207043
 30
0.0
 10
125.9422893320165
 20
-29.39768424337191
 30
0.0
 10
125.7990449291881
 20
-29.39854675137521
 30
0.0
 10
125.667641633461
 20
-29.39626677245296
 30
0.0
 10
125.6142961599433
 20
-29.40082273354082
 30
0.0
 10
125.5388290921688
 20
-29.39490062735406
 30
0.0
 10
125.5672178244008
 20
-29.40395808384932
 30
0.0
 10
125.5936754874318
 20
-29.40764065459354
 30
0.0
 10
125.5536625372477
 20
-29.43835705760008
 30
0.0
 10
125.4616766156645
 20
-29.42822386553656
 30
0.0
 10
125.4342498671844
 20
-29.67457475480495
 30
0.0
 10
125.338189643201
 20
-29.82990418963911
 30
0.0
 10
125.0820380429249
 20
-30.15964559796713
 30
0.0
 10
125.6530640197538
 20
-30.02059955517834
 30
0.0
 10
125.9076758785292
 20
-30.02198197754922
 30
0.0
 10
126.5182749513393
 20
-30.10699408486197
 30
0.0
 10
126.2243801042859
 20
-29.80804560170084
 30
0.0
 10
125.9036406751293
 20
-29.66159120826508
 30
0.0
 10
126.0216645825209
 20
-29.60464436909996
 30
0.0
 10
126.0627818931037
 20
-29.58069877854934
 30
0.0
 10
126.1059914859187
 20
-29.55890218917056
 30
0.0
 10
126.2077676559224
 20
-29.49561256474372
 30
0.0
 10
126.3231970090024
 20
-29.75342826319503
 30
0.0
 10
126.5232694107053
 20
-29.88873936614603
 30
0.0
 10
126.6172179852003
 20
-30.06697182589403
 30
0.0
 10
126.8461932211169
 20
-30.22492156701237
 30
0.0
 10
126.7499134311484
 20
-30.27574005151983
 30
0.0
 10
126.7071062228555
 20
-30.30608685205229
 30
0.0
 10
126.6621345993555
 20
-30.33023847446825
 30
0.0
 10
126.602482338999
 20
-30.37937830980715
 30
0.0
 10
126.56928335261
 20
-30.24492502054678
 30
0.0
 10
126.4485115815573
 20
-30.08895712441699
 30
0.0
 10
126.0874078470754
 20
-30.2192004966873
 30
0.0
 10
125.7288164420316
 20
-30.20265283318801
 30
0.0
 10
125.3474022914856
 20
-30.21158748376419
 30
0.0
 10
125.0606557747667
 20
-30.27607306055879
 30
0.0
 10
124.749515806449
 20
-30.16259309535455
 30
0.0
 10
124.7171840283564
 20
-30.27367717800521
 30
0.0
 10
124.6799280718093
 20
-30.29293663878273
 30
0.0
 10
124.6768840097528
 20
-30.24615193640989
 30
0.0
 10
124.6582995325382
 20
-30.20683123809149
 30
0.0
 10
124.6415539081553
 20
-30.1472399425005
 30
0.0
 10
124.6286833380528
 20
-30.10288007857002
 30
0.0
 10
124.5945430271205
 20
-30.01383646608076
 30
0.0
 10
124.8385816922528
 20
-30.08308934784515
 30
0.0
 10
125.0344496951446
 20
-30.10459608670536
 30
0.0
 10
125.1298528846053
 20
-29.82263493249823
 30
0.0
 10
125.1848238234373
 20
-29.66126932307163
 30
0.0
 10
125.4062721821931
 20
-29.39098800138546
 30
0.0
 10
125.2752341845992
 20
-29.39941530874549
 30
0.0
 10
125.201312902063
 20
-29.39710969231315
 30
0.0
 10
125.088056234102
 20
-29.39818599406628
 30
0.0
 10
124.959735427226
 20
-29.39782338651774
 30
0.0
 10
124.8307354495191
 20
-29.39792253262198
 30
0.0
 10
124.7190943411067
 20
-29.39790045015712
 30
0.0
 10
124.6417766434803
 20
-29.39790398538616
 30
0.0
 10
124.6035978996786
 20
-29.39790381883202
 30
0.0
 10
124.5930987472972
 20
-29.39790377026512
 30
0.0
 11
124.5930987472972
 21
-29.39790377026512
 31
0.0
 11
124.5930987472972
 21
-29.37115053676487
 31
0.0
 11
124.5930987472972
 21
-29.3122934230643
 31
0.0
 11
124.5930987472972
 21
-29.25343630936375
 31
0.0
 11
124.5930987472972
 21
-29.22668307586349
 31
0.0
 11
124.6258196745765
 21
-29.22668307586349
 31
0.0
 11
124.7174382709585
 21
-29.22668307586349
 31
0.0
 11
124.8581382582594
 21
-29.22668307586349
 31
0.0
 11
125.0381033582956
 21
-29.22668307586349
 31
0.0
 11
125.247517292883
 21
-29.22668307586349
 31
0.0
 11
125.476563783838
 21
-29.22668307586349
 31
0.0
 11
125.7154265529769
 21
-29.22668307586349
 31
0.0
 11
125.9542893221157
 21
-29.22668307586349
 31
0.0
 11
126.1833358130707
 21
-29.22668307586349
 31
0.0
 11
126.3927497476581
 21
-29.22668307586349
 31
0.0
 11
126.5727148476943
 21
-29.22668307586349
 31
0.0
 11
126.7134148349952
 21
-29.22668307586349
 31
0.0
 11
126.8050334313772
 21
-29.22668307586349
 31
0.0
 11
126.8377543586565
 21
-29.22668307586349
 31
0.0
 11
126.8377543586565
 21
-29.25343630936375
 31
0.0
 11
126.8377543586565
 21
-29.31229342306431
 31
0.0
 11
126.8377543586565
 21
-29.37115053676487
 31
0.0
 11
126.8377543586565
 21
-29.39790377026512
 31
0.0
 11
126.8077831419534
 21
-29.39790377026512
 31
0.0
 11
126.7256039993802
 21
-29.39790377026512
 31
0.0
 11
126.6028186922415
 21
-29.39790377026512
 31
0.0
 11
126.4510289818418
 21
-29.39790377026512
 31
0.0
 11
126.2818366294853
 21
-29.39790377026512
 31
0.0
 11
126.1068433964767
 21
-29.39790377026512
 31
0.0
 11
125.9376510441202
 21
-29.39790377026512
 31
0.0
 11
125.7858613337204
 21
-29.39790377026512
 31
0.0
 11
125.6630760265818
 21
-29.39790377026512
 31
0.0
 11
125.5808968840086
 21
-29.39790377026512
 31
0.0
 11
125.5509256673055
 21
-29.39790377026512
 31
0.0
 11
125.5669461877301
 21
-29.40324394387491
 31
0.0
 11
125.5829667081547
 21
-29.40858411748469
 31
0.0
 11
125.5609258146196
 21
-29.42931863136842
 31
0.0
 11
125.5187964320139
 21
-29.43804106192174
 31
0.0
 11
125.4268338006153
 21
-29.63580730415627
 31
0.0
 11
125.3182180986539
 21
-29.85022465749775
 31
0.0
 11
125.2030603289583
 21
-30.05867418676664
 31
0.0
 11
125.5760469139796
 21
-30.04907536475256
 31
0.0
 11
125.9733802500926
 21
-30.0370874532329
 31
0.0
 11
126.3802444655921
 21
-30.02387265899752
 31
0.0
 11
126.1886221961754
 21
-29.81523216425804
 31
0.0
 11
125.9869854478474
 21
-29.62260557576452
 31
0.0
 11
126.0108050259525
 21
-29.6096465045872
 31
0.0
 11
126.0632080977837
 21
-29.58113654799708
 31
0.0
 11
126.1156111696149
 21
-29.55262659140697
 31
0.0
 11
126.13943074772
 21
-29.53966752022964
 31
0.0
 11
126.3290204023402
 21
-29.71410469358016
 31
0.0
 11
126.5103413405211
 21
-29.90184131354193
 31
0.0
 11
126.6680831695923
 21
-30.08707596735848
 31
0.0
 11
126.7869354968834
 21
-30.25400724227335
 31
0.0
 11
126.7618510682699
 21
-30.26988775442215
 31
0.0
 11
126.7066653253202
 21
-30.30482488114951
 31
0.0
 11
126.6514795823704
 21
-30.33976200787688
 31
0.0
 11
126.6263951537569
 21
-30.35564252002568
 31
0.0
 11
126.5678620616388
 21
-30.26602153046476
 31
0.0
 11
126.4953117543233
 21
-30.16839689507252
 31
0.0
 11
126.1028515388871
 21
-30.18853690784525
 31
0.0
 11
125.7152576534336
 21
-30.20686674728511
 31
0.0
 11
125.3470481440988
 21
-30.22287799005889
 31
0.0
 11
125.0127410570188
 21
-30.23606221283337
 31
0.0
 11
124.7268544383294
 21
-30.24591099227534
 31
0.0
 11
124.7114964786516
 21
-30.27269454261589
 31
0.0
 11
124.6840536755321
 21
-30.28346418671039
 31
0.0
 11
124.6771029657094
 21
-30.26119678282707
 31
0.0
 11
124.6605281961323
 21
-30.20809758895146
 31
0.0
 11
124.6407454066371
 21
-30.14472113174508
 31
0.0
 11
124.62417063706
 21
-30.09162193786946
 31
0.0
 11
124.6172199272373
 21
-30.06935453398614
 31
0.0
 11
124.7994302323929
 21
-30.06738338815331
 31
0.0
 11
125.0078078313363
 21
-30.06133765898812
 31
0.0
 11
125.1206305591991
 21
-29.8500642742673
 31
0.0
 11
125.2311039186811
 21
-29.61980164572405
 31
0.0
 11
125.3261356730403
 21
-29.39790377026512
 31
0.0
 11
125.2946379926373
 21
-29.39790377026512
 31
0.0
 11
125.2115986533929
 21
-29.39790377026512
 31
0.0
 11
125.0941982082544
 21
-29.39790377026512
 31
0.0
 11
124.9596172101688
 21
-29.39790377026512
 31
0.0
 11
124.8250362120831
 21
-29.39790377026512
 31
0.0
 11
124.7076357669445
 21
-29.39790377026512
 31
0.0
 11
124.6245964277002
 21
-29.39790377026512
 31
0.0
 11
124.5930987472972
 21
-29.39790377026512
 31
0.0
  0
SPLINE
  5
A6
102
{ACAD_REACTORS
330
C3
102
}
330
48
100
AcDbEntity
  8
_U_30EC_U_30A4_U_30E4_U_30FC_1
  6
Continuous
 62
     2
100
AcDbSpline
210
0.0
220
0.0
230
1.0
 70
    11
 71
     3
 72
    35
 73
    31
 74
    29
 42
0.000000001
 43
0.0000000001
 44
0.00000001
 40
0.0
 40
0.0
 40
0.0
 40
0.0
 40
0.0335231036620645
 40
0.0713218571712064
 40
0.4278866681486669
 40
0.8116865841963798
 40
1.198190238000005
 40
1.561379546812701
 40
1.659983174622047
 40
1.75931557380723
 40
2.132719617231077
 40
2.525233363588782
 40
2.910815397779684
 40
3.265244364303308
 40
3.592606723582
 40
3.964386154603933
 40
4.359942131737768
 40
4.758154118639271
 40
4.843846538699859
 40
4.936650065543205
 40
5.256616602537306
 40
5.581707404416019
 40
5.899719158308121
 40
6.198363494280716
 40
6.466301046615749
 40
6.493895311537057
 40
6.559697020196864
 40
6.638234543442425
 40
6.70403625215422
 40
6.731630508422997
 40
6.731630508422997
 40
6.731630508422997
 40
6.731630508422997
 10
125.8639113033445
 20
-27.8702613400915
 30
0.0
 10
125.8579108562565
 20
-27.88009287185961
 30
0.0
 10
125.8451446563933
 20
-27.90100989148486
 30
0.0
 10
125.685246447133
 20
-27.93362851195594
 30
0.0
 10
126.1225128307112
 20
-28.22283297391584
 30
0.0
 10
126.3248497293037
 20
-28.42448839369843
 30
0.0
 10
126.5722666732749
 20
-28.66740590125013
 30
0.0
 10
127.0734616089382
 20
-28.74442314970503
 30
0.0
 10
126.9028664663746
 20
-28.88613038553632
 30
0.0
 10
126.8286401927975
 20
-29.08779611519168
 30
0.0
 10
126.5034534712963
 20
-28.73533690553563
 30
0.0
 10
126.218084413544
 20
-28.57314765168719
 30
0.0
 10
125.9240706542434
 20
-28.36802847675237
 30
0.0
 10
125.6987555155909
 20
-27.88662489132829
 30
0.0
 10
125.4896187520298
 20
-28.35146931119063
 30
0.0
 10
125.211097613961
 20
-28.56139025475373
 30
0.0
 10
124.9274485641985
 20
-28.73065521368299
 30
0.0
 10
124.5981741992607
 20
-29.10347616820347
 30
0.0
 10
124.5180114783
 20
-28.90781963269281
 30
0.0
 10
124.3662827374521
 20
-28.7799887353769
 30
0.0
 10
124.798649829157
 20
-28.70035945962348
 30
0.0
 10
124.9865667794542
 20
-28.5046334281281
 30
0.0
 10
125.2371579885279
 20
-28.2885698081153
 30
0.0
 10
125.4617452934936
 20
-28.12298985428224
 30
0.0
 10
125.5162877874489
 20
-27.84356013091459
 30
0.0
 10
125.6397763493787
 20
-27.85752027320206
 30
0.0
 10
125.6963375809296
 20
-27.85968708860637
 30
0.0
 10
125.766497344972
 20
-27.86443117846925
 30
0.0
 10
125.8236516486881
 20
-27.86780548377742
 30
0.0
 10
125.8547292785615
 20
-27.86970123017165
 30
0.0
 10
125.8639113033445
 20
-27.8702613400915
 30
0.0
 11
125.8639113033445
 21
-27.8702613400915
 31
0.0
 11
125.842842153466
 21
-27.89633602758499
 31
0.0
 11
125.8077567024201
 21
-27.91039863174815
 31
0.0
 11
126.041547723387
 21
-28.17962016596902
 31
0.0
 11
126.3317688422342
 21
-28.43076569759024
 31
0.0
 11
126.6515899948459
 21
-28.647789901095
 31
0.0
 11
126.9741811171065
 21
-28.81464745096648
 31
0.0
 11
126.9116402332852
 21
-28.89087942143356
 31
0.0
 11
126.859113828375
 21
-28.9751877981486
 31
0.0
 11
126.5339381560589
 21
-28.79163572896704
 31
0.0
 11
126.2140330233212
 21
-28.56419837984856
 31
0.0
 11
125.9257302623383
 21
-28.30816122604974
 31
0.0
 11
125.695361705287
 21
-28.03880974282718
 31
0.0
 11
125.4898634184292
 21
-28.29363629007248
 31
0.0
 11
125.2191403806311
 21
-28.54844795450528
 31
0.0
 11
124.9022640888022
 21
-28.78520511373429
 31
0.0
 11
124.5583060398517
 21
-28.98586814536817
 31
0.0
 11
124.5121957806114
 21
-28.91363910024731
 31
0.0
 11
124.4540072925124
 21
-28.84134390929317
 31
0.0
 11
124.7336142953791
 21
-28.68578520766539
 31
0.0
 11
124.999610708593
 21
-28.49888967937879
 31
0.0
 11
125.2403099924522
 21
-28.29105481443075
 31
0.0
 11
125.444025607255
 21
-28.07267810281868
 31
0.0
 11
125.5990710132994
 21
-27.85415703453997
 31
0.0
 11
125.6266144034641
 21
-27.85583188231733
 31
0.0
 11
125.6922947953953
 21
-27.85982575009411
 31
0.0
 11
125.7706875212486
 21
-27.86459262453737
 31
0.0
 11
125.8363679131798
 21
-27.86858649231414
 31
0.0
 11
125.8639113033445
 21
-27.8702613400915
 31
0.0
  0
SPLINE
  5
A7
102
{ACAD_REACTORS
330
C4
102
}
330
48
100
AcDbEntity
  8
_U_30EC_U_30A4_U_30E4_U_30FC_1
  6
Continuous
 62
     2
100
AcDbSpline
210
0.0
220
0.0
230
1.0
 70
    11
 71
     3
 72
    15
 73
    11
 74
     9
 42
0.000000001
 43
0.0000000001
 44
0.00000001
 40
0.0
 40
0.0
 40
0.0
 40
0.0
 40
0.2785535985096916
 40
0.5215624748198813
 40
0.6076917376040656
 40
0.6938210001741805
 40
0.9405019146455026
 40
1.221691403489193
 40
1.300471877081142
 40
1.37925234168494
 40
1.37925234168494
 40
1.37925234168494
 40
1.37925234168494
 10
123.4584596095775
 20
-27.87559710397903
 30
0.0
 10
123.5199120258954
 20
-27.92798331135568
 30
0.0
 10
123.634975243889
 20
-28.02607100930057
 30
0.0
 10
123.930045096202
 20
-28.17600191831064
 30
0.0
 10
123.7928250096632
 20
-28.26146750213271
 30
0.0
 10
123.6944330308553
 20
-28.39404192526726
 30
0.0
 10
123.6033136055425
 20
-28.08872991946861
 30
0.0
 10
123.2539941945429
 20
-28.02522108262906
 30
0.0
 10
123.4022360841346
 20
-27.92593467847406
 30
0.0
 10
123.4397184339012
 20
-27.89237629325902
 30
0.0
 10
123.4584596095775
 20
-27.87559710397903
 30
0.0
 11
123.4584596095775
 21
-27.87559710397903
 31
0.0
 11
123.6822324905372
 21
-28.04148203449311
 31
0.0
 11
123.8598148771159
 21
-28.2073669650072
 31
0.0
 11
123.7969410592754
 21
-28.26623234693692
 31
0.0
 11
123.734067241435
 21
-28.32509772886664
 31
0.0
 11
123.5591637582501
 21
-28.15114300668793
 31
0.0
 11
123.3381359320915
 21
-27.97732057617581
 31
0.0
 11
123.3982977708345
 21
-27.92645884007742
 31
0.0
 11
123.4584596095775
 21
-27.87559710397903
 31
0.0
  0
SPLINE
  5
A8
102
{ACAD_REACTORS
330
C5
102
}
330
48
100
AcDbEntity
  8
_U_30EC_U_30A4_U_30E4_U_30FC_1
  6
Continuous
 62
     2
100
AcDbSpline
210
0.0
220
0.0
230
1.0
 70
    11
 71
     3
 72
    75
 73
    71
 74
    69
 42
0.000000001
 43
0.0000000001
 44
0.00000001
 40
0.0
 40
0.0
 40
0.0
 40
0.0
 40
0.0342546099129709
 40
0.1245622414432329
 40
0.25223854808975
 40
0.398599192294068
 40
0.5449598364980839
 40
0.672636143143887
 40
0.7629437746736942
 40
0.7971983935297973
 40
1.101723623449644
 40
1.40859124403658
 40
1.433332471690289
 40
1.487763172450077
 40
1.542193873081912
 40
1.566935100592461
 40
1.923523931821772
 40
2.271755704953587
 40
2.59057975510087
 40
2.858943305581168
 40
2.88912033930917
 40
2.918305855191084
 40
2.941366645531216
 40
2.996357760973114
 40
3.061992318140678
 40
3.11698343362687
 40
3.140044223997551
 40
3.411273122936529
 40
3.732441619741222
 40
3.761068217532918
 40
3.837787499630485
 40
3.948858699126125
 40
4.080541049104506
 40
4.219093782625892
 40
4.350776132722439
 40
4.46184733240578
 40
4.538566614678503
 40
4.567193212544753
 40
4.594907573999011
 40
4.666381453557536
 40
4.764111044011161
 40
4.870592538125978
 40
4.968322128642443
 40
5.039796008287128
 40
5.067510369784559
 40
5.094263603185771
 40
5.153120716668402
 40
5.211977830150849
 40
5.238731063551851
 40
5.272290535139119
 40
5.363380529444951
 40
5.497618415781615
 40
5.660621563453871
 40
5.838007341749572
 40
6.015393119910881
 40
6.178396267038535
 40
6.312634151842486
 40
6.40372414305949
 40
6.437283612672571
 40
6.464036846261186
 40
6.522893960004799
 40
6.581751071484062
 40
6.608504301591006
 40
6.63725394128114
 40
6.711397748902991
 40
6.812778057283589
 40
6.923237199249352
 40
7.024617507624024
 40
7.098761315207662
 40
7.127510946007627
 40
7.127510946007627
 40
7.127510946007627
 40
7.127510946007627
 10
122.332172485534
 20
-29.14640849255019
 30
0.0
 10
122.3321725284483
 20
-29.15782664319563
 30
0.0
 10
122.3321726945905
 20
-29.19934719885654
 30
0.0
 10
122.3321695546563
 20
-29.28343055724512
 30
0.0
 10
122.3321890744576
 20
-29.40485480405955
 30
0.0
 10
122.3321014652513
 20
-29.54509483680835
 30
0.0
 10
122.3324218700006
 20
-29.68483420933708
 30
0.0
 10
122.3314708374516
 20
-29.80744938833353
 30
0.0
 10
122.3335081060743
 20
-29.88902903290241
 30
0.0
 10
122.3252535643522
 20
-30.04218710650582
 30
0.0
 10
122.6333900405678
 20
-29.87929741673566
 30
0.0
 10
122.9253747638509
 20
-29.71007039040288
 30
0.0
 10
122.9311456913483
 20
-29.84516741946372
 30
0.0
 10
122.9358574184666
 20
-29.88872756567841
 30
0.0
 10
122.9385637876694
 20
-29.93278728377739
 30
0.0
 10
122.9575648137735
 20
-30.08217387365151
 30
0.0
 10
122.5487044712079
 20
-30.01808805487021
 30
0.0
 10
122.2696812813608
 20
-30.13193636317267
 30
0.0
 10
121.9921184051942
 20
-30.23125881917145
 30
0.0
 10
121.7002939649175
 20
-30.18859290131921
 30
0.0
 10
121.6772247143433
 20
-30.29168297983742
 30
0.0
 10
121.6440576848109
 20
-30.31798886483815
 30
0.0
 10
121.6383756427514
 20
-30.27034668691979
 30
0.0
 10
121.618731702382
 20
-30.23309641613215
 30
0.0
 10
121.5998191950398
 20
-30.17482589880721
 30
0.0
 10
121.5845952332482
 20
-30.13104776720481
 30
0.0
 10
121.538034883771
 20
-30.01730556681969
 30
0.0
 10
121.8793999777227
 20
-30.04913676608238
 30
0.0
 10
122.1582751832158
 20
-30.08328542621804
 30
0.0
 10
122.1520855499684
 20
-29.93576001248633
 30
0.0
 10
122.1534037917548
 20
-29.86476826819451
 30
0.0
 10
122.1527934154725
 20
-29.75770209769622
 30
0.0
 10
122.15289740355
 20
-29.63091447942286
 30
0.0
 10
122.1533090428832
 20
-29.49640734232233
 30
0.0
 10
122.1517010306744
 20
-29.37094427777098
 30
0.0
 10
122.1563005032701
 20
-29.25984731009167
 30
0.0
 10
122.1467288966986
 20
-29.19728090927595
 30
0.0
 10
122.1607104248467
 20
-29.13894589433282
 30
0.0
 10
122.1050486851481
 20
-29.15200267146045
 30
0.0
 10
122.0478757662597
 20
-29.14353669978784
 30
0.0
 10
121.9519151390424
 20
-29.14760001647646
 30
0.0
 10
121.8536869987597
 20
-29.1451908787581
 30
0.0
 10
121.7575684922336
 20
-29.14938377114893
 30
0.0
 10
121.7007750990587
 20
-29.14060631287121
 30
0.0
 10
121.645345933816
 20
-29.15395040878161
 30
0.0
 10
121.6573781892693
 20
-29.10453066769027
 30
0.0
 10
121.6495105638714
 20
-29.06095989697889
 30
0.0
 10
121.6569398028605
 20
-29.01659508609758
 30
0.0
 10
121.6455033028919
 20
-28.96587679964293
 30
0.0
 10
121.7135204834909
 20
-28.98327516970541
 30
0.0
 10
121.7871599344522
 20
-28.97072527491096
 30
0.0
 10
121.9228166522987
 20
-28.97690300717187
 30
0.0
 10
122.0788011489301
 20
-28.97460774635202
 30
0.0
 10
122.2519028822919
 20
-28.97549009465753
 30
0.0
 10
122.4250045428957
 20
-28.97460770585877
 30
0.0
 10
122.5809892275992
 20
-28.97690314772734
 30
0.0
 10
122.7166454354574
 20
-28.97072491465854
 30
0.0
 10
122.7902859170428
 20
-28.98327583509949
 30
0.0
 10
122.85830166395
 20
-28.96587604716142
 30
0.0
 10
122.8468693350698
 20
-29.01659847313729
 30
0.0
 10
122.8542641923073
 20
-29.06092916917176
 30
0.0
 10
122.8465142377046
 20
-29.10461670178087
 30
0.0
 10
122.8584306206652
 20
-29.15426387629806
 30
0.0
 10
122.8011272688393
 20
-29.14028566389857
 30
0.0
 10
122.7423248254548
 20
-29.14950222055029
 30
0.0
 10
122.6428396097975
 20
-29.14537709563353
 30
0.0
 10
122.5397382563125
 20
-29.14667217702396
 30
0.0
 10
122.4440948819349
 20
-29.14635900650642
 30
0.0
 10
122.3760570436393
 20
-29.14641201031137
 30
0.0
 10
122.3417564678219
 20
-29.14640925856627
 30
0.0
 10
122.332172485534
 20
-29.14640849255019
 30
0.0
 11
122.332172485534
 21
-29.14640849255019
 31
0.0
 11
122.332172485534
 21
-29.18066311141099
 31
0.0
 11
122.332172485534
 21
-29.27097074295308
 31
0.0
 11
122.332172485534
 21
-29.39864704961604
 31
0.0
 11
122.332172485534
 21
-29.54500769383943
 31
0.0
 11
122.332172485534
 21
-29.69136833806283
 31
0.0
 11
122.332172485534
 21
-29.81904464472579
 31
0.0
 11
122.332172485534
 21
-29.90935227626789
 31
0.0
 11
122.332172485534
 21
-29.94360689512868
 31
0.0
 11
122.6295035109343
 21
-29.87780502014516
 31
0.0
 11
122.928772609202
 21
-29.80993939516212
 31
0.0
 11
122.9308589589752
 21
-29.83459249845457
 31
0.0
 11
122.9354489284762
 21
-29.88882932569794
 31
0.0
 11
122.9400388979772
 21
-29.94306615294132
 31
0.0
 11
122.9421252477504
 21
-29.96771925623376
 31
0.0
 11
122.5959499354016
 21
-30.05326607587386
 31
0.0
 11
122.2572755603614
 21
-30.13429100098383
 31
0.0
 11
121.9466833981463
 21
-30.20627213703354
 31
0.0
 11
121.684754724273
 21
-30.26468758949292
 31
0.0
 11
121.6720617494067
 21
-30.29206534990271
 31
0.0
 11
121.6472897252289
 21
-30.30749717281549
 31
0.0
 11
121.6394970054277
 21
-30.28579294337648
 31
0.0
 11
121.6209143659017
 21
-30.23403670394499
 31
0.0
 11
121.5987350864675
 21
-30.17226312784933
 31
0.0
 11
121.5801524469415
 21
-30.12050688841784
 31
0.0
 11
121.5723597271403
 21
-30.09880265897883
 31
0.0
 11
121.8385878800707
 21
-30.04695975968618
 31
0.0
 11
122.1529437401065
 21
-29.98116008956374
 31
0.0
 11
122.1529437401065
 21
-29.9525334915866
 31
0.0
 11
122.1529437401065
 21
-29.87581420900785
 31
0.0
 11
122.1529437401065
 21
-29.76474300885652
 31
0.0
 11
122.1529437401065
 21
-29.63306065816165
 31
0.0
 11
122.1529437401065
 21
-29.49450792395227
 31
0.0
 11
122.1529437401065
 21
-29.36282557325741
 31
0.0
 11
122.1529437401065
 21
-29.25175437310608
 31
0.0
 11
122.1529437401065
 21
-29.17503509052734
 31
0.0
 11
122.1529437401065
 21
-29.14640849255019
 31
0.0
 11
122.1252293785884
 21
-29.14640849255019
 31
0.0
 11
122.0537554988839
 21
-29.14640849255019
 31
0.0
 11
121.9560259082676
 21
-29.14640849255019
 31
0.0
 11
121.849544414014
 21
-29.14640849255019
 31
0.0
 11
121.7518148233976
 21
-29.14640849255019
 31
0.0
 11
121.6803409436932
 21
-29.14640849255019
 31
0.0
 11
121.6526265821751
 21
-29.14640849255019
 31
0.0
 11
121.6526265821751
 21
-29.11965525904994
 31
0.0
 11
121.6526265821751
 21
-29.06079814534939
 31
0.0
 11
121.6526265821751
 21
-29.00194103164885
 31
0.0
 11
121.6526265821751
 21
-28.9751877981486
 31
0.0
 11
121.6861860537651
 21
-28.9751877981486
 31
0.0
 11
121.7772760480807
 21
-28.9751877981486
 31
0.0
 11
121.9115139344405
 21
-28.9751877981486
 31
0.0
 11
122.0745170821632
 21
-28.9751877981486
 31
0.0
 11
122.2519028605672
 21
-28.9751877981486
 31
0.0
 11
122.4292886389713
 21
-28.9751877981486
 31
0.0
 11
122.592291786694
 21
-28.9751877981486
 31
0.0
 11
122.7265296730538
 21
-28.9751877981486
 31
0.0
 11
122.8176196673694
 21
-28.9751877981486
 31
0.0
 11
122.8511791389594
 21
-28.9751877981486
 31
0.0
 11
122.8511791389594
 21
-29.00194103164885
 31
0.0
 11
122.8511791389594
 21
-29.06079814534939
 31
0.0
 11
122.8511791389594
 21
-29.11965525904994
 31
0.0
 11
122.8511791389594
 21
-29.14640849255019
 31
0.0
 11
122.8224294992653
 21
-29.14640849255019
 31
0.0
 11
122.7482856916331
 21
-29.14640849255019
 31
0.0
 11
122.646905383238
 21
-29.14640849255019
 31
0.0
 11
122.5364462412554
 21
-29.14640849255019
 31
0.0
 11
122.4350659328603
 21
-29.14640849255019
 31
0.0
 11
122.3609221252281
 21
-29.14640849255019
 31
0.0
 11
122.332172485534
 21
-29.14640849255019
 31
0.0
  0
SPLINE
  5
A9
102
{ACAD_REACTORS
330
C6
102
}
330
48
100
AcDbEntity
  8
_U_30EC_U_30A4_U_30E4_U_30FC_1
  6
Continuous
 62
     2
100
AcDbSpline
210
0.0
220
0.0
230
1.0
 70
    11
 71
     3
 72
    91
 73
    87
 74
    85
 42
0.000000001
 43
0.0000000001
 44
0.00000001
 40
0.0
 40
0.0
 40
0.0
 40
0.0
 40
0.0345987051695576
 40
0.1258134969461511
 40
0.2547723404888845
 40
0.4026032099153983
 40
0.5504340793416704
 40
0.6793929228836222
 40
0.7706077146571177
 40
0.8052064287780925
 40
1.124852390615272
 40
1.42740223630887
 40
1.706356627453512
 40
1.955541417875186
 40
2.169485938566333
 40
2.344350786664761
 40
2.480568411561932
 40
2.5904405574289
 40
2.649189927151106
 40
2.749320643306327
 40
2.912632739880016
 40
3.147745656000212
 40
3.244827496385131
 40
3.338490056946795
 40
3.58381541320722
 40
3.761423943238586
 40
3.886956104362753
 40
3.985855451886937
 40
4.091766255337808
 40
4.250186473811987
 40
4.422734315084654
 40
4.628285684838727
 40
4.872093227758558
 40
5.152549652145678
 40
5.464967135837655
 40
5.80320147785257
 40
6.160362988814045
 40
6.1934494482761
 40
6.284170385501726
 40
6.419718138764624
 40
6.58728504638586
 40
6.774063446723789
 40
6.967245678113743
 40
7.1540240788178
 40
7.321590987026143
 40
7.457138740890516
 40
7.547859678556252
 40
7.580946138182798
 40
7.608533084714852
 40
7.669224367077836
 40
7.729915649430064
 40
7.757502595950116
 40
7.79027806255357
 40
7.880146277431068
 40
8.014419963180517
 40
8.180411842398017
 40
8.365434637679487
 40
8.556801071622802
 40
8.741823866830915
 40
8.907815745916468
 40
9.042089431507621
 40
9.131957646249719
 40
9.16473311279731
 40
9.415425063140237
 40
9.667986180958696
 40
9.694169807462792
 40
9.756607686047724
 40
9.831130315322588
 40
9.893568193899995
 40
9.919751820398798
 40
9.950967964690598
 40
9.996421631210778
 40
10.22087981037466
 40
10.44341866197554
 40
10.4784797078887
 40
10.57091337438767
 40
10.70159545461244
 40
10.85140174170377
 40
11.00120802880498
 40
11.13189010907402
 40
11.22432377583031
 40
11.25938480938978
 40
11.28697175596166
 40
11.34766303835941
 40
11.40835432042092
 40
11.43594125892126
 40
11.43594125892126
 40
11.43594125892126
 40
11.43594125892126
 10
123.9721216798065
 20
-28.55247182603208
 30
0.0
 10
123.9605888309717
 20
-28.55247187440369
 30
0.0
 10
123.9186511909774
 20
-28.55247204024121
 30
0.0
 10
123.8337232183801
 20
-28.55246851927377
 30
0.0
 10
123.7110791017905
 20
-28.55249051292406
 30
0.0
 10
123.5694309381769
 20
-28.55239176551232
 30
0.0
 10
123.4282856163265
 20
-28.55275291495862
 30
0.0
 10
123.304445378268
 20
-28.55168094119198
 30
0.0
 10
123.2220320290158
 20
-28.55397728637016
 30
0.0
 10
123.0630893694468
 20
-28.54441408354866
 30
0.0
 10
123.2406504818152
 20
-28.90704583416913
 30
0.0
 10
123.2282841670228
 20
-29.15246850005171
 30
0.0
 10
123.296762193864
 20
-29.43627476403449
 30
0.0
 10
123.3596126785746
 20
-29.6723897778925
 30
0.0
 10
123.4355355896504
 20
-29.87163237332153
 30
0.0
 10
123.5206292041791
 20
-30.02744630276912
 30
0.0
 10
123.6147710057711
 20
-30.1283211994689
 30
0.0
 10
123.7185750672503
 20
-30.18024125089318
 30
0.0
 10
123.8028974495549
 20
-30.12883493348669
 30
0.0
 10
123.8254424644228
 20
-30.01345433690768
 30
0.0
 10
123.8648833440146
 20
-29.88604828025902
 30
0.0
 10
123.8106022199717
 20
-29.56867649641528
 30
0.0
 10
123.9354320537249
 20
-29.71507797587383
 30
0.0
 10
124.0922393978379
 20
-29.74694677397107
 30
0.0
 10
123.9850822471833
 20
-29.98068619960658
 30
0.0
 10
123.9711813674643
 20
-30.14517201144627
 30
0.0
 10
123.9137811932002
 20
-30.27359108605803
 30
0.0
 10
123.8238122609784
 20
-30.34471175375457
 30
0.0
 10
123.6998377122653
 20
-30.36057653586031
 30
0.0
 10
123.5537375661636
 20
-30.32496180174112
 30
0.0
 10
123.4146996785059
 20
-30.20489407228008
 30
0.0
 10
123.300510642692
 20
-30.03054295177962
 30
0.0
 10
123.2049243766262
 20
-29.80543374617045
 30
0.0
 10
123.1221755037402
 20
-29.54101731721843
 30
0.0
 10
123.0710281721187
 20
-29.22302044629741
 30
0.0
 10
122.9673291672114
 20
-28.94946249239372
 30
0.0
 10
123.0945943673297
 20
-28.54484159115418
 30
0.0
 10
122.9260993087794
 20
-28.55377609878606
 30
0.0
 10
122.8415098251853
 20
-28.55174016309923
 30
0.0
 10
122.7092978852403
 20
-28.55276040339878
 30
0.0
 10
122.546360755888
 20
-28.55236747409856
 30
0.0
 10
122.3636861635309
 20
-28.55254281414916
 30
0.0
 10
122.1750159838158
 20
-28.55229872420816
 30
0.0
 10
121.9917571484965
 20
-28.55304319822049
 30
0.0
 10
121.8307849297493
 20
-28.55073617205858
 30
0.0
 10
121.6932910800051
 20
-28.55690172844623
 30
0.0
 10
121.6192692837086
 20
-28.54457139270074
 30
0.0
 10
121.5516317651632
 20
-28.56160654004729
 30
0.0
 10
121.5635476184045
 20
-28.50965539280757
 30
0.0
 10
121.555877975047
 20
-28.46418552761756
 30
0.0
 10
121.5635694689891
 20
-28.41875524024579
 30
0.0
 10
121.5516244262537
 20
-28.36687581743713
 30
0.0
 10
121.6186690770642
 20
-28.38370834238021
 30
0.0
 10
121.6920478130452
 20
-28.37154568635613
 30
0.0
 10
121.8282230770047
 20
-28.37762746653325
 30
0.0
 10
121.9876914266288
 20
-28.37535143413226
 30
0.0
 10
122.1692275550612
 20
-28.37608743729322
 30
0.0
 10
122.3561137326955
 20
-28.3758402353215
 30
0.0
 10
122.5371114781612
 20
-28.37603576929031
 30
0.0
 10
122.6983905043654
 20
-28.37557743013444
 30
0.0
 10
122.8296984589663
 20
-28.37677303977079
 30
0.0
 10
122.9128153787372
 20
-28.37438630408541
 30
0.0
 10
123.045933901259
 20
-28.38259372002821
 30
0.0
 10
122.9548995967435
 20
-28.12737108775631
 30
0.0
 10
122.8692735539194
 20
-27.86325619400036
 30
0.0
 10
122.9893691468231
 20
-27.8758553475912
 30
0.0
 10
123.0417367413319
 20
-27.87795741965208
 30
0.0
 10
123.1117600034491
 20
-27.87954577838629
 30
0.0
 10
123.1575024802592
 20
-27.88887410190171
 30
0.0
 10
123.2123915111708
 20
-27.87944010812858
 30
0.0
 10
123.1866677250456
 20
-27.92756949073115
 30
0.0
 10
123.0728500036228
 20
-27.92223147984109
 30
0.0
 10
123.2062449085911
 20
-28.1504080315151
 30
0.0
 10
123.0846761200247
 20
-28.38333121132361
 30
0.0
 10
123.2126291234188
 20
-28.37402718843845
 30
0.0
 10
123.2952150871236
 20
-28.37688975973603
 30
0.0
 10
123.4210317315599
 20
-28.37566540315981
 30
0.0
 10
123.5644572302834
 20
-28.3755754583932
 30
0.0
 10
123.7060523416504
 20
-28.37743814544429
 30
0.0
 10
123.8362229714743
 20
-28.37156901791121
 30
0.0
 10
123.9096554750966
 20
-28.38419636905079
 30
0.0
 10
123.9794215386872
 20
-28.36612414617872
 30
0.0
 10
123.9678875070171
 20
-28.41877127181958
 30
0.0
 10
123.9736286811459
 20
-28.46268660041736
 30
0.0
 10
123.9719718235686
 20
-28.51399995051737
 30
0.0
 10
123.9720860026445
 20
-28.5433118570665
 30
0.0
 10
123.9721216798065
 20
-28.55247182603208
 30
0.0
 11
123.9721216798065
 21
-28.55247182603208
 31
0.0
 11
123.9375229656827
 21
-28.55247182603208
 31
0.0
 11
123.8463081739017
 21
-28.55247182603208
 31
0.0
 11
123.7173493303493
 21
-28.55247182603208
 31
0.0
 11
123.5695184609111
 21
-28.55247182603208
 31
0.0
 11
123.421687591473
 21
-28.55247182603208
 31
0.0
 11
123.2927287479206
 21
-28.55247182603208
 31
0.0
 11
123.2015139561396
 21
-28.55247182603208
 31
0.0
 11
123.1669152420158
 21
-28.55247182603208
 31
0.0
 11
123.1986242962469
 21
-28.87054112798164
 31
0.0
 11
123.2430969121641
 21
-29.16980454940204
 31
0.0
 11
123.2995491583096
 21
-29.44298708215709
 31
0.0
 11
123.3671971032254
 21
-29.68281371811057
 31
0.0
 11
123.4452568154537
 21
-29.8820094491263
 31
0.0
 11
123.5329443635367
 21
-30.03329926706807
 31
0.0
 11
123.6294758160164
 21
-30.12940816379967
 31
0.0
 11
123.734067241435
 21
-30.16306113118492
 31
0.0
 11
123.7846179767562
 21
-30.13312600749449
 31
0.0
 11
123.8213691456327
 21
-30.03998357913236
 31
0.0
 11
123.8465743442303
 21
-29.87862826016229
 31
0.0
 11
123.8624871687143
 21
-29.64405446464802
 31
0.0
 11
123.9397185147358
 21
-29.70287795421667
 31
0.0
 11
124.0230286649161
 21
-29.74568092295594
 31
0.0
 11
123.9969468275993
 21
-29.98961589067274
 31
0.0
 11
123.9576420269881
 21
-30.16282074840722
 31
0.0
 11
123.9008805061541
 21
-30.27478705282367
 31
0.0
 11
123.8224285081686
 21
-30.33500636058639
 31
0.0
 11
123.7180522761032
 21
-30.35297022835967
 31
0.0
 11
123.5641697529873
 21
-30.31532537715923
 31
0.0
 11
123.4292004841523
 21
-30.20782628850881
 31
0.0
 11
123.3124842380939
 21
-30.03862615983475
 31
0.0
 11
123.2133607833076
 21
-29.81587818856341
 31
0.0
 11
123.1311698882889
 21
-29.54773557212113
 31
0.0
 11
123.0652513215335
 21
-29.24235150793425
 31
0.0
 11
123.0149448515369
 21
-28.90787919342911
 31
0.0
 11
122.9795902467947
 21
-28.55247182603208
 31
0.0
 11
122.9465037870619
 21
-28.55247182603208
 31
0.0
 11
122.8557828490851
 21
-28.55247182603208
 31
0.0
 11
122.7202350946961
 21
-28.55247182603208
 31
0.0
 11
122.5526681857271
 21
-28.55247182603208
 31
0.0
 11
122.36588978401
 21
-28.55247182603208
 31
0.0
 11
122.1727075513768
 21
-28.55247182603208
 31
0.0
 11
121.9859291496597
 21
-28.55247182603208
 31
0.0
 11
121.8183622406907
 21
-28.55247182603208
 31
0.0
 11
121.6828144863017
 21
-28.55247182603208
 31
0.0
 11
121.5920935483248
 21
-28.55247182603208
 31
0.0
 11
121.5590070885921
 21
-28.55247182603208
 31
0.0
 11
121.5590070885921
 21
-28.52488487942439
 31
0.0
 11
121.5590070885921
 21
-28.46419359688747
 31
0.0
 11
121.5590070885921
 21
-28.40350231435055
 31
0.0
 11
121.5590070885921
 21
-28.37591536774286
 31
0.0
 11
121.5917825552407
 21
-28.37591536774286
 31
0.0
 11
121.6816507702449
 21
-28.37591536774286
 31
0.0
 11
121.8159244561924
 21
-28.37591536774286
 31
0.0
 11
121.9819163356708
 21
-28.37591536774286
 31
0.0
 11
122.1669391312677
 21
-28.37591536774286
 31
0.0
 11
122.3583055655708
 21
-28.37591536774286
 31
0.0
 11
122.5433283611677
 21
-28.37591536774286
 31
0.0
 11
122.7093202406461
 21
-28.37591536774286
 31
0.0
 11
122.8435939265936
 21
-28.37591536774286
 31
0.0
 11
122.9334621415978
 21
-28.37591536774286
 31
0.0
 11
122.9662376082464
 21
-28.37591536774286
 31
0.0
 11
122.9562286414879
 21
-28.12542330183325
 31
0.0
 11
122.9502214975439
 21
-27.87293363175753
 31
0.0
 11
122.9763678335435
 21
-27.87433056120162
 31
0.0
 11
123.0387167886194
 21
-27.87766170064523
 31
0.0
 11
123.1131332833875
 21
-27.88163757675535
 31
0.0
 11
123.1754822384634
 21
-27.88496871619896
 31
0.0
 11
123.201628574463
 21
-27.88636564564305
 31
0.0
 11
123.1886033577816
 21
-27.91473449112204
 31
0.0
 11
123.145475173118
 21
-27.9290870345212
 31
0.0
 11
123.1478094426596
 21
-28.15353307613176
 31
0.0
 11
123.1561555200678
 21
-28.37591536774286
 31
0.0
 11
123.1912165659941
 21
-28.37591536774286
 31
0.0
 11
123.283650232527
 21
-28.37591536774286
 31
0.0
 11
123.4143323127976
 21
-28.37591536774286
 31
0.0
 11
123.5641385999372
 21
-28.37591536774286
 31
0.0
 11
123.7139448870767
 21
-28.37591536774286
 31
0.0
 11
123.8446269673473
 21
-28.37591536774286
 31
0.0
 11
123.9370606338802
 21
-28.37591536774286
 31
0.0
 11
123.9721216798065
 21
-28.37591536774286
 31
0.0
 11
123.9721216798065
 21
-28.40350231435055
 31
0.0
 11
123.9721216798065
 21
-28.46419359688747
 31
0.0
 11
123.9721216798065
 21
-28.52488487942439
 31
0.0
 11
123.9721216798065
 21
-28.55247182603208
 31
0.0
  0
SPLINE
  5
AA
102
{ACAD_REACTORS
330
C7
102
}
330
48
100
AcDbEntity
  8
_U_30EC_U_30A4_U_30E4_U_30FC_1
  6
Continuous
 62
     2
100
AcDbSpline
210
0.0
220
0.0
230
1.0
 70
    11
 71
     3
 72
   118
 73
   114
 74
   112
 42
0.000000001
 43
0.0000000001
 44
0.00000001
 40
0.0
 40
0.0
 40
0.0
 40
0.0
 40
0.1054708162973438
 40
0.2466098270052161
 40
0.3965912874591639
 40
0.5285525069754381
 40
0.6156245055642846
 40
0.6431434105798061
 40
0.703685003798675
 40
0.7642265984505121
 40
0.7917455052355509
 40
0.9287404319990643
 40
1.106572819088116
 40
1.287544879681159
 40
1.317578308030674
 40
1.399928030857313
 40
1.522968204800085
 40
1.675072986590712
 40
1.844616533180793
 40
2.019973001638855
 40
2.189516548880162
 40
2.341621331585499
 40
2.464661506320637
 40
2.547011229647203
 40
2.577044658168168
 40
2.603797890893196
 40
2.662655002908869
 40
2.721512114949653
 40
2.748265347702804
 40
2.774215307344877
 40
2.845959313407209
 40
2.954338556588409
 40
3.090194227585583
 40
3.244367517100555
 40
3.40769961584431
 40
3.571031714539457
 40
3.72520500392014
 40
3.861060674729635
 40
3.969439917716331
 40
4.041183923629001
 40
4.067133883212994
 40
4.311886746012168
 40
4.547897258335543
 40
4.76474708304401
 40
4.952749679951808
 40
5.045772974195939
 40
5.137862019645032
 40
5.330543169793073
 40
5.553448265244062
 40
5.795083855888224
 40
6.043293412177297
 40
6.285761695541235
 40
6.313902908752762
 40
6.384255941793323
 40
6.475714884766911
 40
6.567173827758974
 40
6.637526860839738
 40
6.665668074074087
 40
6.692018920328059
 40
6.74999078207114
 40
6.807962643790506
 40
6.834313490017982
 40
6.856393084245233
 40
6.913335195649913
 40
6.991194817302563
 40
7.076026942283824
 40
7.153886563725343
 40
7.210828674844882
 40
7.232908268931232
 40
7.258199334923758
 40
7.324875781592403
 40
7.41914248192506
 40
7.527204308842001
 40
7.635266135230579
 40
7.729532834168565
 40
7.796209279292888
 40
7.821500344594834
 40
7.844652988850975
 40
7.899863140541697
 40
7.965759128053864
 40
8.020969279771162
 40
8.044121924046614
 40
8.06935661016073
 40
8.109134395441554
 40
8.13223810019127
 40
8.193147867786632
 40
8.2792616788768
 40
8.377977512674015
 40
8.4766933471468
 40
8.562807160411854
 40
8.623716930826639
 40
8.64682063685359
 40
8.671988793774446
 40
8.734909185828329
 40
8.816705695189043
 40
8.89850220481567
 40
8.961422597378132
 40
8.986590754551273
 40
9.01294160073343
 40
9.070913462380517
 40
9.128885324082017
 40
9.155236170325335
 40
9.180404327929363
 40
9.24332472194845
 40
9.325121234212272
 40
9.406917746637955
 40
9.469838141978425
 40
9.495006288271227
 40
9.517811184379372
 40
9.57219209048736
 40
9.637098333281589
 40
9.691479239515782
 40
9.714284125643818
 40
9.714284125643818
 40
9.714284125643818
 40
9.714284125643818
 10
119.1777571493428
 20
-28.83600814540564
 30
0.0
 10
119.1994093033813
 20
-28.86378108485472
 30
0.0
 10
119.2500359574248
 20
-28.92871923167048
 30
0.0
 10
119.3252485667367
 20
-29.03598917415384
 30
0.0
 10
119.4151584739121
 20
-29.15112539461657
 30
0.0
 10
119.4612272141448
 20
-29.25132931979966
 30
0.0
 10
119.5558927759431
 20
-29.3205597091334
 30
0.0
 10
119.5107541785189
 20
-29.36718338050011
 30
0.0
 10
119.4850150250566
 20
-29.40829668862243
 30
0.0
 10
119.4548299172788
 20
-29.44424006000346
 30
0.0
 10
119.4096787195338
 20
-29.5191019513219
 30
0.0
 10
119.3613606923338
 20
-29.29707453474681
 30
0.0
 10
119.2871642177849
 20
-29.25979300390572
 30
0.0
 10
119.1739149789381
 20
-28.98879775597682
 30
0.0
 10
119.1788236042945
 20
-29.10394649282056
 30
0.0
 10
119.177158902108
 20
-29.17653301946656
 30
0.0
 10
119.177993254149
 20
-29.29864389244298
 30
0.0
 10
119.1776712005038
 20
-29.44576176917824
 30
0.0
 10
119.1778179377231
 20
-29.61182913771727
 30
0.0
 10
119.1776052557497
 20
-29.78302423119682
 30
0.0
 10
119.1782599716808
 20
-29.94937149092786
 30
0.0
 10
119.1762294925914
 20
-30.0955480467259
 30
0.0
 10
119.1816562864705
 20
-30.22018930253675
 30
0.0
 10
119.1708033333483
 20
-30.28771321187656
 30
0.0
 10
119.185984162033
 20
-30.34940916311262
 30
0.0
 10
119.1360997572909
 20
-30.33762473831282
 30
0.0
 10
119.0920252807297
 20
-30.34546154948314
 30
0.0
 10
119.0485474094976
 20
-30.33729536355582
 30
0.0
 10
118.9995449251265
 20
-30.34951920989815
 30
0.0
 10
119.0121833699601
 20
-30.2952931047897
 30
0.0
 10
119.0033285433225
 20
-30.23553058820727
 30
0.0
 10
119.007816123509
 20
-30.12567948683914
 30
0.0
 10
119.0061062600766
 20
-29.99460002322606
 30
0.0
 10
119.0066653380762
 20
-29.84291966283956
 30
0.0
 10
119.006503123347
 20
-29.6827890279833
 30
0.0
 10
119.006537238945
 20
-29.52253112053718
 30
0.0
 10
119.0065617424903
 20
-29.37119730207845
 30
0.0
 10
119.0064556008001
 20
-29.23907821389682
 30
0.0
 10
119.0067401606707
 20
-29.13195175195091
 30
0.0
 10
119.0061778012344
 20
-29.06681358148811
 30
0.0
 10
119.0083867548464
 20
-28.93871019869608
 30
0.0
 10
118.9222538463379
 20
-29.3139236733671
 30
0.0
 10
118.8458243283276
 20
-29.4657178460489
 30
0.0
 10
118.7563143232609
 20
-29.62723771281975
 30
0.0
 10
118.6543515682102
 20
-29.90018128908116
 30
0.0
 10
118.6091078955814
 20
-29.73772631131772
 30
0.0
 10
118.5005458406446
 20
-29.64884545670166
 30
0.0
 10
118.6898894216528
 20
-29.49940182766874
 30
0.0
 10
118.7468443010476
 20
-29.3074084075336
 30
0.0
 10
118.8620623458128
 20
-29.07590354821527
 30
0.0
 10
118.8843254094908
 20
-28.88692717969221
 30
0.0
 10
119.0675007616916
 20
-28.61035888402354
 30
0.0
 10
118.9441136062328
 20
-28.61790998896191
 30
0.0
 10
118.8828786631609
 20
-28.61633205362166
 30
0.0
 10
118.798510208184
 20
-28.61607385154612
 30
0.0
 10
118.7107337550741
 20
-28.6194513197708
 30
0.0
 10
118.6559871160899
 20
-28.61095162746265
 30
0.0
 10
118.60078054908
 20
-28.62441416678497
 30
0.0
 10
118.6125925500312
 20
-28.5755853560152
 30
0.0
 10
118.6045598616569
 20
-28.53220972831576
 30
0.0
 10
118.6131288569455
 20
-28.48980539418712
 30
0.0
 10
118.6006045873932
 20
-28.44222181176167
 30
0.0
 10
118.6458204003511
 20
-28.45222764733175
 30
0.0
 10
118.6917918027499
 20
-28.44595872554223
 30
0.0
 10
118.7680324512486
 20
-28.44896416322412
 30
0.0
 10
118.846439859677
 20
-28.44719529449743
 30
0.0
 10
118.9227095113708
 20
-28.45025183746625
 30
0.0
 10
118.9686111924251
 20
-28.44386006352106
 30
0.0
 10
119.0134836430176
 20
-28.45396154749388
 30
0.0
 10
119.0008654740409
 20
-28.40332776146386
 30
0.0
 10
119.0095039047482
 20
-28.34988715846214
 30
0.0
 10
119.0055464060219
 20
-28.25626722596603
 30
0.0
 10
119.0065427533111
 20
-28.15377371039361
 30
0.0
 10
119.0075029877849
 20
-28.0513670748012
 30
0.0
 10
119.0036313922781
 20
-27.95754048118964
 30
0.0
 10
119.0120892279141
 20
-27.90453434887931
 30
0.0
 10
118.9996178397611
 20
-27.85278542077093
 30
0.0
 10
119.0445208854626
 20
-27.86639230501527
 30
0.0
 10
119.0858186301548
 20
-27.86389497407698
 30
0.0
 10
119.1498446745826
 20
-27.86841917153797
 30
0.0
 10
119.1889213613562
 20
-27.87708974684974
 30
0.0
 10
119.2379645963518
 20
-27.86974875657598
 30
0.0
 10
119.2128182495366
 20
-27.90887081676528
 30
0.0
 10
119.1719003798498
 20
-27.89926135272474
 30
0.0
 10
119.1813212081379
 20
-27.94949829558506
 30
0.0
 10
119.1758749783521
 20
-28.00104032088793
 30
0.0
 10
119.1784802066579
 20
-28.08530270143764
 30
0.0
 10
119.1773204666929
 20
-28.17930842144875
 30
0.0
 10
119.1786693529006
 20
-28.2729311233276
 30
0.0
 10
119.1753072566283
 20
-28.3581046017606
 30
0.0
 10
119.1824062382544
 20
-28.40773121656241
 30
0.0
 10
119.171567161932
 20
-28.45496282758296
 30
0.0
 10
119.220711269002
 20
-28.44288302791432
 30
0.0
 10
119.2697980094922
 20
-28.45042584365273
 30
0.0
 10
119.3476816745417
 20
-28.44803907366851
 30
0.0
 10
119.4253467637671
 20
-28.44590595822869
 30
0.0
 10
119.4748496396131
 20
-28.4529658580583
 30
0.0
 10
119.5247697215415
 20
-28.44129825792069
 30
0.0
 10
119.5126300981657
 20
-28.48949742356892
 30
0.0
 10
119.520894069392
 20
-28.53240757927049
 30
0.0
 10
119.5126301115559
 20
-28.575317758769
 30
0.0
 10
119.524769701463
 20
-28.62351688973419
 30
0.0
 10
119.4748497623522
 20
-28.61184943256774
 30
0.0
 10
119.4253453115978
 20
-28.61890775293239
 30
0.0
 10
119.3476886847748
 20
-28.61678312499682
 30
0.0
 10
119.2697746330535
 20
-28.61436588362524
 30
0.0
 10
119.2207602817491
 20
-28.62198129533799
 30
0.0
 10
119.1716348573718
 20
-28.60982025170692
 30
0.0
 10
119.1818662453345
 20
-28.65416964304126
 30
0.0
 10
119.1759780142828
 20
-28.69564541525374
 30
0.0
 10
119.1781890770344
 20
-28.7557458341298
 30
0.0
 10
119.177721181092
 20
-28.80264194965395
 30
0.0
 10
119.1777489457688
 20
-28.82839831310087
 30
0.0
 10
119.1777571493428
 20
-28.83600814540564
 30
0.0
 11
119.1777571493428
 21
-28.83600814540564
 31
0.0
 11
119.2420079999259
 21
-28.91964978094027
 31
0.0
 11
119.3251361300274
 21
-29.03371087980063
 31
0.0
 11
119.4119934033671
 21
-29.15598210532561
 31
0.0
 11
119.4874316836648
 21
-29.26425412085408
 31
0.0
 11
119.5363028346402
 21
-29.33631758972494
 31
0.0
 11
119.5199923749869
 21
-29.35848195603884
 31
0.0
 11
119.4841093637495
 21
-29.40724356192944
 31
0.0
 11
119.4482263525122
 21
-29.45600516782005
 31
0.0
 11
119.4319158928589
 21
-29.47816953413395
 31
0.0
 11
119.3666169574222
 21
-29.35773838704471
 31
0.0
 11
119.275153670801
 21
-29.20522994058077
 31
0.0
 11
119.1777571493428
 21
-29.05270189535142
 31
0.0
 11
119.1777571493428
 21
-29.08273532400031
 31
0.0
 11
119.1777571493428
 21
-29.16508504771501
 31
0.0
 11
119.1777571493428
 21
-29.28812522314756
 31
0.0
 11
119.1777571493428
 21
-29.44023000695001
 31
0.0
 11
119.1777571493428
 21
-29.60977355577439
 31
0.0
 11
119.1777571493428
 21
-29.78513002627275
 31
0.0
 11
119.1777571493428
 21
-29.95467357509713
 31
0.0
 11
119.1777571493428
 21
-30.10677835889958
 31
0.0
 11
119.1777571493428
 21
-30.22981853433213
 31
0.0
 11
119.1777571493428
 21
-30.31216825804683
 31
0.0
 11
119.1777571493428
 21
-30.34220168669572
 31
0.0
 11
119.1510039165184
 21
-30.34220168669572
 31
0.0
 11
119.0921468043047
 21
-30.34220168669572
 31
0.0
 11
119.033289692091
 21
-30.34220168669572
 31
0.0
 11
119.0065364592666
 21
-30.34220168669572
 31
0.0
 11
119.0065364592666
 21
-30.31625172697034
 31
0.0
 11
119.0065364592666
 21
-30.24450772067076
 31
0.0
 11
119.0065364592666
 21
-30.13612847711182
 31
0.0
 11
119.0065364592666
 21
-30.00027280560837
 31
0.0
 11
119.0065364592666
 21
-29.84609951547523
 31
0.0
 11
119.0065364592666
 21
-29.68276741602725
 31
0.0
 11
119.0065364592666
 21
-29.51943531657928
 31
0.0
 11
119.0065364592666
 21
-29.36526202644614
 31
0.0
 11
119.0065364592666
 21
-29.22940635494269
 31
0.0
 11
119.0065364592666
 21
-29.12102711138375
 31
0.0
 11
119.0065364592666
 21
-29.04928310508417
 31
0.0
 11
119.0065364592666
 21
-29.02333314535879
 31
0.0
 11
118.9282968326497
 21
-29.25524374425912
 31
0.0
 11
118.8400213254079
 21
-29.47412361399606
 31
0.0
 11
118.7447209394821
 21
-29.66890986394738
 31
0.0
 11
118.6454066768132
 21
-29.82853960349083
 31
0.0
 11
118.6012300807182
 21
-29.74667531531685
 31
0.0
 11
118.5491159848256
 21
-29.67075092297473
 31
0.0
 11
118.6530405055075
 21
-29.50849889801527
 31
0.0
 11
118.7532422329511
 21
-29.30938512306503
 31
0.0
 11
118.8453549072677
 21
-29.08599529812088
 31
0.0
 11
118.9250122685688
 21
-28.85091512317965
 31
0.0
 11
118.9878480569656
 21
-28.6167302982382
 31
0.0
 11
118.9597068436918
 21
-28.6167302982382
 31
0.0
 11
118.8893538105073
 21
-28.6167302982382
 31
0.0
 11
118.7978948673674
 21
-28.6167302982382
 31
0.0
 11
118.7064359242275
 21
-28.6167302982382
 31
0.0
 11
118.636082891043
 21
-28.6167302982382
 31
0.0
 11
118.6079416777692
 21
-28.6167302982382
 31
0.0
 11
118.6079416777692
 21
-28.59037945189063
 31
0.0
 11
118.6079416777692
 21
-28.53240758992596
 31
0.0
 11
118.6079416777692
 21
-28.4744357279613
 31
0.0
 11
118.6079416777692
 21
-28.44808488161372
 31
0.0
 11
118.6300212720795
 21
-28.44808488161372
 31
0.0
 11
118.686963383722
 21
-28.44808488161372
 31
0.0
 11
118.7648230057638
 21
-28.44808488161372
 31
0.0
 11
118.849655131272
 21
-28.44808488161372
 31
0.0
 11
118.9275147533138
 21
-28.44808488161372
 31
0.0
 11
118.9844568649562
 21
-28.44808488161372
 31
0.0
 11
119.0065364592666
 21
-28.44808488161372
 31
0.0
 11
119.0065364592666
 21
-28.42279381553931
 31
0.0
 11
119.0065364592666
 21
-28.35611736861587
 31
0.0
 11
119.0065364592666
 21
-28.26185066779307
 31
0.0
 11
119.0065364592666
 21
-28.1537888400206
 31
0.0
 11
119.0065364592666
 21
-28.04572701224813
 31
0.0
 11
119.0065364592666
 21
-27.95146031142533
 31
0.0
 11
119.0065364592666
 21
-27.88478386450189
 31
0.0
 11
119.0065364592666
 21
-27.85949279842748
 31
0.0
 11
119.0296284453442
 21
-27.86116764620484
 31
0.0
 11
119.084693950606
 21
-27.86516151398162
 31
0.0
 11
119.150417295596
 21
-27.86992838842488
 31
0.0
 11
119.2054828008579
 21
-27.87392225620167
 31
0.0
 11
119.2285747869354
 21
-27.87559710397903
 31
0.0
 11
119.2152115109137
 21
-27.89700299807093
 31
0.0
 11
119.1777571493428
 21
-27.91039863174815
 31
0.0
 11
119.1777571493428
 21
-27.93350233779707
 31
0.0
 11
119.1777571493428
 21
-27.99441210828965
 31
0.0
 11
119.1777571493428
 21
-28.08052592174468
 31
0.0
 11
119.1777571493428
 21
-28.17924175668093
 31
0.0
 11
119.1777571493428
 21
-28.27795759161719
 31
0.0
 11
119.1777571493428
 21
-28.36407140507222
 31
0.0
 11
119.1777571493428
 21
-28.42498117556481
 31
0.0
 11
119.1777571493428
 21
-28.44808488161372
 31
0.0
 11
119.2029253069584
 21
-28.44808488161372
 31
0.0
 11
119.2658457009974
 21
-28.44808488161372
 31
0.0
 11
119.3476422132481
 21
-28.44808488161372
 31
0.0
 11
119.4294387254988
 21
-28.44808488161372
 31
0.0
 11
119.4923591195378
 21
-28.44808488161372
 31
0.0
 11
119.5175272771534
 21
-28.44808488161372
 31
0.0
 11
119.5175272771534
 21
-28.4744357279613
 31
0.0
 11
119.5175272771534
 21
-28.53240758992596
 31
0.0
 11
119.5175272771534
 21
-28.59037945189063
 31
0.0
 11
119.5175272771534
 21
-28.6167302982382
 31
0.0
 11
119.4923591195378
 21
-28.6167302982382
 31
0.0
 11
119.4294387254988
 21
-28.6167302982382
 31
0.0
 11
119.3476422132481
 21
-28.6167302982382
 31
0.0
 11
119.2658457009974
 21
-28.6167302982382
 31
0.0
 11
119.2029253069584
 21
-28.6167302982382
 31
0.0
 11
119.1777571493428
 21
-28.6167302982382
 31
0.0
 11
119.1777571493428
 21
-28.63953519434362
 31
0.0
 11
119.1777571493428
 21
-28.69391610044114
 31
0.0
 11
119.1777571493428
 21
-28.7588223432027
 31
0.0
 11
119.1777571493428
 21
-28.81320324930023
 31
0.0
 11
119.1777571493428
 21
-28.83600814540564
 31
0.0
  0
SPLINE
  5
AB
102
{ACAD_REACTORS
330
C8
102
}
330
48
100
AcDbEntity
  8
_U_30EC_U_30A4_U_30E4_U_30FC_1
  6
Continuous
 62
     2
100
AcDbSpline
210
0.0
220
0.0
230
1.0
 70
    11
 71
     3
 72
    47
 73
    43
 74
    41
 42
0.000000001
 43
0.0000000001
 44
0.00000001
 40
0.0
 40
0.0
 40
0.0
 40
0.0
 40
0.2207912809957242
 40
0.4459404186303073
 40
0.4902387190459427
 40
0.5327473892722376
 40
0.5742260451225563
 40
0.615543263055972
 40
0.656816406631535
 40
0.6982511618780698
 40
0.7407663929316775
 40
0.7851366743175403
 40
1.01028883383634
 40
1.231080507002193
 40
1.451765243652425
 40
1.676638205891705
 40
1.720461045359676
 40
1.830018144043541
 40
1.972442372353167
 40
2.114866600677543
 40
2.224423699395163
 40
2.268246538883402
 40
2.493628801207234
 40
2.715602830286626
 40
2.934211330706392
 40
3.149502369855394
 40
3.231387784851069
 40
3.318231873854204
 40
3.405143198198177
 40
3.486970301720516
 40
3.702258172493965
 40
3.920866283534208
 40
4.142839325931993
 40
4.368221903865449
 40
4.412044743359931
 40
4.521601842095939
 40
4.664026070452421
 40
4.806450298809131
 40
4.916007397546823
 40
4.959830237043149
 40
5.184703515847178
 40
5.405387250767555
 40
5.405387250767555
 40
5.405387250767555
 40
5.405387250767555
 10
116.5410529723421
 20
-28.37083536774412
 30
0.0
 10
116.5471241884779
 20
-28.30731495227074
 30
0.0
 10
116.5593864572019
 20
-28.17902039038656
 30
0.0
 10
116.4507809344188
 20
-27.90323757554209
 30
0.0
 10
116.566508836138
 20
-27.9330184429623
 30
0.0
 10
116.6074944973791
 20
-27.93724421465463
 30
0.0
 10
116.6494308262293
 20
-27.94179531338678
 30
0.0
 10
116.6907299090485
 20
-27.942879947988
 30
0.0
 10
116.7320134580331
 20
-27.94179639533056
 30
0.0
 10
116.7739250735422
 20
-27.9372386501694
 30
0.0
 10
116.8149086013794
 20
-27.93302547518554
 30
0.0
 10
116.9308025308265
 20
-27.90312366410751
 30
0.0
 10
116.8198755192232
 20
-28.18150171118393
 30
0.0
 10
116.8477958830043
 20
-28.36206836903333
 30
0.0
 10
116.8307369811745
 20
-28.59528935381811
 30
0.0
 10
116.8317739746878
 20
-28.7558335518514
 30
0.0
 10
116.8317201864181
 20
-28.88205160169562
 30
0.0
 10
116.8317379837256
 20
-28.98061014392043
 30
0.0
 10
116.8317291045856
 20
-29.11209275285321
 30
0.0
 10
116.8317366392809
 20
-29.24357132759635
 30
0.0
 10
116.8317231869904
 20
-29.34213755034193
 30
0.0
 10
116.8317634182268
 20
-29.46850242104133
 30
0.0
 10
116.8309848868594
 20
-29.63007908905414
 30
0.0
 10
116.8469060784043
 20
-29.8612815583537
 30
0.0
 10
116.8236571350183
 20
-30.04615625756282
 30
0.0
 10
116.9263285909142
 20
-30.31554374958233
 30
0.0
 10
116.7723340827611
 20
-30.27829865042465
 30
0.0
 10
116.6907232267607
 20
-30.28351983047749
 30
0.0
 10
116.6091294757358
 20
-30.27829357349932
 30
0.0
 10
116.4551616131618
 20
-30.31552907842899
 30
0.0
 10
116.5577285886693
 20
-30.04614847865403
 30
0.0
 10
116.5345147780864
 20
-29.8612839240287
 30
0.0
 10
116.5503547119914
 20
-29.63007759162646
 30
0.0
 10
116.5496398778203
 20
-29.46850265419781
 30
0.0
 10
116.5496767034682
 20
-29.34213746517764
 30
0.0
 10
116.5496651465046
 20
-29.24357221092302
 30
0.0
 10
116.549667748399
 20
-29.11208850311065
 30
0.0
 10
116.5496750996555
 20
-28.98062429697086
 30
0.0
 10
116.5496545006127
 20
-28.88202191452958
 30
0.0
 10
116.5497184656804
 20
-28.75593828373859
 30
0.0
 10
116.5484836412366
 20
-28.59279886344513
 30
0.0
 10
116.5435142861521
 20
-28.44435793950734
 30
0.0
 10
116.5410529723421
 20
-28.37083536774412
 30
0.0
 11
116.5410529723421
 21
-28.37083536774412
 31
0.0
 11
116.5320430665155
 21
-28.15022798932707
 31
0.0
 11
116.5221872170922
 21
-27.92529467341105
 31
0.0
 11
116.5660088305577
 21
-27.93177586264556
 31
0.0
 11
116.6081503398991
 21
-27.93735085396359
 31
0.0
 11
116.6494473874566
 21
-27.94122810222653
 31
0.0
 11
116.690744435014
 21
-27.94251904840677
 31
0.0
 11
116.7319973853506
 21
-27.94122810222653
 31
0.0
 11
116.7732503356873
 21
-27.93735085396359
 31
0.0
 11
116.8153984596118
 21
-27.93177586264556
 31
0.0
 11
116.8592928334921
 21
-27.92529467341105
 31
0.0
 11
116.8493680158667
 21
-28.15022798932707
 31
0.0
 11
116.8403486673086
 21
-28.37083536774412
 31
0.0
 11
116.8338740928211
 21
-28.5914251072723
 31
0.0
 11
116.8317320703062
 21
-28.81628786763277
 31
0.0
 11
116.8317320703062
 21
-28.86011070712799
 31
0.0
 11
116.8317320703062
 21
-28.96966780586602
 31
0.0
 11
116.8317320703062
 21
-29.11209203422547
 31
0.0
 11
116.8317320703062
 21
-29.25451626258492
 31
0.0
 11
116.8317320703062
 21
-29.36407336132295
 31
0.0
 11
116.8317320703062
 21
-29.40789620081817
 31
0.0
 11
116.8338740928211
 21
-29.63326828409517
 31
0.0
 11
116.8403486673086
 21
-29.85514786737303
 31
0.0
 11
116.8493680158667
 21
-30.07357022842955
 31
0.0
 11
116.8592928334921
 21
-30.28863238115358
 31
0.0
 11
116.7775718633546
 21
-30.28344544539098
 31
0.0
 11
116.690744435014
 21
-30.28174439504421
 31
0.0
 11
116.6038497584114
 21
-30.28344544539098
 31
0.0
 11
116.5221872170922
 21
-30.28863238115358
 31
0.0
 11
116.5320430665155
 21
-30.07357022842955
 31
0.0
 11
116.5410529723421
 21
-29.85514786737303
 31
0.0
 11
116.5474936303574
 21
-29.63326828409517
 31
0.0
 11
116.5496686052799
 21
-29.40789620081817
 31
0.0
 11
116.5496686052799
 21
-29.36407336132295
 31
0.0
 11
116.5496686052799
 21
-29.25451626258492
 31
0.0
 11
116.5496686052799
 21
-29.11209203422547
 31
0.0
 11
116.5496686052799
 21
-28.96966780586602
 31
0.0
 11
116.5496686052799
 21
-28.86011070712799
 31
0.0
 11
116.5496686052799
 21
-28.81628786763277
 31
0.0
 11
116.5474936303574
 21
-28.5914251072723
 31
0.0
 11
116.5410529723421
 21
-28.37083536774412
 31
0.0
  0
SPLINE
  5
AC
102
{ACAD_REACTORS
330
C9
102
}
330
48
100
AcDbEntity
  8
_U_30EC_U_30A4_U_30E4_U_30FC_1
  6
Continuous
 62
     2
100
AcDbSpline
210
0.0
220
0.0
230
1.0
 70
    11
 71
     3
 72
   110
 73
   106
 74
   104
 42
0.000000001
 43
0.0000000001
 44
0.00000001
 40
0.0
 40
0.0
 40
0.0
 40
0.0
 40
0.2203406257277673
 40
0.4407808782838043
 40
0.5952494494614453
 40
0.7488431659392882
 40
0.9023581831308726
 40
1.056801968670414
 40
1.210736449099857
 40
1.363041386539778
 40
1.515315729683107
 40
1.669377239147958
 40
1.721611652756429
 40
1.773199502942812
 40
1.824933793209862
 40
1.877110426487819
 40
1.982682281206539
 40
2.078781667087377
 40
2.172809640822055
 40
2.271937807378681
 40
2.37834993337913
 40
2.494131557736262
 40
2.626681683943382
 40
2.783145050795809
 40
2.890701232940666
 40
2.993130312454561
 40
3.099869730691546
 40
3.220237816691039
 40
3.352695482737332
 40
3.48173280638958
 40
3.593499473690116
 40
3.674323013331628
 40
3.81795171195262
 40
3.946167120793688
 40
4.061405053453374
 40
4.166480796003029
 40
4.262478775059109
 40
4.350736673551023
 40
4.433071991253851
 40
4.511216293814511
 40
4.564262454117839
 40
4.61847441557145
 40
4.670128488754054
 40
4.72229687912626
 40
4.819540945314157
 40
4.93119498412797
 40
5.049996040257654
 40
5.168643755415285
 40
5.283970811762483
 40
5.392260784910309
 40
5.486512254876312
 40
5.559178233949811
 40
5.591425852853482
 40
5.626215969637853
 40
5.667155838674395
 40
5.717449290214203
 40
5.738402360944816
 40
5.784499116553787
 40
5.830595872164759
 40
5.851548942897621
 40
5.873019280661739
 40
5.924217778408279
 40
5.985325662817656
 40
6.036524160567675
 40
6.057994498334205
 40
6.236847789607451
 40
6.381409928945627
 40
6.493190424178652
 40
6.574067534230469
 40
6.691018086205549
 40
6.814881554220481
 40
6.944307823240377
 40
7.071266716066072
 40
7.193488604461845
 40
7.309042773128115
 40
7.41400720317074
 40
7.50514044188651
 40
7.531150360599674
 40
7.559221645322252
 40
7.587202218920915
 40
7.612569159499127
 40
7.662550809481003
 40
7.702878875764153
 40
7.857328205230968
 40
8.010799568088585
 40
8.165256399657592
 40
8.322232698714002
 40
8.479564855016632
 40
8.63521623029092
 40
8.790882550925753
 40
8.948305154947276
 40
9.168271839032968
 40
9.387358980987232
 40
9.608047961033478
 40
9.832914234792689
 40
9.85833869496302
 40
9.925366817230032
 40
10.02013071422762
 40
10.12876249859
 40
10.2373942829525
 40
10.33215817995192
 40
10.39918630222396
 40
10.42461076239785
 40
10.64992019336944
 40
10.8718852453119
 40
10.8718852453119
 40
10.8718852453119
 40
10.8718852453119
 10
113.7960890841393
 20
-28.36566717330094
 30
0.0
 10
113.7995967398316
 20
-28.2987351565448
 30
0.0
 10
113.8066136452438
 20
-28.16484085812426
 30
0.0
 10
113.7101130063849
 20
-27.87941422756816
 30
0.0
 10
113.9413237190884
 20
-27.94205591538001
 30
0.0
 10
114.0822392521931
 20
-27.93488423672292
 30
0.0
 10
114.2393520222364
 20
-27.94254094650039
 30
0.0
 10
114.3929015892063
 20
-27.94237225445245
 30
0.0
 10
114.5448207399856
 20
-27.94307937192851
 30
0.0
 10
114.7045317278007
 20
-27.93279819376645
 30
0.0
 10
114.8312075065893
 20
-27.94993466647534
 30
0.0
 10
115.0273923586854
 20
-27.8776271762114
 30
0.0
 10
114.9937497743854
 20
-27.97849278648168
 30
0.0
 10
114.9955113781959
 20
-28.02870723780613
 30
0.0
 10
114.9930444538235
 20
-28.07777642141817
 30
0.0
 10
115.0250179430785
 20
-28.16426486881284
 30
0.0
 10
114.8913502368031
 20
-28.11492539119947
 30
0.0
 10
114.8075311152832
 20
-28.12059343414116
 30
0.0
 10
114.7076963604099
 20
-28.11024461021986
 30
0.0
 10
114.6089679184921
 20
-28.10403527317197
 30
0.0
 10
114.5024635235886
 20
-28.09792213911508
 30
0.0
 10
114.3813614162835
 20
-28.08901094243699
 30
0.0
 10
114.2606483967229
 20
-28.099683718159
 30
0.0
 10
114.0715656308213
 20
-28.04021474647917
 30
0.0
 10
114.1032130970087
 20
-28.19931657650744
 30
0.0
 10
114.0898665781609
 20
-28.2965084938838
 30
0.0
 10
114.0878060891226
 20
-28.40855912618181
 30
0.0
 10
114.0861290509445
 20
-28.52790292098933
 30
0.0
 10
114.0876439259008
 20
-28.65457385573175
 30
0.0
 10
114.0859684943446
 20
-28.78188389712166
 30
0.0
 10
114.0961946736434
 20
-28.88038411323821
 30
0.0
 10
114.0682109061357
 20
-29.02101275102655
 30
0.0
 10
114.241113246408
 20
-28.96500426594187
 30
0.0
 10
114.3548122667547
 20
-28.97770026249788
 30
0.0
 10
114.4743254137015
 20
-28.97041600677029
 30
0.0
 10
114.5791593889848
 20
-28.96611960671528
 30
0.0
 10
114.6746187363388
 20
-28.96159409469308
 30
0.0
 10
114.7666925971808
 20
-28.95340776582083
 30
0.0
 10
114.8379654247215
 20
-28.95846127090172
 30
0.0
 10
114.9448034170461
 20
-28.91953552696609
 30
0.0
 10
114.9129706062811
 20
-28.99972855722404
 30
0.0
 10
114.9169266968705
 20
-29.04927040882249
 30
0.0
 10
114.9137604856788
 20
-29.09932499688466
 30
0.0
 10
114.9453893955361
 20
-29.1836113011626
 30
0.0
 10
114.8113236142467
 20
-29.13064612233127
 30
0.0
 10
114.7195425257976
 20
-29.13949896837842
 30
0.0
 10
114.5982831654378
 20
-29.1291992776313
 30
0.0
 10
114.4817215584547
 20
-29.12741065960782
 30
0.0
 10
114.3686478210654
 20
-29.12702960618589
 30
0.0
 10
114.2582348773246
 20
-29.12074528256107
 30
0.0
 10
114.1801226532615
 20
-29.13300844472917
 30
0.0
 10
114.0816728298419
 20
-29.10036090112155
 30
0.0
 10
114.0915457638336
 20
-29.15720229674078
 30
0.0
 10
114.0877025709179
 20
-29.190978471703
 30
0.0
 10
114.0869892349043
 20
-29.23370373018872
 30
0.0
 10
114.086647210775
 20
-29.27088370466129
 30
0.0
 10
114.0866936720121
 20
-29.31002740357513
 30
0.0
 10
114.0866751894702
 20
-29.34773128230596
 30
0.0
 10
114.0866805896582
 20
-29.38545022495882
 30
0.0
 10
114.0866799678975
 20
-29.41495652983134
 30
0.0
 10
114.086680061632
 20
-29.44616400028984
 30
0.0
 10
114.0866806752695
 20
-29.49075552820199
 30
0.0
 10
114.0866773964112
 20
-29.54526021219433
 30
0.0
 10
114.0866862088256
 20
-29.58984437526836
 30
0.0
 10
114.0866462118192
 20
-29.67372169142544
 30
0.0
 10
114.087912673503
 20
-29.78752457050606
 30
0.0
 10
114.0853376582618
 20
-29.93659581794574
 30
0.0
 10
114.0968111846495
 20
-30.03892773914379
 30
0.0
 10
114.0726608687039
 20
-30.1715107384245
 30
0.0
 10
114.2236096411252
 20
-30.12594245456264
 30
0.0
 10
114.3331539136331
 20
-30.14062965565934
 30
0.0
 10
114.4637072938696
 20
-30.13569542603221
 30
0.0
 10
114.5893414674289
 20
-30.13232272404921
 30
0.0
 10
114.7091833090377
 20
-30.12778480229512
 30
0.0
 10
114.8294465076202
 20
-30.11441441546279
 30
0.0
 10
114.912586412829
 20
-30.12421264945687
 30
0.0
 10
115.0359182885851
 20
-30.06363763104966
 30
0.0
 10
115.0147371668732
 20
-30.11957517594263
 30
0.0
 10
115.0139052734893
 20
-30.14550728355939
 30
0.0
 10
115.0122066172334
 20
-30.17292721537345
 30
0.0
 10
115.0121077353605
 20
-30.207517825219
 30
0.0
 10
115.0106761766105
 20
-30.24439569507516
 30
0.0
 10
115.0435906656966
 20
-30.3364313670648
 30
0.0
 10
114.8454409452883
 20
-30.26357961753452
 30
0.0
 10
114.7203650759667
 20
-30.28664251219677
 30
0.0
 10
114.5576173759932
 20
-30.28035955742498
 30
0.0
 10
114.4032468914776
 20
-30.28229033818356
 30
0.0
 10
114.2469772901719
 20
-30.28096215129015
 30
0.0
 10
114.0873646930057
 20
-30.28430105240421
 30
0.0
 10
113.9443428807012
 20
-30.27224182000044
 30
0.0
 10
113.7100247346404
 20
-30.33537975751366
 30
0.0
 10
113.8076913215973
 20
-30.04869450261967
 30
0.0
 10
113.7909971244833
 20
-29.85501669585624
 30
0.0
 10
113.804939917446
 20
-29.6264173484799
 30
0.0
 10
113.8046090311409
 20
-29.47105383773236
 30
0.0
 10
113.8046180584039
 20
-29.36523641284158
 30
0.0
 10
113.8046158341092
 20
-29.3028419360407
 30
0.0
 10
113.8046168016665
 20
-29.21269552479956
 30
0.0
 10
113.8046167938037
 20
-29.10868810570847
 30
0.0
 10
113.8046156325879
 20
-29.00467846352988
 30
0.0
 10
113.8046193436278
 20
-28.91453734039516
 30
0.0
 10
113.8046113515827
 20
-28.85213174631069
 30
0.0
 10
113.8046436739794
 20
-28.74621141767166
 30
0.0
 10
113.8034543253095
 20
-28.58863261183544
 30
0.0
 10
113.7985318954031
 20
-28.43961757906219
 30
0.0
 10
113.7960890841393
 20
-28.36566717330094
 30
0.0
 11
113.7960890841393
 21
-28.36566717330094
 31
0.0
 11
113.7870020688516
 21
-28.14551399627267
 31
0.0
 11
113.7771352037909
 21
-27.92529467341105
 31
0.0
 11
113.9314677606176
 21
-27.93177586264556
 31
0.0
 11
114.0849602653822
 21
-27.93735085396359
 31
0.0
 11
114.2384263118142
 21
-27.94122810222653
 31
0.0
 11
114.3928647019715
 21
-27.94251904840677
 31
0.0
 11
114.5467937692249
 21
-27.94122810222653
 31
0.0
 11
114.6990493469376
 21
-27.93735085396359
 31
0.0
 11
114.8512216015849
 21
-27.93177586264556
 31
0.0
 11
115.0051467227258
 21
-27.92529467341105
 31
0.0
 11
114.9973914167899
 21
-27.97695015950926
 31
0.0
 11
114.9948094088367
 21
-28.0284733539408
 31
0.0
 11
114.99739141679
 21
-28.08014317163624
 31
0.0
 11
115.0051467227258
 21
-28.13174022891499
 31
0.0
 11
114.8997976519186
 21
-28.12488531572227
 31
0.0
 11
114.8039478164835
 21
-28.11796425669627
 31
0.0
 11
114.7101695636679
 21
-28.11111595808686
 31
0.0
 11
114.6112782380657
 21
-28.10426765947744
 31
0.0
 11
114.5050634664699
 21
-28.0977897775346
 31
0.0
 11
114.3894162992814
 21
-28.0922114789249
 31
0.0
 11
114.2569228912034
 21
-28.08833423066196
 31
0.0
 11
114.1004648483199
 21
-28.08704328448172
 31
0.0
 11
114.0965765758497
 21
-28.19452916119097
 31
0.0
 11
114.0918482513175
 21
-28.29684904831819
 31
0.0
 11
114.0879710031525
 21
-28.40351802398597
 31
0.0
 11
114.0866800570047
 21
-28.52387918715034
 31
0.0
 11
114.0870901611611
 21
-28.65633621836719
 31
0.0
 11
114.0883998486278
 21
-28.78536689541829
 31
0.0
 11
114.0897177041825
 21
-28.89712579295976
 31
0.0
 11
114.0901293618435
 21
-28.977948284259
 31
0.0
 11
114.2337555400649
 21
-28.97709720787034
 31
0.0
 11
114.3619446395534
 21
-28.97449988148208
 31
0.0
 11
114.4771180686571
 21
-28.9706446818303
 31
0.0
 11
114.5820858776996
 21
-28.96588328426208
 31
0.0
 11
114.6779448754197
 21
-28.96071949954109
 31
0.0
 11
114.7660515838969
 21
-28.95555571482016
 31
0.0
 11
114.8481983903272
 21
-28.94998733808545
 31
0.0
 11
114.9260794800347
 21
-28.9435789092676
 31
0.0
 11
114.9183282909961
 21
-28.99605570612948
 31
0.0
 11
114.9157430914092
 21
-29.05020599257426
 31
0.0
 11
114.9183282909961
 21
-29.10179533283917
 31
0.0
 11
114.9260794800347
 21
-29.15338467310401
 31
0.0
 11
114.829291591879
 21
-29.14397653074527
 31
0.0
 11
114.7179053186791
 21
-29.13624849255272
 31
0.0
 11
114.5992363894149
 21
-29.13064704290139
 31
0.0
 11
114.4806269913988
 21
-29.12763189533273
 31
0.0
 11
114.3653127582296
 21
-29.12591210366645
 31
0.0
 11
114.2570364415475
 21
-29.12419231200028
 31
0.0
 11
114.1627941782484
 21
-29.12287490748667
 31
0.0
 11
114.0901293618435
 21
-29.12246370088955
 31
0.0
 11
114.0897177041825
 21
-29.15470869220093
 31
0.0
 11
114.0883998486278
 21
-29.18947383976166
 31
0.0
 11
114.0870901611611
 21
-29.23039275468199
 31
0.0
 11
114.0866800570047
 21
-29.28068453418332
 31
0.0
 11
114.0866800570047
 21
-29.30163760492461
 31
0.0
 11
114.0866800570047
 21
-29.34773436055547
 31
0.0
 11
114.0866800570047
 21
-29.39383111618633
 31
0.0
 11
114.0866800570047
 21
-29.41478418692763
 31
0.0
 11
114.0866800570047
 21
-29.43625452470004
 31
0.0
 11
114.0866800570047
 21
-29.487453022465
 31
0.0
 11
114.0866800570047
 21
-29.54856090689416
 31
0.0
 11
114.0866800570047
 21
-29.59975940465914
 31
0.0
 11
114.0866800570047
 21
-29.62122974243154
 31
0.0
 11
114.0870901611611
 21
-29.80008256356736
 31
0.0
 11
114.0883998486278
 21
-29.94463877012842
 31
0.0
 11
114.0905971054484
 21
-30.05639766766995
 31
0.0
 11
114.0935689451761
 21
-30.13722015896919
 31
0.0
 11
114.2105194982223
 21
-30.13722015896919
 31
0.0
 11
114.3343829673522
 21
-30.13722015896919
 31
0.0
 11
114.4638027991197
 21
-30.13592921278894
 31
0.0
 11
114.590702474702
 21
-30.13205196452601
 31
0.0
 11
114.7127760532749
 21
-30.12603269369419
 31
0.0
 11
114.8280689964239
 21
-30.11826717286282
 31
0.0
 11
114.9324857038294
 21
-30.10755816244882
 31
0.0
 11
115.0223701720224
 21
-30.09252321453592
 31
0.0
 11
115.0167356495967
 21
-30.11791549751569
 31
0.0
 11
115.0137535750199
 21
-30.14582793674482
 31
0.0
 11
115.0124442345975
 21
-30.17377785861282
 31
0.0
 11
115.012033783397
 21
-30.19914147839812
 31
0.0
 11
115.014618982984
 21
-30.24905622664958
 31
0.0
 11
115.0223701720224
 21
-30.28863238115358
 31
0.0
 11
114.868007964312
 21
-30.28344544539098
 31
0.0
 11
114.7145460283541
 21
-30.28174439504421
 31
0.0
 11
114.5600891961259
 21
-30.28174439504421
 31
0.0
 11
114.4031128961543
 21
-30.28174439504421
 31
0.0
 11
114.2457807386312
 21
-30.28174439504421
 31
0.0
 11
114.0901293618435
 21
-30.28174439504421
 31
0.0
 11
113.9344723339017
 21
-30.28344544539098
 31
0.0
 11
113.7771352037909
 21
-30.28863238115358
 31
0.0
 11
113.7870020688516
 21
-30.06888710343075
 31
0.0
 11
113.7960890841393
 21
-29.84998849237434
 31
0.0
 11
113.8024823983176
 21
-29.62939213826282
 31
0.0
 11
113.8046165919785
 21
-29.40453599248569
 31
0.0
 11
113.8046165919785
 21
-29.3791115323141
 31
0.0
 11
113.8046165919785
 21
-29.31208341004353
 31
0.0
 11
113.8046165919785
 21
-29.21731951304031
 31
0.0
 11
113.8046165919785
 21
-29.10868772867077
 31
0.0
 11
113.8046165919785
 21
-29.00005594430122
 31
0.0
 11
113.8046165919785
 21
-28.905292047298
 31
0.0
 11
113.8046165919785
 21
-28.83826392502744
 31
0.0
 11
113.8046165919785
 21
-28.81283946485584
 31
0.0
 11
113.8024823983176
 21
-28.58754014199549
 31
0.0
 11
113.7960890841393
 21
-28.36566717330094
 31
0.0
  0
SPLINE
  5
AD
102
{ACAD_REACTORS
330
CA
102
}
330
48
100
AcDbEntity
  8
_U_30EC_U_30A4_U_30E4_U_30FC_1
  6
Continuous
 62
     2
100
AcDbSpline
210
0.0
220
0.0
230
1.0
 70
    11
 71
     3
 72
    95
 73
    91
 74
    89
 42
0.000000001
 43
0.0000000001
 44
0.00000001
 40
0.0
 40
0.0
 40
0.0
 40
0.0
 40
0.6550406656911566
 40
1.308087289032011
 40
1.420803739835882
 40
1.56613075977087
 40
1.757067341888541
 40
2.006513545026554
 40
2.087328263121639
 40
2.18532887229571
 40
2.294612454748442
 40
2.408936380534894
 40
2.526802767798643
 40
2.646360524615686
 40
2.76253572397166
 40
2.87005734287023
 40
2.966883448431727
 40
3.050803243518375
 40
3.115818222436688
 40
3.15603005715034
 40
3.213914225080271
 40
3.276689026450658
 40
3.342960320981449
 40
3.404230667150685
 40
3.453822809493512
 40
3.532499827188551
 40
3.634775188507297
 40
3.754909333008297
 40
3.889736761660798
 40
4.035769602175357
 40
4.18725668119775
 40
4.338733685676086
 40
4.488478734676258
 40
4.634708317831722
 40
4.771493189921405
 40
4.892686571561342
 40
5.199775528944583
 40
5.460353566929771
 40
5.667603142345649
 40
5.814722905404626
 40
5.828990806219952
 40
5.855488336304607
 40
5.869756237118953
 40
6.189796507762929
 40
6.531890469873154
 40
6.883053637017118
 40
7.2305120249116
 40
7.566966656764714
 40
7.885203559707536
 40
8.172887439719359
 40
8.418011594062888
 40
8.443926721190804
 40
8.5107604706133
 40
8.602145393795807
 40
8.701714041647241
 40
8.793098965075478
 40
8.859932715058049
 40
8.885847842603697
 40
9.242301256612919
 40
9.589275455016866
 40
9.921808543164271
 40
10.23479624298478
 40
10.29968150889197
 40
10.35323493887787
 40
10.40154625355169
 40
10.46482922477843
 40
10.55973900668423
 40
10.69239545985635
 40
10.84920353475689
 40
11.01626328594797
 40
11.18672024367462
 40
11.35372582577229
 40
11.50257442292444
 40
11.61866495023309
 40
11.71329869152893
 40
11.82511050573926
 40
11.94464880845734
 40
12.06929242642524
 40
12.19707290435194
 40
12.32562632860547
 40
12.45034565331297
 40
12.56646595170346
 40
12.67099007414653
 40
12.760776259368
 40
12.82703233506712
 40
12.87429132786011
 40
12.89831990323352
 40
12.92234847860037
 40
13.53984767410339
 40
14.18294284359383
 40
14.18294284359383
 40
14.18294284359383
 40
14.18294284359383
 10
111.1971038112797
 20
-29.39591939526559
 30
0.0
 10
111.0655122223327
 20
-29.28224919125051
 30
0.0
 10
110.8027296267505
 20
-29.05525481412124
 30
0.0
 10
110.2900495905794
 20
-28.21275514771994
 30
0.0
 10
110.3009757060138
 20
-28.57066600151264
 30
0.0
 10
110.2944328992767
 20
-28.71222585456151
 30
0.0
 10
110.2931129096548
 20
-28.91068672429003
 30
0.0
 10
110.2921220067314
 20
-29.08339681682303
 30
0.0
 10
110.292720421675
 20
-29.22624604470704
 30
0.0
 10
110.2942096766657
 20
-29.32224972314927
 30
0.0
 10
110.2958786053248
 20
-29.42944474465142
 30
0.0
 10
110.2975037419394
 20
-29.54325766210702
 30
0.0
 10
110.2995531966462
 20
-29.66048405123695
 30
0.0
 10
110.3026267966701
 20
-29.77833566495315
 30
0.0
 10
110.3059442161819
 20
-29.89261890407663
 30
0.0
 10
110.3096707805055
 20
-29.99968575861006
 30
0.0
 10
110.31204406262
 20
-30.09482568961362
 30
0.0
 10
110.3181821353132
 20
-30.17931420522589
 30
0.0
 10
110.3142886960722
 20
-30.23566890430143
 30
0.0
 10
110.3358332907854
 20
-30.30664955255931
 30
0.0
 10
110.2584042523393
 20
-30.275873001238
 30
0.0
 10
110.2019455704967
 20
-30.2847873521067
 30
0.0
 10
110.1443598361583
 20
-30.27593759330008
 30
0.0
 10
110.0593265943249
 20
-30.30751752502341
 30
0.0
 10
110.0912816611158
 20
-30.22394821736094
 30
0.0
 10
110.0893807747315
 20
-30.15607368759975
 30
0.0
 10
110.1011062512075
 20
-30.05256720963866
 30
0.0
 10
110.1067343517776
 20
-29.93487852111589
 30
0.0
 10
110.1141004643716
 20
-29.8010136856386
 30
0.0
 10
110.1223862166385
 20
-29.65725824855651
 30
0.0
 10
110.1301954362203
 20
-29.5077595488484
 30
0.0
 10
110.1360673687432
 20
-29.35697428326205
 30
0.0
 10
110.1406770282744
 20
-29.20790033849846
 30
0.0
 10
110.1445734582319
 20
-29.06367064565263
 30
0.0
 10
110.1473817591339
 20
-28.92906072515267
 30
0.0
 10
110.1479801219798
 20
-28.7402036338093
 30
0.0
 10
110.1519126331926
 20
-28.51514483415131
 30
0.0
 10
110.1345277843274
 20
-28.24122886602576
 30
0.0
 10
110.1753519807358
 20
-28.07702865629686
 30
0.0
 10
110.0898255720778
 20
-27.87740316263191
 30
0.0
 10
110.1563661372464
 20
-27.88104519324305
 30
0.0
 10
110.1741826738006
 20
-27.8807653056743
 30
0.0
 10
110.2959904262278
 20
-27.87857050329671
 30
0.0
 10
110.3983872800237
 20
-28.15814859006774
 30
0.0
 10
110.6483123974132
 20
-28.35926969192278
 30
0.0
 10
110.8773137795886
 20
-28.62697362740369
 30
0.0
 10
111.1148253677885
 20
-28.87843563865909
 30
0.0
 10
111.3389193205548
 20
-29.11520003666924
 30
0.0
 10
111.5653818747785
 20
-29.37271285145206
 30
0.0
 10
111.722879035129
 20
-29.4884064267136
 30
0.0
 10
111.9375232077451
 20
-29.8249282518949
 30
0.0
 10
111.9325748439394
 20
-29.7002522363668
 30
0.0
 10
111.9337034067322
 20
-29.64162285792547
 30
0.0
 10
111.9331980306292
 20
-29.55446315356307
 30
0.0
 10
111.9333577622889
 20
-29.46073834545412
 30
0.0
 10
111.9333157356094
 20
-29.37471006431249
 30
0.0
 10
111.9333304505149
 20
-29.31336085782788
 30
0.0
 10
111.9332808720759
 20
-29.16354746207291
 30
0.0
 10
111.9361913987586
 20
-28.92500365218179
 30
0.0
 10
111.9162623505937
 20
-28.56003467859583
 30
0.0
 10
111.9653536401024
 20
-28.2969034573487
 30
0.0
 10
111.8081053973955
 20
-27.88561072780533
 30
0.0
 10
111.9665215337197
 20
-27.94091695176536
 30
0.0
 10
112.0214782943404
 20
-27.94290291228108
 30
0.0
 10
112.0730990231516
 20
-27.94225199480032
 30
0.0
 10
112.1616301430141
 20
-27.90120449990038
 30
0.0
 10
112.1108000767944
 20
-28.04793651105297
 30
0.0
 10
112.121649239506
 20
-28.15470005773851
 30
0.0
 10
112.1069139459622
 20
-28.3140427231417
 30
0.0
 10
112.1003078910981
 20
-28.4763691607541
 30
0.0
 10
112.0918063864691
 20
-28.64497455835889
 30
0.0
 10
112.0846329666975
 20
-28.80675163024744
 30
0.0
 10
112.0792165680164
 20
-28.95067646270351
 30
0.0
 10
112.0774816432424
 20
-29.07052484261359
 30
0.0
 10
112.0778543137095
 20
-29.1780387613777
 30
0.0
 10
112.0776758591038
 20
-29.28669953082698
 30
0.0
 10
112.0780113327916
 20
-29.40536407562754
 30
0.0
 10
112.0793143086958
 20
-29.52934814215542
 30
0.0
 10
112.081198981635
 20
-29.65631683557179
 30
0.0
 10
112.0828106919626
 20
-29.78336116177252
 30
0.0
 10
112.0844505602206
 20
-29.90635093236106
 30
0.0
 10
112.0865673210526
 20
-30.02189046344525
 30
0.0
 10
112.086695088714
 20
-30.12399073772448
 30
0.0
 10
112.0909616861329
 20
-30.21480128890127
 30
0.0
 10
112.0811542550065
 20
-30.27276356519499
 30
0.0
 10
112.1021577236465
 20
-30.33972847596256
 30
0.0
 10
112.0628742204672
 20
-30.33198823761596
 30
0.0
 10
111.8498409582523
 20
-30.34734723583093
 30
0.0
 10
111.6539400407962
 20
-29.79086919633815
 30
0.0
 10
111.351430009632
 20
-29.52933942379773
 30
0.0
 10
111.1971038112797
 20
-29.39591939526559
 30
0.0
 11
111.1971038112797
 21
-29.39591939526559
 31
0.0
 11
110.7498631803287
 21
-28.91732342316307
 31
0.0
 11
110.3027151535418
 21
-28.44137328439314
 31
0.0
 11
110.2992766727269
 21
-28.55403727742052
 31
0.0
 11
110.2958712648276
 21
-28.69932439543973
 31
0.0
 11
110.293273938505
 21
-28.89024331900316
 31
0.0
 11
110.2924228621379
 21
-29.13968807588528
 31
0.0
 11
110.2928341695065
 21
-29.22050174774004
 31
0.0
 11
110.2941522794592
 21
-29.31849349250723
 31
0.0
 11
110.2958294732493
 21
-29.42776420428545
 31
0.0
 11
110.2975469592294
 21
-29.54207522856245
 31
0.0
 11
110.2997110303548
 21
-29.65992174763018
 31
0.0
 11
110.3027151535418
 21
-29.77944175628085
 31
0.0
 11
110.3061462197914
 21
-29.89556627882127
 31
0.0
 11
110.3096031394774
 21
-30.00303231178054
 31
0.0
 11
110.3130187717863
 21
-30.09979815377019
 31
0.0
 11
110.3164999448568
 21
-30.18364571451312
 31
0.0
 11
110.3199108649088
 21
-30.24857115720524
 31
0.0
 11
110.3233879307924
 21
-30.28863238115358
 31
0.0
 11
110.2657366286347
 21
-30.28344544539098
 31
0.0
 11
110.2029848783085
 21
-30.28174439504421
 31
0.0
 11
110.1367354181933
 21
-30.28344544539098
 31
0.0
 11
110.0756850204451
 21
-30.28863238115358
 31
0.0
 11
110.0829875202588
 21
-30.23958083602694
 31
0.0
 11
110.091189603383
 21
-30.1613325200743
 31
0.0
 11
110.0993201287124
 21
-30.05938084475255
 31
0.0
 11
110.1066508906173
 21
-29.93947057568532
 31
0.0
 11
110.1139460745197
 21
-29.80484065384394
 31
0.0
 11
110.1221546720371
 21
-29.65903870075539
 31
0.0
 11
110.1298606614241
 21
-29.50774774593211
 31
0.0
 11
110.1358865466868
 21
-29.3563906452755
 31
0.0
 11
110.1406148712191
 21
-29.20672026336848
 31
0.0
 11
110.1445031436896
 21
-29.06054238146062
 31
0.0
 11
110.1470629873741
 21
-28.92378146135588
 31
0.0
 11
110.147942726935
 21
-28.80259127041394
 31
0.0
 11
110.1475028571545
 21
-28.4955026246574
 31
0.0
 11
110.1462229353123
 21
-28.23492772888919
 31
0.0
 11
110.1431761182668
 21
-28.02770055012159
 31
0.0
 11
110.1376151577539
 21
-27.88068592342222
 31
0.0
 11
110.1518830586245
 21
-27.88068592342222
 31
0.0
 11
110.1783805888128
 21
-27.88068592342222
 31
0.0
 11
110.1926484896834
 21
-27.88068592342222
 31
0.0
 11
110.4097846115053
 21
-28.11579798065511
 31
0.0
 11
110.6415846587855
 21
-28.36738696496722
 31
0.0
 11
110.8797918483615
 21
-28.62540422184713
 31
0.0
 11
111.1163177022297
 21
-28.87992897872795
 31
0.0
 11
111.3458801182481
 21
-29.12590218179146
 31
0.0
 11
111.5634899824879
 21
-29.35811043694177
 31
0.0
 11
111.7616827378483
 21
-29.56663297161185
 31
0.0
 11
111.9333245563862
 21
-29.74163279795695
 31
0.0
 11
111.9333245563862
 21
-29.71571767041241
 31
0.0
 11
111.9333245563862
 21
-29.64888392042912
 31
0.0
 11
111.9333245563862
 21
-29.55749899698259
 31
0.0
 11
111.9333245563862
 21
-29.45793034904831
 31
0.0
 11
111.9333245563862
 21
-29.36654542560177
 31
0.0
 11
111.9333245563862
 21
-29.29971167561849
 31
0.0
 11
111.9333245563862
 21
-29.27379654807395
 31
0.0
 11
111.9320336102385
 21
-28.91734547177416
 31
0.0
 11
111.9281563620734
 21
-28.57039293713869
 31
0.0
 11
111.9199300254778
 21
-28.23796161777732
 31
0.0
 11
111.9057637932003
 21
-27.92529467341105
 31
0.0
 11
111.9693453714394
 21
-27.9382361056995
 31
0.0
 11
112.0227272624387
 21
-27.94251904840677
 31
0.0
 11
112.0708483549609
 21
-27.9382361056995
 31
0.0
 11
112.1327939262973
 21
-27.92529467341105
 31
0.0
 11
112.125431895235
 21
-28.01991849283183
 31
0.0
 11
112.1172893433594
 21
-28.15232481224319
 31
0.0
 11
112.108680782878
 21
-28.30889640942627
 31
0.0
 11
112.1000649687991
 21
-28.47573383994013
 31
0.0
 11
112.0919290315065
 21
-28.64599652218924
 31
0.0
 11
112.0845603858611
 21
-28.81283946485584
 31
0.0
 11
112.0794509396298
 21
-28.96160034155474
 31
0.0
 11
112.077760594368
 21
-29.07767856201183
 31
0.0
 11
112.077760594368
 21
-29.17231230330766
 31
0.0
 11
112.077760594368
 21
-29.28412411751577
 31
0.0
 11
112.0781563669273
 21
-29.40366176505535
 31
0.0
 11
112.0793921915483
 21
-29.52829925634364
 31
0.0
 11
112.0811494658093
 21
-29.65606765040893
 31
0.0
 11
112.0828405942384
 21
-29.78460995072405
 31
0.0
 11
112.084597868499
 21
-29.90931689513729
 31
0.0
 11
112.086288996928
 21
-30.02542488121935
 31
0.0
 11
112.0875986843948
 21
-30.12994081001267
 31
0.0
 11
112.0880087885511
 21
-30.21972606172632
 31
0.0
 11
112.0880087885511
 21
-30.28598213809868
 31
0.0
 11
112.0880087885511
 21
-30.33324113114243
 31
0.0
 11
112.0639802127752
 21
-30.33324113114243
 31
0.0
 11
112.0399516369993
 21
-30.33324113114243
 31
0.0
 11
111.6313831665199
 21
-29.87023242466093
 31
0.0
 11
111.1971038112797
 21
-29.39591939526559
 31
0.0
  0
SPLINE
  5
AE
102
{ACAD_REACTORS
330
CB
102
}
330
48
100
AcDbEntity
  8
_U_30EC_U_30A4_U_30E4_U_30FC_1
  6
Continuous
 62
     2
100
AcDbSpline
210
0.0
220
0.0
230
1.0
 70
    11
 71
     3
 72
    25
 73
    21
 74
    19
 42
0.000000001
 43
0.0000000001
 44
0.00000001
 40
0.0
 40
0.0
 40
0.0
 40
0.0
 40
0.0911479969064537
 40
0.1858117896204669
 40
0.2804128399734775
 40
0.3715889190713658
 40
0.467908049421814
 40
0.5642683809229373
 40
0.6605683222644992
 40
0.75696530158104
 40
0.8561348172522998
 40
1.092615965104321
 40
1.374867658141905
 40
1.611348812011614
 40
1.710518328425267
 40
1.80940316372659
 40
2.045205463294103
 40
2.32664691762215
 40
2.562449217190621
 40
2.661334043833928
 40
2.661334043833928
 40
2.661334043833928
 40
2.661334043833928
 10
107.1586803031975
 20
-29.21875439530992
 30
0.0
 10
107.1890628382698
 20
-29.21891898013729
 30
0.0
 10
107.2509998353887
 20
-29.21925449038361
 30
0.0
 10
107.3444459425106
 20
-29.22220922276286
 30
0.0
 10
107.4378197701133
 20
-29.22512224851132
 30
0.0
 10
107.5320863218252
 20
-29.22595776084868
 30
0.0
 10
107.6258067255743
 20
-29.2249333307024
 30
0.0
 10
107.725514276798
 20
-29.22573000257311
 30
0.0
 10
107.8092052011088
 20
-29.21568567493065
 30
0.0
 10
107.9541098779822
 20
-29.24255360054119
 30
0.0
 10
107.8299234909576
 20
-29.06824447448236
 30
0.0
 10
107.7868969751057
 20
-28.90838266722191
 30
0.0
 10
107.6712024606985
 20
-28.64971519178071
 30
0.0
 10
107.5920667896033
 20
-28.51258924866424
 30
0.0
 10
107.5334679086592
 20
-28.29552944594208
 30
0.0
 10
107.4767906404214
 20
-28.51223843514855
 30
0.0
 10
107.3955912365253
 20
-28.65162965290048
 30
0.0
 10
107.2966803746264
 20
-28.9008300835809
 30
0.0
 10
107.2156727559035
 20
-29.08564147502209
 30
0.0
 10
107.1716785790614
 20
-29.18839530872168
 30
0.0
 10
107.1586803031975
 20
-29.21875439530992
 30
0.0
 11
107.1586803031975
 21
-29.21875439530992
 31
0.0
 11
107.2498240202596
 21
-29.21963854461524
 31
0.0
 11
107.3444530762357
 21
-29.22220279808686
 31
0.0
 11
107.4390184644482
 21
-29.22480012447507
 31
0.0
 11
107.5301905714971
 21
-29.22565120086374
 31
0.0
 11
107.6265088242481
 21
-29.22523999426663
 31
0.0
 11
107.7228601499152
 21
-29.22392258975313
 31
0.0
 11
107.8191365103062
 21
-29.22179159148972
 31
0.0
 11
107.9154856311119
 21
-29.21875439530992
 31
0.0
 11
107.8757735787917
 21
-29.12788335533264
 31
0.0
 11
107.7810756078744
 21
-28.91119087538682
 31
0.0
 11
107.6680489974246
 21
-28.65255791545149
 31
0.0
 11
107.5733510265073
 21
-28.43586543550567
 31
0.0
 11
107.5336389741871
 21
-28.34499439552839
 31
0.0
 11
107.4946432724042
 21
-28.43586543550567
 31
0.0
 11
107.4016535219988
 21
-28.65255791545149
 31
0.0
 11
107.2906657553858
 21
-28.91119087538682
 31
0.0
 11
107.1976760049804
 21
-29.12788335533264
 31
0.0
 11
107.1586803031975
 21
-29.21875439530992
 31
0.0
  0
SPLINE
  5
AF
102
{ACAD_REACTORS
330
CB
102
}
330
48
100
AcDbEntity
  8
_U_30EC_U_30A4_U_30E4_U_30FC_1
  6
Continuous
 62
     2
100
AcDbSpline
210
0.0
220
0.0
230
1.0
 70
    11
 71
     3
 72
    57
 73
    53
 74
    51
 42
0.000000001
 43
0.0000000001
 44
0.00000001
 40
0.0
 40
0.0
 40
0.0
 40
0.0
 40
0.0471632082809535
 40
0.0914861054632171
 40
0.1357762519702264
 40
0.1826527001610701
 40
0.229520328857261
 40
0.273775197222149
 40
0.3181310461543375
 40
0.3652607198398553
 40
0.4571007286314835
 40
0.5671851029165661
 40
0.6894623283868664
 40
0.8181758272546092
 40
0.9510087229274087
 40
1.085852229674069
 40
1.218126164475321
 40
1.343545131142395
 40
1.454537202956811
 40
1.567187607530834
 40
1.680710966642467
 40
1.794226869736917
 40
1.900009184247631
 40
2.004085860447967
 40
2.108162674451826
 40
2.214000150155328
 40
2.4960385773522
 40
2.762350745479307
 40
2.997275353279423
 40
3.185110082137758
 40
3.246407890064001
 40
3.312607550212732
 40
3.378877742711619
 40
3.440140399651489
 40
4.100501696006525
 40
4.754913085563516
 40
5.411331693423957
 40
6.07789043256877
 40
6.110575292671049
 40
6.143260152775815
 40
6.367989363395191
 40
6.610525374951599
 40
6.863389136467371
 40
7.119380025547642
 40
7.37603660509112
 40
7.631164770966337
 40
7.876722425456473
 40
8.104953735855968
 40
8.312916685924343
 40
8.497730294941345
 40
8.651018984313874
 40
8.764738853624648
 40
8.764738853624648
 40
8.764738853624648
 40
8.764738853624648
 10
108.6825751965289
 20
-30.28863238115358
 30
0.0
 10
108.6669719191706
 20
-30.28663746649207
 30
0.0
 10
108.6367050425078
 20
-30.28276776367985
 30
0.0
 10
108.5914096667028
 20
-30.28147992761014
 30
0.0
 10
108.5462655594125
 20
-30.28181294174233
 30
0.0
 10
108.5002119588175
 20
-30.28175319054059
 30
0.0
 10
108.4543598636872
 20
-30.28164164078282
 30
0.0
 10
108.408681411294
 20
-30.28212144271692
 30
0.0
 10
108.3653914006384
 20
-30.28028868109563
 30
0.0
 10
108.294305041629
 20
-30.30440420913629
 30
0.0
 10
108.2960579726216
 20
-30.18305283751032
 30
0.0
 10
108.2489298835345
 20
-30.09763737977052
 30
0.0
 10
108.2094580716537
 20
-29.98003048383149
 30
0.0
 10
108.1609737997421
 20
-29.86257225187844
 30
0.0
 10
108.1104119867298
 20
-29.74084041966774
 30
0.0
 10
108.0621737075253
 20
-29.61414009865819
 30
0.0
 10
108.003833541237
 20
-29.50556289943332
 30
0.0
 10
107.9883995132037
 20
-29.34869320593874
 30
0.0
 10
107.8469688795412
 20
-29.38116531179963
 30
0.0
 10
107.7411499879679
 20
-29.36977089046104
 30
0.0
 10
107.6261672189997
 20
-29.37097386213669
 30
0.0
 10
107.5156244716916
 20
-29.36983032380876
 30
0.0
 10
107.4079685987558
 20
-29.37071627690759
 30
0.0
 10
107.3024424994018
 20
-29.37073375337766
 30
0.0
 10
107.2012295146788
 20
-29.37775945255869
 30
0.0
 10
107.0169907292529
 20
-29.35354117868419
 30
0.0
 10
107.0060496150186
 20
-29.65748286606396
 30
0.0
 10
106.8990794099526
 20
-29.88136800474888
 30
0.0
 10
106.8001251069122
 20
-30.06594663435787
 30
0.0
 10
106.8128192988783
 20
-30.3095977292408
 30
0.0
 10
106.6953194181173
 20
-30.27981930975086
 30
0.0
 10
106.6325158333086
 20
-30.2823188821868
 30
0.0
 10
106.5688974558176
 20
-30.28145902625477
 30
0.0
 10
106.284911665885
 20
-30.32391937786349
 30
0.0
 10
106.9154740964157
 20
-29.60408025283499
 30
0.0
 10
106.9990747753845
 20
-29.09213438292552
 30
0.0
 10
107.3832355254114
 20
-28.57136234178242
 30
0.0
 10
107.3680310753342
 20
-27.86970351475071
 30
0.0
 10
107.6142368187473
 20
-27.88144344647027
 30
0.0
 10
107.7159448622338
 20
-27.87264973275512
 30
0.0
 10
107.7152854500593
 20
-28.12430326997938
 30
0.0
 10
107.8331419620604
 20
-28.30671956994326
 30
0.0
 10
107.9218617725261
 20
-28.54926237065418
 30
0.0
 10
108.0225394950035
 20
-28.78149947198154
 30
0.0
 10
108.1214245177019
 20
-29.01815333161374
 30
0.0
 10
108.2202779455445
 20
-29.25028238558189
 30
0.0
 10
108.3159268855702
 20
-29.47367754939493
 30
0.0
 10
108.4063007038046
 20
-29.6821742867897
 30
0.0
 10
108.4893047032966
 20
-29.87181529198961
 30
0.0
 10
108.5629191047575
 20
-30.03826871660184
 30
0.0
 10
108.624591836032
 20
-30.17572278102189
 30
0.0
 10
108.665256135038
 20
-30.25490738298251
 30
0.0
 10
108.6825751965289
 20
-30.28863238115358
 30
0.0
 11
108.6825751965289
 21
-30.28863238115358
 31
0.0
 11
108.6356980782223
 21
-30.28344544539098
 31
0.0
 11
108.5914078360901
 21
-30.28174439504421
 31
0.0
 11
108.5471176896505
 21
-30.28174439504421
 31
0.0
 11
108.5002412411935
 21
-30.28174439504421
 31
0.0
 11
108.4533736121809
 21
-30.28174439504421
 31
0.0
 11
108.4091187435183
 21
-30.28174439504421
 31
0.0
 11
108.3647955241629
 21
-30.28344544539098
 31
0.0
 11
108.3179521486219
 21
-30.28863238115358
 31
0.0
 11
108.28956346011
 21
-30.2012901155504
 31
0.0
 11
108.2525824280673
 21
-30.09760321453464
 31
0.0
 11
108.2091488701476
 21
-29.98329990727157
 31
0.0
 11
108.1614158331712
 21
-29.86376446459315
 31
0.0
 11
108.1111262598013
 21
-29.7408192042072
 31
0.0
 11
108.0599569468708
 21
-29.61606154798838
 31
0.0
 11
108.0100634266102
 21
-29.49355836225513
 31
0.0
 11
107.9636221576617
 21
-29.37705460360367
 31
0.0
 11
107.8526714372365
 21
-29.37402512443779
 31
0.0
 11
107.7400411689865
 21
-29.37189522860494
 31
0.0
 11
107.6265254534225
 21
-29.37057782409144
 31
0.0
 11
107.5130102941575
 21
-29.37016661749432
 31
0.0
 11
107.4072287777591
 21
-29.37057782409144
 31
0.0
 11
107.3031604384
 21
-29.37189522860494
 31
0.0
 11
107.199105418882
 21
-29.37402512443778
 31
0.0
 11
107.0933113080372
 21
-29.37705460360367
 31
0.0
 11
106.9884017214914
 21
-29.63885540214934
 31
0.0
 11
106.8937971155107
 21
-29.88779745069824
 31
0.0
 11
106.8155333675074
 21
-30.10930220758727
 31
0.0
 11
106.7596533689331
 21
-30.28863238115358
 31
0.0
 11
106.6985754104218
 21
-30.28344544539098
 31
0.0
 11
106.6323976082906
 21
-30.28174439504421
 31
0.0
 11
106.5661492506058
 21
-30.28344544539098
 31
0.0
 11
106.5051065698714
 21
-30.28863238115358
 31
0.0
 11
106.7802787416706
 21
-29.68833469033142
 31
0.0
 11
107.0486048198945
 21
-29.0914633536751
 31
0.0
 11
107.314337981518
 21
-28.49123732083903
 31
0.0
 11
107.5817843201809
 21
-27.88068592342222
 31
0.0
 11
107.6144691804582
 21
-27.88068592342222
 31
0.0
 11
107.6471540407355
 21
-27.88068592342222
 31
0.0
 11
107.7331403145833
 21
-28.088314386912
 31
0.0
 11
107.8260388278385
 21
-28.31235363164767
 31
0.0
 11
107.9231816986239
 21
-28.54581314547816
 31
0.0
 11
108.0221038922807
 21
-28.78191849264138
 31
0.0
 11
108.1218443714702
 21
-29.018401973485
 31
0.0
 11
108.2216173594129
 21
-29.25321196474573
 31
0.0
 11
108.3183710722224
 21
-29.47890485531434
 31
0.0
 11
108.4091187435183
 21
-29.68831925630364
 31
0.0
 11
108.4925253299322
 21
-29.87882366597822
 31
0.0
 11
108.5673395728153
 21
-30.04781745065817
 31
0.0
 11
108.6313831651379
 21
-30.18708640027616
 31
0.0
 11
108.6825751965289
 21
-30.28863238115358
 31
0.0
  0
SPLINE
  5
B0
102
{ACAD_REACTORS
330
CC
102
}
330
48
100
AcDbEntity
  8
_U_30EC_U_30A4_U_30E4_U_30FC_1
  6
Continuous
 62
     2
100
AcDbSpline
210
0.0
220
0.0
230
1.0
 70
    11
 71
     3
 72
    99
 73
    95
 74
    93
 42
0.000000001
 43
0.0000000001
 44
0.00000001
 40
0.0
 40
0.0
 40
0.0
 40
0.0
 40
0.0796417172273125
 40
0.1621768542356564
 40
0.2486489160957989
 40
0.3404969668525199
 40
0.4381912511165346
 40
0.543446366024551
 40
0.6518115192847403
 40
0.7530190937887394
 40
0.8492196919725327
 40
0.9419290312998658
 40
1.034249663570077
 40
1.129078600620232
 40
1.226697027573271
 40
1.327220425421735
 40
1.470572134938049
 40
1.59548986337128
 40
1.719934125348384
 40
1.850576620127489
 40
1.989059629987326
 40
2.134139054226919
 40
2.280698007207205
 40
2.424529739039472
 40
2.565929576985837
 40
2.708239260773524
 40
2.861717887443646
 40
3.04516854034736
 40
3.183798301138599
 40
3.314813961455458
 40
3.442083470447292
 40
3.569912708372894
 40
3.702177512509329
 40
3.842307559659531
 40
3.992872223245894
 40
4.156750662218326
 40
4.310981861107548
 40
4.445859909322594
 40
4.572393936131562
 40
4.701656719781958
 40
4.768279086008434
 40
4.835960697898376
 40
4.912788918729306
 40
5.0062852084815
 40
5.026909478751661
 40
5.047533749021269
 40
5.101808031471298
 40
5.162325165538617
 40
5.226919745995938
 40
5.294231806596743
 40
5.364544852554881
 40
5.438319055467977
 40
5.517877651324312
 40
5.607647714861582
 40
5.700449642544428
 40
5.78825114236427
 40
5.872714706039837
 40
5.955167292575398
 40
6.037192395190473
 40
6.120669181469186
 40
6.206848616686423
 40
6.296680855416841
 40
6.442558392872663
 40
6.568190371608296
 40
6.692904567360421
 40
6.824220446557235
 40
6.963121850329419
 40
7.107843738851261
 40
7.253431663907359
 40
7.395187468036782
 40
7.533140753237789
 40
7.67055045717531
 40
7.816236511769316
 40
7.987691657359272
 40
8.14227742196929
 40
8.293662615415055
 40
8.442962460879329
 40
8.591598316185367
 40
8.743678992361843
 40
8.903725323699215
 40
9.076307008890533
 40
9.265578604680616
 40
9.459203795360748
 40
9.617619810273547
 40
9.753609671361959
 40
9.874873300004117
 40
9.954520184977804
 40
10.02416413719249
 40
10.09769764405448
 40
10.18909955924976
 40
10.20974586420136
 40
10.23039218263383
 40
10.30057101881267
 40
10.37632012987544
 40
10.37632012987544
 40
10.37632012987544
 40
10.37632012987544
 10
104.0369057300626
 20
-29.9669431451229
 30
0.0
 10
104.0535320315994
 20
-29.98769368882971
 30
0.0
 10
104.0873886671353
 20
-30.0299486601638
 30
0.0
 10
104.1502925005811
 20
-30.08460166336211
 30
0.0
 10
104.2235603405168
 20
-30.13190952607236
 30
0.0
 10
104.3079071703412
 20
-30.16962746290349
 30
0.0
 10
104.4035343080236
 20
-30.19449357996332
 30
0.0
 10
104.5074956240122
 20
-30.20180418382347
 30
0.0
 10
104.6127122685181
 20
-30.1934765493423
 30
0.0
 10
104.7109728836109
 20
-30.16340798076757
 30
0.0
 10
104.7962088892324
 20
-30.11641154756406
 30
0.0
 10
104.8682322670878
 20
-30.05536986477428
 30
0.0
 10
104.9254020173872
 20
-29.98077008149701
 30
0.0
 10
104.9670971212215
 20
-29.89487513068111
 30
0.0
 10
104.9930055311068
 20
-29.80004127296073
 30
0.0
 10
105.0021139797429
 20
-29.68634998689918
 30
0.0
 10
104.9889967261263
 20
-29.56157389957502
 30
0.0
 10
104.9228432799189
 20
-29.44475258556399
 30
0.0
 10
104.8272473384345
 20
-29.35977438150903
 30
0.0
 10
104.7152783487144
 20
-29.29073293269127
 30
0.0
 10
104.5896762048045
 20
-29.23285835682392
 30
0.0
 10
104.4559794085632
 20
-29.18116254443942
 30
0.0
 10
104.3216225283607
 20
-29.12590885331103
 30
0.0
 10
104.1955086451653
 20
-29.05550207086635
 30
0.0
 10
104.0829682452311
 20
-28.96704436997036
 30
0.0
 10
103.9873065529234
 20
-28.85508909859811
 30
0.0
 10
103.9237259616602
 20
-28.70540067626902
 30
0.0
 10
103.9103808969791
 20
-28.54557183343143
 30
0.0
 10
103.9223613452224
 20
-28.39441572421439
 30
0.0
 10
103.9615401393617
 20
-28.26680733136745
 30
0.0
 10
104.0258090215686
 20
-28.15409103697442
 30
0.0
 10
104.1141307464515
 20
-28.05841368459593
 30
0.0
 10
104.2241193672403
 20
-27.98135762742531
 30
0.0
 10
104.353538686604
 20
-27.92338580792008
 30
0.0
 10
104.5014941432569
 20
-27.88750800139461
 30
0.0
 10
104.6585171920262
 20
-27.8774325867772
 30
0.0
 10
104.8078042931206
 20
-27.88626339965694
 30
0.0
 10
104.9499356078946
 20
-27.9141507838793
 30
0.0
 10
105.0499025074401
 20
-27.97076663027148
 30
0.0
 10
105.202817720096
 20
-28.01815375622776
 30
0.0
 10
105.1358234181944
 20
-28.102924247271
 30
0.0
 10
105.1199581585045
 20
-28.170510758548
 30
0.0
 10
105.0881852996072
 20
-28.23563884935092
 30
0.0
 10
105.1053304674347
 20
-28.33766524471335
 30
0.0
 10
105.0569529673008
 20
-28.3299676604638
 30
0.0
 10
105.021889190554
 20
-28.33683206003477
 30
0.0
 10
105.0199800450494
 20
-28.27226146570084
 30
0.0
 10
104.9888795396764
 20
-28.22664338106892
 30
0.0
 10
104.9567654093231
 20
-28.16928941099832
 30
0.0
 10
104.9111140939944
 20
-28.11949515035724
 30
0.0
 10
104.8561610683163
 20
-28.07495164009287
 30
0.0
 10
104.7913943637783
 20
-28.03725988891736
 30
0.0
 10
104.7135479775372
 20
-28.01206601936931
 30
0.0
 10
104.6258263018128
 20
-28.00558746730173
 30
0.0
 10
104.5356005742582
 20
-28.01254268442678
 30
0.0
 10
104.449769715884
 20
-28.03580787267359
 30
0.0
 10
104.3731446103371
 20
-28.07358333620743
 30
0.0
 10
104.3068368100976
 20
-28.12438336638709
 30
0.0
 10
104.2525663001739
 20
-28.18758834321072
 30
0.0
 10
104.2128027810235
 20
-28.26213522017919
 30
0.0
 10
104.1879877975364
 20
-28.34572663730521
 30
0.0
 10
104.1795226727645
 20
-28.45297029346
 30
0.0
 10
104.192280045188
 20
-28.5752452046072
 30
0.0
 10
104.2584650874048
 20
-28.69340253437077
 30
0.0
 10
104.3544079864608
 20
-28.77883652018756
 30
0.0
 10
104.4661017427958
 20
-28.8490661542156
 30
0.0
 10
104.5913966133478
 20
-28.90830815422983
 30
0.0
 10
104.7252926406223
 20
-28.95873269642151
 30
0.0
 10
104.8593032797925
 20
-29.01167460743902
 30
0.0
 10
104.9853987781691
 20
-29.07739807103108
 30
0.0
 10
105.0979319103193
 20
-29.16009625190966
 30
0.0
 10
105.1934472749008
 20
-29.26493971418208
 30
0.0
 10
105.2575808951738
 20
-29.40552860476716
 30
0.0
 10
105.2714206190054
 20
-29.56424568276692
 30
0.0
 10
105.2577057177005
 20
-29.72336822510407
 30
0.0
 10
105.2147841618761
 20
-29.87006148909077
 30
0.0
 10
105.1449008793841
 20
-30.0037018114114
 30
0.0
 10
105.0477694678605
 20
-30.11957590028993
 30
0.0
 10
104.9250908488433
 20
-30.21399995958197
 30
0.0
 10
104.7777510877943
 20
-30.28310707076302
 30
0.0
 10
104.60802349619
 20
-30.32536766869431
 30
0.0
 10
104.4220507444373
 20
-30.33708241497877
 30
0.0
 10
104.2432058390959
 20
-30.32680491044846
 30
0.0
 10
104.0784836218519
 20
-30.28523403959129
 30
0.0
 10
103.9737513305832
 20
-30.21692334844345
 30
0.0
 10
103.8254063255141
 20
-30.16814758696177
 30
0.0
 10
103.8883480659504
 20
-30.07513386437441
 30
0.0
 10
103.8975376894836
 20
-30.00193441480006
 30
0.0
 10
103.9206813766007
 20
-29.93553683226937
 30
0.0
 10
103.8937690800093
 20
-29.83515168200704
 30
0.0
 10
103.9424441421115
 20
-29.84255944210905
 30
0.0
 10
103.9819633045473
 20
-29.83595914107389
 30
0.0
 10
103.9899307409478
 20
-29.91411274509352
 30
0.0
 10
104.0208539432698
 20
-29.94889050352426
 30
0.0
 10
104.0369057300626
 20
-29.9669431451229
 30
0.0
 11
104.0369057300626
 21
-29.9669431451229
 31
0.0
 11
104.088514054064
 21
-30.02760107913548
 31
0.0
 11
104.1504207966111
 21
-30.08218682564964
 31
0.0
 11
104.2230866474578
 21
-30.12905996799901
 31
0.0
 11
104.3069571120619
 21
-30.16650071451747
 31
0.0
 11
104.4015313197186
 21
-30.19099341416406
 31
0.0
 11
104.5064705791941
 21
-30.19914147839812
 31
0.0
 11
104.6143841962327
 21
-30.18925929090062
 31
0.0
 11
104.7111522406392
 21
-30.15961272840802
 31
0.0
 11
104.7953878548094
 21
-30.11314858779465
 31
0.0
 11
104.8659246672462
 21
-30.05298564510134
 31
0.0
 11
104.9222544574755
 21
-29.97984158261965
 31
0.0
 11
104.9639792480779
 21
-29.89468543680762
 31
0.0
 11
104.9897783272808
 21
-29.80053786738672
 31
0.0
 11
104.9983927194222
 21
-29.70038425630064
 31
0.0
 11
104.9781620168133
 21
-29.55846726848887
 31
0.0
 11
104.9175625131506
 21
-29.44923293691898
 31
0.0
 11
104.8268073751061
 21
-29.36408671298189
 31
0.0
 11
104.7163204349515
 21
-29.29437231195767
 31
0.0
 11
104.591162599603
 21
-29.23510123558361
 31
0.0
 11
104.4566054415774
 21
-29.18085724254163
 31
0.0
 11
104.3219986741783
 21
-29.1228870342228
 31
0.0
 11
104.1968904482034
 21
-29.05192578424052
 31
0.0
 11
104.0863378563056
 21
-28.9637666175959
 31
0.0
 11
103.9956483700041
 21
-28.85409682595667
 31
0.0
 11
103.935015793426
 21
-28.71310257251969
 31
0.0
 11
103.9148181637329
 21
-28.5307671732597
 31
0.0
 11
103.9277132936123
 21
-28.39273845801642
 31
0.0
 11
103.9664119124167
 21
-28.26756849276995
 31
0.0
 11
104.0296244196282
 21
-28.157107155992
 31
0.0
 11
104.116060241932
 21
-28.06293092337663
 31
0.0
 11
104.2239595273738
 21
-27.98643436957633
 31
0.0
 11
104.3516628748104
 21
-27.92874307618797
 31
0.0
 11
104.4978495724698
 21
-27.89269910918311
 31
0.0
 11
104.6612871030226
 21
-27.88068592342222
 31
0.0
 11
104.8152020896065
 21
-27.8905570866142
 31
0.0
 11
104.9467989707383
 21
-27.92012647896787
 31
0.0
 11
105.0628738809715
 21
-27.97049983833032
 31
0.0
 11
105.1703895205898
 21
-28.04225814560407
 31
0.0
 11
105.142009651522
 21
-28.10253353621398
 31
0.0
 11
105.1187957719059
 21
-28.16610960390636
 31
0.0
 11
105.0981483505576
 21
-28.24011135736014
 31
0.0
 11
105.0774943146263
 21
-28.33129779830956
 31
0.0
 11
105.0568700443191
 21
-28.33129779830956
 31
0.0
 11
105.0362457740118
 21
-28.33129779830956
 31
0.0
 11
105.0159808960567
 21
-28.28094869241937
 31
0.0
 11
104.9897761224196
 21
-28.22639932611355
 31
0.0
 11
104.9553571389226
 21
-28.17173861432169
 31
0.0
 11
104.9106657077713
 21
-28.12140384002873
 31
0.0
 11
104.8560435824287
 21
-28.07712802406755
 31
0.0
 11
104.7919824469102
 21
-28.04053835393783
 31
0.0
 11
104.7162785425916
 21
-28.01607431748557
 31
0.0
 11
104.6268824511225
 21
-28.00788877061262
 31
0.0
 11
104.5344039638984
 21
-28.01563003797182
 31
0.0
 11
104.449717455642
 21
-28.03880974282718
 31
0.0
 11
104.3740126953615
 21
-28.07626482094276
 31
0.0
 11
104.3086857231291
 21
-28.12657203447182
 31
0.0
 11
104.255359035244
 21
-28.18889684348404
 31
0.0
 11
104.2157911698677
 21
-28.26240029832677
 31
0.0
 11
104.1912626219487
 21
-28.34501534170893
 31
0.0
 11
104.1831056568884
 21
-28.43447647883932
 31
0.0
 11
104.2033198230394
 21
-28.5789466958171
 31
0.0
 11
104.2639358631595
 21
-28.68898800655347
 31
0.0
 11
104.3546581785534
 21
-28.77456307597653
 31
0.0
 11
104.4651779413589
 21
-28.84548022873659
 31
0.0
 11
104.5903192402495
 21
-28.90575672177705
 31
0.0
 11
104.7248929347329
 21
-28.95899529815263
 31
0.0
 11
104.8594831656743
 21
-29.0145048814721
 31
0.0
 11
104.9846079281073
 21
-29.08112696478874
 31
0.0
 11
105.0951111544546
 21
-29.16371114011534
 31
0.0
 11
105.1858500063064
 21
-29.26689974252012
 31
0.0
 11
105.2464660464264
 21
-29.399376617487
 31
0.0
 11
105.2666802125773
 21
-29.56963599244445
 31
0.0
 11
105.2524942212773
 21
-29.72356947330871
 31
0.0
 11
105.2099189473969
 21
-29.86884446459187
 31
0.0
 11
105.140285534904
 21
-30.00091123539216
 31
0.0
 11
105.0448094543489
 21
-30.11482758953036
 31
0.0
 11
104.92441632374
 21
-30.20774705131267
 31
0.0
 11
104.7799262666622
 21
-30.27657620060104
 31
0.0
 11
104.6126621997489
 21
-30.31908702524316
 31
0.0
 11
104.4239205813002
 21
-30.33324113114243
 31
0.0
 11
104.2308134191164
 21
-30.31908702524316
 31
0.0
 11
104.0782078365687
 21
-30.27657620060104
 31
0.0
 11
103.9565000406978
 21
-30.21590944714394
 31
0.0
 11
103.8563364291139
 21
-30.14755654785547
 31
0.0
 11
103.8825423051814
 21
-30.07234432565208
 31
0.0
 11
103.8993224002394
 21
-30.00475210344672
 31
0.0
 11
103.9109298912627
 21
-29.93214051492322
 31
0.0
 11
103.9216708718915
 21
-29.84137189515425
 31
0.0
 11
103.9423171908091
 21
-29.84137189515425
 31
0.0
 11
103.9629635097268
 21
-29.84137189515425
 31
0.0
 11
103.9952018856405
 21
-29.90370772847201
 31
0.0
 11
104.0369057300626
 21
-29.9669431451229
 31
0.0
  0
LWPOLYLINE
  5
B1
102
{ACAD_REACTORS
330
BE
102
}
330
48
100
AcDbEntity
  8
_U_30EC_U_30A4_U_30E4_U_30FC_1
  6
Continuous
 62
     2
100
AcDbPolyline
 90
        5
 70
     1
 43
0.0
 10
126.3481240497447
 20
-28.70767640932658
 10
126.3481240497447
 20
-28.87614543706226
 10
125.0506074161807
 20
-28.87614543706226
 10
125.0506074161807
 20
-28.70767640932658
 10
126.3481240497447
 20
-28.70767640932658
  0
MTEXT
  5
B3
330
48
100
AcDbEntity
  8
1
 62
     2
100
AcDbMText
 10
-33.60968975352245
 20
237.8951002227175
 30
0.0
 40
5.0
 41
0.0
 71
     5
 72
     1
  1
図番
  7
CONVERTER_11
 73
     1
 44
0.45454545454545
  0
MTEXT
  5
B4
330
48
100
AcDbEntity
  8
1
 62
     2
100
AcDbMText
 10
-37.10968975352245
 20
-10.10489977728284
 30
0.0
 40
3.5
 41
0.0
 71
     5
 72
     1
  1
備考
  7
CONVERTER_11
 73
     1
 44
0.45454545454545
  0
MTEXT
  5
B5
330
48
100
AcDbEntity
  8
1
 62
     2
100
AcDbMText
 10
-37.10968975352245
 20
-21.35489977728284
 30
0.0
 40
3.5
 41
0.0
 71
     5
 72
     1
  1
品名
  7
CONVERTER_11
 73
     1
 44
0.72727272727273
  0
MTEXT
  5
B6
330
48
100
AcDbEntity
  8
1
 62
     2
100
AcDbMText
 10
-37.10968975352245
 20
-29.85489977728284
 30
0.0
 40
3.5
 41
0.0
 71
     5
 72
     1
  1
品番
  7
CONVERTER_11
 73
     1
 44
0.72727272727273
  0
MTEXT
  5
B7
330
48
100
AcDbEntity
  8
1
 62
     2
100
AcDbMText
 10
35.39031024647755
 20
-19.10489977728282
 30
0.0
 40
3.0
 41
0.0
 71
     5
 72
     1
  1
承認
  7
CONVERTER_11
 73
     1
 44
0.59090909090909
  0
MTEXT
  5
B8
330
48
100
AcDbEntity
  8
1
 62
     2
100
AcDbMText
 10
108.8903102464776
 20
-20.60489977728282
 30
0.0
 40
3.5
 41
0.0
 71
     5
 72
     1
  1
第三角法
  7
CONVERTER_11
 73
     1
 44
0.54545454545455
  0
MTEXT
  5
B9
330
48
100
AcDbEntity
  8
1
 62
     2
100
AcDbMText
 10
52.39031024647755
 20
-19.10489977728282
 30
0.0
 40
3.0
 41
0.0
 71
     5
 72
     1
  1
検図
  7
CONVERTER_11
 73
     1
 44
0.59090909090909
  0
MTEXT
  5
BA
330
48
100
AcDbEntity
  8
1
 62
     2
100
AcDbMText
 10
86.39031024647755
 20
-19.10489977728282
 30
0.0
 40
3.0
 41
0.0
 71
     5
 72
     1
  1
設計
  7
CONVERTER_11
 73
     1
 44
0.59090909090909
  0
MTEXT
  5
BB
330
48
100
AcDbEntity
  8
1
 62
     2
100
AcDbMText
 10
69.39031024647755
 20
-19.10489977728282
 30
0.0
 40
3.0
 41
0.0
 71
     5
 72
     1
  1
製図
  7
CONVERTER_11
 73
     1
 44
0.59090909090909
  0
MTEXT
  5
BC
330
48
100
AcDbEntity
  8
1
 62
     2
100
AcDbMText
 10
23.39031024647755
 20
-20.10489977728282
 30
0.0
 40
3.5
 41
0.0
 71
     5
 72
     1
  1
尺度
  7
CONVERTER_11
 73
     1
 44
0.54545454545455
  0
MTEXT
  5
BD
330
48
100
AcDbEntity
  8
1
 62
   250
100
AcDbMText
 10
-41.10968975352245
 20
-39.10489977728284
 30
0.0
 40
3.5
 41
0.0
 71
     4
 72
     1
  1
備考欄の文字列 原点位置=4
  7
CONVERTER_11
 73
     1
 44
0.54545454545455
  0
HATCH
  5
BE
330
48
100
AcDbEntity
  8
1
  6
Continuous
 62
     2
100
AcDbHatch
 10
0.0
 20
0.0
 30
0.0
210
0.0
220
0.0
230
1.0
  2
CUSTOM0
 70
     0
 71
     1
 91
        1
 92
        1
 93
        4
 72
     1
 10
126.3481240497447
 20
-28.70767640932658
 11
126.3481240497447
 21
-28.87614543706226
 72
     1
 10
126.3481240497447
 20
-28.87614543706226
 11
125.0506074161807
 21
-28.87614543706226
 72
     1
 10
125.0506074161807
 20
-28.87614543706226
 11
125.0506074161807
 21
-28.70767640932658
 72
     1
 10
125.0506074161807
 20
-28.70767640932658
 11
126.3481240497447
 21
-28.70767640932658
 97
        1
330
B1
 75
     1
 76
     2
 52
45.0
 41
0.1
 77
     0
 78
     1
 53
45.0
 43
0.0
 44
0.0
 45
-0.282842712474619
 46
0.0
 79
     0
 98
        1
 10
0.0
 20
0.0
  0
HATCH
  5
BF
330
48
100
AcDbEntity
  8
1
  6
Continuous
 62
     2
100
AcDbHatch
 10
0.0
 20
0.0
 30
0.0
210
0.0
220
0.0
230
1.0
  2
CUSTOM1
 70
     0
 71
     1
 91
        1
 92
        1
 93
        3
 72
     4
 94
        3
 73
     0
 74
     0
 95
       24
 96
       20
 40
0.0
 40
0.0
 40
0.0
 40
0.0
 40
0.2211075008753757
 40
0.4273218586245363
 40
0.5080174679239275
 40
0.5914835907870575
 40
0.8143265690192826
 40
1.054651302686583
 40
1.295452694023181
 40
1.518109231328841
 40
1.540864321905457
 40
1.595126460622676
 40
1.659890947896044
 40
1.714153085187389
 40
1.736908174961675
 40
1.764951100735392
 40
1.801562291220939
 40
1.953914424543618
 40
2.126104167379693
 40
2.126104167379693
 40
2.126104167379693
 40
2.126104167379693
 10
119.8278472021665
 20
-28.51500682615267
 10
119.8015681546588
 20
-28.57392349493909
 10
119.7507801359202
 20
-28.68778838049028
 10
119.7034887303888
 20
-28.9604801949517
 10
119.5946585267394
 20
-28.86044495152828
 10
119.4417902744413
 20
-28.83371384360955
 10
119.6589257645975
 20
-28.61971842710651
 10
119.6741586139156
 20
-28.40157859945797
 10
119.7809991956776
 20
-28.22038398661858
 10
119.7208483411853
 20
-27.93576751416885
 10
119.8237419860178
 20
-27.96375888505832
 10
119.8683035932926
 20
-27.97246726125986
 10
119.9283944860173
 20
-27.98350323544928
 10
119.9659722052214
 20
-27.99722454672724
 10
120.0155569393382
 20
-27.99733901568063
 10
119.9833261384101
 20
-28.03183385329658
 10
119.9074904686657
 20
-28.02085873190325
 10
119.9332549624468
 20
-28.20631008145831
 10
119.8958999228626
 20
-28.29787664178694
 10
119.8760807426385
 20
-28.34645842330579
 72
     4
 94
        3
 73
     0
 74
     0
 95
       70
 96
       66
 40
0.0
 40
0.0
 40
0.0
 40
0.0
 40
0.0241731073021472
 40
0.0846058988987155
 40
0.1631685280353284
 40
0.2417311571789613
 40
0.3021639488292751
 40
0.3263370654895825
 40
0.3533118254249183
 40
0.4228783438922413
 40
0.5179999095313704
 40
0.6216398239466386
 40
0.7167613891500061
 40
0.7863279069650254
 40
0.8133026791762156
 40
0.8372943998771855
 40
0.8945054261372761
 40
0.9627895541962814
 40
1.020000580349077
 40
1.043992300975175
 40
1.071934345522916
 40
1.113121768772916
 40
1.145225199332237
 40
1.225483775412775
 40
1.329819923771484
 40
1.434156071994375
 40
1.514414647795791
 40
1.546518078208403
 40
1.578974764260176
 40
1.662678849314114
 40
1.777131373668392
 40
1.901833377474797
 40
2.016285900500601
 40
2.099989982527968
 40
2.132446666570298
 40
2.158782354486021
 40
2.216720867907813
 40
2.274659381334238
 40
2.30099506925617
 40
2.333451754066142
 40
2.417155836543823
 40
2.531608358985305
 40
2.656310362283771
 40
2.770762886388904
 40
2.854466971340041
 40
2.886923657363876
 40
2.913597976833301
 40
2.982389642875105
 40
3.076451716946976
 40
3.178937260458585
 40
3.272999334739988
 40
3.341791001059206
 40
3.36846532066352
 40
3.396976080738756
 40
3.472140811845949
 40
3.578408190308653
 40
3.700226892456103
 40
3.822045594634264
 40
3.928312973256342
 40
4.003477705314768
 40
4.031988456866819
 40
4.058324144797619
 40
4.116262658236784
 40
4.174201171400585
 40
4.200536849608521
 40
4.200536849608521
 40
4.200536849608521
 40
4.200536849608521
 10
119.8760807426385
 20
-28.34645842330579
 10
119.8841362009455
 20
-28.34645617916597
 10
119.9123303128017
 20
-28.34644831695485
 10
119.9668637268449
 20
-28.34659222899913
 10
120.0385994273379
 20
-28.34580857228386
 10
120.1139342601838
 20
-28.34862407264474
 10
120.1616154831215
 20
-28.34191574327326
 10
120.2098173710392
 20
-28.35292414035853
 10
120.1965674264649
 20
-28.29943574731251
 10
120.2054196429314
 20
-28.24440394185192
 10
120.2011800501062
 20
-28.15070069002175
 10
120.2036585946056
 20
-28.05530495509753
 10
120.1994041170836
 20
-27.96133155744896
 10
120.2082921130622
 20
-27.90694915290271
 10
120.1950079874721
 20
-27.85255980036824
 10
120.2417221741885
 20
-27.86647761392926
 10
120.2846357010513
 20
-27.86386100354241
 10
120.350854592146
 20
-27.86841555277528
 10
120.3916444736574
 20
-27.87711815594122
 10
120.4428248155594
 20
-27.86958177838089
 10
120.4156822951976
 20
-27.91140007504998
 10
120.3706198520483
 20
-27.90204985655689
 10
120.3845167509827
 20
-27.96648770356447
 10
120.376151689643
 20
-28.03111758100885
 10
120.3806734643174
 20
-28.12960836534398
 10
120.3757843775943
 20
-28.22894044885713
 10
120.3853361456858
 20
-28.29196862175315
 10
120.3702863919976
 20
-28.35525966228496
 10
120.4352261921984
 20
-28.33974904784015
 10
120.5019348864273
 20
-28.34990590030471
 10
120.6144537935603
 20
-28.34501177628918
 10
120.729333791373
 20
-28.34798772995501
 10
120.8422974464523
 20
-28.34268313543293
 10
120.9079370062454
 20
-28.35382671256195
 10
120.9719379155829
 20
-28.33745445408427
 10
120.9606245353965
 20
-28.3872828782301
 10
120.9678442336286
 20
-28.43073262516161
 10
120.9606245076045
 20
-28.4741823214084
 10
120.971937964077
 20
-28.52401082531408
 10
120.9079366063747
 20
-28.5076381163692
 10
120.8423023705235
 20
-28.51878706066697
 10
120.7293076782107
 20
-28.5134512052143
 10
120.6145559013418
 20
-28.51655632064463
 10
120.5016286151637
 20
-28.51125083045695
 10
120.435832336836
 20
-28.5223267770869
 10
120.3719200440134
 20
-28.50602379880666
 10
120.3839117629902
 20
-28.56066453332541
 10
120.3765207077781
 20
-28.61635682680442
 10
120.3795787306759
 20
-28.70840288587713
 10
120.3796525250459
 20
-28.80310867855184
 10
120.3763416043135
 20
-28.89537194826018
 10
120.3842608454679
 20
-28.95054208992142
 10
120.3718179076393
 20
-29.00431808628149
 10
120.4292219016407
 20
-28.990362088655
 10
120.4897810605159
 20
-28.99978519844058
 10
120.5951783319856
 20
-28.99547091799579
 10
120.7107396535398
 20
-28.99654473116252
 10
120.8262791342572
 20
-28.99764011827289
 10
120.9317283595616
 20
-28.9932745195765
 10
120.9921782936579
 20
-29.00280551697612
 10
121.0495940203886
 20
-28.98872688121904
 10
121.0380876341484
 20
-29.037828244626
 10
121.0440669246524
 20
-29.07925319709634
 10
121.0423413515577
 20
-29.12838299761589
 10
121.0424602587747
 20
-29.15635549280676
 10
121.0424974156608
 20
-29.16509689532334
 72
     4
 94
        3
 73
     0
 74
     0
 95
       62
 96
       58
 40
0.0
 40
0.0
 40
0.0
 40
0.0
 40
0.0598250028308485
 40
0.2024846486897189
 40
0.372755838922032
 40
0.5154154847935359
 40
0.5752404975784629
 40
0.9332326775486566
 40
1.290451762839421
 40
1.60207725314581
 40
1.699931634112057
 40
1.799359756425028
 40
2.270120149657051
 40
2.804661928461488
 40
2.882342287383203
 40
3.076543185719053
 40
3.329004354835511
 40
3.581465524568336
 40
3.775666424543615
 40
3.853346784558237
 40
3.899120679595011
 40
3.98412934179198
 40
4.029903236817315
 40
4.105797496059473
 40
4.295533144152433
 40
4.542189486611676
 40
4.788845828875619
 40
4.978581476410007
 40
5.05447573524425
 40
5.621734664339275
 40
6.130867242037296
 40
6.225249780948525
 40
6.318913039727235
 40
6.663579954558824
 40
7.047498900224661
 40
7.435230791575578
 40
7.498943906667976
 40
7.650875181209941
 40
7.832212509001452
 40
7.984143783696809
 40
8.047856898902936
 40
8.09155463273244
 40
8.172707566964103
 40
8.216405300767832
 40
8.289021782160702
 40
8.462184160757076
 40
8.668861838005213
 40
8.842024215263777
 40
8.914640695474986
 40
8.98988158086119
 40
9.155411528827095
 40
9.320941477743872
 40
9.396182352487122
 40
9.454709011143654
 40
9.583467660170646
 40
9.71222630901284
 40
9.77075295798935
 40
9.77075295798935
 40
9.77075295798935
 40
9.77075295798935
 10
121.0424974156608
 20
-29.16509689532334
 10
121.0225450636398
 20
-29.16509102159614
 10
120.955014018124
 20
-29.16507113922124
 10
120.8313714626564
 20
-29.1654061520796
 10
120.6766282614832
 20
-29.16382303977772
 10
120.5600451947255
 20
-29.1680389886779
 10
120.3454045099016
 20
-29.15274772396658
 10
120.7422050872005
 20
-29.51291256442095
 10
120.7848758534043
 20
-29.72979474331117
 10
121.2092264611387
 20
-29.91164915216836
 10
121.034292396085
 20
-30.01504781160215
 10
120.9097626389858
 20
-30.22658454515552
 10
120.656937970072
 20
-29.75683896726727
 10
120.3700705358401
 20
-29.10978460743765
 10
120.3809438391436
 20
-29.4170730557359
 10
120.3785995242735
 20
-29.58201360756507
 10
120.3764198591187
 20
-29.81610307016591
 10
120.3883876861122
 20
-30.05991905306502
 10
120.3591087205406
 20
-30.20634180867301
 10
120.4017625090246
 20
-30.35376487553746
 10
120.3142916470415
 20
-30.33804180422064
 10
120.267163007152
 20
-30.3379567418483
 10
120.1802075672489
 20
-30.35380552245375
 10
120.2216576486499
 20
-30.20962206305522
 10
120.1932977469061
 20
-30.06634925029828
 10
120.2049076240076
 20
-29.8281503036302
 10
120.2027278113048
 20
-29.59972742487938
 10
120.200621359277
 20
-29.4378424835229
 10
120.2111137903099
 20
-29.1233626839453
 10
119.9032065717669
 20
-29.81260506855848
 10
119.5958360732232
 20
-30.29013227485235
 10
119.475446953105
 20
-30.06748865090856
 10
119.2977710375498
 20
-29.95478942772719
 10
119.775642882767
 20
-29.77941834262823
 10
119.8257061521983
 20
-29.54398048476254
 10
120.2486902086492
 20
-29.15166988383675
 10
120.0179856738316
 20
-29.1683467069922
 10
119.8952788324116
 20
-29.16220458779514
 10
119.7228585560437
 20
-29.1717715502871
 10
119.6116327159224
 20
-29.15041159238618
 10
119.4928882092224
 20
-29.18353712370864
 10
119.5086272171462
 20
-29.10286077121401
 10
119.5081653398538
 20
-29.05844563437429
 10
119.4930984354706
 20
-28.9752289594975
 10
119.6275483400219
 20
-29.014273257444
 10
119.7522858010522
 20
-28.98750248399863
 10
119.9531857702056
 20
-29.00426028684231
 10
120.0824643414129
 20
-28.98285751815278
 10
120.2231522393071
 20
-29.01621198874863
 10
120.1884029917391
 20
-28.87838101943215
 10
120.2125288131489
 20
-28.75526720378802
 10
120.1870188647168
 20
-28.63465922057948
 10
120.2236353611461
 20
-28.49950112586791
 10
120.1114519492545
 20
-28.52395431946393
 10
120.0183458921912
 20
-28.51182227886262
 10
119.9094650044596
 20
-28.51532347658292
 10
119.847280010574
 20
-28.51508221776681
 10
119.8278472022022
 20
-28.5150068260414
 97
        3
330
A2
330
A0
330
A1
 75
     1
 76
     2
 52
45.0
 41
0.1
 77
     0
 78
     1
 53
45.0
 43
0.0
 44
0.0
 45
-0.282842712474619
 46
0.0
 79
     0
 98
        1
 10
0.0
 20
0.0
  0
HATCH
  5
C0
330
48
100
AcDbEntity
  8
1
  6
Continuous
 62
     2
100
AcDbHatch
 10
0.0
 20
0.0
 30
0.0
210
0.0
220
0.0
230
1.0
  2
CUSTOM2
 70
     0
 71
     1
 91
        1
 92
        1
 93
        1
 72
     4
 94
        3
 73
     0
 74
     0
 95
      124
 96
      120
 40
0.0
 40
0.0
 40
0.0
 40
0.0
 40
0.0278187229624795
 40
0.101159016238427
 40
0.2048470170589955
 40
0.3237088716558961
 40
0.4425707262522
 40
0.5462587270699263
 40
0.6195990203312082
 40
0.647417752257866
 40
0.6750060736115207
 40
0.7357003855242794
 40
0.7963946998054439
 40
0.8239830245571802
 40
0.8540933811102895
 40
0.9373396629409008
 40
1.063094687343239
 40
1.220731268638105
 40
1.399622220914751
 40
1.589140358637736
 40
1.778658496423845
 40
1.957549448940484
 40
2.115186030873134
 40
2.240941056914409
 40
2.324187341760479
 40
2.354297700109357
 40
2.381886024671862
 40
2.44258033871045
 40
2.503274652750474
 40
2.530862977314581
 40
2.560983949278506
 40
2.640393784452908
 40
2.752662861759075
 40
2.881361560118063
 40
3.010060258455138
 40
3.122329335705314
 40
3.201739170817871
 40
3.23186014275326
 40
3.264298024030311
 40
3.35234370177819
 40
3.482095226868712
 40
3.639650650172968
 40
3.811108022565429
 40
3.982565394927936
 40
4.140120818152519
 40
4.269872343141228
 40
4.357918020802292
 40
4.390355902043919
 40
4.423256253992517
 40
4.508104530072981
 40
4.624121560636749
 40
4.750528176031506
 40
4.866545206601981
 40
4.95139348269191
 40
4.984293834645311
 40
5.011450833242223
 40
5.071196230152009
 40
5.130941627057081
 40
5.158098625648745
 40
5.190998977601379
 40
5.275847253689233
 40
5.391864284256696
 40
5.518270899648241
 40
5.634287930209251
 40
5.719136206287897
 40
5.752036558235813
 40
5.782130946282838
 40
5.862783906229009
 40
5.97955013177488
 40
6.117984316640283
 40
6.263641154587835
 40
6.402075339414034
 40
6.518841564907828
 40
6.599494524815413
 40
6.629588912848651
 40
6.654403028226227
 40
6.713575149487994
 40
6.78419993932934
 40
6.843372060493413
 40
6.868186175802659
 40
6.896246243201748
 40
6.939586233758144
 40
6.967846564564775
 40
7.04358425108971
 40
7.153234334451573
 40
7.283231855734313
 40
7.420011856035353
 40
7.550009376579704
 40
7.659659458835103
 40
7.735397144417094
 40
7.76365747485127
 40
7.796409728010927
 40
7.880876065096201
 40
7.996370852465587
 40
8.122208446418453
 40
8.237703224799075
 40
8.322169562010798
 40
8.354921815205783
 40
8.382078813307563
 40
8.441824209206866
 40
8.501569605240013
 40
8.52872660348559
 40
8.561478856695638
 40
8.645945193877688
 40
8.761439980865228
 40
8.887277580764371
 40
9.002772362000863
 40
9.087238696661055
 40
9.119990949235538
 40
9.152428830613234
 40
9.240474508638455
 40
9.37022603414941
 40
9.527781457984288
 40
9.699238830981281
 40
9.87069620397847
 40
10.02825162781389
 40
10.15800315332551
 40
10.24604883135106
 40
10.27848670378509
 40
10.27848670378509
 40
10.27848670378509
 40
10.27848670378509
 10
129.2724930029159
 20
-30.09079460342527
 10
129.2817657202299
 20
-30.0907947921701
 10
129.3154847001636
 20
-30.0907954685157
 10
129.3837809277242
 20
-30.09078170484979
 10
129.4823244176356
 20
-30.09086753508741
 10
129.5965168929587
 20
-30.09048222116033
 10
129.7088996881847
 20
-30.09189141830739
 10
129.8117479064894
 20
-30.08770860306041
 10
129.8709942339625
 20
-30.09666888476302
 10
129.9274368401809
 20
-30.08325543202224
 10
129.9149358051731
 20
-30.13402779114923
 10
129.9232652100479
 20
-30.17900656789217
 10
129.9151273305895
 20
-30.22433224737796
 10
129.9273631679233
 20
-30.27558045319818
 10
129.8650875955109
 20
-30.26042022363007
 10
129.7963615491644
 20
-30.2713022701754
 10
129.6685859214367
 20
-30.26578672980312
 10
129.5166086976419
 20
-30.26789126474586
 10
129.3405798437298
 20
-30.26718975139811
 10
129.1547534399063
 20
-30.26744740196993
 10
128.9689269901951
 20
-30.26718972583682
 10
128.7928982606945
 20
-30.26789135880553
 10
128.640920661897
 20
-30.26578645498296
 10
128.5131460129331
 20
-30.27130296960643
 10
128.4444180301356
 20
-30.26041900602342
 10
128.3821451507659
 20
-30.27558191044075
 10
128.3943718754794
 20
-30.22432466923113
 10
128.3863106927373
 20
-30.17907504455859
 10
128.3943778274668
 20
-30.1338361977296
 10
128.3821340951859
 20
-30.08255800818328
 10
128.4428119585474
 20
-30.09740400365149
 10
128.5065913210512
 20
-30.08733529557549
 10
128.6180416818279
 20
-30.09195333516284
 10
128.7400635908598
 20
-30.09076648822816
 10
128.86226406026
 20
-30.08974113827649
 10
128.9732896752167
 20
-30.09397502104881
 10
129.0379619878734
 20
-30.08471393206547
 10
129.0994265275277
 20
-30.09885554678602
 10
129.0833168066113
 20
-30.03254449843767
 10
129.0946082792134
 20
-29.96042187606308
 10
129.0890503287336
 20
-29.82976216839998
 10
129.0911137526466
 20
-29.67882654020044
 10
129.090326959207
 20
-29.51154104620397
 10
129.0910947680403
 20
-29.34428867395981
 10
129.0891141250405
 20
-29.1932668845837
 10
129.0944408621396
 20
-29.06283908175289
 10
129.0836203853201
 20
-28.99024535122384
 10
129.0993428894651
 20
-28.92339508291484
 10
129.0335810597266
 20
-28.93909465237457
 10
128.965947029554
 20
-28.92880734644289
 10
128.8518987758586
 20
-28.93376190881162
 10
128.7354345139678
 20
-28.93075849697807
 10
128.6209656586254
 20
-28.93609674584896
 10
128.5543427122587
 20
-28.92488709653459
 10
128.4893872179962
 20
-28.94140845063271
 10
128.5011092223484
 20
-28.89016257251225
 10
128.4935932653897
 20
-28.84539643944193
 10
128.5011092343611
 20
-28.80063032830322
 10
128.4893871970123
 20
-28.74938441598545
 10
128.5543428803976
 20
-28.76590595961468
 10
128.6209635804597
 20
-28.7546940635434
 10
128.7354455322839
 20
-28.76004541017619
 10
128.8518556901738
 20
-28.75698788957166
 10
128.9660762639417
 20
-28.76211478717576
 10
129.0333252904002
 20
-28.75144244372685
 10
129.0986428406214
 20
-28.76747895059207
 10
129.0844493913327
 20
-28.7054029197823
 10
129.0939161927771
 20
-28.63903216099521
 10
129.0893371468861
 20
-28.52250004986318
 10
129.0910799020724
 20
-28.39063292705908
 10
129.0900653960168
 20
-28.24874017578011
 10
129.0920293809148
 20
-28.11720927025704
 10
129.0867771018627
 20
-27.99965400445281
 10
129.097651122825
 20
-27.935421887267
 10
129.0822639106629
 20
-27.87381175183237
 10
129.1310694002576
 20
-27.88787570346173
 10
129.1757098029501
 20
-27.8853523565297
 10
129.2441746411518
 20
-27.88977180326574
 10
129.2862208633878
 20
-27.89876952184247
 10
129.3390647223551
 20
-27.89078262861773
 10
129.3110137466789
 20
-27.9337606011661
 10
129.265224471337
 20
-27.92230425684447
 10
129.277264153804
 20
-27.98316457723147
 10
129.2699188535418
 20
-28.04720678259511
 10
129.2734298290937
 20
-28.15580608864373
 10
129.272290922495
 20
-28.27995658583531
 10
129.2722277245038
 20
-28.41300257898406
 10
129.2735975431643
 20
-28.53692596478729
 10
129.2694741266089
 20
-28.64621639878946
 10
129.278086556834
 20
-28.70881397634114
 10
129.2649859919178
 20
-28.76749844431919
 10
129.3296986792973
 20
-28.7512786391738
 10
129.3963508417932
 20
-28.76219717344974
 10
129.5101882005878
 20
-28.75696237554527
 10
129.6260361586872
 20
-28.76004430211371
 10
129.7400026728056
 20
-28.75471717915772
 10
129.8063443482875
 20
-28.7658576956174
 10
129.8710290990256
 20
-28.74942998135107
 10
129.8592923237498
 20
-28.80064052518233
 10
129.8668270527816
 20
-28.84539643607282
 10
129.8592923457034
 20
-28.89015238718257
 10
129.8710290605512
 20
-28.94136286857243
 10
129.8063446540028
 20
-28.92493549934063
 10
129.73999888956
 20
-28.93607193281015
 10
129.6260561951788
 20
-28.93076861835164
 10
129.510109808783
 20
-28.93375213134738
 10
129.3965859346898
 20
-28.92883085459891
 10
129.329233378358
 20
-28.93904890214762
 10
129.2637387587271
 20
-28.92343981589467
 10
129.2794816083994
 20
-28.99026125900872
 10
129.2686378462989
 20
-29.06282919912406
 10
129.2739684094568
 20
-29.19327730113866
 10
129.2720238616631
 20
-29.34425419543058
 10
129.272623614799
 20
-29.51167733794126
 10
129.2724609024381
 20
-29.67833801609912
 10
129.2724997952911
 20
-29.83129834806648
 10
129.2724918877875
 20
-29.95640798742578
 10
129.272493084752
 20
-30.03982086736864
 10
129.2724930180984
 20
-30.07998199446308
 10
129.2724930029159
 20
-30.09079460342527
 97
        1
330
A3
 75
     1
 76
     2
 52
45.0
 41
0.1
 77
     0
 78
     1
 53
45.0
 43
0.0
 44
0.0
 45
-0.282842712474619
 46
0.0
 79
     0
 98
        1
 10
0.0
 20
0.0
  0
HATCH
  5
C1
330
48
100
AcDbEntity
  8
1
  6
Continuous
 62
     2
100
AcDbHatch
 10
0.0
 20
0.0
 30
0.0
210
0.0
220
0.0
230
1.0
  2
CUSTOM3
 70
     0
 71
     1
 91
        1
 92
        1
 93
        1
 72
     4
 94
        3
 73
     0
 74
     0
 95
      131
 96
      127
 40
0.0
 40
0.0
 40
0.0
 40
0.0
 40
0.0195577029826051
 40
0.0426490537460826
 40
0.2863607575856013
 40
0.5344948436188857
 40
0.7842238845572614
 40
0.8737315789466545
 40
0.9803832810312294
 40
1.092842274516975
 40
1.19976114665671
 40
1.289788768186436
 40
1.351573580786133
 40
1.370727117561375
 40
1.416400936017771
 40
1.470914848355911
 40
1.516588666791706
 40
1.535742203552781
 40
1.634216592293134
 40
1.760283341174966
 40
1.897966686682095
 40
2.031216387368939
 40
2.049689751137929
 40
2.101115601646867
 40
2.179502577739988
 40
2.278859318314101
 40
2.393194462258758
 40
2.516516648383873
 40
2.642834515406001
 40
2.766156701983508
 40
2.880491846754615
 40
2.97984858835866
 40
3.058235565443833
 40
3.109661416668988
 40
3.128134780704165
 40
3.146783742386482
 40
3.191254343315314
 40
3.244332157315959
 40
3.28880275822582
 40
3.307451719895048
 40
3.327717853844657
 40
3.383747753580021
 40
3.468388665924418
 40
3.574487837698722
 40
3.694892515728827
 40
3.822449946851964
 40
3.95000737792035
 40
4.07041205580045
 40
4.176511227368003
 40
4.261152139501455
 40
4.317182039076634
 40
4.33744817296456
 40
4.620011002696194
 40
4.885096638397402
 40
4.945373043518217
 40
5.014107710488545
 40
5.070481727651946
 40
5.319246955636457
 40
5.584812164505948
 40
5.859000912056801
 40
6.133746937541967
 40
6.401732212968771
 40
6.420736683995362
 40
6.472845717450984
 40
6.55070274389394
 40
6.646951193874178
 40
6.754234497930473
 40
6.865196086587294
 40
6.972479390357766
 40
7.068727839771914
 40
7.146584865450923
 40
7.198693898189153
 40
7.217698368905322
 40
7.234950401630798
 40
7.27608986426984
 40
7.325191803515939
 40
7.366331266090328
 40
7.38358329876968
 40
7.402779163492071
 40
7.453386443254503
 40
7.524934666445518
 40
7.606953361405872
 40
7.688972056429024
 40
7.76052027978426
 40
7.811127559734531
 40
7.83032342454618
 40
7.84784405529981
 40
7.894799345666855
 40
7.962779392744541
 40
8.043374293560593
 40
8.128174145149497
 40
8.208769044817299
 40
8.276749090377002
 40
8.323704379669561
 40
8.341225010056295
 40
8.358497614800486
 40
8.401679126686663
 40
8.45781509218572
 40
8.513951057728153
 40
8.55713256970811
 40
8.574405174505152
 40
8.602340668616531
 40
8.643455660540154
 40
8.663225271966821
 40
8.715345156564469
 40
8.789031889628808
 40
8.87350204552053
 40
8.957972194324155
 40
9.031658925568047
 40
9.083778811234735
 40
9.103548423003202
 40
9.119550083123768
 40
9.16081752238007
 40
9.217244429110407
 40
9.27872449164492
 40
9.335151398295677
 40
9.376418837358
 40
9.39242049730076
 40
9.401196302735006
 40
9.417494229384452
 40
9.426270027749753
 40
9.440875075477738
 40
9.475702496998963
 40
9.517270709866127
 40
9.55209813199432
 40
9.566703169884503
 40
9.566703169884503
 40
9.566703169884503
 40
9.566703169884503
 10
128.5073356613254
 20
-28.43474106217256
 10
128.5037447558146
 20
-28.44036287026125
 10
128.49591415884
 20
-28.45262223309171
 10
128.4033071439323
 20
-28.48888061687316
 10
128.3790724698023
 20
-28.70341533515569
 10
128.2761812310714
 20
-28.88292693218575
 10
128.0123594829082
 20
-29.06874403930138
 10
128.1748574033955
 20
-29.14530641162204
 10
128.2510328225614
 20
-29.20633284532842
 10
128.3395273537535
 20
-29.26974173183523
 10
128.4293032697886
 20
-29.32964343508726
 10
128.4786920100822
 20
-29.38387822879075
 10
128.5648810622158
 20
-29.41203737186452
 10
128.5314363139005
 20
-29.4477666807547
 10
128.5117773631086
 20
-29.4793958973638
 10
128.4822990682658
 20
-29.52014104932214
 10
128.4592091910807
 20
-29.54985314238641
 10
128.4283308433133
 20
-29.60278555059789
 10
128.3632295830516
 20
-29.47749642789383
 10
128.2699102587191
 20
-29.42276077494348
 10
128.1853738749915
 20
-29.36573553788946
 10
128.0625600590516
 20
-29.2081469030076
 10
128.0667553312077
 20
-29.28454170961448
 10
128.0654581117452
 20
-29.33128697566988
 10
128.0661228912852
 20
-29.40905191915684
 10
128.0658652451731
 20
-29.50587909403862
 10
128.0659533704696
 20
-29.61839698649475
 10
128.0659179767056
 20
-29.73965891782585
 10
128.0659614223054
 20
-29.86403079869323
 10
128.065830240718
 20
-29.98522294096948
 10
128.0662580026821
 20
-30.09798828808541
 10
128.0649780667085
 20
-30.1940706395954
 10
128.0682862315818
 20
-30.27376151259585
 10
128.0618300204861
 20
-30.316748019395
 10
128.0709311170331
 20
-30.35534545356241
 10
128.035101280471
 20
-30.34679090004214
 10
128.0018326280028
 20
-30.35147457742838
 10
127.9507665040816
 20
-30.351386789685
 10
127.9172826437588
 20
-30.34695547444464
 10
127.881068787353
 20
-30.35529183885775
 10
127.8912885033441
 20
-30.31344700549
 10
127.8839590352549
 20
-30.26711416908112
 10
127.8876735600878
 20
-30.18115146622269
 10
127.8862583019672
 20
-30.07884835023435
 10
127.8867208019414
 20
-29.96036753796772
 10
127.8865876151006
 20
-29.83532294574929
 10
127.8866118374821
 20
-29.71014149621234
 10
127.8866457390327
 20
-29.59203332349227
 10
127.8865162757908
 20
-29.48861229018767
 10
127.8868610013857
 20
-29.40557941574619
 10
127.8861800743466
 20
-29.3534660920704
 10
127.8897689065399
 20
-29.22577069906925
 10
127.6729273851212
 20
-29.52441260908657
 10
127.4924457386728
 20
-29.75225996216768
 10
127.4393424760387
 20
-29.61116534438469
 10
127.4103531597925
 20
-29.56164210167341
 10
127.3099750527596
 20
-29.45848197938177
 10
127.6308230188037
 20
-29.37794942704504
 10
127.7592999470205
 20
-29.1942369469185
 10
127.9809556790135
 20
-28.98557981956523
 10
128.0673327358843
 20
-28.81150766499939
 10
128.3452496693852
 20
-28.5352292638577
 10
128.224935030406
 20
-28.5395541817717
 10
128.1766299816125
 20
-28.53875121525731
 10
128.100547991968
 20
-28.53915395581699
 10
128.0070112474526
 20
-28.53899702116675
 10
127.9020697253331
 20
-28.53907475152058
 10
127.7936990203493
 20
-28.5389451334973
 10
127.6884556700672
 20
-28.53935584237591
 10
127.5959340284188
 20
-28.53807904056691
 10
127.5171233265483
 20
-28.54149211193433
 10
127.4742777030155
 20
-28.53466627691963
 10
127.4352602051291
 20
-28.54424913527161
 10
127.4429467736639
 20
-28.51069198162741
 10
127.4388566869087
 20
-28.47966427406051
 10
127.4388633833589
 20
-28.43253448457385
 10
127.4429342189687
 20
-28.40149036081505
 10
127.4352598039358
 20
-28.36788116092383
 10
127.473792187027
 20
-28.37741567307412
 10
127.5144330479255
 20
-28.37092542230214
 10
127.5854574315239
 20
-28.37389827078031
 10
127.6632420614409
 20
-28.37315216329126
 10
127.741039471125
 20
-28.37242163683759
 10
127.8120334554683
 20
-28.37535742214123
 10
127.8527382256596
 20
-28.36894508955332
 10
127.8912955954685
 20
-28.37839453552281
 10
127.8830445219703
 20
-28.34225285569501
 10
127.8885449134135
 20
-28.30360140115057
 10
127.8858856670938
 20
-28.23576449166444
 10
127.8868917936309
 20
-28.15898336189545
 10
127.8863280483095
 20
-28.07640584145527
 10
127.8873816991368
 20
-27.99972648498406
 10
127.8845778327905
 20
-27.93157986951585
 10
127.8903805186079
 20
-27.89357577918936
 10
127.8818757015934
 20
-27.85731529650637
 10
127.9158712697901
 20
-27.86734253956432
 10
127.9497678147875
 20
-27.86416710914578
 10
128.0029771525122
 20
-27.86981012087676
 10
128.0563871039259
 20
-27.8705520329186
 10
128.0899017114266
 20
-27.87670754245304
 10
128.1291188647815
 20
-27.87143947954691
 10
128.1023366163267
 20
-27.91236596934798
 10
128.0611213466499
 20
-27.90118773190171
 10
128.0685744005648
 20
-27.9462292153616
 10
128.0645330416959
 20
-27.9907769970014
 10
128.0664816514415
 20
-28.06266405106581
 10
128.0655467314534
 20
-28.14321347139513
 10
128.0668209654804
 20
-28.2231598232329
 10
128.0635146258639
 20
-28.29648140645101
 10
128.0705208644736
 20
-28.33801334725717
 10
128.06045428449
 20
-28.37737559160172
 10
128.0932917268697
 20
-28.37021914297303
 10
128.1267679761255
 20
-28.37462734590338
 10
128.1818155940794
 20
-28.37272034380388
 10
128.239260506009
 20
-28.37304611320995
 10
128.2926128713084
 20
-28.37383668995202
 10
128.3301643361414
 20
-28.3717601861021
 10
128.3526274988012
 20
-28.37467639561174
 10
128.3654780538506
 20
-28.3691742508423
 10
128.3761358150664
 20
-28.36688859530494
 10
128.3889738114918
 20
-28.35995005140231
 10
128.4049093497846
 20
-28.37636931414617
 10
128.4313726385667
 20
-28.38780855408832
 10
128.4629907718533
 20
-28.40845289893095
 10
128.4890358356927
 20
-28.42373108099988
 10
128.5031620188748
 20
-28.432230014051
 10
128.5073356613254
 20
-28.43474106217256
 97
        1
330
A4
 75
     1
 76
     2
 52
45.0
 41
0.1
 77
     0
 78
     1
 53
45.0
 43
0.0
 44
0.0
 45
-0.282842712474619
 46
0.0
 79
     0
 98
        1
 10
0.0
 20
0.0
  0
HATCH
  5
C2
330
48
100
AcDbEntity
  8
1
  6
Continuous
 62
     2
100
AcDbHatch
 10
0.0
 20
0.0
 30
0.0
210
0.0
220
0.0
230
1.0
  2
CUSTOM4
 70
     0
 71
     1
 91
        1
 92
        1
 93
        1
 72
     4
 94
        3
 73
     0
 74
     0
 95
       91
 96
       87
 40
0.0
 40
0.0
 40
0.0
 40
0.0
 40
0.0267532254356666
 40
0.085610338646412
 40
0.1444674521996603
 40
0.1712206856618514
 40
0.2039416005642536
 40
0.2955601971652342
 40
0.4362601844616634
 40
0.6162252844507392
 40
0.8256392189704698
 40
1.054685709844439
 40
1.293548478893517
 40
1.532411247938275
 40
1.761457738799554
 40
1.970871673298508
 40
2.150836773256676
 40
2.291536760495565
 40
2.383155356836686
 40
2.415876284101278
 40
2.442629517487924
 40
2.501486630949054
 40
2.560343744424203
 40
2.587096977826474
 40
2.617068194440887
 40
2.699247336756071
 40
2.822032643466341
 40
2.97382235325787
 40
3.143014704823327
 40
3.318007936879877
 40
3.487200288186711
 40
3.638989997548177
 40
3.761775303794676
 40
3.843954445753039
 40
3.873925662229735
 40
3.890812773500429
 40
3.907699884771621
 40
3.937960767857252
 40
3.980983618142242
 40
4.199085915228408
 40
4.439444339237178
 40
4.677588241260826
 40
5.050698317837683
 40
5.448212454763069
 40
5.855291218044608
 40
6.138575438885303
 40
6.417434507584105
 40
6.444551104393776
 40
6.504207617363051
 40
6.563864130314373
 40
6.590980727103918
 40
6.848609460381365
 40
7.109611990668295
 40
7.352910904445966
 40
7.55783022070536
 40
7.587518925913287
 40
7.652834077375681
 40
7.718149228845617
 40
7.747837934061921
 40
7.854880190300897
 40
7.976511257403419
 40
8.36948789659222
 40
8.757514959223542
 40
9.126072419331033
 40
9.460639380392095
 40
9.746695593035765
 40
9.777569943118541
 40
9.807050320931733
 40
9.830377336128862
 40
9.886003295435946
 40
9.952395569429854
 40
10.00802152870623
 40
10.03134854388214
 40
10.21356951009591
 40
10.42203479292864
 40
10.6615455673106
 40
10.91693789564301
 40
11.15832906556563
 40
11.18982674596618
 40
11.27286608520403
 40
11.3902665303335
 40
11.52484752840883
 40
11.65942852648445
 40
11.77682897161482
 40
11.85986831085679
 40
11.89136598230424
 40
11.89136598230424
 40
11.89136598230424
 40
11.89136598230424
 10
124.5930987472972
 20
-29.39790377026512
 10
124.5931340230064
 20
-29.38902130416299
 10
124.5932469175572
 20
-29.36059740680939
 10
124.5916087033265
 20
-29.3108033855848
 10
124.5972852757687
 20
-29.2683241325013
 10
124.5860031196482
 20
-29.21759822871437
 10
124.6535399443808
 20
-29.23477076988175
 10
124.7291131675475
 20
-29.22199750562288
 10
124.8731459520777
 20
-29.22860248270903
 10
125.0472521650202
 20
-29.22601515521819
 10
125.2542702075779
 20
-29.22689385772731
 10
125.4797790637153
 20
-29.22661769808258
 10
125.7154264758182
 20
-29.22671638069622
 10
125.9510742996124
 20
-29.22661793315516
 10
126.1765820045402
 20
-29.22689299537495
 10
126.3836037097581
 20
-29.22601791457549
 10
126.5576991380064
 20
-29.22859455049839
 10
126.7017594536761
 20
-29.22201687279071
 10
126.7772794380069
 20
-29.23473734322679
 10
126.8448878501806
 20
-29.21763577536599
 10
126.8333942605452
 20
-29.26815191925343
 10
126.8408207046508
 20
-29.31236725501783
 10
126.8331941392762
 20
-29.35622011224673
 10
126.8449591924201
 20
-29.40611603248957
 10
126.7833890956758
 20
-29.39096750015771
 10
126.7159894203447
 20
-29.40179312377612
 10
126.5916106520997
 20
-29.39637946102047
 10
126.4457530701347
 20
-29.39840772337499
 10
126.2796678904861
 20
-29.39774200149898
 10
126.10915150865
 20
-29.39800334207043
 10
125.9422893320165
 20
-29.39768424337191
 10
125.7990449291881
 20
-29.39854675137521
 10
125.667641633461
 20
-29.39626677245296
 10
125.6142961599433
 20
-29.40082273354082
 10
125.5388290921688
 20
-29.39490062735406
 10
125.5672178244008
 20
-29.40395808384932
 10
125.5936754874318
 20
-29.40764065459354
 10
125.5536625372477
 20
-29.43835705760008
 10
125.4616766156645
 20
-29.42822386553656
 10
125.4342498671844
 20
-29.67457475480495
 10
125.338189643201
 20
-29.82990418963911
 10
125.0820380429249
 20
-30.15964559796713
 10
125.6530640197538
 20
-30.02059955517834
 10
125.9076758785292
 20
-30.02198197754922
 10
126.5182749513393
 20
-30.10699408486197
 10
126.2243801042859
 20
-29.80804560170084
 10
125.9036406751293
 20
-29.66159120826508
 10
126.0216645825209
 20
-29.60464436909996
 10
126.0627818931037
 20
-29.58069877854934
 10
126.1059914859187
 20
-29.55890218917056
 10
126.2077676559224
 20
-29.49561256474372
 10
126.3231970090024
 20
-29.75342826319503
 10
126.5232694107053
 20
-29.88873936614603
 10
126.6172179852003
 20
-30.06697182589403
 10
126.8461932211169
 20
-30.22492156701237
 10
126.7499134311484
 20
-30.27574005151983
 10
126.7071062228555
 20
-30.30608685205229
 10
126.6621345993555
 20
-30.33023847446825
 10
126.602482338999
 20
-30.37937830980715
 10
126.56928335261
 20
-30.24492502054678
 10
126.4485115815573
 20
-30.08895712441699
 10
126.0874078470754
 20
-30.2192004966873
 10
125.7288164420316
 20
-30.20265283318801
 10
125.3474022914856
 20
-30.21158748376419
 10
125.0606557747667
 20
-30.27607306055879
 10
124.749515806449
 20
-30.16259309535455
 10
124.7171840283564
 20
-30.27367717800521
 10
124.6799280718093
 20
-30.29293663878273
 10
124.6768840097528
 20
-30.24615193640989
 10
124.6582995325382
 20
-30.20683123809149
 10
124.6415539081553
 20
-30.1472399425005
 10
124.6286833380528
 20
-30.10288007857002
 10
124.5945430271205
 20
-30.01383646608076
 10
124.8385816922528
 20
-30.08308934784515
 10
125.0344496951446
 20
-30.10459608670536
 10
125.1298528846053
 20
-29.82263493249823
 10
125.1848238234373
 20
-29.66126932307163
 10
125.4062721821931
 20
-29.39098800138546
 10
125.2752341845992
 20
-29.39941530874549
 10
125.201312902063
 20
-29.39710969231315
 10
125.088056234102
 20
-29.39818599406628
 10
124.959735427226
 20
-29.39782338651774
 10
124.8307354495191
 20
-29.39792253262198
 10
124.7190943411067
 20
-29.39790045015712
 10
124.6417766434803
 20
-29.39790398538616
 10
124.6035978996786
 20
-29.39790381883202
 10
124.5930987472972
 20
-29.39790377026512
 97
        1
330
A5
 75
     1
 76
     2
 52
45.0
 41
0.1
 77
     0
 78
     1
 53
45.0
 43
0.0
 44
0.0
 45
-0.282842712474619
 46
0.0
 79
     0
 98
        1
 10
0.0
 20
0.0
  0
HATCH
  5
C3
330
48
100
AcDbEntity
  8
1
  6
Continuous
 62
     2
100
AcDbHatch
 10
0.0
 20
0.0
 30
0.0
210
0.0
220
0.0
230
1.0
  2
CUSTOM5
 70
     0
 71
     1
 91
        1
 92
        1
 93
        1
 72
     4
 94
        3
 73
     0
 74
     0
 95
       35
 96
       31
 40
0.0
 40
0.0
 40
0.0
 40
0.0
 40
0.0335231036620645
 40
0.0713218571712064
 40
0.4278866681486669
 40
0.8116865841963798
 40
1.198190238000005
 40
1.561379546812701
 40
1.659983174622047
 40
1.75931557380723
 40
2.132719617231077
 40
2.525233363588782
 40
2.910815397779684
 40
3.265244364303308
 40
3.592606723582
 40
3.964386154603933
 40
4.359942131737768
 40
4.758154118639271
 40
4.843846538699859
 40
4.936650065543205
 40
5.256616602537306
 40
5.581707404416019
 40
5.899719158308121
 40
6.198363494280716
 40
6.466301046615749
 40
6.493895311537057
 40
6.559697020196864
 40
6.638234543442425
 40
6.70403625215422
 40
6.731630508422997
 40
6.731630508422997
 40
6.731630508422997
 40
6.731630508422997
 10
125.8639113033445
 20
-27.8702613400915
 10
125.8579108562565
 20
-27.88009287185961
 10
125.8451446563933
 20
-27.90100989148486
 10
125.685246447133
 20
-27.93362851195594
 10
126.1225128307112
 20
-28.22283297391584
 10
126.3248497293037
 20
-28.42448839369843
 10
126.5722666732749
 20
-28.66740590125013
 10
127.0734616089382
 20
-28.74442314970503
 10
126.9028664663746
 20
-28.88613038553632
 10
126.8286401927975
 20
-29.08779611519168
 10
126.5034534712963
 20
-28.73533690553563
 10
126.218084413544
 20
-28.57314765168719
 10
125.9240706542434
 20
-28.36802847675237
 10
125.6987555155909
 20
-27.88662489132829
 10
125.4896187520298
 20
-28.35146931119063
 10
125.211097613961
 20
-28.56139025475373
 10
124.9274485641985
 20
-28.73065521368299
 10
124.5981741992607
 20
-29.10347616820347
 10
124.5180114783
 20
-28.90781963269281
 10
124.3662827374521
 20
-28.7799887353769
 10
124.798649829157
 20
-28.70035945962348
 10
124.9865667794542
 20
-28.5046334281281
 10
125.2371579885279
 20
-28.2885698081153
 10
125.4617452934936
 20
-28.12298985428224
 10
125.5162877874489
 20
-27.84356013091459
 10
125.6397763493787
 20
-27.85752027320206
 10
125.6963375809296
 20
-27.85968708860637
 10
125.766497344972
 20
-27.86443117846925
 10
125.8236516486881
 20
-27.86780548377742
 10
125.8547292785615
 20
-27.86970123017165
 10
125.8639113033445
 20
-27.8702613400915
 97
        1
330
A6
 75
     1
 76
     2
 52
45.0
 41
0.1
 77
     0
 78
     1
 53
45.0
 43
0.0
 44
0.0
 45
-0.282842712474619
 46
0.0
 79
     0
 98
        1
 10
0.0
 20
0.0
  0
HATCH
  5
C4
330
48
100
AcDbEntity
  8
1
  6
Continuous
 62
     2
100
AcDbHatch
 10
0.0
 20
0.0
 30
0.0
210
0.0
220
0.0
230
1.0
  2
CUSTOM6
 70
     0
 71
     1
 91
        1
 92
        1
 93
        1
 72
     4
 94
        3
 73
     0
 74
     0
 95
       15
 96
       11
 40
0.0
 40
0.0
 40
0.0
 40
0.0
 40
0.2785535985096916
 40
0.5215624748198813
 40
0.6076917376040656
 40
0.6938210001741805
 40
0.9405019146455026
 40
1.221691403489193
 40
1.300471877081142
 40
1.37925234168494
 40
1.37925234168494
 40
1.37925234168494
 40
1.37925234168494
 10
123.4584596095775
 20
-27.87559710397903
 10
123.5199120258954
 20
-27.92798331135568
 10
123.634975243889
 20
-28.02607100930057
 10
123.930045096202
 20
-28.17600191831064
 10
123.7928250096632
 20
-28.26146750213271
 10
123.6944330308553
 20
-28.39404192526726
 10
123.6033136055425
 20
-28.08872991946861
 10
123.2539941945429
 20
-28.02522108262906
 10
123.4022360841346
 20
-27.92593467847406
 10
123.4397184339012
 20
-27.89237629325902
 10
123.4584596095775
 20
-27.87559710397903
 97
        1
330
A7
 75
     1
 76
     2
 52
45.0
 41
0.1
 77
     0
 78
     1
 53
45.0
 43
0.0
 44
0.0
 45
-0.282842712474619
 46
0.0
 79
     0
 98
        1
 10
0.0
 20
0.0
  0
HATCH
  5
C5
330
48
100
AcDbEntity
  8
1
  6
Continuous
 62
     2
100
AcDbHatch
 10
0.0
 20
0.0
 30
0.0
210
0.0
220
0.0
230
1.0
  2
CUSTOM7
 70
     0
 71
     1
 91
        1
 92
        1
 93
        1
 72
     4
 94
        3
 73
     0
 74
     0
 95
       75
 96
       71
 40
0.0
 40
0.0
 40
0.0
 40
0.0
 40
0.0342546099129709
 40
0.1245622414432329
 40
0.25223854808975
 40
0.398599192294068
 40
0.5449598364980839
 40
0.672636143143887
 40
0.7629437746736942
 40
0.7971983935297973
 40
1.101723623449644
 40
1.40859124403658
 40
1.433332471690289
 40
1.487763172450077
 40
1.542193873081912
 40
1.566935100592461
 40
1.923523931821772
 40
2.271755704953587
 40
2.59057975510087
 40
2.858943305581168
 40
2.88912033930917
 40
2.918305855191084
 40
2.941366645531216
 40
2.996357760973114
 40
3.061992318140678
 40
3.11698343362687
 40
3.140044223997551
 40
3.411273122936529
 40
3.732441619741222
 40
3.761068217532918
 40
3.837787499630485
 40
3.948858699126125
 40
4.080541049104506
 40
4.219093782625892
 40
4.350776132722439
 40
4.46184733240578
 40
4.538566614678503
 40
4.567193212544753
 40
4.594907573999011
 40
4.666381453557536
 40
4.764111044011161
 40
4.870592538125978
 40
4.968322128642443
 40
5.039796008287128
 40
5.067510369784559
 40
5.094263603185771
 40
5.153120716668402
 40
5.211977830150849
 40
5.238731063551851
 40
5.272290535139119
 40
5.363380529444951
 40
5.497618415781615
 40
5.660621563453871
 40
5.838007341749572
 40
6.015393119910881
 40
6.178396267038535
 40
6.312634151842486
 40
6.40372414305949
 40
6.437283612672571
 40
6.464036846261186
 40
6.522893960004799
 40
6.581751071484062
 40
6.608504301591006
 40
6.63725394128114
 40
6.711397748902991
 40
6.812778057283589
 40
6.923237199249352
 40
7.024617507624024
 40
7.098761315207662
 40
7.127510946007627
 40
7.127510946007627
 40
7.127510946007627
 40
7.127510946007627
 10
122.332172485534
 20
-29.14640849255019
 10
122.3321725284483
 20
-29.15782664319563
 10
122.3321726945905
 20
-29.19934719885654
 10
122.3321695546563
 20
-29.28343055724512
 10
122.3321890744576
 20
-29.40485480405955
 10
122.3321014652513
 20
-29.54509483680835
 10
122.3324218700006
 20
-29.68483420933708
 10
122.3314708374516
 20
-29.80744938833353
 10
122.3335081060743
 20
-29.88902903290241
 10
122.3252535643522
 20
-30.04218710650582
 10
122.6333900405678
 20
-29.87929741673566
 10
122.9253747638509
 20
-29.71007039040288
 10
122.9311456913483
 20
-29.84516741946372
 10
122.9358574184666
 20
-29.88872756567841
 10
122.9385637876694
 20
-29.93278728377739
 10
122.9575648137735
 20
-30.08217387365151
 10
122.5487044712079
 20
-30.01808805487021
 10
122.2696812813608
 20
-30.13193636317267
 10
121.9921184051942
 20
-30.23125881917145
 10
121.7002939649175
 20
-30.18859290131921
 10
121.6772247143433
 20
-30.29168297983742
 10
121.6440576848109
 20
-30.31798886483815
 10
121.6383756427514
 20
-30.27034668691979
 10
121.618731702382
 20
-30.23309641613215
 10
121.5998191950398
 20
-30.17482589880721
 10
121.5845952332482
 20
-30.13104776720481
 10
121.538034883771
 20
-30.01730556681969
 10
121.8793999777227
 20
-30.04913676608238
 10
122.1582751832158
 20
-30.08328542621804
 10
122.1520855499684
 20
-29.93576001248633
 10
122.1534037917548
 20
-29.86476826819451
 10
122.1527934154725
 20
-29.75770209769622
 10
122.15289740355
 20
-29.63091447942286
 10
122.1533090428832
 20
-29.49640734232233
 10
122.1517010306744
 20
-29.37094427777098
 10
122.1563005032701
 20
-29.25984731009167
 10
122.1467288966986
 20
-29.19728090927595
 10
122.1607104248467
 20
-29.13894589433282
 10
122.1050486851481
 20
-29.15200267146045
 10
122.0478757662597
 20
-29.14353669978784
 10
121.9519151390424
 20
-29.14760001647646
 10
121.8536869987597
 20
-29.1451908787581
 10
121.7575684922336
 20
-29.14938377114893
 10
121.7007750990587
 20
-29.14060631287121
 10
121.645345933816
 20
-29.15395040878161
 10
121.6573781892693
 20
-29.10453066769027
 10
121.6495105638714
 20
-29.06095989697889
 10
121.6569398028605
 20
-29.01659508609758
 10
121.6455033028919
 20
-28.96587679964293
 10
121.7135204834909
 20
-28.98327516970541
 10
121.7871599344522
 20
-28.97072527491096
 10
121.9228166522987
 20
-28.97690300717187
 10
122.0788011489301
 20
-28.97460774635202
 10
122.2519028822919
 20
-28.97549009465753
 10
122.4250045428957
 20
-28.97460770585877
 10
122.5809892275992
 20
-28.97690314772734
 10
122.7166454354574
 20
-28.97072491465854
 10
122.7902859170428
 20
-28.98327583509949
 10
122.85830166395
 20
-28.96587604716142
 10
122.8468693350698
 20
-29.01659847313729
 10
122.8542641923073
 20
-29.06092916917176
 10
122.8465142377046
 20
-29.10461670178087
 10
122.8584306206652
 20
-29.15426387629806
 10
122.8011272688393
 20
-29.14028566389857
 10
122.7423248254548
 20
-29.14950222055029
 10
122.6428396097975
 20
-29.14537709563353
 10
122.5397382563125
 20
-29.14667217702396
 10
122.4440948819349
 20
-29.14635900650642
 10
122.3760570436393
 20
-29.14641201031137
 10
122.3417564678219
 20
-29.14640925856627
 10
122.332172485534
 20
-29.14640849255019
 97
        1
330
A8
 75
     1
 76
     2
 52
45.0
 41
0.1
 77
     0
 78
     1
 53
45.0
 43
0.0
 44
0.0
 45
-0.282842712474619
 46
0.0
 79
     0
 98
        1
 10
0.0
 20
0.0
  0
HATCH
  5
C6
330
48
100
AcDbEntity
  8
1
  6
Continuous
 62
     2
100
AcDbHatch
 10
0.0
 20
0.0
 30
0.0
210
0.0
220
0.0
230
1.0
  2
CUSTOM8
 70
     0
 71
     1
 91
        1
 92
        1
 93
        1
 72
     4
 94
        3
 73
     0
 74
     0
 95
       91
 96
       87
 40
0.0
 40
0.0
 40
0.0
 40
0.0
 40
0.0345987051695576
 40
0.1258134969461511
 40
0.2547723404888845
 40
0.4026032099153983
 40
0.5504340793416704
 40
0.6793929228836222
 40
0.7706077146571177
 40
0.8052064287780925
 40
1.124852390615272
 40
1.42740223630887
 40
1.706356627453512
 40
1.955541417875186
 40
2.169485938566333
 40
2.344350786664761
 40
2.480568411561932
 40
2.5904405574289
 40
2.649189927151106
 40
2.749320643306327
 40
2.912632739880016
 40
3.147745656000212
 40
3.244827496385131
 40
3.338490056946795
 40
3.58381541320722
 40
3.761423943238586
 40
3.886956104362753
 40
3.985855451886937
 40
4.091766255337808
 40
4.250186473811987
 40
4.422734315084654
 40
4.628285684838727
 40
4.872093227758558
 40
5.152549652145678
 40
5.464967135837655
 40
5.80320147785257
 40
6.160362988814045
 40
6.1934494482761
 40
6.284170385501726
 40
6.419718138764624
 40
6.58728504638586
 40
6.774063446723789
 40
6.967245678113743
 40
7.1540240788178
 40
7.321590987026143
 40
7.457138740890516
 40
7.547859678556252
 40
7.580946138182798
 40
7.608533084714852
 40
7.669224367077836
 40
7.729915649430064
 40
7.757502595950116
 40
7.79027806255357
 40
7.880146277431068
 40
8.014419963180517
 40
8.180411842398017
 40
8.365434637679487
 40
8.556801071622802
 40
8.741823866830915
 40
8.907815745916468
 40
9.042089431507621
 40
9.131957646249719
 40
9.16473311279731
 40
9.415425063140237
 40
9.667986180958696
 40
9.694169807462792
 40
9.756607686047724
 40
9.831130315322588
 40
9.893568193899995
 40
9.919751820398798
 40
9.950967964690598
 40
9.996421631210778
 40
10.22087981037466
 40
10.44341866197554
 40
10.4784797078887
 40
10.57091337438767
 40
10.70159545461244
 40
10.85140174170377
 40
11.00120802880498
 40
11.13189010907402
 40
11.22432377583031
 40
11.25938480938978
 40
11.28697175596166
 40
11.34766303835941
 40
11.40835432042092
 40
11.43594125892126
 40
11.43594125892126
 40
11.43594125892126
 40
11.43594125892126
 10
123.9721216798065
 20
-28.55247182603208
 10
123.9605888309717
 20
-28.55247187440369
 10
123.9186511909774
 20
-28.55247204024121
 10
123.8337232183801
 20
-28.55246851927377
 10
123.7110791017905
 20
-28.55249051292406
 10
123.5694309381769
 20
-28.55239176551232
 10
123.4282856163265
 20
-28.55275291495862
 10
123.304445378268
 20
-28.55168094119198
 10
123.2220320290158
 20
-28.55397728637016
 10
123.0630893694468
 20
-28.54441408354866
 10
123.2406504818152
 20
-28.90704583416913
 10
123.2282841670228
 20
-29.15246850005171
 10
123.296762193864
 20
-29.43627476403449
 10
123.3596126785746
 20
-29.6723897778925
 10
123.4355355896504
 20
-29.87163237332153
 10
123.5206292041791
 20
-30.02744630276912
 10
123.6147710057711
 20
-30.1283211994689
 10
123.7185750672503
 20
-30.18024125089318
 10
123.8028974495549
 20
-30.12883493348669
 10
123.8254424644228
 20
-30.01345433690768
 10
123.8648833440146
 20
-29.88604828025902
 10
123.8106022199717
 20
-29.56867649641528
 10
123.9354320537249
 20
-29.71507797587383
 10
124.0922393978379
 20
-29.74694677397107
 10
123.9850822471833
 20
-29.98068619960658
 10
123.9711813674643
 20
-30.14517201144627
 10
123.9137811932002
 20
-30.27359108605803
 10
123.8238122609784
 20
-30.34471175375457
 10
123.6998377122653
 20
-30.36057653586031
 10
123.5537375661636
 20
-30.32496180174112
 10
123.4146996785059
 20
-30.20489407228008
 10
123.300510642692
 20
-30.03054295177962
 10
123.2049243766262
 20
-29.80543374617045
 10
123.1221755037402
 20
-29.54101731721843
 10
123.0710281721187
 20
-29.22302044629741
 10
122.9673291672114
 20
-28.94946249239372
 10
123.0945943673297
 20
-28.54484159115418
 10
122.9260993087794
 20
-28.55377609878606
 10
122.8415098251853
 20
-28.55174016309923
 10
122.7092978852403
 20
-28.55276040339878
 10
122.546360755888
 20
-28.55236747409856
 10
122.3636861635309
 20
-28.55254281414916
 10
122.1750159838158
 20
-28.55229872420816
 10
121.9917571484965
 20
-28.55304319822049
 10
121.8307849297493
 20
-28.55073617205858
 10
121.6932910800051
 20
-28.55690172844623
 10
121.6192692837086
 20
-28.54457139270074
 10
121.5516317651632
 20
-28.56160654004729
 10
121.5635476184045
 20
-28.50965539280757
 10
121.555877975047
 20
-28.46418552761756
 10
121.5635694689891
 20
-28.41875524024579
 10
121.5516244262537
 20
-28.36687581743713
 10
121.6186690770642
 20
-28.38370834238021
 10
121.6920478130452
 20
-28.37154568635613
 10
121.8282230770047
 20
-28.37762746653325
 10
121.9876914266288
 20
-28.37535143413226
 10
122.1692275550612
 20
-28.37608743729322
 10
122.3561137326955
 20
-28.3758402353215
 10
122.5371114781612
 20
-28.37603576929031
 10
122.6983905043654
 20
-28.37557743013444
 10
122.8296984589663
 20
-28.37677303977079
 10
122.9128153787372
 20
-28.37438630408541
 10
123.045933901259
 20
-28.38259372002821
 10
122.9548995967435
 20
-28.12737108775631
 10
122.8692735539194
 20
-27.86325619400036
 10
122.9893691468231
 20
-27.8758553475912
 10
123.0417367413319
 20
-27.87795741965208
 10
123.1117600034491
 20
-27.87954577838629
 10
123.1575024802592
 20
-27.88887410190171
 10
123.2123915111708
 20
-27.87944010812858
 10
123.1866677250456
 20
-27.92756949073115
 10
123.0728500036228
 20
-27.92223147984109
 10
123.2062449085911
 20
-28.1504080315151
 10
123.0846761200247
 20
-28.38333121132361
 10
123.2126291234188
 20
-28.37402718843845
 10
123.2952150871236
 20
-28.37688975973603
 10
123.4210317315599
 20
-28.37566540315981
 10
123.5644572302834
 20
-28.3755754583932
 10
123.7060523416504
 20
-28.37743814544429
 10
123.8362229714743
 20
-28.37156901791121
 10
123.9096554750966
 20
-28.38419636905079
 10
123.9794215386872
 20
-28.36612414617872
 10
123.9678875070171
 20
-28.41877127181958
 10
123.9736286811459
 20
-28.46268660041736
 10
123.9719718235686
 20
-28.51399995051737
 10
123.9720860026445
 20
-28.5433118570665
 10
123.9721216798065
 20
-28.55247182603208
 97
        1
330
A9
 75
     1
 76
     2
 52
45.0
 41
0.1
 77
     0
 78
     1
 53
45.0
 43
0.0
 44
0.0
 45
-0.282842712474619
 46
0.0
 79
     0
 98
        1
 10
0.0
 20
0.0
  0
HATCH
  5
C7
330
48
100
AcDbEntity
  8
1
  6
Continuous
 62
     2
100
AcDbHatch
 10
0.0
 20
0.0
 30
0.0
210
0.0
220
0.0
230
1.0
  2
CUSTOM9
 70
     0
 71
     1
 91
        1
 92
        1
 93
        1
 72
     4
 94
        3
 73
     0
 74
     0
 95
      118
 96
      114
 40
0.0
 40
0.0
 40
0.0
 40
0.0
 40
0.1054708162973438
 40
0.2466098270052161
 40
0.3965912874591639
 40
0.5285525069754381
 40
0.6156245055642846
 40
0.6431434105798061
 40
0.703685003798675
 40
0.7642265984505121
 40
0.7917455052355509
 40
0.9287404319990643
 40
1.106572819088116
 40
1.287544879681159
 40
1.317578308030674
 40
1.399928030857313
 40
1.522968204800085
 40
1.675072986590712
 40
1.844616533180793
 40
2.019973001638855
 40
2.189516548880162
 40
2.341621331585499
 40
2.464661506320637
 40
2.547011229647203
 40
2.577044658168168
 40
2.603797890893196
 40
2.662655002908869
 40
2.721512114949653
 40
2.748265347702804
 40
2.774215307344877
 40
2.845959313407209
 40
2.954338556588409
 40
3.090194227585583
 40
3.244367517100555
 40
3.40769961584431
 40
3.571031714539457
 40
3.72520500392014
 40
3.861060674729635
 40
3.969439917716331
 40
4.041183923629001
 40
4.067133883212994
 40
4.311886746012168
 40
4.547897258335543
 40
4.76474708304401
 40
4.952749679951808
 40
5.045772974195939
 40
5.137862019645032
 40
5.330543169793073
 40
5.553448265244062
 40
5.795083855888224
 40
6.043293412177297
 40
6.285761695541235
 40
6.313902908752762
 40
6.384255941793323
 40
6.475714884766911
 40
6.567173827758974
 40
6.637526860839738
 40
6.665668074074087
 40
6.692018920328059
 40
6.74999078207114
 40
6.807962643790506
 40
6.834313490017982
 40
6.856393084245233
 40
6.913335195649913
 40
6.991194817302563
 40
7.076026942283824
 40
7.153886563725343
 40
7.210828674844882
 40
7.232908268931232
 40
7.258199334923758
 40
7.324875781592403
 40
7.41914248192506
 40
7.527204308842001
 40
7.635266135230579
 40
7.729532834168565
 40
7.796209279292888
 40
7.821500344594834
 40
7.844652988850975
 40
7.899863140541697
 40
7.965759128053864
 40
8.020969279771162
 40
8.044121924046614
 40
8.06935661016073
 40
8.109134395441554
 40
8.13223810019127
 40
8.193147867786632
 40
8.2792616788768
 40
8.377977512674015
 40
8.4766933471468
 40
8.562807160411854
 40
8.623716930826639
 40
8.64682063685359
 40
8.671988793774446
 40
8.734909185828329
 40
8.816705695189043
 40
8.89850220481567
 40
8.961422597378132
 40
8.986590754551273
 40
9.01294160073343
 40
9.070913462380517
 40
9.128885324082017
 40
9.155236170325335
 40
9.180404327929363
 40
9.24332472194845
 40
9.325121234212272
 40
9.406917746637955
 40
9.469838141978425
 40
9.495006288271227
 40
9.517811184379372
 40
9.57219209048736
 40
9.637098333281589
 40
9.691479239515782
 40
9.714284125643818
 40
9.714284125643818
 40
9.714284125643818
 40
9.714284125643818
 10
119.1777571493428
 20
-28.83600814540564
 10
119.1994093033813
 20
-28.86378108485472
 10
119.2500359574248
 20
-28.92871923167048
 10
119.3252485667367
 20
-29.03598917415384
 10
119.4151584739121
 20
-29.15112539461657
 10
119.4612272141448
 20
-29.25132931979966
 10
119.5558927759431
 20
-29.3205597091334
 10
119.5107541785189
 20
-29.36718338050011
 10
119.4850150250566
 20
-29.40829668862243
 10
119.4548299172788
 20
-29.44424006000346
 10
119.4096787195338
 20
-29.5191019513219
 10
119.3613606923338
 20
-29.29707453474681
 10
119.2871642177849
 20
-29.25979300390572
 10
119.1739149789381
 20
-28.98879775597682
 10
119.1788236042945
 20
-29.10394649282056
 10
119.177158902108
 20
-29.17653301946656
 10
119.177993254149
 20
-29.29864389244298
 10
119.1776712005038
 20
-29.44576176917824
 10
119.1778179377231
 20
-29.61182913771727
 10
119.1776052557497
 20
-29.78302423119682
 10
119.1782599716808
 20
-29.94937149092786
 10
119.1762294925914
 20
-30.0955480467259
 10
119.1816562864705
 20
-30.22018930253675
 10
119.1708033333483
 20
-30.28771321187656
 10
119.185984162033
 20
-30.34940916311262
 10
119.1360997572909
 20
-30.33762473831282
 10
119.0920252807297
 20
-30.34546154948314
 10
119.0485474094976
 20
-30.33729536355582
 10
118.9995449251265
 20
-30.34951920989815
 10
119.0121833699601
 20
-30.2952931047897
 10
119.0033285433225
 20
-30.23553058820727
 10
119.007816123509
 20
-30.12567948683914
 10
119.0061062600766
 20
-29.99460002322606
 10
119.0066653380762
 20
-29.84291966283956
 10
119.006503123347
 20
-29.6827890279833
 10
119.006537238945
 20
-29.52253112053718
 10
119.0065617424903
 20
-29.37119730207845
 10
119.0064556008001
 20
-29.23907821389682
 10
119.0067401606707
 20
-29.13195175195091
 10
119.0061778012344
 20
-29.06681358148811
 10
119.0083867548464
 20
-28.93871019869608
 10
118.9222538463379
 20
-29.3139236733671
 10
118.8458243283276
 20
-29.4657178460489
 10
118.7563143232609
 20
-29.62723771281975
 10
118.6543515682102
 20
-29.90018128908116
 10
118.6091078955814
 20
-29.73772631131772
 10
118.5005458406446
 20
-29.64884545670166
 10
118.6898894216528
 20
-29.49940182766874
 10
118.7468443010476
 20
-29.3074084075336
 10
118.8620623458128
 20
-29.07590354821527
 10
118.8843254094908
 20
-28.88692717969221
 10
119.0675007616916
 20
-28.61035888402354
 10
118.9441136062328
 20
-28.61790998896191
 10
118.8828786631609
 20
-28.61633205362166
 10
118.798510208184
 20
-28.61607385154612
 10
118.7107337550741
 20
-28.6194513197708
 10
118.6559871160899
 20
-28.61095162746265
 10
118.60078054908
 20
-28.62441416678497
 10
118.6125925500312
 20
-28.5755853560152
 10
118.6045598616569
 20
-28.53220972831576
 10
118.6131288569455
 20
-28.48980539418712
 10
118.6006045873932
 20
-28.44222181176167
 10
118.6458204003511
 20
-28.45222764733175
 10
118.6917918027499
 20
-28.44595872554223
 10
118.7680324512486
 20
-28.44896416322412
 10
118.846439859677
 20
-28.44719529449743
 10
118.9227095113708
 20
-28.45025183746625
 10
118.9686111924251
 20
-28.44386006352106
 10
119.0134836430176
 20
-28.45396154749388
 10
119.0008654740409
 20
-28.40332776146386
 10
119.0095039047482
 20
-28.34988715846214
 10
119.0055464060219
 20
-28.25626722596603
 10
119.0065427533111
 20
-28.15377371039361
 10
119.0075029877849
 20
-28.0513670748012
 10
119.0036313922781
 20
-27.95754048118964
 10
119.0120892279141
 20
-27.90453434887931
 10
118.9996178397611
 20
-27.85278542077093
 10
119.0445208854626
 20
-27.86639230501527
 10
119.0858186301548
 20
-27.86389497407698
 10
119.1498446745826
 20
-27.86841917153797
 10
119.1889213613562
 20
-27.87708974684974
 10
119.2379645963518
 20
-27.86974875657598
 10
119.2128182495366
 20
-27.90887081676528
 10
119.1719003798498
 20
-27.89926135272474
 10
119.1813212081379
 20
-27.94949829558506
 10
119.1758749783521
 20
-28.00104032088793
 10
119.1784802066579
 20
-28.08530270143764
 10
119.1773204666929
 20
-28.17930842144875
 10
119.1786693529006
 20
-28.2729311233276
 10
119.1753072566283
 20
-28.3581046017606
 10
119.1824062382544
 20
-28.40773121656241
 10
119.171567161932
 20
-28.45496282758296
 10
119.220711269002
 20
-28.44288302791432
 10
119.2697980094922
 20
-28.45042584365273
 10
119.3476816745417
 20
-28.44803907366851
 10
119.4253467637671
 20
-28.44590595822869
 10
119.4748496396131
 20
-28.4529658580583
 10
119.5247697215415
 20
-28.44129825792069
 10
119.5126300981657
 20
-28.48949742356892
 10
119.520894069392
 20
-28.53240757927049
 10
119.5126301115559
 20
-28.575317758769
 10
119.524769701463
 20
-28.62351688973419
 10
119.4748497623522
 20
-28.61184943256774
 10
119.4253453115978
 20
-28.61890775293239
 10
119.3476886847748
 20
-28.61678312499682
 10
119.2697746330535
 20
-28.61436588362524
 10
119.2207602817491
 20
-28.62198129533799
 10
119.1716348573718
 20
-28.60982025170692
 10
119.1818662453345
 20
-28.65416964304126
 10
119.1759780142828
 20
-28.69564541525374
 10
119.1781890770344
 20
-28.7557458341298
 10
119.177721181092
 20
-28.80264194965395
 10
119.1777489457688
 20
-28.82839831310087
 10
119.1777571493428
 20
-28.83600814540564
 97
        1
330
AA
 75
     1
 76
     2
 52
45.0
 41
0.1
 77
     0
 78
     1
 53
45.0
 43
0.0
 44
0.0
 45
-0.282842712474619
 46
0.0
 79
     0
 98
        1
 10
0.0
 20
0.0
  0
HATCH
  5
C8
330
48
100
AcDbEntity
  8
1
  6
Continuous
 62
     2
100
AcDbHatch
 10
0.0
 20
0.0
 30
0.0
210
0.0
220
0.0
230
1.0
  2
CUSTOM10
 70
     0
 71
     1
 91
        1
 92
        1
 93
        1
 72
     4
 94
        3
 73
     0
 74
     0
 95
       47
 96
       43
 40
0.0
 40
0.0
 40
0.0
 40
0.0
 40
0.2207912809957242
 40
0.4459404186303073
 40
0.4902387190459427
 40
0.5327473892722376
 40
0.5742260451225563
 40
0.615543263055972
 40
0.656816406631535
 40
0.6982511618780698
 40
0.7407663929316775
 40
0.7851366743175403
 40
1.01028883383634
 40
1.231080507002193
 40
1.451765243652425
 40
1.676638205891705
 40
1.720461045359676
 40
1.830018144043541
 40
1.972442372353167
 40
2.114866600677543
 40
2.224423699395163
 40
2.268246538883402
 40
2.493628801207234
 40
2.715602830286626
 40
2.934211330706392
 40
3.149502369855394
 40
3.231387784851069
 40
3.318231873854204
 40
3.405143198198177
 40
3.486970301720516
 40
3.702258172493965
 40
3.920866283534208
 40
4.142839325931993
 40
4.368221903865449
 40
4.412044743359931
 40
4.521601842095939
 40
4.664026070452421
 40
4.806450298809131
 40
4.916007397546823
 40
4.959830237043149
 40
5.184703515847178
 40
5.405387250767555
 40
5.405387250767555
 40
5.405387250767555
 40
5.405387250767555
 10
116.5410529723421
 20
-28.37083536774412
 10
116.5471241884779
 20
-28.30731495227074
 10
116.5593864572019
 20
-28.17902039038656
 10
116.4507809344188
 20
-27.90323757554209
 10
116.566508836138
 20
-27.9330184429623
 10
116.6074944973791
 20
-27.93724421465463
 10
116.6494308262293
 20
-27.94179531338678
 10
116.6907299090485
 20
-27.942879947988
 10
116.7320134580331
 20
-27.94179639533056
 10
116.7739250735422
 20
-27.9372386501694
 10
116.8149086013794
 20
-27.93302547518554
 10
116.9308025308265
 20
-27.90312366410751
 10
116.8198755192232
 20
-28.18150171118393
 10
116.8477958830043
 20
-28.36206836903333
 10
116.8307369811745
 20
-28.59528935381811
 10
116.8317739746878
 20
-28.7558335518514
 10
116.8317201864181
 20
-28.88205160169562
 10
116.8317379837256
 20
-28.98061014392043
 10
116.8317291045856
 20
-29.11209275285321
 10
116.8317366392809
 20
-29.24357132759635
 10
116.8317231869904
 20
-29.34213755034193
 10
116.8317634182268
 20
-29.46850242104133
 10
116.8309848868594
 20
-29.63007908905414
 10
116.8469060784043
 20
-29.8612815583537
 10
116.8236571350183
 20
-30.04615625756282
 10
116.9263285909142
 20
-30.31554374958233
 10
116.7723340827611
 20
-30.27829865042465
 10
116.6907232267607
 20
-30.28351983047749
 10
116.6091294757358
 20
-30.27829357349932
 10
116.4551616131618
 20
-30.31552907842899
 10
116.5577285886693
 20
-30.04614847865403
 10
116.5345147780864
 20
-29.8612839240287
 10
116.5503547119914
 20
-29.63007759162646
 10
116.5496398778203
 20
-29.46850265419781
 10
116.5496767034682
 20
-29.34213746517764
 10
116.5496651465046
 20
-29.24357221092302
 10
116.549667748399
 20
-29.11208850311065
 10
116.5496750996555
 20
-28.98062429697086
 10
116.5496545006127
 20
-28.88202191452958
 10
116.5497184656804
 20
-28.75593828373859
 10
116.5484836412366
 20
-28.59279886344513
 10
116.5435142861521
 20
-28.44435793950734
 10
116.5410529723421
 20
-28.37083536774412
 97
        1
330
AB
 75
     1
 76
     2
 52
45.0
 41
0.1
 77
     0
 78
     1
 53
45.0
 43
0.0
 44
0.0
 45
-0.282842712474619
 46
0.0
 79
     0
 98
        1
 10
0.0
 20
0.0
  0
HATCH
  5
C9
330
48
100
AcDbEntity
  8
1
  6
Continuous
 62
     2
100
AcDbHatch
 10
0.0
 20
0.0
 30
0.0
210
0.0
220
0.0
230
1.0
  2
CUSTOM11
 70
     0
 71
     1
 91
        1
 92
        1
 93
        1
 72
     4
 94
        3
 73
     0
 74
     0
 95
      110
 96
      106
 40
0.0
 40
0.0
 40
0.0
 40
0.0
 40
0.2203406257277673
 40
0.4407808782838043
 40
0.5952494494614453
 40
0.7488431659392882
 40
0.9023581831308726
 40
1.056801968670414
 40
1.210736449099857
 40
1.363041386539778
 40
1.515315729683107
 40
1.669377239147958
 40
1.721611652756429
 40
1.773199502942812
 40
1.824933793209862
 40
1.877110426487819
 40
1.982682281206539
 40
2.078781667087377
 40
2.172809640822055
 40
2.271937807378681
 40
2.37834993337913
 40
2.494131557736262
 40
2.626681683943382
 40
2.783145050795809
 40
2.890701232940666
 40
2.993130312454561
 40
3.099869730691546
 40
3.220237816691039
 40
3.352695482737332
 40
3.48173280638958
 40
3.593499473690116
 40
3.674323013331628
 40
3.81795171195262
 40
3.946167120793688
 40
4.061405053453374
 40
4.166480796003029
 40
4.262478775059109
 40
4.350736673551023
 40
4.433071991253851
 40
4.511216293814511
 40
4.564262454117839
 40
4.61847441557145
 40
4.670128488754054
 40
4.72229687912626
 40
4.819540945314157
 40
4.93119498412797
 40
5.049996040257654
 40
5.168643755415285
 40
5.283970811762483
 40
5.392260784910309
 40
5.486512254876312
 40
5.559178233949811
 40
5.591425852853482
 40
5.626215969637853
 40
5.667155838674395
 40
5.717449290214203
 40
5.738402360944816
 40
5.784499116553787
 40
5.830595872164759
 40
5.851548942897621
 40
5.873019280661739
 40
5.924217778408279
 40
5.985325662817656
 40
6.036524160567675
 40
6.057994498334205
 40
6.236847789607451
 40
6.381409928945627
 40
6.493190424178652
 40
6.574067534230469
 40
6.691018086205549
 40
6.814881554220481
 40
6.944307823240377
 40
7.071266716066072
 40
7.193488604461845
 40
7.309042773128115
 40
7.41400720317074
 40
7.50514044188651
 40
7.531150360599674
 40
7.559221645322252
 40
7.587202218920915
 40
7.612569159499127
 40
7.662550809481003
 40
7.702878875764153
 40
7.857328205230968
 40
8.010799568088585
 40
8.165256399657592
 40
8.322232698714002
 40
8.479564855016632
 40
8.63521623029092
 40
8.790882550925753
 40
8.948305154947276
 40
9.168271839032968
 40
9.387358980987232
 40
9.608047961033478
 40
9.832914234792689
 40
9.85833869496302
 40
9.925366817230032
 40
10.02013071422762
 40
10.12876249859
 40
10.2373942829525
 40
10.33215817995192
 40
10.39918630222396
 40
10.42461076239785
 40
10.64992019336944
 40
10.8718852453119
 40
10.8718852453119
 40
10.8718852453119
 40
10.8718852453119
 10
113.7960890841393
 20
-28.36566717330094
 10
113.7995967398316
 20
-28.2987351565448
 10
113.8066136452438
 20
-28.16484085812426
 10
113.7101130063849
 20
-27.87941422756816
 10
113.9413237190884
 20
-27.94205591538001
 10
114.0822392521931
 20
-27.93488423672292
 10
114.2393520222364
 20
-27.94254094650039
 10
114.3929015892063
 20
-27.94237225445245
 10
114.5448207399856
 20
-27.94307937192851
 10
114.7045317278007
 20
-27.93279819376645
 10
114.8312075065893
 20
-27.94993466647534
 10
115.0273923586854
 20
-27.8776271762114
 10
114.9937497743854
 20
-27.97849278648168
 10
114.9955113781959
 20
-28.02870723780613
 10
114.9930444538235
 20
-28.07777642141817
 10
115.0250179430785
 20
-28.16426486881284
 10
114.8913502368031
 20
-28.11492539119947
 10
114.8075311152832
 20
-28.12059343414116
 10
114.7076963604099
 20
-28.11024461021986
 10
114.6089679184921
 20
-28.10403527317197
 10
114.5024635235886
 20
-28.09792213911508
 10
114.3813614162835
 20
-28.08901094243699
 10
114.2606483967229
 20
-28.099683718159
 10
114.0715656308213
 20
-28.04021474647917
 10
114.1032130970087
 20
-28.19931657650744
 10
114.0898665781609
 20
-28.2965084938838
 10
114.0878060891226
 20
-28.40855912618181
 10
114.0861290509445
 20
-28.52790292098933
 10
114.0876439259008
 20
-28.65457385573175
 10
114.0859684943446
 20
-28.78188389712166
 10
114.0961946736434
 20
-28.88038411323821
 10
114.0682109061357
 20
-29.02101275102655
 10
114.241113246408
 20
-28.96500426594187
 10
114.3548122667547
 20
-28.97770026249788
 10
114.4743254137015
 20
-28.97041600677029
 10
114.5791593889848
 20
-28.96611960671528
 10
114.6746187363388
 20
-28.96159409469308
 10
114.7666925971808
 20
-28.95340776582083
 10
114.8379654247215
 20
-28.95846127090172
 10
114.9448034170461
 20
-28.91953552696609
 10
114.9129706062811
 20
-28.99972855722404
 10
114.9169266968705
 20
-29.04927040882249
 10
114.9137604856788
 20
-29.09932499688466
 10
114.9453893955361
 20
-29.1836113011626
 10
114.8113236142467
 20
-29.13064612233127
 10
114.7195425257976
 20
-29.13949896837842
 10
114.5982831654378
 20
-29.1291992776313
 10
114.4817215584547
 20
-29.12741065960782
 10
114.3686478210654
 20
-29.12702960618589
 10
114.2582348773246
 20
-29.12074528256107
 10
114.1801226532615
 20
-29.13300844472917
 10
114.0816728298419
 20
-29.10036090112155
 10
114.0915457638336
 20
-29.15720229674078
 10
114.0877025709179
 20
-29.190978471703
 10
114.0869892349043
 20
-29.23370373018872
 10
114.086647210775
 20
-29.27088370466129
 10
114.0866936720121
 20
-29.31002740357513
 10
114.0866751894702
 20
-29.34773128230596
 10
114.0866805896582
 20
-29.38545022495882
 10
114.0866799678975
 20
-29.41495652983134
 10
114.086680061632
 20
-29.44616400028984
 10
114.0866806752695
 20
-29.49075552820199
 10
114.0866773964112
 20
-29.54526021219433
 10
114.0866862088256
 20
-29.58984437526836
 10
114.0866462118192
 20
-29.67372169142544
 10
114.087912673503
 20
-29.78752457050606
 10
114.0853376582618
 20
-29.93659581794574
 10
114.0968111846495
 20
-30.03892773914379
 10
114.0726608687039
 20
-30.1715107384245
 10
114.2236096411252
 20
-30.12594245456264
 10
114.3331539136331
 20
-30.14062965565934
 10
114.4637072938696
 20
-30.13569542603221
 10
114.5893414674289
 20
-30.13232272404921
 10
114.7091833090377
 20
-30.12778480229512
 10
114.8294465076202
 20
-30.11441441546279
 10
114.912586412829
 20
-30.12421264945687
 10
115.0359182885851
 20
-30.06363763104966
 10
115.0147371668732
 20
-30.11957517594263
 10
115.0139052734893
 20
-30.14550728355939
 10
115.0122066172334
 20
-30.17292721537345
 10
115.0121077353605
 20
-30.207517825219
 10
115.0106761766105
 20
-30.24439569507516
 10
115.0435906656966
 20
-30.3364313670648
 10
114.8454409452883
 20
-30.26357961753452
 10
114.7203650759667
 20
-30.28664251219677
 10
114.5576173759932
 20
-30.28035955742498
 10
114.4032468914776
 20
-30.28229033818356
 10
114.2469772901719
 20
-30.28096215129015
 10
114.0873646930057
 20
-30.28430105240421
 10
113.9443428807012
 20
-30.27224182000044
 10
113.7100247346404
 20
-30.33537975751366
 10
113.8076913215973
 20
-30.04869450261967
 10
113.7909971244833
 20
-29.85501669585624
 10
113.804939917446
 20
-29.6264173484799
 10
113.8046090311409
 20
-29.47105383773236
 10
113.8046180584039
 20
-29.36523641284158
 10
113.8046158341092
 20
-29.3028419360407
 10
113.8046168016665
 20
-29.21269552479956
 10
113.8046167938037
 20
-29.10868810570847
 10
113.8046156325879
 20
-29.00467846352988
 10
113.8046193436278
 20
-28.91453734039516
 10
113.8046113515827
 20
-28.85213174631069
 10
113.8046436739794
 20
-28.74621141767166
 10
113.8034543253095
 20
-28.58863261183544
 10
113.7985318954031
 20
-28.43961757906219
 10
113.7960890841393
 20
-28.36566717330094
 97
        1
330
AC
 75
     1
 76
     2
 52
45.0
 41
0.1
 77
     0
 78
     1
 53
45.0
 43
0.0
 44
0.0
 45
-0.282842712474619
 46
0.0
 79
     0
 98
        1
 10
0.0
 20
0.0
  0
HATCH
  5
CA
330
48
100
AcDbEntity
  8
1
  6
Continuous
 62
     2
100
AcDbHatch
 10
0.0
 20
0.0
 30
0.0
210
0.0
220
0.0
230
1.0
  2
CUSTOM12
 70
     0
 71
     1
 91
        1
 92
        1
 93
        1
 72
     4
 94
        3
 73
     0
 74
     0
 95
       95
 96
       91
 40
0.0
 40
0.0
 40
0.0
 40
0.0
 40
0.6550406656911566
 40
1.308087289032011
 40
1.420803739835882
 40
1.56613075977087
 40
1.757067341888541
 40
2.006513545026554
 40
2.087328263121639
 40
2.18532887229571
 40
2.294612454748442
 40
2.408936380534894
 40
2.526802767798643
 40
2.646360524615686
 40
2.76253572397166
 40
2.87005734287023
 40
2.966883448431727
 40
3.050803243518375
 40
3.115818222436688
 40
3.15603005715034
 40
3.213914225080271
 40
3.276689026450658
 40
3.342960320981449
 40
3.404230667150685
 40
3.453822809493512
 40
3.532499827188551
 40
3.634775188507297
 40
3.754909333008297
 40
3.889736761660798
 40
4.035769602175357
 40
4.18725668119775
 40
4.338733685676086
 40
4.488478734676258
 40
4.634708317831722
 40
4.771493189921405
 40
4.892686571561342
 40
5.199775528944583
 40
5.460353566929771
 40
5.667603142345649
 40
5.814722905404626
 40
5.828990806219952
 40
5.855488336304607
 40
5.869756237118953
 40
6.189796507762929
 40
6.531890469873154
 40
6.883053637017118
 40
7.2305120249116
 40
7.566966656764714
 40
7.885203559707536
 40
8.172887439719359
 40
8.418011594062888
 40
8.443926721190804
 40
8.5107604706133
 40
8.602145393795807
 40
8.701714041647241
 40
8.793098965075478
 40
8.859932715058049
 40
8.885847842603697
 40
9.242301256612919
 40
9.589275455016866
 40
9.921808543164271
 40
10.23479624298478
 40
10.29968150889197
 40
10.35323493887787
 40
10.40154625355169
 40
10.46482922477843
 40
10.55973900668423
 40
10.69239545985635
 40
10.84920353475689
 40
11.01626328594797
 40
11.18672024367462
 40
11.35372582577229
 40
11.50257442292444
 40
11.61866495023309
 40
11.71329869152893
 40
11.82511050573926
 40
11.94464880845734
 40
12.06929242642524
 40
12.19707290435194
 40
12.32562632860547
 40
12.45034565331297
 40
12.56646595170346
 40
12.67099007414653
 40
12.760776259368
 40
12.82703233506712
 40
12.87429132786011
 40
12.89831990323352
 40
12.92234847860037
 40
13.53984767410339
 40
14.18294284359383
 40
14.18294284359383
 40
14.18294284359383
 40
14.18294284359383
 10
111.1971038112797
 20
-29.39591939526559
 10
111.0655122223327
 20
-29.28224919125051
 10
110.8027296267505
 20
-29.05525481412124
 10
110.2900495905794
 20
-28.21275514771994
 10
110.3009757060138
 20
-28.57066600151264
 10
110.2944328992767
 20
-28.71222585456151
 10
110.2931129096548
 20
-28.91068672429003
 10
110.2921220067314
 20
-29.08339681682303
 10
110.292720421675
 20
-29.22624604470704
 10
110.2942096766657
 20
-29.32224972314927
 10
110.2958786053248
 20
-29.42944474465142
 10
110.2975037419394
 20
-29.54325766210702
 10
110.2995531966462
 20
-29.66048405123695
 10
110.3026267966701
 20
-29.77833566495315
 10
110.3059442161819
 20
-29.89261890407663
 10
110.3096707805055
 20
-29.99968575861006
 10
110.31204406262
 20
-30.09482568961362
 10
110.3181821353132
 20
-30.17931420522589
 10
110.3142886960722
 20
-30.23566890430143
 10
110.3358332907854
 20
-30.30664955255931
 10
110.2584042523393
 20
-30.275873001238
 10
110.2019455704967
 20
-30.2847873521067
 10
110.1443598361583
 20
-30.27593759330008
 10
110.0593265943249
 20
-30.30751752502341
 10
110.0912816611158
 20
-30.22394821736094
 10
110.0893807747315
 20
-30.15607368759975
 10
110.1011062512075
 20
-30.05256720963866
 10
110.1067343517776
 20
-29.93487852111589
 10
110.1141004643716
 20
-29.8010136856386
 10
110.1223862166385
 20
-29.65725824855651
 10
110.1301954362203
 20
-29.5077595488484
 10
110.1360673687432
 20
-29.35697428326205
 10
110.1406770282744
 20
-29.20790033849846
 10
110.1445734582319
 20
-29.06367064565263
 10
110.1473817591339
 20
-28.92906072515267
 10
110.1479801219798
 20
-28.7402036338093
 10
110.1519126331926
 20
-28.51514483415131
 10
110.1345277843274
 20
-28.24122886602576
 10
110.1753519807358
 20
-28.07702865629686
 10
110.0898255720778
 20
-27.87740316263191
 10
110.1563661372464
 20
-27.88104519324305
 10
110.1741826738006
 20
-27.8807653056743
 10
110.2959904262278
 20
-27.87857050329671
 10
110.3983872800237
 20
-28.15814859006774
 10
110.6483123974132
 20
-28.35926969192278
 10
110.8773137795886
 20
-28.62697362740369
 10
111.1148253677885
 20
-28.87843563865909
 10
111.3389193205548
 20
-29.11520003666924
 10
111.5653818747785
 20
-29.37271285145206
 10
111.722879035129
 20
-29.4884064267136
 10
111.9375232077451
 20
-29.8249282518949
 10
111.9325748439394
 20
-29.7002522363668
 10
111.9337034067322
 20
-29.64162285792547
 10
111.9331980306292
 20
-29.55446315356307
 10
111.9333577622889
 20
-29.46073834545412
 10
111.9333157356094
 20
-29.37471006431249
 10
111.9333304505149
 20
-29.31336085782788
 10
111.9332808720759
 20
-29.16354746207291
 10
111.9361913987586
 20
-28.92500365218179
 10
111.9162623505937
 20
-28.56003467859583
 10
111.9653536401024
 20
-28.2969034573487
 10
111.8081053973955
 20
-27.88561072780533
 10
111.9665215337197
 20
-27.94091695176536
 10
112.0214782943404
 20
-27.94290291228108
 10
112.0730990231516
 20
-27.94225199480032
 10
112.1616301430141
 20
-27.90120449990038
 10
112.1108000767944
 20
-28.04793651105297
 10
112.121649239506
 20
-28.15470005773851
 10
112.1069139459622
 20
-28.3140427231417
 10
112.1003078910981
 20
-28.4763691607541
 10
112.0918063864691
 20
-28.64497455835889
 10
112.0846329666975
 20
-28.80675163024744
 10
112.0792165680164
 20
-28.95067646270351
 10
112.0774816432424
 20
-29.07052484261359
 10
112.0778543137095
 20
-29.1780387613777
 10
112.0776758591038
 20
-29.28669953082698
 10
112.0780113327916
 20
-29.40536407562754
 10
112.0793143086958
 20
-29.52934814215542
 10
112.081198981635
 20
-29.65631683557179
 10
112.0828106919626
 20
-29.78336116177252
 10
112.0844505602206
 20
-29.90635093236106
 10
112.0865673210526
 20
-30.02189046344525
 10
112.086695088714
 20
-30.12399073772448
 10
112.0909616861329
 20
-30.21480128890127
 10
112.0811542550065
 20
-30.27276356519499
 10
112.1021577236465
 20
-30.33972847596256
 10
112.0628742204672
 20
-30.33198823761596
 10
111.8498409582523
 20
-30.34734723583093
 10
111.6539400407962
 20
-29.79086919633815
 10
111.351430009632
 20
-29.52933942379773
 10
111.1971038112797
 20
-29.39591939526559
 97
        1
330
AD
 75
     1
 76
     2
 52
45.0
 41
0.1
 77
     0
 78
     1
 53
45.0
 43
0.0
 44
0.0
 45
-0.282842712474619
 46
0.0
 79
     0
 98
        1
 10
0.0
 20
0.0
  0
HATCH
  5
CB
330
48
100
AcDbEntity
  8
1
  6
Continuous
 62
     2
100
AcDbHatch
 10
0.0
 20
0.0
 30
0.0
210
0.0
220
0.0
230
1.0
  2
CUSTOM13
 70
     0
 71
     1
 91
        2
 92
        1
 93
        1
 72
     4
 94
        3
 73
     0
 74
     0
 95
       57
 96
       53
 40
0.0
 40
0.0
 40
0.0
 40
0.0
 40
0.0471632082809535
 40
0.0914861054632171
 40
0.1357762519702264
 40
0.1826527001610701
 40
0.229520328857261
 40
0.273775197222149
 40
0.3181310461543375
 40
0.3652607198398553
 40
0.4571007286314835
 40
0.5671851029165661
 40
0.6894623283868664
 40
0.8181758272546092
 40
0.9510087229274087
 40
1.085852229674069
 40
1.218126164475321
 40
1.343545131142395
 40
1.454537202956811
 40
1.567187607530834
 40
1.680710966642467
 40
1.794226869736917
 40
1.900009184247631
 40
2.004085860447967
 40
2.108162674451826
 40
2.214000150155328
 40
2.4960385773522
 40
2.762350745479307
 40
2.997275353279423
 40
3.185110082137758
 40
3.246407890064001
 40
3.312607550212732
 40
3.378877742711619
 40
3.440140399651489
 40
4.100501696006525
 40
4.754913085563516
 40
5.411331693423957
 40
6.07789043256877
 40
6.110575292671049
 40
6.143260152775815
 40
6.367989363395191
 40
6.610525374951599
 40
6.863389136467371
 40
7.119380025547642
 40
7.37603660509112
 40
7.631164770966337
 40
7.876722425456473
 40
8.104953735855968
 40
8.312916685924343
 40
8.497730294941345
 40
8.651018984313874
 40
8.764738853624648
 40
8.764738853624648
 40
8.764738853624648
 40
8.764738853624648
 10
108.6825751965289
 20
-30.28863238115358
 10
108.6669719191706
 20
-30.28663746649207
 10
108.6367050425078
 20
-30.28276776367985
 10
108.5914096667028
 20
-30.28147992761014
 10
108.5462655594125
 20
-30.28181294174233
 10
108.5002119588175
 20
-30.28175319054059
 10
108.4543598636872
 20
-30.28164164078282
 10
108.408681411294
 20
-30.28212144271692
 10
108.3653914006384
 20
-30.28028868109563
 10
108.294305041629
 20
-30.30440420913629
 10
108.2960579726216
 20
-30.18305283751032
 10
108.2489298835345
 20
-30.09763737977052
 10
108.2094580716537
 20
-29.98003048383149
 10
108.1609737997421
 20
-29.86257225187844
 10
108.1104119867298
 20
-29.74084041966774
 10
108.0621737075253
 20
-29.61414009865819
 10
108.003833541237
 20
-29.50556289943332
 10
107.9883995132037
 20
-29.34869320593874
 10
107.8469688795412
 20
-29.38116531179963
 10
107.7411499879679
 20
-29.36977089046104
 10
107.6261672189997
 20
-29.37097386213669
 10
107.5156244716916
 20
-29.36983032380876
 10
107.4079685987558
 20
-29.37071627690759
 10
107.3024424994018
 20
-29.37073375337766
 10
107.2012295146788
 20
-29.37775945255869
 10
107.0169907292529
 20
-29.35354117868419
 10
107.0060496150186
 20
-29.65748286606396
 10
106.8990794099526
 20
-29.88136800474888
 10
106.8001251069122
 20
-30.06594663435787
 10
106.8128192988783
 20
-30.3095977292408
 10
106.6953194181173
 20
-30.27981930975086
 10
106.6325158333086
 20
-30.2823188821868
 10
106.5688974558176
 20
-30.28145902625477
 10
106.284911665885
 20
-30.32391937786349
 10
106.9154740964157
 20
-29.60408025283499
 10
106.9990747753845
 20
-29.09213438292552
 10
107.3832355254114
 20
-28.57136234178242
 10
107.3680310753342
 20
-27.86970351475071
 10
107.6142368187473
 20
-27.88144344647027
 10
107.7159448622338
 20
-27.87264973275512
 10
107.7152854500593
 20
-28.12430326997938
 10
107.8331419620604
 20
-28.30671956994326
 10
107.9218617725261
 20
-28.54926237065418
 10
108.0225394950035
 20
-28.78149947198154
 10
108.1214245177019
 20
-29.01815333161374
 10
108.2202779455445
 20
-29.25028238558189
 10
108.3159268855702
 20
-29.47367754939493
 10
108.4063007038046
 20
-29.6821742867897
 10
108.4893047032966
 20
-29.87181529198961
 10
108.5629191047575
 20
-30.03826871660184
 10
108.624591836032
 20
-30.17572278102189
 10
108.665256135038
 20
-30.25490738298251
 10
108.6825751965289
 20
-30.28863238115358
 97
        1
330
AF
 92
       16
 93
        1
 72
     4
 94
        3
 73
     0
 74
     0
 95
       25
 96
       21
 40
0.0
 40
0.0
 40
0.0
 40
0.0
 40
0.0911479969064537
 40
0.1858117896204669
 40
0.2804128399734775
 40
0.3715889190713658
 40
0.467908049421814
 40
0.5642683809229373
 40
0.6605683222644992
 40
0.75696530158104
 40
0.8561348172522998
 40
1.092615965104321
 40
1.374867658141905
 40
1.611348812011614
 40
1.710518328425267
 40
1.80940316372659
 40
2.045205463294103
 40
2.32664691762215
 40
2.562449217190621
 40
2.661334043833928
 40
2.661334043833928
 40
2.661334043833928
 40
2.661334043833928
 10
107.1586803031975
 20
-29.21875439530992
 10
107.1890628382698
 20
-29.21891898013729
 10
107.2509998353887
 20
-29.21925449038361
 10
107.3444459425106
 20
-29.22220922276286
 10
107.4378197701133
 20
-29.22512224851132
 10
107.5320863218252
 20
-29.22595776084868
 10
107.6258067255743
 20
-29.2249333307024
 10
107.725514276798
 20
-29.22573000257311
 10
107.8092052011088
 20
-29.21568567493065
 10
107.9541098779822
 20
-29.24255360054119
 10
107.8299234909576
 20
-29.06824447448236
 10
107.7868969751057
 20
-28.90838266722191
 10
107.6712024606985
 20
-28.64971519178071
 10
107.5920667896033
 20
-28.51258924866424
 10
107.5334679086592
 20
-28.29552944594208
 10
107.4767906404214
 20
-28.51223843514855
 10
107.3955912365253
 20
-28.65162965290048
 10
107.2966803746264
 20
-28.9008300835809
 10
107.2156727559035
 20
-29.08564147502209
 10
107.1716785790614
 20
-29.18839530872168
 10
107.1586803031975
 20
-29.21875439530992
 97
        1
330
AE
 75
     1
 76
     2
 52
45.0
 41
0.1
 77
     0
 78
     1
 53
45.0
 43
0.0
 44
0.0
 45
-0.282842712474619
 46
0.0
 79
     0
 98
        1
 10
0.0
 20
0.0
  0
HATCH
  5
CC
330
48
100
AcDbEntity
  8
1
  6
Continuous
 62
     2
100
AcDbHatch
 10
0.0
 20
0.0
 30
0.0
210
0.0
220
0.0
230
1.0
  2
CUSTOM14
 70
     0
 71
     1
 91
        1
 92
        1
 93
        1
 72
     4
 94
        3
 73
     0
 74
     0
 95
       99
 96
       95
 40
0.0
 40
0.0
 40
0.0
 40
0.0
 40
0.0796417172273125
 40
0.1621768542356564
 40
0.2486489160957989
 40
0.3404969668525199
 40
0.4381912511165346
 40
0.543446366024551
 40
0.6518115192847403
 40
0.7530190937887394
 40
0.8492196919725327
 40
0.9419290312998658
 40
1.034249663570077
 40
1.129078600620232
 40
1.226697027573271
 40
1.327220425421735
 40
1.470572134938049
 40
1.59548986337128
 40
1.719934125348384
 40
1.850576620127489
 40
1.989059629987326
 40
2.134139054226919
 40
2.280698007207205
 40
2.424529739039472
 40
2.565929576985837
 40
2.708239260773524
 40
2.861717887443646
 40
3.04516854034736
 40
3.183798301138599
 40
3.314813961455458
 40
3.442083470447292
 40
3.569912708372894
 40
3.702177512509329
 40
3.842307559659531
 40
3.992872223245894
 40
4.156750662218326
 40
4.310981861107548
 40
4.445859909322594
 40
4.572393936131562
 40
4.701656719781958
 40
4.768279086008434
 40
4.835960697898376
 40
4.912788918729306
 40
5.0062852084815
 40
5.026909478751661
 40
5.047533749021269
 40
5.101808031471298
 40
5.162325165538617
 40
5.226919745995938
 40
5.294231806596743
 40
5.364544852554881
 40
5.438319055467977
 40
5.517877651324312
 40
5.607647714861582
 40
5.700449642544428
 40
5.78825114236427
 40
5.872714706039837
 40
5.955167292575398
 40
6.037192395190473
 40
6.120669181469186
 40
6.206848616686423
 40
6.296680855416841
 40
6.442558392872663
 40
6.568190371608296
 40
6.692904567360421
 40
6.824220446557235
 40
6.963121850329419
 40
7.107843738851261
 40
7.253431663907359
 40
7.395187468036782
 40
7.533140753237789
 40
7.67055045717531
 40
7.816236511769316
 40
7.987691657359272
 40
8.14227742196929
 40
8.293662615415055
 40
8.442962460879329
 40
8.591598316185367
 40
8.743678992361843
 40
8.903725323699215
 40
9.076307008890533
 40
9.265578604680616
 40
9.459203795360748
 40
9.617619810273547
 40
9.753609671361959
 40
9.874873300004117
 40
9.954520184977804
 40
10.02416413719249
 40
10.09769764405448
 40
10.18909955924976
 40
10.20974586420136
 40
10.23039218263383
 40
10.30057101881267
 40
10.37632012987544
 40
10.37632012987544
 40
10.37632012987544
 40
10.37632012987544
 10
104.0369057300626
 20
-29.9669431451229
 10
104.0535320315994
 20
-29.98769368882971
 10
104.0873886671353
 20
-30.0299486601638
 10
104.1502925005811
 20
-30.08460166336211
 10
104.2235603405168
 20
-30.13190952607236
 10
104.3079071703412
 20
-30.16962746290349
 10
104.4035343080236
 20
-30.19449357996332
 10
104.5074956240122
 20
-30.20180418382347
 10
104.6127122685181
 20
-30.1934765493423
 10
104.7109728836109
 20
-30.16340798076757
 10
104.7962088892324
 20
-30.11641154756406
 10
104.8682322670878
 20
-30.05536986477428
 10
104.9254020173872
 20
-29.98077008149701
 10
104.9670971212215
 20
-29.89487513068111
 10
104.9930055311068
 20
-29.80004127296073
 10
105.0021139797429
 20
-29.68634998689918
 10
104.9889967261263
 20
-29.56157389957502
 10
104.9228432799189
 20
-29.44475258556399
 10
104.8272473384345
 20
-29.35977438150903
 10
104.7152783487144
 20
-29.29073293269127
 10
104.5896762048045
 20
-29.23285835682392
 10
104.4559794085632
 20
-29.18116254443942
 10
104.3216225283607
 20
-29.12590885331103
 10
104.1955086451653
 20
-29.05550207086635
 10
104.0829682452311
 20
-28.96704436997036
 10
103.9873065529234
 20
-28.85508909859811
 10
103.9237259616602
 20
-28.70540067626902
 10
103.9103808969791
 20
-28.54557183343143
 10
103.9223613452224
 20
-28.39441572421439
 10
103.9615401393617
 20
-28.26680733136745
 10
104.0258090215686
 20
-28.15409103697442
 10
104.1141307464515
 20
-28.05841368459593
 10
104.2241193672403
 20
-27.98135762742531
 10
104.353538686604
 20
-27.92338580792008
 10
104.5014941432569
 20
-27.88750800139461
 10
104.6585171920262
 20
-27.8774325867772
 10
104.8078042931206
 20
-27.88626339965694
 10
104.9499356078946
 20
-27.9141507838793
 10
105.0499025074401
 20
-27.97076663027148
 10
105.202817720096
 20
-28.01815375622776
 10
105.1358234181944
 20
-28.102924247271
 10
105.1199581585045
 20
-28.170510758548
 10
105.0881852996072
 20
-28.23563884935092
 10
105.1053304674347
 20
-28.33766524471335
 10
105.0569529673008
 20
-28.3299676604638
 10
105.021889190554
 20
-28.33683206003477
 10
105.0199800450494
 20
-28.27226146570084
 10
104.9888795396764
 20
-28.22664338106892
 10
104.9567654093231
 20
-28.16928941099832
 10
104.9111140939944
 20
-28.11949515035724
 10
104.8561610683163
 20
-28.07495164009287
 10
104.7913943637783
 20
-28.03725988891736
 10
104.7135479775372
 20
-28.01206601936931
 10
104.6258263018128
 20
-28.00558746730173
 10
104.5356005742582
 20
-28.01254268442678
 10
104.449769715884
 20
-28.03580787267359
 10
104.3731446103371
 20
-28.07358333620743
 10
104.3068368100976
 20
-28.12438336638709
 10
104.2525663001739
 20
-28.18758834321072
 10
104.2128027810235
 20
-28.26213522017919
 10
104.1879877975364
 20
-28.34572663730521
 10
104.1795226727645
 20
-28.45297029346
 10
104.192280045188
 20
-28.5752452046072
 10
104.2584650874048
 20
-28.69340253437077
 10
104.3544079864608
 20
-28.77883652018756
 10
104.4661017427958
 20
-28.8490661542156
 10
104.5913966133478
 20
-28.90830815422983
 10
104.7252926406223
 20
-28.95873269642151
 10
104.8593032797925
 20
-29.01167460743902
 10
104.9853987781691
 20
-29.07739807103108
 10
105.0979319103193
 20
-29.16009625190966
 10
105.1934472749008
 20
-29.26493971418208
 10
105.2575808951738
 20
-29.40552860476716
 10
105.2714206190054
 20
-29.56424568276692
 10
105.2577057177005
 20
-29.72336822510407
 10
105.2147841618761
 20
-29.87006148909077
 10
105.1449008793841
 20
-30.0037018114114
 10
105.0477694678605
 20
-30.11957590028993
 10
104.9250908488433
 20
-30.21399995958197
 10
104.7777510877943
 20
-30.28310707076302
 10
104.60802349619
 20
-30.32536766869431
 10
104.4220507444373
 20
-30.33708241497877
 10
104.2432058390959
 20
-30.32680491044846
 10
104.0784836218519
 20
-30.28523403959129
 10
103.9737513305832
 20
-30.21692334844345
 10
103.8254063255141
 20
-30.16814758696177
 10
103.8883480659504
 20
-30.07513386437441
 10
103.8975376894836
 20
-30.00193441480006
 10
103.9206813766007
 20
-29.93553683226937
 10
103.8937690800093
 20
-29.83515168200704
 10
103.9424441421115
 20
-29.84255944210905
 10
103.9819633045473
 20
-29.83595914107389
 10
103.9899307409478
 20
-29.91411274509352
 10
104.0208539432698
 20
-29.94889050352426
 10
104.0369057300626
 20
-29.9669431451229
 97
        1
330
B0
 75
     1
 76
     2
 52
45.0
 41
0.1
 77
     0
 78
     1
 53
45.0
 43
0.0
 44
0.0
 45
-0.282842712474619
 46
0.0
 79
     0
 98
        1
 10
0.0
 20
0.0
  0
ENDBLK
  5
4A
330
48
100
AcDbEntity
  8
0
100
AcDbBlockEnd
  0
BLOCK
  5
4D
330
4B
100
AcDbEntity
  8
0
100
AcDbBlockBegin
  2
開示A4枠
 70
     0
 10
-132.2193795070449
 20
-88.20979955456568
 30
0.0
  3
開示A4枠
  1

  0
INSERT
  5
4C
330
4B
100
AcDbEntity
  8
1
100
AcDbBlockReference
  2
開示A4
 10
-132.2193795070449
 20
-88.20979955456568
 30
0.0
 41
2.0
 42
2.0
 43
2.0
  0
ENDBLK
  5
4E
330
4B
100
AcDbEntity
  8
0
100
AcDbBlockEnd
  0
BLOCK
  5
12A
330
123
100
AcDbEntity
  8
0
100
AcDbBlockBegin
  2
*D3
 70
     1
 10
0.0
 20
0.0
 30
0.0
  3
*D3
  1

  0
LINE
  5
124
330
123
100
AcDbEntity
  8
1
  6
Continuous
 62
     2
100
AcDbLine
 10
23.49999999999997
 20
128.5
 30
0.0
 11
23.49999999999997
 21
211.5
 31
0.0
  0
LINE
  5
125
330
123
100
AcDbEntity
  8
1
  6
Continuous
 62
     2
100
AcDbLine
 10
44.49999999999997
 20
211.5
 30
0.0
 11
19.49999999999997
 21
211.5
 31
0.0
  0
LINE
  5
126
330
123
100
AcDbEntity
  8
1
  6
Continuous
 62
     2
100
AcDbLine
 10
72.0
 20
128.5
 30
0.0
 11
19.49999999999997
 21
128.5
 31
0.0
  0
SOLID
  5
127
330
123
100
AcDbEntity
  8
1
 62
     2
100
AcDbTrace
 10
22.5784325168882
 20
135.5
 30
0.0
 11
24.42156748311174
 21
135.5
 31
0.0
 12
23.49999999999997
 22
128.5
 32
0.0
 13
23.49999999999997
 23
128.5
 33
0.0
  0
SOLID
  5
128
330
123
100
AcDbEntity
  8
1
 62
     2
100
AcDbTrace
 10
24.42156748311174
 20
204.5
 30
0.0
 11
22.5784325168882
 21
204.5
 31
0.0
 12
23.49999999999997
 22
211.5
 32
0.0
 13
23.49999999999997
 23
211.5
 33
0.0
  0
MTEXT
  5
129
330
123
100
AcDbEntity
  8
1
 62
     7
100
AcDbMText
 10
19.49999999999997
 20
162.263853928903
 30
0.0
 40
6.0
 41
0.0
 71
     7
 72
     1
  1
83
  7
CONVERTER_12
 11
0.0
 21
1.0
 31
0.0
 73
     1
 44
0.60024009603842
  0
ENDBLK
  5
12B
330
123
100
AcDbEntity
  8
0
100
AcDbBlockEnd
  0
BLOCK
  5
135
330
12E
100
AcDbEntity
  8
0
100
AcDbBlockBegin
  2
*D4
 70
     1
 10
0.0
 20
0.0
 30
0.0
  3
*D4
  1

  0
LINE
  5
12F
330
12E
100
AcDbEntity
  8
1
  6
Continuous
 62
     2
100
AcDbLine
 10
72.0
 20
88.5
 30
0.0
 11
128.0
 21
88.5
 31
0.0
  0
LINE
  5
130
330
12E
100
AcDbEntity
  8
1
  6
Continuous
 62
     2
100
AcDbLine
 10
128.0
 20
109.5
 30
0.0
 11
128.0
 21
84.5
 31
0.0
  0
LINE
  5
131
330
12E
100
AcDbEntity
  8
1
  6
Continuous
 62
     2
100
AcDbLine
 10
72.0
 20
109.5
 30
0.0
 11
72.0
 21
84.5
 31
0.0
  0
SOLID
  5
132
330
12E
100
AcDbEntity
  8
1
 62
     2
100
AcDbTrace
 10
79.0
 20
89.42156748311177
 30
0.0
 11
79.0
 21
87.57843251688823
 31
0.0
 12
72.0
 22
88.5
 32
0.0
 13
72.0
 23
88.5
 33
0.0
  0
SOLID
  5
133
330
12E
100
AcDbEntity
  8
1
 62
     2
100
AcDbTrace
 10
121.0
 20
87.57843251688823
 30
0.0
 11
121.0
 21
89.42156748311177
 31
0.0
 12
128.0
 22
88.5
 32
0.0
 13
128.0
 23
88.5
 33
0.0
  0
MTEXT
  5
134
330
12E
100
AcDbEntity
  8
1
 62
     7
100
AcDbMText
 10
59.50067498008345
 20
92.49998807358344
 30
0.0
 40
6.0
 41
0.0
 71
     7
 72
     1
  1
\C7;{\Fgdt;n}\C7;56\C7;(アダプター取外時{\Fgdt;n}51)
  7
CONVERTER_11
 11
0.9999999999970619
 21
2.424068405545306E-6
 31
0.0
 73
     1
 44
0.45454545454545
  0
ENDBLK
  5
136
330
12E
100
AcDbEntity
  8
0
100
AcDbBlockEnd
  0
BLOCK
  5
140
330
139
100
AcDbEntity
  8
0
100
AcDbBlockBegin
  2
*D5
 70
     1
 10
0.0
 20
0.0
 30
0.0
  3
*D5
  1

  0
LINE
  5
13A
330
139
100
AcDbEntity
  8
1
  6
Continuous
 62
     2
100
AcDbLine
 10
53.99999999999997
 20
72.5
 30
0.0
 11
146.0
 21
72.5
 31
0.0
  0
LINE
  5
13B
330
139
100
AcDbEntity
  8
1
  6
Continuous
 62
     2
100
AcDbLine
 10
53.99999999999997
 20
139.5
 30
0.0
 11
53.99999999999997
 21
68.5
 31
0.0
  0
LINE
  5
13C
330
139
100
AcDbEntity
  8
1
  6
Continuous
 62
     2
100
AcDbLine
 10
146.0
 20
139.5
 30
0.0
 11
146.0
 21
68.5
 31
0.0
  0
SOLID
  5
13D
330
139
100
AcDbEntity
  8
1
 62
     2
100
AcDbTrace
 10
60.99999999999997
 20
73.42156748311177
 30
0.0
 11
60.99999999999997
 21
71.57843251688823
 31
0.0
 12
53.99999999999997
 22
72.5
 32
0.0
 13
53.99999999999997
 23
72.5
 33
0.0
  0
SOLID
  5
13E
330
139
100
AcDbEntity
  8
1
 62
     2
100
AcDbTrace
 10
139.0
 20
71.57843251688823
 30
0.0
 11
139.0
 21
73.42156748311177
 31
0.0
 12
146.0
 22
72.5
 32
0.0
 13
146.0
 23
72.5
 33
0.0
  0
MTEXT
  5
13F
330
139
100
AcDbEntity
  8
1
 62
     7
100
AcDbMText
 10
93.90250146446284
 20
76.49998807358344
 30
0.0
 40
6.0
 41
0.0
 71
     7
 72
     1
  1
\C7;{\Fgdt;n}\C7;92
  7
CONVERTER_12
 11
0.9999999999970619
 21
2.424068405545306E-6
 31
0.0
 73
     1
 44
0.60024009603842
  0
ENDBLK
  5
141
330
139
100
AcDbEntity
  8
0
100
AcDbBlockEnd
  0
BLOCK
  5
14B
330
144
100
AcDbEntity
  8
0
100
AcDbBlockBegin
  2
*D6
 70
     1
 10
0.0
 20
0.0
 30
0.0
  3
*D6
  1

  0
LINE
  5
145
330
144
100
AcDbEntity
  8
1
  6
Continuous
 62
     2
100
AcDbLine
 10
43.49999999999998
 20
231.5
 30
0.0
 11
156.5
 21
231.5
 31
0.0
  0
LINE
  5
146
330
144
100
AcDbEntity
  8
1
  6
Continuous
 62
     2
100
AcDbLine
 10
43.49999999999998
 20
210.5
 30
0.0
 11
43.49999999999998
 21
235.5
 31
0.0
  0
LINE
  5
147
330
144
100
AcDbEntity
  8
1
  6
Continuous
 62
     2
100
AcDbLine
 10
156.5
 20
210.5
 30
0.0
 11
156.5
 21
235.5
 31
0.0
  0
SOLID
  5
148
330
144
100
AcDbEntity
  8
1
 62
     2
100
AcDbTrace
 10
50.49999999999998
 20
232.4215674831118
 30
0.0
 11
50.49999999999998
 21
230.5784325168882
 31
0.0
 12
43.49999999999998
 22
231.5
 32
0.0
 13
43.49999999999998
 23
231.5
 33
0.0
  0
SOLID
  5
149
330
144
100
AcDbEntity
  8
1
 62
     2
100
AcDbTrace
 10
149.5
 20
230.5784325168882
 30
0.0
 11
149.5
 21
232.4215674831118
 31
0.0
 12
156.5
 22
231.5
 32
0.0
 13
156.5
 23
231.5
 33
0.0
  0
MTEXT
  5
14A
330
144
100
AcDbEntity
  8
1
 62
     7
100
AcDbMText
 10
93.45504326491745
 20
235.4999880735834
 30
0.0
 40
6.0
 41
0.0
 71
     7
 72
     1
  1
\C7;{\Fgdt;n}\C7;113
  7
CONVERTER_12
 11
0.9999999999970619
 21
2.424068405545306E-6
 31
0.0
 73
     1
 44
0.60024009603842
  0
ENDBLK
  5
14C
330
144
100
AcDbEntity
  8
0
100
AcDbBlockEnd
  0
BLOCK
  5
156
330
14F
100
AcDbEntity
  8
0
100
AcDbBlockBegin
  2
*D7
 70
     1
 10
0.0
 20
0.0
 30
0.0
  3
*D7
  1

  0
LINE
  5
150
330
14F
100
AcDbEntity
  8
1
  6
Continuous
 62
     2
100
AcDbLine
 10
7.49999999999997
 20
108.5
 30
0.0
 11
7.49999999999997
 21
211.5
 31
0.0
  0
LINE
  5
151
330
14F
100
AcDbEntity
  8
1
  6
Continuous
 62
     2
100
AcDbLine
 10
73.0
 20
108.5
 30
0.0
 11
3.49999999999997
 21
108.5
 31
0.0
  0
LINE
  5
152
330
14F
100
AcDbEntity
  8
1
  6
Continuous
 62
     2
100
AcDbLine
 10
44.49999999999997
 20
211.5
 30
0.0
 11
3.49999999999997
 21
211.5
 31
0.0
  0
SOLID
  5
153
330
14F
100
AcDbEntity
  8
1
 62
     2
100
AcDbTrace
 10
8.42156748311174
 20
204.5
 30
0.0
 11
6.5784325168882
 21
204.5
 31
0.0
 12
7.49999999999997
 22
211.5
 32
0.0
 13
7.49999999999997
 23
211.5
 33
0.0
  0
SOLID
  5
154
330
14F
100
AcDbEntity
  8
1
 62
     2
100
AcDbTrace
 10
6.5784325168882
 20
115.5
 30
0.0
 11
8.42156748311174
 21
115.5
 31
0.0
 12
7.49999999999997
 22
108.5
 32
0.0
 13
7.49999999999997
 23
108.5
 33
0.0
  0
MTEXT
  5
155
330
14F
100
AcDbEntity
  8
1
 62
     7
100
AcDbMText
 10
3.49999999999997
 20
153.590100594232
 30
0.0
 40
6.0
 41
0.0
 71
     7
 72
     1
  1
103
  7
CONVERTER_12
 11
0.0
 21
1.0
 31
0.0
 73
     1
 44
0.60024009603842
  0
ENDBLK
  5
157
330
14F
100
AcDbEntity
  8
0
100
AcDbBlockEnd
  0
BLOCK
  5
15F
330
15A
100
AcDbEntity
  8
0
100
AcDbBlockBegin
  2
*D8
 70
     1
 10
0.0
 20
0.0
 30
0.0
  3
*D8
  1

  0
LINE
  5
15B
330
15A
100
AcDbEntity
  8
0
  6
Continuous
 62
     2
100
AcDbLine
 10
142.1904813125203
 20
354.3223116698912
 30
0.0
 11
28.35717600748605
 21
295.4439630589889
 31
0.0
  0
SOLID
  5
15C
330
15A
100
AcDbEntity
  8
0
 62
     2
100
AcDbTrace
 10
63.60367945266569
 20
314.712163221976
 30
0.0
 11
64.45044715124685
 21
313.0750526672622
 31
0.0
 12
57.80951868747959
 22
310.6776883301088
 32
0.0
 13
57.80951868747959
 23
310.6776883301088
 33
0.0
  0
SOLID
  5
15D
330
15A
100
AcDbEntity
  8
0
 62
     2
100
AcDbTrace
 10
136.3963205473342
 20
350.287836778024
 30
0.0
 11
135.5495528487531
 21
351.9249473327378
 31
0.0
 12
142.1904813125203
 22
354.3223116698912
 32
0.0
 13
142.1904813125203
 23
354.3223116698912
 33
0.0
  0
MTEXT
  5
15E
330
15A
100
AcDbEntity
  8
0
 62
     7
100
AcDbMText
 10
28.5446507593383
 20
300.0443166559874
 30
0.0
 40
6.0
 41
0.0
 71
     7
 72
     1
  1
\C7;{\Fgdt;n}\C7;95
  7
CONVERTER_12
 11
0.8882206592109554
 21
0.4594170877871828
 31
0.0
 73
     1
 44
0.60024009603842
  0
ENDBLK
  5
160
330
15A
100
AcDbEntity
  8
0
100
AcDbBlockEnd
  0
ENDSEC
  0
SECTION
  2
ENTITIES
  0
INSERT
  5
4F
330
1F
100
AcDbEntity
  8
0
100
AcDbBlockReference
  2
開示A4枠
 10
-132.2193795070449
 20
-88.20979955456568
 30
0.0
  0
LINE
  5
CD
330
1F
100
AcDbEntity
  8
0
  6
Continuous
 62
     7
100
AcDbLine
 10
119.2353840616713
 20
365.5
 30
0.0
 11
80.76461593832863
 21
365.5
 31
0.0
  0
LINE
  5
CE
330
1F
100
AcDbEntity
  8
0
  6
Continuous
 62
     7
100
AcDbLine
 10
131.0
 20
358.0
 30
0.0
 11
68.99999999999997
 21
358.0
 31
0.0
  0
LINE
  5
CF
330
1F
100
AcDbEntity
  8
0
  6
Continuous
 62
     7
100
AcDbLine
 10
131.0
 20
353.0
 30
0.0
 11
68.99999999999997
 21
353.0
 31
0.0
  0
LINE
  5
D0
330
1F
100
AcDbEntity
  8
0
  6
Continuous
 62
     7
100
AcDbLine
 10
137.0
 20
347.0
 30
0.0
 11
62.99999999999997
 21
347.0
 31
0.0
  0
LINE
  5
D1
330
1F
100
AcDbEntity
  8
0
  6
Continuous
 62
     7
100
AcDbLine
 10
137.0
 20
342.0
 30
0.0
 11
62.99999999999997
 21
342.0
 31
0.0
  0
LINE
  5
D2
330
1F
100
AcDbEntity
  8
0
  6
Continuous
 62
     7
100
AcDbLine
 10
61.49999999999997
 20
334.25
 30
0.0
 11
61.49999999999997
 21
330.75
 31
0.0
  0
LINE
  5
D3
330
1F
100
AcDbEntity
  8
0
  6
Continuous
 62
     7
100
AcDbLine
 10
90.74999999999997
 20
335.25
 30
0.0
 11
62.49999999999997
 21
335.25
 31
0.0
  0
LINE
  5
D4
330
1F
100
AcDbEntity
  8
0
  6
Continuous
 62
     7
100
AcDbLine
 10
90.74999999999997
 20
329.75
 30
0.0
 11
62.49999999999997
 21
329.75
 31
0.0
  0
LINE
  5
D5
330
1F
100
AcDbEntity
  8
0
  6
Continuous
 62
     7
100
AcDbLine
 10
80.76461593832863
 20
299.5
 30
0.0
 11
119.2353840616713
 21
299.5
 31
0.0
  0
LINE
  5
D6
330
1F
100
AcDbEntity
  8
0
  6
Continuous
 62
     7
100
AcDbLine
 10
68.99999999999997
 20
307.0
 30
0.0
 11
131.0
 21
307.0
 31
0.0
  0
LINE
  5
D7
330
1F
100
AcDbEntity
  8
0
  6
Continuous
 62
     7
100
AcDbLine
 10
68.99999999999997
 20
312.0
 30
0.0
 11
131.0
 21
312.0
 31
0.0
  0
LINE
  5
D8
330
1F
100
AcDbEntity
  8
0
  6
Continuous
 62
     7
100
AcDbLine
 10
62.99999999999997
 20
318.0
 30
0.0
 11
137.0
 21
318.0
 31
0.0
  0
LINE
  5
D9
330
1F
100
AcDbEntity
  8
0
  6
Continuous
 62
     7
100
AcDbLine
 10
62.99999999999997
 20
323.0
 30
0.0
 11
137.0
 21
323.0
 31
0.0
  0
LINE
  5
DA
330
1F
100
AcDbEntity
  8
0
  6
Continuous
 62
     7
100
AcDbLine
 10
138.5
 20
330.75
 30
0.0
 11
138.5
 21
334.25
 31
0.0
  0
LINE
  5
DB
330
1F
100
AcDbEntity
  8
0
  6
Continuous
 62
     7
100
AcDbLine
 10
137.5
 20
335.25
 30
0.0
 11
109.25
 21
335.25
 31
0.0
  0
LINE
  5
DC
330
1F
100
AcDbEntity
  8
0
  6
Continuous
 62
     7
100
AcDbLine
 10
137.5
 20
329.75
 30
0.0
 11
109.25
 21
329.75
 31
0.0
  0
LINE
  5
DD
330
1F
100
AcDbEntity
  8
0
  6
DASH_CENTER
 62
     2
100
AcDbLine
 10
160.7863361652848
 20
332.5
 30
0.0
 11
38.25839927981266
 21
332.5
 31
0.0
  0
LINE
  5
DE
330
1F
100
AcDbEntity
  8
0
  6
DASH_CENTER
 62
     2
100
AcDbLine
 10
99.99999999999997
 20
270.151658986175
 30
0.0
 11
100.0
 21
284.5
 31
0.0
  0
LINE
  5
DF
330
1F
100
AcDbEntity
  8
0
  6
DASH_CENTER
 62
     2
100
AcDbLine
 10
99.99999999999997
 20
285.0
 30
0.0
 11
99.99999999999997
 21
392.0
 31
0.0
  0
LINE
  5
E0
330
1F
100
AcDbEntity
  8
0
  6
Continuous
 62
     7
100
AcDbLine
 10
100.0
 20
132.5
 30
0.0
 11
60.99999999999997
 21
132.5
 31
0.0
  0
LINE
  5
E1
330
1F
100
AcDbEntity
  8
0
  6
Continuous
 62
     7
100
AcDbLine
 10
43.49999999999997
 20
210.5
 30
0.0
 11
43.49999999999997
 21
206.5
 31
0.0
  0
LINE
  5
E2
330
1F
100
AcDbEntity
  8
0
  6
Continuous
 62
     7
100
AcDbLine
 10
53.99999999999997
 20
206.5
 30
0.0
 11
53.99999999999997
 21
139.5
 31
0.0
  0
LINE
  5
E3
330
1F
100
AcDbEntity
  8
0
  6
Continuous
 62
     7
100
AcDbLine
 10
99.99999999999997
 20
211.5
 30
0.0
 11
44.49999999999997
 21
211.5
 31
0.0
  0
LINE
  5
E4
330
1F
100
AcDbEntity
  8
0
  6
Continuous
 62
     7
100
AcDbLine
 10
99.99999999999997
 20
206.5
 30
0.0
 11
43.49999999999997
 21
206.5
 31
0.0
  0
LINE
  5
E5
330
1F
100
AcDbEntity
  8
0
  6
Continuous
 62
     7
100
AcDbLine
 10
59.16046118228306
 20
132.7460310233084
 30
0.0
 11
74.75
 21
128.5
 31
0.0
  0
LINE
  5
E6
330
1F
100
AcDbEntity
  8
0
  6
Continuous
 62
     7
100
AcDbLine
 10
100.0
 20
128.5
 30
0.0
 11
72.0
 21
128.5
 31
0.0
  0
LINE
  5
E7
330
1F
100
AcDbEntity
  8
0
  6
Continuous
 62
     7
100
AcDbLine
 10
100.0
 20
108.5
 30
0.0
 11
73.0
 21
108.5
 31
0.0
  0
LINE
  5
E8
330
1F
100
AcDbEntity
  8
0
  6
Continuous
 62
     7
100
AcDbLine
 10
72.0
 20
128.5
 30
0.0
 11
72.0
 21
109.5
 31
0.0
  0
LINE
  5
E9
330
1F
100
AcDbEntity
  8
0
  6
Continuous
 62
     7
100
AcDbLine
 10
139.0
 20
132.5
 30
0.0
 11
100.0
 21
132.5
 31
0.0
  0
LINE
  5
EA
330
1F
100
AcDbEntity
  8
0
  6
Continuous
 62
     7
100
AcDbLine
 10
156.5
 20
206.5
 30
0.0
 11
156.5
 21
210.5
 31
0.0
  0
LINE
  5
EB
330
1F
100
AcDbEntity
  8
0
  6
Continuous
 62
     7
100
AcDbLine
 10
146.0
 20
139.5
 30
0.0
 11
146.0
 21
206.5
 31
0.0
  0
LINE
  5
EC
330
1F
100
AcDbEntity
  8
0
  6
Continuous
 62
     7
100
AcDbLine
 10
155.5
 20
211.5
 30
0.0
 11
99.99999999999997
 21
211.5
 31
0.0
  0
LINE
  5
ED
330
1F
100
AcDbEntity
  8
0
  6
Continuous
 62
     7
100
AcDbLine
 10
156.5
 20
206.5
 30
0.0
 11
99.99999999999997
 21
206.5
 31
0.0
  0
LINE
  5
EE
330
1F
100
AcDbEntity
  8
0
  6
Continuous
 62
     7
100
AcDbLine
 10
125.25
 20
128.5
 30
0.0
 11
140.8395388177169
 21
132.7460310233084
 31
0.0
  0
LINE
  5
EF
330
1F
100
AcDbEntity
  8
0
  6
Continuous
 62
     7
100
AcDbLine
 10
128.0
 20
128.5
 30
0.0
 11
100.0
 21
128.5
 31
0.0
  0
LINE
  5
F0
330
1F
100
AcDbEntity
  8
0
  6
Continuous
 62
     7
100
AcDbLine
 10
127.0
 20
108.5
 30
0.0
 11
100.0
 21
108.5
 31
0.0
  0
LINE
  5
F1
330
1F
100
AcDbEntity
  8
0
  6
Continuous
 62
     7
100
AcDbLine
 10
128.0
 20
109.5
 30
0.0
 11
128.0
 21
128.5
 31
0.0
  0
LINE
  5
F2
330
1F
100
AcDbEntity
  8
0
  6
DASH_CENTER
 62
     2
100
AcDbLine
 10
100.0
 20
106.5
 30
0.0
 11
99.99999999999997
 21
213.5
 31
0.0
  0
LINE
  5
F3
330
1F
100
AcDbEntity
  8
0
  6
DASH_CENTER
 62
     2
100
AcDbLine
 10
100.0
 20
284.5
 30
0.0
 11
99.99999999999997
 21
285.0
 31
0.0
  0
ARC
  5
F4
330
1F
100
AcDbEntity
  8
0
  6
Continuous
 62
     7
100
AcDbCircle
 10
99.99999999999997
 20
332.5
 30
0.0
 40
41.00000000000004
100
AcDbArc
 50
60.85826304107798
 51
119.1417369589219
  0
ARC
  5
F5
330
1F
100
AcDbEntity
  8
0
  6
Continuous
 62
     7
100
AcDbCircle
 10
68.99999999999997
 20
355.5
 30
0.0
 40
2.5
100
AcDbArc
 50
90.0
 51
270.0
  0
ARC
  5
F6
330
1F
100
AcDbEntity
  8
0
  6
Continuous
 62
     7
100
AcDbCircle
 10
131.0
 20
355.5
 30
0.0
 40
2.5
100
AcDbArc
 50
270.0
 51
90.0
  0
ARC
  5
F7
330
1F
100
AcDbEntity
  8
0
  6
Continuous
 62
     7
100
AcDbCircle
 10
62.99999999999997
 20
344.5
 30
0.0
 40
2.5
100
AcDbArc
 50
90.0
 51
270.0
  0
ARC
  5
F8
330
1F
100
AcDbEntity
  8
0
  6
Continuous
 62
     7
100
AcDbCircle
 10
137.0
 20
344.5
 30
0.0
 40
2.5
100
AcDbArc
 50
270.0
 51
90.0
  0
ARC
  5
F9
330
1F
100
AcDbEntity
  8
0
  6
Continuous
 62
     7
100
AcDbCircle
 10
90.74999999999997
 20
332.5
 30
0.0
 40
2.75
100
AcDbArc
 50
270.0
 51
90.0
  0
ARC
  5
FA
330
1F
100
AcDbEntity
  8
0
  6
Continuous
 62
     7
100
AcDbCircle
 10
99.99999999999997
 20
332.5
 30
0.0
 40
41.0
100
AcDbArc
 50
240.8582630410781
 51
299.141736958922
  0
ARC
  5
FB
330
1F
100
AcDbEntity
  8
0
  6
Continuous
 62
     7
100
AcDbCircle
 10
68.99999999999997
 20
309.5
 30
0.0
 40
2.5
100
AcDbArc
 50
90.0
 51
270.0
  0
ARC
  5
FC
330
1F
100
AcDbEntity
  8
0
  6
Continuous
 62
     7
100
AcDbCircle
 10
131.0
 20
309.5
 30
0.0
 40
2.5
100
AcDbArc
 50
270.0
 51
90.0
  0
ARC
  5
FD
330
1F
100
AcDbEntity
  8
0
  6
Continuous
 62
     7
100
AcDbCircle
 10
62.99999999999997
 20
320.5
 30
0.0
 40
2.5
100
AcDbArc
 50
90.0
 51
270.0
  0
ARC
  5
FE
330
1F
100
AcDbEntity
  8
0
  6
Continuous
 62
     7
100
AcDbCircle
 10
137.0
 20
320.5
 30
0.0
 40
2.5
100
AcDbArc
 50
270.0
 51
90.0
  0
ARC
  5
FF
330
1F
100
AcDbEntity
  8
0
  6
Continuous
 62
     7
100
AcDbCircle
 10
109.25
 20
332.5
 30
0.0
 40
2.75
100
AcDbArc
 50
90.0
 51
270.0
  0
CIRCLE
  5
100
330
1F
100
AcDbEntity
  8
0
  6
Continuous
 62
     7
100
AcDbCircle
 10
99.99999999999997
 20
332.5
 30
0.0
 40
2.5
  0
CIRCLE
  5
101
330
1F
100
AcDbEntity
  8
0
  6
Continuous
 62
     7
100
AcDbCircle
 10
99.99999999999997
 20
332.5
 30
0.0
 40
4.5
  0
CIRCLE
  5
102
330
1F
100
AcDbEntity
  8
0
  6
Continuous
 62
     7
100
AcDbCircle
 10
99.99999999999997
 20
332.5
 30
0.0
 40
47.5
  0
CIRCLE
  5
103
330
1F
100
AcDbEntity
  8
0
  6
Continuous
 62
     7
100
AcDbCircle
 10
99.99999999999997
 20
332.5
 30
0.0
 40
56.5
  0
CIRCLE
  5
104
330
1F
100
AcDbEntity
  8
0
  6
Continuous
 62
     7
100
AcDbCircle
 10
99.99999999999997
 20
332.5
 30
0.0
 40
48.0
  0
ARC
  5
105
330
1F
100
AcDbEntity
  8
0
  6
Continuous
 62
     7
100
AcDbCircle
 10
119.2353840616713
 20
367.0
 30
0.0
 40
1.5
100
AcDbArc
 50
270.0
 51
60.85826304107541
  0
ARC
  5
106
330
1F
100
AcDbEntity
  8
0
  6
Continuous
 62
     7
100
AcDbCircle
 10
80.76461593832863
 20
367.0
 30
0.0
 40
1.500000000000002
100
AcDbArc
 50
119.1417369589218
 51
270.0
  0
ARC
  5
107
330
1F
100
AcDbEntity
  8
0
  6
Continuous
 62
     7
100
AcDbCircle
 10
62.49999999999997
 20
334.25
 30
0.0
 40
1.0
100
AcDbArc
 50
90.0
 51
180.0
  0
ARC
  5
108
330
1F
100
AcDbEntity
  8
0
  6
Continuous
 62
     7
100
AcDbCircle
 10
62.49999999999997
 20
330.75
 30
0.0
 40
1.0
100
AcDbArc
 50
180.0
 51
270.0
  0
ARC
  5
109
330
1F
100
AcDbEntity
  8
0
  6
Continuous
 62
     7
100
AcDbCircle
 10
119.2353840616713
 20
298.0
 30
0.0
 40
1.500000000000044
100
AcDbArc
 50
299.1417369589246
 51
90.0
  0
ARC
  5
10A
330
1F
100
AcDbEntity
  8
0
  6
Continuous
 62
     7
100
AcDbCircle
 10
80.76461593832863
 20
298.0
 30
0.0
 40
1.5
100
AcDbArc
 50
90.0
 51
240.8582630410783
  0
ARC
  5
10B
330
1F
100
AcDbEntity
  8
0
  6
Continuous
 62
     7
100
AcDbCircle
 10
137.5
 20
334.25
 30
0.0
 40
1.0
100
AcDbArc
 50
0.0
 51
90.0
  0
ARC
  5
10C
330
1F
100
AcDbEntity
  8
0
  6
Continuous
 62
     7
100
AcDbCircle
 10
137.5
 20
330.75
 30
0.0
 40
1.0
100
AcDbArc
 50
270.0
 51
0.0
  0
ARC
  5
10D
330
1F
100
AcDbEntity
  8
0
  6
Continuous
 62
     7
100
AcDbCircle
 10
60.99999999999997
 20
139.5
 30
0.0
 40
6.99999999999999
100
AcDbArc
 50
254.7642497005513
 51
270.0
  0
ARC
  5
10E
330
1F
100
AcDbEntity
  8
0
  6
Continuous
 62
     7
100
AcDbCircle
 10
60.99999999999997
 20
139.5
 30
0.0
 40
7.0
100
AcDbArc
 50
180.0
 51
254.7642497005513
  0
ARC
  5
10F
330
1F
100
AcDbEntity
  8
0
  6
Continuous
 62
     7
100
AcDbCircle
 10
73.0
 20
109.5
 30
0.0
 40
1.0
100
AcDbArc
 50
180.0
 51
270.0
  0
ARC
  5
110
330
1F
100
AcDbEntity
  8
0
  6
Continuous
 62
     7
100
AcDbCircle
 10
44.49999999999997
 20
210.5
 30
0.0
 40
1.0
100
AcDbArc
 50
90.0
 51
180.0
  0
ARC
  5
111
330
1F
100
AcDbEntity
  8
0
  6
Continuous
 62
     7
100
AcDbCircle
 10
139.0
 20
139.5
 30
0.0
 40
7.0
100
AcDbArc
 50
270.0
 51
285.2357502994487
  0
ARC
  5
112
330
1F
100
AcDbEntity
  8
0
  6
Continuous
 62
     7
100
AcDbCircle
 10
139.0
 20
139.5
 30
0.0
 40
6.99999999999999
100
AcDbArc
 50
285.2357502994487
 51
0.0
  0
ARC
  5
113
330
1F
100
AcDbEntity
  8
0
  6
Continuous
 62
     7
100
AcDbCircle
 10
127.0
 20
109.5
 30
0.0
 40
1.0
100
AcDbArc
 50
270.0
 51
0.0
  0
ARC
  5
114
330
1F
100
AcDbEntity
  8
0
  6
Continuous
 62
     7
100
AcDbCircle
 10
155.5
 20
210.5
 30
0.0
 40
1.0
100
AcDbArc
 50
0.0
 51
90.0
  0
MTEXT
  5
116
330
1F
100
AcDbEntity
  8
1
 62
     7
100
AcDbMText
 10
182.7806204929551
 20
-63.20979955456568
 30
0.0
 40
5.0
 41
0.0
 71
     5
 72
     1
  1
6
  7
CONVERTER_12
 73
     1
 44
0.7202881152461
  0
MTEXT
  5
117
330
1F
100
AcDbEntity
  8
1
 62
     7
100
AcDbMText
 10
171.2806204929551
 20
-63.20979955456568
 30
0.0
 40
5.0
 41
0.0
 71
     5
 72
     1
  1
04
  7
CONVERTER_12
 73
     1
 44
0.7202881152461
  0
MTEXT
  5
118
330
1F
100
AcDbEntity
  8
1
 62
     7
100
AcDbMText
 10
148.7806204929551
 20
-63.20979955456568
 30
0.0
 40
5.0
 41
0.0
 71
     5
 72
     1
  1
6
  7
CONVERTER_12
 73
     1
 44
0.7202881152461
  0
MTEXT
  5
119
330
1F
100
AcDbEntity
  8
1
 62
     7
100
AcDbMText
 10
137.2806204929551
 20
-63.20979955456568
 30
0.0
 40
5.0
 41
0.0
 71
     5
 72
     1
  1
04
  7
CONVERTER_12
 73
     1
 44
0.7202881152461
  0
MTEXT
  5
11A
330
1F
100
AcDbEntity
  8
1
 62
     7
100
AcDbMText
 10
114.7806204929551
 20
-63.20979955456568
 30
0.0
 40
5.0
 41
0.0
 71
     5
 72
     1
  1
6
  7
CONVERTER_12
 73
     1
 44
0.7202881152461
  0
MTEXT
  5
11B
330
1F
100
AcDbEntity
  8
1
 62
     7
100
AcDbMText
 10
103.2806204929551
 20
-63.20979955456568
 30
0.0
 40
5.0
 41
0.0
 71
     5
 72
     1
  1
04
  7
CONVERTER_12
 73
     1
 44
0.7202881152461
  0
MTEXT
  5
11C
330
1F
100
AcDbEntity
  8
1
 62
     7
100
AcDbMText
 10
69.2806204929551
 20
-63.20979955456568
 30
0.0
 40
5.0
 41
0.0
 71
     5
 72
     1
  1
04
  7
CONVERTER_12
 73
     1
 44
0.7202881152461
  0
MTEXT
  5
11D
330
1F
100
AcDbEntity
  8
1
 62
     7
100
AcDbMText
 10
80.7806204929551
 20
-63.20979955456568
 30
0.0
 40
5.0
 41
0.0
 71
     5
 72
     1
  1
6
  7
CONVERTER_12
 73
     1
 44
0.7202881152461
  0
MTEXT
  5
11E
330
1F
100
AcDbEntity
  8
1
 62
     7
100
AcDbMText
 10
38.28062049295505
 20
-54.20979955456568
 30
0.0
 40
7.0
 41
0.0
 71
     5
 72
     1
  1
1
  7
CONVERTER_12
 73
     1
 44
0.7202881152461
  0
MTEXT
  5
11F
330
1F
100
AcDbEntity
  8
1
 62
     7
100
AcDbMText
 10
-18.21937950704489
 20
-46.70979955456565
 30
0.0
 40
7.0
 41
0.0
 71
     5
 72
     1
  1
ステンレスワントラップ
  7
CONVERTER_11
 73
     1
 44
0.54545454545455
  0
MTEXT
  5
120
330
1F
100
AcDbEntity
  8
1
 62
     7
100
AcDbMText
 10
55.28062049295505
 20
-54.20979955456568
 30
0.0
 40
7.0
 41
0.0
 71
     5
 72
     1
  1
2
  7
CONVERTER_12
 73
     1
 44
0.7202881152461
  0
MTEXT
  5
121
330
1F
100
AcDbEntity
  8
1
 62
     7
100
AcDbMText
 10
-18.21937950704495
 20
-59.70979955456568
 30
0.0
 40
7.0
 41
0.0
 71
     5
 72
     1
  1
H530-100X50
  7
CONVERTER_12
 73
     1
 44
0.7202881152461
  0
MTEXT
  5
122
330
1F
100
AcDbEntity
  8
1
 62
     7
100
AcDbMText
 10
-18.21937950704489
 20
-38.70979955456565
 30
0.0
 40
7.0
 41
0.0
 71
     5
 72
     1
  1
封水50
  7
CONVERTER_11
 73
     1
 44
0.54545454545455
  0
DIMENSION
  5
12D
330
1F
100
AcDbEntity
  8
1
100
AcDbDimension
  2
*D3
 10
23.49999999999997
 20
128.5
 30
0.0
 11
16.49999999999997
 21
166.763853928903
 31
0.0
 70
    32
  1
<>
 71
     5
 42
-1.0
 53
90.0
  3
ME10_DIM_10
100
AcDbAlignedDimension
 13
44.49999999999997
 23
211.5
 33
0.0
 14
72.0
 24
128.5
 34
0.0
 50
90.0
100
AcDbRotatedDimension
  0
DIMENSION
  5
138
330
1F
100
AcDbEntity
  8
1
100
AcDbDimension
  2
*D4
 10
72.0
 20
88.5
 30
0.0
 11
100.120674980069
 21
95.5
 31
0.0
 70
    32
  1
<>
 71
     5
 42
-1.0
 53
0.00013888888889
  3
ME10_DIM_11
100
AcDbAlignedDimension
 13
128.0
 23
109.5
 33
0.0
 14
72.0
 24
109.5
 34
0.0
100
AcDbRotatedDimension
  0
DIMENSION
  5
143
330
1F
100
AcDbEntity
  8
1
100
AcDbDimension
  2
*D5
 10
53.99999999999997
 20
72.5
 30
0.0
 11
99.7225014644484
 21
79.5
 31
0.0
 70
    32
  1
<>
 71
     5
 42
-1.0
 53
0.00013888888889
  3
ME10_DIM_12
100
AcDbAlignedDimension
 13
146.0
 23
139.5
 33
0.0
 14
53.99999999999997
 24
139.5
 34
0.0
100
AcDbRotatedDimension
  0
DIMENSION
  5
14E
330
1F
100
AcDbEntity
  8
1
100
AcDbDimension
  2
*D6
 10
43.49999999999998
 20
231.5
 30
0.0
 11
100.175043264903
 21
238.5
 31
0.0
 70
    32
  1
<>
 71
     5
 42
-1.0
 53
0.00013888888889
  3
ME10_DIM_13
100
AcDbAlignedDimension
 13
156.5
 23
210.5
 33
0.0
 14
43.49999999999997
 24
210.5
 34
0.0
100
AcDbRotatedDimension
  0
DIMENSION
  5
159
330
1F
100
AcDbEntity
  8
1
100
AcDbDimension
  2
*D7
 10
7.49999999999997
 20
211.5
 30
0.0
 11
0.49999999999997
 21
159.890100594232
 31
0.0
 70
    32
  1
<>
 71
     5
 42
-1.0
 53
90.0
  3
ME10_DIM_14
100
AcDbAlignedDimension
 13
73.0
 23
108.5
 33
0.0
 14
44.49999999999997
 24
211.5
 34
0.0
 50
90.0
100
AcDbRotatedDimension
  0
INSERT
  5
161
330
1F
100
AcDbEntity
  8
0
100
AcDbBlockReference
  2
*D8
 10
0.0
 20
0.0
 30
0.0
  0
ENDSEC
  0
SECTION
  2
OBJECTS
  0
DICTIONARY
  5
C
330
0
100
AcDbDictionary
281
     1
  3
ACAD_GROUP
350
D
  3
ACAD_LAYOUT
350
1A
  3
ACAD_MATERIAL
350
3B
  3
ACAD_MLEADERSTYLE
350
164
  3
ACAD_MLINESTYLE
350
17
  3
ACAD_PLOTSETTINGS
350
19
  3
ACAD_PLOTSTYLENAME
350
E
  3
ACAD_VISUALSTYLE
350
2A
  3
AcDbVariableDictionary
350
162
  0
DICTIONARY
  5
D
102
{ACAD_REACTORS
330
C
102
}
330
C
100
AcDbDictionary
281
     1
  0
DICTIONARY
  5
1A
102
{ACAD_REACTORS
330
C
102
}
330
C
100
AcDbDictionary
281
     1
  3
Layout1
350
1E
  3
Layout2
350
26
  3
Model
350
22
  0
DICTIONARY
  5
3B
102
{ACAD_REACTORS
330
C
102
}
330
C
100
AcDbDictionary
281
     1
  3
ByBlock
350
3D
  3
ByLayer
350
3C
  3
Global
350
3E
  0
DICTIONARY
  5
164
102
{ACAD_REACTORS
330
C
102
}
330
C
100
AcDbDictionary
281
     1
  0
DICTIONARY
  5
17
102
{ACAD_REACTORS
330
C
102
}
330
C
100
AcDbDictionary
281
     1
  3
Standard
350
18
  0
DICTIONARY
  5
19
102
{ACAD_REACTORS
330
C
102
}
330
C
100
AcDbDictionary
281
     1
  0
ACDBDICTIONARYWDFLT
  5
E
102
{ACAD_REACTORS
330
C
102
}
330
C
100
AcDbDictionary
281
     1
  3
Normal
350
F
100
AcDbDictionaryWithDefault
340
F
  0
DICTIONARY
  5
2A
102
{ACAD_REACTORS
330
C
102
}
330
C
100
AcDbDictionary
281
     1
  3
2dWireframe
350
2F
  3
3D Hidden
350
31
  3
3dWireframe
350
30
  3
Basic
350
32
  3
Brighten
350
36
  3
ColorChange
350
3A
  3
Conceptual
350
34
  3
Dim
350
35
  3
Facepattern
350
39
  3
Flat
350
2B
  3
FlatWithEdges
350
2C
  3
Gouraud
350
2D
  3
GouraudWithEdges
350
2E
  3
Linepattern
350
38
  3
Realistic
350
33
  3
Thicken
350
37
  0
DICTIONARY
  5
162
102
{ACAD_REACTORS
330
C
102
}
330
C
100
AcDbDictionary
281
     1
  3
DIMASSOC
350
165
  3
HIDETEXT
350
166
  0
LAYOUT
  5
1E
102
{ACAD_REACTORS
330
1A
102
}
330
1A
100
AcDbPlotSettings
  1

  2
none_device
  4

  6

 40
0.0
 41
0.0
 42
0.0
 43
0.0
 44
0.0
 45
0.0
 46
0.0
 47
0.0
 48
0.0
 49
0.0
140
0.0
141
0.0
142
1.0
143
1.0
 70
   688
 72
     0
 73
     0
 74
     5
  7

 75
    16
147
1.0
148
0.0
149
0.0
100
AcDbLayout
  1
Layout1
 70
     1
 71
     1
 10
0.0
 20
0.0
 11
12.0
 21
9.0
 12
0.0
 22
0.0
 32
0.0
 14
1.00000000000000E+20
 24
1.00000000000000E+20
 34
1.00000000000000E+20
 15
-1.00000000000000E+20
 25
-1.00000000000000E+20
 35
-1.00000000000000E+20
146
0.0
 13
0.0
 23
0.0
 33
0.0
 16
1.0
 26
0.0
 36
0.0
 17
0.0
 27
1.0
 37
0.0
 76
     0
330
1B
  0
LAYOUT
  5
26
102
{ACAD_REACTORS
330
1A
102
}
330
1A
100
AcDbPlotSettings
  1

  2
none_device
  4

  6

 40
0.0
 41
0.0
 42
0.0
 43
0.0
 44
0.0
 45
0.0
 46
0.0
 47
0.0
 48
0.0
 49
0.0
140
0.0
141
0.0
142
1.0
143
1.0
 70
   688
 72
     0
 73
     0
 74
     5
  7

 75
    16
147
1.0
148
0.0
149
0.0
100
AcDbLayout
  1
Layout2
 70
     1
 71
     2
 10
0.0
 20
0.0
 11
0.0
 21
0.0
 12
0.0
 22
0.0
 32
0.0
 14
0.0
 24
0.0
 34
0.0
 15
0.0
 25
0.0
 35
0.0
146
0.0
 13
0.0
 23
0.0
 33
0.0
 16
1.0
 26
0.0
 36
0.0
 17
0.0
 27
1.0
 37
0.0
 76
     0
330
23
  0
LAYOUT
  5
22
102
{ACAD_REACTORS
330
1A
102
}
330
1A
100
AcDbPlotSettings
  1

  2
none_device
  4

  6

 40
0.0
 41
0.0
 42
0.0
 43
0.0
 44
0.0
 45
0.0
 46
0.0
 47
0.0
 48
0.0
 49
0.0
140
0.0
141
0.0
142
1.0
143
1.0
 70
  1712
 72
     0
 73
     0
 74
     0
  7

 75
     0
147
1.0
148
0.0
149
0.0
100
AcDbLayout
  1
Model
 70
     1
 71
     0
 10
0.0
 20
0.0
 11
12.0
 21
9.0
 12
0.0
 22
0.0
 32
0.0
 14
-132.2193795070449
 24
-88.20979955456568
 34
0.0
 15
287.7806204929552
 25
505.7902004454344
 35
0.0
146
0.0
 13
0.0
 23
0.0
 33
0.0
 16
1.0
 26
0.0
 36
0.0
 17
0.0
 27
1.0
 37
0.0
 76
     0
330
1F
331
29
  0
MATERIAL
  5
3D
102
{ACAD_REACTORS
330
3B
102
}
102
{ACAD_XDICTIONARY
360
189
102
}
330
3B
100
AcDbMaterial
  1
ByBlock
  0
MATERIAL
  5
3C
102
{ACAD_REACTORS
330
3B
102
}
102
{ACAD_XDICTIONARY
360
187
102
}
330
3B
100
AcDbMaterial
  1
ByLayer
  0
MATERIAL
  5
3E
102
{ACAD_REACTORS
330
3B
102
}
102
{ACAD_XDICTIONARY
360
18B
102
}
330
3B
100
AcDbMaterial
  1
Global
  0
MLINESTYLE
  5
18
102
{ACAD_REACTORS
330
17
102
}
330
17
100
AcDbMlineStyle
  2
Standard
 70
     0
  3

 62
   256
 51
90.0
 52
90.0
 71
     2
 49
0.5
 62
   256
  6
BYLAYER
 49
-0.5
 62
   256
  6
BYLAYER
  0
ACDBPLACEHOLDER
  5
F
102
{ACAD_REACTORS
330
E
102
}
330
E
  0
VISUALSTYLE
  5
2F
102
{ACAD_REACTORS
330
2A
102
}
102
{ACAD_XDICTIONARY
360
16F
102
}
330
2A
100
AcDbVisualStyle
  2
2dWireframe
 70
     4
 71
     0
 72
     2
 73
     0
 90
        0
 40
-0.6
 41
-30.0
 62
     5
 63
     7
 74
     1
 91
        4
 64
     7
 65
   257
 75
     1
175
     1
 42
1.0
 92
        0
 66
   257
 43
1.0
 76
     1
 77
     6
 78
     2
 67
     7
 79
     5
170
     0
171
     0
290
     0
174
     0
 93
        1
 44
0.0
173
     0
291
     0
 45
0.0
1001
ACAD
1000
AcDbSavedByObjectVersion
1070
     0
  0
VISUALSTYLE
  5
31
102
{ACAD_REACTORS
330
2A
102
}
102
{ACAD_XDICTIONARY
360
173
102
}
330
2A
100
AcDbVisualStyle
  2
3D Hidden
 70
     6
 71
     1
 72
     2
 73
     2
 90
        0
 40
-0.6
 41
-30.0
 62
     5
 63
     7
 74
     2
 91
        2
 64
     7
 65
   257
 75
     2
175
     1
 42
40.0
 92
        0
 66
   257
 43
1.0
 76
     1
 77
     6
 78
     2
 67
     7
 79
     3
170
     0
171
     0
290
     0
174
     0
 93
        1
 44
0.0
173
     0
291
     0
 45
0.0
1001
ACAD
1000
AcDbSavedByObjectVersion
1070
     0
  0
VISUALSTYLE
  5
30
102
{ACAD_REACTORS
330
2A
102
}
102
{ACAD_XDICTIONARY
360
171
102
}
330
2A
100
AcDbVisualStyle
  2
3dWireframe
 70
     5
 71
     0
 72
     2
 73
     0
 90
        0
 40
-0.6
 41
-30.0
 62
     5
 63
     7
 74
     1
 91
        4
 64
     7
 65
   257
 75
     1
175
     1
 42
1.0
 92
        0
 66
   257
 43
1.0
 76
     1
 77
     6
 78
     2
 67
     7
 79
     5
170
     0
171
     0
290
     0
174
     0
 93
        1
 44
0.0
173
     0
291
     0
 45
0.0
1001
ACAD
1000
AcDbSavedByObjectVersion
1070
     0
  0
VISUALSTYLE
  5
32
102
{ACAD_REACTORS
330
2A
102
}
102
{ACAD_XDICTIONARY
360
175
102
}
330
2A
100
AcDbVisualStyle
  2
Basic
 70
     7
 71
     1
 72
     0
 73
     1
 90
        0
 40
-0.6
 41
-30.0
 62
     5
 63
     7
 74
     0
 91
        4
 64
     7
 65
   257
 75
     1
175
     1
 42
1.0
 92
        8
 66
     7
 43
1.0
 76
     1
 77
     6
 78
     2
 67
     7
 79
     5
170
     0
171
     0
290
     0
174
     0
 93
        1
 44
0.0
173
     0
291
     1
 45
0.0
1001
ACAD
1000
AcDbSavedByObjectVersion
1070
     0
  0
VISUALSTYLE
  5
36
102
{ACAD_REACTORS
330
2A
102
}
102
{ACAD_XDICTIONARY
360
17D
102
}
330
2A
100
AcDbVisualStyle
  2
Brighten
 70
    12
 71
     2
 72
     2
 73
     0
 90
        0
 40
-0.6
 41
-30.0
 62
     5
 63
     7
 74
     1
 91
        4
 64
     7
 65
   257
 75
     1
175
     1
 42
1.0
 92
        8
 66
     7
 43
1.0
 76
     1
 77
     6
 78
     2
 67
     7
 79
     5
170
     0
171
     0
290
     0
174
     0
 93
        1
 44
50.0
173
     0
291
     1
 45
0.0
1001
ACAD
1000
AcDbSavedByObjectVersion
1070
     0
  0
VISUALSTYLE
  5
3A
102
{ACAD_REACTORS
330
2A
102
}
102
{ACAD_XDICTIONARY
360
185
102
}
330
2A
100
AcDbVisualStyle
  2
ColorChange
 70
    16
 71
     2
 72
     2
 73
     3
 90
        0
 40
-0.6
 41
-30.0
 62
     5
 63
     8
 74
     1
 91
        4
 64
     7
 65
   257
 75
     1
175
     1
 42
1.0
 92
        8
 66
     8
 43
1.0
 76
     1
 77
     6
 78
     2
 67
     7
 79
     5
170
     0
171
     0
290
     0
174
     0
 93
        1
 44
0.0
173
     0
291
     1
 45
0.0
1001
ACAD
1000
AcDbSavedByObjectVersion
1070
     0
  0
VISUALSTYLE
  5
34
102
{ACAD_REACTORS
330
2A
102
}
102
{ACAD_XDICTIONARY
360
179
102
}
330
2A
100
AcDbVisualStyle
  2
Conceptual
 70
     9
 71
     3
 72
     2
 73
     0
 90
        0
 40
-0.6
 41
-30.0
 62
     5
 63
     7
 74
     2
 91
        2
 64
     7
 65
   257
 75
     1
175
     1
 42
40.0
 92
        8
 66
     7
 43
1.0
 76
     1
 77
     6
 78
     2
 67
     7
 79
     3
170
     0
171
     0
290
     0
174
     0
 93
        1
 44
0.0
173
     0
291
     0
 45
0.0
1001
ACAD
1000
AcDbSavedByObjectVersion
1070
     0
  0
VISUALSTYLE
  5
35
102
{ACAD_REACTORS
330
2A
102
}
102
{ACAD_XDICTIONARY
360
17B
102
}
330
2A
100
AcDbVisualStyle
  2
Dim
 70
    11
 71
     2
 72
     2
 73
     0
 90
        0
 40
-0.6
 41
-30.0
 62
     5
 63
     7
 74
     1
 91
        4
 64
     7
 65
   257
 75
     1
175
     1
 42
1.0
 92
        8
 66
     7
 43
1.0
 76
     1
 77
     6
 78
     2
 67
     7
 79
     5
170
     0
171
     0
290
     0
174
     0
 93
        1
 44
-50.0
173
     0
291
     1
 45
0.0
1001
ACAD
1000
AcDbSavedByObjectVersion
1070
     0
  0
VISUALSTYLE
  5
39
102
{ACAD_REACTORS
330
2A
102
}
102
{ACAD_XDICTIONARY
360
183
102
}
330
2A
100
AcDbVisualStyle
  2
Facepattern
 70
    15
 71
     2
 72
     2
 73
     0
 90
        0
 40
-0.6
 41
-30.0
 62
     5
 63
     7
 74
     1
 91
        4
 64
     7
 65
   257
 75
     1
175
     1
 42
1.0
 92
        8
 66
     7
 43
1.0
 76
     1
 77
     6
 78
     2
 67
     7
 79
     5
170
     0
171
     0
290
     0
174
     0
 93
        1
 44
0.0
173
     0
291
     1
 45
0.0
1001
ACAD
1000
AcDbSavedByObjectVersion
1070
     0
  0
VISUALSTYLE
  5
2B
102
{ACAD_REACTORS
330
2A
102
}
102
{ACAD_XDICTIONARY
360
167
102
}
330
2A
100
AcDbVisualStyle
  2
Flat
 70
     0
 71
     2
 72
     1
 73
     1
 90
        2
 40
-0.6
 41
30.0
 62
     5
 63
     7
 74
     0
 91
        4
 64
     7
 65
   257
 75
     1
175
     1
 42
1.0
 92
        8
 66
     7
 43
1.0
 76
     1
 77
     6
 78
     2
 67
     7
 79
     5
170
     0
171
     0
290
     0
174
     0
 93
       13
 44
0.0
173
     0
291
     1
 45
0.0
1001
ACAD
1000
AcDbSavedByObjectVersion
1070
     0
  0
VISUALSTYLE
  5
2C
102
{ACAD_REACTORS
330
2A
102
}
102
{ACAD_XDICTIONARY
360
169
102
}
330
2A
100
AcDbVisualStyle
  2
FlatWithEdges
 70
     1
 71
     2
 72
     1
 73
     1
 90
        2
 40
-0.6
 41
30.0
 62
     5
 63
     7
 74
     1
 91
        4
 64
     7
 65
   257
 75
     1
175
     1
 42
1.0
 92
        0
 66
   257
 43
1.0
 76
     1
 77
     6
 78
     2
 67
     7
 79
     5
170
     0
171
     0
290
     0
174
     0
 93
       13
 44
0.0
173
     0
291
     1
 45
0.0
1001
ACAD
1000
AcDbSavedByObjectVersion
1070
     0
  0
VISUALSTYLE
  5
2D
102
{ACAD_REACTORS
330
2A
102
}
102
{ACAD_XDICTIONARY
360
16B
102
}
330
2A
100
AcDbVisualStyle
  2
Gouraud
 70
     2
 71
     2
 72
     2
 73
     1
 90
        2
 40
-0.6
 41
30.0
 62
     5
 63
     7
 74
     0
 91
        4
 64
     7
 65
   257
 75
     1
175
     1
 42
1.0
 92
        0
 66
     7
 43
1.0
 76
     1
 77
     6
 78
     2
 67
     7
 79
     5
170
     0
171
     0
290
     0
174
     0
 93
       13
 44
0.0
173
     0
291
     1
 45
0.0
1001
ACAD
1000
AcDbSavedByObjectVersion
1070
     0
  0
VISUALSTYLE
  5
2E
102
{ACAD_REACTORS
330
2A
102
}
102
{ACAD_XDICTIONARY
360
16D
102
}
330
2A
100
AcDbVisualStyle
  2
GouraudWithEdges
 70
     3
 71
     2
 72
     2
 73
     1
 90
        2
 40
-0.6
 41
30.0
 62
     5
 63
     7
 74
     1
 91
        4
 64
     7
 65
   257
 75
     1
175
     1
 42
1.0
 92
        0
 66
   257
 43
1.0
 76
     1
 77
     6
 78
     2
 67
     7
 79
     5
170
     0
171
     0
290
     0
174
     0
 93
       13
 44
0.0
173
     0
291
     1
 45
0.0
1001
ACAD
1000
AcDbSavedByObjectVersion
1070
     0
  0
VISUALSTYLE
  5
38
102
{ACAD_REACTORS
330
2A
102
}
102
{ACAD_XDICTIONARY
360
181
102
}
330
2A
100
AcDbVisualStyle
  2
Linepattern
 70
    14
 71
     2
 72
     2
 73
     0
 90
        0
 40
-0.6
 41
-30.0
 62
     5
 63
     7
 74
     1
 91
        4
 64
     7
 65
   257
 75
     7
175
     7
 42
1.0
 92
        8
 66
     7
 43
1.0
 76
     1
 77
     6
 78
     2
 67
     7
 79
     5
170
     0
171
     0
290
     0
174
     0
 93
        1
 44
0.0
173
     0
291
     1
 45
0.0
1001
ACAD
1000
AcDbSavedByObjectVersion
1070
     0
  0
VISUALSTYLE
  5
33
102
{ACAD_REACTORS
330
2A
102
}
102
{ACAD_XDICTIONARY
360
177
102
}
330
2A
100
AcDbVisualStyle
  2
Realistic
 70
     8
 71
     2
 72
     2
 73
     0
 90
        0
 40
-0.6
 41
-30.0
 62
     5
 63
     7
 74
     1
 91
        0
 64
     7
 65
   257
 75
     1
175
     1
 42
1.0
 92
        8
 66
     8
 43
1.0
 76
     1
 77
     6
 78
     2
 67
     7
 79
     5
170
     0
171
     0
290
     0
174
     0
 93
       13
 44
0.0
173
     0
291
     0
 45
0.0
1001
ACAD
1000
AcDbSavedByObjectVersion
1070
     0
  0
VISUALSTYLE
  5
37
102
{ACAD_REACTORS
330
2A
102
}
102
{ACAD_XDICTIONARY
360
17F
102
}
330
2A
100
AcDbVisualStyle
  2
Thicken
 70
    13
 71
     2
 72
     2
 73
     0
 90
        0
 40
-0.6
 41
-30.0
 62
     5
 63
     7
 74
     1
 91
        4
 64
     7
 65
   257
 75
     1
175
     1
 42
1.0
 92
       12
 66
     7
 43
1.0
 76
     1
 77
     6
 78
     2
 67
     7
 79
     5
170
     0
171
     0
290
     0
174
     0
 93
        1
 44
0.0
173
     0
291
     1
 45
0.0
1001
ACAD
1000
AcDbSavedByObjectVersion
1070
     0
  0
DICTIONARYVAR
  5
165
102
{ACAD_REACTORS
330
162
102
}
330
162
100
DictionaryVariables
280
     0
  1
2
  0
DICTIONARYVAR
  5
166
102
{ACAD_REACTORS
330
162
102
}
330
162
100
DictionaryVariables
280
     0
  1
1
  0
DICTIONARY
  5
189
330
3D
100
AcDbDictionary
280
     1
281
     1
  3
ACAD_XREC_ROUNDTRIP
360
18A
  0
DICTIONARY
  5
187
330
3C
100
AcDbDictionary
280
     1
281
     1
  3
ACAD_XREC_ROUNDTRIP
360
188
  0
DICTIONARY
  5
18B
330
3E
100
AcDbDictionary
280
     1
281
     1
  3
ACAD_XREC_ROUNDTRIP
360
18C
  0
DICTIONARY
  5
16F
330
2F
100
AcDbDictionary
280
     1
281
     1
  3
ACAD_XREC_ROUNDTRIP
360
170
  0
DICTIONARY
  5
173
330
31
100
AcDbDictionary
280
     1
281
     1
  3
ACAD_XREC_ROUNDTRIP
360
174
  0
DICTIONARY
  5
171
330
30
100
AcDbDictionary
280
     1
281
     1
  3
ACAD_XREC_ROUNDTRIP
360
172
  0
DICTIONARY
  5
175
330
32
100
AcDbDictionary
280
     1
281
     1
  3
ACAD_XREC_ROUNDTRIP
360
176
  0
DICTIONARY
  5
17D
330
36
100
AcDbDictionary
280
     1
281
     1
  3
ACAD_XREC_ROUNDTRIP
360
17E
  0
DICTIONARY
  5
185
330
3A
100
AcDbDictionary
280
     1
281
     1
  3
ACAD_XREC_ROUNDTRIP
360
186
  0
DICTIONARY
  5
179
330
34
100
AcDbDictionary
280
     1
281
     1
  3
ACAD_XREC_ROUNDTRIP
360
17A
  0
DICTIONARY
  5
17B
330
35
100
AcDbDictionary
280
     1
281
     1
  3
ACAD_XREC_ROUNDTRIP
360
17C
  0
DICTIONARY
  5
183
330
39
100
AcDbDictionary
280
     1
281
     1
  3
ACAD_XREC_ROUNDTRIP
360
184
  0
DICTIONARY
  5
167
330
2B
100
AcDbDictionary
280
     1
281
     1
  3
ACAD_XREC_ROUNDTRIP
360
168
  0
DICTIONARY
  5
169
330
2C
100
AcDbDictionary
280
     1
281
     1
  3
ACAD_XREC_ROUNDTRIP
360
16A
  0
DICTIONARY
  5
16B
330
2D
100
AcDbDictionary
280
     1
281
     1
  3
ACAD_XREC_ROUNDTRIP
360
16C
  0
DICTIONARY
  5
16D
330
2E
100
AcDbDictionary
280
     1
281
     1
  3
ACAD_XREC_ROUNDTRIP
360
16E
  0
DICTIONARY
  5
181
330
38
100
AcDbDictionary
280
     1
281
     1
  3
ACAD_XREC_ROUNDTRIP
360
182
  0
DICTIONARY
  5
177
330
33
100
AcDbDictionary
280
     1
281
     1
  3
ACAD_XREC_ROUNDTRIP
360
178
  0
DICTIONARY
  5
17F
330
37
100
AcDbDictionary
280
     1
281
     1
  3
ACAD_XREC_ROUNDTRIP
360
180
  0
XRECORD
  5
18A
102
{ACAD_REACTORS
330
189
102
}
330
189
100
AcDbXrecord
280
     1
102
MATERIAL
148
0.0
149
0.0
149
0.0
 93
        0
 94
      127
282
     0
 72
     1
 77
     1
171
     1
175
     1
179
     1
273
     0
  0
XRECORD
  5
188
102
{ACAD_REACTORS
330
187
102
}
330
187
100
AcDbXrecord
280
     1
102
MATERIAL
148
0.0
149
0.0
149
0.0
 93
        0
 94
      127
282
     0
 72
     1
 77
     1
171
     1
175
     1
179
     1
273
     0
  0
XRECORD
  5
18C
102
{ACAD_REACTORS
330
18B
102
}
330
18B
100
AcDbXrecord
280
     1
102
MATERIAL
148
0.0
149
0.0
149
0.0
 93
        0
 94
      127
282
     0
 72
     1
 77
     1
171
     1
175
     1
179
     1
273
     0
  0
XRECORD
  5
170
102
{ACAD_REACTORS
330
16F
102
}
330
16F
100
AcDbXrecord
280
     1
102
RTVSPropertyOp0
 70
     1
102
RTVSPropertyOp1
 70
     1
102
RTVSPropertyOp2
 70
     1
102
RTVSPropertyOp3
 70
     1
102
RTVSPropertyOp4
 70
     1
102
RTVSPropertyOp5
 70
     1
102
RTVSPropertyOp6
 70
     1
102
RTVSPropertyOp7
 70
     1
102
RTVSPropertyOp8
 70
     1
102
RTVSPropertyOp9
 70
     1
102
RTVSPropertyOp10
 70
     1
102
RTVSPropertyOp11
 70
     1
102
RTVSPropertyOp12
 70
     1
102
RTVSPropertyOp13
 70
     1
102
RTVSPropertyOp14
 70
     1
102
RTVSPropertyOp15
 70
     1
102
RTVSPropertyOp16
 70
     1
102
RTVSPropertyOp17
 70
     1
102
RTVSPropertyOp18
 70
     1
102
RTVSPropertyOp19
 70
     1
102
RTVSPropertyOp20
 70
     1
102
RTVSPropertyOp21
 70
     1
102
RTVSPropertyOp22
 70
     1
102
RTVSPropertyOp23
 70
     1
102
RTVSPropertyOp24
 70
     1
102
RTVSPropertyOp25
 70
     1
102
RTVSPropertyOp26
 70
     1
102
RTVSPropertyOp27
 70
     1
102
RTVSPropertyOp28
 70
     1
102
RTVSPropertyOp29
 70
     1
102
RTVSPropertyOp30
 70
     1
102
RTVSPropertyOp31
 70
     1
102
RTVSPropertyOp32
 70
     1
  0
XRECORD
  5
174
102
{ACAD_REACTORS
330
173
102
}
330
173
100
AcDbXrecord
280
     1
102
RTVSPropertyOp0
 70
     1
102
RTVSPropertyOp1
 70
     1
102
RTVSPropertyOp2
 70
     1
102
RTVSPropertyOp3
 70
     1
102
RTVSPropertyOp4
 70
     1
102
RTVSPropertyOp5
 70
     1
102
RTVSPropertyOp6
 70
     1
102
RTVSPropertyOp7
 70
     1
102
RTVSPropertyOp8
 70
     1
102
RTVSPropertyOp9
 70
     1
102
RTVSPropertyOp10
 70
     1
102
RTVSPropertyOp11
 70
     1
102
RTVSPropertyOp12
 70
     1
102
RTVSPropertyOp13
 70
     1
102
RTVSPropertyOp14
 70
     1
102
RTVSPropertyOp15
 70
     1
102
RTVSPropertyOp16
 70
     1
102
RTVSPropertyOp17
 70
     1
102
RTVSPropertyOp18
 70
     1
102
RTVSPropertyOp19
 70
     1
102
RTVSPropertyOp20
 70
     1
102
RTVSPropertyOp21
 70
     1
102
RTVSPropertyOp22
 70
     1
102
RTVSPropertyOp23
 70
     1
102
RTVSPropertyOp24
 70
     1
102
RTVSPropertyOp25
 70
     1
102
RTVSPropertyOp26
 70
     1
102
RTVSPropertyOp27
 70
     1
102
RTVSPropertyOp28
 70
     1
102
RTVSPropertyOp29
 70
     1
102
RTVSPropertyOp30
 70
     1
102
RTVSPropertyOp31
 70
     1
102
RTVSPropertyOp32
 70
     1
  0
XRECORD
  5
172
102
{ACAD_REACTORS
330
171
102
}
330
171
100
AcDbXrecord
280
     1
102
RTVSPropertyOp0
 70
     1
102
RTVSPropertyOp1
 70
     1
102
RTVSPropertyOp2
 70
     1
102
RTVSPropertyOp3
 70
     1
102
RTVSPropertyOp4
 70
     1
102
RTVSPropertyOp5
 70
     1
102
RTVSPropertyOp6
 70
     1
102
RTVSPropertyOp7
 70
     1
102
RTVSPropertyOp8
 70
     1
102
RTVSPropertyOp9
 70
     1
102
RTVSPropertyOp10
 70
     1
102
RTVSPropertyOp11
 70
     1
102
RTVSPropertyOp12
 70
     1
102
RTVSPropertyOp13
 70
     1
102
RTVSPropertyOp14
 70
     1
102
RTVSPropertyOp15
 70
     1
102
RTVSPropertyOp16
 70
     1
102
RTVSPropertyOp17
 70
     1
102
RTVSPropertyOp18
 70
     1
102
RTVSPropertyOp19
 70
     1
102
RTVSPropertyOp20
 70
     1
102
RTVSPropertyOp21
 70
     1
102
RTVSPropertyOp22
 70
     1
102
RTVSPropertyOp23
 70
     1
102
RTVSPropertyOp24
 70
     1
102
RTVSPropertyOp25
 70
     1
102
RTVSPropertyOp26
 70
     1
102
RTVSPropertyOp27
 70
     1
102
RTVSPropertyOp28
 70
     1
102
RTVSPropertyOp29
 70
     1
102
RTVSPropertyOp30
 70
     1
102
RTVSPropertyOp31
 70
     1
102
RTVSPropertyOp32
 70
     1
  0
XRECORD
  5
176
102
{ACAD_REACTORS
330
175
102
}
330
175
100
AcDbXrecord
280
     1
102
RTVSPropertyOp0
 70
     1
102
RTVSPropertyOp1
 70
     1
102
RTVSPropertyOp2
 70
     1
102
RTVSPropertyOp3
 70
     1
102
RTVSPropertyOp4
 70
     1
102
RTVSPropertyOp5
 70
     1
102
RTVSPropertyOp6
 70
     1
102
RTVSPropertyOp7
 70
     1
102
RTVSPropertyOp8
 70
     1
102
RTVSPropertyOp9
 70
     1
102
RTVSPropertyOp10
 70
     1
102
RTVSPropertyOp11
 70
     1
102
RTVSPropertyOp12
 70
     1
102
RTVSPropertyOp13
 70
     1
102
RTVSPropertyOp14
 70
     1
102
RTVSPropertyOp15
 70
     1
102
RTVSPropertyOp16
 70
     1
102
RTVSPropertyOp17
 70
     1
102
RTVSPropertyOp18
 70
     1
102
RTVSPropertyOp19
 70
     1
102
RTVSPropertyOp20
 70
     1
102
RTVSPropertyOp21
 70
     1
102
RTVSPropertyOp22
 70
     1
102
RTVSPropertyOp23
 70
     1
102
RTVSPropertyOp24
 70
     1
102
RTVSPropertyOp25
 70
     1
102
RTVSPropertyOp26
 70
     1
102
RTVSPropertyOp27
 70
     1
102
RTVSPropertyOp28
 70
     1
102
RTVSPropertyOp29
 70
     1
102
RTVSPropertyOp30
 70
     1
102
RTVSPropertyOp31
 70
     1
102
RTVSPropertyOp32
 70
     1
  0
XRECORD
  5
17E
102
{ACAD_REACTORS
330
17D
102
}
330
17D
100
AcDbXrecord
280
     1
102
RTVSPropertyOp0
 70
     1
102
RTVSPropertyOp1
 70
     1
102
RTVSPropertyOp2
 70
     1
102
RTVSPropertyOp3
 70
     1
102
RTVSPropertyOp4
 70
     1
102
RTVSPropertyOp5
 70
     1
102
RTVSPropertyOp6
 70
     1
102
RTVSPropertyOp7
 70
     1
102
RTVSPropertyOp8
 70
     1
102
RTVSPropertyOp9
 70
     1
102
RTVSPropertyOp10
 70
     1
102
RTVSPropertyOp11
 70
     1
102
RTVSPropertyOp12
 70
     1
102
RTVSPropertyOp13
 70
     1
102
RTVSPropertyOp14
 70
     1
102
RTVSPropertyOp15
 70
     1
102
RTVSPropertyOp16
 70
     1
102
RTVSPropertyOp17
 70
     1
102
RTVSPropertyOp18
 70
     1
102
RTVSPropertyOp19
 70
     1
102
RTVSPropertyOp20
 70
     1
102
RTVSPropertyOp21
 70
     1
102
RTVSPropertyOp22
 70
     1
102
RTVSPropertyOp23
 70
     1
102
RTVSPropertyOp24
 70
     1
102
RTVSPropertyOp25
 70
     1
102
RTVSPropertyOp26
 70
     1
102
RTVSPropertyOp27
 70
     1
102
RTVSPropertyOp28
 70
     1
102
RTVSPropertyOp29
 70
     1
102
RTVSPropertyOp30
 70
     1
102
RTVSPropertyOp31
 70
     1
102
RTVSPropertyOp32
 70
     1
  0
XRECORD
  5
186
102
{ACAD_REACTORS
330
185
102
}
330
185
100
AcDbXrecord
280
     1
102
RTVSPropertyOp0
 70
     1
102
RTVSPropertyOp1
 70
     1
102
RTVSPropertyOp2
 70
     1
102
RTVSPropertyOp3
 70
     1
102
RTVSPropertyOp4
 70
     1
102
RTVSPropertyOp5
 70
     1
102
RTVSPropertyOp6
 70
     1
102
RTVSPropertyOp7
 70
     1
102
RTVSPropertyOp8
 70
     1
102
RTVSPropertyOp9
 70
     1
102
RTVSPropertyOp10
 70
     1
102
RTVSPropertyOp11
 70
     1
102
RTVSPropertyOp12
 70
     1
102
RTVSPropertyOp13
 70
     1
102
RTVSPropertyOp14
 70
     1
102
RTVSPropertyOp15
 70
     1
102
RTVSPropertyOp16
 70
     1
102
RTVSPropertyOp17
 70
     1
102
RTVSPropertyOp18
 70
     1
102
RTVSPropertyOp19
 70
     1
102
RTVSPropertyOp20
 70
     1
102
RTVSPropertyOp21
 70
     1
102
RTVSPropertyOp22
 70
     1
102
RTVSPropertyOp23
 70
     1
102
RTVSPropertyOp24
 70
     1
102
RTVSPropertyOp25
 70
     1
102
RTVSPropertyOp26
 70
     1
102
RTVSPropertyOp27
 70
     1
102
RTVSPropertyOp28
 70
     1
102
RTVSPropertyOp29
 70
     1
102
RTVSPropertyOp30
 70
     1
102
RTVSPropertyOp31
 70
     1
102
RTVSPropertyOp32
 70
     1
  0
XRECORD
  5
17A
102
{ACAD_REACTORS
330
179
102
}
330
179
100
AcDbXrecord
280
     1
102
RTVSPropertyOp0
 70
     1
102
RTVSPropertyOp1
 70
     1
102
RTVSPropertyOp2
 70
     1
102
RTVSPropertyOp3
 70
     1
102
RTVSPropertyOp4
 70
     1
102
RTVSPropertyOp5
 70
     1
102
RTVSPropertyOp6
 70
     1
102
RTVSPropertyOp7
 70
     1
102
RTVSPropertyOp8
 70
     1
102
RTVSPropertyOp9
 70
     1
102
RTVSPropertyOp10
 70
     1
102
RTVSPropertyOp11
 70
     1
102
RTVSPropertyOp12
 70
     1
102
RTVSPropertyOp13
 70
     1
102
RTVSPropertyOp14
 70
     1
102
RTVSPropertyOp15
 70
     1
102
RTVSPropertyOp16
 70
     1
102
RTVSPropertyOp17
 70
     1
102
RTVSPropertyOp18
 70
     1
102
RTVSPropertyOp19
 70
     1
102
RTVSPropertyOp20
 70
     1
102
RTVSPropertyOp21
 70
     1
102
RTVSPropertyOp22
 70
     1
102
RTVSPropertyOp23
 70
     1
102
RTVSPropertyOp24
 70
     1
102
RTVSPropertyOp25
 70
     1
102
RTVSPropertyOp26
 70
     1
102
RTVSPropertyOp27
 70
     1
102
RTVSPropertyOp28
 70
     1
102
RTVSPropertyOp29
 70
     1
102
RTVSPropertyOp30
 70
     1
102
RTVSPropertyOp31
 70
     1
102
RTVSPropertyOp32
 70
     1
  0
XRECORD
  5
17C
102
{ACAD_REACTORS
330
17B
102
}
330
17B
100
AcDbXrecord
280
     1
102
RTVSPropertyOp0
 70
     1
102
RTVSPropertyOp1
 70
     1
102
RTVSPropertyOp2
 70
     1
102
RTVSPropertyOp3
 70
     1
102
RTVSPropertyOp4
 70
     1
102
RTVSPropertyOp5
 70
     1
102
RTVSPropertyOp6
 70
     1
102
RTVSPropertyOp7
 70
     1
102
RTVSPropertyOp8
 70
     1
102
RTVSPropertyOp9
 70
     1
102
RTVSPropertyOp10
 70
     1
102
RTVSPropertyOp11
 70
     1
102
RTVSPropertyOp12
 70
     1
102
RTVSPropertyOp13
 70
     1
102
RTVSPropertyOp14
 70
     1
102
RTVSPropertyOp15
 70
     1
102
RTVSPropertyOp16
 70
     1
102
RTVSPropertyOp17
 70
     1
102
RTVSPropertyOp18
 70
     1
102
RTVSPropertyOp19
 70
     1
102
RTVSPropertyOp20
 70
     1
102
RTVSPropertyOp21
 70
     1
102
RTVSPropertyOp22
 70
     1
102
RTVSPropertyOp23
 70
     1
102
RTVSPropertyOp24
 70
     1
102
RTVSPropertyOp25
 70
     1
102
RTVSPropertyOp26
 70
     1
102
RTVSPropertyOp27
 70
     1
102
RTVSPropertyOp28
 70
     1
102
RTVSPropertyOp29
 70
     1
102
RTVSPropertyOp30
 70
     1
102
RTVSPropertyOp31
 70
     1
102
RTVSPropertyOp32
 70
     1
  0
XRECORD
  5
184
102
{ACAD_REACTORS
330
183
102
}
330
183
100
AcDbXrecord
280
     1
102
RTVSPropertyOp0
 70
     1
102
RTVSPropertyOp1
 70
     1
102
RTVSPropertyOp2
 70
     1
102
RTVSPropertyOp3
 70
     1
102
RTVSPropertyOp4
 70
     1
102
RTVSPropertyOp5
 70
     1
102
RTVSPropertyOp6
 70
     1
102
RTVSPropertyOp7
 70
     1
102
RTVSPropertyOp8
 70
     1
102
RTVSPropertyOp9
 70
     1
102
RTVSPropertyOp10
 70
     1
102
RTVSPropertyOp11
 70
     1
102
RTVSPropertyOp12
 70
     1
102
RTVSPropertyOp13
 70
     1
102
RTVSPropertyOp14
 70
     1
102
RTVSPropertyOp15
 70
     1
102
RTVSPropertyOp16
 70
     1
102
RTVSPropertyOp17
 70
     1
102
RTVSPropertyOp18
 70
     1
102
RTVSPropertyOp19
 70
     1
102
RTVSPropertyOp20
 70
     1
102
RTVSPropertyOp21
 70
     1
102
RTVSPropertyOp22
 70
     1
102
RTVSPropertyOp23
 70
     1
102
RTVSPropertyOp24
 70
     1
102
RTVSPropertyOp25
 70
     1
102
RTVSPropertyOp26
 70
     1
102
RTVSPropertyOp27
 70
     1
102
RTVSPropertyOp28
 70
     1
102
RTVSPropertyOp29
 70
     1
102
RTVSPropertyOp30
 70
     1
102
RTVSPropertyOp31
 70
     1
102
RTVSPropertyOp32
 70
     1
  0
XRECORD
  5
168
102
{ACAD_REACTORS
330
167
102
}
330
167
100
AcDbXrecord
280
     1
102
RTVSPropertyOp0
 70
     1
102
RTVSPropertyOp1
 70
     1
102
RTVSPropertyOp2
 70
     1
102
RTVSPropertyOp3
 70
     1
102
RTVSPropertyOp4
 70
     1
102
RTVSPropertyOp5
 70
     1
102
RTVSPropertyOp6
 70
     1
102
RTVSPropertyOp7
 70
     1
102
RTVSPropertyOp8
 70
     1
102
RTVSPropertyOp9
 70
     1
102
RTVSPropertyOp10
 70
     1
102
RTVSPropertyOp11
 70
     1
102
RTVSPropertyOp12
 70
     1
102
RTVSPropertyOp13
 70
     1
102
RTVSPropertyOp14
 70
     1
102
RTVSPropertyOp15
 70
     1
102
RTVSPropertyOp16
 70
     1
102
RTVSPropertyOp17
 70
     1
102
RTVSPropertyOp18
 70
     1
102
RTVSPropertyOp19
 70
     1
102
RTVSPropertyOp20
 70
     1
102
RTVSPropertyOp21
 70
     1
102
RTVSPropertyOp22
 70
     1
102
RTVSPropertyOp23
 70
     1
102
RTVSPropertyOp24
 70
     1
102
RTVSPropertyOp25
 70
     1
102
RTVSPropertyOp26
 70
     1
102
RTVSPropertyOp27
 70
     1
102
RTVSPropertyOp28
 70
     1
102
RTVSPropertyOp29
 70
     1
102
RTVSPropertyOp30
 70
     1
102
RTVSPropertyOp31
 70
     1
102
RTVSPropertyOp32
 70
     1
  0
XRECORD
  5
16A
102
{ACAD_REACTORS
330
169
102
}
330
169
100
AcDbXrecord
280
     1
102
RTVSPropertyOp0
 70
     1
102
RTVSPropertyOp1
 70
     1
102
RTVSPropertyOp2
 70
     1
102
RTVSPropertyOp3
 70
     1
102
RTVSPropertyOp4
 70
     1
102
RTVSPropertyOp5
 70
     1
102
RTVSPropertyOp6
 70
     1
102
RTVSPropertyOp7
 70
     1
102
RTVSPropertyOp8
 70
     1
102
RTVSPropertyOp9
 70
     1
102
RTVSPropertyOp10
 70
     1
102
RTVSPropertyOp11
 70
     1
102
RTVSPropertyOp12
 70
     1
102
RTVSPropertyOp13
 70
     1
102
RTVSPropertyOp14
 70
     1
102
RTVSPropertyOp15
 70
     1
102
RTVSPropertyOp16
 70
     1
102
RTVSPropertyOp17
 70
     1
102
RTVSPropertyOp18
 70
     1
102
RTVSPropertyOp19
 70
     1
102
RTVSPropertyOp20
 70
     1
102
RTVSPropertyOp21
 70
     1
102
RTVSPropertyOp22
 70
     1
102
RTVSPropertyOp23
 70
     1
102
RTVSPropertyOp24
 70
     1
102
RTVSPropertyOp25
 70
     1
102
RTVSPropertyOp26
 70
     1
102
RTVSPropertyOp27
 70
     1
102
RTVSPropertyOp28
 70
     1
102
RTVSPropertyOp29
 70
     1
102
RTVSPropertyOp30
 70
     1
102
RTVSPropertyOp31
 70
     1
102
RTVSPropertyOp32
 70
     1
  0
XRECORD
  5
16C
102
{ACAD_REACTORS
330
16B
102
}
330
16B
100
AcDbXrecord
280
     1
102
RTVSPropertyOp0
 70
     1
102
RTVSPropertyOp1
 70
     1
102
RTVSPropertyOp2
 70
     1
102
RTVSPropertyOp3
 70
     1
102
RTVSPropertyOp4
 70
     1
102
RTVSPropertyOp5
 70
     1
102
RTVSPropertyOp6
 70
     1
102
RTVSPropertyOp7
 70
     1
102
RTVSPropertyOp8
 70
     1
102
RTVSPropertyOp9
 70
     1
102
RTVSPropertyOp10
 70
     1
102
RTVSPropertyOp11
 70
     1
102
RTVSPropertyOp12
 70
     1
102
RTVSPropertyOp13
 70
     1
102
RTVSPropertyOp14
 70
     1
102
RTVSPropertyOp15
 70
     1
102
RTVSPropertyOp16
 70
     1
102
RTVSPropertyOp17
 70
     1
102
RTVSPropertyOp18
 70
     1
102
RTVSPropertyOp19
 70
     1
102
RTVSPropertyOp20
 70
     1
102
RTVSPropertyOp21
 70
     1
102
RTVSPropertyOp22
 70
     1
102
RTVSPropertyOp23
 70
     1
102
RTVSPropertyOp24
 70
     1
102
RTVSPropertyOp25
 70
     1
102
RTVSPropertyOp26
 70
     1
102
RTVSPropertyOp27
 70
     1
102
RTVSPropertyOp28
 70
     1
102
RTVSPropertyOp29
 70
     1
102
RTVSPropertyOp30
 70
     1
102
RTVSPropertyOp31
 70
     1
102
RTVSPropertyOp32
 70
     1
  0
XRECORD
  5
16E
102
{ACAD_REACTORS
330
16D
102
}
330
16D
100
AcDbXrecord
280
     1
102
RTVSPropertyOp0
 70
     1
102
RTVSPropertyOp1
 70
     1
102
RTVSPropertyOp2
 70
     1
102
RTVSPropertyOp3
 70
     1
102
RTVSPropertyOp4
 70
     1
102
RTVSPropertyOp5
 70
     1
102
RTVSPropertyOp6
 70
     1
102
RTVSPropertyOp7
 70
     1
102
RTVSPropertyOp8
 70
     1
102
RTVSPropertyOp9
 70
     1
102
RTVSPropertyOp10
 70
     1
102
RTVSPropertyOp11
 70
     1
102
RTVSPropertyOp12
 70
     1
102
RTVSPropertyOp13
 70
     1
102
RTVSPropertyOp14
 70
     1
102
RTVSPropertyOp15
 70
     1
102
RTVSPropertyOp16
 70
     1
102
RTVSPropertyOp17
 70
     1
102
RTVSPropertyOp18
 70
     1
102
RTVSPropertyOp19
 70
     1
102
RTVSPropertyOp20
 70
     1
102
RTVSPropertyOp21
 70
     1
102
RTVSPropertyOp22
 70
     1
102
RTVSPropertyOp23
 70
     1
102
RTVSPropertyOp24
 70
     1
102
RTVSPropertyOp25
 70
     1
102
RTVSPropertyOp26
 70
     1
102
RTVSPropertyOp27
 70
     1
102
RTVSPropertyOp28
 70
     1
102
RTVSPropertyOp29
 70
     1
102
RTVSPropertyOp30
 70
     1
102
RTVSPropertyOp31
 70
     1
102
RTVSPropertyOp32
 70
     1
  0
XRECORD
  5
182
102
{ACAD_REACTORS
330
181
102
}
330
181
100
AcDbXrecord
280
     1
102
RTVSPropertyOp0
 70
     1
102
RTVSPropertyOp1
 70
     1
102
RTVSPropertyOp2
 70
     1
102
RTVSPropertyOp3
 70
     1
102
RTVSPropertyOp4
 70
     1
102
RTVSPropertyOp5
 70
     1
102
RTVSPropertyOp6
 70
     1
102
RTVSPropertyOp7
 70
     1
102
RTVSPropertyOp8
 70
     1
102
RTVSPropertyOp9
 70
     1
102
RTVSPropertyOp10
 70
     1
102
RTVSPropertyOp11
 70
     1
102
RTVSPropertyOp12
 70
     1
102
RTVSPropertyOp13
 70
     1
102
RTVSPropertyOp14
 70
     1
102
RTVSPropertyOp15
 70
     1
102
RTVSPropertyOp16
 70
     1
102
RTVSPropertyOp17
 70
     1
102
RTVSPropertyOp18
 70
     1
102
RTVSPropertyOp19
 70
     1
102
RTVSPropertyOp20
 70
     1
102
RTVSPropertyOp21
 70
     1
102
RTVSPropertyOp22
 70
     1
102
RTVSPropertyOp23
 70
     1
102
RTVSPropertyOp24
 70
     1
102
RTVSPropertyOp25
 70
     1
102
RTVSPropertyOp26
 70
     1
102
RTVSPropertyOp27
 70
     1
102
RTVSPropertyOp28
 70
     1
102
RTVSPropertyOp29
 70
     1
102
RTVSPropertyOp30
 70
     1
102
RTVSPropertyOp31
 70
     1
102
RTVSPropertyOp32
 70
     1
  0
XRECORD
  5
178
102
{ACAD_REACTORS
330
177
102
}
330
177
100
AcDbXrecord
280
     1
102
RTVSPropertyOp0
 70
     1
102
RTVSPropertyOp1
 70
     1
102
RTVSPropertyOp2
 70
     1
102
RTVSPropertyOp3
 70
     1
102
RTVSPropertyOp4
 70
     1
102
RTVSPropertyOp5
 70
     1
102
RTVSPropertyOp6
 70
     1
102
RTVSPropertyOp7
 70
     1
102
RTVSPropertyOp8
 70
     1
102
RTVSPropertyOp9
 70
     1
102
RTVSPropertyOp10
 70
     1
102
RTVSPropertyOp11
 70
     1
102
RTVSPropertyOp12
 70
     1
102
RTVSPropertyOp13
 70
     1
102
RTVSPropertyOp14
 70
     1
102
RTVSPropertyOp15
 70
     1
102
RTVSPropertyOp16
 70
     1
102
RTVSPropertyOp17
 70
     1
102
RTVSPropertyOp18
 70
     1
102
RTVSPropertyOp19
 70
     1
102
RTVSPropertyOp20
 70
     1
102
RTVSPropertyOp21
 70
     1
102
RTVSPropertyOp22
 70
     1
102
RTVSPropertyOp23
 70
     1
102
RTVSPropertyOp24
 70
     1
102
RTVSPropertyOp25
 70
     1
102
RTVSPropertyOp26
 70
     1
102
RTVSPropertyOp27
 70
     1
102
RTVSPropertyOp28
 70
     1
102
RTVSPropertyOp29
 70
     1
102
RTVSPropertyOp30
 70
     1
102
RTVSPropertyOp31
 70
     1
102
RTVSPropertyOp32
 70
     1
  0
XRECORD
  5
180
102
{ACAD_REACTORS
330
17F
102
}
330
17F
100
AcDbXrecord
280
     1
102
RTVSPropertyOp0
 70
     1
102
RTVSPropertyOp1
 70
     1
102
RTVSPropertyOp2
 70
     1
102
RTVSPropertyOp3
 70
     1
102
RTVSPropertyOp4
 70
     1
102
RTVSPropertyOp5
 70
     1
102
RTVSPropertyOp6
 70
     1
102
RTVSPropertyOp7
 70
     1
102
RTVSPropertyOp8
 70
     1
102
RTVSPropertyOp9
 70
     1
102
RTVSPropertyOp10
 70
     1
102
RTVSPropertyOp11
 70
     1
102
RTVSPropertyOp12
 70
     1
102
RTVSPropertyOp13
 70
     1
102
RTVSPropertyOp14
 70
     1
102
RTVSPropertyOp15
 70
     1
102
RTVSPropertyOp16
 70
     1
102
RTVSPropertyOp17
 70
     1
102
RTVSPropertyOp18
 70
     1
102
RTVSPropertyOp19
 70
     1
102
RTVSPropertyOp20
 70
     1
102
RTVSPropertyOp21
 70
     1
102
RTVSPropertyOp22
 70
     1
102
RTVSPropertyOp23
 70
     1
102
RTVSPropertyOp24
 70
     1
102
RTVSPropertyOp25
 70
     1
102
RTVSPropertyOp26
 70
     1
102
RTVSPropertyOp27
 70
     1
102
RTVSPropertyOp28
 70
     1
102
RTVSPropertyOp29
 70
     1
102
RTVSPropertyOp30
 70
     1
102
RTVSPropertyOp31
 70
     1
102
RTVSPropertyOp32
 70
     1
  0
ENDSEC
  0
EOF
