  0
SECTION
  2
HEADER
  9
$ACADVER
  1
AC1015
  9
$ACADMAINTVER
 70
     6
  9
$DWGCODEPAGE
  3
ANSI_932
  9
$INSBASE
 10
0.0
 20
0.0
 30
0.0
  9
$EXTMIN
 10
71.78062049295488
 20
-78.20979955456576
 30
0.0
  9
$EXTMAX
 10
281.7806204929549
 20
218.7902004454342
 30
0.0
  9
$LIMMIN
 10
0.0
 20
0.0
  9
$LIMMAX
 10
12.0
 20
9.0
  9
$ORTHOMODE
 70
     0
  9
$REGENMODE
 70
     1
  9
$FILLMODE
 70
     1
  9
$QTEXTMODE
 70
     0
  9
$MIRRTEXT
 70
     1
  9
$LTSCALE
 40
1.0
  9
$ATTMODE
 70
     1
  9
$TEXTSIZE
 40
0.2
  9
$TRACEWID
 40
0.05
  9
$TEXTSTYLE
  7
Standard
  9
$CLAYER
  8
0
  9
$CELTYPE
  6
ByLayer
  9
$CECOLOR
 62
   256
  9
$CELTSCALE
 40
1.0
  9
$DISPSILH
 70
     0
  9
$DIMSCALE
 40
1.0
  9
$DIMASZ
 40
0.18
  9
$DIMEXO
 40
0.0625
  9
$DIMDLI
 40
0.38
  9
$DIMRND
 40
0.0
  9
$DIMDLE
 40
0.0
  9
$DIMEXE
 40
0.18
  9
$DIMTP
 40
0.0
  9
$DIMTM
 40
0.0
  9
$DIMTXT
 40
0.18
  9
$DIMCEN
 40
0.09
  9
$DIMTSZ
 40
0.0
  9
$DIMTOL
 70
     0
  9
$DIMLIM
 70
     0
  9
$DIMTIH
 70
     1
  9
$DIMTOH
 70
     1
  9
$DIMSE1
 70
     0
  9
$DIMSE2
 70
     0
  9
$DIMTAD
 70
     0
  9
$DIMZIN
 70
     0
  9
$DIMBLK
  1

  9
$DIMASO
 70
     1
  9
$DIMSHO
 70
     1
  9
$DIMPOST
  1

  9
$DIMAPOST
  1

  9
$DIMALT
 70
     0
  9
$DIMALTD
 70
     2
  9
$DIMALTF
 40
25.4
  9
$DIMLFAC
 40
1.0
  9
$DIMTOFL
 70
     0
  9
$DIMTVP
 40
0.0
  9
$DIMTIX
 70
     0
  9
$DIMSOXD
 70
     0
  9
$DIMSAH
 70
     0
  9
$DIMBLK1
  1

  9
$DIMBLK2
  1

  9
$DIMSTYLE
  2
Standard
  9
$DIMCLRD
 70
     0
  9
$DIMCLRE
 70
     0
  9
$DIMCLRT
 70
     0
  9
$DIMTFAC
 40
1.0
  9
$DIMGAP
 40
0.09
  9
$DIMJUST
 70
     0
  9
$DIMSD1
 70
     0
  9
$DIMSD2
 70
     0
  9
$DIMTOLJ
 70
     1
  9
$DIMTZIN
 70
     0
  9
$DIMALTZ
 70
     0
  9
$DIMALTTZ
 70
     0
  9
$DIMUPT
 70
     0
  9
$DIMDEC
 70
     4
  9
$DIMTDEC
 70
     4
  9
$DIMALTU
 70
     2
  9
$DIMALTTD
 70
     2
  9
$DIMTXSTY
  7
Standard
  9
$DIMAUNIT
 70
     0
  9
$DIMADEC
 70
     0
  9
$DIMALTRND
 40
0.0
  9
$DIMAZIN
 70
     0
  9
$DIMDSEP
 70
    46
  9
$DIMATFIT
 70
     3
  9
$DIMFRAC
 70
     0
  9
$DIMLDRBLK
  1

  9
$DIMLUNIT
 70
     2
  9
$DIMLWD
 70
    -2
  9
$DIMLWE
 70
    -2
  9
$DIMTMOVE
 70
     0
  9
$LUNITS
 70
     2
  9
$LUPREC
 70
     4
  9
$SKETCHINC
 40
0.1
  9
$FILLETRAD
 40
0.5
  9
$AUNITS
 70
     0
  9
$AUPREC
 70
     0
  9
$MENU
  1
.
  9
$ELEVATION
 40
0.0
  9
$PELEVATION
 40
0.0
  9
$THICKNESS
 40
0.0
  9
$LIMCHECK
 70
     0
  9
$CHAMFERA
 40
0.5
  9
$CHAMFERB
 40
0.5
  9
$CHAMFERC
 40
1.0
  9
$CHAMFERD
 40
0.0
  9
$SKPOLY
 70
     0
  9
$TDCREATE
 40
2459615.487342986
  9
$TDUCREATE
 40
2459615.112342986
  9
$TDUPDATE
 40
2459615.487344792
  9
$TDUUPDATE
 40
2459615.112344792
  9
$TDINDWG
 40
0.0000000116
  9
$TDUSRTIMER
 40
0.0000000116
  9
$USRTIMER
 70
     1
  9
$ANGBASE
 50
0.0
  9
$ANGDIR
 70
     0
  9
$PDMODE
 70
     0
  9
$PDSIZE
 40
0.0
  9
$PLINEWID
 40
0.0
  9
$SPLFRAME
 70
     0
  9
$SPLINETYPE
 70
     6
  9
$SPLINESEGS
 70
     8
  9
$HANDSEED
  5
19C
  9
$SURFTAB1
 70
     6
  9
$SURFTAB2
 70
     6
  9
$SURFTYPE
 70
     6
  9
$SURFU
 70
     6
  9
$SURFV
 70
     6
  9
$UCSBASE
  2

  9
$UCSNAME
  2

  9
$UCSORG
 10
0.0
 20
0.0
 30
0.0
  9
$UCSXDIR
 10
1.0
 20
0.0
 30
0.0
  9
$UCSYDIR
 10
0.0
 20
1.0
 30
0.0
  9
$UCSORTHOREF
  2

  9
$UCSORTHOVIEW
 70
     0
  9
$UCSORGTOP
 10
0.0
 20
0.0
 30
0.0
  9
$UCSORGBOTTOM
 10
0.0
 20
0.0
 30
0.0
  9
$UCSORGLEFT
 10
0.0
 20
0.0
 30
0.0
  9
$UCSORGRIGHT
 10
0.0
 20
0.0
 30
0.0
  9
$UCSORGFRONT
 10
0.0
 20
0.0
 30
0.0
  9
$UCSORGBACK
 10
0.0
 20
0.0
 30
0.0
  9
$PUCSBASE
  2

  9
$PUCSNAME
  2

  9
$PUCSORG
 10
0.0
 20
0.0
 30
0.0
  9
$PUCSXDIR
 10
1.0
 20
0.0
 30
0.0
  9
$PUCSYDIR
 10
0.0
 20
1.0
 30
0.0
  9
$PUCSORTHOREF
  2

  9
$PUCSORTHOVIEW
 70
     0
  9
$PUCSORGTOP
 10
0.0
 20
0.0
 30
0.0
  9
$PUCSORGBOTTOM
 10
0.0
 20
0.0
 30
0.0
  9
$PUCSORGLEFT
 10
0.0
 20
0.0
 30
0.0
  9
$PUCSORGRIGHT
 10
0.0
 20
0.0
 30
0.0
  9
$PUCSORGFRONT
 10
0.0
 20
0.0
 30
0.0
  9
$PUCSORGBACK
 10
0.0
 20
0.0
 30
0.0
  9
$USERI1
 70
     0
  9
$USERI2
 70
     0
  9
$USERI3
 70
     0
  9
$USERI4
 70
     0
  9
$USERI5
 70
     0
  9
$USERR1
 40
18.1
  9
$USERR2
 40
0.0
  9
$USERR3
 40
0.0
  9
$USERR4
 40
0.0
  9
$USERR5
 40
0.0
  9
$WORLDVIEW
 70
     1
  9
$SHADEDGE
 70
     3
  9
$SHADEDIF
 70
    70
  9
$TILEMODE
 70
     1
  9
$MAXACTVP
 70
    64
  9
$PINSBASE
 10
0.0
 20
0.0
 30
0.0
  9
$PLIMCHECK
 70
     0
  9
$PEXTMIN
 10
1.00000000000000E+20
 20
1.00000000000000E+20
 30
1.00000000000000E+20
  9
$PEXTMAX
 10
-1.00000000000000E+20
 20
-1.00000000000000E+20
 30
-1.00000000000000E+20
  9
$PLIMMIN
 10
0.0
 20
0.0
  9
$PLIMMAX
 10
12.0
 20
9.0
  9
$UNITMODE
 70
     0
  9
$VISRETAIN
 70
     1
  9
$PLINEGEN
 70
     0
  9
$PSLTSCALE
 70
     1
  9
$TREEDEPTH
 70
  3020
  9
$CMLSTYLE
  2
Standard
  9
$CMLJUST
 70
     0
  9
$CMLSCALE
 40
1.0
  9
$PROXYGRAPHICS
 70
     1
  9
$MEASUREMENT
 70
     1
  9
$CELWEIGHT
370
    -1
  9
$ENDCAPS
280
     0
  9
$JOINSTYLE
280
     0
  9
$LWDISPLAY
290
     0
  9
$INSUNITS
 70
     4
  9
$HYPERLINKBASE
  1

  9
$STYLESHEET
  1

  9
$XEDIT
290
     1
  9
$CEPSNTYPE
380
     0
  9
$PSTYLEMODE
290
     1
  9
$FINGERPRINTGUID
  2
{B64DDFE0-A571-462C-9C86-CC49FC60FE50}
  9
$VERSIONGUID
  2
{FAEB1C32-E019-11D5-929B-00C0DF256EC4}
  9
$EXTNAMES
290
     1
  9
$PSVPSCALE
 40
0.0
  9
$OLESTARTUP
290
     0
  0
ENDSEC
  0
SECTION
  2
CLASSES
  0
CLASS
  1
ACDBDICTIONARYWDFLT
  2
AcDbDictionaryWithDefault
  3
ObjectDBX Classes
 90
        0
280
     0
281
     0
  0
CLASS
  1
VISUALSTYLE
  2
AcDbVisualStyle
  3
ObjectDBX Classes
 90
     4095
280
     0
281
     0
  0
CLASS
  1
MATERIAL
  2
AcDbMaterial
  3
ObjectDBX Classes
 90
     1153
280
     0
281
     0
  0
CLASS
  1
DICTIONARYVAR
  2
AcDbDictionaryVar
  3
ObjectDBX Classes
 90
        0
280
     0
281
     0
  0
CLASS
  1
ACDBPLACEHOLDER
  2
AcDbPlaceHolder
  3
ObjectDBX Classes
 90
        0
280
     0
281
     0
  0
CLASS
  1
LAYOUT
  2
AcDbLayout
  3
ObjectDBX Classes
 90
        0
280
     0
281
     0
  0
ENDSEC
  0
SECTION
  2
TABLES
  0
TABLE
  2
VPORT
  5
8
330
0
100
AcDbSymbolTable
 70
     1
  0
VPORT
  5
29
330
8
100
AcDbSymbolTableRecord
100
AcDbViewportTableRecord
  2
*Active
 70
     0
 10
0.0
 20
0.0
 11
1.0
 21
1.0
 12
176.7806204929549
 22
70.29020044543422
 13
0.0
 23
0.0
 14
0.5
 24
0.5
 15
0.5
 25
0.5
 16
0.0
 26
0.0
 36
1.0
 17
0.0
 27
0.0
 37
0.0
 40
326.7
 41
1.60267857142857
 42
50.0
 43
0.0
 44
0.0
 50
0.0
 51
0.0
 71
     0
 72
   100
 73
     1
 74
     3
 75
     0
 76
     0
 77
     0
 78
     0
281
     0
 65
     1
110
0.0
120
0.0
130
0.0
111
1.0
121
0.0
131
0.0
112
0.0
122
1.0
132
0.0
 79
     0
146
0.0
  0
ENDTAB
  0
TABLE
  2
LTYPE
  5
5
330
0
100
AcDbSymbolTable
 70
     8
  0
LTYPE
  5
14
330
5
100
AcDbSymbolTableRecord
100
AcDbLinetypeTableRecord
  2
ByBlock
 70
     0
  3

 72
    65
 73
     0
 40
0.0
  0
LTYPE
  5
15
330
5
100
AcDbSymbolTableRecord
100
AcDbLinetypeTableRecord
  2
ByLayer
 70
     0
  3

 72
    65
 73
     0
 40
0.0
  0
LTYPE
  5
16
330
5
100
AcDbSymbolTableRecord
100
AcDbLinetypeTableRecord
  2
Continuous
 70
     0
  3
Solid line
 72
    65
 73
     0
 40
0.0
  0
LTYPE
  5
3F
330
5
100
AcDbSymbolTableRecord
100
AcDbLinetypeTableRecord
  2
DASHED
 70
     0
  3
Dashed
 72
    65
 73
     2
 40
15.0
 49
7.0
 74
     0
 49
-8.0
 74
     0
  0
LTYPE
  5
40
330
5
100
AcDbSymbolTableRecord
100
AcDbLinetypeTableRecord
  2
DOTTED
 70
     0
  3
Dotted
 72
    65
 73
     2
 40
1.0
 49
0.0
 74
     0
 49
-1.0
 74
     0
  0
LTYPE
  5
41
330
5
100
AcDbSymbolTableRecord
100
AcDbLinetypeTableRecord
  2
DOT_CENTER
 70
     0
  3
Dot_Center
 72
    65
 73
     4
 40
14.0
 49
12.0
 74
     0
 49
-1.0
 74
     0
 49
0.0
 74
     0
 49
-1.0
 74
     0
  0
LTYPE
  5
42
330
5
100
AcDbSymbolTableRecord
100
AcDbLinetypeTableRecord
  2
LONG_DASHED
 70
     0
  3
Long_Dashed
 72
    65
 73
     2
 40
15.0
 49
10.0
 74
     0
 49
-5.0
 74
     0
  0
LTYPE
  5
43
330
5
100
AcDbSymbolTableRecord
100
AcDbLinetypeTableRecord
  2
DASH_CENTER
 70
     0
  3
Dash_Center
 72
    65
 73
     4
 40
14.0
 49
11.0
 74
     0
 49
-1.0
 74
     0
 49
1.0
 74
     0
 49
-1.0
 74
     0
  0
LTYPE
  5
44
330
5
100
AcDbSymbolTableRecord
100
AcDbLinetypeTableRecord
  2
PHANTOM
 70
     0
  3
Phantom
 72
    65
 73
     6
 40
13.0
 49
10.0
 74
     0
 49
-1.0
 74
     0
 49
0.0
 74
     0
 49
-1.0
 74
     0
 49
0.0
 74
     0
 49
-1.0
 74
     0
  0
LTYPE
  5
45
330
5
100
AcDbSymbolTableRecord
100
AcDbLinetypeTableRecord
  2
CENTER_DASH_DASH
 70
     0
  3
Center_Dash_Dash
 72
    65
 73
     6
 40
14.0
 49
9.0
 74
     0
 49
-1.0
 74
     0
 49
1.0
 74
     0
 49
-1.0
 74
     0
 49
1.0
 74
     0
 49
-1.0
 74
     0
  0
ENDTAB
  0
TABLE
  2
LAYER
  5
2
330
0
100
AcDbSymbolTable
 70
     3
  0
LAYER
  5
10
330
2
100
AcDbSymbolTableRecord
100
AcDbLayerTableRecord
  2
0
 70
     0
 62
     7
  6
Continuous
370
    -3
390
F
  0
LAYER
  5
46
330
2
100
AcDbSymbolTableRecord
100
AcDbLayerTableRecord
  2
1
 70
     0
 62
     7
  6
Continuous
370
    -3
390
F
  0
LAYER
  5
47
330
2
100
AcDbSymbolTableRecord
100
AcDbLayerTableRecord
  2
_U_30EC_U_30A4_U_30E4_U_30FC_1
 70
     0
 62
     7
  6
Continuous
370
    -3
390
F
  0
ENDTAB
  0
TABLE
  2
STYLE
  5
3
330
0
100
AcDbSymbolTable
 70
     3
  0
STYLE
  5
11
330
3
100
AcDbSymbolTableRecord
100
AcDbTextStyleTableRecord
  2
Standard
 70
     0
 40
0.0
 41
1.0
 50
0.0
 71
     0
 42
0.2
  3
txt
  4

  0
STYLE
  5
B2
330
3
100
AcDbSymbolTableRecord
100
AcDbTextStyleTableRecord
  2
CONVERTER_11
 70
     0
 40
0.0
 41
0.89
 50
0.0
 71
     0
 42
0.2
  3
MS Mincho.ttf
  4

1001
ACAD
1000
MS Mincho
1071
    32785
  0
STYLE
  5
118
330
3
100
AcDbSymbolTableRecord
100
AcDbTextStyleTableRecord
  2
CONVERTER_12
 70
     0
 40
0.0
 41
0.9
 50
0.0
 71
     0
 42
0.2
  3
txt.shx
  4

  0
ENDTAB
  0
TABLE
  2
VIEW
  5
6
330
0
100
AcDbSymbolTable
 70
     0
  0
ENDTAB
  0
TABLE
  2
UCS
  5
7
330
0
100
AcDbSymbolTable
 70
     0
  0
ENDTAB
  0
TABLE
  2
APPID
  5
9
330
0
100
AcDbSymbolTable
 70
     1
  0
APPID
  5
12
330
9
100
AcDbSymbolTableRecord
100
AcDbRegAppTableRecord
  2
ACAD
 70
     0
  0
ENDTAB
  0
TABLE
  2
DIMSTYLE
  5
A
330
0
100
AcDbSymbolTable
 70
     7
100
AcDbDimStyleTable
  0
DIMSTYLE
105
27
330
A
100
AcDbSymbolTableRecord
100
AcDbDimStyleTableRecord
  2
Standard
 70
     0
178
     0
340
11
  0
DIMSTYLE
105
12F
102
{ACAD_REACTORS
330
130
102
}
330
A
100
AcDbSymbolTableRecord
100
AcDbDimStyleTableRecord
  2
ME10_DIM_10
 70
     0
  3
{\Fgdt;n}<>
 41
3.5
 42
0.0
 44
2.0
 73
     0
 74
     0
 77
     1
 78
     8
140
3.0
147
2.0
172
     1
173
     1
174
     1
175
     1
176
     2
177
     2
271
     2
178
     7
271
     2
340
118
  0
DIMSTYLE
105
13A
102
{ACAD_REACTORS
330
13B
102
}
330
A
100
AcDbSymbolTableRecord
100
AcDbDimStyleTableRecord
  2
ME10_DIM_11
 70
     0
 41
3.5
 42
0.0
 44
2.0
 73
     0
 74
     0
 77
     1
 78
     8
140
3.0
147
2.0
172
     1
173
     1
174
     1
175
     1
176
     2
177
     2
271
     2
178
     7
271
     2
340
118
  0
DIMSTYLE
105
145
102
{ACAD_REACTORS
330
146
102
}
330
A
100
AcDbSymbolTableRecord
100
AcDbDimStyleTableRecord
  2
ME10_DIM_12
 70
     0
  3
{\Fgdt;n}<>
 41
3.5
 42
0.0
 44
2.0
 73
     0
 74
     0
 77
     1
 78
     8
140
3.0
147
2.0
172
     1
173
     1
174
     1
175
     1
176
     2
177
     2
271
     2
178
     7
271
     2
340
118
  0
DIMSTYLE
105
150
102
{ACAD_REACTORS
330
151
102
}
330
A
100
AcDbSymbolTableRecord
100
AcDbDimStyleTableRecord
  2
ME10_DIM_13
 70
     0
  3
{\Fgdt;n}<>
 41
3.5
 42
0.0
 44
2.0
 73
     0
 74
     0
 77
     1
 78
     8
140
3.0
147
2.0
172
     1
173
     1
174
     1
175
     1
176
     2
177
     2
271
     2
178
     7
271
     2
340
118
  0
DIMSTYLE
105
15C
102
{ACAD_REACTORS
330
15D
102
}
330
A
100
AcDbSymbolTableRecord
100
AcDbDimStyleTableRecord
  2
ME10_DIM_14
 70
     0
  3
{\Fgdt;n}<>
 41
3.5
 42
0.0
 44
2.0
 73
     0
 74
     0
 77
     1
 78
     8
140
3.0
147
2.0
172
     1
173
     1
174
     1
175
     1
176
     2
177
     2
271
     2
178
     7
271
     2
340
118
  0
DIMSTYLE
105
167
102
{ACAD_REACTORS
330
168
102
}
330
A
100
AcDbSymbolTableRecord
100
AcDbDimStyleTableRecord
  2
ME10_DIM_15
 70
     0
 41
3.5
 42
0.0
 44
2.0
 73
     0
 74
     0
 77
     1
 78
     8
140
3.0
147
2.0
172
     1
173
     1
174
     1
175
     1
176
     2
177
     2
271
     2
178
     7
271
     2
340
118
  0
ENDTAB
  0
TABLE
  2
BLOCK_RECORD
  5
1
330
0
100
AcDbSymbolTable
 70
    10
  0
BLOCK_RECORD
  5
1F
330
1
100
AcDbSymbolTableRecord
100
AcDbBlockTableRecord
  2
*Model_Space
340
22
  0
BLOCK_RECORD
  5
1B
330
1
100
AcDbSymbolTableRecord
100
AcDbBlockTableRecord
  2
*Paper_Space
340
1E
  0
BLOCK_RECORD
  5
23
330
1
100
AcDbSymbolTableRecord
100
AcDbBlockTableRecord
  2
*Paper_Space0
340
26
  0
BLOCK_RECORD
  5
48
330
1
100
AcDbSymbolTableRecord
100
AcDbBlockTableRecord
  2
開示A4
340
0
102
{BLKREFS
331
4C
102
}
  0
BLOCK_RECORD
  5
4B
330
1
100
AcDbSymbolTableRecord
100
AcDbBlockTableRecord
  2
開示A4枠
340
0
102
{BLKREFS
331
4F
102
}
  0
BLOCK_RECORD
  5
126
330
1
100
AcDbSymbolTableRecord
100
AcDbBlockTableRecord
  2
*D3
340
0
  0
BLOCK_RECORD
  5
131
330
1
100
AcDbSymbolTableRecord
100
AcDbBlockTableRecord
  2
*D4
340
0
  0
BLOCK_RECORD
  5
13C
330
1
100
AcDbSymbolTableRecord
100
AcDbBlockTableRecord
  2
*D5
340
0
  0
BLOCK_RECORD
  5
147
330
1
100
AcDbSymbolTableRecord
100
AcDbBlockTableRecord
  2
*D6
340
0
  0
BLOCK_RECORD
  5
152
330
1
100
AcDbSymbolTableRecord
100
AcDbBlockTableRecord
  2
*D7
340
0
  0
BLOCK_RECORD
  5
15E
330
1
100
AcDbSymbolTableRecord
100
AcDbBlockTableRecord
  2
*D8
340
0
  0
BLOCK_RECORD
  5
169
330
1
100
AcDbSymbolTableRecord
100
AcDbBlockTableRecord
  2
*D9
340
0
102
{BLKREFS
331
170
102
}
  0
ENDTAB
  0
ENDSEC
  0
SECTION
  2
BLOCKS
  0
BLOCK
  5
20
330
1F
100
AcDbEntity
  8
0
100
AcDbBlockBegin
  2
*Model_Space
 70
     0
 10
0.0
 20
0.0
 30
0.0
  3
*Model_Space
  1

  0
ENDBLK
  5
21
330
1F
100
AcDbEntity
  8
0
100
AcDbBlockEnd
  0
BLOCK
  5
1C
330
1B
100
AcDbEntity
 67
     1
  8
0
100
AcDbBlockBegin
  2
*Paper_Space
 70
     0
 10
0.0
 20
0.0
 30
0.0
  3
*Paper_Space
  1

  0
ENDBLK
  5
1D
330
1B
100
AcDbEntity
 67
     1
  8
0
100
AcDbBlockEnd
  0
BLOCK
  5
24
330
23
100
AcDbEntity
  8
0
100
AcDbBlockBegin
  2
*Paper_Space0
 70
     0
 10
0.0
 20
0.0
 30
0.0
  3
*Paper_Space0
  1

  0
ENDBLK
  5
25
330
23
100
AcDbEntity
  8
0
100
AcDbBlockEnd
  0
BLOCK
  5
49
330
48
100
AcDbEntity
  8
0
100
AcDbBlockBegin
  2
開示A4
 70
     0
 10
71.78062049295488
 20
-78.20979955456576
 30
0.0
  3
開示A4
  1

  0
POINT
  5
50
330
48
100
AcDbEntity
  8
1
 62
     4
100
AcDbPoint
 10
254.7806204929549
 20
-63.20979955456575
 30
0.0
  0
POINT
  5
51
330
48
100
AcDbEntity
  8
1
 62
     4
100
AcDbPoint
 10
165.5306204929549
 20
-61.20979955456576
 30
0.0
  0
POINT
  5
52
330
48
100
AcDbEntity
  8
1
 62
     4
100
AcDbPoint
 10
157.0306204929549
 20
-61.20979955456576
 30
0.0
  0
POINT
  5
53
330
48
100
AcDbEntity
  8
1
 62
     4
100
AcDbPoint
 10
178.2806204929549
 20
-59.20979955456576
 30
0.0
  0
POINT
  5
54
330
48
100
AcDbEntity
  8
1
 62
     4
100
AcDbPoint
 10
178.2806204929549
 20
-65.70979955456576
 30
0.0
  0
POINT
  5
55
330
48
100
AcDbEntity
  8
1
 62
     4
100
AcDbPoint
 10
184.0306204929549
 20
-65.70979955456576
 30
0.0
  0
POINT
  5
56
330
48
100
AcDbEntity
  8
1
 62
     4
100
AcDbPoint
 10
172.5306204929549
 20
-65.70979955456576
 30
0.0
  0
POINT
  5
57
330
48
100
AcDbEntity
  8
1
 62
     4
100
AcDbPoint
 10
195.2806204929549
 20
-59.20979955456576
 30
0.0
  0
POINT
  5
58
330
48
100
AcDbEntity
  8
1
 62
     4
100
AcDbPoint
 10
195.2806204929549
 20
-65.70979955456576
 30
0.0
  0
POINT
  5
59
330
48
100
AcDbEntity
  8
1
 62
     4
100
AcDbPoint
 10
201.0306204929549
 20
-65.70979955456576
 30
0.0
  0
POINT
  5
5A
330
48
100
AcDbEntity
  8
1
 62
     4
100
AcDbPoint
 10
189.5306204929549
 20
-65.70979955456576
 30
0.0
  0
POINT
  5
5B
330
48
100
AcDbEntity
  8
1
 62
     4
100
AcDbPoint
 10
212.2806204929549
 20
-59.20979955456576
 30
0.0
  0
POINT
  5
5C
330
48
100
AcDbEntity
  8
1
 62
     4
100
AcDbPoint
 10
212.2806204929549
 20
-65.70979955456576
 30
0.0
  0
POINT
  5
5D
330
48
100
AcDbEntity
  8
1
 62
     4
100
AcDbPoint
 10
218.0306204929549
 20
-65.70979955456576
 30
0.0
  0
POINT
  5
5E
330
48
100
AcDbEntity
  8
1
 62
     4
100
AcDbPoint
 10
206.5306204929549
 20
-65.70979955456576
 30
0.0
  0
POINT
  5
5F
330
48
100
AcDbEntity
  8
1
 62
     4
100
AcDbPoint
 10
223.5306204929549
 20
-65.70979955456576
 30
0.0
  0
POINT
  5
60
330
48
100
AcDbEntity
  8
1
 62
     4
100
AcDbPoint
 10
235.0306204929549
 20
-65.70979955456576
 30
0.0
  0
POINT
  5
61
330
48
100
AcDbEntity
  8
1
 62
     4
100
AcDbPoint
 10
229.2806204929549
 20
-65.70979955456576
 30
0.0
  0
POINT
  5
62
330
48
100
AcDbEntity
  8
1
 62
     4
100
AcDbPoint
 10
128.7806204929549
 20
-63.95979955456576
 30
0.0
  0
POINT
  5
63
330
48
100
AcDbEntity
  8
1
 62
     4
100
AcDbPoint
 10
128.7806204929549
 20
-55.45979955456576
 30
0.0
  0
POINT
  5
64
330
48
100
AcDbEntity
  8
1
 62
     4
100
AcDbPoint
 10
119.2806204929549
 20
203.7902004454345
 30
0.0
  0
POINT
  5
65
330
48
100
AcDbEntity
  8
1
 62
     4
100
AcDbPoint
 10
229.2806204929549
 20
-59.20979955456576
 30
0.0
  0
POINT
  5
66
330
48
100
AcDbEntity
  8
1
 62
     4
100
AcDbPoint
 10
128.7806204929549
 20
-61.95979955456576
 30
0.0
  0
POINT
  5
67
330
48
100
AcDbEntity
  8
1
 62
     4
100
AcDbPoint
 10
128.7806204929549
 20
-53.45979955456576
 30
0.0
  0
POINT
  5
68
330
48
100
AcDbEntity
  8
1
 62
     4
100
AcDbPoint
 10
128.7806204929549
 20
-57.45979955456576
 30
0.0
  0
POINT
  5
69
330
48
100
AcDbEntity
  8
1
 62
     4
100
AcDbPoint
 10
128.7806204929549
 20
-65.95979955456576
 30
0.0
  0
POINT
  5
6A
330
48
100
AcDbEntity
  8
1
 62
     4
100
AcDbPoint
 10
105.7806204929549
 20
-44.20979955456576
 30
0.0
  0
LINE
  5
6F
330
48
100
AcDbEntity
  8
1
  6
Continuous
 62
     7
100
AcDbLine
 10
176.7806204929549
 20
-68.20979955456576
 30
0.0
 11
271.7806204929549
 21
-68.20979955456576
 31
0.0
  0
LINE
  5
70
330
48
100
AcDbEntity
  8
1
  6
Continuous
 62
     2
100
AcDbLine
 10
176.7806204929549
 20
-68.20979955456576
 30
0.0
 11
176.7806204929549
 21
-73.20979955456576
 31
0.0
  0
LINE
  5
71
330
48
100
AcDbEntity
  8
1
  6
Continuous
 62
     7
100
AcDbLine
 10
271.7806204929549
 20
70.29020044543424
 30
0.0
 11
271.7806204929549
 21
208.7902004454345
 31
0.0
  0
LINE
  5
72
330
48
100
AcDbEntity
  8
1
  6
Continuous
 62
     2
100
AcDbLine
 10
271.7806204929549
 20
70.29020044543424
 30
0.0
 11
276.7806204929549
 21
70.29020044543424
 31
0.0
  0
LINE
  5
73
330
48
100
AcDbEntity
  8
1
  6
Continuous
 62
     7
100
AcDbLine
 10
96.78062049295488
 20
70.29020044543424
 30
0.0
 11
96.78062049295488
 21
208.7902004454345
 31
0.0
  0
LINE
  5
74
330
48
100
AcDbEntity
  8
1
  6
Continuous
 62
     2
100
AcDbLine
 10
96.78062049295488
 20
70.29020044543424
 30
0.0
 11
91.78062049295488
 21
70.29020044543424
 31
0.0
  0
LINE
  5
75
330
48
100
AcDbEntity
  8
1
  6
Continuous
 62
     7
100
AcDbLine
 10
176.7806204929549
 20
208.7902004454345
 30
0.0
 11
96.78062049295488
 21
208.7902004454345
 31
0.0
  0
LINE
  5
76
330
48
100
AcDbEntity
  8
1
  6
Continuous
 62
     2
100
AcDbLine
 10
176.7806204929549
 20
208.7902004454345
 30
0.0
 11
176.7806204929549
 21
213.7902004454345
 31
0.0
  0
LINE
  5
77
330
48
100
AcDbEntity
  8
1
  6
Continuous
 62
     2
100
AcDbLine
 10
237.7806204929549
 20
-58.20979955456576
 30
0.0
 11
271.7806204929549
 21
-58.20979955456576
 31
0.0
  0
LINE
  5
78
330
48
100
AcDbEntity
  8
1
  6
Continuous
 62
     2
100
AcDbLine
 10
169.7806204929549
 20
-51.20979955456576
 30
0.0
 11
169.7806204929549
 21
-68.20979955456576
 31
0.0
  0
LINE
  5
79
330
48
100
AcDbEntity
  8
1
  6
Continuous
 62
     2
100
AcDbLine
 10
186.7806204929549
 20
-51.20979955456576
 30
0.0
 11
186.7806204929549
 21
-68.20979955456578
 31
0.0
  0
LINE
  5
7A
330
48
100
AcDbEntity
  8
1
  6
Continuous
 62
     2
100
AcDbLine
 10
220.7806204929549
 20
-51.20979955456576
 30
0.0
 11
220.7806204929549
 21
-68.20979955456576
 31
0.0
  0
LINE
  5
7B
330
48
100
AcDbEntity
  8
1
  6
Continuous
 62
     2
100
AcDbLine
 10
203.7806204929549
 20
-51.20979955456576
 30
0.0
 11
203.7806204929549
 21
-68.20979955456578
 31
0.0
  0
LINE
  5
7C
330
48
100
AcDbEntity
  8
1
  6
Continuous
 62
     2
100
AcDbLine
 10
237.7806204929549
 20
-51.20979955456576
 30
0.0
 11
237.7806204929549
 21
-68.20979955456576
 31
0.0
  0
LINE
  5
7D
330
48
100
AcDbEntity
  8
1
  6
Continuous
 62
     2
100
AcDbLine
 10
126.7806204929549
 20
198.7902004454345
 30
0.0
 11
96.78062049295488
 21
198.7902004454345
 31
0.0
  0
LINE
  5
7E
330
48
100
AcDbEntity
  8
1
  6
Continuous
 62
     7
100
AcDbLine
 10
96.78062049295488
 20
-68.20979955456576
 30
0.0
 11
96.78062049295488
 21
70.29020044543424
 31
0.0
  0
LINE
  5
7F
330
48
100
AcDbEntity
  8
1
  6
Continuous
 62
     2
100
AcDbLine
 10
111.7806204929549
 20
208.7902004454345
 30
0.0
 11
111.7806204929549
 21
198.7902004454345
 31
0.0
  0
LINE
  5
80
330
48
100
AcDbEntity
  8
1
  6
Continuous
 62
     2
100
AcDbLine
 10
126.7806204929549
 20
208.7902004454345
 30
0.0
 11
126.7806204929549
 21
198.7902004454345
 31
0.0
  0
LINE
  5
81
330
48
100
AcDbEntity
  8
1
  6
Continuous
 62
     2
100
AcDbLine
 10
104.7806204929549
 20
-37.20979955456576
 30
0.0
 11
104.7806204929549
 21
-51.20979955456576
 31
0.0
  0
LINE
  5
82
330
48
100
AcDbEntity
  8
1
  6
Continuous
 62
     7
100
AcDbLine
 10
271.7806204929549
 20
-51.20979955456576
 30
0.0
 11
96.78062049295488
 21
-51.20979955456576
 31
0.0
  0
LINE
  5
83
330
48
100
AcDbEntity
  8
1
  6
Continuous
 62
     7
100
AcDbLine
 10
96.78062049295488
 20
-37.20979955456576
 30
0.0
 11
271.7806204929549
 21
-37.20979955456576
 31
0.0
  0
LINE
  5
84
330
48
100
AcDbEntity
  8
1
  6
PHANTOM
 62
     4
100
AcDbLine
 10
71.78062049295488
 20
-78.20979955456576
 30
0.0
 11
281.7806204929549
 21
-78.20979955456576
 31
0.0
  0
LINE
  5
85
330
48
100
AcDbEntity
  8
1
  6
PHANTOM
 62
     4
100
AcDbLine
 10
281.7806204929549
 20
-78.20979955456576
 30
0.0
 11
281.7806204929549
 21
218.7902004454342
 31
0.0
  0
LINE
  5
86
330
48
100
AcDbEntity
  8
1
  6
PHANTOM
 62
     4
100
AcDbLine
 10
281.7806204929549
 20
218.7902004454342
 30
0.0
 11
71.78062049295488
 21
218.7902004454342
 31
0.0
  0
LINE
  5
87
330
48
100
AcDbEntity
  8
1
  6
PHANTOM
 62
     4
100
AcDbLine
 10
71.78062049295488
 20
218.7902004454342
 30
0.0
 11
71.78062049295488
 21
-78.20979955456576
 31
0.0
  0
LINE
  5
88
330
48
100
AcDbEntity
  8
1
  6
Continuous
 62
     7
100
AcDbLine
 10
96.78062049295488
 20
-68.20979955456576
 30
0.0
 11
176.7806204929549
 21
-68.20979955456576
 31
0.0
  0
LINE
  5
89
330
48
100
AcDbEntity
  8
1
  6
Continuous
 62
     7
100
AcDbLine
 10
271.7806204929549
 20
-68.20979955456576
 30
0.0
 11
271.7806204929549
 21
70.29020044543424
 31
0.0
  0
LINE
  5
8A
330
48
100
AcDbEntity
  8
1
  6
Continuous
 62
     7
100
AcDbLine
 10
271.7806204929549
 20
208.7902004454345
 30
0.0
 11
176.7806204929549
 21
208.7902004454345
 31
0.0
  0
LINE
  5
8B
330
48
100
AcDbEntity
  8
1
  6
Continuous
 62
     2
100
AcDbLine
 10
96.78062049295488
 20
-59.70979955456576
 30
0.0
 11
152.7806204929549
 21
-59.70979955456576
 31
0.0
  0
LINE
  5
8C
330
48
100
AcDbEntity
  8
1
  6
Continuous
 62
     2
100
AcDbLine
 10
104.7806204929549
 20
-51.20979955456576
 30
0.0
 11
104.7806204929549
 21
-68.20979955456576
 31
0.0
  0
LINE
  5
8D
330
48
100
AcDbEntity
  8
1
  6
Continuous
 62
     7
100
AcDbLine
 10
262.7806204929549
 20
-53.50979955456575
 30
0.0
 11
262.7806204929549
 21
-55.90979955456575
 31
0.0
  0
LINE
  5
8E
330
48
100
AcDbEntity
  8
1
  6
Continuous
 62
     7
100
AcDbLine
 10
262.7806204929549
 20
-53.50979955456575
 30
0.0
 11
267.7806204929549
 21
-52.70979955456576
 31
0.0
  0
LINE
  5
8F
330
48
100
AcDbEntity
  8
1
  6
Continuous
 62
     7
100
AcDbLine
 10
267.7806204929549
 20
-52.70979955456576
 30
0.0
 11
267.7806204929549
 21
-56.70979955456576
 31
0.0
  0
LINE
  5
90
330
48
100
AcDbEntity
  8
1
  6
Continuous
 62
     7
100
AcDbLine
 10
267.7806204929549
 20
-56.70979955456576
 30
0.0
 11
262.7806204929549
 21
-55.90979955456575
 31
0.0
  0
LINE
  5
91
330
48
100
AcDbEntity
  8
1
  6
DOT_CENTER
 62
     2
100
AcDbLine
 10
255.7806204929549
 20
-54.70979955456576
 30
0.0
 11
268.7806204929549
 21
-54.70979955456576
 31
0.0
  0
LINE
  5
92
330
48
100
AcDbEntity
  8
1
  6
DOT_CENTER
 62
     2
100
AcDbLine
 10
258.7806204929549
 20
-51.70979955456576
 30
0.0
 11
258.7806204929549
 21
-57.70979955456576
 31
0.0
  0
LINE
  5
93
330
48
100
AcDbEntity
  8
1
  6
Continuous
 62
     2
100
AcDbLine
 10
152.7806204929549
 20
-51.20979955456576
 30
0.0
 11
152.7806204929549
 21
-68.20979955456576
 31
0.0
  0
CIRCLE
  5
94
330
48
100
AcDbEntity
  8
1
  6
Continuous
 62
     7
100
AcDbCircle
 10
175.2806204929549
 20
-65.70979955456576
 30
0.0
 40
0.2999999999998977
  0
CIRCLE
  5
95
330
48
100
AcDbEntity
  8
1
  6
Continuous
 62
     7
100
AcDbCircle
 10
181.2806204929549
 20
-65.70979955456576
 30
0.0
 40
0.2999999999998977
  0
CIRCLE
  5
96
330
48
100
AcDbEntity
  8
1
  6
Continuous
 62
     7
100
AcDbCircle
 10
192.2806204929549
 20
-65.70979955456576
 30
0.0
 40
0.2999999999998977
  0
CIRCLE
  5
97
330
48
100
AcDbEntity
  8
1
  6
Continuous
 62
     7
100
AcDbCircle
 10
198.2806204929549
 20
-65.70979955456576
 30
0.0
 40
0.2999999999998977
  0
CIRCLE
  5
98
330
48
100
AcDbEntity
  8
1
  6
Continuous
 62
     7
100
AcDbCircle
 10
209.2806204929549
 20
-65.70979955456576
 30
0.0
 40
0.3000000000000966
  0
CIRCLE
  5
99
330
48
100
AcDbEntity
  8
1
  6
Continuous
 62
     7
100
AcDbCircle
 10
215.2806204929549
 20
-65.70979955456576
 30
0.0
 40
0.3000000000000966
  0
CIRCLE
  5
9A
330
48
100
AcDbEntity
  8
1
  6
Continuous
 62
     7
100
AcDbCircle
 10
232.2806204929549
 20
-65.70979955456576
 30
0.0
 40
0.3000000000000966
  0
CIRCLE
  5
9B
330
48
100
AcDbEntity
  8
1
  6
Continuous
 62
     7
100
AcDbCircle
 10
226.2806204929549
 20
-65.70979955456576
 30
0.0
 40
0.3000000000000966
  0
CIRCLE
  5
9C
330
48
100
AcDbEntity
  8
1
  6
Continuous
 62
     7
100
AcDbCircle
 10
258.7806204929549
 20
-54.70979955456576
 30
0.0
 40
1.200000000000102
  0
CIRCLE
  5
9D
330
48
100
AcDbEntity
  8
1
  6
Continuous
 62
     7
100
AcDbCircle
 10
258.7806204929549
 20
-54.70979955456576
 30
0.0
 40
2.0
  0
CIRCLE
  5
9E
330
48
100
AcDbEntity
  8
1
  6
DOT_CENTER
 62
     7
100
AcDbCircle
 10
161.2806204929549
 20
-62.20979955456576
 30
0.0
 40
0.0999999999999943
  0
CIRCLE
  5
9F
330
48
100
AcDbEntity
  8
1
  6
DOT_CENTER
 62
     7
100
AcDbCircle
 10
161.2806204929549
 20
-60.20979955456576
 30
0.0
 40
0.0999999999999943
  0
SPLINE
  5
A0
102
{ACAD_REACTORS
330
BF
102
}
330
48
100
AcDbEntity
  8
_U_30EC_U_30A4_U_30E4_U_30FC_1
  6
Continuous
 62
     2
100
AcDbSpline
210
0.0
220
0.0
230
1.0
 70
     8
 71
     3
 72
    24
 73
    20
 74
    18
 42
0.000000001
 43
0.0000000001
 44
0.00000001
 40
0.0
 40
0.0
 40
0.0
 40
0.0
 40
0.2211075008753675
 40
0.4273218586245339
 40
0.5080174679239606
 40
0.5914835907870457
 40
0.8143265690193451
 40
1.05465130268663
 40
1.295452694023218
 40
1.518109231328862
 40
1.540864321905475
 40
1.595126460622764
 40
1.659890947896079
 40
1.714153085187353
 40
1.736908174961707
 40
1.764951100735412
 40
1.801562291220945
 40
1.953914424543637
 40
2.126104167379744
 40
2.126104167379744
 40
2.126104167379744
 40
2.126104167379744
 10
257.7181574486438
 20
-62.6199066034356
 30
0.0
 10
257.6918784011361
 20
-62.67882327222203
 30
0.0
 10
257.6410903823975
 20
-62.79268815777321
 30
0.0
 10
257.5937989768661
 20
-63.06537997223464
 30
0.0
 10
257.4849687732167
 20
-62.9653447288112
 30
0.0
 10
257.3321005209185
 20
-62.93861362089245
 30
0.0
 10
257.5492360110749
 20
-62.72461820438948
 30
0.0
 10
257.5644688603929
 20
-62.50647837674087
 30
0.0
 10
257.6713094421549
 20
-62.32528376390152
 30
0.0
 10
257.6111585876627
 20
-62.04066729145174
 30
0.0
 10
257.7140522324951
 20
-62.06865866234127
 30
0.0
 10
257.7586138397699
 20
-62.07736703854276
 30
0.0
 10
257.8187047324945
 20
-62.0884030127322
 30
0.0
 10
257.8562824516987
 20
-62.10212432401021
 30
0.0
 10
257.9058671858156
 20
-62.10223879296351
 30
0.0
 10
257.8736363848874
 20
-62.1367336305795
 30
0.0
 10
257.7978007151431
 20
-62.12575850918618
 30
0.0
 10
257.8235652089242
 20
-62.31120985874126
 30
0.0
 10
257.7862101693398
 20
-62.40277641906987
 30
0.0
 10
257.7663909891157
 20
-62.45135820058871
 30
0.0
 11
257.7181574486438
 21
-62.6199066034356
 31
0.0
 11
257.6422676258101
 21
-62.82758247138017
 31
0.0
 11
257.5523607167982
 21
-63.01316563100384
 31
0.0
 11
257.4817698852658
 21
-62.97406682893025
 31
0.0
 11
257.40517301222
 21
-62.94090792268857
 31
0.0
 11
257.5020231877005
 21
-62.74021154253038
 31
0.0
 11
257.580084639702
 21
-62.51291792279552
 31
0.0
 11
257.639592185927
 21
-62.27958518847885
 31
0.0
 11
257.6807806440775
 21
-62.06077146457523
 31
0.0
 11
257.7030388751763
 21
-62.06550066235182
 31
0.0
 11
257.7561161954889
 21
-62.07677798012677
 31
0.0
 11
257.8194665455393
 21
-62.09023800456785
 31
0.0
 11
257.8725438658519
 21
-62.1015153223428
 31
0.0
 11
257.8948020969507
 21
-62.10624452011939
 31
0.0
 11
257.8770302087009
 21
-62.12793704615567
 31
0.0
 11
257.841232792762
 21
-62.13561327011209
 31
0.0
 11
257.8088158231029
 21
-62.28447667285263
 31
0.0
 11
257.7663909891157
 21
-62.45135820058871
 31
0.0
  0
SPLINE
  5
A1
102
{ACAD_REACTORS
330
BF
102
}
330
48
100
AcDbEntity
  8
_U_30EC_U_30A4_U_30E4_U_30FC_1
  6
Continuous
 62
     2
100
AcDbSpline
210
0.0
220
0.0
230
1.0
 70
     8
 71
     3
 72
    70
 73
    66
 74
    64
 42
0.000000001
 43
0.0000000001
 44
0.00000001
 40
0.0
 40
0.0
 40
0.0
 40
0.0
 40
0.0241731073021472
 40
0.0846058988987582
 40
0.1631685280353852
 40
0.2417311571790608
 40
0.3021639488293888
 40
0.3263370654897246
 40
0.3533118254250604
 40
0.4228783438923799
 40
0.5179999095315054
 40
0.6216398239467594
 40
0.7167613891501304
 40
0.7863279069651427
 40
0.8133026791763399
 40
0.8372943998773249
 40
0.894505426137358
 40
0.9627895541963921
 40
1.020000580349117
 40
1.043992300975244
 40
1.071934345522953
 40
1.113121768772959
 40
1.145225199332283
 40
1.225483775412822
 40
1.329819923771534
 40
1.434156071994418
 40
1.514414647795842
 40
1.546518078208453
 40
1.57897476426017
 40
1.662678849314136
 40
1.777131373668442
 40
1.901833377474861
 40
2.01628590050068
 40
2.099989982528018
 40
2.132446666570377
 40
2.158782354486096
 40
2.216720867907891
 40
2.274659381334313
 40
2.300995069256249
 40
2.333451754066278
 40
2.417155836543987
 40
2.531608358985398
 40
2.656310362283864
 40
2.770762886389025
 40
2.854466971340219
 40
2.886923657364025
 40
2.913597976833454
 40
2.982389642875265
 40
3.076451716947129
 40
3.178937260458756
 40
3.272999334740145
 40
3.341791001059366
 40
3.368465320663684
 40
3.396976080738962
 40
3.472140811846198
 40
3.578408190308888
 40
3.700226892456381
 40
3.82204559463457
 40
3.928312973256648
 40
4.003477705315102
 40
4.031988456867168
 40
4.058324144797972
 40
4.116262658237133
 40
4.174201171400938
 40
4.200536849608874
 40
4.200536849608874
 40
4.200536849608874
 40
4.200536849608874
 10
257.7663909891157
 20
-62.45135820058871
 30
0.0
 10
257.7744464474227
 20
-62.45135595644889
 30
0.0
 10
257.8026405592787
 20
-62.45134809423777
 30
0.0
 10
257.8571739733222
 20
-62.45149200628204
 30
0.0
 10
257.9289096738151
 20
-62.45070834956677
 30
0.0
 10
258.0042445066611
 20
-62.45352384992762
 30
0.0
 10
258.0519257295987
 20
-62.44681552055617
 30
0.0
 10
258.1001276175165
 20
-62.45782391764144
 30
0.0
 10
258.0868776729424
 20
-62.40433552459543
 30
0.0
 10
258.0957298894086
 20
-62.34930371913484
 30
0.0
 10
258.0914902965835
 20
-62.25560046730468
 30
0.0
 10
258.0939688410829
 20
-62.16020473238045
 30
0.0
 10
258.0897143635609
 20
-62.06623133473189
 30
0.0
 10
258.0986023595396
 20
-62.01184893018566
 30
0.0
 10
258.0853182339494
 20
-61.95745957765116
 30
0.0
 10
258.1320324206656
 20
-61.97137739121219
 30
0.0
 10
258.1749459475285
 20
-61.96876078082533
 30
0.0
 10
258.2411648386233
 20
-61.97331533005823
 30
0.0
 10
258.2819547201346
 20
-61.98201793322415
 30
0.0
 10
258.3331350620366
 20
-61.97448155566381
 30
0.0
 10
258.3059925416748
 20
-62.01629985233291
 30
0.0
 10
258.2609300985255
 20
-62.00694963383977
 30
0.0
 10
258.2748269974599
 20
-62.07138748084738
 30
0.0
 10
258.2664619361203
 20
-62.13601735829177
 30
0.0
 10
258.2709837107947
 20
-62.23450814262687
 30
0.0
 10
258.2660946240716
 20
-62.33384022614005
 30
0.0
 10
258.275646392163
 20
-62.39686839903607
 30
0.0
 10
258.2605966384748
 20
-62.46015943956783
 30
0.0
 10
258.3255364386757
 20
-62.4446488251231
 30
0.0
 10
258.3922451329046
 20
-62.45480567758761
 30
0.0
 10
258.5047640400376
 20
-62.4499115535721
 30
0.0
 10
258.6196440378502
 20
-62.45288750723793
 30
0.0
 10
258.7326076929296
 20
-62.44758291271584
 30
0.0
 10
258.7982472527226
 20
-62.45872648984484
 30
0.0
 10
258.8622481620602
 20
-62.44235423136719
 30
0.0
 10
258.8509347818738
 20
-62.49218265551299
 30
0.0
 10
258.8581544801059
 20
-62.53563240244454
 30
0.0
 10
258.8509347540818
 20
-62.57908209869133
 30
0.0
 10
258.8622482105543
 20
-62.628910602597
 30
0.0
 10
258.7982468528521
 20
-62.61253789365212
 30
0.0
 10
258.7326126170008
 20
-62.62368683794987
 30
0.0
 10
258.619617924688
 20
-62.61835098249722
 30
0.0
 10
258.5048661478191
 20
-62.62145609792753
 30
0.0
 10
258.3919388616411
 20
-62.61615060773989
 30
0.0
 10
258.3261425833132
 20
-62.62722655436979
 30
0.0
 10
258.2622302904907
 20
-62.61092357608958
 30
0.0
 10
258.2742220094675
 20
-62.66556431060836
 30
0.0
 10
258.2668309542553
 20
-62.72125660408733
 30
0.0
 10
258.2698889771531
 20
-62.81330266316006
 30
0.0
 10
258.2699627715232
 20
-62.90800845583477
 30
0.0
 10
258.2666518507907
 20
-63.0002717255431
 30
0.0
 10
258.2745710919452
 20
-63.05544186720437
 30
0.0
 10
258.2621281541165
 20
-63.10921786356441
 30
0.0
 10
258.3195321481181
 20
-63.09526186593795
 30
0.0
 10
258.3800913069931
 20
-63.1046849757235
 30
0.0
 10
258.485488578463
 20
-63.10037069527871
 30
0.0
 10
258.6010499000171
 20
-63.10144450844543
 30
0.0
 10
258.7165893807346
 20
-63.10253989555582
 30
0.0
 10
258.822038606039
 20
-63.09817429685942
 30
0.0
 10
258.8824885401353
 20
-63.10770529425906
 30
0.0
 10
258.9399042668659
 20
-63.09362665850196
 30
0.0
 10
258.9283978806257
 20
-63.14272802190893
 30
0.0
 10
258.9343771711298
 20
-63.18415297437927
 30
0.0
 10
258.9326515980351
 20
-63.23328277489881
 30
0.0
 10
258.9327705052519
 20
-63.26125527008969
 30
0.0
 10
258.9328076621382
 20
-63.26999667260627
 30
0.0
 11
257.7663909891157
 21
-62.45135820058871
 31
0.0
 11
257.7905641057829
 21
-62.45135820058871
 31
0.0
 11
257.8509968974511
 21
-62.4513582005887
 31
0.0
 11
257.9295595266196
 21
-62.45135820058871
 31
0.0
 11
258.0081221557882
 21
-62.4513582005887
 31
0.0
 11
258.0685549474563
 21
-62.4513582005887
 31
0.0
 11
258.0927280641236
 21
-62.45135820058871
 31
0.0
 11
258.0927280641236
 21
-62.42438342836513
 31
0.0
 11
258.0927280641236
 21
-62.35481691052537
 31
0.0
 11
258.0927280641236
 21
-62.25969534531591
 31
0.0
 11
258.0927280641236
 21
-62.15605543098322
 31
0.0
 11
258.0927280641236
 21
-62.06093386577375
 31
0.0
 11
258.0927280641236
 21
-61.99136734793399
 31
0.0
 11
258.0927280641236
 21
-61.96439257571041
 31
0.0
 11
258.1166612534441
 21
-61.96606742348779
 31
0.0
 11
258.1737327049006
 21
-61.97006129126455
 31
0.0
 11
258.2418502437359
 21
-61.97482816570782
 31
0.0
 11
258.2989216951924
 21
-61.9788220334846
 31
0.0
 11
258.3228548845129
 21
-61.98049688126196
 31
0.0
 11
258.3081177660778
 21
-62.00423662083937
 31
0.0
 11
258.2692845179524
 21
-62.01796188125263
 31
0.0
 11
258.2692845179524
 21
-62.05006531231457
 31
0.0
 11
258.2692845179524
 21
-62.13032388996939
 31
0.0
 11
258.2692845179524
 21
-62.23466004092067
 31
0.0
 11
258.2692845179524
 21
-62.33899619187194
 31
0.0
 11
258.2692845179524
 21
-62.41925476952677
 31
0.0
 11
258.2692845179524
 21
-62.45135820058871
 31
0.0
 11
258.3017412040372
 21
-62.45135820058871
 31
0.0
 11
258.3854452892033
 21
-62.4513582005887
 31
0.0
 11
258.4998978138183
 21
-62.45135820058871
 31
0.0
 11
258.6245998182495
 21
-62.45135820058871
 31
0.0
 11
258.7390523428643
 21
-62.4513582005887
 31
0.0
 11
258.8227564280305
 21
-62.4513582005887
 31
0.0
 11
258.8552131141153
 21
-62.45135820058871
 31
0.0
 11
258.8552131141153
 21
-62.47769388851614
 31
0.0
 11
258.8552131141153
 21
-62.53563240195651
 31
0.0
 11
258.8552131141153
 21
-62.59357091539688
 31
0.0
 11
258.8552131141153
 21
-62.61990660332432
 31
0.0
 11
258.8227564280305
 21
-62.61990660332431
 31
0.0
 11
258.7390523428643
 21
-62.61990660332432
 31
0.0
 11
258.6245998182495
 21
-62.61990660332432
 31
0.0
 11
258.4998978138183
 21
-62.61990660332432
 31
0.0
 11
258.3854452892034
 21
-62.61990660332432
 31
0.0
 11
258.3017412040372
 21
-62.61990660332431
 31
0.0
 11
258.2692845179524
 21
-62.61990660332432
 31
0.0
 11
258.2692845179524
 21
-62.64658092304553
 31
0.0
 11
258.2692845179524
 21
-62.71537258969501
 31
0.0
 11
258.2692845179524
 21
-62.80943466450142
 31
0.0
 11
258.2692845179524
 21
-62.91192020869349
 31
0.0
 11
258.2692845179524
 21
-63.0059822834999
 31
0.0
 11
258.2692845179524
 21
-63.07477395014936
 31
0.0
 11
258.2692845179524
 21
-63.10144826987059
 31
0.0
 11
258.2977952780541
 21
-63.10144826987058
 31
0.0
 11
258.3729600092315
 21
-63.10144826987059
 31
0.0
 11
258.4792273877925
 21
-63.10144826987059
 31
0.0
 11
258.6010460900453
 21
-63.10144826987059
 31
0.0
 11
258.7228647922982
 21
-63.10144826987059
 31
0.0
 11
258.8291321708592
 21
-63.10144826987059
 31
0.0
 11
258.9042969020365
 21
-63.10144826987059
 31
0.0
 11
258.9328076621382
 21
-63.10144826987059
 31
0.0
 11
258.9328076621382
 21
-63.12778395779804
 31
0.0
 11
258.9328076621382
 21
-63.18572247123843
 31
0.0
 11
258.9328076621382
 21
-63.24366098467882
 31
0.0
 11
258.9328076621382
 21
-63.26999667260627
 31
0.0
  0
SPLINE
  5
A2
102
{ACAD_REACTORS
330
BF
102
}
330
48
100
AcDbEntity
  8
_U_30EC_U_30A4_U_30E4_U_30FC_1
  6
Continuous
 62
     2
100
AcDbSpline
210
0.0
220
0.0
230
1.0
 70
     8
 71
     3
 72
    62
 73
    58
 74
    56
 42
0.000000001
 43
0.0000000001
 44
0.00000001
 40
0.0
 40
0.0
 40
0.0
 40
0.0
 40
0.0598250028308485
 40
0.2024846486897331
 40
0.3727558389221031
 40
0.515415484793607
 40
0.5752404975785907
 40
0.9332326775488209
 40
1.290451762839567
 40
1.602077253145965
 40
1.699931634112239
 40
1.799359756425102
 40
2.270120149657218
 40
2.804661928461702
 40
2.882342287383413
 40
3.076543185719264
 40
3.329004354835722
 40
3.581465524568533
 40
3.775666424543819
 40
3.853346784558444
 40
3.89912067959519
 40
3.984129341792159
 40
4.029903236817479
 40
4.105797496059641
 40
4.295533144152604
 40
4.542189486611837
 40
4.788845828875798
 40
4.978581476410175
 40
5.054475735244421
 40
5.621734664339441
 40
6.130867242037498
 40
6.225249780948768
 40
6.318913039727426
 40
6.663579954559039
 40
7.047498900224824
 40
7.435230791575822
 40
7.498943906668177
 40
7.650875181210227
 40
7.832212509001766
 40
7.98414378369718
 40
8.04785689890328
 40
8.091554632732784
 40
8.172707566964451
 40
8.216405300768177
 40
8.28902178216109
 40
8.462184160757406
 40
8.6688618380056
 40
8.842024215264107
 40
8.914640695475303
 40
8.98988158086151
 40
9.155411528827418
 40
9.320941477744203
 40
9.396182352487456
 40
9.454709011144002
 40
9.583467660170966
 40
9.712226309013188
 40
9.770752957989698
 40
9.770752957989698
 40
9.770752957989698
 40
9.770752957989698
 10
258.9328076621382
 20
-63.26999667260627
 30
0.0
 10
258.9128553101172
 20
-63.26999079887907
 30
0.0
 10
258.8453242646015
 20
-63.26997091650419
 30
0.0
 10
258.7216817091337
 20
-63.27030592936251
 30
0.0
 10
258.5669385079605
 20
-63.26872281706066
 30
0.0
 10
258.4503554412029
 20
-63.27293876596082
 30
0.0
 10
258.2357147563789
 20
-63.25764750124949
 30
0.0
 10
258.6325153336778
 20
-63.61781234170384
 30
0.0
 10
258.6751860998816
 20
-63.83469452059408
 30
0.0
 10
259.099536707616
 20
-64.01654892945135
 30
0.0
 10
258.9246026425623
 20
-64.11994758888501
 30
0.0
 10
258.8000728854634
 20
-64.33148432243863
 30
0.0
 10
258.547248216549
 20
-63.86173874455011
 30
0.0
 10
258.2603807823176
 20
-63.2146843847206
 30
0.0
 10
258.2712540856207
 20
-63.52197283301881
 30
0.0
 10
258.2689097707508
 20
-63.686913384848
 30
0.0
 10
258.2667301055959
 20
-63.92100284744883
 30
0.0
 10
258.2786979325896
 20
-64.16481883034795
 30
0.0
 10
258.2494189670178
 20
-64.31124158595591
 30
0.0
 10
258.2920727555018
 20
-64.45866465282036
 30
0.0
 10
258.2046018935188
 20
-64.44294158150359
 30
0.0
 10
258.1574732536293
 20
-64.44285651913123
 30
0.0
 10
258.0705178137262
 20
-64.45870529973666
 30
0.0
 10
258.1119678951272
 20
-64.31452184033812
 30
0.0
 10
258.0836079933835
 20
-64.17124902758121
 30
0.0
 10
258.0952178704847
 20
-63.93305008091312
 30
0.0
 10
258.0930380577822
 20
-63.70462720216229
 30
0.0
 10
258.0909316057542
 20
-63.54274226080582
 30
0.0
 10
258.1014240367873
 20
-63.2282624612282
 30
0.0
 10
257.7935168182443
 20
-63.91750484584148
 30
0.0
 10
257.4861463197004
 20
-64.39503205213522
 30
0.0
 10
257.3657571995823
 20
-64.17238842819151
 30
0.0
 10
257.1880812840271
 20
-64.05968920501003
 30
0.0
 10
257.6659531292444
 20
-63.88431811991119
 30
0.0
 10
257.7160163986755
 20
-63.64888026204541
 30
0.0
 10
258.1390004551266
 20
-63.25656966111968
 30
0.0
 10
257.908295920309
 20
-63.27324648427514
 30
0.0
 10
257.7855890788891
 20
-63.26710436507805
 30
0.0
 10
257.613168802521
 20
-63.27667132757006
 30
0.0
 10
257.5019429623998
 20
-63.2553113696691
 30
0.0
 10
257.3831984556997
 20
-63.28843690099156
 30
0.0
 10
257.3989374636235
 20
-63.20776054849694
 30
0.0
 10
257.3984755863312
 20
-63.1633454116572
 30
0.0
 10
257.383408681948
 20
-63.08012873678044
 30
0.0
 10
257.5178585864992
 20
-63.11917303472691
 30
0.0
 10
257.6425960475296
 20
-63.09240226128155
 30
0.0
 10
257.8434960166828
 20
-63.10916006412523
 30
0.0
 10
257.9727745878903
 20
-63.08775729543573
 30
0.0
 10
258.1134624857843
 20
-63.12111176603156
 30
0.0
 10
258.0787132382166
 20
-62.98328079671509
 30
0.0
 10
258.1028390596261
 20
-62.86016698107097
 30
0.0
 10
258.0773291111941
 20
-62.73955899786237
 30
0.0
 10
258.1139456076234
 20
-62.60440090315082
 30
0.0
 10
258.0017621957318
 20
-62.62885409674684
 30
0.0
 10
257.9086561386685
 20
-62.61672205614552
 30
0.0
 10
257.7997752509369
 20
-62.62022325386583
 30
0.0
 10
257.7375902570513
 20
-62.61998199504973
 30
0.0
 10
257.7181574486795
 20
-62.61990660332432
 30
0.0
 11
258.9328076621382
 21
-63.26999667260627
 31
0.0
 11
258.8729826493531
 21
-63.26999667260627
 31
0.0
 11
258.7303230034809
 21
-63.26999667260627
 31
0.0
 11
258.5600518132463
 21
-63.26999667260628
 31
0.0
 11
258.417392167374
 21
-63.26999667260627
 31
0.0
 11
258.3575671545889
 21
-63.26999667260627
 31
0.0
 11
258.5486165684391
 21
-63.57274827489687
 31
0.0
 11
258.7747477715179
 21
-63.84928064879892
 31
0.0
 11
259.005073110292
 21
-64.0591870196312
 31
0.0
 11
258.9327801260252
 21
-64.1251355178786
 31
0.0
 11
258.8685569332192
 21
-64.20103896404017
 31
0.0
 11
258.5539023145107
 21
-63.85088497107214
 31
0.0
 11
258.2692845179524
 21
-63.39841660312976
 31
0.0
 11
258.2692845179524
 21
-63.47609696319264
 31
0.0
 11
258.2692845179524
 21
-63.67029786334984
 31
0.0
 11
258.2692845179524
 21
-63.9227590335542
 31
0.0
 11
258.2692845179524
 21
-64.17522020375856
 31
0.0
 11
258.2692845179524
 21
-64.36942110391576
 31
0.0
 11
258.2692845179524
 21
-64.44710146397864
 31
0.0
 11
258.2235106225153
 21
-64.44710146397864
 31
0.0
 11
258.1385019595607
 21
-64.44710146397864
 31
0.0
 11
258.0927280641236
 21
-64.44710146397864
 31
0.0
 11
258.0927280641236
 21
-64.37120720473835
 31
0.0
 11
258.0927280641236
 21
-64.18147155663765
 31
0.0
 11
258.0927280641236
 21
-63.93481521410673
 31
0.0
 11
258.0927280641236
 21
-63.68815887157579
 31
0.0
 11
258.0927280641236
 21
-63.49842322347509
 31
0.0
 11
258.0927280641236
 21
-63.42252896423481
 31
0.0
 11
257.7793831328815
 21
-63.89539009258883
 31
0.0
 11
257.4158533591697
 21
-64.25184778347194
 31
0.0
 11
257.3580132391176
 21
-64.17726504911553
 31
0.0
 11
257.290105723489
 21
-64.11275632517334
 31
0.0
 11
257.5556926827868
 21
-63.89307735660687
 31
0.0
 11
257.803996990161
 21
-63.60026559484881
 31
0.0
 11
258.0071187734809
 21
-63.26999667260627
 31
0.0
 11
257.9434056582271
 21
-63.26999667260628
 31
0.0
 11
257.7914743833908
 21
-63.26999667260627
 31
0.0
 11
257.6101370553604
 21
-63.26999667260628
 31
0.0
 11
257.4582057805242
 21
-63.26999667260627
 31
0.0
 11
257.3944926652703
 21
-63.26999667260627
 31
0.0
 11
257.3944926652703
 21
-63.22629893856369
 31
0.0
 11
257.3944926652704
 21
-63.14514600391317
 31
0.0
 11
257.3944926652703
 21
-63.10144826987059
 31
0.0
 11
257.4671091467511
 21
-63.10144826987059
 31
0.0
 11
257.6402715256667
 21
-63.10144826987059
 31
0.0
 11
257.8469492037273
 21
-63.10144826987059
 31
0.0
 11
258.0201115826429
 21
-63.10144826987059
 31
0.0
 11
258.0927280641236
 21
-63.10144826987059
 31
0.0
 11
258.0927280641236
 21
-63.02620738447273
 31
0.0
 11
258.0927280641236
 21
-62.86067743659745
 31
0.0
 11
258.0927280641236
 21
-62.69514748872217
 31
0.0
 11
258.0927280641236
 21
-62.61990660332432
 31
0.0
 11
258.0342014054605
 21
-62.61990660332432
 31
0.0
 11
257.9054427564016
 21
-62.61990660332432
 31
0.0
 11
257.7766841073426
 21
-62.61990660332432
 31
0.0
 11
257.7181574486795
 21
-62.61990660332432
 31
0.0
  0
SPLINE
  5
A3
102
{ACAD_REACTORS
330
C0
102
}
330
48
100
AcDbEntity
  8
_U_30EC_U_30A4_U_30E4_U_30FC_1
  6
Continuous
 62
     2
100
AcDbSpline
210
0.0
220
0.0
230
1.0
 70
    11
 71
     3
 72
   124
 73
   120
 74
   118
 42
0.000000001
 43
0.0000000001
 44
0.00000001
 40
0.0
 40
0.0
 40
0.0
 40
0.0
 40
0.0278187229624226
 40
0.1011590162383985
 40
0.2048470170590239
 40
0.3237088716559245
 40
0.4425707262521431
 40
0.5462587270699263
 40
0.6195990203311798
 40
0.647417752257866
 40
0.6750060736115278
 40
0.7357003855242688
 40
0.7963946998054474
 40
0.8239830245571802
 40
0.8540933811102327
 40
0.9373396629409008
 40
1.063094687343239
 40
1.220731268638048
 40
1.39962222091478
 40
1.589140358637707
 40
1.778658496423845
 40
1.957549448940512
 40
2.115186030873105
 40
2.240941056914409
 40
2.324187341760507
 40
2.354297700109357
 40
2.381886024671872
 40
2.442580338710457
 40
2.503274652750492
 40
2.530862977314585
 40
2.560983949278566
 40
2.640393784452884
 40
2.752662861759107
 40
2.881361560118123
 40
3.010060258455142
 40
3.122329335705317
 40
3.20173917081796
 40
3.231860142753292
 40
3.26429802403034
 40
3.352343701778225
 40
3.48209522686873
 40
3.639650650172997
 40
3.811108022565457
 40
3.982565394927954
 40
4.14012081815254
 40
4.269872343141253
 40
4.35791802080231
 40
4.390355902043944
 40
4.42325625399257
 40
4.508104530073063
 40
4.624121560636859
 40
4.750528176031644
 40
4.866545206602034
 40
4.951393482692077
 40
4.984293834645478
 40
5.011450833242393
 40
5.071196230152176
 40
5.130941627057248
 40
5.158098625648919
 40
5.190998977601525
 40
5.275847253689407
 40
5.391864284256955
 40
5.518270899648443
 40
5.634287930209511
 40
5.719136206288128
 40
5.752036558236072
 40
5.782130946283091
 40
5.862783906229269
 40
5.979550131775135
 40
6.117984316640553
 40
6.263641154588087
 40
6.402075339414297
 40
6.518841564908088
 40
6.599494524815669
 40
6.62958891284891
 40
6.654403028226544
 40
6.713575149488226
 40
6.784199939329516
 40
6.843372060493619
 40
6.868186175802836
 40
6.896246243201858
 40
6.939586233758283
 40
6.967846564564915
 40
7.043584251089853
 40
7.153234334451709
 40
7.283231855734456
 40
7.420011856035486
 40
7.550009376579843
 40
7.659659458835235
 40
7.735397144417234
 40
7.763657474851406
 40
7.796409728011091
 40
7.880876065096394
 40
7.996370852465751
 40
8.12220844641859
 40
8.237703224799297
 40
8.322169562010906
 40
8.354921815205948
 40
8.382078813307736
 40
8.441824209207034
 40
8.501569605240185
 40
8.528726603485765
 40
8.561478856695814
 40
8.645945193877921
 40
8.761439980865347
 40
8.887277580764518
 40
9.00277236200104
 40
9.087238696661231
 40
9.119990949235714
 40
9.152428830613403
 40
9.240474508638627
 40
9.370226034149589
 40
9.527781457984453
 40
9.69923883098145
 40
9.870696203978632
 40
10.02825162781407
 40
10.15800315332569
 40
10.24604883135122
 40
10.27848670378525
 40
10.27848670378525
 40
10.27848670378525
 40
10.27848670378525
 10
267.1628032493932
 20
-64.19569438070819
 30
0.0
 10
267.1720759667072
 20
-64.19569456945301
 30
0.0
 10
267.2057949466409
 20
-64.1956952457986
 30
0.0
 10
267.2740911742015
 20
-64.19568148213271
 30
0.0
 10
267.3726346641129
 20
-64.19576731237032
 30
0.0
 10
267.4868271394361
 20
-64.19538199844327
 30
0.0
 10
267.5992099346619
 20
-64.1967911955903
 30
0.0
 10
267.7020581529667
 20
-64.19260838034334
 30
0.0
 10
267.7613044804398
 20
-64.20156866204596
 30
0.0
 10
267.8177470866582
 20
-64.18815520930514
 30
0.0
 10
267.8052460516504
 20
-64.23892756843216
 30
0.0
 10
267.813575456525
 20
-64.28390634517507
 30
0.0
 10
267.805437577067
 20
-64.32923202466088
 30
0.0
 10
267.8176734144006
 20
-64.3804802304811
 30
0.0
 10
267.7553978419882
 20
-64.365320000913
 30
0.0
 10
267.6866717956418
 20
-64.37620204745832
 30
0.0
 10
267.558896167914
 20
-64.37068650708606
 30
0.0
 10
267.4069189441192
 20
-64.37279104202878
 30
0.0
 10
267.2308900902072
 20
-64.37208952868104
 30
0.0
 10
267.0450636863835
 20
-64.37234717925283
 30
0.0
 10
266.8592372366725
 20
-64.37208950311974
 30
0.0
 10
266.6832085071717
 20
-64.37279113608845
 30
0.0
 10
266.5312309083744
 20
-64.37068623226587
 30
0.0
 10
266.4034562594103
 20
-64.37620274688936
 30
0.0
 10
266.334728276613
 20
-64.36531878330635
 30
0.0
 10
266.2724553972432
 20
-64.38048168772366
 30
0.0
 10
266.2846821219566
 20
-64.32922444651405
 30
0.0
 10
266.2766209392145
 20
-64.2839748218415
 30
0.0
 10
266.2846880739442
 20
-64.2387359750125
 30
0.0
 10
266.2724443416633
 20
-64.18745778546621
 30
0.0
 10
266.3331222050246
 20
-64.20230378093437
 30
0.0
 10
266.3969015675285
 20
-64.19223507285844
 30
0.0
 10
266.5083519283052
 20
-64.19685311244577
 30
0.0
 10
266.6303738373372
 20
-64.19566626551108
 30
0.0
 10
266.7525743067372
 20
-64.19464091555942
 30
0.0
 10
266.8635999216942
 20
-64.19887479833174
 30
0.0
 10
266.9282722343506
 20
-64.18961370934838
 30
0.0
 10
266.9897367740051
 20
-64.20375532406892
 30
0.0
 10
266.9736270530886
 20
-64.13744427572058
 30
0.0
 10
266.9849185256908
 20
-64.06532165334602
 30
0.0
 10
266.9793605752109
 20
-63.93466194568288
 30
0.0
 10
266.981423999124
 20
-63.78372631748336
 30
0.0
 10
266.9806372056843
 20
-63.61644082348688
 30
0.0
 10
266.9814050145176
 20
-63.44918845124274
 30
0.0
 10
266.9794243715177
 20
-63.29816666186662
 30
0.0
 10
266.9847511086169
 20
-63.16773885903581
 30
0.0
 10
266.9739306317973
 20
-63.09514512850677
 30
0.0
 10
266.9896531359424
 20
-63.02829486019776
 30
0.0
 10
266.9238913062038
 20
-63.0439944296575
 30
0.0
 10
266.8562572760312
 20
-63.0337071237258
 30
0.0
 10
266.7422090223359
 20
-63.03866168609456
 30
0.0
 10
266.6257447604451
 20
-63.03565827426101
 30
0.0
 10
266.5112759051026
 20
-63.04099652313187
 30
0.0
 10
266.444652958736
 20
-63.02978687381752
 30
0.0
 10
266.3796974644734
 20
-63.04630822791565
 30
0.0
 10
266.3914194688255
 20
-62.99506234979516
 30
0.0
 10
266.3839035118669
 20
-62.95029621672485
 30
0.0
 10
266.3914194808383
 20
-62.90553010558618
 30
0.0
 10
266.3796974434895
 20
-62.85428419326837
 30
0.0
 10
266.4446531268748
 20
-62.8708057368976
 30
0.0
 10
266.5112738269369
 20
-62.85959384082631
 30
0.0
 10
266.6257557787612
 20
-62.86494518745911
 30
0.0
 10
266.7421659366511
 20
-62.86188766685459
 30
0.0
 10
266.856386510419
 20
-62.8670145644587
 30
0.0
 10
266.9236355368774
 20
-62.85634222100975
 30
0.0
 10
266.9889530870988
 20
-62.87237872787502
 30
0.0
 10
266.9747596378099
 20
-62.81030269706523
 30
0.0
 10
266.9842264392544
 20
-62.74393193827812
 30
0.0
 10
266.9796473933633
 20
-62.62739982714609
 30
0.0
 10
266.9813901485497
 20
-62.495532704342
 30
0.0
 10
266.980375642494
 20
-62.35363995306303
 30
0.0
 10
266.9823396273922
 20
-62.22210904753996
 30
0.0
 10
266.97708734834
 20
-62.10455378173577
 30
0.0
 10
266.9879613693022
 20
-62.04032166454989
 30
0.0
 10
266.9725741571403
 20
-61.97871152911529
 30
0.0
 10
267.0213796467349
 20
-61.99277548074465
 30
0.0
 10
267.0660200494275
 20
-61.99025213381262
 30
0.0
 10
267.1344848876291
 20
-61.99467158054865
 30
0.0
 10
267.1765311098651
 20
-62.00366929912543
 30
0.0
 10
267.2293749688324
 20
-61.99568240590067
 30
0.0
 10
267.2013239931563
 20
-62.03866037844904
 30
0.0
 10
267.1555347178144
 20
-62.02720403412739
 30
0.0
 10
267.1675744002813
 20
-62.0880643545144
 30
0.0
 10
267.1602291000191
 20
-62.15210655987804
 30
0.0
 10
267.163740075571
 20
-62.26070586592663
 30
0.0
 10
267.1626011689723
 20
-62.38485636311825
 30
0.0
 10
267.1625379709812
 20
-62.51790235626699
 30
0.0
 10
267.1639077896417
 20
-62.6418257420702
 30
0.0
 10
267.1597843730862
 20
-62.75111617607238
 30
0.0
 10
267.1683968033113
 20
-62.81371375362404
 30
0.0
 10
267.1552962383951
 20
-62.87239822160213
 30
0.0
 10
267.2200089257747
 20
-62.85617841645673
 30
0.0
 10
267.2866610882706
 20
-62.86709695073264
 30
0.0
 10
267.4004984470652
 20
-62.8618621528282
 30
0.0
 10
267.5163464051644
 20
-62.86494407939664
 30
0.0
 10
267.630312919283
 20
-62.85961695644062
 30
0.0
 10
267.6966545947648
 20
-62.87075747290034
 30
0.0
 10
267.7613393455029
 20
-62.85432975863396
 30
0.0
 10
267.7496025702272
 20
-62.90554030246526
 30
0.0
 10
267.7571372992588
 20
-62.95029621335573
 30
0.0
 10
267.7496025921807
 20
-62.9950521644655
 30
0.0
 10
267.7613393070285
 20
-63.04626264585534
 30
0.0
 10
267.69665490048
 20
-63.02983527662354
 30
0.0
 10
267.6303091360374
 20
-63.04097171009305
 30
0.0
 10
267.5163664416561
 20
-63.03566839563457
 30
0.0
 10
267.4004200552603
 20
-63.03865190863031
 30
0.0
 10
267.2868961811673
 20
-63.03373063188184
 30
0.0
 10
267.2195436248351
 20
-63.04394867943053
 30
0.0
 10
267.1540490052045
 20
-63.02833959317761
 30
0.0
 10
267.1697918548764
 20
-63.09516103629161
 30
0.0
 10
267.1589480927763
 20
-63.16772897640698
 30
0.0
 10
267.1642786559342
 20
-63.2981770784216
 30
0.0
 10
267.1623341081405
 20
-63.44915397271352
 30
0.0
 10
267.1629338612763
 20
-63.61657711522416
 30
0.0
 10
267.1627711489154
 20
-63.78323779338206
 30
0.0
 10
267.1628100417685
 20
-63.9361981253494
 30
0.0
 10
267.1628021342648
 20
-64.06130776470873
 30
0.0
 10
267.1628033312294
 20
-64.14472064465154
 30
0.0
 10
267.1628032645756
 20
-64.184881771746
 30
0.0
 10
267.1628032493932
 20
-64.19569438070819
 30
0.0
 11
267.1628032493932
 21
-64.19569438070819
 31
0.0
 11
267.1906219813224
 21
-64.19569438070819
 31
0.0
 11
267.2639622745902
 21
-64.19569438070819
 31
0.0
 11
267.3676502754171
 21
-64.19569438070819
 31
0.0
 11
267.4865121300236
 21
-64.19569438070819
 31
0.0
 11
267.60537398463
 21
-64.19569438070819
 31
0.0
 11
267.7090619854569
 21
-64.19569438070819
 31
0.0
 11
267.7824022787247
 21
-64.19569438070819
 31
0.0
 11
267.8102210106539
 21
-64.19569438070819
 31
0.0
 11
267.8102210106539
 21
-64.22328270535407
 31
0.0
 11
267.8102210106539
 21
-64.28397701957499
 31
0.0
 11
267.8102210106539
 21
-64.34467133379592
 31
0.0
 11
267.8102210106539
 21
-64.37225965844179
 31
0.0
 11
267.7801106523043
 21
-64.37225965844179
 31
0.0
 11
267.6968643674554
 21
-64.37225965844178
 31
0.0
 11
267.571109341407
 21
-64.37225965844179
 31
0.0
 11
267.413472759459
 21
-64.3722596584418
 31
0.0
 11
267.2345818069113
 21
-64.37225965844179
 31
0.0
 11
267.0450636690638
 21
-64.37225965844179
 31
0.0
 11
266.8555455312162
 21
-64.37225965844179
 31
0.0
 11
266.6766545786685
 21
-64.37225965844179
 31
0.0
 11
266.5190179967205
 21
-64.37225965844179
 31
0.0
 11
266.3932629706721
 21
-64.37225965844179
 31
0.0
 11
266.3100166858232
 21
-64.37225965844179
 31
0.0
 11
266.2799063274736
 21
-64.37225965844179
 31
0.0
 11
266.2799063274736
 21
-64.34467133379592
 31
0.0
 11
266.2799063274736
 21
-64.28397701957499
 31
0.0
 11
266.2799063274736
 21
-64.22328270535405
 31
0.0
 11
266.2799063274736
 21
-64.19569438070819
 31
0.0
 11
266.3100272994496
 21
-64.19569438070819
 31
0.0
 11
266.3894371346589
 21
-64.19569438070819
 31
0.0
 11
266.5017062120239
 21
-64.19569438070819
 31
0.0
 11
266.6304049104667
 21
-64.19569438070819
 31
0.0
 11
266.7591036089094
 21
-64.19569438070819
 31
0.0
 11
266.8713726862744
 21
-64.19569438070819
 31
0.0
 11
266.9507825214838
 21
-64.19569438070819
 31
0.0
 11
266.9809034934597
 21
-64.19569438070819
 31
0.0
 11
266.9809034934597
 21
-64.16325649932742
 31
0.0
 11
266.9809034934598
 21
-64.07521082129385
 31
0.0
 11
266.9809034934597
 21
-63.94545929577074
 31
0.0
 11
266.9809034934598
 21
-63.78790387192122
 31
0.0
 11
266.9809034934597
 21
-63.61644649890852
 31
0.0
 11
266.9809034934597
 21
-63.44498912589583
 31
0.0
 11
266.9809034934597
 21
-63.28743370204631
 31
0.0
 11
266.9809034934597
 21
-63.15768217652319
 31
0.0
 11
266.9809034934597
 21
-63.06963649848964
 31
0.0
 11
266.9809034934597
 21
-63.03719861710886
 31
0.0
 11
266.9480031415077
 21
-63.03719861710886
 31
0.0
 11
266.8631548654211
 21
-63.03719861710886
 31
0.0
 11
266.7471378348536
 21
-63.03719861710886
 31
0.0
 11
266.6207312194592
 21
-63.03719861710886
 31
0.0
 11
266.5047141888919
 21
-63.03719861710886
 31
0.0
 11
266.4198659128052
 21
-63.03719861710886
 31
0.0
 11
266.3869655608532
 21
-63.03719861710886
 31
0.0
 11
266.3869655608532
 21
-63.01004161841773
 31
0.0
 11
266.3869655608532
 21
-62.95029622129726
 31
0.0
 11
266.3869655608532
 21
-62.89055082417678
 31
0.0
 11
266.3869655608532
 21
-62.86339382548566
 31
0.0
 11
266.4198659128051
 21
-62.86339382548566
 31
0.0
 11
266.5047141888918
 21
-62.86339382548565
 31
0.0
 11
266.6207312194593
 21
-62.86339382548566
 31
0.0
 11
266.7471378348536
 21
-62.86339382548566
 31
0.0
 11
266.8631548654211
 21
-62.86339382548566
 31
0.0
 11
266.9480031415077
 21
-62.86339382548566
 31
0.0
 11
266.9809034934597
 21
-62.86339382548566
 31
0.0
 11
266.9809034934597
 21
-62.83329943725207
 31
0.0
 11
266.9809034934597
 21
-62.75264647678603
 31
0.0
 11
266.9809034934597
 21
-62.63588025043967
 31
0.0
 11
266.9809034934597
 21
-62.49744606456512
 31
0.0
 11
266.9809034934597
 21
-62.35178922551452
 31
0.0
 11
266.9809034934597
 21
-62.21335503963998
 31
0.0
 11
266.9809034934597
 21
-62.09658881329362
 31
0.0
 11
266.9809034934597
 21
-62.01593585282759
 31
0.0
 11
266.9809034934597
 21
-61.98584146459399
 31
0.0
 11
267.0056610218168
 21
-61.98751631237135
 31
0.0
 11
267.0646982048218
 21
-61.99151018014812
 31
0.0
 11
267.1351619393763
 21
-61.99627705459136
 31
0.0
 11
267.1941991223814
 21
-62.00027092236813
 31
0.0
 11
267.2189566507384
 21
-62.00194577014548
 31
0.0
 11
267.203927215358
 21
-62.02564141250066
 31
0.0
 11
267.1628032493932
 21
-62.03932257569173
 31
0.0
 11
267.1628032493932
 21
-62.06758290661745
 31
0.0
 11
267.1628032493932
 21
-62.14332059349837
 31
0.0
 11
267.1628032493932
 21
-62.25297067749015
 31
0.0
 11
267.1628032493932
 21
-62.38296819974845
 31
0.0
 11
267.1628032493932
 21
-62.51974820142892
 31
0.0
 11
267.1628032493932
 21
-62.64974572368723
 31
0.0
 11
267.1628032493932
 21
-62.75939580767901
 31
0.0
 11
267.1628032493932
 21
-62.83513349455994
 31
0.0
 11
267.1628032493932
 21
-62.86339382548566
 31
0.0
 11
267.1955555025664
 21
-62.86339382548566
 31
0.0
 11
267.2800218396972
 21
-62.86339382548565
 31
0.0
 11
267.3955166272025
 21
-62.86339382548566
 31
0.0
 11
267.5213542314994
 21
-62.86339382548566
 31
0.0
 11
267.6368490190048
 21
-62.86339382548566
 31
0.0
 11
267.7213153561355
 21
-62.86339382548566
 31
0.0
 11
267.7540676093087
 21
-62.86339382548566
 31
0.0
 11
267.7540676093087
 21
-62.89055082417678
 31
0.0
 11
267.7540676093087
 21
-62.95029622129726
 31
0.0
 11
267.7540676093087
 21
-63.01004161841773
 31
0.0
 11
267.7540676093087
 21
-63.03719861710886
 31
0.0
 11
267.7213153561355
 21
-63.03719861710885
 31
0.0
 11
267.6368490190047
 21
-63.03719861710886
 31
0.0
 11
267.5213542314995
 21
-63.03719861710886
 31
0.0
 11
267.3955166272025
 21
-63.03719861710886
 31
0.0
 11
267.2800218396972
 21
-63.03719861710885
 31
0.0
 11
267.1955555025664
 21
-63.03719861710886
 31
0.0
 11
267.1628032493932
 21
-63.03719861710886
 31
0.0
 11
267.1628032493932
 21
-63.06963649848963
 31
0.0
 11
267.1628032493932
 21
-63.15768217652319
 31
0.0
 11
267.1628032493933
 21
-63.28743370204632
 31
0.0
 11
267.1628032493932
 21
-63.44498912589581
 31
0.0
 11
267.1628032493932
 21
-63.61644649890852
 31
0.0
 11
267.1628032493932
 21
-63.78790387192122
 31
0.0
 11
267.1628032493932
 21
-63.94545929577074
 31
0.0
 11
267.1628032493932
 21
-64.07521082129387
 31
0.0
 11
267.1628032493932
 21
-64.1632564993274
 31
0.0
 11
267.1628032493932
 21
-64.19569438070819
 31
0.0
  0
SPLINE
  5
A4
102
{ACAD_REACTORS
330
C1
102
}
330
48
100
AcDbEntity
  8
_U_30EC_U_30A4_U_30E4_U_30FC_1
  6
Continuous
 62
     2
100
AcDbSpline
210
0.0
220
0.0
230
1.0
 70
    11
 71
     3
 72
   131
 73
   127
 74
   125
 42
0.000000001
 43
0.0000000001
 44
0.00000001
 40
0.0
 40
0.0
 40
0.0
 40
0.0
 40
0.0195577029826547
 40
0.0426490537461869
 40
0.2863607575856961
 40
0.5344948436189985
 40
0.7842238845574079
 40
0.8737315789468204
 40
0.9803832810313933
 40
1.092842274517101
 40
1.199761146656901
 40
1.289788768186649
 40
1.351573580786299
 40
1.370727117561574
 40
1.416400936017921
 40
1.470914848356033
 40
1.516588666791856
 40
1.535742203552934
 40
1.634216592293305
 40
1.760283341175163
 40
1.8979666866822
 40
2.031216387368955
 40
2.049689751137945
 40
2.101115601646887
 40
2.179502577740001
 40
2.278859318314109
 40
2.393194462258774
 40
2.516516648383882
 40
2.642834515406013
 40
2.766156701983524
 40
2.880491846754628
 40
2.979848588358683
 40
3.058235565443842
 40
3.10966141666899
 40
3.128134780704177
 40
3.146783742386523
 40
3.191254343315412
 40
3.244332157316099
 40
3.288802758226003
 40
3.307451719895217
 40
3.327717853844822
 40
3.3837477535802
 40
3.468388665924598
 40
3.574487837698887
 40
3.694892515729
 40
3.822449946852129
 40
3.950007377920533
 40
4.070412055800622
 40
4.176511227368172
 40
4.261152139501617
 40
4.31718203907681
 40
4.337448172964733
 40
4.620011002696345
 40
4.885096638397596
 40
4.945373043518435
 40
5.014107710488799
 40
5.070481727652214
 40
5.319246955636761
 40
5.584812164506311
 40
5.859000912057164
 40
6.133746937542303
 40
6.401732212969079
 40
6.420736683995641
 40
6.472845717451263
 40
6.550702743894248
 40
6.646951193874485
 40
6.754234497930724
 40
6.865196086587445
 40
6.972479390357875
 40
7.068727839772065
 40
7.146584865451017
 40
7.198693898189275
 40
7.217698368905416
 40
7.234950401630896
 40
7.276089864269934
 40
7.325191803516041
 40
7.366331266090426
 40
7.383583298769785
 40
7.402779163492133
 40
7.453386443254536
 40
7.524934666445623
 40
7.606953361405878
 40
7.688972056429058
 40
7.760520279784251
 40
7.811127559734522
 40
7.830323424546171
 40
7.847844055299801
 40
7.894799345666839
 40
7.962779392744536
 40
8.04337429356059
 40
8.128174145149494
 40
8.208769044817295
 40
8.276749090376995
 40
8.323704379669564
 40
8.341225010056299
 40
8.35849761480039
 40
8.401679126686595
 40
8.457815092185625
 40
8.513951057728029
 40
8.557132569708013
 40
8.574405174505028
 40
8.602340668616373
 40
8.643455660539827
 40
8.663225271966487
 40
8.715345156564139
 40
8.789031889628488
 40
8.87350204552021
 40
8.957972194323842
 40
9.031658925567724
 40
9.083778811234422
 40
9.103548423002882
 40
9.119550083123476
 40
9.160817522379693
 40
9.21724442911003
 40
9.278724491644516
 40
9.335151398295329
 40
9.376418837357596
 40
9.392420497300384
 40
9.401196302734654
 40
9.417494229384104
 40
9.426270027749403
 40
9.440875075477434
 40
9.475702496998618
 40
9.517270709865777
 40
9.55209813199402
 40
9.566703169884153
 40
9.566703169884153
 40
9.566703169884153
 40
9.566703169884153
 10
266.3976459078028
 20
-62.53964083945549
 30
0.0
 10
266.394055002292
 20
-62.54526264754417
 30
0.0
 10
266.3862244053173
 20
-62.55752201037462
 30
0.0
 10
266.2936173904096
 20
-62.59378039415613
 30
0.0
 10
266.2693827162797
 20
-62.80831511243861
 30
0.0
 10
266.1664914775486
 20
-62.98782670946868
 30
0.0
 10
265.9026697293854
 20
-63.17364381658433
 30
0.0
 10
266.0651676498728
 20
-63.25020618890495
 30
0.0
 10
266.1413430690387
 20
-63.31123262261131
 30
0.0
 10
266.2298376002307
 20
-63.37464150911822
 30
0.0
 10
266.3196135162658
 20
-63.43454321237017
 30
0.0
 10
266.3690022565594
 20
-63.48877800607362
 30
0.0
 10
266.4551913086931
 20
-63.5169371491475
 30
0.0
 10
266.4217465603776
 20
-63.55266645803758
 30
0.0
 10
266.4020876095859
 20
-63.58429567464674
 30
0.0
 10
266.372609314743
 20
-63.62504082660508
 30
0.0
 10
266.349519437558
 20
-63.65475291966933
 30
0.0
 10
266.3186410897905
 20
-63.7076853278808
 30
0.0
 10
266.2535398295288
 20
-63.58239620517675
 30
0.0
 10
266.1602205051963
 20
-63.52766055222641
 30
0.0
 10
266.0756841214688
 20
-63.47063531517237
 30
0.0
 10
265.952870305529
 20
-63.31304668029054
 30
0.0
 10
265.9570655776851
 20
-63.38944148689741
 30
0.0
 10
265.9557683582226
 20
-63.43618675295281
 30
0.0
 10
265.9564331377626
 20
-63.51395169643977
 30
0.0
 10
265.9561754916504
 20
-63.61077887132151
 30
0.0
 10
265.9562636169472
 20
-63.72329676377769
 30
0.0
 10
265.956228223183
 20
-63.84455869510877
 30
0.0
 10
265.9562716687828
 20
-63.96893057597617
 30
0.0
 10
265.9561404871954
 20
-64.0901227182524
 30
0.0
 10
265.9565682491596
 20
-64.20288806536834
 30
0.0
 10
265.9552883131859
 20
-64.29897041687833
 30
0.0
 10
265.9585964780592
 20
-64.37866128987876
 30
0.0
 10
265.9521402669636
 20
-64.42164779667792
 30
0.0
 10
265.9612413635105
 20
-64.46024523084533
 30
0.0
 10
265.9254115269484
 20
-64.45169067732508
 30
0.0
 10
265.89214287448
 20
-64.45637435471131
 30
0.0
 10
265.841076750559
 20
-64.45628656696792
 30
0.0
 10
265.8075928902361
 20
-64.45185525172758
 30
0.0
 10
265.7713790338303
 20
-64.46019161614066
 30
0.0
 10
265.7815987498213
 20
-64.41834678277291
 30
0.0
 10
265.7742692817321
 20
-64.37201394636402
 30
0.0
 10
265.7779838065652
 20
-64.28605124350563
 30
0.0
 10
265.7765685484443
 20
-64.18374812751726
 30
0.0
 10
265.7770310484186
 20
-64.06526731525065
 30
0.0
 10
265.7768978615779
 20
-63.94022272303219
 30
0.0
 10
265.7769220839594
 20
-63.81504127349528
 30
0.0
 10
265.77695598551
 20
-63.69693310077519
 30
0.0
 10
265.7768265222682
 20
-63.59351206747058
 30
0.0
 10
265.777171247863
 20
-63.51047919302913
 30
0.0
 10
265.7764903208238
 20
-63.4583658693533
 30
0.0
 10
265.7800791530174
 20
-63.33067047635222
 30
0.0
 10
265.5632376315986
 20
-63.62931238636953
 30
0.0
 10
265.38275598515
 20
-63.85715973945058
 30
0.0
 10
265.329652722516
 20
-63.71606512166763
 30
0.0
 10
265.3006634062697
 20
-63.66654187895634
 30
0.0
 10
265.2002852992367
 20
-63.5633817566647
 30
0.0
 10
265.521133265281
 20
-63.48284920432795
 30
0.0
 10
265.6496101934978
 20
-63.29913672420145
 30
0.0
 10
265.8712659254908
 20
-63.09047959684816
 30
0.0
 10
265.9576429823617
 20
-62.91640744228236
 30
0.0
 10
266.2355599158622
 20
-62.64012904114054
 30
0.0
 10
266.1152452768832
 20
-62.64445395905464
 30
0.0
 10
266.0669402280897
 20
-62.6436509925402
 30
0.0
 10
265.9908582384452
 20
-62.64405373309992
 30
0.0
 10
265.8973214939298
 20
-62.64389679844966
 30
0.0
 10
265.7923799718104
 20
-62.64397452880352
 30
0.0
 10
265.6840092668266
 20
-62.6438449107802
 30
0.0
 10
265.5787659165446
 20
-62.64425561965886
 30
0.0
 10
265.4862442748961
 20
-62.64297881784984
 30
0.0
 10
265.4074335730257
 20
-62.64639188921727
 30
0.0
 10
265.3645879494929
 20
-62.63956605420257
 30
0.0
 10
265.3255704516064
 20
-62.64914891255452
 30
0.0
 10
265.3332570201413
 20
-62.61559175891033
 30
0.0
 10
265.3291669333861
 20
-62.58456405134342
 30
0.0
 10
265.3291736298363
 20
-62.53743426185677
 30
0.0
 10
265.3332444654461
 20
-62.50639013809798
 30
0.0
 10
265.3255700504131
 20
-62.47278093820677
 30
0.0
 10
265.3641024335043
 20
-62.48231545035704
 30
0.0
 10
265.4047432944029
 20
-62.47582519958507
 30
0.0
 10
265.4757676780012
 20
-62.47879804806321
 30
0.0
 10
265.5535523079183
 20
-62.47805194057419
 30
0.0
 10
265.6313497176023
 20
-62.47732141412052
 30
0.0
 10
265.7023437019456
 20
-62.48025719942414
 30
0.0
 10
265.7430484721369
 20
-62.47384486683623
 30
0.0
 10
265.7816058419458
 20
-62.48329431280573
 30
0.0
 10
265.7733547684478
 20
-62.44715263297794
 30
0.0
 10
265.7788551598906
 20
-62.40850117843348
 30
0.0
 10
265.7761959135713
 20
-62.34066426894737
 30
0.0
 10
265.7772020401081
 20
-62.26388313917836
 30
0.0
 10
265.7766382947867
 20
-62.18130561873818
 30
0.0
 10
265.7776919456142
 20
-62.10462626226699
 30
0.0
 10
265.7748880792677
 20
-62.03647964679875
 30
0.0
 10
265.7806907650854
 20
-61.99847555647231
 30
0.0
 10
265.7721859480707
 20
-61.96221507378931
 30
0.0
 10
265.8061815162673
 20
-61.97224231684724
 30
0.0
 10
265.8400780612646
 20
-61.96906688642867
 30
0.0
 10
265.8932873989895
 20
-61.97470989815967
 30
0.0
 10
265.9466973504032
 20
-61.97545181020153
 30
0.0
 10
265.9802119579037
 20
-61.98160731973596
 30
0.0
 10
266.0194291112588
 20
-61.97633925682988
 30
0.0
 10
265.992646862804
 20
-62.01726574663083
 30
0.0
 10
265.9514315931273
 20
-62.00608750918468
 30
0.0
 10
265.9588846470423
 20
-62.05112899264452
 30
0.0
 10
265.9548432881733
 20
-62.09567677428431
 30
0.0
 10
265.9567918979188
 20
-62.16756382834872
 30
0.0
 10
265.9558569779308
 20
-62.24811324867805
 30
0.0
 10
265.9571312119579
 20
-62.32805960051581
 30
0.0
 10
265.9538248723413
 20
-62.40138118373392
 30
0.0
 10
265.9608311109508
 20
-62.44291312454008
 30
0.0
 10
265.9507645309675
 20
-62.48227536888466
 30
0.0
 10
265.983601973347
 20
-62.47511892025594
 30
0.0
 10
266.017078222603
 20
-62.47952712318634
 30
0.0
 10
266.0721258405567
 20
-62.47762012108677
 30
0.0
 10
266.1295707524865
 20
-62.47794589049291
 30
0.0
 10
266.1829231177858
 20
-62.47873646723491
 30
0.0
 10
266.2204745826187
 20
-62.47665996338502
 30
0.0
 10
266.2429377452785
 20
-62.47957617289467
 30
0.0
 10
266.255788300328
 20
-62.47407402812523
 30
0.0
 10
266.2664460615438
 20
-62.47178837258782
 30
0.0
 10
266.2792840579693
 20
-62.46484982868526
 30
0.0
 10
266.2952195962619
 20
-62.48126909142901
 30
0.0
 10
266.3216828850441
 20
-62.49270833137129
 30
0.0
 10
266.3533010183306
 20
-62.51335267621389
 30
0.0
 10
266.3793460821702
 20
-62.52863085828278
 30
0.0
 10
266.3934722653523
 20
-62.53712979133391
 30
0.0
 10
266.3976459078028
 20
-62.53964083945549
 30
0.0
 11
266.3976459078028
 21
-62.53964083945549
 31
0.0
 11
266.3856194931792
 21
-62.55506384292389
 31
0.0
 11
266.3655166725114
 21
-62.56642549222659
 31
0.0
 11
266.2585191285362
 21
-62.78539335225418
 31
0.0
 11
266.1283244863872
 21
-62.99662753944416
 31
0.0
 11
265.9802745295619
 21
-63.19773896429098
 31
0.0
 11
266.0541163183283
 21
-63.24832570521197
 31
0.0
 11
266.1411869241348
 21
-63.30991543802837
 31
0.0
 11
266.2324208679952
 21
-63.37566794862151
 31
0.0
 11
266.3187526709236
 21
-63.43874302287272
 31
0.0
 11
266.3911168539336
 21
-63.49230044666334
 31
0.0
 11
266.4404479380391
 21
-63.52950000587472
 31
0.0
 11
266.429314563176
 21
-63.54508544587082
 31
0.0
 11
266.4027657461951
 21
-63.58225072586153
 31
0.0
 11
266.3710784485082
 21
-63.62660928585044
 31
0.0
 11
266.3445296315272
 21
-63.66377456584114
 31
0.0
 11
266.3333962566642
 21
-63.67936000583724
 31
0.0
 11
266.2613218292495
 21
-63.61225946765958
 31
0.0
 11
266.1659061914929
 21
-63.52986601281907
 31
0.0
 11
266.0599469081718
 21
-63.4419493808966
 31
0.0
 11
265.9562415440639
 21
-63.3582793114731
 31
0.0
 11
265.9562415440639
 21
-63.37675267555713
 31
0.0
 11
265.9562415440639
 21
-63.42817852692622
 31
0.0
 11
265.9562415440639
 21
-63.50656550425578
 31
0.0
 11
265.9562415440639
 21
-63.60592224622128
 31
0.0
 11
265.9562415440639
 21
-63.72025739149817
 31
0.0
 11
265.9562415440639
 21
-63.84357957876187
 31
0.0
 11
265.9562415440639
 21
-63.96989744668787
 31
0.0
 11
265.9562415440639
 21
-64.09321963395158
 31
0.0
 11
265.9562415440639
 21
-64.20755477922846
 31
0.0
 11
265.9562415440639
 21
-64.30691152119397
 31
0.0
 11
265.9562415440639
 21
-64.38529849852353
 31
0.0
 11
265.9562415440639
 21
-64.4367243498926
 31
0.0
 11
265.9562415440639
 21
-64.45519771397664
 31
0.0
 11
265.9375925823175
 21
-64.45519771397664
 31
0.0
 11
265.8931219812299
 21
-64.45519771397664
 31
0.0
 11
265.8400441670285
 21
-64.45519771397664
 31
0.0
 11
265.7955735659408
 21
-64.45519771397664
 31
0.0
 11
265.7769246041944
 21
-64.45519771397664
 31
0.0
 11
265.7769246041944
 21
-64.43493157996359
 31
0.0
 11
265.7769246041943
 21
-64.37890168004509
 31
0.0
 11
265.7769246041944
 21
-64.29426076740228
 31
0.0
 11
265.7769246041944
 21
-64.18816159521623
 31
0.0
 11
265.7769246041944
 21
-64.067756916668
 31
0.0
 11
265.7769246041944
 21
-63.94019948493871
 31
0.0
 11
265.7769246041944
 21
-63.81264205320939
 31
0.0
 11
265.7769246041944
 21
-63.69223737466118
 31
0.0
 11
265.7769246041944
 21
-63.58613820247513
 31
0.0
 11
265.7769246041944
 21
-63.50149728983232
 31
0.0
 11
265.7769246041944
 21
-63.44546738991384
 31
0.0
 11
265.7769246041944
 21
-63.42520125590077
 31
0.0
 11
265.568947777903
 21
-63.6164795718252
 31
0.0
 11
265.3569691287974
 21
-63.77565070025766
 31
0.0
 11
265.3301833944031
 21
-63.72165283504482
 31
0.0
 11
265.2944970344572
 21
-63.6629081488455
 31
0.0
 11
265.2605902423672
 21
-63.617870839186
 31
0.0
 11
265.4636492671867
 21
-63.47416568255522
 31
0.0
 11
265.6624736887809
 21
-63.29811531926589
 31
0.0
 11
265.8483246373727
 21
-63.09652440931627
 31
0.0
 11
266.0124632431852
 21
-62.87619761270467
 31
0.0
 11
266.1461506364412
 21
-62.64393958942941
 31
0.0
 11
266.127146165403
 21
-62.64393958942941
 31
0.0
 11
266.075037131911
 21
-62.64393958942941
 31
0.0
 11
265.9971801053995
 21
-62.6439395894294
 31
0.0
 11
265.9009316553026
 21
-62.64393958942941
 31
0.0
 11
265.7936483510545
 21
-62.64393958942941
 31
0.0
 11
265.6826867620894
 21
-62.64393958942941
 31
0.0
 11
265.5754034578413
 21
-62.64393958942941
 31
0.0
 11
265.4791550077443
 21
-62.64393958942941
 31
0.0
 11
265.4012979812329
 21
-62.64393958942941
 31
0.0
 11
265.3491889477409
 21
-62.64393958942941
 31
0.0
 11
265.3301844767027
 21
-62.64393958942941
 31
0.0
 11
265.3301844767027
 21
-62.62668755665594
 31
0.0
 11
265.3301844767028
 21
-62.58554809388845
 31
0.0
 11
265.3301844767027
 21
-62.53644615445628
 31
0.0
 11
265.3301844767027
 21
-62.49530669168878
 31
0.0
 11
265.3301844767027
 21
-62.47805465891531
 31
0.0
 11
265.3493803415558
 21
-62.47805465891531
 31
0.0
 11
265.3999876216233
 21
-62.47805465891531
 31
0.0
 11
265.4715358451669
 21
-62.47805465891531
 31
0.0
 11
265.5535545404485
 21
-62.47805465891531
 31
0.0
 11
265.6355732357302
 21
-62.47805465891531
 31
0.0
 11
265.7071214592738
 21
-62.4780546589153
 31
0.0
 11
265.7577287393412
 21
-62.47805465891531
 31
0.0
 11
265.7769246041944
 21
-62.47805465891531
 31
0.0
 11
265.7769246041944
 21
-62.46053402801358
 31
0.0
 11
265.7769246041944
 21
-62.41357873719695
 31
0.0
 11
265.7769246041944
 21
-62.34559868929823
 31
0.0
 11
265.7769246041944
 21
-62.26500378715026
 31
0.0
 11
265.7769246041943
 21
-62.18020393358589
 31
0.0
 11
265.7769246041944
 21
-62.09960903143794
 31
0.0
 11
265.7769246041944
 21
-62.03162898353922
 31
0.0
 11
265.7769246041944
 21
-61.98467369272258
 31
0.0
 11
265.7769246041944
 21
-61.96715306182085
 31
0.0
 11
265.7941689041659
 21
-61.96814149289057
 31
0.0
 11
265.8372796540949
 21
-61.97061257056484
 31
0.0
 11
265.8933236290025
 21
-61.9738249715414
 31
0.0
 11
265.9493676039102
 21
-61.97703737251797
 31
0.0
 11
265.9924783538391
 21
-61.97950845019226
 31
0.0
 11
266.0097226538107
 21
-61.98049688126196
 31
0.0
 11
265.9949979604399
 21
-62.00423662083937
 31
0.0
 11
265.9562415440639
 21
-62.01796188125263
 31
0.0
 11
265.956241544064
 21
-62.03773149279282
 31
0.0
 11
265.9562415440639
 21
-62.08985137776243
 31
0.0
 11
265.9562415440639
 21
-62.16353811168497
 31
0.0
 11
265.9562415440639
 21
-62.24800827008397
 31
0.0
 11
265.9562415440639
 21
-62.33247842848299
 31
0.0
 11
265.9562415440639
 21
-62.40616516240551
 31
0.0
 11
265.9562415440639
 21
-62.45828504737512
 31
0.0
 11
265.9562415440639
 21
-62.47805465891531
 31
0.0
 11
265.9722432042485
 21
-62.4780546589153
 31
0.0
 11
266.0135106436719
 21
-62.4780546589153
 31
0.0
 11
266.0699375506386
 21
-62.47805465891531
 31
0.0
 11
266.131417613453
 21
-62.47805465891531
 31
0.0
 11
266.1878445204197
 21
-62.4780546589153
 31
0.0
 11
266.2291119598431
 21
-62.47805465891531
 31
0.0
 11
266.2451136200277
 21
-62.47805465891531
 31
0.0
 11
266.2534411352474
 21
-62.47528568000656
 31
0.0
 11
266.2689065206553
 21
-62.47014329060458
 31
0.0
 11
266.2772340358749
 21
-62.46737431169582
 31
0.0
 11
266.2897568705554
 21
-62.47489003058283
 31
0.0
 11
266.3196190147935
 21
-62.49281212946723
 31
0.0
 11
266.3552609288842
 21
-62.51420302168408
 31
0.0
 11
266.3851230731224
 21
-62.53212512056848
 31
0.0
 11
266.3976459078028
 21
-62.53964083945549
 31
0.0
  0
SPLINE
  5
A5
102
{ACAD_REACTORS
330
C2
102
}
330
48
100
AcDbEntity
  8
_U_30EC_U_30A4_U_30E4_U_30FC_1
  6
Continuous
 62
     2
100
AcDbSpline
210
0.0
220
0.0
230
1.0
 70
    11
 71
     3
 72
    91
 73
    87
 74
    85
 42
0.000000001
 43
0.0000000001
 44
0.00000001
 40
0.0
 40
0.0
 40
0.0
 40
0.0
 40
0.026753225435663
 40
0.0856103386464049
 40
0.1444674521996567
 40
0.1712206856618443
 40
0.203941600564275
 40
0.2955601971652698
 40
0.4362601844616563
 40
0.6162252844507463
 40
0.8256392189704627
 40
1.054685709844347
 40
1.293548478893496
 40
1.532411247938268
 40
1.761457738799532
 40
1.970871673298501
 40
2.150836773256725
 40
2.291536760495529
 40
2.383155356836693
 40
2.415876284101256
 40
2.442629517487899
 40
2.501486630949022
 40
2.560343744424171
 40
2.587096977826445
 40
2.617068194440844
 40
2.699247336756014
 40
2.822032643466298
 40
2.973822353257799
 40
3.143014704823327
 40
3.318007936879849
 40
3.487200288186625
 40
3.638989997548163
 40
3.761775303794605
 40
3.843954445752968
 40
3.873925662229692
 40
3.890812773500399
 40
3.907699884771633
 40
3.937960767857262
 40
3.98098361814232
 40
4.199085915228469
 40
4.439444339237249
 40
4.677588241260955
 40
5.050698317837869
 40
5.448212454763369
 40
5.855291218044837
 40
6.138575438885543
 40
6.417434507584389
 40
6.444551104394048
 40
6.504207617363418
 40
6.563864130314793
 40
6.590980727104411
 40
6.848609460381833
 40
7.109611990668726
 40
7.352910904446405
 40
7.557830220705731
 40
7.587518925913648
 40
7.652834077376045
 40
7.718149228845984
 40
7.74783793406226
 40
7.854880190301246
 40
7.97651125740375
 40
8.369487896592581
 40
8.757514959223903
 40
9.126072419331367
 40
9.460639380392372
 40
9.746695593036085
 40
9.777569943118856
 40
9.807050320931978
 40
9.830377336129112
 40
9.886003295436172
 40
9.952395569430097
 40
10.00802152870645
 40
10.03134854388238
 40
10.21356951009603
 40
10.42203479292891
 40
10.66154556731081
 40
10.9169378956432
 40
11.15832906556583
 40
11.18982674596638
 40
11.27286608520419
 40
11.39026653033367
 40
11.52484752840897
 40
11.65942852648457
 40
11.77682897161495
 40
11.85986831085697
 40
11.8913659823044
 40
11.8913659823044
 40
11.8913659823044
 40
11.8913659823044
 10
262.4834089937745
 20
-63.50280354754804
 30
0.0
 10
262.4834442694838
 20
-63.4939210814459
 30
0.0
 10
262.4835571640344
 20
-63.46549718409231
 30
0.0
 10
262.4819189498037
 20
-63.41570316286771
 30
0.0
 10
262.487595522246
 20
-63.37322390978422
 30
0.0
 10
262.4763133661256
 20
-63.3224980059973
 30
0.0
 10
262.543850190858
 20
-63.33967054716467
 30
0.0
 10
262.6194234140249
 20
-63.32689728290582
 30
0.0
 10
262.763456198555
 20
-63.33350225999197
 30
0.0
 10
262.9375624114977
 20
-63.33091493250112
 30
0.0
 10
263.1445804540552
 20
-63.33179363501024
 30
0.0
 10
263.3700893101926
 20
-63.33151747536549
 30
0.0
 10
263.6057367222954
 20
-63.33161615797915
 30
0.0
 10
263.8413845460897
 20
-63.33151771043811
 30
0.0
 10
264.0668922510175
 20
-63.33179277265791
 30
0.0
 10
264.2739139562353
 20
-63.3309176918584
 30
0.0
 10
264.4480093844837
 20
-63.33349432778131
 30
0.0
 10
264.5920697001534
 20
-63.32691665007366
 30
0.0
 10
264.6675896844842
 20
-63.33963712050973
 30
0.0
 10
264.7351980966578
 20
-63.32253555264893
 30
0.0
 10
264.7237045070225
 20
-63.37305169653636
 30
0.0
 10
264.7311309511282
 20
-63.41726703230075
 30
0.0
 10
264.7235043857536
 20
-63.46111988952967
 30
0.0
 10
264.7352694388973
 20
-63.51101580977247
 30
0.0
 10
264.6736993421533
 20
-63.49586727744065
 30
0.0
 10
264.6062996668219
 20
-63.50669290105901
 30
0.0
 10
264.4819208985771
 20
-63.50127923830341
 30
0.0
 10
264.3360633166119
 20
-63.50330750065789
 30
0.0
 10
264.1699781369634
 20
-63.50264177878191
 30
0.0
 10
263.9994617551273
 20
-63.50290311935335
 30
0.0
 10
263.8325995784937
 20
-63.50258402065481
 30
0.0
 10
263.6893551756655
 20
-63.50344652865813
 30
0.0
 10
263.5579518799383
 20
-63.50116654973591
 30
0.0
 10
263.5046064064206
 20
-63.50572251082371
 30
0.0
 10
263.4291393386461
 20
-63.49980040463701
 30
0.0
 10
263.4575280708781
 20
-63.50885786113223
 30
0.0
 10
263.4839857339092
 20
-63.51254043187646
 30
0.0
 10
263.443972783725
 20
-63.54325683488303
 30
0.0
 10
263.3519868621417
 20
-63.53312364281938
 30
0.0
 10
263.3245601136617
 20
-63.7794745320879
 30
0.0
 10
263.2284998896784
 20
-63.93480396692207
 30
0.0
 10
262.972348289402
 20
-64.26454537525004
 30
0.0
 10
263.543374266231
 20
-64.12549933246123
 30
0.0
 10
263.7979861250066
 20
-64.12688175483214
 30
0.0
 10
264.4085851978165
 20
-64.21189386214486
 30
0.0
 10
264.1146903507631
 20
-63.91294537898374
 30
0.0
 10
263.7939509216068
 20
-63.76649098554805
 30
0.0
 10
263.9119748289981
 20
-63.70954414638286
 30
0.0
 10
263.9530921395811
 20
-63.68559855583231
 30
0.0
 10
263.996301732396
 20
-63.66380196645347
 30
0.0
 10
264.0980779024
 20
-63.60051234202676
 30
0.0
 10
264.2135072554797
 20
-63.85832804047789
 30
0.0
 10
264.4135796571826
 20
-63.99363914342898
 30
0.0
 10
264.5075282316778
 20
-64.17187160317688
 30
0.0
 10
264.736503467594
 20
-64.32982134429528
 30
0.0
 10
264.6402236776257
 20
-64.38063982880276
 30
0.0
 10
264.5974164693328
 20
-64.41098662933521
 30
0.0
 10
264.5524448458327
 20
-64.43513825175117
 30
0.0
 10
264.4927925854764
 20
-64.4842780870901
 30
0.0
 10
264.4595935990873
 20
-64.3498247978297
 30
0.0
 10
264.3388218280346
 20
-64.19385690169992
 30
0.0
 10
263.9777180935526
 20
-64.32410027397023
 30
0.0
 10
263.619126688509
 20
-64.3075526104709
 30
0.0
 10
263.2377125379628
 20
-64.31648726104714
 30
0.0
 10
262.9509660212441
 20
-64.38097283784171
 30
0.0
 10
262.6398260529263
 20
-64.26749287263743
 30
0.0
 10
262.6074942748338
 20
-64.37857695528814
 30
0.0
 10
262.5702383182866
 20
-64.39783641606562
 30
0.0
 10
262.5671942562304
 20
-64.35105171369285
 30
0.0
 10
262.5486097790157
 20
-64.31173101537439
 30
0.0
 10
262.5318641546328
 20
-64.25213971978347
 30
0.0
 10
262.5189935845302
 20
-64.2077798558529
 30
0.0
 10
262.4848532735979
 20
-64.11873624336386
 30
0.0
 10
262.7288919387302
 20
-64.18798912512804
 30
0.0
 10
262.924759941622
 20
-64.20949586398835
 30
0.0
 10
263.0201631310825
 20
-63.92753470978113
 30
0.0
 10
263.0751340699145
 20
-63.76616910035455
 30
0.0
 10
263.2965824286704
 20
-63.49588777866836
 30
0.0
 10
263.1655444310765
 20
-63.50431508602843
 30
0.0
 10
263.0916231485403
 20
-63.50200946959606
 30
0.0
 10
262.9783664805792
 20
-63.50308577134918
 30
0.0
 10
262.8500456737032
 20
-63.50272316380065
 30
0.0
 10
262.7210456959965
 20
-63.5028223099049
 30
0.0
 10
262.609404587584
 20
-63.50280022744003
 30
0.0
 10
262.5320868899576
 20
-63.50280376266907
 30
0.0
 10
262.4939081461558
 20
-63.50280359611494
 30
0.0
 10
262.4834089937745
 20
-63.50280354754804
 30
0.0
 11
262.4834089937745
 21
-63.50280354754804
 31
0.0
 11
262.4834089937745
 21
-63.47605031404779
 31
0.0
 11
262.4834089937745
 21
-63.41719320034723
 31
0.0
 11
262.4834089937745
 21
-63.35833608664667
 31
0.0
 11
262.4834089937745
 21
-63.33158285314642
 31
0.0
 11
262.5161299210538
 21
-63.33158285314642
 31
0.0
 11
262.6077485174358
 21
-63.33158285314643
 31
0.0
 11
262.7484485047368
 21
-63.33158285314643
 31
0.0
 11
262.9284136047729
 21
-63.33158285314643
 31
0.0
 11
263.1378275393603
 21
-63.33158285314641
 31
0.0
 11
263.3668740303153
 21
-63.33158285314642
 31
0.0
 11
263.6057367994541
 21
-63.33158285314642
 31
0.0
 11
263.844599568593
 21
-63.33158285314642
 31
0.0
 11
264.073646059548
 21
-63.33158285314641
 31
0.0
 11
264.2830599941354
 21
-63.33158285314641
 31
0.0
 11
264.4630250941716
 21
-63.33158285314643
 31
0.0
 11
264.6037250814725
 21
-63.33158285314643
 31
0.0
 11
264.6953436778545
 21
-63.33158285314642
 31
0.0
 11
264.7280646051338
 21
-63.33158285314642
 31
0.0
 11
264.7280646051338
 21
-63.35833608664667
 31
0.0
 11
264.7280646051338
 21
-63.41719320034723
 31
0.0
 11
264.7280646051338
 21
-63.47605031404779
 31
0.0
 11
264.7280646051338
 21
-63.50280354754804
 31
0.0
 11
264.6980933884307
 21
-63.50280354754804
 31
0.0
 11
264.6159142458575
 21
-63.50280354754804
 31
0.0
 11
264.4931289387188
 21
-63.50280354754804
 31
0.0
 11
264.3413392283191
 21
-63.50280354754804
 31
0.0
 11
264.1721468759626
 21
-63.50280354754805
 31
0.0
 11
263.9971536429539
 21
-63.50280354754805
 31
0.0
 11
263.8279612905976
 21
-63.50280354754804
 31
0.0
 11
263.6761715801977
 21
-63.50280354754804
 31
0.0
 11
263.5533862730591
 21
-63.50280354754804
 31
0.0
 11
263.4712071304859
 21
-63.50280354754804
 31
0.0
 11
263.4412359137828
 21
-63.50280354754804
 31
0.0
 11
263.4572564342074
 21
-63.50814372115783
 31
0.0
 11
263.473276954632
 21
-63.51348389476762
 31
0.0
 11
263.4512360610969
 21
-63.53421840865134
 31
0.0
 11
263.4091066784912
 21
-63.54294083920466
 31
0.0
 11
263.3171440470927
 21
-63.7407070814392
 31
0.0
 11
263.2085283451312
 21
-63.95512443478068
 31
0.0
 11
263.0933705754355
 21
-64.16357396404956
 31
0.0
 11
263.4663571604568
 21
-64.15397514203548
 31
0.0
 11
263.8636904965699
 21
-64.14198723051581
 31
0.0
 11
264.2705547120694
 21
-64.12877243628044
 31
0.0
 11
264.0789324426527
 21
-63.92013194154097
 31
0.0
 11
263.8772956943246
 21
-63.72750535304745
 31
0.0
 11
263.9011152724297
 21
-63.71454628187012
 31
0.0
 11
263.953518344261
 21
-63.68603632528001
 31
0.0
 11
264.0059214160923
 21
-63.65752636868989
 31
0.0
 11
264.0297409941974
 21
-63.64456729751257
 31
0.0
 11
264.2193306488176
 21
-63.81900447086309
 31
0.0
 11
264.4006515869984
 21
-64.00674109082485
 31
0.0
 11
264.5583934160696
 21
-64.1919757446414
 31
0.0
 11
264.6772457433607
 21
-64.35890701955627
 31
0.0
 11
264.6521613147472
 21
-64.37478753170507
 31
0.0
 11
264.5969755717974
 21
-64.40972465843244
 31
0.0
 11
264.5417898288477
 21
-64.44466178515981
 31
0.0
 11
264.5167054002342
 21
-64.4605422973086
 31
0.0
 11
264.4581723081161
 21
-64.37092130774766
 31
0.0
 11
264.3856220008006
 21
-64.27329667235544
 31
0.0
 11
263.9931617853644
 21
-64.29343668512819
 31
0.0
 11
263.6055678999109
 21
-64.31176652456803
 31
0.0
 11
263.2373583905762
 21
-64.32777776734181
 31
0.0
 11
262.9030513034961
 21
-64.3409619901163
 31
0.0
 11
262.6171646848067
 21
-64.35081076955827
 31
0.0
 11
262.6018067251289
 21
-64.37759431989882
 31
0.0
 11
262.5743639220095
 21
-64.38836396399331
 31
0.0
 11
262.5674132121869
 21
-64.36609656011
 31
0.0
 11
262.5508384426098
 21
-64.31299736623438
 31
0.0
 11
262.5310556531145
 21
-64.24962090902801
 31
0.0
 11
262.5144808835374
 21
-64.19652171515239
 31
0.0
 11
262.5075301737147
 21
-64.17425431126907
 31
0.0
 11
262.6897404788701
 21
-64.17228316543624
 31
0.0
 11
262.8981180778137
 21
-64.16623743627105
 31
0.0
 11
263.0109408056765
 21
-63.95496405155023
 31
0.0
 11
263.1214141651583
 21
-63.72470142300698
 31
0.0
 11
263.2164459195176
 21
-63.50280354754804
 31
0.0
 11
263.1849482391145
 21
-63.50280354754804
 31
0.0
 11
263.1019088998702
 21
-63.50280354754804
 31
0.0
 11
262.9845084547317
 21
-63.50280354754804
 31
0.0
 11
262.8499274566461
 21
-63.50280354754804
 31
0.0
 11
262.7153464585604
 21
-63.50280354754804
 31
0.0
 11
262.5979460134218
 21
-63.50280354754804
 31
0.0
 11
262.5149066741775
 21
-63.50280354754804
 31
0.0
 11
262.4834089937745
 21
-63.50280354754804
 31
0.0
  0
SPLINE
  5
A6
102
{ACAD_REACTORS
330
C3
102
}
330
48
100
AcDbEntity
  8
_U_30EC_U_30A4_U_30E4_U_30FC_1
  6
Continuous
 62
     2
100
AcDbSpline
210
0.0
220
0.0
230
1.0
 70
    11
 71
     3
 72
    35
 73
    31
 74
    29
 42
0.000000001
 43
0.0000000001
 44
0.00000001
 40
0.0
 40
0.0
 40
0.0
 40
0.0
 40
0.0335231036621593
 40
0.0713218571711865
 40
0.4278866681486764
 40
0.8116865841963286
 40
1.198190238000016
 40
1.561379546812598
 40
1.659983174621876
 40
1.759315573806991
 40
2.132719617230924
 40
2.525233363588695
 40
2.910815397779594
 40
3.265244364303113
 40
3.592606723581834
 40
3.964386154603809
 40
4.359942131737673
 40
4.758154118639161
 40
4.843846538699783
 40
4.93665006554312
 40
5.256616602537225
 40
5.581707404415886
 40
5.899719158308001
 40
6.198363494280613
 40
6.466301046615682
 40
6.493895311537004
 40
6.559697020196796
 40
6.638234543442372
 40
6.704036252154153
 40
6.731630508422959
 40
6.731630508422959
 40
6.731630508422959
 40
6.731630508422959
 10
263.7542215498218
 20
-61.97516111737443
 30
0.0
 10
263.7482211027338
 20
-61.98499264914254
 30
0.0
 10
263.7354549028704
 20
-62.00590966876774
 30
0.0
 10
263.5755566936107
 20
-62.03852828923907
 30
0.0
 10
264.0128230771883
 20
-62.32773275119865
 30
0.0
 10
264.215159975781
 20
-62.52938817098142
 30
0.0
 10
264.4625769197521
 20
-62.77230567853302
 30
0.0
 10
264.9637718554153
 20
-62.84932292698788
 30
0.0
 10
264.7931767128519
 20
-62.99103016281927
 30
0.0
 10
264.718950439275
 20
-63.19269589247467
 30
0.0
 10
264.3937637177738
 20
-62.84023668281854
 30
0.0
 10
264.1083946600212
 20
-62.67804742897012
 30
0.0
 10
263.8143809007207
 20
-62.47292825403535
 30
0.0
 10
263.5890657620684
 20
-61.99152466861121
 30
0.0
 10
263.379928998507
 20
-62.45636908847355
 30
0.0
 10
263.1014078604384
 20
-62.66629003203666
 30
0.0
 10
262.8177588106757
 20
-62.83555499096589
 30
0.0
 10
262.488484445738
 20
-63.20837594548635
 30
0.0
 10
262.4083217247773
 20
-63.01271940997575
 30
0.0
 10
262.2565929839293
 20
-62.88488851265984
 30
0.0
 10
262.6889600756343
 20
-62.80525923690644
 30
0.0
 10
262.8768770259313
 20
-62.609533205411
 30
0.0
 10
263.127468235005
 20
-62.39346958539824
 30
0.0
 10
263.3520555399709
 20
-62.22788963156518
 30
0.0
 10
263.4065980339261
 20
-61.94845990819749
 30
0.0
 10
263.530086595856
 20
-61.96242005048499
 30
0.0
 10
263.5866478274069
 20
-61.9645868658893
 30
0.0
 10
263.6568075914493
 20
-61.96933095575217
 30
0.0
 10
263.7139618951655
 20
-61.97270526106037
 30
0.0
 10
263.7450395250387
 20
-61.97460100745457
 30
0.0
 10
263.7542215498218
 20
-61.97516111737443
 30
0.0
 11
263.7542215498218
 21
-61.97516111737443
 31
0.0
 11
263.7331523999432
 21
-62.00123580486792
 31
0.0
 11
263.6980669488974
 21
-62.01529840903106
 31
0.0
 11
263.9318579698643
 21
-62.28451994325194
 31
0.0
 11
264.2220790887114
 21
-62.53566547487316
 31
0.0
 11
264.5419002413232
 21
-62.75268967837793
 31
0.0
 11
264.8644913635837
 21
-62.9195472282494
 31
0.0
 11
264.8019504797625
 21
-62.99577919871649
 31
0.0
 11
264.7494240748524
 21
-63.08008757543152
 31
0.0
 11
264.4242484025363
 21
-62.89653550624997
 31
0.0
 11
264.1043432697984
 21
-62.66909815713149
 31
0.0
 11
263.8160405088156
 21
-62.41306100333266
 31
0.0
 11
263.5856719517644
 21
-62.14370952011009
 31
0.0
 11
263.3801736649065
 21
-62.39853606735539
 31
0.0
 11
263.1094506271085
 21
-62.6533477317882
 31
0.0
 11
262.7925743352795
 21
-62.8901048910172
 31
0.0
 11
262.448616286329
 21
-63.0907679226511
 31
0.0
 11
262.4025060270886
 21
-63.01853887753023
 31
0.0
 11
262.3443175389897
 21
-62.9462436865761
 31
0.0
 11
262.6239245418564
 21
-62.79068498494832
 31
0.0
 11
262.8899209550702
 21
-62.60378945666172
 31
0.0
 11
263.1306202389295
 21
-62.39595459171369
 31
0.0
 11
263.3343358537322
 21
-62.17757788010161
 31
0.0
 11
263.4893812597767
 21
-61.9590568118229
 31
0.0
 11
263.5169246499414
 21
-61.96073165960026
 31
0.0
 11
263.5826050418726
 21
-61.96472552737703
 31
0.0
 11
263.6609977677259
 21
-61.96949240182029
 31
0.0
 11
263.7266781596571
 21
-61.97348626959707
 31
0.0
 11
263.7542215498218
 21
-61.97516111737443
 31
0.0
  0
SPLINE
  5
A7
102
{ACAD_REACTORS
330
C4
102
}
330
48
100
AcDbEntity
  8
_U_30EC_U_30A4_U_30E4_U_30FC_1
  6
Continuous
 62
     2
100
AcDbSpline
210
0.0
220
0.0
230
1.0
 70
    11
 71
     3
 72
    15
 73
    11
 74
     9
 42
0.000000001
 43
0.0000000001
 44
0.00000001
 40
0.0
 40
0.0
 40
0.0
 40
0.0
 40
0.2785535985096054
 40
0.5215624748198782
 40
0.6076917376040185
 40
0.6938210001740943
 40
0.9405019146455147
 40
1.221691403489071
 40
1.300471877080952
 40
1.379252341684717
 40
1.379252341684717
 40
1.379252341684717
 40
1.379252341684717
 10
261.3487698560548
 20
-61.98049688126196
 30
0.0
 10
261.4102222723726
 20
-62.03288308863862
 30
0.0
 10
261.5252854903662
 20
-62.13097078658359
 30
0.0
 10
261.8203553426792
 20
-62.28090169559351
 30
0.0
 10
261.6831352561405
 20
-62.36636727941563
 30
0.0
 10
261.5847432773328
 20
-62.49894170255023
 30
0.0
 10
261.4936238520198
 20
-62.19362969675162
 30
0.0
 10
261.1443044410205
 20
-62.13012085991205
 30
0.0
 10
261.2925463306119
 20
-62.03083445575697
 30
0.0
 10
261.3300286803785
 20
-61.99727607054194
 30
0.0
 10
261.3487698560548
 20
-61.98049688126196
 30
0.0
 11
261.3487698560548
 21
-61.98049688126196
 31
0.0
 11
261.5725427370144
 21
-62.14638181177604
 31
0.0
 11
261.7501251235932
 21
-62.31226674229012
 31
0.0
 11
261.6872513057528
 21
-62.37113212421984
 31
0.0
 11
261.6243774879124
 21
-62.42999750614956
 31
0.0
 11
261.4494740047273
 21
-62.25604278397086
 31
0.0
 11
261.2284461785689
 21
-62.08222035345875
 31
0.0
 11
261.2886080173118
 21
-62.03135861736035
 31
0.0
 11
261.3487698560548
 21
-61.98049688126196
 31
0.0
  0
SPLINE
  5
A8
102
{ACAD_REACTORS
330
C5
102
}
330
48
100
AcDbEntity
  8
_U_30EC_U_30A4_U_30E4_U_30FC_1
  6
Continuous
 62
     2
100
AcDbSpline
210
0.0
220
0.0
230
1.0
 70
    11
 71
     3
 72
    75
 73
    71
 74
    69
 42
0.000000001
 43
0.0000000001
 44
0.00000001
 40
0.0
 40
0.0
 40
0.0
 40
0.0
 40
0.0342546099129638
 40
0.1245622414432364
 40
0.2522385480897572
 40
0.3985991922940644
 40
0.5449598364980803
 40
0.6726361431438763
 40
0.7629437746737013
 40
0.7971983935297973
 40
1.101723623449661
 40
1.408591244036692
 40
1.433332471690397
 40
1.487763172450181
 40
1.542193873082001
 40
1.566935100592555
 40
1.92352393182187
 40
2.271755704953669
 40
2.59057975510094
 40
2.858943305581056
 40
2.889120339309097
 40
2.918305855191042
 40
2.941366645531187
 40
2.996357760973078
 40
3.061992318140607
 40
3.116983433626777
 40
3.140044223997471
 40
3.411273122936307
 40
3.732441619741028
 40
3.761068217532728
 40
3.837787499630291
 40
3.948858699125932
 40
4.080541049104315
 40
4.219093782625702
 40
4.350776132722249
 40
4.461847332405593
 40
4.53856661467832
 40
4.567193212544563
 40
4.594907573998849
 40
4.666381453557332
 40
4.764111044010971
 40
4.870592538125774
 40
4.968322128642281
 40
5.039796008286938
 40
5.067510369784369
 40
5.094263603185585
 40
5.153120716668216
 40
5.211977830150669
 40
5.238731063551665
 40
5.272290535138904
 40
5.363380529444736
 40
5.497618415781414
 40
5.660621563453628
 40
5.838007341749357
 40
6.015393119910652
 40
6.178396267038362
 40
6.312634151842257
 40
6.403724143059275
 40
6.437283612672399
 40
6.46403684626102
 40
6.522893960004634
 40
6.581751071483897
 40
6.608504301590845
 40
6.637253941280992
 40
6.711397748902844
 40
6.812778057283456
 40
6.923237199249147
 40
7.024617507623848
 40
7.098761315207444
 40
7.127510946007451
 40
7.127510946007451
 40
7.127510946007451
 40
7.127510946007451
 10
260.2224827320113
 20
-63.25130826983312
 30
0.0
 10
260.2224827749255
 20
-63.26272642047854
 30
0.0
 10
260.2224829410677
 20
-63.30424697613951
 30
0.0
 10
260.2224798011336
 20
-63.38833033452801
 30
0.0
 10
260.222499320935
 20
-63.5097545813425
 30
0.0
 10
260.2224117117286
 20
-63.64999461409127
 30
0.0
 10
260.222732116478
 20
-63.78973398662
 30
0.0
 10
260.2217810839289
 20
-63.91234916561646
 30
0.0
 10
260.2238183525516
 20
-63.99392881018534
 30
0.0
 10
260.2155638108297
 20
-64.14708688378879
 30
0.0
 10
260.523700287045
 20
-63.98419719401851
 30
0.0
 10
260.8156850103284
 20
-63.81497016768577
 30
0.0
 10
260.8214559378258
 20
-63.95006719674664
 30
0.0
 10
260.826167664944
 20
-63.99362734296134
 30
0.0
 10
260.8288740341465
 20
-64.03768706106031
 30
0.0
 10
260.847875060251
 20
-64.18707365093438
 30
0.0
 10
260.4390147176849
 20
-64.12298783215319
 30
0.0
 10
260.159991527838
 20
-64.23683614045558
 30
0.0
 10
259.8824286516715
 20
-64.33615859645435
 30
0.0
 10
259.590604211395
 20
-64.2934926786022
 30
0.0
 10
259.5675349608207
 20
-64.39658275712037
 30
0.0
 10
259.5343679312882
 20
-64.42288864212105
 30
0.0
 10
259.5286858892286
 20
-64.37524646420276
 30
0.0
 10
259.5090419488594
 20
-64.33799619341504
 30
0.0
 10
259.4901294415171
 20
-64.27972567609017
 30
0.0
 10
259.4749054797257
 20
-64.2359475444877
 30
0.0
 10
259.4283451302483
 20
-64.12220534410272
 30
0.0
 10
259.7697102242001
 20
-64.15403654336527
 30
0.0
 10
260.0485854296932
 20
-64.188185203501
 30
0.0
 10
260.0423957964457
 20
-64.04065978976925
 30
0.0
 10
260.0437140382322
 20
-63.96966804547746
 30
0.0
 10
260.0431036619498
 20
-63.86260187497916
 30
0.0
 10
260.0432076500274
 20
-63.73581425670579
 30
0.0
 10
260.0436192893604
 20
-63.60130711960527
 30
0.0
 10
260.0420112771518
 20
-63.47584405505391
 30
0.0
 10
260.0466107497474
 20
-63.36474708737459
 30
0.0
 10
260.0370391431759
 20
-63.30218068655886
 30
0.0
 10
260.051020671324
 20
-63.24384567161575
 30
0.0
 10
259.9953589316254
 20
-63.25690244874337
 30
0.0
 10
259.938186012737
 20
-63.24843647707078
 30
0.0
 10
259.8422253855197
 20
-63.25249979375943
 30
0.0
 10
259.7439972452369
 20
-63.25009065604101
 30
0.0
 10
259.6478787387109
 20
-63.2542835484319
 30
0.0
 10
259.5910853455359
 20
-63.24550609015411
 30
0.0
 10
259.5356561802933
 20
-63.25885018606455
 30
0.0
 10
259.5476884357465
 20
-63.20943044497319
 30
0.0
 10
259.5398208103487
 20
-63.16585967426182
 30
0.0
 10
259.5472500493377
 20
-63.1214948633805
 30
0.0
 10
259.5358135493693
 20
-63.07077657692587
 30
0.0
 10
259.6038307299681
 20
-63.0881749469883
 30
0.0
 10
259.6774701809296
 20
-63.07562505219393
 30
0.0
 10
259.8131268987759
 20
-63.08180278445477
 30
0.0
 10
259.9691113954074
 20
-63.07950752363493
 30
0.0
 10
260.1422131287692
 20
-63.08038987194045
 30
0.0
 10
260.315314789373
 20
-63.07950748314168
 30
0.0
 10
260.4712994740765
 20
-63.08180292501027
 30
0.0
 10
260.6069556819346
 20
-63.07562469194144
 30
0.0
 10
260.6805961635201
 20
-63.08817561238242
 30
0.0
 10
260.7486119104273
 20
-63.07077582444433
 30
0.0
 10
260.737179581547
 20
-63.12149825042019
 30
0.0
 10
260.7445744387845
 20
-63.1658289464547
 30
0.0
 10
260.736824484182
 20
-63.2095164790638
 30
0.0
 10
260.7487408671425
 20
-63.25916365358099
 30
0.0
 10
260.6914375153166
 20
-63.24518544118149
 30
0.0
 10
260.6326350719321
 20
-63.25440199783322
 30
0.0
 10
260.5331498562749
 20
-63.25027687291647
 30
0.0
 10
260.4300485027898
 20
-63.2515719543069
 30
0.0
 10
260.3344051284123
 20
-63.25125878378935
 30
0.0
 10
260.2663672901166
 20
-63.2513117875943
 30
0.0
 10
260.2320667142992
 20
-63.25130903584919
 30
0.0
 10
260.2224827320113
 20
-63.25130826983312
 30
0.0
 11
260.2224827320113
 21
-63.25130826983312
 31
0.0
 11
260.2224827320113
 21
-63.28556288869391
 31
0.0
 11
260.2224827320113
 21
-63.37587052023601
 31
0.0
 11
260.2224827320113
 21
-63.50354682689897
 31
0.0
 11
260.2224827320113
 21
-63.64990747112236
 31
0.0
 11
260.2224827320113
 21
-63.79626811534575
 31
0.0
 11
260.2224827320113
 21
-63.92394442200871
 31
0.0
 11
260.2224827320113
 21
-64.01425205355082
 31
0.0
 11
260.2224827320113
 21
-64.0485066724116
 31
0.0
 11
260.5198137574116
 21
-63.98270479742808
 31
0.0
 11
260.8190828556794
 21
-63.91483917244504
 31
0.0
 11
260.8211692054526
 21
-63.93949227573749
 31
0.0
 11
260.8257591749535
 21
-63.99372910298086
 31
0.0
 11
260.8303491444544
 21
-64.04796593022424
 31
0.0
 11
260.8324354942276
 21
-64.07261903351669
 31
0.0
 11
260.4862601818788
 21
-64.15816585315679
 31
0.0
 11
260.1475858068386
 21
-64.23919077826675
 31
0.0
 11
259.8369936446236
 21
-64.31117191431647
 31
0.0
 11
259.5750649707504
 21
-64.36958736677585
 31
0.0
 11
259.5623719958841
 21
-64.39696512718564
 31
0.0
 11
259.5375999717062
 21
-64.41239695009841
 31
0.0
 11
259.529807251905
 21
-64.3906927206594
 31
0.0
 11
259.511224612379
 21
-64.3389364812279
 31
0.0
 11
259.4890453329448
 21
-64.27716290513226
 31
0.0
 11
259.4704626934189
 21
-64.22540666570076
 31
0.0
 11
259.4626699736177
 21
-64.20370243626175
 31
0.0
 11
259.728898126548
 21
-64.15185953696911
 31
0.0
 11
260.0432539865838
 21
-64.08605986684667
 31
0.0
 11
260.0432539865838
 21
-64.05743326886953
 31
0.0
 11
260.0432539865838
 21
-63.98071398629077
 31
0.0
 11
260.0432539865838
 21
-63.86964278613945
 31
0.0
 11
260.0432539865838
 21
-63.73796043544458
 31
0.0
 11
260.0432539865837
 21
-63.5994077012352
 31
0.0
 11
260.0432539865838
 21
-63.46772535054033
 31
0.0
 11
260.0432539865838
 21
-63.35665415038901
 31
0.0
 11
260.0432539865838
 21
-63.27993486781026
 31
0.0
 11
260.0432539865838
 21
-63.25130826983312
 31
0.0
 11
260.0155396250657
 21
-63.25130826983311
 31
0.0
 11
259.9440657453612
 21
-63.25130826983312
 31
0.0
 11
259.8463361547449
 21
-63.25130826983312
 31
0.0
 11
259.7398546604913
 21
-63.25130826983312
 31
0.0
 11
259.6421250698749
 21
-63.25130826983312
 31
0.0
 11
259.5706511901705
 21
-63.25130826983311
 31
0.0
 11
259.5429368286524
 21
-63.25130826983312
 31
0.0
 11
259.5429368286524
 21
-63.22455503633287
 31
0.0
 11
259.5429368286524
 21
-63.16569792263232
 31
0.0
 11
259.5429368286524
 21
-63.10684080893176
 31
0.0
 11
259.5429368286524
 21
-63.08008757543152
 31
0.0
 11
259.5764963002424
 21
-63.08008757543152
 31
0.0
 11
259.667586294558
 21
-63.08008757543152
 31
0.0
 11
259.8018241809178
 21
-63.08008757543153
 31
0.0
 11
259.9648273286405
 21
-63.08008757543153
 31
0.0
 11
260.1422131070445
 21
-63.08008757543152
 31
0.0
 11
260.3195988854486
 21
-63.08008757543152
 31
0.0
 11
260.4826020331713
 21
-63.08008757543152
 31
0.0
 11
260.6168399195311
 21
-63.08008757543152
 31
0.0
 11
260.7079299138467
 21
-63.08008757543152
 31
0.0
 11
260.7414893854367
 21
-63.08008757543152
 31
0.0
 11
260.7414893854367
 21
-63.10684080893177
 31
0.0
 11
260.7414893854367
 21
-63.16569792263232
 31
0.0
 11
260.7414893854367
 21
-63.22455503633287
 31
0.0
 11
260.7414893854367
 21
-63.25130826983312
 31
0.0
 11
260.7127397457426
 21
-63.25130826983311
 31
0.0
 11
260.6385959381104
 21
-63.25130826983312
 31
0.0
 11
260.5372156297153
 21
-63.25130826983312
 31
0.0
 11
260.4267564877327
 21
-63.25130826983312
 31
0.0
 11
260.3253761793376
 21
-63.25130826983312
 31
0.0
 11
260.2512323717054
 21
-63.25130826983311
 31
0.0
 11
260.2224827320113
 21
-63.25130826983312
 31
0.0
  0
SPLINE
  5
A9
102
{ACAD_REACTORS
330
C6
102
}
330
48
100
AcDbEntity
  8
_U_30EC_U_30A4_U_30E4_U_30FC_1
  6
Continuous
 62
     2
100
AcDbSpline
210
0.0
220
0.0
230
1.0
 70
    11
 71
     3
 72
    91
 73
    87
 74
    85
 42
0.000000001
 43
0.0000000001
 44
0.00000001
 40
0.0
 40
0.0
 40
0.0
 40
0.0
 40
0.034598705169515
 40
0.1258134969461938
 40
0.2547723404888987
 40
0.4026032099154693
 40
0.5504340793417557
 40
0.6793929228837217
 40
0.7706077146572741
 40
0.8052064287782061
 40
1.124852390615384
 40
1.427402236308979
 40
1.70635662745364
 40
1.955541417875314
 40
2.169485938566471
 40
2.344350786664906
 40
2.480568411562112
 40
2.590440557429109
 40
2.649189927151281
 40
2.749320643306473
 40
2.912632739880186
 40
3.147745656000374
 40
3.244827496385228
 40
3.338490056946762
 40
3.583815413207193
 40
3.761423943238552
 40
3.88695610436271
 40
3.985855451886855
 40
4.091766255337681
 40
4.250186473811872
 40
4.422734315084556
 40
4.62828568483863
 40
4.872093227758471
 40
5.152549652145589
 40
5.464967135837571
 40
5.803201477852488
 40
6.160362988813954
 40
6.193449448276038
 40
6.284170385501664
 40
6.419718138764591
 40
6.587285046385755
 40
6.77406344672367
 40
6.967245678113652
 40
7.154024078817695
 40
7.321590987026052
 40
7.457138740890439
 40
7.547859678556204
 40
7.580946138182679
 40
7.608533084714733
 40
7.669224367077707
 40
7.729915649429923
 40
7.757502595949983
 40
7.790278062553352
 40
7.880146277430935
 40
8.014419963180341
 40
8.18041184239787
 40
8.36543463767931
 40
8.556801071622669
 40
8.741823866830725
 40
8.90781574591632
 40
9.042089431507417
 40
9.131957646249543
 40
9.164733112797148
 40
9.415425063140072
 40
9.66798618095855
 40
9.694169807462718
 40
9.756607686047676
 40
9.831130315322511
 40
9.893568193900032
 40
9.919751820398792
 40
9.950967964690612
 40
9.99642163121072
 40
10.22087981037461
 40
10.4434186619755
 40
10.47847970788866
 40
10.57091337438766
 40
10.70159545461241
 40
10.85140174170369
 40
11.00120802880486
 40
11.13189010907388
 40
11.22432377583016
 40
11.2593848093896
 40
11.28697175596148
 40
11.34766303835922
 40
11.40835432042073
 40
11.43594125892108
 40
11.43594125892108
 40
11.43594125892108
 40
11.43594125892108
 10
261.8624319262838
 20
-62.657371603315
 30
0.0
 10
261.850899077449
 20
-62.65737165168661
 30
0.0
 10
261.8089614374547
 20
-62.65737181752414
 30
0.0
 10
261.7240334648575
 20
-62.6573682965567
 30
0.0
 10
261.6013893482678
 20
-62.65739029020697
 30
0.0
 10
261.4597411846541
 20
-62.65729154279522
 30
0.0
 10
261.3185958628038
 20
-62.65765269224157
 30
0.0
 10
261.1947556247451
 20
-62.65658071847489
 30
0.0
 10
261.1123422754929
 20
-62.65887706365308
 30
0.0
 10
260.9533996159242
 20
-62.64931386083163
 30
0.0
 10
261.1309607282923
 20
-63.01194561145205
 30
0.0
 10
261.1185944135001
 20
-63.25736827733463
 30
0.0
 10
261.1870724403413
 20
-63.54117454131738
 30
0.0
 10
261.2499229250519
 20
-63.77728955517545
 30
0.0
 10
261.3258458361277
 20
-63.97653215060443
 30
0.0
 10
261.4109394506565
 20
-64.13234608005209
 30
0.0
 10
261.5050812522485
 20
-64.2332209767518
 30
0.0
 10
261.6088853137276
 20
-64.28514102817608
 30
0.0
 10
261.6932076960323
 20
-64.23373471076964
 30
0.0
 10
261.7157527109002
 20
-64.1183541141906
 30
0.0
 10
261.7551935904919
 20
-63.99094805754197
 30
0.0
 10
261.7009124664493
 20
-63.67357627369822
 30
0.0
 10
261.825742300202
 20
-63.8199777531567
 30
0.0
 10
261.9825496443152
 20
-63.85184655125412
 30
0.0
 10
261.8753924936603
 20
-64.08558597688948
 30
0.0
 10
261.8614916139417
 20
-64.25007178872923
 30
0.0
 10
261.8040914396773
 20
-64.3784908633409
 30
0.0
 10
261.7141225074556
 20
-64.4496115310375
 30
0.0
 10
261.5901479587427
 20
-64.46547631314321
 30
0.0
 10
261.4440478126409
 20
-64.42986157902402
 30
0.0
 10
261.3050099249832
 20
-64.30979384956304
 30
0.0
 10
261.1908208891694
 20
-64.13544272906253
 30
0.0
 10
261.0952346231034
 20
-63.91033352345336
 30
0.0
 10
261.0124857502175
 20
-63.64591709450136
 30
0.0
 10
260.9613384185959
 20
-63.32792022358031
 30
0.0
 10
260.8576394136887
 20
-63.05436226967666
 30
0.0
 10
260.9849046138067
 20
-62.64974136843711
 30
0.0
 10
260.8164095552568
 20
-62.65867587606898
 30
0.0
 10
260.7318200716626
 20
-62.65663994038215
 30
0.0
 10
260.5996081317176
 20
-62.65766018068169
 30
0.0
 10
260.4366710023652
 20
-62.65726725138148
 30
0.0
 10
260.2539964100082
 20
-62.65744259143207
 30
0.0
 10
260.0653262302932
 20
-62.6571985014911
 30
0.0
 10
259.8820673949738
 20
-62.6579429755034
 30
0.0
 10
259.7210951762268
 20
-62.65563594934153
 30
0.0
 10
259.5836013264824
 20
-62.66180150572914
 30
0.0
 10
259.5095795301859
 20
-62.64947116998368
 30
0.0
 10
259.4419420116405
 20
-62.66650631733016
 30
0.0
 10
259.4538578648819
 20
-62.61455517009051
 30
0.0
 10
259.4461882215243
 20
-62.56908530490048
 30
0.0
 10
259.4538797154664
 20
-62.52365501752872
 30
0.0
 10
259.441934672731
 20
-62.47177559472009
 30
0.0
 10
259.5089793235416
 20
-62.48860811966313
 30
0.0
 10
259.5823580595224
 20
-62.47644546363903
 30
0.0
 10
259.7185333234821
 20
-62.4825272438162
 30
0.0
 10
259.878001673106
 20
-62.48025121141517
 30
0.0
 10
260.0595378015384
 20
-62.48098721457613
 30
0.0
 10
260.2464239791728
 20
-62.48074001260444
 30
0.0
 10
260.4274217246385
 20
-62.48093554657321
 30
0.0
 10
260.5887007508427
 20
-62.48047720741739
 30
0.0
 10
260.7200087054435
 20
-62.48167281705371
 30
0.0
 10
260.8031256252145
 20
-62.47928608136834
 30
0.0
 10
260.9362441477363
 20
-62.48749349731115
 30
0.0
 10
260.8452098432206
 20
-62.2322708650392
 30
0.0
 10
260.759583800397
 20
-61.96815597128327
 30
0.0
 10
260.8796793933003
 20
-61.9807551248741
 30
0.0
 10
260.9320469878093
 20
-61.98285719693504
 30
0.0
 10
261.0020702499264
 20
-61.98444555566917
 30
0.0
 10
261.0478127267367
 20
-61.99377387918464
 30
0.0
 10
261.1027017576482
 20
-61.98433988541152
 30
0.0
 10
261.076977971523
 20
-62.03246926801403
 30
0.0
 10
260.9631602501002
 20
-62.02713125712408
 30
0.0
 10
261.0965551550684
 20
-62.25530780879799
 30
0.0
 10
260.974986366502
 20
-62.48823098860653
 30
0.0
 10
261.1029393698962
 20
-62.47892696572139
 30
0.0
 10
261.185525333601
 20
-62.48178953701895
 30
0.0
 10
261.3113419780374
 20
-62.48056518044275
 30
0.0
 10
261.4547674767607
 20
-62.48047523567612
 30
0.0
 10
261.5963625881278
 20
-62.48233792272723
 30
0.0
 10
261.7265332179516
 20
-62.47646879519415
 30
0.0
 10
261.7999657215739
 20
-62.48909614633371
 30
0.0
 10
261.8697317851644
 20
-62.47102392346165
 30
0.0
 10
261.8581977534946
 20
-62.52367104910252
 30
0.0
 10
261.8639389276232
 20
-62.5675863777003
 30
0.0
 10
261.8622820700459
 20
-62.61889972780028
 30
0.0
 10
261.8623962491219
 20
-62.64821163434943
 30
0.0
 10
261.8624319262838
 20
-62.657371603315
 30
0.0
 11
261.8624319262838
 21
-62.657371603315
 31
0.0
 11
261.82783321216
 21
-62.65737160331501
 31
0.0
 11
261.736618420379
 21
-62.657371603315
 31
0.0
 11
261.6076595768266
 21
-62.657371603315
 31
0.0
 11
261.4598287073884
 21
-62.657371603315
 31
0.0
 11
261.3119978379502
 21
-62.657371603315
 31
0.0
 11
261.1830389943978
 21
-62.657371603315
 31
0.0
 11
261.0918242026168
 21
-62.657371603315
 31
0.0
 11
261.057225488493
 21
-62.657371603315
 31
0.0
 11
261.0889345427241
 21
-62.97544090526455
 31
0.0
 11
261.1334071586413
 21
-63.27470432668495
 31
0.0
 11
261.1898594047868
 21
-63.54788685944001
 31
0.0
 11
261.2575073497027
 21
-63.78771349539349
 31
0.0
 11
261.335567061931
 21
-63.98690922640922
 31
0.0
 11
261.423254610014
 21
-64.13819904435098
 31
0.0
 11
261.5197860624938
 21
-64.23430794108259
 31
0.0
 11
261.6243774879124
 21
-64.26796090846784
 31
0.0
 11
261.6749282232335
 21
-64.23802578477742
 31
0.0
 11
261.7116793921101
 21
-64.14488335641529
 31
0.0
 11
261.7368845907076
 21
-63.98352803744522
 31
0.0
 11
261.7527974151917
 21
-63.74895424193095
 31
0.0
 11
261.8300287612132
 21
-63.8077777314996
 31
0.0
 11
261.9133389113933
 21
-63.85058070023887
 31
0.0
 11
261.8872570740765
 21
-64.09451566795568
 31
0.0
 11
261.8479522734654
 21
-64.26772052569015
 31
0.0
 11
261.7911907526313
 21
-64.37968683010659
 31
0.0
 11
261.7127387546458
 21
-64.43990613786931
 31
0.0
 11
261.6083625225805
 21
-64.45787000564259
 31
0.0
 11
261.4544799994646
 21
-64.42022515444215
 31
0.0
 11
261.3195107306296
 21
-64.31272606579174
 31
0.0
 11
261.2027944845711
 21
-64.14352593711767
 31
0.0
 11
261.1036710297848
 21
-63.92077796584633
 31
0.0
 11
261.0214801347661
 21
-63.65263534940405
 31
0.0
 11
260.9555615680108
 21
-63.34725128521716
 31
0.0
 11
260.9052550980142
 21
-63.01277897071203
 31
0.0
 11
260.869900493272
 21
-62.657371603315
 31
0.0
 11
260.8368140335392
 21
-62.657371603315
 31
0.0
 11
260.7460930955623
 21
-62.657371603315
 31
0.0
 11
260.6105453411733
 21
-62.65737160331499
 31
0.0
 11
260.4429784322044
 21
-62.65737160331499
 31
0.0
 11
260.2562000304873
 21
-62.65737160331499
 31
0.0
 11
260.0630177978541
 21
-62.65737160331499
 31
0.0
 11
259.8762393961371
 21
-62.657371603315
 31
0.0
 11
259.708672487168
 21
-62.657371603315
 31
0.0
 11
259.573124732779
 21
-62.657371603315
 31
0.0
 11
259.4824037948021
 21
-62.657371603315
 31
0.0
 11
259.4493173350694
 21
-62.657371603315
 31
0.0
 11
259.4493173350694
 21
-62.62978465670731
 31
0.0
 11
259.4493173350694
 21
-62.56909337417039
 31
0.0
 11
259.4493173350694
 21
-62.50840209163349
 31
0.0
 11
259.4493173350694
 21
-62.48081514502579
 31
0.0
 11
259.482092801718
 21
-62.48081514502579
 31
0.0
 11
259.5719610167222
 21
-62.48081514502578
 31
0.0
 11
259.7062347026697
 21
-62.48081514502579
 31
0.0
 11
259.8722265821481
 21
-62.48081514502578
 31
0.0
 11
260.057249377745
 21
-62.48081514502579
 31
0.0
 11
260.2486158120481
 21
-62.48081514502579
 31
0.0
 11
260.433638607645
 21
-62.48081514502579
 31
0.0
 11
260.5996304871234
 21
-62.48081514502579
 31
0.0
 11
260.7339041730709
 21
-62.48081514502579
 31
0.0
 11
260.8237723880751
 21
-62.48081514502579
 31
0.0
 11
260.8565478547237
 21
-62.48081514502579
 31
0.0
 11
260.8465388879652
 21
-62.23032307911618
 31
0.0
 11
260.8405317440212
 21
-61.97783340904044
 31
0.0
 11
260.8666780800208
 21
-61.97923033848454
 31
0.0
 11
260.9290270350968
 21
-61.98256147792815
 31
0.0
 11
261.0034435298649
 21
-61.98653735403827
 31
0.0
 11
261.0657924849409
 21
-61.98986849348189
 31
0.0
 11
261.0919388209404
 21
-61.99126542292598
 31
0.0
 11
261.0789136042589
 21
-62.01963426840496
 31
0.0
 11
261.0357854195954
 21
-62.03398681180411
 31
0.0
 11
261.038119689137
 21
-62.25843285341467
 31
0.0
 11
261.0464657665452
 21
-62.48081514502579
 31
0.0
 11
261.0815268124715
 21
-62.48081514502579
 31
0.0
 11
261.1739604790044
 21
-62.48081514502579
 31
0.0
 11
261.304642559275
 21
-62.48081514502578
 31
0.0
 11
261.4544488464146
 21
-62.48081514502579
 31
0.0
 11
261.604255133554
 21
-62.48081514502579
 31
0.0
 11
261.7349372138247
 21
-62.48081514502579
 31
0.0
 11
261.8273708803575
 21
-62.48081514502579
 31
0.0
 11
261.8624319262838
 21
-62.48081514502579
 31
0.0
 11
261.8624319262838
 21
-62.50840209163348
 31
0.0
 11
261.8624319262838
 21
-62.56909337417039
 31
0.0
 11
261.8624319262838
 21
-62.62978465670731
 31
0.0
 11
261.8624319262838
 21
-62.657371603315
 31
0.0
  0
SPLINE
  5
AA
102
{ACAD_REACTORS
330
C7
102
}
330
48
100
AcDbEntity
  8
_U_30EC_U_30A4_U_30E4_U_30FC_1
  6
Continuous
 62
     2
100
AcDbSpline
210
0.0
220
0.0
230
1.0
 70
    11
 71
     3
 72
   118
 73
   114
 74
   112
 42
0.000000001
 43
0.0000000001
 44
0.00000001
 40
0.0
 40
0.0
 40
0.0
 40
0.0
 40
0.1054708162973466
 40
0.2466098270051938
 40
0.396591287459147
 40
0.528552506975362
 40
0.6156245055642354
 40
0.6431434105797681
 40
0.7036850037986511
 40
0.7642265984504683
 40
0.7917455052355015
 40
0.9287404319990149
 40
1.106572819088052
 40
1.28754487968107
 40
1.317578308030589
 40
1.399928030857231
 40
1.522968204799986
 40
1.67507298659062
 40
1.844616533180704
 40
2.019973001638766
 40
2.189516548880084
 40
2.341621331585407
 40
2.464661506320545
 40
2.547011229647117
 40
2.577044658168083
 40
2.603797890893097
 40
2.662655002908841
 40
2.721512114949653
 40
2.748265347702804
 40
2.774215307344866
 40
2.845959313407198
 40
2.954338556588402
 40
3.09019422758559
 40
3.244367517100555
 40
3.407699615844314
 40
3.57103171453945
 40
3.725205003920129
 40
3.861060674729627
 40
3.969439917716328
 40
4.041183923628983
 40
4.067133883212987
 40
4.311886746012168
 40
4.547897258335553
 40
4.764747083044012
 40
4.952749679951759
 40
5.045772974195931
 40
5.137862019645061
 40
5.330543169793128
 40
5.553448265244127
 40
5.795083855888281
 40
6.043293412177372
 40
6.285761695541311
 40
6.313902908752794
 40
6.384255941793327
 40
6.475714884766916
 40
6.567173827759035
 40
6.637526860839699
 40
6.665668074074091
 40
6.692018920328067
 40
6.749990782071137
 40
6.807962643790503
 40
6.834313490017976
 40
6.856393084245283
 40
6.91333519564985
 40
6.991194817302542
 40
7.076026942283775
 40
7.153886563725294
 40
7.210828674844791
 40
7.232908268931183
 40
7.258199334923702
 40
7.324875781592354
 40
7.419142481925007
 40
7.527204308841959
 40
7.635266135230523
 40
7.729532834168516
 40
7.796209279292832
 40
7.821500344594781
 40
7.844652988850881
 40
7.899863140541659
 40
7.965759128053853
 40
8.020969279771165
 40
8.044121924046632
 40
8.069356610160703
 40
8.109134395441497
 40
8.132238100191213
 40
8.193147867786575
 40
8.279261678876747
 40
8.377977512673962
 40
8.47669334714676
 40
8.562807160411811
 40
8.623716930826593
 40
8.646820636853551
 40
8.671988793774364
 40
8.734909185828275
 40
8.816705695188904
 40
8.898502204815447
 40
8.96142259737788
 40
8.98659075455102
 40
9.012941600733182
 40
9.070913462380272
 40
9.128885324081761
 40
9.155236170325079
 40
9.180404327929093
 40
9.243324721948138
 40
9.325121234211874
 40
9.4069177466375
 40
9.469838141977927
 40
9.49500628827073
 40
9.517811184378871
 40
9.57219209048688
 40
9.637098333281095
 40
9.691479239515296
 40
9.714284125643331
 40
9.714284125643331
 40
9.714284125643331
 40
9.714284125643331
 10
257.0680673958202
 20
-62.94090792268857
 30
0.0
 10
257.0897195498586
 20
-62.96868086213765
 30
0.0
 10
257.1403462039024
 20
-63.0336190089534
 30
0.0
 10
257.215558813214
 20
-63.14088895143681
 30
0.0
 10
257.3054687203897
 20
-63.25602517189947
 30
0.0
 10
257.3515374606221
 20
-63.35622909708266
 30
0.0
 10
257.4462030224204
 20
-63.42545948641632
 30
0.0
 10
257.4010644249962
 20
-63.47208315778305
 30
0.0
 10
257.3753252715339
 20
-63.51319646590537
 30
0.0
 10
257.345140163756
 20
-63.54913983728638
 30
0.0
 10
257.2999889660112
 20
-63.62400172860485
 30
0.0
 10
257.2516709388109
 20
-63.40197431202973
 30
0.0
 10
257.1774744642623
 20
-63.36469278118864
 30
0.0
 10
257.0642252254153
 20
-63.09369753325976
 30
0.0
 10
257.0691338507719
 20
-63.20884627010348
 30
0.0
 10
257.0674691485854
 20
-63.28143279674948
 30
0.0
 10
257.0683035006264
 20
-63.40354366972589
 30
0.0
 10
257.0679814469813
 20
-63.55066154646116
 30
0.0
 10
257.0681281842005
 20
-63.71672891500019
 30
0.0
 10
257.067915502227
 20
-63.88792400847976
 30
0.0
 10
257.0685702181583
 20
-64.05427126821077
 30
0.0
 10
257.0665397390688
 20
-64.20044782400882
 30
0.0
 10
257.0719665329478
 20
-64.32508907981965
 30
0.0
 10
257.0611135798258
 20
-64.39261298915949
 30
0.0
 10
257.0762944085103
 20
-64.45430894039552
 30
0.0
 10
257.0264100037684
 20
-64.44252451559576
 30
0.0
 10
256.9823355272071
 20
-64.45036132676609
 30
0.0
 10
256.938857655975
 20
-64.44219514083875
 30
0.0
 10
256.8898551716038
 20
-64.45441898718107
 30
0.0
 10
256.9024936164373
 20
-64.40019288207264
 30
0.0
 10
256.8936387897999
 20
-64.34043036549019
 30
0.0
 10
256.8981263699862
 20
-64.23057926412207
 30
0.0
 10
256.8964165065539
 20
-64.09949980050898
 30
0.0
 10
256.8969755845537
 20
-63.9478194401225
 30
0.0
 10
256.8968133698241
 20
-63.78768880526623
 30
0.0
 10
256.8968474854223
 20
-63.6274308978201
 30
0.0
 10
256.8968719889675
 20
-63.47609707936137
 30
0.0
 10
256.8967658472774
 20
-63.34397799117976
 30
0.0
 10
256.8970504071481
 20
-63.23685152923386
 30
0.0
 10
256.8964880477116
 20
-63.17171335877102
 30
0.0
 10
256.8986970013238
 20
-63.04360997597904
 30
0.0
 10
256.8125640928151
 20
-63.41882345065004
 30
0.0
 10
256.7361345748049
 20
-63.57061762333183
 30
0.0
 10
256.646624569738
 20
-63.73213749010265
 30
0.0
 10
256.5446618146877
 20
-64.00508106636407
 30
0.0
 10
256.4994181420586
 20
-63.84262608860062
 30
0.0
 10
256.3908560871219
 20
-63.75374523398463
 30
0.0
 10
256.5801996681299
 20
-63.60430160495164
 30
0.0
 10
256.6371545475249
 20
-63.41230818481655
 30
0.0
 10
256.7523725922898
 20
-63.18080332549813
 30
0.0
 10
256.7746356559682
 20
-62.99182695697519
 30
0.0
 10
256.9578110081687
 20
-62.71525866130642
 30
0.0
 10
256.8344238527101
 20
-62.72280976624484
 30
0.0
 10
256.7731889096382
 20
-62.7212318309046
 30
0.0
 10
256.6888204546614
 20
-62.72097362882903
 30
0.0
 10
256.6010440015514
 20
-62.72435109705374
 30
0.0
 10
256.5462973625671
 20
-62.71585140474555
 30
0.0
 10
256.4910907955574
 20
-62.72931394406791
 30
0.0
 10
256.5029027965085
 20
-62.68048513329812
 30
0.0
 10
256.4948701081343
 20
-62.63710950559868
 30
0.0
 10
256.5034391034227
 20
-62.59470517147003
 30
0.0
 10
256.4909148338706
 20
-62.54712158904459
 30
0.0
 10
256.5361306468283
 20
-62.55712742461463
 30
0.0
 10
256.5821020492274
 20
-62.55085850282517
 30
0.0
 10
256.6583426977259
 20
-62.55386394050705
 30
0.0
 10
256.7367501061543
 20
-62.55209507178036
 30
0.0
 10
256.813019757848
 20
-62.55515161474917
 30
0.0
 10
256.8589214389024
 20
-62.54875984080398
 30
0.0
 10
256.9037938894948
 20
-62.55886132477683
 30
0.0
 10
256.8911757205184
 20
-62.50822753874678
 30
0.0
 10
256.8998141512254
 20
-62.45478693574509
 30
0.0
 10
256.8958566524992
 20
-62.36116700324894
 30
0.0
 10
256.8968529997883
 20
-62.25867348767652
 30
0.0
 10
256.8978132342622
 20
-62.15626685208415
 30
0.0
 10
256.8939416387555
 20
-62.06244025847258
 30
0.0
 10
256.9023994743912
 20
-62.00943412616221
 30
0.0
 10
256.8899280862383
 20
-61.95768519805389
 30
0.0
 10
256.9348311319399
 20
-61.97129208229823
 30
0.0
 10
256.9761288766321
 20
-61.96879475135994
 30
0.0
 10
257.0401549210599
 20
-61.97331894882088
 30
0.0
 10
257.0792316078335
 20
-61.9819895241327
 30
0.0
 10
257.1282748428291
 20
-61.9746485338589
 30
0.0
 10
257.1031284960141
 20
-62.01377059404822
 30
0.0
 10
257.0622106263273
 20
-62.00416113000767
 30
0.0
 10
257.0716314546152
 20
-62.05439807286797
 30
0.0
 10
257.0661852248296
 20
-62.10594009817086
 30
0.0
 10
257.0687904531352
 20
-62.19020247872054
 30
0.0
 10
257.0676307131704
 20
-62.28420819873169
 30
0.0
 10
257.068979599378
 20
-62.3778309006105
 30
0.0
 10
257.0656175031058
 20
-62.46300437904355
 30
0.0
 10
257.0727164847317
 20
-62.51263099384531
 30
0.0
 10
257.0618774084095
 20
-62.5598626048659
 30
0.0
 10
257.1110215154794
 20
-62.54778280519722
 30
0.0
 10
257.1601082559695
 20
-62.55532562093567
 30
0.0
 10
257.2379919210189
 20
-62.55293885095141
 30
0.0
 10
257.3156570102444
 20
-62.55080573551164
 30
0.0
 10
257.3651598860902
 20
-62.55786563534119
 30
0.0
 10
257.4150799680187
 20
-62.54619803520363
 30
0.0
 10
257.4029403446427
 20
-62.59439720085184
 30
0.0
 10
257.4112043158692
 20
-62.63730735655342
 30
0.0
 10
257.4029403580331
 20
-62.68021753605195
 30
0.0
 10
257.4150799479401
 20
-62.7284166670171
 30
0.0
 10
257.3651600088294
 20
-62.71674920985066
 30
0.0
 10
257.315655558075
 20
-62.72380753021528
 30
0.0
 10
257.2379989312522
 20
-62.72168290227976
 30
0.0
 10
257.1600848795308
 20
-62.71926566090816
 30
0.0
 10
257.1110705282265
 20
-62.72688107262091
 30
0.0
 10
257.0619451038492
 20
-62.71472002898983
 30
0.0
 10
257.072176491812
 20
-62.7590694203242
 30
0.0
 10
257.0662882607603
 20
-62.80054519253665
 30
0.0
 10
257.0684993235118
 20
-62.86064561141274
 30
0.0
 10
257.0680314275695
 20
-62.9075417269369
 30
0.0
 10
257.0680591922462
 20
-62.93329809038378
 30
0.0
 10
257.0680673958202
 20
-62.94090792268857
 30
0.0
 11
257.0680673958202
 21
-62.94090792268857
 31
0.0
 11
257.1323182464033
 21
-63.0245495582232
 31
0.0
 11
257.2154463765048
 21
-63.13861065708355
 31
0.0
 11
257.3023036498445
 21
-63.26088188260854
 31
0.0
 11
257.3777419301421
 21
-63.36915389813701
 31
0.0
 11
257.4266130811175
 21
-63.44121736700787
 31
0.0
 11
257.4103026214642
 21
-63.46338173332178
 31
0.0
 11
257.3744196102268
 21
-63.51214333921238
 31
0.0
 11
257.3385365989895
 21
-63.56090494510297
 31
0.0
 11
257.3222261393362
 21
-63.58306931141688
 31
0.0
 11
257.2569272038995
 21
-63.46263816432764
 31
0.0
 11
257.1654639172783
 21
-63.3101297178637
 31
0.0
 11
257.0680673958202
 21
-63.15760167263434
 31
0.0
 11
257.0680673958202
 21
-63.18763510128323
 31
0.0
 11
257.0680673958202
 21
-63.26998482499793
 31
0.0
 11
257.0680673958202
 21
-63.39302500043047
 31
0.0
 11
257.0680673958202
 21
-63.54512978423293
 31
0.0
 11
257.0680673958202
 21
-63.71467333305731
 31
0.0
 11
257.0680673958202
 21
-63.89002980355568
 31
0.0
 11
257.0680673958202
 21
-64.05957335238006
 31
0.0
 11
257.0680673958202
 21
-64.2116781361825
 31
0.0
 11
257.0680673958202
 21
-64.33471831161505
 31
0.0
 11
257.0680673958202
 21
-64.41706803532975
 31
0.0
 11
257.0680673958202
 21
-64.44710146397864
 31
0.0
 11
257.0413141629958
 21
-64.44710146397864
 31
0.0
 11
256.982457050782
 21
-64.44710146397864
 31
0.0
 11
256.9235999385683
 21
-64.44710146397864
 31
0.0
 11
256.8968467057439
 21
-64.44710146397864
 31
0.0
 11
256.8968467057439
 21
-64.42115150425327
 31
0.0
 11
256.8968467057439
 21
-64.34940749795369
 31
0.0
 11
256.8968467057439
 21
-64.24102825439475
 31
0.0
 11
256.8968467057439
 21
-64.10517258289129
 31
0.0
 11
256.8968467057439
 21
-63.95099929275815
 31
0.0
 11
256.8968467057439
 21
-63.78766719331018
 31
0.0
 11
256.8968467057439
 21
-63.62433509386221
 31
0.0
 11
256.8968467057439
 21
-63.47016180372907
 31
0.0
 11
256.8968467057439
 21
-63.33430613222562
 31
0.0
 11
256.8968467057439
 21
-63.22592688866668
 31
0.0
 11
256.8968467057439
 21
-63.15418288236711
 31
0.0
 11
256.8968467057439
 21
-63.12823292264172
 31
0.0
 11
256.818607079127
 21
-63.36014352154206
 31
0.0
 11
256.7303315718852
 21
-63.57902339127899
 31
0.0
 11
256.6350311859593
 21
-63.7738096412303
 31
0.0
 11
256.5357169232905
 21
-63.93343938077375
 31
0.0
 11
256.4915403271954
 21
-63.85157509259977
 31
0.0
 11
256.4394262313028
 21
-63.77565070025766
 31
0.0
 11
256.5433507519847
 21
-63.61339867529819
 31
0.0
 11
256.6435524794283
 21
-63.41428490034797
 31
0.0
 11
256.7356651537449
 21
-63.1908950754038
 31
0.0
 11
256.815322515046
 21
-62.95581490046257
 31
0.0
 11
256.8781583034429
 21
-62.72163007552112
 31
0.0
 11
256.8500170901691
 21
-62.72163007552112
 31
0.0
 11
256.7796640569846
 21
-62.72163007552113
 31
0.0
 11
256.6882051138447
 21
-62.72163007552112
 31
0.0
 11
256.5967461707048
 21
-62.72163007552112
 31
0.0
 11
256.5263931375204
 21
-62.72163007552112
 31
0.0
 11
256.4982519242465
 21
-62.72163007552112
 31
0.0
 11
256.4982519242465
 21
-62.69527922917354
 31
0.0
 11
256.4982519242465
 21
-62.63730736720888
 31
0.0
 11
256.4982519242465
 21
-62.57933550524422
 31
0.0
 11
256.4982519242465
 21
-62.55298465889665
 31
0.0
 11
256.5203315185569
 21
-62.55298465889664
 31
0.0
 11
256.5772736301993
 21
-62.55298465889664
 31
0.0
 11
256.6551332522411
 21
-62.55298465889665
 31
0.0
 11
256.7399653777493
 21
-62.55298465889665
 31
0.0
 11
256.817824999791
 21
-62.55298465889665
 31
0.0
 11
256.8747671114335
 21
-62.55298465889664
 31
0.0
 11
256.8968467057439
 21
-62.55298465889665
 31
0.0
 11
256.8968467057439
 21
-62.52769359282225
 31
0.0
 11
256.8968467057439
 21
-62.4610171458988
 31
0.0
 11
256.8968467057439
 21
-62.36675044507601
 31
0.0
 11
256.8968467057439
 21
-62.25868861730353
 31
0.0
 11
256.8968467057439
 21
-62.15062678953106
 31
0.0
 11
256.8968467057439
 21
-62.05636008870826
 31
0.0
 11
256.8968467057439
 21
-61.98968364178482
 31
0.0
 11
256.8968467057439
 21
-61.96439257571041
 31
0.0
 11
256.9199386918214
 21
-61.96606742348779
 31
0.0
 11
256.9750041970833
 21
-61.97006129126456
 31
0.0
 11
257.0407275420733
 21
-61.97482816570782
 31
0.0
 11
257.0957930473352
 21
-61.9788220334846
 31
0.0
 11
257.1188850334127
 21
-61.98049688126196
 31
0.0
 11
257.1055217573911
 21
-62.00190277535386
 31
0.0
 11
257.0680673958202
 21
-62.01529840903106
 31
0.0
 11
257.0680673958202
 21
-62.03840211507998
 31
0.0
 11
257.0680673958202
 21
-62.09931188557256
 31
0.0
 11
257.0680673958202
 21
-62.1854256990276
 31
0.0
 11
257.0680673958202
 21
-62.28414153396385
 31
0.0
 11
257.0680673958202
 21
-62.38285736890012
 31
0.0
 11
257.0680673958202
 21
-62.46897118235515
 31
0.0
 11
257.0680673958202
 21
-62.52988095284773
 31
0.0
 11
257.0680673958202
 21
-62.55298465889665
 31
0.0
 11
257.0932355534358
 21
-62.55298465889664
 31
0.0
 11
257.1561559474748
 21
-62.55298465889665
 31
0.0
 11
257.2379524597254
 21
-62.55298465889665
 31
0.0
 11
257.319748971976
 21
-62.55298465889665
 31
0.0
 11
257.382669366015
 21
-62.55298465889664
 31
0.0
 11
257.4078375236306
 21
-62.55298465889665
 31
0.0
 11
257.4078375236306
 21
-62.57933550524422
 31
0.0
 11
257.4078375236306
 21
-62.63730736720889
 31
0.0
 11
257.4078375236306
 21
-62.69527922917355
 31
0.0
 11
257.4078375236306
 21
-62.72163007552112
 31
0.0
 11
257.382669366015
 21
-62.72163007552111
 31
0.0
 11
257.319748971976
 21
-62.72163007552112
 31
0.0
 11
257.2379524597254
 21
-62.72163007552112
 31
0.0
 11
257.1561559474748
 21
-62.72163007552112
 31
0.0
 11
257.0932355534358
 21
-62.72163007552111
 31
0.0
 11
257.0680673958202
 21
-62.72163007552112
 31
0.0
 11
257.0680673958202
 21
-62.74443497162653
 31
0.0
 11
257.0680673958202
 21
-62.79881587772407
 31
0.0
 11
257.0680673958202
 21
-62.86372212048563
 31
0.0
 11
257.0680673958202
 21
-62.91810302658315
 31
0.0
 11
257.0680673958202
 21
-62.94090792268857
 31
0.0
  0
SPLINE
  5
AB
102
{ACAD_REACTORS
330
C8
102
}
330
48
100
AcDbEntity
  8
_U_30EC_U_30A4_U_30E4_U_30FC_1
  6
Continuous
 62
     2
100
AcDbSpline
210
0.0
220
0.0
230
1.0
 70
    11
 71
     3
 72
    47
 73
    43
 74
    41
 42
0.000000001
 43
0.0000000001
 44
0.00000001
 40
0.0
 40
0.0
 40
0.0
 40
0.0
 40
0.2207912809957131
 40
0.4459404186302955
 40
0.4902387190458029
 40
0.5327473892722128
 40
0.574226045122487
 40
0.6155432630560447
 40
0.6568164066315649
 40
0.6982511618780274
 40
0.7407663929316792
 40
0.7851366743175134
 40
1.010288833836308
 40
1.231080507002159
 40
1.451765243652381
 40
1.676638205891665
 40
1.720461045359636
 40
1.830018144043508
 40
1.972442372353145
 40
2.114866600677503
 40
2.224423699395134
 40
2.268246538883377
 40
2.493628801207193
 40
2.715602830286598
 40
2.934211330706356
 40
3.149502369855358
 40
3.231387784851004
 40
3.318231873854068
 40
3.405143198198027
 40
3.486970301720465
 40
3.702258172493893
 40
3.920866283534143
 40
4.142839325931932
 40
4.368221903865376
 40
4.412044743359858
 40
4.52160184209587
 40
4.664026070452359
 40
4.806450298809062
 40
4.916007397546765
 40
4.959830237043094
 40
5.184703515847126
 40
5.405387250767487
 40
5.405387250767487
 40
5.405387250767487
 40
5.405387250767487
 10
254.4313632188193
 20
-62.47573514502705
 30
0.0
 10
254.4374344349552
 20
-62.4122147295537
 30
0.0
 10
254.4496967036791
 20
-62.28392016766948
 30
0.0
 10
254.3410911808962
 20
-62.00813735282506
 30
0.0
 10
254.4568190826151
 20
-62.03791822024523
 30
0.0
 10
254.4978047438564
 20
-62.04214399193758
 30
0.0
 10
254.5397410727066
 20
-62.0466950906697
 30
0.0
 10
254.5810401555259
 20
-62.04777972527091
 30
0.0
 10
254.6223237045104
 20
-62.04669617261349
 30
0.0
 10
254.6642353200195
 20
-62.04213842745234
 30
0.0
 10
254.7052188478569
 20
-62.03792525246851
 30
0.0
 10
254.8211127773035
 20
-62.0080234413904
 30
0.0
 10
254.7101857657006
 20
-62.28640148846688
 30
0.0
 10
254.7381061294816
 20
-62.46696814631625
 30
0.0
 10
254.7210472276517
 20
-62.70018913110103
 30
0.0
 10
254.7220842211653
 20
-62.86073332913431
 30
0.0
 10
254.7220304328952
 20
-62.98695137897855
 30
0.0
 10
254.7220482302029
 20
-63.08550992120333
 30
0.0
 10
254.7220393510629
 20
-63.21699253013614
 30
0.0
 10
254.7220468857583
 20
-63.34847110487927
 30
0.0
 10
254.7220334334678
 20
-63.44703732762488
 30
0.0
 10
254.7220736647041
 20
-63.57340219832423
 30
0.0
 10
254.7212951333365
 20
-63.73497886633707
 30
0.0
 10
254.7372163248817
 20
-63.96618133563663
 30
0.0
 10
254.7139673814955
 20
-64.15105603484575
 30
0.0
 10
254.8166388373915
 20
-64.42044352686523
 30
0.0
 10
254.6626443292385
 20
-64.3831984277076
 30
0.0
 10
254.5810334732381
 20
-64.3884196077604
 30
0.0
 10
254.4994397222131
 20
-64.38319335078222
 30
0.0
 10
254.3454718596392
 20
-64.42042885571193
 30
0.0
 10
254.4480388351466
 20
-64.15104825593696
 30
0.0
 10
254.4248250245635
 20
-63.96618370131161
 30
0.0
 10
254.4406649584687
 20
-63.73497736890938
 30
0.0
 10
254.4399501242975
 20
-63.57340243148072
 30
0.0
 10
254.4399869499454
 20
-63.44703724246057
 30
0.0
 10
254.4399753929818
 20
-63.34847198820595
 30
0.0
 10
254.4399779948762
 20
-63.21698828039358
 30
0.0
 10
254.4399853461327
 20
-63.08552407425377
 30
0.0
 10
254.4399647470899
 20
-62.98692169181251
 30
0.0
 10
254.4400287121576
 20
-62.86083806102149
 30
0.0
 10
254.4387938877139
 20
-62.69769864072805
 30
0.0
 10
254.4338245326294
 20
-62.54925771679027
 30
0.0
 10
254.4313632188193
 20
-62.47573514502705
 30
0.0
 11
254.4313632188193
 21
-62.47573514502705
 31
0.0
 11
254.4223533129928
 21
-62.25512776661
 31
0.0
 11
254.4124974635695
 21
-62.03019445069398
 31
0.0
 11
254.4563190770349
 21
-62.03667563992848
 31
0.0
 11
254.4984605863764
 21
-62.04225063124653
 31
0.0
 11
254.5397576339339
 21
-62.04612787950946
 31
0.0
 11
254.5810546814914
 21
-62.0474188256897
 31
0.0
 11
254.6223076318279
 21
-62.04612787950946
 31
0.0
 11
254.6635605821646
 21
-62.04225063124653
 31
0.0
 11
254.7057087060892
 21
-62.03667563992849
 31
0.0
 11
254.7496030799694
 21
-62.03019445069398
 31
0.0
 11
254.739678262344
 21
-62.25512776660999
 31
0.0
 11
254.7306589137859
 21
-62.47573514502705
 31
0.0
 11
254.7241843392983
 21
-62.69632488455522
 31
0.0
 11
254.7220423167835
 21
-62.92118764491569
 31
0.0
 11
254.7220423167835
 21
-62.9650104844109
 31
0.0
 11
254.7220423167835
 21
-63.07456758314895
 31
0.0
 11
254.7220423167835
 21
-63.2169918115084
 31
0.0
 11
254.7220423167835
 21
-63.35941603986785
 31
0.0
 11
254.7220423167835
 21
-63.46897313860588
 31
0.0
 11
254.7220423167835
 21
-63.5127959781011
 31
0.0
 11
254.7241843392983
 21
-63.7381680613781
 31
0.0
 11
254.7306589137859
 21
-63.96004764465596
 31
0.0
 11
254.739678262344
 21
-64.17847000571247
 31
0.0
 11
254.7496030799694
 21
-64.3935321584365
 31
0.0
 11
254.6678821098319
 21
-64.38834522267392
 31
0.0
 11
254.5810546814914
 21
-64.38664417232714
 31
0.0
 11
254.4941600048888
 21
-64.3883452226739
 31
0.0
 11
254.4124974635695
 21
-64.3935321584365
 31
0.0
 11
254.4223533129928
 21
-64.17847000571248
 31
0.0
 11
254.4313632188193
 21
-63.96004764465596
 31
0.0
 11
254.4378038768346
 21
-63.7381680613781
 31
0.0
 11
254.4399788517571
 21
-63.5127959781011
 31
0.0
 11
254.4399788517571
 21
-63.46897313860589
 31
0.0
 11
254.4399788517571
 21
-63.35941603986785
 31
0.0
 11
254.4399788517571
 21
-63.21699181150839
 31
0.0
 11
254.4399788517571
 21
-63.07456758314895
 31
0.0
 11
254.4399788517571
 21
-62.96501048441091
 31
0.0
 11
254.4399788517571
 21
-62.92118764491569
 31
0.0
 11
254.4378038768346
 21
-62.69632488455522
 31
0.0
 11
254.4313632188193
 21
-62.47573514502705
 31
0.0
  0
SPLINE
  5
AC
102
{ACAD_REACTORS
330
C9
102
}
330
48
100
AcDbEntity
  8
_U_30EC_U_30A4_U_30E4_U_30FC_1
  6
Continuous
 62
     2
100
AcDbSpline
210
0.0
220
0.0
230
1.0
 70
    11
 71
     3
 72
   110
 73
   106
 74
   104
 42
0.000000001
 43
0.0000000001
 44
0.00000001
 40
0.0
 40
0.0
 40
0.0
 40
0.0
 40
0.2203406257277631
 40
0.4407808782838022
 40
0.5952494494615569
 40
0.7488431659393009
 40
0.9023581831309557
 40
1.056801968670398
 40
1.210736449100012
 40
1.36304138653989
 40
1.515315729683176
 40
1.669377239148155
 40
1.72161165275664
 40
1.773199502943021
 40
1.824933793210072
 40
1.877110426488065
 40
1.982682281206857
 40
2.078781667087609
 40
2.172809640822415
 40
2.271937807379097
 40
2.378349933379405
 40
2.494131557736566
 40
2.626681683943699
 40
2.783145050796155
 40
2.890701232941004
 40
2.9931303124549
 40
3.099869730691895
 40
3.220237816691387
 40
3.352695482737669
 40
3.48173280638993
 40
3.593499473690453
 40
3.674323013331954
 40
3.817951711952847
 40
3.946167120793845
 40
4.061405053453586
 40
4.166480796003171
 40
4.262478775059294
 40
4.35073667355125
 40
4.433071991254135
 40
4.511216293814624
 40
4.564262454117927
 40
4.61847441557155
 40
4.670128488754157
 40
4.722296879126332
 40
4.819540945314115
 40
4.931194984128028
 40
5.049996040257699
 40
5.168643755415131
 40
5.28397081176237
 40
5.392260784910167
 40
5.486512254876214
 40
5.55917823394967
 40
5.591425852853345
 40
5.626215969637718
 40
5.667155838674252
 40
5.717449290214073
 40
5.738402360944679
 40
5.784499116553651
 40
5.830595872164626
 40
5.851548942897484
 40
5.873019280661598
 40
5.924217778408131
 40
5.985325662817512
 40
6.036524160567527
 40
6.057994498334057
 40
6.236847789607303
 40
6.381409928945489
 40
6.493190424178513
 40
6.574067534230323
 40
6.691018086205388
 40
6.814881554220363
 40
6.944307823240287
 40
7.071266716065853
 40
7.193488604461755
 40
7.309042773127982
 40
7.414007203170634
 40
7.505140441886363
 40
7.531150360599507
 40
7.559221645322102
 40
7.587202218920751
 40
7.61256915949896
 40
7.662550809480845
 40
7.702878875763976
 40
7.857328205230762
 40
8.010799568088407
 40
8.165256399657357
 40
8.322232698713696
 40
8.479564855016411
 40
8.635216230290615
 40
8.79088255092559
 40
8.948305154947183
 40
9.168271839032887
 40
9.38735898098715
 40
9.608047961033394
 40
9.832914234792588
 40
9.85833869496293
 40
9.925366817229927
 40
10.02013071422751
 40
10.1287624985899
 40
10.23739428295241
 40
10.33215817995182
 40
10.39918630222385
 40
10.42461076239775
 40
10.64992019336935
 40
10.87188524531181
 40
10.87188524531181
 40
10.87188524531181
 40
10.87188524531181
 10
251.6863993306167
 20
-62.47056695058386
 30
0.0
 10
251.6899069863091
 20
-62.40363493382775
 30
0.0
 10
251.6969238917211
 20
-62.26974063540715
 30
0.0
 10
251.600423252862
 20
-61.98431400485106
 30
0.0
 10
251.8316339655656
 20
-62.04695569266292
 30
0.0
 10
251.9725494986705
 20
-62.03978401400589
 30
0.0
 10
252.1296622687136
 20
-62.04744072378332
 30
0.0
 10
252.2832118356836
 20
-62.04727203173537
 30
0.0
 10
252.4351309864629
 20
-62.04797914921144
 30
0.0
 10
252.594841974278
 20
-62.03769797104941
 30
0.0
 10
252.7215177530666
 20
-62.05483444375822
 30
0.0
 10
252.9177026051631
 20
-61.98252695349436
 30
0.0
 10
252.8840600208626
 20
-62.08339256376458
 30
0.0
 10
252.8858216246732
 20
-62.13360701508907
 30
0.0
 10
252.8833547003007
 20
-62.18267619870112
 30
0.0
 10
252.915328189556
 20
-62.26916464609578
 30
0.0
 10
252.7816604832804
 20
-62.21982516848242
 30
0.0
 10
252.6978413617606
 20
-62.22549321142408
 30
0.0
 10
252.5980066068872
 20
-62.21514438750278
 30
0.0
 10
252.4992781649694
 20
-62.20893505045491
 30
0.0
 10
252.3927737700659
 20
-62.20282191639799
 30
0.0
 10
252.2716716627609
 20
-62.19391071971992
 30
0.0
 10
252.1509586432002
 20
-62.20458349544192
 30
0.0
 10
251.9618758772986
 20
-62.14511452376209
 30
0.0
 10
251.993523343486
 20
-62.30421635379035
 30
0.0
 10
251.9801768246383
 20
-62.40140827116674
 30
0.0
 10
251.9781163355997
 20
-62.51345890346471
 30
0.0
 10
251.976439297422
 20
-62.63280269827229
 30
0.0
 10
251.9779541723781
 20
-62.75947363301465
 30
0.0
 10
251.9762787408217
 20
-62.88678367440459
 30
0.0
 10
251.9865049201206
 20
-62.98528389052113
 30
0.0
 10
251.9585211526132
 20
-63.12591252830945
 30
0.0
 10
252.1314234928853
 20
-63.06990404322481
 30
0.0
 10
252.245122513232
 20
-63.08260003978078
 30
0.0
 10
252.3646356601787
 20
-63.07531578405325
 30
0.0
 10
252.469469635462
 20
-63.0710193839982
 30
0.0
 10
252.564928982816
 20
-63.06649387197597
 30
0.0
 10
252.6570028436581
 20
-63.05830754310377
 30
0.0
 10
252.7282756711987
 20
-63.06336104818466
 30
0.0
 10
252.8351136635233
 20
-63.02443530424905
 30
0.0
 10
252.8032808527585
 20
-63.10462833450698
 30
0.0
 10
252.8072369433478
 20
-63.15417018610542
 30
0.0
 10
252.8040707321562
 20
-63.20422477416756
 30
0.0
 10
252.8356996420132
 20
-63.28851107844553
 30
0.0
 10
252.701633860724
 20
-63.23554589961419
 30
0.0
 10
252.6098527722748
 20
-63.24439874566134
 30
0.0
 10
252.4885934119151
 20
-63.23409905491423
 30
0.0
 10
252.3720318049319
 20
-63.23231043689071
 30
0.0
 10
252.2589580675428
 20
-63.23192938346882
 30
0.0
 10
252.1485451238019
 20
-63.22564505984397
 30
0.0
 10
252.070432899739
 20
-63.23790822201213
 30
0.0
 10
251.9719830763192
 20
-63.20526067840448
 30
0.0
 10
251.9818560103109
 20
-63.2621020740237
 30
0.0
 10
251.9780128173949
 20
-63.29587824898591
 30
0.0
 10
251.9772994813818
 20
-63.33860350747167
 30
0.0
 10
251.9769574572524
 20
-63.37578348194421
 30
0.0
 10
251.9770039184894
 20
-63.41492718085807
 30
0.0
 10
251.9769854359476
 20
-63.4526310595889
 30
0.0
 10
251.9769908361355
 20
-63.49035000224173
 30
0.0
 10
251.9769902143751
 20
-63.51985630711429
 30
0.0
 10
251.9769903081094
 20
-63.55106377757274
 30
0.0
 10
251.9769909217469
 20
-63.59565530548493
 30
0.0
 10
251.9769876428886
 20
-63.65015998947726
 30
0.0
 10
251.976996455303
 20
-63.69474415255128
 30
0.0
 10
251.9769564582966
 20
-63.77862146870839
 30
0.0
 10
251.9782229199804
 20
-63.89242434778897
 30
0.0
 10
251.9756479047388
 20
-64.04149559522867
 30
0.0
 10
251.9871214311269
 20
-64.14382751642673
 30
0.0
 10
251.9629711151812
 20
-64.27641051570743
 30
0.0
 10
252.1139198876025
 20
-64.23084223184553
 30
0.0
 10
252.2234641601104
 20
-64.24552943294228
 30
0.0
 10
252.3540175403469
 20
-64.24059520331511
 30
0.0
 10
252.4796517139063
 20
-64.23722250133216
 30
0.0
 10
252.5994935555149
 20
-64.23268457957803
 30
0.0
 10
252.7197567540975
 20
-64.2193141927457
 30
0.0
 10
252.8028966593064
 20
-64.22911242673985
 30
0.0
 10
252.9262285350622
 20
-64.16853740833257
 30
0.0
 10
252.9050474133506
 20
-64.22447495322557
 30
0.0
 10
252.9042155199666
 20
-64.2504070608423
 30
0.0
 10
252.9025168637108
 20
-64.27782699265637
 30
0.0
 10
252.9024179818378
 20
-64.31241760250191
 30
0.0
 10
252.9009864230878
 20
-64.3492954723581
 30
0.0
 10
252.9339009121739
 20
-64.4413311443477
 30
0.0
 10
252.7357511917656
 20
-64.36847939481746
 30
0.0
 10
252.6106753224439
 20
-64.3915422894797
 30
0.0
 10
252.4479276224706
 20
-64.38525933470795
 30
0.0
 10
252.2935571379548
 20
-64.38719011546644
 30
0.0
 10
252.1372875366493
 20
-64.38586192857312
 30
0.0
 10
251.9776749394831
 20
-64.38920082968716
 30
0.0
 10
251.8346531271785
 20
-64.37714159728334
 30
0.0
 10
251.6003349811176
 20
-64.4402795347966
 30
0.0
 10
251.6980015680746
 20
-64.15359427990258
 30
0.0
 10
251.6813073709607
 20
-63.95991647313917
 30
0.0
 10
251.6952501639232
 20
-63.73131712576282
 30
0.0
 10
251.6949192776182
 20
-63.57595361501528
 30
0.0
 10
251.6949283048812
 20
-63.47013619012451
 30
0.0
 10
251.6949260805865
 20
-63.40774171332365
 30
0.0
 10
251.6949270481438
 20
-63.3175953020825
 30
0.0
 10
251.6949270402809
 20
-63.21358788299139
 30
0.0
 10
251.6949258790652
 20
-63.10957824081284
 30
0.0
 10
251.6949295901051
 20
-63.01943711767808
 30
0.0
 10
251.6949215980601
 20
-62.95703152359364
 30
0.0
 10
251.6949539204567
 20
-62.85111119495456
 30
0.0
 10
251.6937645717867
 20
-62.69353238911836
 30
0.0
 10
251.6888421418805
 20
-62.54451735634511
 30
0.0
 10
251.6863993306167
 20
-62.47056695058386
 30
0.0
 11
251.6863993306167
 21
-62.47056695058386
 31
0.0
 11
251.6773123153289
 21
-62.25041377355559
 31
0.0
 11
251.6674454502681
 21
-62.03019445069398
 31
0.0
 11
251.8217780070948
 21
-62.03667563992848
 31
0.0
 11
251.9752705118594
 21
-62.04225063124653
 31
0.0
 11
252.1287365582915
 21
-62.04612787950946
 31
0.0
 11
252.2831749484487
 21
-62.0474188256897
 31
0.0
 11
252.4371040157022
 21
-62.04612787950946
 31
0.0
 11
252.5893595934149
 21
-62.04225063124653
 31
0.0
 11
252.7415318480622
 21
-62.03667563992849
 31
0.0
 11
252.8954569692032
 21
-62.03019445069398
 31
0.0
 11
252.8877016632672
 21
-62.08184993679218
 31
0.0
 11
252.8851196553139
 21
-62.13337313122372
 31
0.0
 11
252.8877016632672
 21
-62.18504294891916
 31
0.0
 11
252.8954569692032
 21
-62.23664000619792
 31
0.0
 11
252.7901078983959
 21
-62.22978509300518
 31
0.0
 11
252.6942580629609
 21
-62.22286403397919
 31
0.0
 11
252.6004798101451
 21
-62.21601573536978
 31
0.0
 11
252.5015884845429
 21
-62.20916743676037
 31
0.0
 11
252.3953737129472
 21
-62.20268955481752
 31
0.0
 11
252.2797265457587
 21
-62.19711125620782
 31
0.0
 11
252.1472331376807
 21
-62.19323400794488
 31
0.0
 11
251.9907750947972
 21
-62.19194306176465
 31
0.0
 11
251.986886822327
 21
-62.29942893847389
 31
0.0
 11
251.9821584977949
 21
-62.40174882560112
 31
0.0
 11
251.9782812496298
 21
-62.5084178012689
 31
0.0
 11
251.9769903034821
 21
-62.62877896443327
 31
0.0
 11
251.9774004076384
 21
-62.76123599565012
 31
0.0
 11
251.978710095105
 21
-62.89026667270122
 31
0.0
 11
251.9800279506597
 21
-63.00202557024268
 31
0.0
 11
251.9804396083209
 21
-63.08284806154192
 31
0.0
 11
252.1240657865422
 21
-63.08199698515326
 31
0.0
 11
252.2522548860306
 21
-63.079399658765
 31
0.0
 11
252.3674283151344
 21
-63.07554445911324
 31
0.0
 11
252.4723961241768
 21
-63.070783061545
 31
0.0
 11
252.568255121897
 21
-63.06561927682401
 31
0.0
 11
252.6563618303742
 21
-63.06045549210309
 31
0.0
 11
252.7385086368045
 21
-63.05488711536837
 31
0.0
 11
252.8163897265119
 21
-63.04847868655052
 31
0.0
 11
252.8086385374735
 21
-63.10095548341239
 31
0.0
 11
252.8060533378866
 21
-63.15510576985719
 31
0.0
 11
252.8086385374735
 21
-63.20669511012211
 31
0.0
 11
252.8163897265119
 21
-63.25828445038694
 31
0.0
 11
252.7196018383563
 21
-63.2488763080282
 31
0.0
 11
252.6082155651563
 21
-63.24114826983565
 31
0.0
 11
252.4895466358921
 21
-63.23554682018431
 31
0.0
 11
252.3709372378762
 21
-63.23253167261565
 31
0.0
 11
252.255623004707
 21
-63.23081188094938
 31
0.0
 11
252.1473466880249
 21
-63.2290920892832
 31
0.0
 11
252.0531044247257
 21
-63.2277746847696
 31
0.0
 11
251.9804396083209
 21
-63.22736347817248
 31
0.0
 11
251.9800279506598
 21
-63.25960846948387
 31
0.0
 11
251.978710095105
 21
-63.29437361704459
 31
0.0
 11
251.9774004076384
 21
-63.33529253196492
 31
0.0
 11
251.9769903034821
 21
-63.38558431146625
 31
0.0
 11
251.9769903034821
 21
-63.40653738220755
 31
0.0
 11
251.9769903034821
 21
-63.4526341378384
 31
0.0
 11
251.9769903034821
 21
-63.49873089346926
 31
0.0
 11
251.9769903034821
 21
-63.51968396421056
 31
0.0
 11
251.9769903034821
 21
-63.54115430198296
 31
0.0
 11
251.9769903034821
 21
-63.59235279974793
 31
0.0
 11
251.9769903034821
 21
-63.65346068417708
 31
0.0
 11
251.9769903034821
 21
-63.70465918194206
 31
0.0
 11
251.9769903034821
 21
-63.72612951971446
 31
0.0
 11
251.9774004076384
 21
-63.90498234085028
 31
0.0
 11
251.978710095105
 21
-64.04953854741134
 31
0.0
 11
251.9809073519257
 21
-64.16129744495288
 31
0.0
 11
251.9838791916534
 21
-64.24211993625211
 31
0.0
 11
252.1008297446996
 21
-64.24211993625211
 31
0.0
 11
252.2246932138295
 21
-64.24211993625211
 31
0.0
 11
252.3541130455971
 21
-64.24082899007186
 31
0.0
 11
252.4810127211792
 21
-64.23695174180894
 31
0.0
 11
252.6030862997522
 21
-64.23093247097711
 31
0.0
 11
252.7183792429012
 21
-64.22316695014574
 31
0.0
 11
252.8227959503067
 21
-64.21245793973175
 31
0.0
 11
252.9126804184997
 21
-64.19742299181884
 31
0.0
 11
252.907045896074
 21
-64.2228152747986
 31
0.0
 11
252.9040638214972
 21
-64.25072771402775
 31
0.0
 11
252.9027544810749
 21
-64.27867763589573
 31
0.0
 11
252.9023440298744
 21
-64.30404125568104
 31
0.0
 11
252.9049292294613
 21
-64.35395600393251
 31
0.0
 11
252.9126804184997
 21
-64.3935321584365
 31
0.0
 11
252.7583182107893
 21
-64.38834522267392
 31
0.0
 11
252.6048562748314
 21
-64.38664417232714
 31
0.0
 11
252.4503994426032
 21
-64.38664417232714
 31
0.0
 11
252.2934231426317
 21
-64.38664417232714
 31
0.0
 11
252.1360909851085
 21
-64.38664417232714
 31
0.0
 11
251.9804396083209
 21
-64.38664417232714
 31
0.0
 11
251.824782580379
 21
-64.3883452226739
 31
0.0
 11
251.6674454502681
 21
-64.3935321584365
 31
0.0
 11
251.6773123153289
 21
-64.17378688071366
 31
0.0
 11
251.6863993306167
 21
-63.95488826965726
 31
0.0
 11
251.6927926447949
 21
-63.73429191554574
 31
0.0
 11
251.6949268384558
 21
-63.50943576976862
 31
0.0
 11
251.6949268384558
 21
-63.48401130959702
 31
0.0
 11
251.6949268384558
 21
-63.41698318732647
 31
0.0
 11
251.6949268384558
 21
-63.32221929032325
 31
0.0
 11
251.6949268384558
 21
-63.2135875059537
 31
0.0
 11
251.6949268384558
 21
-63.10495572158415
 31
0.0
 11
251.6949268384558
 21
-63.01019182458094
 31
0.0
 11
251.6949268384558
 21
-62.94316370231037
 31
0.0
 11
251.6949268384558
 21
-62.91773924213877
 31
0.0
 11
251.6927926447949
 21
-62.69243991927842
 31
0.0
 11
251.6863993306167
 21
-62.47056695058386
 31
0.0
  0
SPLINE
  5
AD
102
{ACAD_REACTORS
330
CA
102
}
330
48
100
AcDbEntity
  8
_U_30EC_U_30A4_U_30E4_U_30FC_1
  6
Continuous
 62
     2
100
AcDbSpline
210
0.0
220
0.0
230
1.0
 70
    11
 71
     3
 72
    95
 73
    91
 74
    89
 42
0.000000001
 43
0.0000000001
 44
0.00000001
 40
0.0
 40
0.0
 40
0.0
 40
0.0
 40
0.6550406656912103
 40
1.308087289031957
 40
1.420803739835833
 40
1.566130759770829
 40
1.757067341888487
 40
2.006513545026496
 40
2.087328263121588
 40
2.185328872295659
 40
2.294612454748397
 40
2.408936380534852
 40
2.526802767798593
 40
2.646360524615643
 40
2.762535723971621
 40
2.87005734287019
 40
2.966883448431682
 40
3.050803243518329
 40
3.11581822243665
 40
3.156030057150274
 40
3.21391422508009
 40
3.276689026450462
 40
3.342960320981267
 40
3.404230667150518
 40
3.453822809493334
 40
3.53249982718838
 40
3.634775188507125
 40
3.754909333008118
 40
3.889736761660625
 40
4.035769602175186
 40
4.187256681197572
 40
4.338733685675916
 40
4.48847873467608
 40
4.634708317831539
 40
4.771493189921229
 40
4.892686571561158
 40
5.199775528944399
 40
5.460353566929601
 40
5.66760314234547
 40
5.81472290540446
 40
5.828990806219786
 40
5.855488336304426
 40
5.869756237118758
 40
6.189796507762777
 40
6.531890469872955
 40
6.883053637016967
 40
7.230512024911435
 40
7.566966656764519
 40
7.885203559707382
 40
8.17288743971919
 40
8.418011594062712
 40
8.443926721190643
 40
8.510760470613121
 40
8.602145393795631
 40
8.701714041647072
 40
8.793098965075309
 40
8.859932715057887
 40
8.885847842603532
 40
9.242301256612746
 40
9.58927545501669
 40
9.921808543164099
 40
10.2347962429846
 40
10.2996815088917
 40
10.35323493887759
 40
10.4015462535514
 40
10.46482922477808
 40
10.55973900668386
 40
10.69239545985598
 40
10.84920353475653
 40
11.01626328594761
 40
11.18672024367424
 40
11.35372582577192
 40
11.50257442292408
 40
11.61866495023272
 40
11.71329869152857
 40
11.82511050573889
 40
11.94464880845697
 40
12.06929242642487
 40
12.19707290435157
 40
12.3256263286051
 40
12.4503456533126
 40
12.56646595170309
 40
12.67099007414616
 40
12.76077625936763
 40
12.82703233506676
 40
12.87429132785974
 40
12.89831990323313
 40
12.92234847860002
 40
13.53984767410298
 40
14.18294284359339
 40
14.18294284359339
 40
14.18294284359339
 40
14.18294284359339
 10
249.087414057757
 20
-63.50081917254852
 30
0.0
 10
248.9558224688099
 20
-63.38714896853347
 30
0.0
 10
248.6930398732276
 20
-63.16015459140424
 30
0.0
 10
248.180359837057
 20
-62.3176549250029
 30
0.0
 10
248.1912859524911
 20
-62.67556577879556
 30
0.0
 10
248.1847431457541
 20
-62.81712563184444
 30
0.0
 10
248.183423156132
 20
-63.01558650157295
 30
0.0
 10
248.1824322532087
 20
-63.18829659410592
 30
0.0
 10
248.1830306681522
 20
-63.33114582198998
 30
0.0
 10
248.1845199231433
 20
-63.42714950043219
 30
0.0
 10
248.186188851802
 20
-63.53434452193434
 30
0.0
 10
248.1878139884166
 20
-63.64815743938994
 30
0.0
 10
248.1898634431234
 20
-63.76538382851987
 30
0.0
 10
248.1929370431475
 20
-63.88323544223607
 30
0.0
 10
248.1962544626592
 20
-63.99751868135955
 30
0.0
 10
248.1999810269828
 20
-64.104585535893
 30
0.0
 10
248.2023543090974
 20
-64.19972546689655
 30
0.0
 10
248.2084923817906
 20
-64.28421398250882
 30
0.0
 10
248.2045989425496
 20
-64.34056868158436
 30
0.0
 10
248.2261435372624
 20
-64.41154932984217
 30
0.0
 10
248.1487144988167
 20
-64.38077277852096
 30
0.0
 10
248.092255816974
 20
-64.38968712938963
 30
0.0
 10
248.0346700826356
 20
-64.38083737058298
 30
0.0
 10
247.9496368408021
 20
-64.41241730230634
 30
0.0
 10
247.981591907593
 20
-64.32884799464387
 30
0.0
 10
247.9796910212088
 20
-64.26097346488268
 30
0.0
 10
247.9914164976848
 20
-64.15746698692158
 30
0.0
 10
247.9970445982548
 20
-64.03977829839882
 30
0.0
 10
248.0044107108491
 20
-63.90591346292153
 30
0.0
 10
248.012696463116
 20
-63.76215802583945
 30
0.0
 10
248.0205056826974
 20
-63.6126593261313
 30
0.0
 10
248.0263776152207
 20
-63.46187406054499
 30
0.0
 10
248.0309872747517
 20
-63.31280011578139
 30
0.0
 10
248.0348837047092
 20
-63.16857042293555
 30
0.0
 10
248.0376920056113
 20
-63.0339605024356
 30
0.0
 10
248.038290368457
 20
-62.84510341109223
 30
0.0
 10
248.0422228796699
 20
-62.62004461143424
 30
0.0
 10
248.0248380308045
 20
-62.34612864330869
 30
0.0
 10
248.0656622272132
 20
-62.18192843357977
 30
0.0
 10
247.9801358185549
 20
-61.98230293991477
 30
0.0
 10
248.0466763837238
 20
-61.98594497052598
 30
0.0
 10
248.064492920278
 20
-61.98566508295723
 30
0.0
 10
248.1863006727047
 20
-61.98347028057953
 30
0.0
 10
248.2886975265014
 20
-62.26304836735063
 30
0.0
 10
248.5386226438904
 20
-62.46416946920577
 30
0.0
 10
248.7676240260659
 20
-62.73187340468658
 30
0.0
 10
249.0051356142658
 20
-62.98333541594199
 30
0.0
 10
249.2292295670321
 20
-63.2200998139522
 30
0.0
 10
249.4556921212558
 20
-63.47761262873497
 30
0.0
 10
249.6131892816064
 20
-63.59330620399652
 30
0.0
 10
249.8278334542222
 20
-63.92982802917783
 30
0.0
 10
249.8228850904167
 20
-63.80515201364972
 30
0.0
 10
249.8240136532095
 20
-63.74652263520842
 30
0.0
 10
249.8235082771064
 20
-63.65936293084597
 30
0.0
 10
249.8236680087662
 20
-63.56563812273706
 30
0.0
 10
249.8236259820866
 20
-63.4796098415954
 30
0.0
 10
249.8236406969922
 20
-63.41826063511081
 30
0.0
 10
249.823591118553
 20
-63.2684472393558
 30
0.0
 10
249.826501645236
 20
-63.02990342946474
 30
0.0
 10
249.806572597071
 20
-62.66493445587875
 30
0.0
 10
249.8556638865797
 20
-62.40180323463167
 30
0.0
 10
249.6984156438728
 20
-61.99051050508824
 30
0.0
 10
249.856831780197
 20
-62.04581672904828
 30
0.0
 10
249.9117885408177
 20
-62.047802689564
 30
0.0
 10
249.9634092696289
 20
-62.04715177208325
 30
0.0
 10
250.0519403894913
 20
-62.00610427718334
 30
0.0
 10
250.0011103232719
 20
-62.15283628833593
 30
0.0
 10
250.0119594859832
 20
-62.25959983502142
 30
0.0
 10
249.9972241924397
 20
-62.41894250042466
 30
0.0
 10
249.9906181375751
 20
-62.581268938037
 30
0.0
 10
249.9821166329464
 20
-62.74987433564183
 30
0.0
 10
249.9749432131748
 20
-62.91165140753035
 30
0.0
 10
249.9695268144937
 20
-63.05557623998644
 30
0.0
 10
249.9677918897197
 20
-63.17542461989653
 30
0.0
 10
249.9681645601867
 20
-63.2829385386606
 30
0.0
 10
249.9679861055811
 20
-63.39159930810992
 30
0.0
 10
249.9683215792689
 20
-63.51026385291046
 30
0.0
 10
249.9696245551733
 20
-63.63424791943836
 30
0.0
 10
249.9715092281123
 20
-63.76121661285472
 30
0.0
 10
249.97312093844
 20
-63.88826093905544
 30
0.0
 10
249.9747608066978
 20
-64.01125070964397
 30
0.0
 10
249.9768775675301
 20
-64.12679024072817
 30
0.0
 10
249.9770053351911
 20
-64.22889051500738
 30
0.0
 10
249.9812719326102
 20
-64.31970106618422
 30
0.0
 10
249.9714645014837
 20
-64.37766334247789
 30
0.0
 10
249.9924679701237
 20
-64.44462825324548
 30
0.0
 10
249.9531844669445
 20
-64.43688801489888
 30
0.0
 10
249.7401512047296
 20
-64.45224701311399
 30
0.0
 10
249.5442502872734
 20
-63.89576897362099
 30
0.0
 10
249.2417402561093
 20
-63.63423920108067
 30
0.0
 10
249.087414057757
 20
-63.50081917254852
 30
0.0
 11
249.087414057757
 21
-63.50081917254852
 31
0.0
 11
248.6401734268059
 21
-63.02222320044599
 31
0.0
 11
248.1930254000192
 21
-62.54627306167606
 31
0.0
 11
248.1895869192043
 21
-62.65893705470344
 31
0.0
 11
248.1861815113049
 21
-62.80422417272266
 31
0.0
 11
248.1835841849823
 21
-62.99514309628608
 31
0.0
 11
248.1827331086151
 21
-63.2445878531682
 31
0.0
 11
248.1831444159837
 21
-63.32540152502297
 31
0.0
 11
248.1844625259366
 21
-63.42339326979015
 31
0.0
 11
248.1861397197267
 21
-63.53266398156837
 31
0.0
 11
248.1878572057067
 21
-63.64697500584538
 31
0.0
 11
248.1900212768321
 21
-63.7648215249131
 31
0.0
 11
248.1930254000192
 21
-63.88434153356377
 31
0.0
 11
248.1964564662687
 21
-64.0004660561042
 31
0.0
 11
248.1999133859547
 21
-64.10793208906347
 31
0.0
 11
248.2033290182637
 21
-64.20469793105312
 31
0.0
 11
248.2068101913342
 21
-64.28854549179604
 31
0.0
 11
248.2102211113861
 21
-64.35347093448817
 31
0.0
 11
248.2136981772696
 21
-64.3935321584365
 31
0.0
 11
248.156046875112
 21
-64.38834522267392
 31
0.0
 11
248.0932951247858
 21
-64.38664417232714
 31
0.0
 11
248.0270456646705
 21
-64.3883452226739
 31
0.0
 11
247.9659952669224
 21
-64.3935321584365
 31
0.0
 11
247.9732977667361
 21
-64.34448061330986
 31
0.0
 11
247.9814998498603
 21
-64.26623229735722
 31
0.0
 11
247.9896303751897
 21
-64.16428062203548
 31
0.0
 11
247.9969611370946
 21
-64.04437035296824
 31
0.0
 11
248.0042563209971
 21
-63.90974043112686
 31
0.0
 11
248.0124649185145
 21
-63.76393847803831
 31
0.0
 11
248.0201709079014
 21
-63.61264752321503
 31
0.0
 11
248.0261967931642
 21
-63.46129042255842
 31
0.0
 11
248.0309251176965
 21
-63.31162004065141
 31
0.0
 11
248.0348133901669
 21
-63.16544215874355
 31
0.0
 11
248.0373732338514
 21
-63.0286812386388
 31
0.0
 11
248.0382529734122
 21
-62.90749104769687
 31
0.0
 11
248.0378131036318
 21
-62.60040240194033
 31
0.0
 11
248.0365331817895
 21
-62.33982750617211
 31
0.0
 11
248.0334863647441
 21
-62.13260032740451
 31
0.0
 11
248.0279254042312
 21
-61.98558570070514
 31
0.0
 11
248.0421933051018
 21
-61.98558570070514
 31
0.0
 11
248.0686908352901
 21
-61.98558570070514
 31
0.0
 11
248.0829587361607
 21
-61.98558570070514
 31
0.0
 11
248.3000948579826
 21
-62.22069775793803
 31
0.0
 11
248.5318949052628
 21
-62.47228674225015
 31
0.0
 11
248.7701020948388
 21
-62.73030399913007
 31
0.0
 11
249.006627948707
 21
-62.98482875601087
 31
0.0
 11
249.2361903647254
 21
-63.23080195907438
 31
0.0
 11
249.4538002289652
 21
-63.4630102142247
 31
0.0
 11
249.6519929843256
 21
-63.67153274889476
 31
0.0
 11
249.8236348028635
 21
-63.84653257523988
 31
0.0
 11
249.8236348028635
 21
-63.82061744769533
 31
0.0
 11
249.8236348028635
 21
-63.75378369771205
 31
0.0
 11
249.8236348028635
 21
-63.66239877426552
 31
0.0
 11
249.8236348028635
 21
-63.56283012633124
 31
0.0
 11
249.8236348028635
 21
-63.47144520288469
 31
0.0
 11
249.8236348028635
 21
-63.40461145290141
 31
0.0
 11
249.8236348028635
 21
-63.37869632535687
 31
0.0
 11
249.8223438567157
 21
-63.02224524905709
 31
0.0
 11
249.8184666085507
 21
-62.67529271442162
 31
0.0
 11
249.8102402719551
 21
-62.34286139506025
 31
0.0
 11
249.7960740396777
 21
-62.03019445069398
 31
0.0
 11
249.8596556179167
 21
-62.04313588298242
 31
0.0
 11
249.913037508916
 21
-62.0474188256897
 31
0.0
 11
249.9611586014382
 21
-62.04313588298243
 31
0.0
 11
250.0231041727745
 21
-62.03019445069398
 31
0.0
 11
250.0157421417124
 21
-62.12481827011475
 31
0.0
 11
250.0075995898367
 21
-62.25722458952612
 31
0.0
 11
249.9989910293553
 21
-62.41379618670921
 31
0.0
 11
249.9903752152763
 21
-62.58063361722306
 31
0.0
 11
249.9822392779837
 21
-62.75089629947216
 31
0.0
 11
249.9748706323384
 21
-62.91773924213877
 31
0.0
 11
249.969761186107
 21
-63.06650011883767
 31
0.0
 11
249.9680708408453
 21
-63.18257833929475
 31
0.0
 11
249.9680708408453
 21
-63.27721208059059
 31
0.0
 11
249.9680708408453
 21
-63.3890238947987
 31
0.0
 11
249.9684666134046
 21
-63.50856154233828
 31
0.0
 11
249.9697024380257
 21
-63.63319903362657
 31
0.0
 11
249.9714597122866
 21
-63.76096742769185
 31
0.0
 11
249.9731508407157
 21
-63.88950972800697
 31
0.0
 11
249.9749081149764
 21
-64.01421667242022
 31
0.0
 11
249.9765992434054
 21
-64.13032465850227
 31
0.0
 11
249.977908930872
 21
-64.2348405872956
 31
0.0
 11
249.9783190350283
 21
-64.32462583900924
 31
0.0
 11
249.9783190350283
 21
-64.39088191538161
 31
0.0
 11
249.9783190350283
 21
-64.43814090842535
 31
0.0
 11
249.9542904592524
 21
-64.43814090842535
 31
0.0
 11
249.9302618834765
 21
-64.43814090842535
 31
0.0
 11
249.5216934129971
 21
-63.97513220194386
 31
0.0
 11
249.087414057757
 21
-63.50081917254852
 31
0.0
  0
SPLINE
  5
AE
102
{ACAD_REACTORS
330
CB
102
}
330
48
100
AcDbEntity
  8
_U_30EC_U_30A4_U_30E4_U_30FC_1
  6
Continuous
 62
     2
100
AcDbSpline
210
0.0
220
0.0
230
1.0
 70
    11
 71
     3
 72
    25
 73
    21
 74
    19
 42
0.000000001
 43
0.0000000001
 44
0.00000001
 40
0.0
 40
0.0
 40
0.0
 40
0.0
 40
0.0911479969065959
 40
0.1858117896205803
 40
0.2804128399735343
 40
0.3715889190715647
 40
0.4679080494219561
 40
0.564268380922923
 40
0.660568322264584
 40
0.7569653015811109
 40
0.8561348172523706
 40
1.092615965104389
 40
1.374867658141988
 40
1.611348812011711
 40
1.710518328425367
 40
1.809403163726676
 40
2.045205463294181
 40
2.326646917622246
 40
2.562449217190711
 40
2.661334043834024
 40
2.661334043834024
 40
2.661334043834024
 40
2.661334043834024
 10
245.0489905496747
 20
-63.32365417259284
 30
0.0
 10
245.0793730847471
 20
-63.32381875742023
 30
0.0
 10
245.141310081866
 20
-63.32415426766654
 30
0.0
 10
245.2347561889879
 20
-63.32710900004575
 30
0.0
 10
245.3281300165906
 20
-63.33002202579426
 30
0.0
 10
245.4223965683025
 20
-63.3308575381316
 30
0.0
 10
245.5161169720515
 20
-63.32983310798529
 30
0.0
 10
245.6158245232753
 20
-63.33062977985603
 30
0.0
 10
245.6995154475861
 20
-63.3205854522136
 30
0.0
 10
245.8444201244594
 20
-63.34745337782412
 30
0.0
 10
245.7202337374349
 20
-63.17314425176528
 30
0.0
 10
245.6772072215831
 20
-63.01328244450484
 30
0.0
 10
245.5615127071757
 20
-62.75461496906362
 30
0.0
 10
245.4823770360806
 20
-62.61748902594718
 30
0.0
 10
245.4237781551363
 20
-62.40042922322499
 30
0.0
 10
245.3671008868986
 20
-62.6171382124315
 30
0.0
 10
245.2859014830025
 20
-62.75652943018338
 30
0.0
 10
245.1869906211035
 20
-63.00572986086381
 30
0.0
 10
245.1059830023807
 20
-63.19054125230502
 30
0.0
 10
245.0619888255386
 20
-63.2932950860046
 30
0.0
 10
245.0489905496747
 20
-63.32365417259284
 30
0.0
 11
245.0489905496747
 21
-63.32365417259284
 31
0.0
 11
245.1401342667369
 21
-63.32453832189817
 31
0.0
 11
245.234763322713
 21
-63.32710257536978
 31
0.0
 11
245.3293287109254
 21
-63.32969990175799
 31
0.0
 11
245.4205008179745
 21
-63.33055097814666
 31
0.0
 11
245.5168190707255
 21
-63.33013977154955
 31
0.0
 11
245.6131703963924
 21
-63.32882236703605
 31
0.0
 11
245.7094467567835
 21
-63.32669136877265
 31
0.0
 11
245.8057958775892
 21
-63.32365417259284
 31
0.0
 11
245.766083825269
 21
-63.23278313261556
 31
0.0
 11
245.6713858543517
 21
-63.01609065266974
 31
0.0
 11
245.5583592439019
 21
-62.75745769273441
 31
0.0
 11
245.4636612729845
 21
-62.54076521278859
 31
0.0
 11
245.4239492206643
 21
-62.44989417281131
 31
0.0
 11
245.3849535188814
 21
-62.54076521278859
 31
0.0
 11
245.291963768476
 21
-62.75745769273441
 31
0.0
 11
245.180976001863
 21
-63.01609065266975
 31
0.0
 11
245.0879862514576
 21
-63.23278313261555
 31
0.0
 11
245.0489905496747
 21
-63.32365417259284
 31
0.0
  0
SPLINE
  5
AF
102
{ACAD_REACTORS
330
CB
102
}
330
48
100
AcDbEntity
  8
_U_30EC_U_30A4_U_30E4_U_30FC_1
  6
Continuous
 62
     2
100
AcDbSpline
210
0.0
220
0.0
230
1.0
 70
    11
 71
     3
 72
    57
 73
    53
 74
    51
 42
0.000000001
 43
0.0000000001
 44
0.00000001
 40
0.0
 40
0.0
 40
0.0
 40
0.0
 40
0.0471632082809511
 40
0.0914861054632722
 40
0.1357762519702674
 40
0.1826527001610684
 40
0.2295203288572309
 40
0.2737751972220478
 40
0.3181310461542787
 40
0.3652607198398247
 40
0.4571007286314408
 40
0.5671851029165024
 40
0.6894623283868362
 40
0.8181758272545909
 40
0.9510087229273883
 40
1.08585222967404
 40
1.21812616447531
 40
1.343545131142376
 40
1.454537202956849
 40
1.567187607530801
 40
1.680710966642363
 40
1.794226869736784
 40
1.900009184247555
 40
2.004085860447835
 40
2.108162674451808
 40
2.214000150155267
 40
2.496038577352119
 40
2.762350745479286
 40
2.997275353279384
 40
3.185110082137742
 40
3.246407890063912
 40
3.312607550212586
 40
3.378877742711545
 40
3.440140399651457
 40
4.100501696006528
 40
4.75491308556357
 40
5.411331693423957
 40
6.077890432568734
 40
6.110575292671041
 40
6.143260152775821
 40
6.367989363395239
 40
6.610525374951636
 40
6.86338913646741
 40
7.119380025547694
 40
7.376036605091203
 40
7.631164770966389
 40
7.876722425456502
 40
8.104953735856055
 40
8.312916685924353
 40
8.497730294941398
 40
8.651018984313954
 40
8.76473885362468
 40
8.76473885362468
 40
8.76473885362468
 40
8.76473885362468
 10
246.5728854430062
 20
-64.3935321584365
 30
0.0
 10
246.5572821656479
 20
-64.39153724377498
 30
0.0
 10
246.5270152889851
 20
-64.38766754096281
 30
0.0
 10
246.48171991318
 20
-64.38637970489305
 30
0.0
 10
246.4365758058897
 20
-64.38671271902525
 30
0.0
 10
246.3905222052949
 20
-64.38665296782354
 30
0.0
 10
246.3446701101645
 20
-64.38654141806573
 30
0.0
 10
246.2989916577714
 20
-64.38702121999985
 30
0.0
 10
246.2557016471158
 20
-64.38518845837855
 30
0.0
 10
246.1846152881062
 20
-64.40930398641922
 30
0.0
 10
246.186368219099
 20
-64.28795261479328
 30
0.0
 10
246.1392401300119
 20
-64.20253715705338
 30
0.0
 10
246.099768318131
 20
-64.08493026111447
 30
0.0
 10
246.0512840462193
 20
-63.96747202916134
 30
0.0
 10
246.0007222332071
 20
-63.84574019695069
 30
0.0
 10
245.9524839540027
 20
-63.71903987594109
 30
0.0
 10
245.8941437877143
 20
-63.61046267671627
 30
0.0
 10
245.8787097596809
 20
-63.45359298322163
 30
0.0
 10
245.7372791260184
 20
-63.48606508908255
 30
0.0
 10
245.6314602344452
 20
-63.47467066774398
 30
0.0
 10
245.5164774654771
 20
-63.47587363941962
 30
0.0
 10
245.405934718169
 20
-63.47473010109167
 30
0.0
 10
245.2982788452331
 20
-63.47561605419051
 30
0.0
 10
245.1927527458791
 20
-63.4756335306606
 30
0.0
 10
245.0915397611561
 20
-63.4826592298416
 30
0.0
 10
244.9073009757302
 20
-63.45844095596711
 30
0.0
 10
244.896359861496
 20
-63.76238264334695
 30
0.0
 10
244.7893896564297
 20
-63.98626778203175
 30
0.0
 10
244.6904353533895
 20
-64.17084641164084
 30
0.0
 10
244.7031295453556
 20
-64.4144975065237
 30
0.0
 10
244.5856296645945
 20
-64.3847190870338
 30
0.0
 10
244.5228260797859
 20
-64.38721865946971
 30
0.0
 10
244.4592077022948
 20
-64.3863588035377
 30
0.0
 10
244.1752219123622
 20
-64.42881915514636
 30
0.0
 10
244.805784342893
 20
-63.70898003011794
 30
0.0
 10
244.889385021862
 20
-63.19703416020847
 30
0.0
 10
245.2735457718883
 20
-62.67626211906529
 30
0.0
 10
245.2583413218122
 20
-61.97460329203369
 30
0.0
 10
245.5045470652244
 20
-61.98634322375319
 30
0.0
 10
245.6062551087113
 20
-61.97754951003804
 30
0.0
 10
245.6055956965365
 20
-62.22920304726225
 30
0.0
 10
245.7234522085378
 20
-62.4116193472262
 30
0.0
 10
245.8121720190033
 20
-62.65416214793711
 30
0.0
 10
245.9128497414808
 20
-62.88639924926449
 30
0.0
 10
246.0117347641792
 20
-63.12305310889663
 30
0.0
 10
246.1105881920218
 20
-63.35518216286484
 30
0.0
 10
246.2062371320474
 20
-63.57857732667791
 30
0.0
 10
246.2966109502821
 20
-63.78707406407256
 30
0.0
 10
246.3796149497736
 20
-63.97671506927261
 30
0.0
 10
246.4532293512349
 20
-64.14316849388473
 30
0.0
 10
246.5149020825095
 20
-64.2806225583048
 30
0.0
 10
246.5555663815152
 20
-64.35980716026543
 30
0.0
 10
246.5728854430062
 20
-64.3935321584365
 30
0.0
 11
246.5728854430062
 21
-64.3935321584365
 31
0.0
 11
246.5260083246996
 21
-64.38834522267392
 31
0.0
 11
246.4817180825673
 21
-64.38664417232714
 31
0.0
 11
246.4374279361278
 21
-64.38664417232714
 31
0.0
 11
246.3905514876708
 21
-64.38664417232714
 31
0.0
 11
246.3436838586582
 21
-64.38664417232714
 31
0.0
 11
246.2994289899957
 21
-64.38664417232714
 31
0.0
 11
246.2551057706403
 21
-64.3883452226739
 31
0.0
 11
246.2082623950992
 21
-64.3935321584365
 31
0.0
 11
246.1798737065874
 21
-64.30618989283332
 31
0.0
 11
246.1428926745447
 21
-64.20250299181757
 31
0.0
 11
246.099459116625
 21
-64.0881996845545
 31
0.0
 11
246.0517260796485
 21
-63.96866424187607
 31
0.0
 11
246.0014365062786
 21
-63.84571898149012
 31
0.0
 11
245.9502671933481
 21
-63.7209613252713
 31
0.0
 11
245.9003736730875
 21
-63.59845813953804
 31
0.0
 11
245.853932404139
 21
-63.48195438088659
 31
0.0
 11
245.7429816837137
 21
-63.47892490172071
 31
0.0
 11
245.6303514154638
 21
-63.47679500588787
 31
0.0
 11
245.5168356998998
 21
-63.47547760137436
 31
0.0
 11
245.4033205406349
 21
-63.47506639477724
 31
0.0
 11
245.2975390242365
 21
-63.47547760137437
 31
0.0
 11
245.1934706848774
 21
-63.47679500588787
 31
0.0
 11
245.0894156653593
 21
-63.47892490172071
 31
0.0
 11
244.9836215545145
 21
-63.48195438088659
 31
0.0
 11
244.8787119679687
 21
-63.74375517943226
 31
0.0
 11
244.7841073619879
 21
-63.99269722798117
 31
0.0
 11
244.7058436139847
 21
-64.2142019848702
 31
0.0
 11
244.6499636154103
 21
-64.3935321584365
 31
0.0
 11
244.588885656899
 21
-64.38834522267392
 31
0.0
 11
244.5227078547679
 21
-64.38664417232714
 31
0.0
 11
244.4564594970831
 21
-64.3883452226739
 31
0.0
 11
244.3954168163486
 21
-64.3935321584365
 31
0.0
 11
244.6705889881479
 21
-63.79323446761434
 31
0.0
 11
244.9389150663719
 21
-63.19636313095802
 31
0.0
 11
245.2046482279953
 21
-62.59613709812195
 31
0.0
 11
245.4720945666581
 21
-61.98558570070514
 31
0.0
 11
245.5047794269354
 21
-61.98558570070514
 31
0.0
 11
245.5374642872127
 21
-61.98558570070514
 31
0.0
 11
245.6234505610606
 21
-62.19321416419493
 31
0.0
 11
245.7163490743158
 21
-62.41725340893059
 31
0.0
 11
245.8134919451012
 21
-62.65071292276109
 31
0.0
 11
245.912414138758
 21
-62.88681826992431
 31
0.0
 11
246.0121546179476
 21
-63.12330175076793
 31
0.0
 11
246.1119276058902
 21
-63.35811174202866
 31
0.0
 11
246.2086813186997
 21
-63.58380463259726
 31
0.0
 11
246.2994289899957
 21
-63.79321903358657
 31
0.0
 11
246.3828355764094
 21
-63.98372344326115
 31
0.0
 11
246.4576498192926
 21
-64.1527172279411
 31
0.0
 11
246.5216934116152
 21
-64.2919861775591
 31
0.0
 11
246.5728854430062
 21
-64.3935321584365
 31
0.0
  0
SPLINE
  5
B0
102
{ACAD_REACTORS
330
CC
102
}
330
48
100
AcDbEntity
  8
_U_30EC_U_30A4_U_30E4_U_30FC_1
  6
Continuous
 62
     2
100
AcDbSpline
210
0.0
220
0.0
230
1.0
 70
    11
 71
     3
 72
    99
 73
    95
 74
    93
 42
0.000000001
 43
0.0000000001
 44
0.00000001
 40
0.0
 40
0.0
 40
0.0
 40
0.0
 40
0.0796417172272432
 40
0.1621768542356096
 40
0.2486489160957502
 40
0.3404969668524452
 40
0.4381912511164719
 40
0.5434463660245036
 40
0.6518115192847367
 40
0.7530190937886636
 40
0.8492196919725139
 40
0.9419290312997952
 40
1.034249663570024
 40
1.129078600620147
 40
1.226697027573217
 40
1.327220425421673
 40
1.470572134937982
 40
1.595489863371185
 40
1.719934125348348
 40
1.850576620127393
 40
1.989059629987333
 40
2.134139054226898
 40
2.28069800720729
 40
2.424529739039556
 40
2.565929576985854
 40
2.70823926077355
 40
2.861717887443684
 40
3.045168540347388
 40
3.183798301138627
 40
3.314813961455455
 40
3.442083470447349
 40
3.569912708373037
 40
3.702177512509433
 40
3.8423075596595
 40
3.99287222324593
 40
4.156750662218291
 40
4.310981861107598
 40
4.44585990932267
 40
4.57239393613162
 40
4.701656719781968
 40
4.76827908600844
 40
4.835960697898393
 40
4.912788918729309
 40
5.006285208481499
 40
5.026909478751575
 40
5.047533749021168
 40
5.101808031471241
 40
5.162325165538504
 40
5.226919745995831
 40
5.294231806596756
 40
5.364544852554862
 40
5.438319055467913
 40
5.517877651324301
 40
5.607647714861611
 40
5.700449642544428
 40
5.788251142364131
 40
5.87271470603981
 40
5.955167292575262
 40
6.037192395190413
 40
6.120669181469157
 40
6.206848616686365
 40
6.296680855416779
 40
6.44255839287262
 40
6.568190371608276
 40
6.692904567360379
 40
6.824220446557134
 40
6.963121850329419
 40
7.10784373885118
 40
7.253431663907238
 40
7.395187468036612
 40
7.533140753237714
 40
7.670550457175221
 40
7.816236511769266
 40
7.987691657359217
 40
8.14227742196925
 40
8.293662615415018
 40
8.442962460879283
 40
8.59159831618539
 40
8.743678992361799
 40
8.903725323699156
 40
9.076307008890563
 40
9.265578604680588
 40
9.459203795360734
 40
9.617619810273519
 40
9.753609671361906
 40
9.87487330000415
 40
9.954520184977865
 40
10.02416413719255
 40
10.09769764405455
 40
10.18909955924982
 40
10.20974586420143
 40
10.23039218263386
 40
10.30057101881273
 40
10.37632012987552
 40
10.37632012987552
 40
10.37632012987552
 40
10.37632012987552
 10
241.92721597654
 20
-64.07184292240582
 30
0.0
 10
241.9438422780768
 20
-64.09259346611265
 30
0.0
 10
241.9776989136126
 20
-64.13484843744678
 30
0.0
 10
242.0406027470584
 20
-64.18950144064502
 30
0.0
 10
242.1138705869942
 20
-64.23680930335527
 30
0.0
 10
242.1982174168184
 20
-64.27452724018642
 30
0.0
 10
242.2938445545009
 20
-64.29939335724623
 30
0.0
 10
242.3978058704895
 20
-64.30670396110642
 30
0.0
 10
242.5030225149954
 20
-64.29837632662522
 30
0.0
 10
242.6012831300882
 20
-64.26830775805047
 30
0.0
 10
242.6865191357097
 20
-64.22131132484702
 30
0.0
 10
242.7585425135651
 20
-64.16026964205717
 30
0.0
 10
242.8157122638644
 20
-64.08566985877997
 30
0.0
 10
242.8574073676988
 20
-63.99977490796399
 30
0.0
 10
242.8833157775841
 20
-63.90494105024366
 30
0.0
 10
242.8924242262202
 20
-63.7912497641821
 30
0.0
 10
242.8793069726036
 20
-63.66647367685798
 30
0.0
 10
242.8131535263963
 20
-63.54965236284686
 30
0.0
 10
242.7175575849118
 20
-63.46467415879201
 30
0.0
 10
242.6055885951918
 20
-63.39563270997414
 30
0.0
 10
242.4799864512818
 20
-63.33775813410688
 30
0.0
 10
242.3462896550404
 20
-63.2860623217223
 30
0.0
 10
242.2119327748379
 20
-63.23080863059398
 30
0.0
 10
242.0858188916424
 20
-63.1604018481493
 30
0.0
 10
241.9732784917084
 20
-63.07194414725325
 30
0.0
 10
241.8776167994007
 20
-62.95998887588105
 30
0.0
 10
241.8140362081374
 20
-62.81030045355195
 30
0.0
 10
241.8006911434564
 20
-62.65047161071435
 30
0.0
 10
241.8126715916998
 20
-62.49931550149735
 30
0.0
 10
241.8518503858389
 20
-62.37170710865034
 30
0.0
 10
241.9161192680459
 20
-62.25899081425731
 30
0.0
 10
242.0044409929289
 20
-62.16331346187891
 30
0.0
 10
242.1144296137176
 20
-62.08625740470828
 30
0.0
 10
242.2438489330813
 20
-62.02828558520293
 30
0.0
 10
242.3918043897341
 20
-61.99240777867756
 30
0.0
 10
242.5488274385035
 20
-61.98233236406013
 30
0.0
 10
242.6981145395978
 20
-61.99116317693985
 30
0.0
 10
242.8402458543719
 20
-62.0190505611622
 30
0.0
 10
242.9402127539174
 20
-62.0756664075544
 30
0.0
 10
243.0931279665732
 20
-62.12305353351071
 30
0.0
 10
243.0261336646717
 20
-62.20782402455394
 30
0.0
 10
243.0102684049816
 20
-62.27541053583089
 30
0.0
 10
242.9784955460847
 20
-62.34053862663389
 30
0.0
 10
242.9956407139119
 20
-62.44256502199623
 30
0.0
 10
242.9472632137781
 20
-62.43486743774675
 30
0.0
 10
242.9121994370314
 20
-62.44173183731768
 30
0.0
 10
242.9102902915267
 20
-62.37716124298382
 30
0.0
 10
242.8791897861538
 20
-62.33154315835181
 30
0.0
 10
242.8470756558004
 20
-62.27418918828118
 30
0.0
 10
242.8014243404716
 20
-62.22439492764021
 30
0.0
 10
242.7464713147935
 20
-62.17985141737581
 30
0.0
 10
242.6817046102556
 20
-62.14215966620023
 30
0.0
 10
242.6038582240145
 20
-62.11696579665224
 30
0.0
 10
242.5161365482901
 20
-62.11048724458468
 30
0.0
 10
242.4259108207355
 20
-62.11744246170969
 30
0.0
 10
242.3400799623612
 20
-62.14070764995657
 30
0.0
 10
242.2634548568145
 20
-62.17848311349027
 30
0.0
 10
242.1971470565749
 20
-62.22928314367006
 30
0.0
 10
242.1428765466513
 20
-62.29248812049366
 30
0.0
 10
242.1031130275006
 20
-62.36703499746207
 30
0.0
 10
242.0782980440138
 20
-62.45062641458816
 30
0.0
 10
242.0698329192418
 20
-62.5578700707429
 30
0.0
 10
242.0825902916653
 20
-62.68014498189015
 30
0.0
 10
242.1487753338822
 20
-62.79830231165369
 30
0.0
 10
242.2447182329381
 20
-62.88373629747046
 30
0.0
 10
242.3564119892731
 20
-62.95396593149858
 30
0.0
 10
242.4817068598252
 20
-63.0132079315127
 30
0.0
 10
242.6156028870996
 20
-63.06363247370444
 30
0.0
 10
242.7496135262698
 20
-63.11657438472192
 30
0.0
 10
242.8757090246463
 20
-63.18229784831406
 30
0.0
 10
242.9882421567965
 20
-63.26499602919252
 30
0.0
 10
243.0837575213782
 20
-63.36983949146506
 30
0.0
 10
243.1478911416511
 20
-63.51042838205004
 30
0.0
 10
243.1617308654829
 20
-63.66914546004987
 30
0.0
 10
243.1480159641777
 20
-63.82826800238698
 30
0.0
 10
243.1050944083534
 20
-63.97496126637368
 30
0.0
 10
243.0352111258615
 20
-64.10860158869436
 30
0.0
 10
242.9380797143377
 20
-64.2244756775728
 30
0.0
 10
242.8154010953206
 20
-64.31889973686492
 30
0.0
 10
242.6680613342716
 20
-64.38800684804593
 30
0.0
 10
242.4983337426674
 20
-64.43026744597726
 30
0.0
 10
242.3123609909146
 20
-64.44198219226169
 30
0.0
 10
242.1335160855732
 20
-64.4317046877314
 30
0.0
 10
241.9687938683292
 20
-64.39013381687423
 30
0.0
 10
241.8640615770606
 20
-64.32182312572634
 30
0.0
 10
241.7157165719913
 20
-64.27304736424473
 30
0.0
 10
241.7786583124277
 20
-64.18003364165733
 30
0.0
 10
241.7878479359609
 20
-64.10683419208299
 30
0.0
 10
241.810991623078
 20
-64.04043660955229
 30
0.0
 10
241.7840793264867
 20
-63.94005145929
 30
0.0
 10
241.8327543885887
 20
-63.94745921939197
 30
0.0
 10
241.8722735510246
 20
-63.94085891835686
 30
0.0
 10
241.880240987425
 20
-64.01901252237643
 30
0.0
 10
241.9111641897473
 20
-64.0537902808072
 30
0.0
 10
241.92721597654
 20
-64.07184292240582
 30
0.0
 11
241.92721597654
 21
-64.07184292240582
 31
0.0
 11
241.9788243005412
 21
-64.13250085641842
 31
0.0
 11
242.0407310430884
 21
-64.18708660293257
 31
0.0
 11
242.1133968939351
 21
-64.23395974528194
 31
0.0
 11
242.1972673585392
 21
-64.27140049180039
 31
0.0
 11
242.2918415661959
 21
-64.29589319144698
 31
0.0
 11
242.3967808256714
 21
-64.30404125568104
 31
0.0
 11
242.5046944427101
 21
-64.29415906818353
 31
0.0
 11
242.6014624871165
 21
-64.26451250569094
 31
0.0
 11
242.6856981012868
 21
-64.21804836507758
 31
0.0
 11
242.7562349137235
 21
-64.15788542238427
 31
0.0
 11
242.8125647039529
 21
-64.08474135990257
 31
0.0
 11
242.8542894945551
 21
-63.99958521409054
 31
0.0
 11
242.8800885737581
 21
-63.90543764466963
 31
0.0
 11
242.8887029658995
 21
-63.80528403358356
 31
0.0
 11
242.8684722632906
 21
-63.66336704577179
 31
0.0
 11
242.807872759628
 21
-63.5541327142019
 31
0.0
 11
242.7171176215835
 21
-63.46898649026482
 31
0.0
 11
242.6066306814289
 21
-63.3992720892406
 31
0.0
 11
242.4814728460803
 21
-63.34000101286654
 31
0.0
 11
242.3469156880547
 21
-63.28575701982456
 31
0.0
 11
242.2123089206555
 21
-63.22778681150572
 31
0.0
 11
242.0872006946806
 21
-63.15682556152345
 31
0.0
 11
241.9766481027829
 21
-63.06866639487883
 31
0.0
 11
241.8859586164814
 21
-62.9589966032396
 31
0.0
 11
241.8253260399032
 21
-62.81800234980261
 31
0.0
 11
241.8051284102102
 21
-62.63566695054263
 31
0.0
 11
241.8180235400896
 21
-62.49763823529935
 31
0.0
 11
241.8567221588939
 21
-62.37246827005288
 31
0.0
 11
241.9199346661055
 21
-62.26200693327492
 31
0.0
 11
242.0063704884094
 21
-62.16783070065955
 31
0.0
 11
242.1142697738511
 21
-62.09133414685926
 31
0.0
 11
242.2419731212876
 21
-62.03364285347089
 31
0.0
 11
242.3881598189471
 21
-61.99759888646603
 31
0.0
 11
242.5515973494998
 21
-61.98558570070514
 31
0.0
 11
242.7055123360838
 21
-61.99545686389711
 31
0.0
 11
242.8371092172156
 21
-62.02502625625078
 31
0.0
 11
242.9531841274488
 21
-62.07539961561325
 31
0.0
 11
243.060699767067
 21
-62.147157922887
 31
0.0
 11
243.0323198979992
 21
-62.20743331349691
 31
0.0
 11
243.0091060183831
 21
-62.27100938118929
 31
0.0
 11
242.9884585970349
 21
-62.34501113464307
 31
0.0
 11
242.9678045611036
 21
-62.43619757559249
 31
0.0
 11
242.9471802907964
 21
-62.43619757559249
 31
0.0
 11
242.9265560204892
 21
-62.43619757559249
 31
0.0
 11
242.9062911425339
 21
-62.3858484697023
 31
0.0
 11
242.880086368897
 21
-62.33129910339648
 31
0.0
 11
242.8456673854
 21
-62.27663839160461
 31
0.0
 11
242.8009759542485
 21
-62.22630361731166
 31
0.0
 11
242.7463538289059
 21
-62.18202780135047
 31
0.0
 11
242.6822926933875
 21
-62.14543813122074
 31
0.0
 11
242.6065887890689
 21
-62.12097409476849
 31
0.0
 11
242.5171926975997
 21
-62.11278854789555
 31
0.0
 11
242.4247142103756
 21
-62.12052981525474
 31
0.0
 11
242.3400277021194
 21
-62.14370952011009
 31
0.0
 11
242.2643229418388
 21
-62.18116459822567
 31
0.0
 11
242.1989959696065
 21
-62.23147181175474
 31
0.0
 11
242.1456692817212
 21
-62.29379662076697
 31
0.0
 11
242.1061014163449
 21
-62.36730007560969
 31
0.0
 11
242.081572868426
 21
-62.44991511899185
 31
0.0
 11
242.0734159033657
 21
-62.53937625612224
 31
0.0
 11
242.0936300695167
 21
-62.68384647310003
 31
0.0
 11
242.1542461096369
 21
-62.7938877838364
 31
0.0
 11
242.2449684250307
 21
-62.87946285325945
 31
0.0
 11
242.3554881878362
 21
-62.95038000601952
 31
0.0
 11
242.4806294867269
 21
-63.01065649905998
 31
0.0
 11
242.6152031812102
 21
-63.06389507543555
 31
0.0
 11
242.7497934121516
 21
-63.11940465875502
 31
0.0
 11
242.8749181745845
 21
-63.18602674207166
 31
0.0
 11
242.9854214009319
 21
-63.26861091739827
 31
0.0
 11
243.0761602527837
 21
-63.37179951980305
 31
0.0
 11
243.1367762929038
 21
-63.50427639476992
 31
0.0
 11
243.1569904590547
 21
-63.67453576972737
 31
0.0
 11
243.1428044677547
 21
-63.82846925059164
 31
0.0
 11
243.1002291938742
 21
-63.9737442418748
 31
0.0
 11
243.0305957813814
 21
-64.10581101267508
 31
0.0
 11
242.9351197008261
 21
-64.21972736681329
 31
0.0
 11
242.8147265702173
 21
-64.31264682859559
 31
0.0
 11
242.6702365131395
 21
-64.38147597788397
 31
0.0
 11
242.5029724462262
 21
-64.4239868025261
 31
0.0
 11
242.3142308277775
 21
-64.43814090842535
 31
0.0
 11
242.1211236655936
 21
-64.42398680252609
 31
0.0
 11
241.968518083046
 21
-64.38147597788397
 31
0.0
 11
241.8468102871752
 21
-64.32080922442687
 31
0.0
 11
241.7466466755911
 21
-64.2524563251384
 31
0.0
 11
241.7728525516587
 21
-64.17724410293499
 31
0.0
 11
241.7896326467167
 21
-64.10965188072964
 31
0.0
 11
241.8012401377401
 21
-64.03704029220614
 31
0.0
 11
241.8119811183688
 21
-63.94627167243718
 31
0.0
 11
241.8326274372864
 21
-63.94627167243718
 31
0.0
 11
241.8532737562041
 21
-63.94627167243718
 31
0.0
 11
241.8855121321178
 21
-64.00860750575494
 31
0.0
 11
241.92721597654
 21
-64.07184292240582
 31
0.0
  0
LWPOLYLINE
  5
B1
102
{ACAD_REACTORS
330
BE
102
}
330
48
100
AcDbEntity
  8
_U_30EC_U_30A4_U_30E4_U_30FC_1
  6
Continuous
 62
     2
100
AcDbPolyline
 90
        5
 70
     1
 43
0.0
 10
264.2384342962221
 20
-62.81257618660951
 10
264.2384342962221
 20
-62.98104521434519
 10
262.940917662658
 20
-62.98104521434519
 10
262.940917662658
 20
-62.81257618660951
 10
264.2384342962221
 20
-62.81257618660951
  0
MTEXT
  5
B3
330
48
100
AcDbEntity
  8
1
 62
     2
100
AcDbMText
 10
104.2806204929549
 20
203.7902004454345
 30
0.0
 40
5.0
 41
0.0
 71
     5
 72
     1
  1
図番
  7
CONVERTER_11
 73
     1
 44
0.45454545454545
  0
MTEXT
  5
B4
330
48
100
AcDbEntity
  8
1
 62
     2
100
AcDbMText
 10
100.7806204929549
 20
-44.20979955456576
 30
0.0
 40
3.5
 41
0.0
 71
     5
 72
     1
  1
備考
  7
CONVERTER_11
 73
     1
 44
0.45454545454545
  0
MTEXT
  5
B5
330
48
100
AcDbEntity
  8
1
 62
     2
100
AcDbMText
 10
100.7806204929549
 20
-55.45979955456576
 30
0.0
 40
3.5
 41
0.0
 71
     5
 72
     1
  1
品名
  7
CONVERTER_11
 73
     1
 44
0.72727272727273
  0
MTEXT
  5
B6
330
48
100
AcDbEntity
  8
1
 62
     2
100
AcDbMText
 10
100.7806204929549
 20
-63.95979955456576
 30
0.0
 40
3.5
 41
0.0
 71
     5
 72
     1
  1
品番
  7
CONVERTER_11
 73
     1
 44
0.72727272727273
  0
MTEXT
  5
B7
330
48
100
AcDbEntity
  8
1
 62
     2
100
AcDbMText
 10
173.2806204929549
 20
-53.20979955456576
 30
0.0
 40
3.0
 41
0.0
 71
     5
 72
     1
  1
承認
  7
CONVERTER_11
 73
     1
 44
0.59090909090909
  0
MTEXT
  5
B8
330
48
100
AcDbEntity
  8
1
 62
     2
100
AcDbMText
 10
246.7806204929549
 20
-54.70979955456576
 30
0.0
 40
3.5
 41
0.0
 71
     5
 72
     1
  1
第三角法
  7
CONVERTER_11
 73
     1
 44
0.54545454545455
  0
MTEXT
  5
B9
330
48
100
AcDbEntity
  8
1
 62
     2
100
AcDbMText
 10
190.2806204929549
 20
-53.20979955456576
 30
0.0
 40
3.0
 41
0.0
 71
     5
 72
     1
  1
検図
  7
CONVERTER_11
 73
     1
 44
0.59090909090909
  0
MTEXT
  5
BA
330
48
100
AcDbEntity
  8
1
 62
     2
100
AcDbMText
 10
224.2806204929549
 20
-53.20979955456576
 30
0.0
 40
3.0
 41
0.0
 71
     5
 72
     1
  1
設計
  7
CONVERTER_11
 73
     1
 44
0.59090909090909
  0
MTEXT
  5
BB
330
48
100
AcDbEntity
  8
1
 62
     2
100
AcDbMText
 10
207.2806204929549
 20
-53.20979955456576
 30
0.0
 40
3.0
 41
0.0
 71
     5
 72
     1
  1
製図
  7
CONVERTER_11
 73
     1
 44
0.59090909090909
  0
MTEXT
  5
BC
330
48
100
AcDbEntity
  8
1
 62
     2
100
AcDbMText
 10
161.2806204929549
 20
-54.20979955456576
 30
0.0
 40
3.5
 41
0.0
 71
     5
 72
     1
  1
尺度
  7
CONVERTER_11
 73
     1
 44
0.54545454545455
  0
MTEXT
  5
BD
330
48
100
AcDbEntity
  8
1
 62
   250
100
AcDbMText
 10
96.78062049295488
 20
-73.20979955456576
 30
0.0
 40
3.5
 41
0.0
 71
     4
 72
     1
  1
備考欄の文字列 原点位置=4
  7
CONVERTER_11
 73
     1
 44
0.54545454545455
  0
HATCH
  5
BE
330
48
100
AcDbEntity
  8
1
  6
Continuous
 62
     2
100
AcDbHatch
 10
0.0
 20
0.0
 30
0.0
210
0.0
220
0.0
230
1.0
  2
CUSTOM0
 70
     0
 71
     1
 91
        1
 92
        1
 93
        4
 72
     1
 10
264.2384342962221
 20
-62.81257618660951
 11
264.2384342962221
 21
-62.98104521434519
 72
     1
 10
264.2384342962221
 20
-62.98104521434519
 11
262.940917662658
 21
-62.98104521434519
 72
     1
 10
262.940917662658
 20
-62.98104521434519
 11
262.940917662658
 21
-62.81257618660951
 72
     1
 10
262.940917662658
 20
-62.81257618660951
 11
264.2384342962221
 21
-62.81257618660951
 97
        1
330
B1
 75
     1
 76
     2
 52
45.0
 41
0.1
 77
     0
 78
     1
 53
45.0
 43
0.0
 44
0.0
 45
-0.282842712474619
 46
0.0
 79
     0
 98
        1
 10
0.0
 20
0.0
  0
HATCH
  5
BF
330
48
100
AcDbEntity
  8
1
  6
Continuous
 62
     2
100
AcDbHatch
 10
0.0
 20
0.0
 30
0.0
210
0.0
220
0.0
230
1.0
  2
CUSTOM1
 70
     0
 71
     1
 91
        1
 92
        1
 93
        3
 72
     4
 94
        3
 73
     0
 74
     0
 95
       24
 96
       20
 40
0.0
 40
0.0
 40
0.0
 40
0.0
 40
0.2211075008753675
 40
0.4273218586245339
 40
0.5080174679239606
 40
0.5914835907870457
 40
0.8143265690193451
 40
1.05465130268663
 40
1.295452694023218
 40
1.518109231328862
 40
1.540864321905475
 40
1.595126460622764
 40
1.659890947896079
 40
1.714153085187353
 40
1.736908174961707
 40
1.764951100735412
 40
1.801562291220945
 40
1.953914424543637
 40
2.126104167379744
 40
2.126104167379744
 40
2.126104167379744
 40
2.126104167379744
 10
257.7181574486438
 20
-62.6199066034356
 10
257.6918784011361
 20
-62.67882327222203
 10
257.6410903823975
 20
-62.79268815777321
 10
257.5937989768661
 20
-63.06537997223464
 10
257.4849687732167
 20
-62.9653447288112
 10
257.3321005209185
 20
-62.93861362089245
 10
257.5492360110749
 20
-62.72461820438948
 10
257.5644688603929
 20
-62.50647837674087
 10
257.6713094421549
 20
-62.32528376390152
 10
257.6111585876627
 20
-62.04066729145174
 10
257.7140522324951
 20
-62.06865866234127
 10
257.7586138397699
 20
-62.07736703854276
 10
257.8187047324945
 20
-62.0884030127322
 10
257.8562824516987
 20
-62.10212432401021
 10
257.9058671858156
 20
-62.10223879296351
 10
257.8736363848874
 20
-62.1367336305795
 10
257.7978007151431
 20
-62.12575850918618
 10
257.8235652089242
 20
-62.31120985874126
 10
257.7862101693398
 20
-62.40277641906987
 10
257.7663909891157
 20
-62.45135820058871
 72
     4
 94
        3
 73
     0
 74
     0
 95
       70
 96
       66
 40
0.0
 40
0.0
 40
0.0
 40
0.0
 40
0.0241731073021472
 40
0.0846058988987582
 40
0.1631685280353852
 40
0.2417311571790608
 40
0.3021639488293888
 40
0.3263370654897246
 40
0.3533118254250604
 40
0.4228783438923799
 40
0.5179999095315054
 40
0.6216398239467594
 40
0.7167613891501304
 40
0.7863279069651427
 40
0.8133026791763399
 40
0.8372943998773249
 40
0.894505426137358
 40
0.9627895541963921
 40
1.020000580349117
 40
1.043992300975244
 40
1.071934345522953
 40
1.113121768772959
 40
1.145225199332283
 40
1.225483775412822
 40
1.329819923771534
 40
1.434156071994418
 40
1.514414647795842
 40
1.546518078208453
 40
1.57897476426017
 40
1.662678849314136
 40
1.777131373668442
 40
1.901833377474861
 40
2.01628590050068
 40
2.099989982528018
 40
2.132446666570377
 40
2.158782354486096
 40
2.216720867907891
 40
2.274659381334313
 40
2.300995069256249
 40
2.333451754066278
 40
2.417155836543987
 40
2.531608358985398
 40
2.656310362283864
 40
2.770762886389025
 40
2.854466971340219
 40
2.886923657364025
 40
2.913597976833454
 40
2.982389642875265
 40
3.076451716947129
 40
3.178937260458756
 40
3.272999334740145
 40
3.341791001059366
 40
3.368465320663684
 40
3.396976080738962
 40
3.472140811846198
 40
3.578408190308888
 40
3.700226892456381
 40
3.82204559463457
 40
3.928312973256648
 40
4.003477705315102
 40
4.031988456867168
 40
4.058324144797972
 40
4.116262658237133
 40
4.174201171400938
 40
4.200536849608874
 40
4.200536849608874
 40
4.200536849608874
 40
4.200536849608874
 10
257.7663909891157
 20
-62.45135820058871
 10
257.7744464474227
 20
-62.45135595644889
 10
257.8026405592787
 20
-62.45134809423777
 10
257.8571739733222
 20
-62.45149200628204
 10
257.9289096738151
 20
-62.45070834956677
 10
258.0042445066611
 20
-62.45352384992762
 10
258.0519257295987
 20
-62.44681552055617
 10
258.1001276175165
 20
-62.45782391764144
 10
258.0868776729424
 20
-62.40433552459543
 10
258.0957298894086
 20
-62.34930371913484
 10
258.0914902965835
 20
-62.25560046730468
 10
258.0939688410829
 20
-62.16020473238045
 10
258.0897143635609
 20
-62.06623133473189
 10
258.0986023595396
 20
-62.01184893018566
 10
258.0853182339494
 20
-61.95745957765116
 10
258.1320324206656
 20
-61.97137739121219
 10
258.1749459475285
 20
-61.96876078082533
 10
258.2411648386233
 20
-61.97331533005823
 10
258.2819547201346
 20
-61.98201793322415
 10
258.3331350620366
 20
-61.97448155566381
 10
258.3059925416748
 20
-62.01629985233291
 10
258.2609300985255
 20
-62.00694963383977
 10
258.2748269974599
 20
-62.07138748084738
 10
258.2664619361203
 20
-62.13601735829177
 10
258.2709837107947
 20
-62.23450814262687
 10
258.2660946240716
 20
-62.33384022614005
 10
258.275646392163
 20
-62.39686839903607
 10
258.2605966384748
 20
-62.46015943956783
 10
258.3255364386757
 20
-62.4446488251231
 10
258.3922451329046
 20
-62.45480567758761
 10
258.5047640400376
 20
-62.4499115535721
 10
258.6196440378502
 20
-62.45288750723793
 10
258.7326076929296
 20
-62.44758291271584
 10
258.7982472527226
 20
-62.45872648984484
 10
258.8622481620602
 20
-62.44235423136719
 10
258.8509347818738
 20
-62.49218265551299
 10
258.8581544801059
 20
-62.53563240244454
 10
258.8509347540818
 20
-62.57908209869133
 10
258.8622482105543
 20
-62.628910602597
 10
258.7982468528521
 20
-62.61253789365212
 10
258.7326126170008
 20
-62.62368683794987
 10
258.619617924688
 20
-62.61835098249722
 10
258.5048661478191
 20
-62.62145609792753
 10
258.3919388616411
 20
-62.61615060773989
 10
258.3261425833132
 20
-62.62722655436979
 10
258.2622302904907
 20
-62.61092357608958
 10
258.2742220094675
 20
-62.66556431060836
 10
258.2668309542553
 20
-62.72125660408733
 10
258.2698889771531
 20
-62.81330266316006
 10
258.2699627715232
 20
-62.90800845583477
 10
258.2666518507907
 20
-63.0002717255431
 10
258.2745710919452
 20
-63.05544186720437
 10
258.2621281541165
 20
-63.10921786356441
 10
258.3195321481181
 20
-63.09526186593795
 10
258.3800913069931
 20
-63.1046849757235
 10
258.485488578463
 20
-63.10037069527871
 10
258.6010499000171
 20
-63.10144450844543
 10
258.7165893807346
 20
-63.10253989555582
 10
258.822038606039
 20
-63.09817429685942
 10
258.8824885401353
 20
-63.10770529425906
 10
258.9399042668659
 20
-63.09362665850196
 10
258.9283978806257
 20
-63.14272802190893
 10
258.9343771711298
 20
-63.18415297437927
 10
258.9326515980351
 20
-63.23328277489881
 10
258.9327705052519
 20
-63.26125527008969
 10
258.9328076621382
 20
-63.26999667260627
 72
     4
 94
        3
 73
     0
 74
     0
 95
       62
 96
       58
 40
0.0
 40
0.0
 40
0.0
 40
0.0
 40
0.0598250028308485
 40
0.2024846486897331
 40
0.3727558389221031
 40
0.515415484793607
 40
0.5752404975785907
 40
0.9332326775488209
 40
1.290451762839567
 40
1.602077253145965
 40
1.699931634112239
 40
1.799359756425102
 40
2.270120149657218
 40
2.804661928461702
 40
2.882342287383413
 40
3.076543185719264
 40
3.329004354835722
 40
3.581465524568533
 40
3.775666424543819
 40
3.853346784558444
 40
3.89912067959519
 40
3.984129341792159
 40
4.029903236817479
 40
4.105797496059641
 40
4.295533144152604
 40
4.542189486611837
 40
4.788845828875798
 40
4.978581476410175
 40
5.054475735244421
 40
5.621734664339441
 40
6.130867242037498
 40
6.225249780948768
 40
6.318913039727426
 40
6.663579954559039
 40
7.047498900224824
 40
7.435230791575822
 40
7.498943906668177
 40
7.650875181210227
 40
7.832212509001766
 40
7.98414378369718
 40
8.04785689890328
 40
8.091554632732784
 40
8.172707566964451
 40
8.216405300768177
 40
8.28902178216109
 40
8.462184160757406
 40
8.6688618380056
 40
8.842024215264107
 40
8.914640695475303
 40
8.98988158086151
 40
9.155411528827418
 40
9.320941477744203
 40
9.396182352487456
 40
9.454709011144002
 40
9.583467660170966
 40
9.712226309013188
 40
9.770752957989698
 40
9.770752957989698
 40
9.770752957989698
 40
9.770752957989698
 10
258.9328076621382
 20
-63.26999667260627
 10
258.9128553101172
 20
-63.26999079887907
 10
258.8453242646015
 20
-63.26997091650419
 10
258.7216817091337
 20
-63.27030592936251
 10
258.5669385079605
 20
-63.26872281706066
 10
258.4503554412029
 20
-63.27293876596082
 10
258.2357147563789
 20
-63.25764750124949
 10
258.6325153336778
 20
-63.61781234170384
 10
258.6751860998816
 20
-63.83469452059408
 10
259.099536707616
 20
-64.01654892945135
 10
258.9246026425623
 20
-64.11994758888501
 10
258.8000728854634
 20
-64.33148432243863
 10
258.547248216549
 20
-63.86173874455011
 10
258.2603807823176
 20
-63.2146843847206
 10
258.2712540856207
 20
-63.52197283301881
 10
258.2689097707508
 20
-63.686913384848
 10
258.2667301055959
 20
-63.92100284744883
 10
258.2786979325896
 20
-64.16481883034795
 10
258.2494189670178
 20
-64.31124158595591
 10
258.2920727555018
 20
-64.45866465282036
 10
258.2046018935188
 20
-64.44294158150359
 10
258.1574732536293
 20
-64.44285651913123
 10
258.0705178137262
 20
-64.45870529973666
 10
258.1119678951272
 20
-64.31452184033812
 10
258.0836079933835
 20
-64.17124902758121
 10
258.0952178704847
 20
-63.93305008091312
 10
258.0930380577822
 20
-63.70462720216229
 10
258.0909316057542
 20
-63.54274226080582
 10
258.1014240367873
 20
-63.2282624612282
 10
257.7935168182443
 20
-63.91750484584148
 10
257.4861463197004
 20
-64.39503205213522
 10
257.3657571995823
 20
-64.17238842819151
 10
257.1880812840271
 20
-64.05968920501003
 10
257.6659531292444
 20
-63.88431811991119
 10
257.7160163986755
 20
-63.64888026204541
 10
258.1390004551266
 20
-63.25656966111968
 10
257.908295920309
 20
-63.27324648427514
 10
257.7855890788891
 20
-63.26710436507805
 10
257.613168802521
 20
-63.27667132757006
 10
257.5019429623998
 20
-63.2553113696691
 10
257.3831984556997
 20
-63.28843690099156
 10
257.3989374636235
 20
-63.20776054849694
 10
257.3984755863312
 20
-63.1633454116572
 10
257.383408681948
 20
-63.08012873678044
 10
257.5178585864992
 20
-63.11917303472691
 10
257.6425960475296
 20
-63.09240226128155
 10
257.8434960166828
 20
-63.10916006412523
 10
257.9727745878903
 20
-63.08775729543573
 10
258.1134624857843
 20
-63.12111176603156
 10
258.0787132382166
 20
-62.98328079671509
 10
258.1028390596261
 20
-62.86016698107097
 10
258.0773291111941
 20
-62.73955899786237
 10
258.1139456076234
 20
-62.60440090315082
 10
258.0017621957318
 20
-62.62885409674684
 10
257.9086561386685
 20
-62.61672205614552
 10
257.7997752509369
 20
-62.62022325386583
 10
257.7375902570513
 20
-62.61998199504973
 10
257.7181574486795
 20
-62.61990660332432
 97
        3
330
A2
330
A0
330
A1
 75
     1
 76
     2
 52
45.0
 41
0.1
 77
     0
 78
     1
 53
45.0
 43
0.0
 44
0.0
 45
-0.282842712474619
 46
0.0
 79
     0
 98
        1
 10
0.0
 20
0.0
  0
HATCH
  5
C0
330
48
100
AcDbEntity
  8
1
  6
Continuous
 62
     2
100
AcDbHatch
 10
0.0
 20
0.0
 30
0.0
210
0.0
220
0.0
230
1.0
  2
CUSTOM2
 70
     0
 71
     1
 91
        1
 92
        1
 93
        1
 72
     4
 94
        3
 73
     0
 74
     0
 95
      124
 96
      120
 40
0.0
 40
0.0
 40
0.0
 40
0.0
 40
0.0278187229624226
 40
0.1011590162383985
 40
0.2048470170590239
 40
0.3237088716559245
 40
0.4425707262521431
 40
0.5462587270699263
 40
0.6195990203311798
 40
0.647417752257866
 40
0.6750060736115278
 40
0.7357003855242688
 40
0.7963946998054474
 40
0.8239830245571802
 40
0.8540933811102327
 40
0.9373396629409008
 40
1.063094687343239
 40
1.220731268638048
 40
1.39962222091478
 40
1.589140358637707
 40
1.778658496423845
 40
1.957549448940512
 40
2.115186030873105
 40
2.240941056914409
 40
2.324187341760507
 40
2.354297700109357
 40
2.381886024671872
 40
2.442580338710457
 40
2.503274652750492
 40
2.530862977314585
 40
2.560983949278566
 40
2.640393784452884
 40
2.752662861759107
 40
2.881361560118123
 40
3.010060258455142
 40
3.122329335705317
 40
3.20173917081796
 40
3.231860142753292
 40
3.26429802403034
 40
3.352343701778225
 40
3.48209522686873
 40
3.639650650172997
 40
3.811108022565457
 40
3.982565394927954
 40
4.14012081815254
 40
4.269872343141253
 40
4.35791802080231
 40
4.390355902043944
 40
4.42325625399257
 40
4.508104530073063
 40
4.624121560636859
 40
4.750528176031644
 40
4.866545206602034
 40
4.951393482692077
 40
4.984293834645478
 40
5.011450833242393
 40
5.071196230152176
 40
5.130941627057248
 40
5.158098625648919
 40
5.190998977601525
 40
5.275847253689407
 40
5.391864284256955
 40
5.518270899648443
 40
5.634287930209511
 40
5.719136206288128
 40
5.752036558236072
 40
5.782130946283091
 40
5.862783906229269
 40
5.979550131775135
 40
6.117984316640553
 40
6.263641154588087
 40
6.402075339414297
 40
6.518841564908088
 40
6.599494524815669
 40
6.62958891284891
 40
6.654403028226544
 40
6.713575149488226
 40
6.784199939329516
 40
6.843372060493619
 40
6.868186175802836
 40
6.896246243201858
 40
6.939586233758283
 40
6.967846564564915
 40
7.043584251089853
 40
7.153234334451709
 40
7.283231855734456
 40
7.420011856035486
 40
7.550009376579843
 40
7.659659458835235
 40
7.735397144417234
 40
7.763657474851406
 40
7.796409728011091
 40
7.880876065096394
 40
7.996370852465751
 40
8.12220844641859
 40
8.237703224799297
 40
8.322169562010906
 40
8.354921815205948
 40
8.382078813307736
 40
8.441824209207034
 40
8.501569605240185
 40
8.528726603485765
 40
8.561478856695814
 40
8.645945193877921
 40
8.761439980865347
 40
8.887277580764518
 40
9.00277236200104
 40
9.087238696661231
 40
9.119990949235714
 40
9.152428830613403
 40
9.240474508638627
 40
9.370226034149589
 40
9.527781457984453
 40
9.69923883098145
 40
9.870696203978632
 40
10.02825162781407
 40
10.15800315332569
 40
10.24604883135122
 40
10.27848670378525
 40
10.27848670378525
 40
10.27848670378525
 40
10.27848670378525
 10
267.1628032493932
 20
-64.19569438070819
 10
267.1720759667072
 20
-64.19569456945301
 10
267.2057949466409
 20
-64.1956952457986
 10
267.2740911742015
 20
-64.19568148213271
 10
267.3726346641129
 20
-64.19576731237032
 10
267.4868271394361
 20
-64.19538199844327
 10
267.5992099346619
 20
-64.1967911955903
 10
267.7020581529667
 20
-64.19260838034334
 10
267.7613044804398
 20
-64.20156866204596
 10
267.8177470866582
 20
-64.18815520930514
 10
267.8052460516504
 20
-64.23892756843216
 10
267.813575456525
 20
-64.28390634517507
 10
267.805437577067
 20
-64.32923202466088
 10
267.8176734144006
 20
-64.3804802304811
 10
267.7553978419882
 20
-64.365320000913
 10
267.6866717956418
 20
-64.37620204745832
 10
267.558896167914
 20
-64.37068650708606
 10
267.4069189441192
 20
-64.37279104202878
 10
267.2308900902072
 20
-64.37208952868104
 10
267.0450636863835
 20
-64.37234717925283
 10
266.8592372366725
 20
-64.37208950311974
 10
266.6832085071717
 20
-64.37279113608845
 10
266.5312309083744
 20
-64.37068623226587
 10
266.4034562594103
 20
-64.37620274688936
 10
266.334728276613
 20
-64.36531878330635
 10
266.2724553972432
 20
-64.38048168772366
 10
266.2846821219566
 20
-64.32922444651405
 10
266.2766209392145
 20
-64.2839748218415
 10
266.2846880739442
 20
-64.2387359750125
 10
266.2724443416633
 20
-64.18745778546621
 10
266.3331222050246
 20
-64.20230378093437
 10
266.3969015675285
 20
-64.19223507285844
 10
266.5083519283052
 20
-64.19685311244577
 10
266.6303738373372
 20
-64.19566626551108
 10
266.7525743067372
 20
-64.19464091555942
 10
266.8635999216942
 20
-64.19887479833174
 10
266.9282722343506
 20
-64.18961370934838
 10
266.9897367740051
 20
-64.20375532406892
 10
266.9736270530886
 20
-64.13744427572058
 10
266.9849185256908
 20
-64.06532165334602
 10
266.9793605752109
 20
-63.93466194568288
 10
266.981423999124
 20
-63.78372631748336
 10
266.9806372056843
 20
-63.61644082348688
 10
266.9814050145176
 20
-63.44918845124274
 10
266.9794243715177
 20
-63.29816666186662
 10
266.9847511086169
 20
-63.16773885903581
 10
266.9739306317973
 20
-63.09514512850677
 10
266.9896531359424
 20
-63.02829486019776
 10
266.9238913062038
 20
-63.0439944296575
 10
266.8562572760312
 20
-63.0337071237258
 10
266.7422090223359
 20
-63.03866168609456
 10
266.6257447604451
 20
-63.03565827426101
 10
266.5112759051026
 20
-63.04099652313187
 10
266.444652958736
 20
-63.02978687381752
 10
266.3796974644734
 20
-63.04630822791565
 10
266.3914194688255
 20
-62.99506234979516
 10
266.3839035118669
 20
-62.95029621672485
 10
266.3914194808383
 20
-62.90553010558618
 10
266.3796974434895
 20
-62.85428419326837
 10
266.4446531268748
 20
-62.8708057368976
 10
266.5112738269369
 20
-62.85959384082631
 10
266.6257557787612
 20
-62.86494518745911
 10
266.7421659366511
 20
-62.86188766685459
 10
266.856386510419
 20
-62.8670145644587
 10
266.9236355368774
 20
-62.85634222100975
 10
266.9889530870988
 20
-62.87237872787502
 10
266.9747596378099
 20
-62.81030269706523
 10
266.9842264392544
 20
-62.74393193827812
 10
266.9796473933633
 20
-62.62739982714609
 10
266.9813901485497
 20
-62.495532704342
 10
266.980375642494
 20
-62.35363995306303
 10
266.9823396273922
 20
-62.22210904753996
 10
266.97708734834
 20
-62.10455378173577
 10
266.9879613693022
 20
-62.04032166454989
 10
266.9725741571403
 20
-61.97871152911529
 10
267.0213796467349
 20
-61.99277548074465
 10
267.0660200494275
 20
-61.99025213381262
 10
267.1344848876291
 20
-61.99467158054865
 10
267.1765311098651
 20
-62.00366929912543
 10
267.2293749688324
 20
-61.99568240590067
 10
267.2013239931563
 20
-62.03866037844904
 10
267.1555347178144
 20
-62.02720403412739
 10
267.1675744002813
 20
-62.0880643545144
 10
267.1602291000191
 20
-62.15210655987804
 10
267.163740075571
 20
-62.26070586592663
 10
267.1626011689723
 20
-62.38485636311825
 10
267.1625379709812
 20
-62.51790235626699
 10
267.1639077896417
 20
-62.6418257420702
 10
267.1597843730862
 20
-62.75111617607238
 10
267.1683968033113
 20
-62.81371375362404
 10
267.1552962383951
 20
-62.87239822160213
 10
267.2200089257747
 20
-62.85617841645673
 10
267.2866610882706
 20
-62.86709695073264
 10
267.4004984470652
 20
-62.8618621528282
 10
267.5163464051644
 20
-62.86494407939664
 10
267.630312919283
 20
-62.85961695644062
 10
267.6966545947648
 20
-62.87075747290034
 10
267.7613393455029
 20
-62.85432975863396
 10
267.7496025702272
 20
-62.90554030246526
 10
267.7571372992588
 20
-62.95029621335573
 10
267.7496025921807
 20
-62.9950521644655
 10
267.7613393070285
 20
-63.04626264585534
 10
267.69665490048
 20
-63.02983527662354
 10
267.6303091360374
 20
-63.04097171009305
 10
267.5163664416561
 20
-63.03566839563457
 10
267.4004200552603
 20
-63.03865190863031
 10
267.2868961811673
 20
-63.03373063188184
 10
267.2195436248351
 20
-63.04394867943053
 10
267.1540490052045
 20
-63.02833959317761
 10
267.1697918548764
 20
-63.09516103629161
 10
267.1589480927763
 20
-63.16772897640698
 10
267.1642786559342
 20
-63.2981770784216
 10
267.1623341081405
 20
-63.44915397271352
 10
267.1629338612763
 20
-63.61657711522416
 10
267.1627711489154
 20
-63.78323779338206
 10
267.1628100417685
 20
-63.9361981253494
 10
267.1628021342648
 20
-64.06130776470873
 10
267.1628033312294
 20
-64.14472064465154
 10
267.1628032645756
 20
-64.184881771746
 10
267.1628032493932
 20
-64.19569438070819
 97
        1
330
A3
 75
     1
 76
     2
 52
45.0
 41
0.1
 77
     0
 78
     1
 53
45.0
 43
0.0
 44
0.0
 45
-0.282842712474619
 46
0.0
 79
     0
 98
        1
 10
0.0
 20
0.0
  0
HATCH
  5
C1
330
48
100
AcDbEntity
  8
1
  6
Continuous
 62
     2
100
AcDbHatch
 10
0.0
 20
0.0
 30
0.0
210
0.0
220
0.0
230
1.0
  2
CUSTOM3
 70
     0
 71
     1
 91
        1
 92
        1
 93
        1
 72
     4
 94
        3
 73
     0
 74
     0
 95
      131
 96
      127
 40
0.0
 40
0.0
 40
0.0
 40
0.0
 40
0.0195577029826547
 40
0.0426490537461869
 40
0.2863607575856961
 40
0.5344948436189985
 40
0.7842238845574079
 40
0.8737315789468204
 40
0.9803832810313933
 40
1.092842274517101
 40
1.199761146656901
 40
1.289788768186649
 40
1.351573580786299
 40
1.370727117561574
 40
1.416400936017921
 40
1.470914848356033
 40
1.516588666791856
 40
1.535742203552934
 40
1.634216592293305
 40
1.760283341175163
 40
1.8979666866822
 40
2.031216387368955
 40
2.049689751137945
 40
2.101115601646887
 40
2.179502577740001
 40
2.278859318314109
 40
2.393194462258774
 40
2.516516648383882
 40
2.642834515406013
 40
2.766156701983524
 40
2.880491846754628
 40
2.979848588358683
 40
3.058235565443842
 40
3.10966141666899
 40
3.128134780704177
 40
3.146783742386523
 40
3.191254343315412
 40
3.244332157316099
 40
3.288802758226003
 40
3.307451719895217
 40
3.327717853844822
 40
3.3837477535802
 40
3.468388665924598
 40
3.574487837698887
 40
3.694892515729
 40
3.822449946852129
 40
3.950007377920533
 40
4.070412055800622
 40
4.176511227368172
 40
4.261152139501617
 40
4.31718203907681
 40
4.337448172964733
 40
4.620011002696345
 40
4.885096638397596
 40
4.945373043518435
 40
5.014107710488799
 40
5.070481727652214
 40
5.319246955636761
 40
5.584812164506311
 40
5.859000912057164
 40
6.133746937542303
 40
6.401732212969079
 40
6.420736683995641
 40
6.472845717451263
 40
6.550702743894248
 40
6.646951193874485
 40
6.754234497930724
 40
6.865196086587445
 40
6.972479390357875
 40
7.068727839772065
 40
7.146584865451017
 40
7.198693898189275
 40
7.217698368905416
 40
7.234950401630896
 40
7.276089864269934
 40
7.325191803516041
 40
7.366331266090426
 40
7.383583298769785
 40
7.402779163492133
 40
7.453386443254536
 40
7.524934666445623
 40
7.606953361405878
 40
7.688972056429058
 40
7.760520279784251
 40
7.811127559734522
 40
7.830323424546171
 40
7.847844055299801
 40
7.894799345666839
 40
7.962779392744536
 40
8.04337429356059
 40
8.128174145149494
 40
8.208769044817295
 40
8.276749090376995
 40
8.323704379669564
 40
8.341225010056299
 40
8.35849761480039
 40
8.401679126686595
 40
8.457815092185625
 40
8.513951057728029
 40
8.557132569708013
 40
8.574405174505028
 40
8.602340668616373
 40
8.643455660539827
 40
8.663225271966487
 40
8.715345156564139
 40
8.789031889628488
 40
8.87350204552021
 40
8.957972194323842
 40
9.031658925567724
 40
9.083778811234422
 40
9.103548423002882
 40
9.119550083123476
 40
9.160817522379693
 40
9.21724442911003
 40
9.278724491644516
 40
9.335151398295329
 40
9.376418837357596
 40
9.392420497300384
 40
9.401196302734654
 40
9.417494229384104
 40
9.426270027749403
 40
9.440875075477434
 40
9.475702496998618
 40
9.517270709865777
 40
9.55209813199402
 40
9.566703169884153
 40
9.566703169884153
 40
9.566703169884153
 40
9.566703169884153
 10
266.3976459078028
 20
-62.53964083945549
 10
266.394055002292
 20
-62.54526264754417
 10
266.3862244053173
 20
-62.55752201037462
 10
266.2936173904096
 20
-62.59378039415613
 10
266.2693827162797
 20
-62.80831511243861
 10
266.1664914775486
 20
-62.98782670946868
 10
265.9026697293854
 20
-63.17364381658433
 10
266.0651676498728
 20
-63.25020618890495
 10
266.1413430690387
 20
-63.31123262261131
 10
266.2298376002307
 20
-63.37464150911822
 10
266.3196135162658
 20
-63.43454321237017
 10
266.3690022565594
 20
-63.48877800607362
 10
266.4551913086931
 20
-63.5169371491475
 10
266.4217465603776
 20
-63.55266645803758
 10
266.4020876095859
 20
-63.58429567464674
 10
266.372609314743
 20
-63.62504082660508
 10
266.349519437558
 20
-63.65475291966933
 10
266.3186410897905
 20
-63.7076853278808
 10
266.2535398295288
 20
-63.58239620517675
 10
266.1602205051963
 20
-63.52766055222641
 10
266.0756841214688
 20
-63.47063531517237
 10
265.952870305529
 20
-63.31304668029054
 10
265.9570655776851
 20
-63.38944148689741
 10
265.9557683582226
 20
-63.43618675295281
 10
265.9564331377626
 20
-63.51395169643977
 10
265.9561754916504
 20
-63.61077887132151
 10
265.9562636169472
 20
-63.72329676377769
 10
265.956228223183
 20
-63.84455869510877
 10
265.9562716687828
 20
-63.96893057597617
 10
265.9561404871954
 20
-64.0901227182524
 10
265.9565682491596
 20
-64.20288806536834
 10
265.9552883131859
 20
-64.29897041687833
 10
265.9585964780592
 20
-64.37866128987876
 10
265.9521402669636
 20
-64.42164779667792
 10
265.9612413635105
 20
-64.46024523084533
 10
265.9254115269484
 20
-64.45169067732508
 10
265.89214287448
 20
-64.45637435471131
 10
265.841076750559
 20
-64.45628656696792
 10
265.8075928902361
 20
-64.45185525172758
 10
265.7713790338303
 20
-64.46019161614066
 10
265.7815987498213
 20
-64.41834678277291
 10
265.7742692817321
 20
-64.37201394636402
 10
265.7779838065652
 20
-64.28605124350563
 10
265.7765685484443
 20
-64.18374812751726
 10
265.7770310484186
 20
-64.06526731525065
 10
265.7768978615779
 20
-63.94022272303219
 10
265.7769220839594
 20
-63.81504127349528
 10
265.77695598551
 20
-63.69693310077519
 10
265.7768265222682
 20
-63.59351206747058
 10
265.777171247863
 20
-63.51047919302913
 10
265.7764903208238
 20
-63.4583658693533
 10
265.7800791530174
 20
-63.33067047635222
 10
265.5632376315986
 20
-63.62931238636953
 10
265.38275598515
 20
-63.85715973945058
 10
265.329652722516
 20
-63.71606512166763
 10
265.3006634062697
 20
-63.66654187895634
 10
265.2002852992367
 20
-63.5633817566647
 10
265.521133265281
 20
-63.48284920432795
 10
265.6496101934978
 20
-63.29913672420145
 10
265.8712659254908
 20
-63.09047959684816
 10
265.9576429823617
 20
-62.91640744228236
 10
266.2355599158622
 20
-62.64012904114054
 10
266.1152452768832
 20
-62.64445395905464
 10
266.0669402280897
 20
-62.6436509925402
 10
265.9908582384452
 20
-62.64405373309992
 10
265.8973214939298
 20
-62.64389679844966
 10
265.7923799718104
 20
-62.64397452880352
 10
265.6840092668266
 20
-62.6438449107802
 10
265.5787659165446
 20
-62.64425561965886
 10
265.4862442748961
 20
-62.64297881784984
 10
265.4074335730257
 20
-62.64639188921727
 10
265.3645879494929
 20
-62.63956605420257
 10
265.3255704516064
 20
-62.64914891255452
 10
265.3332570201413
 20
-62.61559175891033
 10
265.3291669333861
 20
-62.58456405134342
 10
265.3291736298363
 20
-62.53743426185677
 10
265.3332444654461
 20
-62.50639013809798
 10
265.3255700504131
 20
-62.47278093820677
 10
265.3641024335043
 20
-62.48231545035704
 10
265.4047432944029
 20
-62.47582519958507
 10
265.4757676780012
 20
-62.47879804806321
 10
265.5535523079183
 20
-62.47805194057419
 10
265.6313497176023
 20
-62.47732141412052
 10
265.7023437019456
 20
-62.48025719942414
 10
265.7430484721369
 20
-62.47384486683623
 10
265.7816058419458
 20
-62.48329431280573
 10
265.7733547684478
 20
-62.44715263297794
 10
265.7788551598906
 20
-62.40850117843348
 10
265.7761959135713
 20
-62.34066426894737
 10
265.7772020401081
 20
-62.26388313917836
 10
265.7766382947867
 20
-62.18130561873818
 10
265.7776919456142
 20
-62.10462626226699
 10
265.7748880792677
 20
-62.03647964679875
 10
265.7806907650854
 20
-61.99847555647231
 10
265.7721859480707
 20
-61.96221507378931
 10
265.8061815162673
 20
-61.97224231684724
 10
265.8400780612646
 20
-61.96906688642867
 10
265.8932873989895
 20
-61.97470989815967
 10
265.9466973504032
 20
-61.97545181020153
 10
265.9802119579037
 20
-61.98160731973596
 10
266.0194291112588
 20
-61.97633925682988
 10
265.992646862804
 20
-62.01726574663083
 10
265.9514315931273
 20
-62.00608750918468
 10
265.9588846470423
 20
-62.05112899264452
 10
265.9548432881733
 20
-62.09567677428431
 10
265.9567918979188
 20
-62.16756382834872
 10
265.9558569779308
 20
-62.24811324867805
 10
265.9571312119579
 20
-62.32805960051581
 10
265.9538248723413
 20
-62.40138118373392
 10
265.9608311109508
 20
-62.44291312454008
 10
265.9507645309675
 20
-62.48227536888466
 10
265.983601973347
 20
-62.47511892025594
 10
266.017078222603
 20
-62.47952712318634
 10
266.0721258405567
 20
-62.47762012108677
 10
266.1295707524865
 20
-62.47794589049291
 10
266.1829231177858
 20
-62.47873646723491
 10
266.2204745826187
 20
-62.47665996338502
 10
266.2429377452785
 20
-62.47957617289467
 10
266.255788300328
 20
-62.47407402812523
 10
266.2664460615438
 20
-62.47178837258782
 10
266.2792840579693
 20
-62.46484982868526
 10
266.2952195962619
 20
-62.48126909142901
 10
266.3216828850441
 20
-62.49270833137129
 10
266.3533010183306
 20
-62.51335267621389
 10
266.3793460821702
 20
-62.52863085828278
 10
266.3934722653523
 20
-62.53712979133391
 10
266.3976459078028
 20
-62.53964083945549
 97
        1
330
A4
 75
     1
 76
     2
 52
45.0
 41
0.1
 77
     0
 78
     1
 53
45.0
 43
0.0
 44
0.0
 45
-0.282842712474619
 46
0.0
 79
     0
 98
        1
 10
0.0
 20
0.0
  0
HATCH
  5
C2
330
48
100
AcDbEntity
  8
1
  6
Continuous
 62
     2
100
AcDbHatch
 10
0.0
 20
0.0
 30
0.0
210
0.0
220
0.0
230
1.0
  2
CUSTOM4
 70
     0
 71
     1
 91
        1
 92
        1
 93
        1
 72
     4
 94
        3
 73
     0
 74
     0
 95
       91
 96
       87
 40
0.0
 40
0.0
 40
0.0
 40
0.0
 40
0.026753225435663
 40
0.0856103386464049
 40
0.1444674521996567
 40
0.1712206856618443
 40
0.203941600564275
 40
0.2955601971652698
 40
0.4362601844616563
 40
0.6162252844507463
 40
0.8256392189704627
 40
1.054685709844347
 40
1.293548478893496
 40
1.532411247938268
 40
1.761457738799532
 40
1.970871673298501
 40
2.150836773256725
 40
2.291536760495529
 40
2.383155356836693
 40
2.415876284101256
 40
2.442629517487899
 40
2.501486630949022
 40
2.560343744424171
 40
2.587096977826445
 40
2.617068194440844
 40
2.699247336756014
 40
2.822032643466298
 40
2.973822353257799
 40
3.143014704823327
 40
3.318007936879849
 40
3.487200288186625
 40
3.638989997548163
 40
3.761775303794605
 40
3.843954445752968
 40
3.873925662229692
 40
3.890812773500399
 40
3.907699884771633
 40
3.937960767857262
 40
3.98098361814232
 40
4.199085915228469
 40
4.439444339237249
 40
4.677588241260955
 40
5.050698317837869
 40
5.448212454763369
 40
5.855291218044837
 40
6.138575438885543
 40
6.417434507584389
 40
6.444551104394048
 40
6.504207617363418
 40
6.563864130314793
 40
6.590980727104411
 40
6.848609460381833
 40
7.109611990668726
 40
7.352910904446405
 40
7.557830220705731
 40
7.587518925913648
 40
7.652834077376045
 40
7.718149228845984
 40
7.74783793406226
 40
7.854880190301246
 40
7.97651125740375
 40
8.369487896592581
 40
8.757514959223903
 40
9.126072419331367
 40
9.460639380392372
 40
9.746695593036085
 40
9.777569943118856
 40
9.807050320931978
 40
9.830377336129112
 40
9.886003295436172
 40
9.952395569430097
 40
10.00802152870645
 40
10.03134854388238
 40
10.21356951009603
 40
10.42203479292891
 40
10.66154556731081
 40
10.9169378956432
 40
11.15832906556583
 40
11.18982674596638
 40
11.27286608520419
 40
11.39026653033367
 40
11.52484752840897
 40
11.65942852648457
 40
11.77682897161495
 40
11.85986831085697
 40
11.8913659823044
 40
11.8913659823044
 40
11.8913659823044
 40
11.8913659823044
 10
262.4834089937745
 20
-63.50280354754804
 10
262.4834442694838
 20
-63.4939210814459
 10
262.4835571640344
 20
-63.46549718409231
 10
262.4819189498037
 20
-63.41570316286771
 10
262.487595522246
 20
-63.37322390978422
 10
262.4763133661256
 20
-63.3224980059973
 10
262.543850190858
 20
-63.33967054716467
 10
262.6194234140249
 20
-63.32689728290582
 10
262.763456198555
 20
-63.33350225999197
 10
262.9375624114977
 20
-63.33091493250112
 10
263.1445804540552
 20
-63.33179363501024
 10
263.3700893101926
 20
-63.33151747536549
 10
263.6057367222954
 20
-63.33161615797915
 10
263.8413845460897
 20
-63.33151771043811
 10
264.0668922510175
 20
-63.33179277265791
 10
264.2739139562353
 20
-63.3309176918584
 10
264.4480093844837
 20
-63.33349432778131
 10
264.5920697001534
 20
-63.32691665007366
 10
264.6675896844842
 20
-63.33963712050973
 10
264.7351980966578
 20
-63.32253555264893
 10
264.7237045070225
 20
-63.37305169653636
 10
264.7311309511282
 20
-63.41726703230075
 10
264.7235043857536
 20
-63.46111988952967
 10
264.7352694388973
 20
-63.51101580977247
 10
264.6736993421533
 20
-63.49586727744065
 10
264.6062996668219
 20
-63.50669290105901
 10
264.4819208985771
 20
-63.50127923830341
 10
264.3360633166119
 20
-63.50330750065789
 10
264.1699781369634
 20
-63.50264177878191
 10
263.9994617551273
 20
-63.50290311935335
 10
263.8325995784937
 20
-63.50258402065481
 10
263.6893551756655
 20
-63.50344652865813
 10
263.5579518799383
 20
-63.50116654973591
 10
263.5046064064206
 20
-63.50572251082371
 10
263.4291393386461
 20
-63.49980040463701
 10
263.4575280708781
 20
-63.50885786113223
 10
263.4839857339092
 20
-63.51254043187646
 10
263.443972783725
 20
-63.54325683488303
 10
263.3519868621417
 20
-63.53312364281938
 10
263.3245601136617
 20
-63.7794745320879
 10
263.2284998896784
 20
-63.93480396692207
 10
262.972348289402
 20
-64.26454537525004
 10
263.543374266231
 20
-64.12549933246123
 10
263.7979861250066
 20
-64.12688175483214
 10
264.4085851978165
 20
-64.21189386214486
 10
264.1146903507631
 20
-63.91294537898374
 10
263.7939509216068
 20
-63.76649098554805
 10
263.9119748289981
 20
-63.70954414638286
 10
263.9530921395811
 20
-63.68559855583231
 10
263.996301732396
 20
-63.66380196645347
 10
264.0980779024
 20
-63.60051234202676
 10
264.2135072554797
 20
-63.85832804047789
 10
264.4135796571826
 20
-63.99363914342898
 10
264.5075282316778
 20
-64.17187160317688
 10
264.736503467594
 20
-64.32982134429528
 10
264.6402236776257
 20
-64.38063982880276
 10
264.5974164693328
 20
-64.41098662933521
 10
264.5524448458327
 20
-64.43513825175117
 10
264.4927925854764
 20
-64.4842780870901
 10
264.4595935990873
 20
-64.3498247978297
 10
264.3388218280346
 20
-64.19385690169992
 10
263.9777180935526
 20
-64.32410027397023
 10
263.619126688509
 20
-64.3075526104709
 10
263.2377125379628
 20
-64.31648726104714
 10
262.9509660212441
 20
-64.38097283784171
 10
262.6398260529263
 20
-64.26749287263743
 10
262.6074942748338
 20
-64.37857695528814
 10
262.5702383182866
 20
-64.39783641606562
 10
262.5671942562304
 20
-64.35105171369285
 10
262.5486097790157
 20
-64.31173101537439
 10
262.5318641546328
 20
-64.25213971978347
 10
262.5189935845302
 20
-64.2077798558529
 10
262.4848532735979
 20
-64.11873624336386
 10
262.7288919387302
 20
-64.18798912512804
 10
262.924759941622
 20
-64.20949586398835
 10
263.0201631310825
 20
-63.92753470978113
 10
263.0751340699145
 20
-63.76616910035455
 10
263.2965824286704
 20
-63.49588777866836
 10
263.1655444310765
 20
-63.50431508602843
 10
263.0916231485403
 20
-63.50200946959606
 10
262.9783664805792
 20
-63.50308577134918
 10
262.8500456737032
 20
-63.50272316380065
 10
262.7210456959965
 20
-63.5028223099049
 10
262.609404587584
 20
-63.50280022744003
 10
262.5320868899576
 20
-63.50280376266907
 10
262.4939081461558
 20
-63.50280359611494
 10
262.4834089937745
 20
-63.50280354754804
 97
        1
330
A5
 75
     1
 76
     2
 52
45.0
 41
0.1
 77
     0
 78
     1
 53
45.0
 43
0.0
 44
0.0
 45
-0.282842712474619
 46
0.0
 79
     0
 98
        1
 10
0.0
 20
0.0
  0
HATCH
  5
C3
330
48
100
AcDbEntity
  8
1
  6
Continuous
 62
     2
100
AcDbHatch
 10
0.0
 20
0.0
 30
0.0
210
0.0
220
0.0
230
1.0
  2
CUSTOM5
 70
     0
 71
     1
 91
        1
 92
        1
 93
        1
 72
     4
 94
        3
 73
     0
 74
     0
 95
       35
 96
       31
 40
0.0
 40
0.0
 40
0.0
 40
0.0
 40
0.0335231036621593
 40
0.0713218571711865
 40
0.4278866681486764
 40
0.8116865841963286
 40
1.198190238000016
 40
1.561379546812598
 40
1.659983174621876
 40
1.759315573806991
 40
2.132719617230924
 40
2.525233363588695
 40
2.910815397779594
 40
3.265244364303113
 40
3.592606723581834
 40
3.964386154603809
 40
4.359942131737673
 40
4.758154118639161
 40
4.843846538699783
 40
4.93665006554312
 40
5.256616602537225
 40
5.581707404415886
 40
5.899719158308001
 40
6.198363494280613
 40
6.466301046615682
 40
6.493895311537004
 40
6.559697020196796
 40
6.638234543442372
 40
6.704036252154153
 40
6.731630508422959
 40
6.731630508422959
 40
6.731630508422959
 40
6.731630508422959
 10
263.7542215498218
 20
-61.97516111737443
 10
263.7482211027338
 20
-61.98499264914254
 10
263.7354549028704
 20
-62.00590966876774
 10
263.5755566936107
 20
-62.03852828923907
 10
264.0128230771883
 20
-62.32773275119865
 10
264.215159975781
 20
-62.52938817098142
 10
264.4625769197521
 20
-62.77230567853302
 10
264.9637718554153
 20
-62.84932292698788
 10
264.7931767128519
 20
-62.99103016281927
 10
264.718950439275
 20
-63.19269589247467
 10
264.3937637177738
 20
-62.84023668281854
 10
264.1083946600212
 20
-62.67804742897012
 10
263.8143809007207
 20
-62.47292825403535
 10
263.5890657620684
 20
-61.99152466861121
 10
263.379928998507
 20
-62.45636908847355
 10
263.1014078604384
 20
-62.66629003203666
 10
262.8177588106757
 20
-62.83555499096589
 10
262.488484445738
 20
-63.20837594548635
 10
262.4083217247773
 20
-63.01271940997575
 10
262.2565929839293
 20
-62.88488851265984
 10
262.6889600756343
 20
-62.80525923690644
 10
262.8768770259313
 20
-62.609533205411
 10
263.127468235005
 20
-62.39346958539824
 10
263.3520555399709
 20
-62.22788963156518
 10
263.4065980339261
 20
-61.94845990819749
 10
263.530086595856
 20
-61.96242005048499
 10
263.5866478274069
 20
-61.9645868658893
 10
263.6568075914493
 20
-61.96933095575217
 10
263.7139618951655
 20
-61.97270526106037
 10
263.7450395250387
 20
-61.97460100745457
 10
263.7542215498218
 20
-61.97516111737443
 97
        1
330
A6
 75
     1
 76
     2
 52
45.0
 41
0.1
 77
     0
 78
     1
 53
45.0
 43
0.0
 44
0.0
 45
-0.282842712474619
 46
0.0
 79
     0
 98
        1
 10
0.0
 20
0.0
  0
HATCH
  5
C4
330
48
100
AcDbEntity
  8
1
  6
Continuous
 62
     2
100
AcDbHatch
 10
0.0
 20
0.0
 30
0.0
210
0.0
220
0.0
230
1.0
  2
CUSTOM6
 70
     0
 71
     1
 91
        1
 92
        1
 93
        1
 72
     4
 94
        3
 73
     0
 74
     0
 95
       15
 96
       11
 40
0.0
 40
0.0
 40
0.0
 40
0.0
 40
0.2785535985096054
 40
0.5215624748198782
 40
0.6076917376040185
 40
0.6938210001740943
 40
0.9405019146455147
 40
1.221691403489071
 40
1.300471877080952
 40
1.379252341684717
 40
1.379252341684717
 40
1.379252341684717
 40
1.379252341684717
 10
261.3487698560548
 20
-61.98049688126196
 10
261.4102222723726
 20
-62.03288308863862
 10
261.5252854903662
 20
-62.13097078658359
 10
261.8203553426792
 20
-62.28090169559351
 10
261.6831352561405
 20
-62.36636727941563
 10
261.5847432773328
 20
-62.49894170255023
 10
261.4936238520198
 20
-62.19362969675162
 10
261.1443044410205
 20
-62.13012085991205
 10
261.2925463306119
 20
-62.03083445575697
 10
261.3300286803785
 20
-61.99727607054194
 10
261.3487698560548
 20
-61.98049688126196
 97
        1
330
A7
 75
     1
 76
     2
 52
45.0
 41
0.1
 77
     0
 78
     1
 53
45.0
 43
0.0
 44
0.0
 45
-0.282842712474619
 46
0.0
 79
     0
 98
        1
 10
0.0
 20
0.0
  0
HATCH
  5
C5
330
48
100
AcDbEntity
  8
1
  6
Continuous
 62
     2
100
AcDbHatch
 10
0.0
 20
0.0
 30
0.0
210
0.0
220
0.0
230
1.0
  2
CUSTOM7
 70
     0
 71
     1
 91
        1
 92
        1
 93
        1
 72
     4
 94
        3
 73
     0
 74
     0
 95
       75
 96
       71
 40
0.0
 40
0.0
 40
0.0
 40
0.0
 40
0.0342546099129638
 40
0.1245622414432364
 40
0.2522385480897572
 40
0.3985991922940644
 40
0.5449598364980803
 40
0.6726361431438763
 40
0.7629437746737013
 40
0.7971983935297973
 40
1.101723623449661
 40
1.408591244036692
 40
1.433332471690397
 40
1.487763172450181
 40
1.542193873082001
 40
1.566935100592555
 40
1.92352393182187
 40
2.271755704953669
 40
2.59057975510094
 40
2.858943305581056
 40
2.889120339309097
 40
2.918305855191042
 40
2.941366645531187
 40
2.996357760973078
 40
3.061992318140607
 40
3.116983433626777
 40
3.140044223997471
 40
3.411273122936307
 40
3.732441619741028
 40
3.761068217532728
 40
3.837787499630291
 40
3.948858699125932
 40
4.080541049104315
 40
4.219093782625702
 40
4.350776132722249
 40
4.461847332405593
 40
4.53856661467832
 40
4.567193212544563
 40
4.594907573998849
 40
4.666381453557332
 40
4.764111044010971
 40
4.870592538125774
 40
4.968322128642281
 40
5.039796008286938
 40
5.067510369784369
 40
5.094263603185585
 40
5.153120716668216
 40
5.211977830150669
 40
5.238731063551665
 40
5.272290535138904
 40
5.363380529444736
 40
5.497618415781414
 40
5.660621563453628
 40
5.838007341749357
 40
6.015393119910652
 40
6.178396267038362
 40
6.312634151842257
 40
6.403724143059275
 40
6.437283612672399
 40
6.46403684626102
 40
6.522893960004634
 40
6.581751071483897
 40
6.608504301590845
 40
6.637253941280992
 40
6.711397748902844
 40
6.812778057283456
 40
6.923237199249147
 40
7.024617507623848
 40
7.098761315207444
 40
7.127510946007451
 40
7.127510946007451
 40
7.127510946007451
 40
7.127510946007451
 10
260.2224827320113
 20
-63.25130826983312
 10
260.2224827749255
 20
-63.26272642047854
 10
260.2224829410677
 20
-63.30424697613951
 10
260.2224798011336
 20
-63.38833033452801
 10
260.222499320935
 20
-63.5097545813425
 10
260.2224117117286
 20
-63.64999461409127
 10
260.222732116478
 20
-63.78973398662
 10
260.2217810839289
 20
-63.91234916561646
 10
260.2238183525516
 20
-63.99392881018534
 10
260.2155638108297
 20
-64.14708688378879
 10
260.523700287045
 20
-63.98419719401851
 10
260.8156850103284
 20
-63.81497016768577
 10
260.8214559378258
 20
-63.95006719674664
 10
260.826167664944
 20
-63.99362734296134
 10
260.8288740341465
 20
-64.03768706106031
 10
260.847875060251
 20
-64.18707365093438
 10
260.4390147176849
 20
-64.12298783215319
 10
260.159991527838
 20
-64.23683614045558
 10
259.8824286516715
 20
-64.33615859645435
 10
259.590604211395
 20
-64.2934926786022
 10
259.5675349608207
 20
-64.39658275712037
 10
259.5343679312882
 20
-64.42288864212105
 10
259.5286858892286
 20
-64.37524646420276
 10
259.5090419488594
 20
-64.33799619341504
 10
259.4901294415171
 20
-64.27972567609017
 10
259.4749054797257
 20
-64.2359475444877
 10
259.4283451302483
 20
-64.12220534410272
 10
259.7697102242001
 20
-64.15403654336527
 10
260.0485854296932
 20
-64.188185203501
 10
260.0423957964457
 20
-64.04065978976925
 10
260.0437140382322
 20
-63.96966804547746
 10
260.0431036619498
 20
-63.86260187497916
 10
260.0432076500274
 20
-63.73581425670579
 10
260.0436192893604
 20
-63.60130711960527
 10
260.0420112771518
 20
-63.47584405505391
 10
260.0466107497474
 20
-63.36474708737459
 10
260.0370391431759
 20
-63.30218068655886
 10
260.051020671324
 20
-63.24384567161575
 10
259.9953589316254
 20
-63.25690244874337
 10
259.938186012737
 20
-63.24843647707078
 10
259.8422253855197
 20
-63.25249979375943
 10
259.7439972452369
 20
-63.25009065604101
 10
259.6478787387109
 20
-63.2542835484319
 10
259.5910853455359
 20
-63.24550609015411
 10
259.5356561802933
 20
-63.25885018606455
 10
259.5476884357465
 20
-63.20943044497319
 10
259.5398208103487
 20
-63.16585967426182
 10
259.5472500493377
 20
-63.1214948633805
 10
259.5358135493693
 20
-63.07077657692587
 10
259.6038307299681
 20
-63.0881749469883
 10
259.6774701809296
 20
-63.07562505219393
 10
259.8131268987759
 20
-63.08180278445477
 10
259.9691113954074
 20
-63.07950752363493
 10
260.1422131287692
 20
-63.08038987194045
 10
260.315314789373
 20
-63.07950748314168
 10
260.4712994740765
 20
-63.08180292501027
 10
260.6069556819346
 20
-63.07562469194144
 10
260.6805961635201
 20
-63.08817561238242
 10
260.7486119104273
 20
-63.07077582444433
 10
260.737179581547
 20
-63.12149825042019
 10
260.7445744387845
 20
-63.1658289464547
 10
260.736824484182
 20
-63.2095164790638
 10
260.7487408671425
 20
-63.25916365358099
 10
260.6914375153166
 20
-63.24518544118149
 10
260.6326350719321
 20
-63.25440199783322
 10
260.5331498562749
 20
-63.25027687291647
 10
260.4300485027898
 20
-63.2515719543069
 10
260.3344051284123
 20
-63.25125878378935
 10
260.2663672901166
 20
-63.2513117875943
 10
260.2320667142992
 20
-63.25130903584919
 10
260.2224827320113
 20
-63.25130826983312
 97
        1
330
A8
 75
     1
 76
     2
 52
45.0
 41
0.1
 77
     0
 78
     1
 53
45.0
 43
0.0
 44
0.0
 45
-0.282842712474619
 46
0.0
 79
     0
 98
        1
 10
0.0
 20
0.0
  0
HATCH
  5
C6
330
48
100
AcDbEntity
  8
1
  6
Continuous
 62
     2
100
AcDbHatch
 10
0.0
 20
0.0
 30
0.0
210
0.0
220
0.0
230
1.0
  2
CUSTOM8
 70
     0
 71
     1
 91
        1
 92
        1
 93
        1
 72
     4
 94
        3
 73
     0
 74
     0
 95
       91
 96
       87
 40
0.0
 40
0.0
 40
0.0
 40
0.0
 40
0.034598705169515
 40
0.1258134969461938
 40
0.2547723404888987
 40
0.4026032099154693
 40
0.5504340793417557
 40
0.6793929228837217
 40
0.7706077146572741
 40
0.8052064287782061
 40
1.124852390615384
 40
1.427402236308979
 40
1.70635662745364
 40
1.955541417875314
 40
2.169485938566471
 40
2.344350786664906
 40
2.480568411562112
 40
2.590440557429109
 40
2.649189927151281
 40
2.749320643306473
 40
2.912632739880186
 40
3.147745656000374
 40
3.244827496385228
 40
3.338490056946762
 40
3.583815413207193
 40
3.761423943238552
 40
3.88695610436271
 40
3.985855451886855
 40
4.091766255337681
 40
4.250186473811872
 40
4.422734315084556
 40
4.62828568483863
 40
4.872093227758471
 40
5.152549652145589
 40
5.464967135837571
 40
5.803201477852488
 40
6.160362988813954
 40
6.193449448276038
 40
6.284170385501664
 40
6.419718138764591
 40
6.587285046385755
 40
6.77406344672367
 40
6.967245678113652
 40
7.154024078817695
 40
7.321590987026052
 40
7.457138740890439
 40
7.547859678556204
 40
7.580946138182679
 40
7.608533084714733
 40
7.669224367077707
 40
7.729915649429923
 40
7.757502595949983
 40
7.790278062553352
 40
7.880146277430935
 40
8.014419963180341
 40
8.18041184239787
 40
8.36543463767931
 40
8.556801071622669
 40
8.741823866830725
 40
8.90781574591632
 40
9.042089431507417
 40
9.131957646249543
 40
9.164733112797148
 40
9.415425063140072
 40
9.66798618095855
 40
9.694169807462718
 40
9.756607686047676
 40
9.831130315322511
 40
9.893568193900032
 40
9.919751820398792
 40
9.950967964690612
 40
9.99642163121072
 40
10.22087981037461
 40
10.4434186619755
 40
10.47847970788866
 40
10.57091337438766
 40
10.70159545461241
 40
10.85140174170369
 40
11.00120802880486
 40
11.13189010907388
 40
11.22432377583016
 40
11.2593848093896
 40
11.28697175596148
 40
11.34766303835922
 40
11.40835432042073
 40
11.43594125892108
 40
11.43594125892108
 40
11.43594125892108
 40
11.43594125892108
 10
261.8624319262838
 20
-62.657371603315
 10
261.850899077449
 20
-62.65737165168661
 10
261.8089614374547
 20
-62.65737181752414
 10
261.7240334648575
 20
-62.6573682965567
 10
261.6013893482678
 20
-62.65739029020697
 10
261.4597411846541
 20
-62.65729154279522
 10
261.3185958628038
 20
-62.65765269224157
 10
261.1947556247451
 20
-62.65658071847489
 10
261.1123422754929
 20
-62.65887706365308
 10
260.9533996159242
 20
-62.64931386083163
 10
261.1309607282923
 20
-63.01194561145205
 10
261.1185944135001
 20
-63.25736827733463
 10
261.1870724403413
 20
-63.54117454131738
 10
261.2499229250519
 20
-63.77728955517545
 10
261.3258458361277
 20
-63.97653215060443
 10
261.4109394506565
 20
-64.13234608005209
 10
261.5050812522485
 20
-64.2332209767518
 10
261.6088853137276
 20
-64.28514102817608
 10
261.6932076960323
 20
-64.23373471076964
 10
261.7157527109002
 20
-64.1183541141906
 10
261.7551935904919
 20
-63.99094805754197
 10
261.7009124664493
 20
-63.67357627369822
 10
261.825742300202
 20
-63.8199777531567
 10
261.9825496443152
 20
-63.85184655125412
 10
261.8753924936603
 20
-64.08558597688948
 10
261.8614916139417
 20
-64.25007178872923
 10
261.8040914396773
 20
-64.3784908633409
 10
261.7141225074556
 20
-64.4496115310375
 10
261.5901479587427
 20
-64.46547631314321
 10
261.4440478126409
 20
-64.42986157902402
 10
261.3050099249832
 20
-64.30979384956304
 10
261.1908208891694
 20
-64.13544272906253
 10
261.0952346231034
 20
-63.91033352345336
 10
261.0124857502175
 20
-63.64591709450136
 10
260.9613384185959
 20
-63.32792022358031
 10
260.8576394136887
 20
-63.05436226967666
 10
260.9849046138067
 20
-62.64974136843711
 10
260.8164095552568
 20
-62.65867587606898
 10
260.7318200716626
 20
-62.65663994038215
 10
260.5996081317176
 20
-62.65766018068169
 10
260.4366710023652
 20
-62.65726725138148
 10
260.2539964100082
 20
-62.65744259143207
 10
260.0653262302932
 20
-62.6571985014911
 10
259.8820673949738
 20
-62.6579429755034
 10
259.7210951762268
 20
-62.65563594934153
 10
259.5836013264824
 20
-62.66180150572914
 10
259.5095795301859
 20
-62.64947116998368
 10
259.4419420116405
 20
-62.66650631733016
 10
259.4538578648819
 20
-62.61455517009051
 10
259.4461882215243
 20
-62.56908530490048
 10
259.4538797154664
 20
-62.52365501752872
 10
259.441934672731
 20
-62.47177559472009
 10
259.5089793235416
 20
-62.48860811966313
 10
259.5823580595224
 20
-62.47644546363903
 10
259.7185333234821
 20
-62.4825272438162
 10
259.878001673106
 20
-62.48025121141517
 10
260.0595378015384
 20
-62.48098721457613
 10
260.2464239791728
 20
-62.48074001260444
 10
260.4274217246385
 20
-62.48093554657321
 10
260.5887007508427
 20
-62.48047720741739
 10
260.7200087054435
 20
-62.48167281705371
 10
260.8031256252145
 20
-62.47928608136834
 10
260.9362441477363
 20
-62.48749349731115
 10
260.8452098432206
 20
-62.2322708650392
 10
260.759583800397
 20
-61.96815597128327
 10
260.8796793933003
 20
-61.9807551248741
 10
260.9320469878093
 20
-61.98285719693504
 10
261.0020702499264
 20
-61.98444555566917
 10
261.0478127267367
 20
-61.99377387918464
 10
261.1027017576482
 20
-61.98433988541152
 10
261.076977971523
 20
-62.03246926801403
 10
260.9631602501002
 20
-62.02713125712408
 10
261.0965551550684
 20
-62.25530780879799
 10
260.974986366502
 20
-62.48823098860653
 10
261.1029393698962
 20
-62.47892696572139
 10
261.185525333601
 20
-62.48178953701895
 10
261.3113419780374
 20
-62.48056518044275
 10
261.4547674767607
 20
-62.48047523567612
 10
261.5963625881278
 20
-62.48233792272723
 10
261.7265332179516
 20
-62.47646879519415
 10
261.7999657215739
 20
-62.48909614633371
 10
261.8697317851644
 20
-62.47102392346165
 10
261.8581977534946
 20
-62.52367104910252
 10
261.8639389276232
 20
-62.5675863777003
 10
261.8622820700459
 20
-62.61889972780028
 10
261.8623962491219
 20
-62.64821163434943
 10
261.8624319262838
 20
-62.657371603315
 97
        1
330
A9
 75
     1
 76
     2
 52
45.0
 41
0.1
 77
     0
 78
     1
 53
45.0
 43
0.0
 44
0.0
 45
-0.282842712474619
 46
0.0
 79
     0
 98
        1
 10
0.0
 20
0.0
  0
HATCH
  5
C7
330
48
100
AcDbEntity
  8
1
  6
Continuous
 62
     2
100
AcDbHatch
 10
0.0
 20
0.0
 30
0.0
210
0.0
220
0.0
230
1.0
  2
CUSTOM9
 70
     0
 71
     1
 91
        1
 92
        1
 93
        1
 72
     4
 94
        3
 73
     0
 74
     0
 95
      118
 96
      114
 40
0.0
 40
0.0
 40
0.0
 40
0.0
 40
0.1054708162973466
 40
0.2466098270051938
 40
0.396591287459147
 40
0.528552506975362
 40
0.6156245055642354
 40
0.6431434105797681
 40
0.7036850037986511
 40
0.7642265984504683
 40
0.7917455052355015
 40
0.9287404319990149
 40
1.106572819088052
 40
1.28754487968107
 40
1.317578308030589
 40
1.399928030857231
 40
1.522968204799986
 40
1.67507298659062
 40
1.844616533180704
 40
2.019973001638766
 40
2.189516548880084
 40
2.341621331585407
 40
2.464661506320545
 40
2.547011229647117
 40
2.577044658168083
 40
2.603797890893097
 40
2.662655002908841
 40
2.721512114949653
 40
2.748265347702804
 40
2.774215307344866
 40
2.845959313407198
 40
2.954338556588402
 40
3.09019422758559
 40
3.244367517100555
 40
3.407699615844314
 40
3.57103171453945
 40
3.725205003920129
 40
3.861060674729627
 40
3.969439917716328
 40
4.041183923628983
 40
4.067133883212987
 40
4.311886746012168
 40
4.547897258335553
 40
4.764747083044012
 40
4.952749679951759
 40
5.045772974195931
 40
5.137862019645061
 40
5.330543169793128
 40
5.553448265244127
 40
5.795083855888281
 40
6.043293412177372
 40
6.285761695541311
 40
6.313902908752794
 40
6.384255941793327
 40
6.475714884766916
 40
6.567173827759035
 40
6.637526860839699
 40
6.665668074074091
 40
6.692018920328067
 40
6.749990782071137
 40
6.807962643790503
 40
6.834313490017976
 40
6.856393084245283
 40
6.91333519564985
 40
6.991194817302542
 40
7.076026942283775
 40
7.153886563725294
 40
7.210828674844791
 40
7.232908268931183
 40
7.258199334923702
 40
7.324875781592354
 40
7.419142481925007
 40
7.527204308841959
 40
7.635266135230523
 40
7.729532834168516
 40
7.796209279292832
 40
7.821500344594781
 40
7.844652988850881
 40
7.899863140541659
 40
7.965759128053853
 40
8.020969279771165
 40
8.044121924046632
 40
8.069356610160703
 40
8.109134395441497
 40
8.132238100191213
 40
8.193147867786575
 40
8.279261678876747
 40
8.377977512673962
 40
8.47669334714676
 40
8.562807160411811
 40
8.623716930826593
 40
8.646820636853551
 40
8.671988793774364
 40
8.734909185828275
 40
8.816705695188904
 40
8.898502204815447
 40
8.96142259737788
 40
8.98659075455102
 40
9.012941600733182
 40
9.070913462380272
 40
9.128885324081761
 40
9.155236170325079
 40
9.180404327929093
 40
9.243324721948138
 40
9.325121234211874
 40
9.4069177466375
 40
9.469838141977927
 40
9.49500628827073
 40
9.517811184378871
 40
9.57219209048688
 40
9.637098333281095
 40
9.691479239515296
 40
9.714284125643331
 40
9.714284125643331
 40
9.714284125643331
 40
9.714284125643331
 10
257.0680673958202
 20
-62.94090792268857
 10
257.0897195498586
 20
-62.96868086213765
 10
257.1403462039024
 20
-63.0336190089534
 10
257.215558813214
 20
-63.14088895143681
 10
257.3054687203897
 20
-63.25602517189947
 10
257.3515374606221
 20
-63.35622909708266
 10
257.4462030224204
 20
-63.42545948641632
 10
257.4010644249962
 20
-63.47208315778305
 10
257.3753252715339
 20
-63.51319646590537
 10
257.345140163756
 20
-63.54913983728638
 10
257.2999889660112
 20
-63.62400172860485
 10
257.2516709388109
 20
-63.40197431202973
 10
257.1774744642623
 20
-63.36469278118864
 10
257.0642252254153
 20
-63.09369753325976
 10
257.0691338507719
 20
-63.20884627010348
 10
257.0674691485854
 20
-63.28143279674948
 10
257.0683035006264
 20
-63.40354366972589
 10
257.0679814469813
 20
-63.55066154646116
 10
257.0681281842005
 20
-63.71672891500019
 10
257.067915502227
 20
-63.88792400847976
 10
257.0685702181583
 20
-64.05427126821077
 10
257.0665397390688
 20
-64.20044782400882
 10
257.0719665329478
 20
-64.32508907981965
 10
257.0611135798258
 20
-64.39261298915949
 10
257.0762944085103
 20
-64.45430894039552
 10
257.0264100037684
 20
-64.44252451559576
 10
256.9823355272071
 20
-64.45036132676609
 10
256.938857655975
 20
-64.44219514083875
 10
256.8898551716038
 20
-64.45441898718107
 10
256.9024936164373
 20
-64.40019288207264
 10
256.8936387897999
 20
-64.34043036549019
 10
256.8981263699862
 20
-64.23057926412207
 10
256.8964165065539
 20
-64.09949980050898
 10
256.8969755845537
 20
-63.9478194401225
 10
256.8968133698241
 20
-63.78768880526623
 10
256.8968474854223
 20
-63.6274308978201
 10
256.8968719889675
 20
-63.47609707936137
 10
256.8967658472774
 20
-63.34397799117976
 10
256.8970504071481
 20
-63.23685152923386
 10
256.8964880477116
 20
-63.17171335877102
 10
256.8986970013238
 20
-63.04360997597904
 10
256.8125640928151
 20
-63.41882345065004
 10
256.7361345748049
 20
-63.57061762333183
 10
256.646624569738
 20
-63.73213749010265
 10
256.5446618146877
 20
-64.00508106636407
 10
256.4994181420586
 20
-63.84262608860062
 10
256.3908560871219
 20
-63.75374523398463
 10
256.5801996681299
 20
-63.60430160495164
 10
256.6371545475249
 20
-63.41230818481655
 10
256.7523725922898
 20
-63.18080332549813
 10
256.7746356559682
 20
-62.99182695697519
 10
256.9578110081687
 20
-62.71525866130642
 10
256.8344238527101
 20
-62.72280976624484
 10
256.7731889096382
 20
-62.7212318309046
 10
256.6888204546614
 20
-62.72097362882903
 10
256.6010440015514
 20
-62.72435109705374
 10
256.5462973625671
 20
-62.71585140474555
 10
256.4910907955574
 20
-62.72931394406791
 10
256.5029027965085
 20
-62.68048513329812
 10
256.4948701081343
 20
-62.63710950559868
 10
256.5034391034227
 20
-62.59470517147003
 10
256.4909148338706
 20
-62.54712158904459
 10
256.5361306468283
 20
-62.55712742461463
 10
256.5821020492274
 20
-62.55085850282517
 10
256.6583426977259
 20
-62.55386394050705
 10
256.7367501061543
 20
-62.55209507178036
 10
256.813019757848
 20
-62.55515161474917
 10
256.8589214389024
 20
-62.54875984080398
 10
256.9037938894948
 20
-62.55886132477683
 10
256.8911757205184
 20
-62.50822753874678
 10
256.8998141512254
 20
-62.45478693574509
 10
256.8958566524992
 20
-62.36116700324894
 10
256.8968529997883
 20
-62.25867348767652
 10
256.8978132342622
 20
-62.15626685208415
 10
256.8939416387555
 20
-62.06244025847258
 10
256.9023994743912
 20
-62.00943412616221
 10
256.8899280862383
 20
-61.95768519805389
 10
256.9348311319399
 20
-61.97129208229823
 10
256.9761288766321
 20
-61.96879475135994
 10
257.0401549210599
 20
-61.97331894882088
 10
257.0792316078335
 20
-61.9819895241327
 10
257.1282748428291
 20
-61.9746485338589
 10
257.1031284960141
 20
-62.01377059404822
 10
257.0622106263273
 20
-62.00416113000767
 10
257.0716314546152
 20
-62.05439807286797
 10
257.0661852248296
 20
-62.10594009817086
 10
257.0687904531352
 20
-62.19020247872054
 10
257.0676307131704
 20
-62.28420819873169
 10
257.068979599378
 20
-62.3778309006105
 10
257.0656175031058
 20
-62.46300437904355
 10
257.0727164847317
 20
-62.51263099384531
 10
257.0618774084095
 20
-62.5598626048659
 10
257.1110215154794
 20
-62.54778280519722
 10
257.1601082559695
 20
-62.55532562093567
 10
257.2379919210189
 20
-62.55293885095141
 10
257.3156570102444
 20
-62.55080573551164
 10
257.3651598860902
 20
-62.55786563534119
 10
257.4150799680187
 20
-62.54619803520363
 10
257.4029403446427
 20
-62.59439720085184
 10
257.4112043158692
 20
-62.63730735655342
 10
257.4029403580331
 20
-62.68021753605195
 10
257.4150799479401
 20
-62.7284166670171
 10
257.3651600088294
 20
-62.71674920985066
 10
257.315655558075
 20
-62.72380753021528
 10
257.2379989312522
 20
-62.72168290227976
 10
257.1600848795308
 20
-62.71926566090816
 10
257.1110705282265
 20
-62.72688107262091
 10
257.0619451038492
 20
-62.71472002898983
 10
257.072176491812
 20
-62.7590694203242
 10
257.0662882607603
 20
-62.80054519253665
 10
257.0684993235118
 20
-62.86064561141274
 10
257.0680314275695
 20
-62.9075417269369
 10
257.0680591922462
 20
-62.93329809038378
 10
257.0680673958202
 20
-62.94090792268857
 97
        1
330
AA
 75
     1
 76
     2
 52
45.0
 41
0.1
 77
     0
 78
     1
 53
45.0
 43
0.0
 44
0.0
 45
-0.282842712474619
 46
0.0
 79
     0
 98
        1
 10
0.0
 20
0.0
  0
HATCH
  5
C8
330
48
100
AcDbEntity
  8
1
  6
Continuous
 62
     2
100
AcDbHatch
 10
0.0
 20
0.0
 30
0.0
210
0.0
220
0.0
230
1.0
  2
CUSTOM10
 70
     0
 71
     1
 91
        1
 92
        1
 93
        1
 72
     4
 94
        3
 73
     0
 74
     0
 95
       47
 96
       43
 40
0.0
 40
0.0
 40
0.0
 40
0.0
 40
0.2207912809957131
 40
0.4459404186302955
 40
0.4902387190458029
 40
0.5327473892722128
 40
0.574226045122487
 40
0.6155432630560447
 40
0.6568164066315649
 40
0.6982511618780274
 40
0.7407663929316792
 40
0.7851366743175134
 40
1.010288833836308
 40
1.231080507002159
 40
1.451765243652381
 40
1.676638205891665
 40
1.720461045359636
 40
1.830018144043508
 40
1.972442372353145
 40
2.114866600677503
 40
2.224423699395134
 40
2.268246538883377
 40
2.493628801207193
 40
2.715602830286598
 40
2.934211330706356
 40
3.149502369855358
 40
3.231387784851004
 40
3.318231873854068
 40
3.405143198198027
 40
3.486970301720465
 40
3.702258172493893
 40
3.920866283534143
 40
4.142839325931932
 40
4.368221903865376
 40
4.412044743359858
 40
4.52160184209587
 40
4.664026070452359
 40
4.806450298809062
 40
4.916007397546765
 40
4.959830237043094
 40
5.184703515847126
 40
5.405387250767487
 40
5.405387250767487
 40
5.405387250767487
 40
5.405387250767487
 10
254.4313632188193
 20
-62.47573514502705
 10
254.4374344349552
 20
-62.4122147295537
 10
254.4496967036791
 20
-62.28392016766948
 10
254.3410911808962
 20
-62.00813735282506
 10
254.4568190826151
 20
-62.03791822024523
 10
254.4978047438564
 20
-62.04214399193758
 10
254.5397410727066
 20
-62.0466950906697
 10
254.5810401555259
 20
-62.04777972527091
 10
254.6223237045104
 20
-62.04669617261349
 10
254.6642353200195
 20
-62.04213842745234
 10
254.7052188478569
 20
-62.03792525246851
 10
254.8211127773035
 20
-62.0080234413904
 10
254.7101857657006
 20
-62.28640148846688
 10
254.7381061294816
 20
-62.46696814631625
 10
254.7210472276517
 20
-62.70018913110103
 10
254.7220842211653
 20
-62.86073332913431
 10
254.7220304328952
 20
-62.98695137897855
 10
254.7220482302029
 20
-63.08550992120333
 10
254.7220393510629
 20
-63.21699253013614
 10
254.7220468857583
 20
-63.34847110487927
 10
254.7220334334678
 20
-63.44703732762488
 10
254.7220736647041
 20
-63.57340219832423
 10
254.7212951333365
 20
-63.73497886633707
 10
254.7372163248817
 20
-63.96618133563663
 10
254.7139673814955
 20
-64.15105603484575
 10
254.8166388373915
 20
-64.42044352686523
 10
254.6626443292385
 20
-64.3831984277076
 10
254.5810334732381
 20
-64.3884196077604
 10
254.4994397222131
 20
-64.38319335078222
 10
254.3454718596392
 20
-64.42042885571193
 10
254.4480388351466
 20
-64.15104825593696
 10
254.4248250245635
 20
-63.96618370131161
 10
254.4406649584687
 20
-63.73497736890938
 10
254.4399501242975
 20
-63.57340243148072
 10
254.4399869499454
 20
-63.44703724246057
 10
254.4399753929818
 20
-63.34847198820595
 10
254.4399779948762
 20
-63.21698828039358
 10
254.4399853461327
 20
-63.08552407425377
 10
254.4399647470899
 20
-62.98692169181251
 10
254.4400287121576
 20
-62.86083806102149
 10
254.4387938877139
 20
-62.69769864072805
 10
254.4338245326294
 20
-62.54925771679027
 10
254.4313632188193
 20
-62.47573514502705
 97
        1
330
AB
 75
     1
 76
     2
 52
45.0
 41
0.1
 77
     0
 78
     1
 53
45.0
 43
0.0
 44
0.0
 45
-0.282842712474619
 46
0.0
 79
     0
 98
        1
 10
0.0
 20
0.0
  0
HATCH
  5
C9
330
48
100
AcDbEntity
  8
1
  6
Continuous
 62
     2
100
AcDbHatch
 10
0.0
 20
0.0
 30
0.0
210
0.0
220
0.0
230
1.0
  2
CUSTOM11
 70
     0
 71
     1
 91
        1
 92
        1
 93
        1
 72
     4
 94
        3
 73
     0
 74
     0
 95
      110
 96
      106
 40
0.0
 40
0.0
 40
0.0
 40
0.0
 40
0.2203406257277631
 40
0.4407808782838022
 40
0.5952494494615569
 40
0.7488431659393009
 40
0.9023581831309557
 40
1.056801968670398
 40
1.210736449100012
 40
1.36304138653989
 40
1.515315729683176
 40
1.669377239148155
 40
1.72161165275664
 40
1.773199502943021
 40
1.824933793210072
 40
1.877110426488065
 40
1.982682281206857
 40
2.078781667087609
 40
2.172809640822415
 40
2.271937807379097
 40
2.378349933379405
 40
2.494131557736566
 40
2.626681683943699
 40
2.783145050796155
 40
2.890701232941004
 40
2.9931303124549
 40
3.099869730691895
 40
3.220237816691387
 40
3.352695482737669
 40
3.48173280638993
 40
3.593499473690453
 40
3.674323013331954
 40
3.817951711952847
 40
3.946167120793845
 40
4.061405053453586
 40
4.166480796003171
 40
4.262478775059294
 40
4.35073667355125
 40
4.433071991254135
 40
4.511216293814624
 40
4.564262454117927
 40
4.61847441557155
 40
4.670128488754157
 40
4.722296879126332
 40
4.819540945314115
 40
4.931194984128028
 40
5.049996040257699
 40
5.168643755415131
 40
5.28397081176237
 40
5.392260784910167
 40
5.486512254876214
 40
5.55917823394967
 40
5.591425852853345
 40
5.626215969637718
 40
5.667155838674252
 40
5.717449290214073
 40
5.738402360944679
 40
5.784499116553651
 40
5.830595872164626
 40
5.851548942897484
 40
5.873019280661598
 40
5.924217778408131
 40
5.985325662817512
 40
6.036524160567527
 40
6.057994498334057
 40
6.236847789607303
 40
6.381409928945489
 40
6.493190424178513
 40
6.574067534230323
 40
6.691018086205388
 40
6.814881554220363
 40
6.944307823240287
 40
7.071266716065853
 40
7.193488604461755
 40
7.309042773127982
 40
7.414007203170634
 40
7.505140441886363
 40
7.531150360599507
 40
7.559221645322102
 40
7.587202218920751
 40
7.61256915949896
 40
7.662550809480845
 40
7.702878875763976
 40
7.857328205230762
 40
8.010799568088407
 40
8.165256399657357
 40
8.322232698713696
 40
8.479564855016411
 40
8.635216230290615
 40
8.79088255092559
 40
8.948305154947183
 40
9.168271839032887
 40
9.38735898098715
 40
9.608047961033394
 40
9.832914234792588
 40
9.85833869496293
 40
9.925366817229927
 40
10.02013071422751
 40
10.1287624985899
 40
10.23739428295241
 40
10.33215817995182
 40
10.39918630222385
 40
10.42461076239775
 40
10.64992019336935
 40
10.87188524531181
 40
10.87188524531181
 40
10.87188524531181
 40
10.87188524531181
 10
251.6863993306167
 20
-62.47056695058386
 10
251.6899069863091
 20
-62.40363493382775
 10
251.6969238917211
 20
-62.26974063540715
 10
251.600423252862
 20
-61.98431400485106
 10
251.8316339655656
 20
-62.04695569266292
 10
251.9725494986705
 20
-62.03978401400589
 10
252.1296622687136
 20
-62.04744072378332
 10
252.2832118356836
 20
-62.04727203173537
 10
252.4351309864629
 20
-62.04797914921144
 10
252.594841974278
 20
-62.03769797104941
 10
252.7215177530666
 20
-62.05483444375822
 10
252.9177026051631
 20
-61.98252695349436
 10
252.8840600208626
 20
-62.08339256376458
 10
252.8858216246732
 20
-62.13360701508907
 10
252.8833547003007
 20
-62.18267619870112
 10
252.915328189556
 20
-62.26916464609578
 10
252.7816604832804
 20
-62.21982516848242
 10
252.6978413617606
 20
-62.22549321142408
 10
252.5980066068872
 20
-62.21514438750278
 10
252.4992781649694
 20
-62.20893505045491
 10
252.3927737700659
 20
-62.20282191639799
 10
252.2716716627609
 20
-62.19391071971992
 10
252.1509586432002
 20
-62.20458349544192
 10
251.9618758772986
 20
-62.14511452376209
 10
251.993523343486
 20
-62.30421635379035
 10
251.9801768246383
 20
-62.40140827116674
 10
251.9781163355997
 20
-62.51345890346471
 10
251.976439297422
 20
-62.63280269827229
 10
251.9779541723781
 20
-62.75947363301465
 10
251.9762787408217
 20
-62.88678367440459
 10
251.9865049201206
 20
-62.98528389052113
 10
251.9585211526132
 20
-63.12591252830945
 10
252.1314234928853
 20
-63.06990404322481
 10
252.245122513232
 20
-63.08260003978078
 10
252.3646356601787
 20
-63.07531578405325
 10
252.469469635462
 20
-63.0710193839982
 10
252.564928982816
 20
-63.06649387197597
 10
252.6570028436581
 20
-63.05830754310377
 10
252.7282756711987
 20
-63.06336104818466
 10
252.8351136635233
 20
-63.02443530424905
 10
252.8032808527585
 20
-63.10462833450698
 10
252.8072369433478
 20
-63.15417018610542
 10
252.8040707321562
 20
-63.20422477416756
 10
252.8356996420132
 20
-63.28851107844553
 10
252.701633860724
 20
-63.23554589961419
 10
252.6098527722748
 20
-63.24439874566134
 10
252.4885934119151
 20
-63.23409905491423
 10
252.3720318049319
 20
-63.23231043689071
 10
252.2589580675428
 20
-63.23192938346882
 10
252.1485451238019
 20
-63.22564505984397
 10
252.070432899739
 20
-63.23790822201213
 10
251.9719830763192
 20
-63.20526067840448
 10
251.9818560103109
 20
-63.2621020740237
 10
251.9780128173949
 20
-63.29587824898591
 10
251.9772994813818
 20
-63.33860350747167
 10
251.9769574572524
 20
-63.37578348194421
 10
251.9770039184894
 20
-63.41492718085807
 10
251.9769854359476
 20
-63.4526310595889
 10
251.9769908361355
 20
-63.49035000224173
 10
251.9769902143751
 20
-63.51985630711429
 10
251.9769903081094
 20
-63.55106377757274
 10
251.9769909217469
 20
-63.59565530548493
 10
251.9769876428886
 20
-63.65015998947726
 10
251.976996455303
 20
-63.69474415255128
 10
251.9769564582966
 20
-63.77862146870839
 10
251.9782229199804
 20
-63.89242434778897
 10
251.9756479047388
 20
-64.04149559522867
 10
251.9871214311269
 20
-64.14382751642673
 10
251.9629711151812
 20
-64.27641051570743
 10
252.1139198876025
 20
-64.23084223184553
 10
252.2234641601104
 20
-64.24552943294228
 10
252.3540175403469
 20
-64.24059520331511
 10
252.4796517139063
 20
-64.23722250133216
 10
252.5994935555149
 20
-64.23268457957803
 10
252.7197567540975
 20
-64.2193141927457
 10
252.8028966593064
 20
-64.22911242673985
 10
252.9262285350622
 20
-64.16853740833257
 10
252.9050474133506
 20
-64.22447495322557
 10
252.9042155199666
 20
-64.2504070608423
 10
252.9025168637108
 20
-64.27782699265637
 10
252.9024179818378
 20
-64.31241760250191
 10
252.9009864230878
 20
-64.3492954723581
 10
252.9339009121739
 20
-64.4413311443477
 10
252.7357511917656
 20
-64.36847939481746
 10
252.6106753224439
 20
-64.3915422894797
 10
252.4479276224706
 20
-64.38525933470795
 10
252.2935571379548
 20
-64.38719011546644
 10
252.1372875366493
 20
-64.38586192857312
 10
251.9776749394831
 20
-64.38920082968716
 10
251.8346531271785
 20
-64.37714159728334
 10
251.6003349811176
 20
-64.4402795347966
 10
251.6980015680746
 20
-64.15359427990258
 10
251.6813073709607
 20
-63.95991647313917
 10
251.6952501639232
 20
-63.73131712576282
 10
251.6949192776182
 20
-63.57595361501528
 10
251.6949283048812
 20
-63.47013619012451
 10
251.6949260805865
 20
-63.40774171332365
 10
251.6949270481438
 20
-63.3175953020825
 10
251.6949270402809
 20
-63.21358788299139
 10
251.6949258790652
 20
-63.10957824081284
 10
251.6949295901051
 20
-63.01943711767808
 10
251.6949215980601
 20
-62.95703152359364
 10
251.6949539204567
 20
-62.85111119495456
 10
251.6937645717867
 20
-62.69353238911836
 10
251.6888421418805
 20
-62.54451735634511
 10
251.6863993306167
 20
-62.47056695058386
 97
        1
330
AC
 75
     1
 76
     2
 52
45.0
 41
0.1
 77
     0
 78
     1
 53
45.0
 43
0.0
 44
0.0
 45
-0.282842712474619
 46
0.0
 79
     0
 98
        1
 10
0.0
 20
0.0
  0
HATCH
  5
CA
330
48
100
AcDbEntity
  8
1
  6
Continuous
 62
     2
100
AcDbHatch
 10
0.0
 20
0.0
 30
0.0
210
0.0
220
0.0
230
1.0
  2
CUSTOM12
 70
     0
 71
     1
 91
        1
 92
        1
 93
        1
 72
     4
 94
        3
 73
     0
 74
     0
 95
       95
 96
       91
 40
0.0
 40
0.0
 40
0.0
 40
0.0
 40
0.6550406656912103
 40
1.308087289031957
 40
1.420803739835833
 40
1.566130759770829
 40
1.757067341888487
 40
2.006513545026496
 40
2.087328263121588
 40
2.185328872295659
 40
2.294612454748397
 40
2.408936380534852
 40
2.526802767798593
 40
2.646360524615643
 40
2.762535723971621
 40
2.87005734287019
 40
2.966883448431682
 40
3.050803243518329
 40
3.11581822243665
 40
3.156030057150274
 40
3.21391422508009
 40
3.276689026450462
 40
3.342960320981267
 40
3.404230667150518
 40
3.453822809493334
 40
3.53249982718838
 40
3.634775188507125
 40
3.754909333008118
 40
3.889736761660625
 40
4.035769602175186
 40
4.187256681197572
 40
4.338733685675916
 40
4.48847873467608
 40
4.634708317831539
 40
4.771493189921229
 40
4.892686571561158
 40
5.199775528944399
 40
5.460353566929601
 40
5.66760314234547
 40
5.81472290540446
 40
5.828990806219786
 40
5.855488336304426
 40
5.869756237118758
 40
6.189796507762777
 40
6.531890469872955
 40
6.883053637016967
 40
7.230512024911435
 40
7.566966656764519
 40
7.885203559707382
 40
8.17288743971919
 40
8.418011594062712
 40
8.443926721190643
 40
8.510760470613121
 40
8.602145393795631
 40
8.701714041647072
 40
8.793098965075309
 40
8.859932715057887
 40
8.885847842603532
 40
9.242301256612746
 40
9.58927545501669
 40
9.921808543164099
 40
10.2347962429846
 40
10.2996815088917
 40
10.35323493887759
 40
10.4015462535514
 40
10.46482922477808
 40
10.55973900668386
 40
10.69239545985598
 40
10.84920353475653
 40
11.01626328594761
 40
11.18672024367424
 40
11.35372582577192
 40
11.50257442292408
 40
11.61866495023272
 40
11.71329869152857
 40
11.82511050573889
 40
11.94464880845697
 40
12.06929242642487
 40
12.19707290435157
 40
12.3256263286051
 40
12.4503456533126
 40
12.56646595170309
 40
12.67099007414616
 40
12.76077625936763
 40
12.82703233506676
 40
12.87429132785974
 40
12.89831990323313
 40
12.92234847860002
 40
13.53984767410298
 40
14.18294284359339
 40
14.18294284359339
 40
14.18294284359339
 40
14.18294284359339
 10
249.087414057757
 20
-63.50081917254852
 10
248.9558224688099
 20
-63.38714896853347
 10
248.6930398732276
 20
-63.16015459140424
 10
248.180359837057
 20
-62.3176549250029
 10
248.1912859524911
 20
-62.67556577879556
 10
248.1847431457541
 20
-62.81712563184444
 10
248.183423156132
 20
-63.01558650157295
 10
248.1824322532087
 20
-63.18829659410592
 10
248.1830306681522
 20
-63.33114582198998
 10
248.1845199231433
 20
-63.42714950043219
 10
248.186188851802
 20
-63.53434452193434
 10
248.1878139884166
 20
-63.64815743938994
 10
248.1898634431234
 20
-63.76538382851987
 10
248.1929370431475
 20
-63.88323544223607
 10
248.1962544626592
 20
-63.99751868135955
 10
248.1999810269828
 20
-64.104585535893
 10
248.2023543090974
 20
-64.19972546689655
 10
248.2084923817906
 20
-64.28421398250882
 10
248.2045989425496
 20
-64.34056868158436
 10
248.2261435372624
 20
-64.41154932984217
 10
248.1487144988167
 20
-64.38077277852096
 10
248.092255816974
 20
-64.38968712938963
 10
248.0346700826356
 20
-64.38083737058298
 10
247.9496368408021
 20
-64.41241730230634
 10
247.981591907593
 20
-64.32884799464387
 10
247.9796910212088
 20
-64.26097346488268
 10
247.9914164976848
 20
-64.15746698692158
 10
247.9970445982548
 20
-64.03977829839882
 10
248.0044107108491
 20
-63.90591346292153
 10
248.012696463116
 20
-63.76215802583945
 10
248.0205056826974
 20
-63.6126593261313
 10
248.0263776152207
 20
-63.46187406054499
 10
248.0309872747517
 20
-63.31280011578139
 10
248.0348837047092
 20
-63.16857042293555
 10
248.0376920056113
 20
-63.0339605024356
 10
248.038290368457
 20
-62.84510341109223
 10
248.0422228796699
 20
-62.62004461143424
 10
248.0248380308045
 20
-62.34612864330869
 10
248.0656622272132
 20
-62.18192843357977
 10
247.9801358185549
 20
-61.98230293991477
 10
248.0466763837238
 20
-61.98594497052598
 10
248.064492920278
 20
-61.98566508295723
 10
248.1863006727047
 20
-61.98347028057953
 10
248.2886975265014
 20
-62.26304836735063
 10
248.5386226438904
 20
-62.46416946920577
 10
248.7676240260659
 20
-62.73187340468658
 10
249.0051356142658
 20
-62.98333541594199
 10
249.2292295670321
 20
-63.2200998139522
 10
249.4556921212558
 20
-63.47761262873497
 10
249.6131892816064
 20
-63.59330620399652
 10
249.8278334542222
 20
-63.92982802917783
 10
249.8228850904167
 20
-63.80515201364972
 10
249.8240136532095
 20
-63.74652263520842
 10
249.8235082771064
 20
-63.65936293084597
 10
249.8236680087662
 20
-63.56563812273706
 10
249.8236259820866
 20
-63.4796098415954
 10
249.8236406969922
 20
-63.41826063511081
 10
249.823591118553
 20
-63.2684472393558
 10
249.826501645236
 20
-63.02990342946474
 10
249.806572597071
 20
-62.66493445587875
 10
249.8556638865797
 20
-62.40180323463167
 10
249.6984156438728
 20
-61.99051050508824
 10
249.856831780197
 20
-62.04581672904828
 10
249.9117885408177
 20
-62.047802689564
 10
249.9634092696289
 20
-62.04715177208325
 10
250.0519403894913
 20
-62.00610427718334
 10
250.0011103232719
 20
-62.15283628833593
 10
250.0119594859832
 20
-62.25959983502142
 10
249.9972241924397
 20
-62.41894250042466
 10
249.9906181375751
 20
-62.581268938037
 10
249.9821166329464
 20
-62.74987433564183
 10
249.9749432131748
 20
-62.91165140753035
 10
249.9695268144937
 20
-63.05557623998644
 10
249.9677918897197
 20
-63.17542461989653
 10
249.9681645601867
 20
-63.2829385386606
 10
249.9679861055811
 20
-63.39159930810992
 10
249.9683215792689
 20
-63.51026385291046
 10
249.9696245551733
 20
-63.63424791943836
 10
249.9715092281123
 20
-63.76121661285472
 10
249.97312093844
 20
-63.88826093905544
 10
249.9747608066978
 20
-64.01125070964397
 10
249.9768775675301
 20
-64.12679024072817
 10
249.9770053351911
 20
-64.22889051500738
 10
249.9812719326102
 20
-64.31970106618422
 10
249.9714645014837
 20
-64.37766334247789
 10
249.9924679701237
 20
-64.44462825324548
 10
249.9531844669445
 20
-64.43688801489888
 10
249.7401512047296
 20
-64.45224701311399
 10
249.5442502872734
 20
-63.89576897362099
 10
249.2417402561093
 20
-63.63423920108067
 10
249.087414057757
 20
-63.50081917254852
 97
        1
330
AD
 75
     1
 76
     2
 52
45.0
 41
0.1
 77
     0
 78
     1
 53
45.0
 43
0.0
 44
0.0
 45
-0.282842712474619
 46
0.0
 79
     0
 98
        1
 10
0.0
 20
0.0
  0
HATCH
  5
CB
330
48
100
AcDbEntity
  8
1
  6
Continuous
 62
     2
100
AcDbHatch
 10
0.0
 20
0.0
 30
0.0
210
0.0
220
0.0
230
1.0
  2
CUSTOM13
 70
     0
 71
     1
 91
        2
 92
        1
 93
        1
 72
     4
 94
        3
 73
     0
 74
     0
 95
       57
 96
       53
 40
0.0
 40
0.0
 40
0.0
 40
0.0
 40
0.0471632082809511
 40
0.0914861054632722
 40
0.1357762519702674
 40
0.1826527001610684
 40
0.2295203288572309
 40
0.2737751972220478
 40
0.3181310461542787
 40
0.3652607198398247
 40
0.4571007286314408
 40
0.5671851029165024
 40
0.6894623283868362
 40
0.8181758272545909
 40
0.9510087229273883
 40
1.08585222967404
 40
1.21812616447531
 40
1.343545131142376
 40
1.454537202956849
 40
1.567187607530801
 40
1.680710966642363
 40
1.794226869736784
 40
1.900009184247555
 40
2.004085860447835
 40
2.108162674451808
 40
2.214000150155267
 40
2.496038577352119
 40
2.762350745479286
 40
2.997275353279384
 40
3.185110082137742
 40
3.246407890063912
 40
3.312607550212586
 40
3.378877742711545
 40
3.440140399651457
 40
4.100501696006528
 40
4.75491308556357
 40
5.411331693423957
 40
6.077890432568734
 40
6.110575292671041
 40
6.143260152775821
 40
6.367989363395239
 40
6.610525374951636
 40
6.86338913646741
 40
7.119380025547694
 40
7.376036605091203
 40
7.631164770966389
 40
7.876722425456502
 40
8.104953735856055
 40
8.312916685924353
 40
8.497730294941398
 40
8.651018984313954
 40
8.76473885362468
 40
8.76473885362468
 40
8.76473885362468
 40
8.76473885362468
 10
246.5728854430062
 20
-64.3935321584365
 10
246.5572821656479
 20
-64.39153724377498
 10
246.5270152889851
 20
-64.38766754096281
 10
246.48171991318
 20
-64.38637970489305
 10
246.4365758058897
 20
-64.38671271902525
 10
246.3905222052949
 20
-64.38665296782354
 10
246.3446701101645
 20
-64.38654141806573
 10
246.2989916577714
 20
-64.38702121999985
 10
246.2557016471158
 20
-64.38518845837855
 10
246.1846152881062
 20
-64.40930398641922
 10
246.186368219099
 20
-64.28795261479328
 10
246.1392401300119
 20
-64.20253715705338
 10
246.099768318131
 20
-64.08493026111447
 10
246.0512840462193
 20
-63.96747202916134
 10
246.0007222332071
 20
-63.84574019695069
 10
245.9524839540027
 20
-63.71903987594109
 10
245.8941437877143
 20
-63.61046267671627
 10
245.8787097596809
 20
-63.45359298322163
 10
245.7372791260184
 20
-63.48606508908255
 10
245.6314602344452
 20
-63.47467066774398
 10
245.5164774654771
 20
-63.47587363941962
 10
245.405934718169
 20
-63.47473010109167
 10
245.2982788452331
 20
-63.47561605419051
 10
245.1927527458791
 20
-63.4756335306606
 10
245.0915397611561
 20
-63.4826592298416
 10
244.9073009757302
 20
-63.45844095596711
 10
244.896359861496
 20
-63.76238264334695
 10
244.7893896564297
 20
-63.98626778203175
 10
244.6904353533895
 20
-64.17084641164084
 10
244.7031295453556
 20
-64.4144975065237
 10
244.5856296645945
 20
-64.3847190870338
 10
244.5228260797859
 20
-64.38721865946971
 10
244.4592077022948
 20
-64.3863588035377
 10
244.1752219123622
 20
-64.42881915514636
 10
244.805784342893
 20
-63.70898003011794
 10
244.889385021862
 20
-63.19703416020847
 10
245.2735457718883
 20
-62.67626211906529
 10
245.2583413218122
 20
-61.97460329203369
 10
245.5045470652244
 20
-61.98634322375319
 10
245.6062551087113
 20
-61.97754951003804
 10
245.6055956965365
 20
-62.22920304726225
 10
245.7234522085378
 20
-62.4116193472262
 10
245.8121720190033
 20
-62.65416214793711
 10
245.9128497414808
 20
-62.88639924926449
 10
246.0117347641792
 20
-63.12305310889663
 10
246.1105881920218
 20
-63.35518216286484
 10
246.2062371320474
 20
-63.57857732667791
 10
246.2966109502821
 20
-63.78707406407256
 10
246.3796149497736
 20
-63.97671506927261
 10
246.4532293512349
 20
-64.14316849388473
 10
246.5149020825095
 20
-64.2806225583048
 10
246.5555663815152
 20
-64.35980716026543
 10
246.5728854430062
 20
-64.3935321584365
 97
        1
330
AF
 92
       16
 93
        1
 72
     4
 94
        3
 73
     0
 74
     0
 95
       25
 96
       21
 40
0.0
 40
0.0
 40
0.0
 40
0.0
 40
0.0911479969065959
 40
0.1858117896205803
 40
0.2804128399735343
 40
0.3715889190715647
 40
0.4679080494219561
 40
0.564268380922923
 40
0.660568322264584
 40
0.7569653015811109
 40
0.8561348172523706
 40
1.092615965104389
 40
1.374867658141988
 40
1.611348812011711
 40
1.710518328425367
 40
1.809403163726676
 40
2.045205463294181
 40
2.326646917622246
 40
2.562449217190711
 40
2.661334043834024
 40
2.661334043834024
 40
2.661334043834024
 40
2.661334043834024
 10
245.0489905496747
 20
-63.32365417259284
 10
245.0793730847471
 20
-63.32381875742023
 10
245.141310081866
 20
-63.32415426766654
 10
245.2347561889879
 20
-63.32710900004575
 10
245.3281300165906
 20
-63.33002202579426
 10
245.4223965683025
 20
-63.3308575381316
 10
245.5161169720515
 20
-63.32983310798529
 10
245.6158245232753
 20
-63.33062977985603
 10
245.6995154475861
 20
-63.3205854522136
 10
245.8444201244594
 20
-63.34745337782412
 10
245.7202337374349
 20
-63.17314425176528
 10
245.6772072215831
 20
-63.01328244450484
 10
245.5615127071757
 20
-62.75461496906362
 10
245.4823770360806
 20
-62.61748902594718
 10
245.4237781551363
 20
-62.40042922322499
 10
245.3671008868986
 20
-62.6171382124315
 10
245.2859014830025
 20
-62.75652943018338
 10
245.1869906211035
 20
-63.00572986086381
 10
245.1059830023807
 20
-63.19054125230502
 10
245.0619888255386
 20
-63.2932950860046
 10
245.0489905496747
 20
-63.32365417259284
 97
        1
330
AE
 75
     1
 76
     2
 52
45.0
 41
0.1
 77
     0
 78
     1
 53
45.0
 43
0.0
 44
0.0
 45
-0.282842712474619
 46
0.0
 79
     0
 98
        1
 10
0.0
 20
0.0
  0
HATCH
  5
CC
330
48
100
AcDbEntity
  8
1
  6
Continuous
 62
     2
100
AcDbHatch
 10
0.0
 20
0.0
 30
0.0
210
0.0
220
0.0
230
1.0
  2
CUSTOM14
 70
     0
 71
     1
 91
        1
 92
        1
 93
        1
 72
     4
 94
        3
 73
     0
 74
     0
 95
       99
 96
       95
 40
0.0
 40
0.0
 40
0.0
 40
0.0
 40
0.0796417172272432
 40
0.1621768542356096
 40
0.2486489160957502
 40
0.3404969668524452
 40
0.4381912511164719
 40
0.5434463660245036
 40
0.6518115192847367
 40
0.7530190937886636
 40
0.8492196919725139
 40
0.9419290312997952
 40
1.034249663570024
 40
1.129078600620147
 40
1.226697027573217
 40
1.327220425421673
 40
1.470572134937982
 40
1.595489863371185
 40
1.719934125348348
 40
1.850576620127393
 40
1.989059629987333
 40
2.134139054226898
 40
2.28069800720729
 40
2.424529739039556
 40
2.565929576985854
 40
2.70823926077355
 40
2.861717887443684
 40
3.045168540347388
 40
3.183798301138627
 40
3.314813961455455
 40
3.442083470447349
 40
3.569912708373037
 40
3.702177512509433
 40
3.8423075596595
 40
3.99287222324593
 40
4.156750662218291
 40
4.310981861107598
 40
4.44585990932267
 40
4.57239393613162
 40
4.701656719781968
 40
4.76827908600844
 40
4.835960697898393
 40
4.912788918729309
 40
5.006285208481499
 40
5.026909478751575
 40
5.047533749021168
 40
5.101808031471241
 40
5.162325165538504
 40
5.226919745995831
 40
5.294231806596756
 40
5.364544852554862
 40
5.438319055467913
 40
5.517877651324301
 40
5.607647714861611
 40
5.700449642544428
 40
5.788251142364131
 40
5.87271470603981
 40
5.955167292575262
 40
6.037192395190413
 40
6.120669181469157
 40
6.206848616686365
 40
6.296680855416779
 40
6.44255839287262
 40
6.568190371608276
 40
6.692904567360379
 40
6.824220446557134
 40
6.963121850329419
 40
7.10784373885118
 40
7.253431663907238
 40
7.395187468036612
 40
7.533140753237714
 40
7.670550457175221
 40
7.816236511769266
 40
7.987691657359217
 40
8.14227742196925
 40
8.293662615415018
 40
8.442962460879283
 40
8.59159831618539
 40
8.743678992361799
 40
8.903725323699156
 40
9.076307008890563
 40
9.265578604680588
 40
9.459203795360734
 40
9.617619810273519
 40
9.753609671361906
 40
9.87487330000415
 40
9.954520184977865
 40
10.02416413719255
 40
10.09769764405455
 40
10.18909955924982
 40
10.20974586420143
 40
10.23039218263386
 40
10.30057101881273
 40
10.37632012987552
 40
10.37632012987552
 40
10.37632012987552
 40
10.37632012987552
 10
241.92721597654
 20
-64.07184292240582
 10
241.9438422780768
 20
-64.09259346611265
 10
241.9776989136126
 20
-64.13484843744678
 10
242.0406027470584
 20
-64.18950144064502
 10
242.1138705869942
 20
-64.23680930335527
 10
242.1982174168184
 20
-64.27452724018642
 10
242.2938445545009
 20
-64.29939335724623
 10
242.3978058704895
 20
-64.30670396110642
 10
242.5030225149954
 20
-64.29837632662522
 10
242.6012831300882
 20
-64.26830775805047
 10
242.6865191357097
 20
-64.22131132484702
 10
242.7585425135651
 20
-64.16026964205717
 10
242.8157122638644
 20
-64.08566985877997
 10
242.8574073676988
 20
-63.99977490796399
 10
242.8833157775841
 20
-63.90494105024366
 10
242.8924242262202
 20
-63.7912497641821
 10
242.8793069726036
 20
-63.66647367685798
 10
242.8131535263963
 20
-63.54965236284686
 10
242.7175575849118
 20
-63.46467415879201
 10
242.6055885951918
 20
-63.39563270997414
 10
242.4799864512818
 20
-63.33775813410688
 10
242.3462896550404
 20
-63.2860623217223
 10
242.2119327748379
 20
-63.23080863059398
 10
242.0858188916424
 20
-63.1604018481493
 10
241.9732784917084
 20
-63.07194414725325
 10
241.8776167994007
 20
-62.95998887588105
 10
241.8140362081374
 20
-62.81030045355195
 10
241.8006911434564
 20
-62.65047161071435
 10
241.8126715916998
 20
-62.49931550149735
 10
241.8518503858389
 20
-62.37170710865034
 10
241.9161192680459
 20
-62.25899081425731
 10
242.0044409929289
 20
-62.16331346187891
 10
242.1144296137176
 20
-62.08625740470828
 10
242.2438489330813
 20
-62.02828558520293
 10
242.3918043897341
 20
-61.99240777867756
 10
242.5488274385035
 20
-61.98233236406013
 10
242.6981145395978
 20
-61.99116317693985
 10
242.8402458543719
 20
-62.0190505611622
 10
242.9402127539174
 20
-62.0756664075544
 10
243.0931279665732
 20
-62.12305353351071
 10
243.0261336646717
 20
-62.20782402455394
 10
243.0102684049816
 20
-62.27541053583089
 10
242.9784955460847
 20
-62.34053862663389
 10
242.9956407139119
 20
-62.44256502199623
 10
242.9472632137781
 20
-62.43486743774675
 10
242.9121994370314
 20
-62.44173183731768
 10
242.9102902915267
 20
-62.37716124298382
 10
242.8791897861538
 20
-62.33154315835181
 10
242.8470756558004
 20
-62.27418918828118
 10
242.8014243404716
 20
-62.22439492764021
 10
242.7464713147935
 20
-62.17985141737581
 10
242.6817046102556
 20
-62.14215966620023
 10
242.6038582240145
 20
-62.11696579665224
 10
242.5161365482901
 20
-62.11048724458468
 10
242.4259108207355
 20
-62.11744246170969
 10
242.3400799623612
 20
-62.14070764995657
 10
242.2634548568145
 20
-62.17848311349027
 10
242.1971470565749
 20
-62.22928314367006
 10
242.1428765466513
 20
-62.29248812049366
 10
242.1031130275006
 20
-62.36703499746207
 10
242.0782980440138
 20
-62.45062641458816
 10
242.0698329192418
 20
-62.5578700707429
 10
242.0825902916653
 20
-62.68014498189015
 10
242.1487753338822
 20
-62.79830231165369
 10
242.2447182329381
 20
-62.88373629747046
 10
242.3564119892731
 20
-62.95396593149858
 10
242.4817068598252
 20
-63.0132079315127
 10
242.6156028870996
 20
-63.06363247370444
 10
242.7496135262698
 20
-63.11657438472192
 10
242.8757090246463
 20
-63.18229784831406
 10
242.9882421567965
 20
-63.26499602919252
 10
243.0837575213782
 20
-63.36983949146506
 10
243.1478911416511
 20
-63.51042838205004
 10
243.1617308654829
 20
-63.66914546004987
 10
243.1480159641777
 20
-63.82826800238698
 10
243.1050944083534
 20
-63.97496126637368
 10
243.0352111258615
 20
-64.10860158869436
 10
242.9380797143377
 20
-64.2244756775728
 10
242.8154010953206
 20
-64.31889973686492
 10
242.6680613342716
 20
-64.38800684804593
 10
242.4983337426674
 20
-64.43026744597726
 10
242.3123609909146
 20
-64.44198219226169
 10
242.1335160855732
 20
-64.4317046877314
 10
241.9687938683292
 20
-64.39013381687423
 10
241.8640615770606
 20
-64.32182312572634
 10
241.7157165719913
 20
-64.27304736424473
 10
241.7786583124277
 20
-64.18003364165733
 10
241.7878479359609
 20
-64.10683419208299
 10
241.810991623078
 20
-64.04043660955229
 10
241.7840793264867
 20
-63.94005145929
 10
241.8327543885887
 20
-63.94745921939197
 10
241.8722735510246
 20
-63.94085891835686
 10
241.880240987425
 20
-64.01901252237643
 10
241.9111641897473
 20
-64.0537902808072
 10
241.92721597654
 20
-64.07184292240582
 97
        1
330
B0
 75
     1
 76
     2
 52
45.0
 41
0.1
 77
     0
 78
     1
 53
45.0
 43
0.0
 44
0.0
 45
-0.282842712474619
 46
0.0
 79
     0
 98
        1
 10
0.0
 20
0.0
  0
ENDBLK
  5
4A
330
48
100
AcDbEntity
  8
0
100
AcDbBlockEnd
  0
BLOCK
  5
4D
330
4B
100
AcDbEntity
  8
0
100
AcDbBlockBegin
  2
開示A4枠
 70
     0
 10
71.78062049295488
 20
-78.20979955456576
 30
0.0
  3
開示A4枠
  1

  0
INSERT
  5
4C
330
4B
100
AcDbEntity
  8
1
100
AcDbBlockReference
  2
開示A4
 10
71.78062049295488
 20
-78.20979955456576
 30
0.0
  0
ENDBLK
  5
4E
330
4B
100
AcDbEntity
  8
0
100
AcDbBlockEnd
  0
BLOCK
  5
12D
330
126
100
AcDbEntity
  8
0
100
AcDbBlockBegin
  2
*D3
 70
     1
 10
0.0
 20
0.0
 30
0.0
  3
*D3
  1

  0
LINE
  5
127
330
126
100
AcDbEntity
  8
1
  6
Continuous
 62
     2
100
AcDbLine
 10
166.211856710394
 20
-28.28814328960601
 30
0.0
 11
206.211856710394
 21
-28.28814328960601
 31
0.0
  0
LINE
  5
128
330
126
100
AcDbEntity
  8
1
  6
Continuous
 62
     2
100
AcDbLine
 10
206.211856710394
 20
-16.28814328960601
 30
0.0
 11
206.211856710394
 21
-30.28814328960601
 31
0.0
  0
LINE
  5
129
330
126
100
AcDbEntity
  8
1
  6
Continuous
 62
     2
100
AcDbLine
 10
166.211856710394
 20
-16.28814328960601
 30
0.0
 11
166.211856710394
 21
-30.28814328960601
 31
0.0
  0
SOLID
  5
12A
330
126
100
AcDbEntity
  8
1
 62
     2
100
AcDbTrace
 10
169.711856710394
 20
-27.82735954805012
 30
0.0
 11
169.711856710394
 21
-28.74892703116189
 31
0.0
 12
166.211856710394
 22
-28.28814328960601
 32
0.0
 13
166.211856710394
 23
-28.28814328960601
 33
0.0
  0
SOLID
  5
12B
330
126
100
AcDbEntity
  8
1
 62
     2
100
AcDbTrace
 10
202.711856710394
 20
-28.74892703116189
 30
0.0
 11
202.711856710394
 21
-27.82735954805012
 31
0.0
 12
206.211856710394
 22
-28.28814328960601
 32
0.0
 13
206.211856710394
 23
-28.28814328960601
 33
0.0
  0
MTEXT
  5
12C
330
126
100
AcDbEntity
  8
1
 62
     7
100
AcDbMText
 10
183.3102556739057
 20
-26.28814925281429
 30
0.0
 40
3.0
 41
0.0
 71
     7
 72
     1
  1
\C7;{\Fgdt;n}\C7;40
  7
CONVERTER_12
 11
0.9999999999970619
 21
2.424068405545306E-6
 31
0.0
 73
     1
 44
0.60024009603842
  0
ENDBLK
  5
12E
330
126
100
AcDbEntity
  8
0
100
AcDbBlockEnd
  0
BLOCK
  5
138
330
131
100
AcDbEntity
  8
0
100
AcDbBlockBegin
  2
*D4
 70
     1
 10
0.0
 20
0.0
 30
0.0
  3
*D4
  1

  0
LINE
  5
132
330
131
100
AcDbEntity
  8
1
  6
Continuous
 62
     2
100
AcDbLine
 10
124.711856710394
 20
-18.28814328960601
 30
0.0
 11
124.711856710394
 21
91.71185671039399
 31
0.0
  0
LINE
  5
133
330
131
100
AcDbEntity
  8
1
  6
Continuous
 62
     2
100
AcDbLine
 10
142.711856710394
 20
91.71185671039399
 30
0.0
 11
122.711856710394
 21
91.71185671039399
 31
0.0
  0
LINE
  5
134
330
131
100
AcDbEntity
  8
1
  6
Continuous
 62
     2
100
AcDbLine
 10
168.211856710394
 20
-18.28814328960601
 30
0.0
 11
122.711856710394
 21
-18.28814328960601
 31
0.0
  0
SOLID
  5
135
330
131
100
AcDbEntity
  8
1
 62
     2
100
AcDbTrace
 10
124.2510729688381
 20
-14.78814328960601
 30
0.0
 11
125.1726404519499
 21
-14.78814328960601
 31
0.0
 12
124.711856710394
 22
-18.28814328960601
 32
0.0
 13
124.711856710394
 23
-18.28814328960601
 33
0.0
  0
SOLID
  5
136
330
131
100
AcDbEntity
  8
1
 62
     2
100
AcDbTrace
 10
125.1726404519499
 20
88.21185671039399
 30
0.0
 11
124.2510729688381
 21
88.21185671039399
 31
0.0
 12
124.711856710394
 22
91.71185671039399
 32
0.0
 13
124.711856710394
 23
91.71185671039399
 33
0.0
  0
MTEXT
  5
137
330
131
100
AcDbEntity
  8
1
 62
     7
100
AcDbMText
 10
122.711856710394
 20
33.06712092063979
 30
0.0
 40
3.0
 41
0.0
 71
     7
 72
     1
  1
110
  7
CONVERTER_12
 11
0.0
 21
1.0
 31
0.0
 73
     1
 44
0.60024009603842
  0
ENDBLK
  5
139
330
131
100
AcDbEntity
  8
0
100
AcDbBlockEnd
  0
BLOCK
  5
143
330
13C
100
AcDbEntity
  8
0
100
AcDbBlockBegin
  2
*D5
 70
     1
 10
0.0
 20
0.0
 30
0.0
  3
*D5
  1

  0
LINE
  5
13D
330
13C
100
AcDbEntity
  8
1
  6
Continuous
 62
     2
100
AcDbLine
 10
164.211856710394
 20
-36.2097995545657
 30
0.0
 11
208.2118567103944
 21
-36.2097995545657
 31
0.0
  0
LINE
  5
13E
330
13C
100
AcDbEntity
  8
1
  6
Continuous
 62
     2
100
AcDbLine
 10
208.2118567103944
 20
-3.28814328960601
 30
0.0
 11
208.2118567103944
 21
-38.2097995545657
 31
0.0
  0
LINE
  5
13F
330
13C
100
AcDbEntity
  8
1
  6
Continuous
 62
     2
100
AcDbLine
 10
164.211856710394
 20
-3.28814328960601
 30
0.0
 11
164.211856710394
 21
-38.2097995545657
 31
0.0
  0
SOLID
  5
140
330
13C
100
AcDbEntity
  8
1
 62
     2
100
AcDbTrace
 10
167.711856710394
 20
-35.74901581300981
 30
0.0
 11
167.711856710394
 21
-36.67058329612158
 31
0.0
 12
164.211856710394
 22
-36.2097995545657
 32
0.0
 13
164.211856710394
 23
-36.2097995545657
 33
0.0
  0
SOLID
  5
141
330
13C
100
AcDbEntity
  8
1
 62
     2
100
AcDbTrace
 10
204.7118567103944
 20
-36.67058329612158
 30
0.0
 11
204.7118567103944
 21
-35.74901581300981
 31
0.0
 12
208.2118567103944
 22
-36.2097995545657
 32
0.0
 13
208.2118567103944
 23
-36.2097995545657
 33
0.0
  0
MTEXT
  5
142
330
13C
100
AcDbEntity
  8
1
 62
     7
100
AcDbMText
 10
183.3695132471323
 20
-34.20980551777398
 30
0.0
 40
3.0
 41
0.0
 71
     7
 72
     1
  1
\C7;{\Fgdt;n}\C7;44
  7
CONVERTER_12
 11
0.9999999999970619
 21
2.424068405545306E-6
 31
0.0
 73
     1
 44
0.60024009603842
  0
ENDBLK
  5
144
330
13C
100
AcDbEntity
  8
0
100
AcDbBlockEnd
  0
BLOCK
  5
14E
330
147
100
AcDbEntity
  8
0
100
AcDbBlockBegin
  2
*D6
 70
     1
 10
0.0
 20
0.0
 30
0.0
  3
*D6
  1

  0
LINE
  5
148
330
147
100
AcDbEntity
  8
1
  6
Continuous
 62
     2
100
AcDbLine
 10
142.711856710394
 20
101.711856710394
 30
0.0
 11
229.711856710394
 21
101.711856710394
 31
0.0
  0
LINE
  5
149
330
147
100
AcDbEntity
  8
1
  6
Continuous
 62
     2
100
AcDbLine
 10
229.711856710394
 20
91.711856710394
 30
0.0
 11
229.711856710394
 21
103.711856710394
 31
0.0
  0
LINE
  5
14A
330
147
100
AcDbEntity
  8
1
  6
Continuous
 62
     2
100
AcDbLine
 10
142.711856710394
 20
91.711856710394
 30
0.0
 11
142.711856710394
 21
103.711856710394
 31
0.0
  0
SOLID
  5
14B
330
147
100
AcDbEntity
  8
1
 62
     2
100
AcDbTrace
 10
146.211856710394
 20
102.1726404519499
 30
0.0
 11
146.211856710394
 21
101.2510729688381
 31
0.0
 12
142.711856710394
 22
101.711856710394
 32
0.0
 13
142.711856710394
 23
101.711856710394
 33
0.0
  0
SOLID
  5
14C
330
147
100
AcDbEntity
  8
1
 62
     2
100
AcDbTrace
 10
226.211856710394
 20
101.2510729688381
 30
0.0
 11
226.211856710394
 21
102.1726404519499
 31
0.0
 12
229.711856710394
 22
101.711856710394
 32
0.0
 13
229.711856710394
 23
101.711856710394
 33
0.0
  0
MTEXT
  5
14D
330
147
100
AcDbEntity
  8
1
 62
     7
100
AcDbMText
 10
183.3018567104012
 20
103.7118507471857
 30
0.0
 40
3.0
 41
0.0
 71
     7
 72
     1
  1
\C7;{\Fgdt;n}\C7;87
  7
CONVERTER_12
 11
0.9999999999970619
 21
2.424068405545306E-6
 31
0.0
 73
     1
 44
0.60024009603842
  0
ENDBLK
  5
14F
330
147
100
AcDbEntity
  8
0
100
AcDbBlockEnd
  0
BLOCK
  5
15A
330
152
100
AcDbEntity
  8
0
100
AcDbBlockBegin
  2
*D7
 70
     1
 10
0.0
 20
0.0
 30
0.0
  3
*D7
  1

  0
LINE
  5
153
330
152
100
AcDbEntity
  8
0
  6
Continuous
 62
     2
100
AcDbLine
 10
226.9831107723243
 20
74.98370064417358
 30
0.0
 11
239.0907711134197
 21
74.98370064417358
 31
0.0
  0
LINE
  5
154
330
152
100
AcDbEntity
  8
0
  6
Continuous
 62
     2
100
AcDbLine
 10
158.9831107723243
 20
74.98370064417358
 30
0.0
 11
226.9831107723243
 21
74.98370064417358
 31
0.0
  0
LINE
  5
155
330
152
100
AcDbEntity
  8
0
  6
Continuous
 62
     2
100
AcDbLine
 10
220.211856710394
 20
86.71185671039399
 30
0.0
 11
227.9831107723243
 21
73.2516498366047
 31
0.0
  0
LINE
  5
156
330
152
100
AcDbEntity
  8
0
  6
Continuous
 62
     2
100
AcDbLine
 10
152.211856710394
 20
86.71185671039399
 30
0.0
 11
159.9831107723243
 21
73.2516498366047
 31
0.0
  0
SOLID
  5
157
330
152
100
AcDbEntity
  8
0
 62
     2
100
AcDbTrace
 10
223.4831107723243
 20
74.5229169026177
 30
0.0
 11
223.4831107723243
 21
75.44448438572947
 31
0.0
 12
226.9831107723243
 22
74.98370064417358
 32
0.0
 13
226.9831107723243
 23
74.98370064417358
 33
0.0
  0
SOLID
  5
158
330
152
100
AcDbEntity
  8
0
 62
     2
100
AcDbTrace
 10
162.4831107723243
 20
75.44448438572947
 30
0.0
 11
162.4831107723243
 21
74.5229169026177
 31
0.0
 12
158.9831107723243
 22
74.98370064417358
 32
0.0
 13
158.9831107723243
 23
74.98370064417358
 33
0.0
  0
MTEXT
  5
159
330
152
100
AcDbEntity
  8
0
 62
     7
100
AcDbMText
 10
232.130771113427
 20
76.9836946809653
 30
0.0
 40
3.0
 41
0.0
 71
     7
 72
     1
  1
\C7;{\Fgdt;n}\C7;68
  7
CONVERTER_12
 11
0.9999999999970619
 21
2.424068405545306E-6
 31
0.0
 73
     1
 44
0.60024009603842
  0
ENDBLK
  5
15B
330
152
100
AcDbEntity
  8
0
100
AcDbBlockEnd
  0
BLOCK
  5
165
330
15E
100
AcDbEntity
  8
0
100
AcDbBlockBegin
  2
*D8
 70
     1
 10
0.0
 20
0.0
 30
0.0
  3
*D8
  1

  0
LINE
  5
15F
330
15E
100
AcDbEntity
  8
1
  6
Continuous
 62
     2
100
AcDbLine
 10
132.711856710394
 20
6.71185671039397
 30
0.0
 11
132.711856710394
 21
91.71185671039397
 31
0.0
  0
LINE
  5
160
330
15E
100
AcDbEntity
  8
1
  6
Continuous
 62
     2
100
AcDbLine
 10
142.711856710394
 20
91.71185671039397
 30
0.0
 11
130.711856710394
 21
91.71185671039397
 31
0.0
  0
LINE
  5
161
330
15E
100
AcDbEntity
  8
1
  6
Continuous
 62
     2
100
AcDbLine
 10
165.711856710394
 20
6.71185671039397
 30
0.0
 11
130.711856710394
 21
6.71185671039397
 31
0.0
  0
SOLID
  5
162
330
15E
100
AcDbEntity
  8
1
 62
     2
100
AcDbTrace
 10
133.1726404519499
 20
88.21185671039397
 30
0.0
 11
132.2510729688381
 21
88.21185671039397
 31
0.0
 12
132.711856710394
 22
91.71185671039397
 32
0.0
 13
132.711856710394
 23
91.71185671039397
 33
0.0
  0
SOLID
  5
163
330
15E
100
AcDbEntity
  8
1
 62
     2
100
AcDbTrace
 10
132.2510729688381
 20
10.21185671039397
 30
0.0
 11
133.1726404519499
 21
10.21185671039397
 31
0.0
 12
132.711856710394
 22
6.71185671039397
 32
0.0
 13
132.711856710394
 23
6.71185671039397
 33
0.0
  0
MTEXT
  5
164
330
15E
100
AcDbEntity
  8
1
 62
     7
100
AcDbMText
 10
130.711856710394
 20
44.70791692364104
 30
0.0
 40
3.0
 41
0.0
 71
     7
 72
     1
  1
85
  7
CONVERTER_12
 11
0.0
 21
1.0
 31
0.0
 73
     1
 44
0.60024009603842
  0
ENDBLK
  5
166
330
15E
100
AcDbEntity
  8
0
100
AcDbBlockEnd
  0
BLOCK
  5
16E
330
169
100
AcDbEntity
  8
0
100
AcDbBlockBegin
  2
*D9
 70
     1
 10
0.0
 20
0.0
 30
0.0
  3
*D9
  1

  0
LINE
  5
16A
330
169
100
AcDbEntity
  8
0
  6
Continuous
 62
     2
100
AcDbLine
 10
211.7552021431351
 20
180.3652034224261
 30
0.0
 11
146.6066138620089
 21
117.4865668349367
 31
0.0
  0
SOLID
  5
16B
330
169
100
AcDbEntity
  8
0
 62
     2
100
AcDbTrace
 10
162.8668731839838
 20
133.8206697666004
 30
0.0
 11
163.5068653721441
 21
133.1575735254537
 31
0.0
 12
160.6685112776529
 22
131.0585099983619
 32
0.0
 13
160.6685112776529
 23
131.0585099983619
 33
0.0
  0
SOLID
  5
16C
330
169
100
AcDbEntity
  8
0
 62
     2
100
AcDbTrace
 10
209.5568402368041
 20
177.6030436541876
 30
0.0
 11
208.9168480486439
 21
178.2661398953342
 31
0.0
 12
211.7552021431351
 22
180.3652034224261
 32
0.0
 13
211.7552021431351
 23
180.3652034224261
 33
0.0
  0
MTEXT
  5
16D
330
169
100
AcDbEntity
  8
0
 62
     7
100
AcDbMText
 10
146.0379580977627
 20
119.7173134861254
 30
0.0
 40
3.0
 41
0.0
 71
     7
 72
     1
  1
\C7;{\Fgdt;n}\C7;71
  7
CONVERTER_12
 11
0.7195308572603131
 21
0.6944604707614674
 31
0.0
 73
     1
 44
0.60024009603842
  0
ENDBLK
  5
16F
330
169
100
AcDbEntity
  8
0
100
AcDbBlockEnd
  0
ENDSEC
  0
SECTION
  2
ENTITIES
  0
INSERT
  5
4F
330
1F
100
AcDbEntity
  8
0
100
AcDbBlockReference
  2
開示A4枠
 10
71.78062049295488
 20
-78.20979955456576
 30
0.0
  0
LINE
  5
CD
330
1F
100
AcDbEntity
  8
1
  6
Continuous
 62
     7
100
AcDbLine
 10
166.211856710394
 20
-16.28814328960601
 30
0.0
 11
206.211856710394
 21
-16.28814328960601
 31
0.0
  0
LINE
  5
CE
330
1F
100
AcDbEntity
  8
0
  6
Continuous
 62
     7
100
AcDbLine
 10
204.211856710394
 20
-18.28814328960601
 30
0.0
 11
186.211856710394
 21
-18.28814328960601
 31
0.0
  0
LINE
  5
CF
330
1F
100
AcDbEntity
  8
0
  6
Continuous
 62
     7
100
AcDbLine
 10
206.211856710394
 20
-16.28814328960601
 30
0.0
 11
206.211856710394
 21
-3.28814328960601
 31
0.0
  0
LINE
  5
D0
330
1F
100
AcDbEntity
  8
1
  6
Continuous
 62
     7
100
AcDbLine
 10
204.211856710394
 20
-18.28814328960601
 30
0.0
 11
206.211856710394
 21
-16.28814328960601
 31
0.0
  0
LINE
  5
D1
330
1F
100
AcDbEntity
  8
1
  6
Continuous
 62
     7
100
AcDbLine
 10
166.211856710394
 20
-16.28814328960601
 30
0.0
 11
168.211856710394
 21
-18.28814328960601
 31
0.0
  0
LINE
  5
D2
330
1F
100
AcDbEntity
  8
1
  6
Continuous
 62
     7
100
AcDbLine
 10
165.711856710394
 20
6.71185671039399
 30
0.0
 11
169.961856710394
 21
6.71185671039399
 31
0.0
  0
LINE
  5
D3
330
1F
100
AcDbEntity
  8
0
  6
Continuous
 62
     7
100
AcDbLine
 10
165.711856710394
 20
6.71185671039399
 30
0.0
 11
164.211856710394
 21
6.71185671039399
 31
0.0
  0
LINE
  5
D4
330
1F
100
AcDbEntity
  8
1
  6
DASH_CENTER
 62
     2
100
AcDbLine
 10
186.211856710394
 20
94.71185671039399
 30
0.0
 11
186.211856710394
 21
-21.28814328960601
 31
0.0
  0
LINE
  5
D5
330
1F
100
AcDbEntity
  8
0
  6
Continuous
 62
     7
100
AcDbLine
 10
202.461856710394
 20
6.71185671039399
 30
0.0
 11
186.211856710394
 21
6.71185671039399
 31
0.0
  0
LINE
  5
D6
330
1F
100
AcDbEntity
  8
0
  6
Continuous
 62
     7
100
AcDbLine
 10
216.2689079329323
 20
13.41467973791038
 30
0.0
 11
202.461856710394
 21
6.71185671039399
 31
0.0
  0
LINE
  5
D7
330
1F
100
AcDbEntity
  8
0
  6
Continuous
 62
     7
100
AcDbLine
 10
156.1548054878557
 20
13.41467973791038
 30
0.0
 11
169.961856710394
 21
6.71185671039399
 31
0.0
  0
LINE
  5
D8
330
1F
100
AcDbEntity
  8
0
  6
Continuous
 62
     7
100
AcDbLine
 10
229.711856710394
 20
91.71185671039399
 30
0.0
 11
186.211856710394
 21
91.71185671039399
 31
0.0
  0
LINE
  5
D9
330
1F
100
AcDbEntity
  8
0
  6
Continuous
 62
     7
100
AcDbLine
 10
229.711856710394
 20
86.71185671039399
 30
0.0
 11
186.211856710394
 21
86.71185671039399
 31
0.0
  0
LINE
  5
DA
330
1F
100
AcDbEntity
  8
0
  6
Continuous
 62
     7
100
AcDbLine
 10
208.211856710394
 20
6.71185671039399
 30
0.0
 11
206.711856710394
 21
6.71185671039399
 31
0.0
  0
LINE
  5
DB
330
1F
100
AcDbEntity
  8
0
  6
Continuous
 62
     7
100
AcDbLine
 10
213.211856710394
 20
12.71185671039399
 30
0.0
 11
159.211856710394
 21
12.71185671039399
 31
0.0
  0
LINE
  5
DC
330
1F
100
AcDbEntity
  8
0
  6
Continuous
 62
     7
100
AcDbLine
 10
206.711856710394
 20
6.71185671039399
 30
0.0
 11
202.461856710394
 21
6.71185671039399
 31
0.0
  0
LINE
  5
DD
330
1F
100
AcDbEntity
  8
0
  6
Continuous
 62
     7
100
AcDbLine
 10
208.2118567103944
 20
-3.28814328960601
 30
0.0
 11
208.211856710394
 21
6.71185671039399
 31
0.0
  0
LINE
  5
DE
330
1F
100
AcDbEntity
  8
0
  6
Continuous
 62
     7
100
AcDbLine
 10
220.211856710394
 20
19.71185671039399
 30
0.0
 11
220.211856710394
 21
86.71185671039399
 31
0.0
  0
LINE
  5
DF
330
1F
100
AcDbEntity
  8
0
  6
Continuous
 62
     7
100
AcDbLine
 10
229.711856710394
 20
86.71185671039399
 30
0.0
 11
229.711856710394
 21
91.71185671039399
 31
0.0
  0
LINE
  5
E0
330
1F
100
AcDbEntity
  8
0
  6
Continuous
 62
     7
100
AcDbLine
 10
186.211856710394
 20
91.71185671039399
 30
0.0
 11
142.711856710394
 21
91.71185671039399
 31
0.0
  0
LINE
  5
E1
330
1F
100
AcDbEntity
  8
0
  6
Continuous
 62
     7
100
AcDbLine
 10
186.211856710394
 20
86.71185671039399
 30
0.0
 11
142.711856710394
 21
86.71185671039399
 31
0.0
  0
LINE
  5
E2
330
1F
100
AcDbEntity
  8
0
  6
Continuous
 62
     7
100
AcDbLine
 10
186.211856710394
 20
6.71185671039399
 30
0.0
 11
169.961856710394
 21
6.71185671039399
 31
0.0
  0
LINE
  5
E3
330
1F
100
AcDbEntity
  8
0
  6
Continuous
 62
     7
100
AcDbLine
 10
208.2118567103944
 20
-3.28814328960601
 30
0.0
 11
164.211856710394
 21
-3.28814328960601
 31
0.0
  0
LINE
  5
E4
330
1F
100
AcDbEntity
  8
0
  6
Continuous
 62
     7
100
AcDbLine
 10
186.211856710394
 20
-18.28814328960601
 30
0.0
 11
168.211856710394
 21
-18.28814328960601
 31
0.0
  0
LINE
  5
E5
330
1F
100
AcDbEntity
  8
0
  6
Continuous
 62
     7
100
AcDbLine
 10
166.211856710394
 20
-3.28814328960601
 30
0.0
 11
166.211856710394
 21
-16.28814328960601
 31
0.0
  0
LINE
  5
E6
330
1F
100
AcDbEntity
  8
0
  6
Continuous
 62
     7
100
AcDbLine
 10
164.211856710394
 20
6.71185671039399
 30
0.0
 11
164.211856710394
 21
-3.28814328960601
 31
0.0
  0
LINE
  5
E7
330
1F
100
AcDbEntity
  8
0
  6
Continuous
 62
     7
100
AcDbLine
 10
152.211856710394
 20
86.71185671039399
 30
0.0
 11
152.211856710394
 21
19.71185671039399
 31
0.0
  0
LINE
  5
E8
330
1F
100
AcDbEntity
  8
0
  6
Continuous
 62
     7
100
AcDbLine
 10
142.711856710394
 20
91.71185671039399
 30
0.0
 11
142.711856710394
 21
86.71185671039399
 31
0.0
  0
LINE
  5
E9
330
1F
100
AcDbEntity
  8
0
  6
DASH_CENTER
 62
     2
100
AcDbLine
 10
186.211856710394
 20
112.211856710394
 30
0.0
 11
186.211856710394
 21
109.211856710394
 31
0.0
  0
LINE
  5
EA
330
1F
100
AcDbEntity
  8
0
  6
Continuous
 62
     7
100
AcDbLine
 10
202.0153373396731
 20
180.211856710394
 30
0.0
 11
170.4083760811149
 21
180.211856710394
 31
0.0
  0
LINE
  5
EB
330
1F
100
AcDbEntity
  8
0
  6
Continuous
 62
     7
100
AcDbLine
 10
157.211856710394
 20
156.711856710394
 30
0.0
 11
157.211856710394
 21
154.711856710394
 31
0.0
  0
LINE
  5
EC
330
1F
100
AcDbEntity
  8
0
  6
Continuous
 62
     7
100
AcDbLine
 10
158.211856710394
 20
157.711856710394
 30
0.0
 11
179.211856710394
 21
157.711856710394
 31
0.0
  0
LINE
  5
ED
330
1F
100
AcDbEntity
  8
0
  6
Continuous
 62
     7
100
AcDbLine
 10
158.211856710394
 20
153.711856710394
 30
0.0
 11
179.211856710394
 21
153.711856710394
 31
0.0
  0
LINE
  5
EE
330
1F
100
AcDbEntity
  8
0
  6
Continuous
 62
     7
100
AcDbLine
 10
209.211856710394
 20
175.211856710394
 30
0.0
 11
163.211856710394
 21
175.211856710394
 31
0.0
  0
LINE
  5
EF
330
1F
100
AcDbEntity
  8
0
  6
Continuous
 62
     7
100
AcDbLine
 10
209.211856710394
 20
171.211856710394
 30
0.0
 11
163.211856710394
 21
171.211856710394
 31
0.0
  0
LINE
  5
F0
330
1F
100
AcDbEntity
  8
0
  6
Continuous
 62
     7
100
AcDbLine
 10
214.211856710394
 20
166.711856710394
 30
0.0
 11
158.211856710394
 21
166.711856710394
 31
0.0
  0
LINE
  5
F1
330
1F
100
AcDbEntity
  8
0
  6
Continuous
 62
     7
100
AcDbLine
 10
214.211856710394
 20
162.711856710394
 30
0.0
 11
158.211856710394
 21
162.711856710394
 31
0.0
  0
LINE
  5
F2
330
1F
100
AcDbEntity
  8
0
  6
Continuous
 62
     7
100
AcDbLine
 10
170.4083760811149
 20
131.211856710394
 30
0.0
 11
202.0153373396731
 21
131.211856710394
 31
0.0
  0
LINE
  5
F3
330
1F
100
AcDbEntity
  8
0
  6
Continuous
 62
     7
100
AcDbLine
 10
163.211856710394
 20
136.211856710394
 30
0.0
 11
209.211856710394
 21
136.211856710394
 31
0.0
  0
LINE
  5
F4
330
1F
100
AcDbEntity
  8
0
  6
Continuous
 62
     7
100
AcDbLine
 10
163.211856710394
 20
140.211856710394
 30
0.0
 11
209.211856710394
 21
140.211856710394
 31
0.0
  0
LINE
  5
F5
330
1F
100
AcDbEntity
  8
0
  6
Continuous
 62
     7
100
AcDbLine
 10
158.211856710394
 20
144.711856710394
 30
0.0
 11
214.211856710394
 21
144.711856710394
 31
0.0
  0
LINE
  5
F6
330
1F
100
AcDbEntity
  8
0
  6
Continuous
 62
     7
100
AcDbLine
 10
158.211856710394
 20
148.711856710394
 30
0.0
 11
214.211856710394
 21
148.711856710394
 31
0.0
  0
LINE
  5
F7
330
1F
100
AcDbEntity
  8
0
  6
Continuous
 62
     7
100
AcDbLine
 10
215.211856710394
 20
154.711856710394
 30
0.0
 11
215.211856710394
 21
156.711856710394
 31
0.0
  0
LINE
  5
F8
330
1F
100
AcDbEntity
  8
0
  6
Continuous
 62
     7
100
AcDbLine
 10
193.211856710394
 20
157.711856710394
 30
0.0
 11
214.211856710394
 21
157.711856710394
 31
0.0
  0
LINE
  5
F9
330
1F
100
AcDbEntity
  8
0
  6
Continuous
 62
     7
100
AcDbLine
 10
193.211856710394
 20
153.711856710394
 30
0.0
 11
214.211856710394
 21
153.711856710394
 31
0.0
  0
LINE
  5
FA
330
1F
100
AcDbEntity
  8
0
  6
DASH_CENTER
 62
     2
100
AcDbLine
 10
186.211856710394
 20
202.211856710394
 30
0.0
 11
186.211856710394
 21
112.211856710394
 31
0.0
  0
LINE
  5
FB
330
1F
100
AcDbEntity
  8
0
  6
DASH_CENTER
 62
     2
100
AcDbLine
 10
232.711856710394
 20
155.711856710394
 30
0.0
 11
139.711856710394
 21
155.711856710394
 31
0.0
  0
ARC
  5
FC
330
1F
100
AcDbEntity
  8
0
  6
Continuous
 62
     7
100
AcDbCircle
 10
186.211856710394
 20
155.711856710394
 30
0.0
 40
31.0
100
AcDbArc
 50
58.21166938294846
 51
121.7883306170517
  0
ARC
  5
FD
330
1F
100
AcDbEntity
  8
0
  6
Continuous
 62
     7
100
AcDbCircle
 10
179.211856710394
 20
155.711856710394
 30
0.0
 40
2.0
100
AcDbArc
 50
270.0
 51
90.0
  0
ARC
  5
FE
330
1F
100
AcDbEntity
  8
0
  6
Continuous
 62
     7
100
AcDbCircle
 10
163.211856710394
 20
173.211856710394
 30
0.0
 40
2.0
100
AcDbArc
 50
90.0
 51
270.0
  0
ARC
  5
FF
330
1F
100
AcDbEntity
  8
0
  6
Continuous
 62
     7
100
AcDbCircle
 10
209.211856710394
 20
173.211856710394
 30
0.0
 40
2.0
100
AcDbArc
 50
270.0
 51
90.0
  0
ARC
  5
100
330
1F
100
AcDbEntity
  8
0
  6
Continuous
 62
     7
100
AcDbCircle
 10
158.211856710394
 20
164.711856710394
 30
0.0
 40
2.0
100
AcDbArc
 50
90.0
 51
270.0
  0
ARC
  5
101
330
1F
100
AcDbEntity
  8
0
  6
Continuous
 62
     7
100
AcDbCircle
 10
214.211856710394
 20
164.711856710394
 30
0.0
 40
2.0
100
AcDbArc
 50
270.0
 51
90.0
  0
ARC
  5
102
330
1F
100
AcDbEntity
  8
0
  6
Continuous
 62
     7
100
AcDbCircle
 10
186.211856710394
 20
155.711856710394
 30
0.0
 40
31.00000000000002
100
AcDbArc
 50
238.2116693829483
 51
301.7883306170515
  0
ARC
  5
103
330
1F
100
AcDbEntity
  8
0
  6
Continuous
 62
     7
100
AcDbCircle
 10
163.211856710394
 20
138.211856710394
 30
0.0
 40
2.0
100
AcDbArc
 50
90.0
 51
270.0
  0
ARC
  5
104
330
1F
100
AcDbEntity
  8
0
  6
Continuous
 62
     7
100
AcDbCircle
 10
209.211856710394
 20
138.211856710394
 30
0.0
 40
2.0
100
AcDbArc
 50
270.0
 51
90.0
  0
ARC
  5
105
330
1F
100
AcDbEntity
  8
0
  6
Continuous
 62
     7
100
AcDbCircle
 10
158.211856710394
 20
146.711856710394
 30
0.0
 40
2.0
100
AcDbArc
 50
90.0
 51
270.0
  0
ARC
  5
106
330
1F
100
AcDbEntity
  8
0
  6
Continuous
 62
     7
100
AcDbCircle
 10
214.211856710394
 20
146.711856710394
 30
0.0
 40
2.0
100
AcDbArc
 50
270.0
 51
90.0
  0
ARC
  5
107
330
1F
100
AcDbEntity
  8
0
  6
Continuous
 62
     7
100
AcDbCircle
 10
193.211856710394
 20
155.711856710394
 30
0.0
 40
2.0
100
AcDbArc
 50
90.0
 51
270.0
  0
CIRCLE
  5
108
330
1F
100
AcDbEntity
  8
0
  6
Continuous
 62
     7
100
AcDbCircle
 10
186.211856710394
 20
155.711856710394
 30
0.0
 40
43.49999999999999
  0
CIRCLE
  5
109
330
1F
100
AcDbEntity
  8
0
  6
Continuous
 62
     7
100
AcDbCircle
 10
186.211856710394
 20
155.711856710394
 30
0.0
 40
35.49999999999999
  0
CIRCLE
  5
10A
330
1F
100
AcDbEntity
  8
0
  6
Continuous
 62
     7
100
AcDbCircle
 10
186.211856710394
 20
155.711856710394
 30
0.0
 40
2.0
  0
CIRCLE
  5
10B
330
1F
100
AcDbEntity
  8
0
  6
Continuous
 62
     7
100
AcDbCircle
 10
186.211856710394
 20
155.711856710394
 30
0.0
 40
3.0
  0
ARC
  5
10C
330
1F
100
AcDbEntity
  8
0
  6
Continuous
 62
     7
100
AcDbCircle
 10
213.211856710394
 20
19.71185671039399
 30
0.0
 40
7.000000000000002
100
AcDbArc
 50
270.0
 51
295.8948928559707
  0
ARC
  5
10D
330
1F
100
AcDbEntity
  8
0
  6
Continuous
 62
     7
100
AcDbCircle
 10
159.211856710394
 20
19.71185671039399
 30
0.0
 40
7.0
100
AcDbArc
 50
180.0
 51
244.1051071440295
  0
ARC
  5
10E
330
1F
100
AcDbEntity
  8
0
  6
Continuous
 62
     7
100
AcDbCircle
 10
213.211856710394
 20
19.71185671039399
 30
0.0
 40
7.000000000000065
100
AcDbArc
 50
295.8948928559707
 51
0.0
  0
ARC
  5
10F
330
1F
100
AcDbEntity
  8
0
  6
Continuous
 62
     7
100
AcDbCircle
 10
159.211856710394
 20
19.71185671039399
 30
0.0
 40
7.000000000000052
100
AcDbArc
 50
244.1051071440295
 51
270.0
  0
ARC
  5
110
330
1F
100
AcDbEntity
  8
0
  6
Continuous
 62
     7
100
AcDbCircle
 10
202.0153373396731
 20
181.211856710394
 30
0.0
 40
1.0
100
AcDbArc
 50
270.0
 51
58.21166938295116
  0
ARC
  5
111
330
1F
100
AcDbEntity
  8
0
  6
Continuous
 62
     7
100
AcDbCircle
 10
170.4083760811149
 20
181.211856710394
 30
0.0
 40
1.000000000000057
100
AcDbArc
 50
121.7883306170544
 51
270.0
  0
ARC
  5
112
330
1F
100
AcDbEntity
  8
0
  6
Continuous
 62
     7
100
AcDbCircle
 10
158.211856710394
 20
156.711856710394
 30
0.0
 40
1.0
100
AcDbArc
 50
90.0
 51
180.0
  0
ARC
  5
113
330
1F
100
AcDbEntity
  8
0
  6
Continuous
 62
     7
100
AcDbCircle
 10
158.211856710394
 20
154.711856710394
 30
0.0
 40
1.0
100
AcDbArc
 50
180.0
 51
270.0
  0
ARC
  5
114
330
1F
100
AcDbEntity
  8
0
  6
Continuous
 62
     7
100
AcDbCircle
 10
202.0153373396731
 20
130.211856710394
 30
0.0
 40
0.9999999999999727
100
AcDbArc
 50
301.7883306170497
 51
90.0
  0
ARC
  5
115
330
1F
100
AcDbEntity
  8
0
  6
Continuous
 62
     7
100
AcDbCircle
 10
170.4083760811149
 20
130.211856710394
 30
0.0
 40
1.0
100
AcDbArc
 50
90.0
 51
238.2116693829447
  0
ARC
  5
116
330
1F
100
AcDbEntity
  8
0
  6
Continuous
 62
     7
100
AcDbCircle
 10
214.211856710394
 20
156.711856710394
 30
0.0
 40
1.0
100
AcDbArc
 50
0.0
 51
90.0
  0
ARC
  5
117
330
1F
100
AcDbEntity
  8
0
  6
Continuous
 62
     7
100
AcDbCircle
 10
214.211856710394
 20
154.711856710394
 30
0.0
 40
1.0
100
AcDbArc
 50
270.0
 51
0.0
  0
MTEXT
  5
119
330
1F
100
AcDbEntity
  8
1
 62
     7
100
AcDbMText
 10
229.2806204929549
 20
-65.70979955456576
 30
0.0
 40
2.5
 41
0.0
 71
     5
 72
     1
  1
6
  7
CONVERTER_12
 73
     1
 44
0.7202881152461
  0
MTEXT
  5
11A
330
1F
100
AcDbEntity
  8
1
 62
     7
100
AcDbMText
 10
223.5306204929549
 20
-65.70979955456576
 30
0.0
 40
2.5
 41
0.0
 71
     5
 72
     1
  1
04
  7
CONVERTER_12
 73
     1
 44
0.7202881152461
  0
MTEXT
  5
11B
330
1F
100
AcDbEntity
  8
1
 62
     7
100
AcDbMText
 10
212.2806204929549
 20
-65.70979955456576
 30
0.0
 40
2.5
 41
0.0
 71
     5
 72
     1
  1
6
  7
CONVERTER_12
 73
     1
 44
0.7202881152461
  0
MTEXT
  5
11C
330
1F
100
AcDbEntity
  8
1
 62
     7
100
AcDbMText
 10
206.5306204929549
 20
-65.70979955456576
 30
0.0
 40
2.5
 41
0.0
 71
     5
 72
     1
  1
04
  7
CONVERTER_12
 73
     1
 44
0.7202881152461
  0
MTEXT
  5
11D
330
1F
100
AcDbEntity
  8
1
 62
     7
100
AcDbMText
 10
195.2806204929549
 20
-65.70979955456576
 30
0.0
 40
2.5
 41
0.0
 71
     5
 72
     1
  1
6
  7
CONVERTER_12
 73
     1
 44
0.7202881152461
  0
MTEXT
  5
11E
330
1F
100
AcDbEntity
  8
1
 62
     7
100
AcDbMText
 10
189.5306204929549
 20
-65.70979955456576
 30
0.0
 40
2.5
 41
0.0
 71
     5
 72
     1
  1
04
  7
CONVERTER_12
 73
     1
 44
0.7202881152461
  0
MTEXT
  5
11F
330
1F
100
AcDbEntity
  8
1
 62
     7
100
AcDbMText
 10
172.5306204929549
 20
-65.70979955456576
 30
0.0
 40
2.5
 41
0.0
 71
     5
 72
     1
  1
04
  7
CONVERTER_12
 73
     1
 44
0.7202881152461
  0
MTEXT
  5
120
330
1F
100
AcDbEntity
  8
1
 62
     7
100
AcDbMText
 10
178.2806204929549
 20
-65.70979955456576
 30
0.0
 40
2.5
 41
0.0
 71
     5
 72
     1
  1
6
  7
CONVERTER_12
 73
     1
 44
0.7202881152461
  0
MTEXT
  5
121
330
1F
100
AcDbEntity
  8
1
 62
     7
100
AcDbMText
 10
157.0306204929549
 20
-61.20979955456576
 30
0.0
 40
3.5
 41
0.0
 71
     5
 72
     1
  1
1
  7
CONVERTER_12
 73
     1
 44
0.7202881152461
  0
MTEXT
  5
122
330
1F
100
AcDbEntity
  8
1
 62
     7
100
AcDbMText
 10
128.7806204929549
 20
-57.45979955456576
 30
0.0
 40
3.5
 41
0.0
 71
     5
 72
     1
  1
封水50
  7
CONVERTER_11
 73
     1
 44
0.54545454545455
  0
MTEXT
  5
123
330
1F
100
AcDbEntity
  8
1
 62
     7
100
AcDbMText
 10
128.7806204929549
 20
-63.95979955456576
 30
0.0
 40
3.5
 41
0.0
 71
     5
 72
     1
  1
H530-75X40
  7
CONVERTER_12
 73
     1
 44
0.7202881152461
  0
MTEXT
  5
124
330
1F
100
AcDbEntity
  8
1
 62
     7
100
AcDbMText
 10
165.5306204929549
 20
-61.20979955456576
 30
0.0
 40
3.5
 41
0.0
 71
     5
 72
     1
  1
1
  7
CONVERTER_12
 73
     1
 44
0.7202881152461
  0
MTEXT
  5
125
330
1F
100
AcDbEntity
  8
1
 62
     7
100
AcDbMText
 10
128.7806204929549
 20
-53.45979955456576
 30
0.0
 40
3.5
 41
0.0
 71
     5
 72
     1
  1
ステンレスワントラップ
  7
CONVERTER_11
 73
     1
 44
0.54545454545455
  0
DIMENSION
  5
130
330
1F
100
AcDbEntity
  8
1
100
AcDbDimension
  2
*D3
 10
166.211856710394
 20
-28.28814328960601
 30
0.0
 11
186.2202556738984
 21
-24.78814328960601
 31
0.0
 70
    33
  1
<>
 71
     5
 42
-1.0
 53
0.00013888888889
  3
ME10_DIM_10
100
AcDbAlignedDimension
 13
206.211856710394
 23
-16.28814328960601
 33
0.0
 14
166.211856710394
 24
-16.28814328960601
 34
0.0
  0
DIMENSION
  5
13B
330
1F
100
AcDbEntity
  8
1
100
AcDbDimension
  2
*D4
 10
124.711856710394
 20
-18.28814328960601
 30
0.0
 11
121.211856710394
 21
35.7671209206398
 31
0.0
 70
    32
  1
<>
 71
     5
 42
-1.0
 53
90.0
  3
ME10_DIM_11
100
AcDbAlignedDimension
 13
142.711856710394
 23
91.71185671039399
 33
0.0
 14
168.211856710394
 24
-18.28814328960601
 34
0.0
 50
90.0
100
AcDbRotatedDimension
  0
DIMENSION
  5
146
330
1F
100
AcDbEntity
  8
1
100
AcDbDimension
  2
*D5
 10
164.211856710394
 20
-36.2097995545657
 30
0.0
 11
186.279513247125
 21
-32.7097995545657
 31
0.0
 70
    32
  1
<>
 71
     5
 42
-1.0
 53
0.00013888888889
  3
ME10_DIM_12
100
AcDbAlignedDimension
 13
208.2118567103944
 23
-3.28814328960601
 33
0.0
 14
164.211856710394
 24
-3.28814328960601
 34
0.0
100
AcDbRotatedDimension
  0
DIMENSION
  5
151
330
1F
100
AcDbEntity
  8
1
100
AcDbDimension
  2
*D6
 10
142.711856710394
 20
101.711856710394
 30
0.0
 11
186.211856710394
 21
105.211856710394
 31
0.0
 70
    32
  1
<>
 71
     5
 42
-1.0
 53
0.00013888888889
  3
ME10_DIM_13
100
AcDbAlignedDimension
 13
229.711856710394
 23
91.71185671039399
 33
0.0
 14
142.711856710394
 24
91.71185671039399
 34
0.0
100
AcDbRotatedDimension
  0
DIMENSION
  5
15D
330
1F
100
AcDbEntity
  8
0
100
AcDbDimension
  2
*D7
 10
226.9831107723243
 20
74.98370064417358
 30
0.0
 11
235.0407711134197
 21
78.48370064417358
 31
0.0
 70
    33
  1
<>
 71
     5
 42
-1.0
 52
120.0
 53
0.00013888888889
  3
ME10_DIM_14
100
AcDbAlignedDimension
 13
152.211856710394
 23
86.71185671039399
 33
0.0
 14
220.211856710394
 24
86.71185671039399
 34
0.0
  0
DIMENSION
  5
168
330
1F
100
AcDbEntity
  8
1
100
AcDbDimension
  2
*D8
 10
132.711856710394
 20
91.71185671039397
 30
0.0
 11
129.211856710394
 21
46.95791692364104
 31
0.0
 70
    32
  1
<>
 71
     5
 42
-1.0
 53
90.0
  3
ME10_DIM_15
100
AcDbAlignedDimension
 13
165.711856710394
 23
6.71185671039399
 33
0.0
 14
142.711856710394
 24
91.71185671039399
 34
0.0
 50
90.0
100
AcDbRotatedDimension
  0
INSERT
  5
170
330
1F
100
AcDbEntity
  8
0
100
AcDbBlockReference
  2
*D9
 10
0.0
 20
0.0
 30
0.0
  0
ENDSEC
  0
SECTION
  2
OBJECTS
  0
DICTIONARY
  5
C
330
0
100
AcDbDictionary
281
     1
  3
ACAD_GROUP
350
D
  3
ACAD_LAYOUT
350
1A
  3
ACAD_MATERIAL
350
3B
  3
ACAD_MLEADERSTYLE
350
173
  3
ACAD_MLINESTYLE
350
17
  3
ACAD_PLOTSETTINGS
350
19
  3
ACAD_PLOTSTYLENAME
350
E
  3
ACAD_VISUALSTYLE
350
2A
  3
AcDbVariableDictionary
350
171
  0
DICTIONARY
  5
D
102
{ACAD_REACTORS
330
C
102
}
330
C
100
AcDbDictionary
281
     1
  0
DICTIONARY
  5
1A
102
{ACAD_REACTORS
330
C
102
}
330
C
100
AcDbDictionary
281
     1
  3
Layout1
350
1E
  3
Layout2
350
26
  3
Model
350
22
  0
DICTIONARY
  5
3B
102
{ACAD_REACTORS
330
C
102
}
330
C
100
AcDbDictionary
281
     1
  3
ByBlock
350
3D
  3
ByLayer
350
3C
  3
Global
350
3E
  0
DICTIONARY
  5
173
102
{ACAD_REACTORS
330
C
102
}
330
C
100
AcDbDictionary
281
     1
  0
DICTIONARY
  5
17
102
{ACAD_REACTORS
330
C
102
}
330
C
100
AcDbDictionary
281
     1
  3
Standard
350
18
  0
DICTIONARY
  5
19
102
{ACAD_REACTORS
330
C
102
}
330
C
100
AcDbDictionary
281
     1
  0
ACDBDICTIONARYWDFLT
  5
E
102
{ACAD_REACTORS
330
C
102
}
330
C
100
AcDbDictionary
281
     1
  3
Normal
350
F
100
AcDbDictionaryWithDefault
340
F
  0
DICTIONARY
  5
2A
102
{ACAD_REACTORS
330
C
102
}
330
C
100
AcDbDictionary
281
     1
  3
2dWireframe
350
2F
  3
3D Hidden
350
31
  3
3dWireframe
350
30
  3
Basic
350
32
  3
Brighten
350
36
  3
ColorChange
350
3A
  3
Conceptual
350
34
  3
Dim
350
35
  3
Facepattern
350
39
  3
Flat
350
2B
  3
FlatWithEdges
350
2C
  3
Gouraud
350
2D
  3
GouraudWithEdges
350
2E
  3
Linepattern
350
38
  3
Realistic
350
33
  3
Thicken
350
37
  0
DICTIONARY
  5
171
102
{ACAD_REACTORS
330
C
102
}
330
C
100
AcDbDictionary
281
     1
  3
DIMASSOC
350
174
  3
HIDETEXT
350
175
  0
LAYOUT
  5
1E
102
{ACAD_REACTORS
330
1A
102
}
330
1A
100
AcDbPlotSettings
  1

  2
none_device
  4

  6

 40
0.0
 41
0.0
 42
0.0
 43
0.0
 44
0.0
 45
0.0
 46
0.0
 47
0.0
 48
0.0
 49
0.0
140
0.0
141
0.0
142
1.0
143
1.0
 70
   688
 72
     0
 73
     0
 74
     5
  7

 75
    16
147
1.0
148
0.0
149
0.0
100
AcDbLayout
  1
Layout1
 70
     1
 71
     1
 10
0.0
 20
0.0
 11
12.0
 21
9.0
 12
0.0
 22
0.0
 32
0.0
 14
1.00000000000000E+20
 24
1.00000000000000E+20
 34
1.00000000000000E+20
 15
-1.00000000000000E+20
 25
-1.00000000000000E+20
 35
-1.00000000000000E+20
146
0.0
 13
0.0
 23
0.0
 33
0.0
 16
1.0
 26
0.0
 36
0.0
 17
0.0
 27
1.0
 37
0.0
 76
     0
330
1B
  0
LAYOUT
  5
26
102
{ACAD_REACTORS
330
1A
102
}
330
1A
100
AcDbPlotSettings
  1

  2
none_device
  4

  6

 40
0.0
 41
0.0
 42
0.0
 43
0.0
 44
0.0
 45
0.0
 46
0.0
 47
0.0
 48
0.0
 49
0.0
140
0.0
141
0.0
142
1.0
143
1.0
 70
   688
 72
     0
 73
     0
 74
     5
  7

 75
    16
147
1.0
148
0.0
149
0.0
100
AcDbLayout
  1
Layout2
 70
     1
 71
     2
 10
0.0
 20
0.0
 11
0.0
 21
0.0
 12
0.0
 22
0.0
 32
0.0
 14
0.0
 24
0.0
 34
0.0
 15
0.0
 25
0.0
 35
0.0
146
0.0
 13
0.0
 23
0.0
 33
0.0
 16
1.0
 26
0.0
 36
0.0
 17
0.0
 27
1.0
 37
0.0
 76
     0
330
23
  0
LAYOUT
  5
22
102
{ACAD_REACTORS
330
1A
102
}
330
1A
100
AcDbPlotSettings
  1

  2
none_device
  4

  6

 40
0.0
 41
0.0
 42
0.0
 43
0.0
 44
0.0
 45
0.0
 46
0.0
 47
0.0
 48
0.0
 49
0.0
140
0.0
141
0.0
142
1.0
143
1.0
 70
  1712
 72
     0
 73
     0
 74
     0
  7

 75
     0
147
1.0
148
0.0
149
0.0
100
AcDbLayout
  1
Model
 70
     1
 71
     0
 10
0.0
 20
0.0
 11
12.0
 21
9.0
 12
0.0
 22
0.0
 32
0.0
 14
71.78062049295488
 24
-78.20979955456576
 34
0.0
 15
281.7806204929549
 25
218.7902004454342
 35
0.0
146
0.0
 13
0.0
 23
0.0
 33
0.0
 16
1.0
 26
0.0
 36
0.0
 17
0.0
 27
1.0
 37
0.0
 76
     0
330
1F
331
29
  0
MATERIAL
  5
3D
102
{ACAD_REACTORS
330
3B
102
}
102
{ACAD_XDICTIONARY
360
198
102
}
330
3B
100
AcDbMaterial
  1
ByBlock
  0
MATERIAL
  5
3C
102
{ACAD_REACTORS
330
3B
102
}
102
{ACAD_XDICTIONARY
360
196
102
}
330
3B
100
AcDbMaterial
  1
ByLayer
  0
MATERIAL
  5
3E
102
{ACAD_REACTORS
330
3B
102
}
102
{ACAD_XDICTIONARY
360
19A
102
}
330
3B
100
AcDbMaterial
  1
Global
  0
MLINESTYLE
  5
18
102
{ACAD_REACTORS
330
17
102
}
330
17
100
AcDbMlineStyle
  2
Standard
 70
     0
  3

 62
   256
 51
90.0
 52
90.0
 71
     2
 49
0.5
 62
   256
  6
BYLAYER
 49
-0.5
 62
   256
  6
BYLAYER
  0
ACDBPLACEHOLDER
  5
F
102
{ACAD_REACTORS
330
E
102
}
330
E
  0
VISUALSTYLE
  5
2F
102
{ACAD_REACTORS
330
2A
102
}
102
{ACAD_XDICTIONARY
360
17E
102
}
330
2A
100
AcDbVisualStyle
  2
2dWireframe
 70
     4
 71
     0
 72
     2
 73
     0
 90
        0
 40
-0.6
 41
-30.0
 62
     5
 63
     7
 74
     1
 91
        4
 64
     7
 65
   257
 75
     1
175
     1
 42
1.0
 92
        0
 66
   257
 43
1.0
 76
     1
 77
     6
 78
     2
 67
     7
 79
     5
170
     0
171
     0
290
     0
174
     0
 93
        1
 44
0.0
173
     0
291
     0
 45
0.0
1001
ACAD
1000
AcDbSavedByObjectVersion
1070
     0
  0
VISUALSTYLE
  5
31
102
{ACAD_REACTORS
330
2A
102
}
102
{ACAD_XDICTIONARY
360
182
102
}
330
2A
100
AcDbVisualStyle
  2
3D Hidden
 70
     6
 71
     1
 72
     2
 73
     2
 90
        0
 40
-0.6
 41
-30.0
 62
     5
 63
     7
 74
     2
 91
        2
 64
     7
 65
   257
 75
     2
175
     1
 42
40.0
 92
        0
 66
   257
 43
1.0
 76
     1
 77
     6
 78
     2
 67
     7
 79
     3
170
     0
171
     0
290
     0
174
     0
 93
        1
 44
0.0
173
     0
291
     0
 45
0.0
1001
ACAD
1000
AcDbSavedByObjectVersion
1070
     0
  0
VISUALSTYLE
  5
30
102
{ACAD_REACTORS
330
2A
102
}
102
{ACAD_XDICTIONARY
360
180
102
}
330
2A
100
AcDbVisualStyle
  2
3dWireframe
 70
     5
 71
     0
 72
     2
 73
     0
 90
        0
 40
-0.6
 41
-30.0
 62
     5
 63
     7
 74
     1
 91
        4
 64
     7
 65
   257
 75
     1
175
     1
 42
1.0
 92
        0
 66
   257
 43
1.0
 76
     1
 77
     6
 78
     2
 67
     7
 79
     5
170
     0
171
     0
290
     0
174
     0
 93
        1
 44
0.0
173
     0
291
     0
 45
0.0
1001
ACAD
1000
AcDbSavedByObjectVersion
1070
     0
  0
VISUALSTYLE
  5
32
102
{ACAD_REACTORS
330
2A
102
}
102
{ACAD_XDICTIONARY
360
184
102
}
330
2A
100
AcDbVisualStyle
  2
Basic
 70
     7
 71
     1
 72
     0
 73
     1
 90
        0
 40
-0.6
 41
-30.0
 62
     5
 63
     7
 74
     0
 91
        4
 64
     7
 65
   257
 75
     1
175
     1
 42
1.0
 92
        8
 66
     7
 43
1.0
 76
     1
 77
     6
 78
     2
 67
     7
 79
     5
170
     0
171
     0
290
     0
174
     0
 93
        1
 44
0.0
173
     0
291
     1
 45
0.0
1001
ACAD
1000
AcDbSavedByObjectVersion
1070
     0
  0
VISUALSTYLE
  5
36
102
{ACAD_REACTORS
330
2A
102
}
102
{ACAD_XDICTIONARY
360
18C
102
}
330
2A
100
AcDbVisualStyle
  2
Brighten
 70
    12
 71
     2
 72
     2
 73
     0
 90
        0
 40
-0.6
 41
-30.0
 62
     5
 63
     7
 74
     1
 91
        4
 64
     7
 65
   257
 75
     1
175
     1
 42
1.0
 92
        8
 66
     7
 43
1.0
 76
     1
 77
     6
 78
     2
 67
     7
 79
     5
170
     0
171
     0
290
     0
174
     0
 93
        1
 44
50.0
173
     0
291
     1
 45
0.0
1001
ACAD
1000
AcDbSavedByObjectVersion
1070
     0
  0
VISUALSTYLE
  5
3A
102
{ACAD_REACTORS
330
2A
102
}
102
{ACAD_XDICTIONARY
360
194
102
}
330
2A
100
AcDbVisualStyle
  2
ColorChange
 70
    16
 71
     2
 72
     2
 73
     3
 90
        0
 40
-0.6
 41
-30.0
 62
     5
 63
     8
 74
     1
 91
        4
 64
     7
 65
   257
 75
     1
175
     1
 42
1.0
 92
        8
 66
     8
 43
1.0
 76
     1
 77
     6
 78
     2
 67
     7
 79
     5
170
     0
171
     0
290
     0
174
     0
 93
        1
 44
0.0
173
     0
291
     1
 45
0.0
1001
ACAD
1000
AcDbSavedByObjectVersion
1070
     0
  0
VISUALSTYLE
  5
34
102
{ACAD_REACTORS
330
2A
102
}
102
{ACAD_XDICTIONARY
360
188
102
}
330
2A
100
AcDbVisualStyle
  2
Conceptual
 70
     9
 71
     3
 72
     2
 73
     0
 90
        0
 40
-0.6
 41
-30.0
 62
     5
 63
     7
 74
     2
 91
        2
 64
     7
 65
   257
 75
     1
175
     1
 42
40.0
 92
        8
 66
     7
 43
1.0
 76
     1
 77
     6
 78
     2
 67
     7
 79
     3
170
     0
171
     0
290
     0
174
     0
 93
        1
 44
0.0
173
     0
291
     0
 45
0.0
1001
ACAD
1000
AcDbSavedByObjectVersion
1070
     0
  0
VISUALSTYLE
  5
35
102
{ACAD_REACTORS
330
2A
102
}
102
{ACAD_XDICTIONARY
360
18A
102
}
330
2A
100
AcDbVisualStyle
  2
Dim
 70
    11
 71
     2
 72
     2
 73
     0
 90
        0
 40
-0.6
 41
-30.0
 62
     5
 63
     7
 74
     1
 91
        4
 64
     7
 65
   257
 75
     1
175
     1
 42
1.0
 92
        8
 66
     7
 43
1.0
 76
     1
 77
     6
 78
     2
 67
     7
 79
     5
170
     0
171
     0
290
     0
174
     0
 93
        1
 44
-50.0
173
     0
291
     1
 45
0.0
1001
ACAD
1000
AcDbSavedByObjectVersion
1070
     0
  0
VISUALSTYLE
  5
39
102
{ACAD_REACTORS
330
2A
102
}
102
{ACAD_XDICTIONARY
360
192
102
}
330
2A
100
AcDbVisualStyle
  2
Facepattern
 70
    15
 71
     2
 72
     2
 73
     0
 90
        0
 40
-0.6
 41
-30.0
 62
     5
 63
     7
 74
     1
 91
        4
 64
     7
 65
   257
 75
     1
175
     1
 42
1.0
 92
        8
 66
     7
 43
1.0
 76
     1
 77
     6
 78
     2
 67
     7
 79
     5
170
     0
171
     0
290
     0
174
     0
 93
        1
 44
0.0
173
     0
291
     1
 45
0.0
1001
ACAD
1000
AcDbSavedByObjectVersion
1070
     0
  0
VISUALSTYLE
  5
2B
102
{ACAD_REACTORS
330
2A
102
}
102
{ACAD_XDICTIONARY
360
176
102
}
330
2A
100
AcDbVisualStyle
  2
Flat
 70
     0
 71
     2
 72
     1
 73
     1
 90
        2
 40
-0.6
 41
30.0
 62
     5
 63
     7
 74
     0
 91
        4
 64
     7
 65
   257
 75
     1
175
     1
 42
1.0
 92
        8
 66
     7
 43
1.0
 76
     1
 77
     6
 78
     2
 67
     7
 79
     5
170
     0
171
     0
290
     0
174
     0
 93
       13
 44
0.0
173
     0
291
     1
 45
0.0
1001
ACAD
1000
AcDbSavedByObjectVersion
1070
     0
  0
VISUALSTYLE
  5
2C
102
{ACAD_REACTORS
330
2A
102
}
102
{ACAD_XDICTIONARY
360
178
102
}
330
2A
100
AcDbVisualStyle
  2
FlatWithEdges
 70
     1
 71
     2
 72
     1
 73
     1
 90
        2
 40
-0.6
 41
30.0
 62
     5
 63
     7
 74
     1
 91
        4
 64
     7
 65
   257
 75
     1
175
     1
 42
1.0
 92
        0
 66
   257
 43
1.0
 76
     1
 77
     6
 78
     2
 67
     7
 79
     5
170
     0
171
     0
290
     0
174
     0
 93
       13
 44
0.0
173
     0
291
     1
 45
0.0
1001
ACAD
1000
AcDbSavedByObjectVersion
1070
     0
  0
VISUALSTYLE
  5
2D
102
{ACAD_REACTORS
330
2A
102
}
102
{ACAD_XDICTIONARY
360
17A
102
}
330
2A
100
AcDbVisualStyle
  2
Gouraud
 70
     2
 71
     2
 72
     2
 73
     1
 90
        2
 40
-0.6
 41
30.0
 62
     5
 63
     7
 74
     0
 91
        4
 64
     7
 65
   257
 75
     1
175
     1
 42
1.0
 92
        0
 66
     7
 43
1.0
 76
     1
 77
     6
 78
     2
 67
     7
 79
     5
170
     0
171
     0
290
     0
174
     0
 93
       13
 44
0.0
173
     0
291
     1
 45
0.0
1001
ACAD
1000
AcDbSavedByObjectVersion
1070
     0
  0
VISUALSTYLE
  5
2E
102
{ACAD_REACTORS
330
2A
102
}
102
{ACAD_XDICTIONARY
360
17C
102
}
330
2A
100
AcDbVisualStyle
  2
GouraudWithEdges
 70
     3
 71
     2
 72
     2
 73
     1
 90
        2
 40
-0.6
 41
30.0
 62
     5
 63
     7
 74
     1
 91
        4
 64
     7
 65
   257
 75
     1
175
     1
 42
1.0
 92
        0
 66
   257
 43
1.0
 76
     1
 77
     6
 78
     2
 67
     7
 79
     5
170
     0
171
     0
290
     0
174
     0
 93
       13
 44
0.0
173
     0
291
     1
 45
0.0
1001
ACAD
1000
AcDbSavedByObjectVersion
1070
     0
  0
VISUALSTYLE
  5
38
102
{ACAD_REACTORS
330
2A
102
}
102
{ACAD_XDICTIONARY
360
190
102
}
330
2A
100
AcDbVisualStyle
  2
Linepattern
 70
    14
 71
     2
 72
     2
 73
     0
 90
        0
 40
-0.6
 41
-30.0
 62
     5
 63
     7
 74
     1
 91
        4
 64
     7
 65
   257
 75
     7
175
     7
 42
1.0
 92
        8
 66
     7
 43
1.0
 76
     1
 77
     6
 78
     2
 67
     7
 79
     5
170
     0
171
     0
290
     0
174
     0
 93
        1
 44
0.0
173
     0
291
     1
 45
0.0
1001
ACAD
1000
AcDbSavedByObjectVersion
1070
     0
  0
VISUALSTYLE
  5
33
102
{ACAD_REACTORS
330
2A
102
}
102
{ACAD_XDICTIONARY
360
186
102
}
330
2A
100
AcDbVisualStyle
  2
Realistic
 70
     8
 71
     2
 72
     2
 73
     0
 90
        0
 40
-0.6
 41
-30.0
 62
     5
 63
     7
 74
     1
 91
        0
 64
     7
 65
   257
 75
     1
175
     1
 42
1.0
 92
        8
 66
     8
 43
1.0
 76
     1
 77
     6
 78
     2
 67
     7
 79
     5
170
     0
171
     0
290
     0
174
     0
 93
       13
 44
0.0
173
     0
291
     0
 45
0.0
1001
ACAD
1000
AcDbSavedByObjectVersion
1070
     0
  0
VISUALSTYLE
  5
37
102
{ACAD_REACTORS
330
2A
102
}
102
{ACAD_XDICTIONARY
360
18E
102
}
330
2A
100
AcDbVisualStyle
  2
Thicken
 70
    13
 71
     2
 72
     2
 73
     0
 90
        0
 40
-0.6
 41
-30.0
 62
     5
 63
     7
 74
     1
 91
        4
 64
     7
 65
   257
 75
     1
175
     1
 42
1.0
 92
       12
 66
     7
 43
1.0
 76
     1
 77
     6
 78
     2
 67
     7
 79
     5
170
     0
171
     0
290
     0
174
     0
 93
        1
 44
0.0
173
     0
291
     1
 45
0.0
1001
ACAD
1000
AcDbSavedByObjectVersion
1070
     0
  0
DICTIONARYVAR
  5
174
102
{ACAD_REACTORS
330
171
102
}
330
171
100
DictionaryVariables
280
     0
  1
2
  0
DICTIONARYVAR
  5
175
102
{ACAD_REACTORS
330
171
102
}
330
171
100
DictionaryVariables
280
     0
  1
1
  0
DICTIONARY
  5
198
330
3D
100
AcDbDictionary
280
     1
281
     1
  3
ACAD_XREC_ROUNDTRIP
360
199
  0
DICTIONARY
  5
196
330
3C
100
AcDbDictionary
280
     1
281
     1
  3
ACAD_XREC_ROUNDTRIP
360
197
  0
DICTIONARY
  5
19A
330
3E
100
AcDbDictionary
280
     1
281
     1
  3
ACAD_XREC_ROUNDTRIP
360
19B
  0
DICTIONARY
  5
17E
330
2F
100
AcDbDictionary
280
     1
281
     1
  3
ACAD_XREC_ROUNDTRIP
360
17F
  0
DICTIONARY
  5
182
330
31
100
AcDbDictionary
280
     1
281
     1
  3
ACAD_XREC_ROUNDTRIP
360
183
  0
DICTIONARY
  5
180
330
30
100
AcDbDictionary
280
     1
281
     1
  3
ACAD_XREC_ROUNDTRIP
360
181
  0
DICTIONARY
  5
184
330
32
100
AcDbDictionary
280
     1
281
     1
  3
ACAD_XREC_ROUNDTRIP
360
185
  0
DICTIONARY
  5
18C
330
36
100
AcDbDictionary
280
     1
281
     1
  3
ACAD_XREC_ROUNDTRIP
360
18D
  0
DICTIONARY
  5
194
330
3A
100
AcDbDictionary
280
     1
281
     1
  3
ACAD_XREC_ROUNDTRIP
360
195
  0
DICTIONARY
  5
188
330
34
100
AcDbDictionary
280
     1
281
     1
  3
ACAD_XREC_ROUNDTRIP
360
189
  0
DICTIONARY
  5
18A
330
35
100
AcDbDictionary
280
     1
281
     1
  3
ACAD_XREC_ROUNDTRIP
360
18B
  0
DICTIONARY
  5
192
330
39
100
AcDbDictionary
280
     1
281
     1
  3
ACAD_XREC_ROUNDTRIP
360
193
  0
DICTIONARY
  5
176
330
2B
100
AcDbDictionary
280
     1
281
     1
  3
ACAD_XREC_ROUNDTRIP
360
177
  0
DICTIONARY
  5
178
330
2C
100
AcDbDictionary
280
     1
281
     1
  3
ACAD_XREC_ROUNDTRIP
360
179
  0
DICTIONARY
  5
17A
330
2D
100
AcDbDictionary
280
     1
281
     1
  3
ACAD_XREC_ROUNDTRIP
360
17B
  0
DICTIONARY
  5
17C
330
2E
100
AcDbDictionary
280
     1
281
     1
  3
ACAD_XREC_ROUNDTRIP
360
17D
  0
DICTIONARY
  5
190
330
38
100
AcDbDictionary
280
     1
281
     1
  3
ACAD_XREC_ROUNDTRIP
360
191
  0
DICTIONARY
  5
186
330
33
100
AcDbDictionary
280
     1
281
     1
  3
ACAD_XREC_ROUNDTRIP
360
187
  0
DICTIONARY
  5
18E
330
37
100
AcDbDictionary
280
     1
281
     1
  3
ACAD_XREC_ROUNDTRIP
360
18F
  0
XRECORD
  5
199
102
{ACAD_REACTORS
330
198
102
}
330
198
100
AcDbXrecord
280
     1
102
MATERIAL
148
0.0
149
0.0
149
0.0
 93
        0
 94
      127
282
     0
 72
     1
 77
     1
171
     1
175
     1
179
     1
273
     0
  0
XRECORD
  5
197
102
{ACAD_REACTORS
330
196
102
}
330
196
100
AcDbXrecord
280
     1
102
MATERIAL
148
0.0
149
0.0
149
0.0
 93
        0
 94
      127
282
     0
 72
     1
 77
     1
171
     1
175
     1
179
     1
273
     0
  0
XRECORD
  5
19B
102
{ACAD_REACTORS
330
19A
102
}
330
19A
100
AcDbXrecord
280
     1
102
MATERIAL
148
0.0
149
0.0
149
0.0
 93
        0
 94
      127
282
     0
 72
     1
 77
     1
171
     1
175
     1
179
     1
273
     0
  0
XRECORD
  5
17F
102
{ACAD_REACTORS
330
17E
102
}
330
17E
100
AcDbXrecord
280
     1
102
RTVSPropertyOp0
 70
     1
102
RTVSPropertyOp1
 70
     1
102
RTVSPropertyOp2
 70
     1
102
RTVSPropertyOp3
 70
     1
102
RTVSPropertyOp4
 70
     1
102
RTVSPropertyOp5
 70
     1
102
RTVSPropertyOp6
 70
     1
102
RTVSPropertyOp7
 70
     1
102
RTVSPropertyOp8
 70
     1
102
RTVSPropertyOp9
 70
     1
102
RTVSPropertyOp10
 70
     1
102
RTVSPropertyOp11
 70
     1
102
RTVSPropertyOp12
 70
     1
102
RTVSPropertyOp13
 70
     1
102
RTVSPropertyOp14
 70
     1
102
RTVSPropertyOp15
 70
     1
102
RTVSPropertyOp16
 70
     1
102
RTVSPropertyOp17
 70
     1
102
RTVSPropertyOp18
 70
     1
102
RTVSPropertyOp19
 70
     1
102
RTVSPropertyOp20
 70
     1
102
RTVSPropertyOp21
 70
     1
102
RTVSPropertyOp22
 70
     1
102
RTVSPropertyOp23
 70
     1
102
RTVSPropertyOp24
 70
     1
102
RTVSPropertyOp25
 70
     1
102
RTVSPropertyOp26
 70
     1
102
RTVSPropertyOp27
 70
     1
102
RTVSPropertyOp28
 70
     1
102
RTVSPropertyOp29
 70
     1
102
RTVSPropertyOp30
 70
     1
102
RTVSPropertyOp31
 70
     1
102
RTVSPropertyOp32
 70
     1
  0
XRECORD
  5
183
102
{ACAD_REACTORS
330
182
102
}
330
182
100
AcDbXrecord
280
     1
102
RTVSPropertyOp0
 70
     1
102
RTVSPropertyOp1
 70
     1
102
RTVSPropertyOp2
 70
     1
102
RTVSPropertyOp3
 70
     1
102
RTVSPropertyOp4
 70
     1
102
RTVSPropertyOp5
 70
     1
102
RTVSPropertyOp6
 70
     1
102
RTVSPropertyOp7
 70
     1
102
RTVSPropertyOp8
 70
     1
102
RTVSPropertyOp9
 70
     1
102
RTVSPropertyOp10
 70
     1
102
RTVSPropertyOp11
 70
     1
102
RTVSPropertyOp12
 70
     1
102
RTVSPropertyOp13
 70
     1
102
RTVSPropertyOp14
 70
     1
102
RTVSPropertyOp15
 70
     1
102
RTVSPropertyOp16
 70
     1
102
RTVSPropertyOp17
 70
     1
102
RTVSPropertyOp18
 70
     1
102
RTVSPropertyOp19
 70
     1
102
RTVSPropertyOp20
 70
     1
102
RTVSPropertyOp21
 70
     1
102
RTVSPropertyOp22
 70
     1
102
RTVSPropertyOp23
 70
     1
102
RTVSPropertyOp24
 70
     1
102
RTVSPropertyOp25
 70
     1
102
RTVSPropertyOp26
 70
     1
102
RTVSPropertyOp27
 70
     1
102
RTVSPropertyOp28
 70
     1
102
RTVSPropertyOp29
 70
     1
102
RTVSPropertyOp30
 70
     1
102
RTVSPropertyOp31
 70
     1
102
RTVSPropertyOp32
 70
     1
  0
XRECORD
  5
181
102
{ACAD_REACTORS
330
180
102
}
330
180
100
AcDbXrecord
280
     1
102
RTVSPropertyOp0
 70
     1
102
RTVSPropertyOp1
 70
     1
102
RTVSPropertyOp2
 70
     1
102
RTVSPropertyOp3
 70
     1
102
RTVSPropertyOp4
 70
     1
102
RTVSPropertyOp5
 70
     1
102
RTVSPropertyOp6
 70
     1
102
RTVSPropertyOp7
 70
     1
102
RTVSPropertyOp8
 70
     1
102
RTVSPropertyOp9
 70
     1
102
RTVSPropertyOp10
 70
     1
102
RTVSPropertyOp11
 70
     1
102
RTVSPropertyOp12
 70
     1
102
RTVSPropertyOp13
 70
     1
102
RTVSPropertyOp14
 70
     1
102
RTVSPropertyOp15
 70
     1
102
RTVSPropertyOp16
 70
     1
102
RTVSPropertyOp17
 70
     1
102
RTVSPropertyOp18
 70
     1
102
RTVSPropertyOp19
 70
     1
102
RTVSPropertyOp20
 70
     1
102
RTVSPropertyOp21
 70
     1
102
RTVSPropertyOp22
 70
     1
102
RTVSPropertyOp23
 70
     1
102
RTVSPropertyOp24
 70
     1
102
RTVSPropertyOp25
 70
     1
102
RTVSPropertyOp26
 70
     1
102
RTVSPropertyOp27
 70
     1
102
RTVSPropertyOp28
 70
     1
102
RTVSPropertyOp29
 70
     1
102
RTVSPropertyOp30
 70
     1
102
RTVSPropertyOp31
 70
     1
102
RTVSPropertyOp32
 70
     1
  0
XRECORD
  5
185
102
{ACAD_REACTORS
330
184
102
}
330
184
100
AcDbXrecord
280
     1
102
RTVSPropertyOp0
 70
     1
102
RTVSPropertyOp1
 70
     1
102
RTVSPropertyOp2
 70
     1
102
RTVSPropertyOp3
 70
     1
102
RTVSPropertyOp4
 70
     1
102
RTVSPropertyOp5
 70
     1
102
RTVSPropertyOp6
 70
     1
102
RTVSPropertyOp7
 70
     1
102
RTVSPropertyOp8
 70
     1
102
RTVSPropertyOp9
 70
     1
102
RTVSPropertyOp10
 70
     1
102
RTVSPropertyOp11
 70
     1
102
RTVSPropertyOp12
 70
     1
102
RTVSPropertyOp13
 70
     1
102
RTVSPropertyOp14
 70
     1
102
RTVSPropertyOp15
 70
     1
102
RTVSPropertyOp16
 70
     1
102
RTVSPropertyOp17
 70
     1
102
RTVSPropertyOp18
 70
     1
102
RTVSPropertyOp19
 70
     1
102
RTVSPropertyOp20
 70
     1
102
RTVSPropertyOp21
 70
     1
102
RTVSPropertyOp22
 70
     1
102
RTVSPropertyOp23
 70
     1
102
RTVSPropertyOp24
 70
     1
102
RTVSPropertyOp25
 70
     1
102
RTVSPropertyOp26
 70
     1
102
RTVSPropertyOp27
 70
     1
102
RTVSPropertyOp28
 70
     1
102
RTVSPropertyOp29
 70
     1
102
RTVSPropertyOp30
 70
     1
102
RTVSPropertyOp31
 70
     1
102
RTVSPropertyOp32
 70
     1
  0
XRECORD
  5
18D
102
{ACAD_REACTORS
330
18C
102
}
330
18C
100
AcDbXrecord
280
     1
102
RTVSPropertyOp0
 70
     1
102
RTVSPropertyOp1
 70
     1
102
RTVSPropertyOp2
 70
     1
102
RTVSPropertyOp3
 70
     1
102
RTVSPropertyOp4
 70
     1
102
RTVSPropertyOp5
 70
     1
102
RTVSPropertyOp6
 70
     1
102
RTVSPropertyOp7
 70
     1
102
RTVSPropertyOp8
 70
     1
102
RTVSPropertyOp9
 70
     1
102
RTVSPropertyOp10
 70
     1
102
RTVSPropertyOp11
 70
     1
102
RTVSPropertyOp12
 70
     1
102
RTVSPropertyOp13
 70
     1
102
RTVSPropertyOp14
 70
     1
102
RTVSPropertyOp15
 70
     1
102
RTVSPropertyOp16
 70
     1
102
RTVSPropertyOp17
 70
     1
102
RTVSPropertyOp18
 70
     1
102
RTVSPropertyOp19
 70
     1
102
RTVSPropertyOp20
 70
     1
102
RTVSPropertyOp21
 70
     1
102
RTVSPropertyOp22
 70
     1
102
RTVSPropertyOp23
 70
     1
102
RTVSPropertyOp24
 70
     1
102
RTVSPropertyOp25
 70
     1
102
RTVSPropertyOp26
 70
     1
102
RTVSPropertyOp27
 70
     1
102
RTVSPropertyOp28
 70
     1
102
RTVSPropertyOp29
 70
     1
102
RTVSPropertyOp30
 70
     1
102
RTVSPropertyOp31
 70
     1
102
RTVSPropertyOp32
 70
     1
  0
XRECORD
  5
195
102
{ACAD_REACTORS
330
194
102
}
330
194
100
AcDbXrecord
280
     1
102
RTVSPropertyOp0
 70
     1
102
RTVSPropertyOp1
 70
     1
102
RTVSPropertyOp2
 70
     1
102
RTVSPropertyOp3
 70
     1
102
RTVSPropertyOp4
 70
     1
102
RTVSPropertyOp5
 70
     1
102
RTVSPropertyOp6
 70
     1
102
RTVSPropertyOp7
 70
     1
102
RTVSPropertyOp8
 70
     1
102
RTVSPropertyOp9
 70
     1
102
RTVSPropertyOp10
 70
     1
102
RTVSPropertyOp11
 70
     1
102
RTVSPropertyOp12
 70
     1
102
RTVSPropertyOp13
 70
     1
102
RTVSPropertyOp14
 70
     1
102
RTVSPropertyOp15
 70
     1
102
RTVSPropertyOp16
 70
     1
102
RTVSPropertyOp17
 70
     1
102
RTVSPropertyOp18
 70
     1
102
RTVSPropertyOp19
 70
     1
102
RTVSPropertyOp20
 70
     1
102
RTVSPropertyOp21
 70
     1
102
RTVSPropertyOp22
 70
     1
102
RTVSPropertyOp23
 70
     1
102
RTVSPropertyOp24
 70
     1
102
RTVSPropertyOp25
 70
     1
102
RTVSPropertyOp26
 70
     1
102
RTVSPropertyOp27
 70
     1
102
RTVSPropertyOp28
 70
     1
102
RTVSPropertyOp29
 70
     1
102
RTVSPropertyOp30
 70
     1
102
RTVSPropertyOp31
 70
     1
102
RTVSPropertyOp32
 70
     1
  0
XRECORD
  5
189
102
{ACAD_REACTORS
330
188
102
}
330
188
100
AcDbXrecord
280
     1
102
RTVSPropertyOp0
 70
     1
102
RTVSPropertyOp1
 70
     1
102
RTVSPropertyOp2
 70
     1
102
RTVSPropertyOp3
 70
     1
102
RTVSPropertyOp4
 70
     1
102
RTVSPropertyOp5
 70
     1
102
RTVSPropertyOp6
 70
     1
102
RTVSPropertyOp7
 70
     1
102
RTVSPropertyOp8
 70
     1
102
RTVSPropertyOp9
 70
     1
102
RTVSPropertyOp10
 70
     1
102
RTVSPropertyOp11
 70
     1
102
RTVSPropertyOp12
 70
     1
102
RTVSPropertyOp13
 70
     1
102
RTVSPropertyOp14
 70
     1
102
RTVSPropertyOp15
 70
     1
102
RTVSPropertyOp16
 70
     1
102
RTVSPropertyOp17
 70
     1
102
RTVSPropertyOp18
 70
     1
102
RTVSPropertyOp19
 70
     1
102
RTVSPropertyOp20
 70
     1
102
RTVSPropertyOp21
 70
     1
102
RTVSPropertyOp22
 70
     1
102
RTVSPropertyOp23
 70
     1
102
RTVSPropertyOp24
 70
     1
102
RTVSPropertyOp25
 70
     1
102
RTVSPropertyOp26
 70
     1
102
RTVSPropertyOp27
 70
     1
102
RTVSPropertyOp28
 70
     1
102
RTVSPropertyOp29
 70
     1
102
RTVSPropertyOp30
 70
     1
102
RTVSPropertyOp31
 70
     1
102
RTVSPropertyOp32
 70
     1
  0
XRECORD
  5
18B
102
{ACAD_REACTORS
330
18A
102
}
330
18A
100
AcDbXrecord
280
     1
102
RTVSPropertyOp0
 70
     1
102
RTVSPropertyOp1
 70
     1
102
RTVSPropertyOp2
 70
     1
102
RTVSPropertyOp3
 70
     1
102
RTVSPropertyOp4
 70
     1
102
RTVSPropertyOp5
 70
     1
102
RTVSPropertyOp6
 70
     1
102
RTVSPropertyOp7
 70
     1
102
RTVSPropertyOp8
 70
     1
102
RTVSPropertyOp9
 70
     1
102
RTVSPropertyOp10
 70
     1
102
RTVSPropertyOp11
 70
     1
102
RTVSPropertyOp12
 70
     1
102
RTVSPropertyOp13
 70
     1
102
RTVSPropertyOp14
 70
     1
102
RTVSPropertyOp15
 70
     1
102
RTVSPropertyOp16
 70
     1
102
RTVSPropertyOp17
 70
     1
102
RTVSPropertyOp18
 70
     1
102
RTVSPropertyOp19
 70
     1
102
RTVSPropertyOp20
 70
     1
102
RTVSPropertyOp21
 70
     1
102
RTVSPropertyOp22
 70
     1
102
RTVSPropertyOp23
 70
     1
102
RTVSPropertyOp24
 70
     1
102
RTVSPropertyOp25
 70
     1
102
RTVSPropertyOp26
 70
     1
102
RTVSPropertyOp27
 70
     1
102
RTVSPropertyOp28
 70
     1
102
RTVSPropertyOp29
 70
     1
102
RTVSPropertyOp30
 70
     1
102
RTVSPropertyOp31
 70
     1
102
RTVSPropertyOp32
 70
     1
  0
XRECORD
  5
193
102
{ACAD_REACTORS
330
192
102
}
330
192
100
AcDbXrecord
280
     1
102
RTVSPropertyOp0
 70
     1
102
RTVSPropertyOp1
 70
     1
102
RTVSPropertyOp2
 70
     1
102
RTVSPropertyOp3
 70
     1
102
RTVSPropertyOp4
 70
     1
102
RTVSPropertyOp5
 70
     1
102
RTVSPropertyOp6
 70
     1
102
RTVSPropertyOp7
 70
     1
102
RTVSPropertyOp8
 70
     1
102
RTVSPropertyOp9
 70
     1
102
RTVSPropertyOp10
 70
     1
102
RTVSPropertyOp11
 70
     1
102
RTVSPropertyOp12
 70
     1
102
RTVSPropertyOp13
 70
     1
102
RTVSPropertyOp14
 70
     1
102
RTVSPropertyOp15
 70
     1
102
RTVSPropertyOp16
 70
     1
102
RTVSPropertyOp17
 70
     1
102
RTVSPropertyOp18
 70
     1
102
RTVSPropertyOp19
 70
     1
102
RTVSPropertyOp20
 70
     1
102
RTVSPropertyOp21
 70
     1
102
RTVSPropertyOp22
 70
     1
102
RTVSPropertyOp23
 70
     1
102
RTVSPropertyOp24
 70
     1
102
RTVSPropertyOp25
 70
     1
102
RTVSPropertyOp26
 70
     1
102
RTVSPropertyOp27
 70
     1
102
RTVSPropertyOp28
 70
     1
102
RTVSPropertyOp29
 70
     1
102
RTVSPropertyOp30
 70
     1
102
RTVSPropertyOp31
 70
     1
102
RTVSPropertyOp32
 70
     1
  0
XRECORD
  5
177
102
{ACAD_REACTORS
330
176
102
}
330
176
100
AcDbXrecord
280
     1
102
RTVSPropertyOp0
 70
     1
102
RTVSPropertyOp1
 70
     1
102
RTVSPropertyOp2
 70
     1
102
RTVSPropertyOp3
 70
     1
102
RTVSPropertyOp4
 70
     1
102
RTVSPropertyOp5
 70
     1
102
RTVSPropertyOp6
 70
     1
102
RTVSPropertyOp7
 70
     1
102
RTVSPropertyOp8
 70
     1
102
RTVSPropertyOp9
 70
     1
102
RTVSPropertyOp10
 70
     1
102
RTVSPropertyOp11
 70
     1
102
RTVSPropertyOp12
 70
     1
102
RTVSPropertyOp13
 70
     1
102
RTVSPropertyOp14
 70
     1
102
RTVSPropertyOp15
 70
     1
102
RTVSPropertyOp16
 70
     1
102
RTVSPropertyOp17
 70
     1
102
RTVSPropertyOp18
 70
     1
102
RTVSPropertyOp19
 70
     1
102
RTVSPropertyOp20
 70
     1
102
RTVSPropertyOp21
 70
     1
102
RTVSPropertyOp22
 70
     1
102
RTVSPropertyOp23
 70
     1
102
RTVSPropertyOp24
 70
     1
102
RTVSPropertyOp25
 70
     1
102
RTVSPropertyOp26
 70
     1
102
RTVSPropertyOp27
 70
     1
102
RTVSPropertyOp28
 70
     1
102
RTVSPropertyOp29
 70
     1
102
RTVSPropertyOp30
 70
     1
102
RTVSPropertyOp31
 70
     1
102
RTVSPropertyOp32
 70
     1
  0
XRECORD
  5
179
102
{ACAD_REACTORS
330
178
102
}
330
178
100
AcDbXrecord
280
     1
102
RTVSPropertyOp0
 70
     1
102
RTVSPropertyOp1
 70
     1
102
RTVSPropertyOp2
 70
     1
102
RTVSPropertyOp3
 70
     1
102
RTVSPropertyOp4
 70
     1
102
RTVSPropertyOp5
 70
     1
102
RTVSPropertyOp6
 70
     1
102
RTVSPropertyOp7
 70
     1
102
RTVSPropertyOp8
 70
     1
102
RTVSPropertyOp9
 70
     1
102
RTVSPropertyOp10
 70
     1
102
RTVSPropertyOp11
 70
     1
102
RTVSPropertyOp12
 70
     1
102
RTVSPropertyOp13
 70
     1
102
RTVSPropertyOp14
 70
     1
102
RTVSPropertyOp15
 70
     1
102
RTVSPropertyOp16
 70
     1
102
RTVSPropertyOp17
 70
     1
102
RTVSPropertyOp18
 70
     1
102
RTVSPropertyOp19
 70
     1
102
RTVSPropertyOp20
 70
     1
102
RTVSPropertyOp21
 70
     1
102
RTVSPropertyOp22
 70
     1
102
RTVSPropertyOp23
 70
     1
102
RTVSPropertyOp24
 70
     1
102
RTVSPropertyOp25
 70
     1
102
RTVSPropertyOp26
 70
     1
102
RTVSPropertyOp27
 70
     1
102
RTVSPropertyOp28
 70
     1
102
RTVSPropertyOp29
 70
     1
102
RTVSPropertyOp30
 70
     1
102
RTVSPropertyOp31
 70
     1
102
RTVSPropertyOp32
 70
     1
  0
XRECORD
  5
17B
102
{ACAD_REACTORS
330
17A
102
}
330
17A
100
AcDbXrecord
280
     1
102
RTVSPropertyOp0
 70
     1
102
RTVSPropertyOp1
 70
     1
102
RTVSPropertyOp2
 70
     1
102
RTVSPropertyOp3
 70
     1
102
RTVSPropertyOp4
 70
     1
102
RTVSPropertyOp5
 70
     1
102
RTVSPropertyOp6
 70
     1
102
RTVSPropertyOp7
 70
     1
102
RTVSPropertyOp8
 70
     1
102
RTVSPropertyOp9
 70
     1
102
RTVSPropertyOp10
 70
     1
102
RTVSPropertyOp11
 70
     1
102
RTVSPropertyOp12
 70
     1
102
RTVSPropertyOp13
 70
     1
102
RTVSPropertyOp14
 70
     1
102
RTVSPropertyOp15
 70
     1
102
RTVSPropertyOp16
 70
     1
102
RTVSPropertyOp17
 70
     1
102
RTVSPropertyOp18
 70
     1
102
RTVSPropertyOp19
 70
     1
102
RTVSPropertyOp20
 70
     1
102
RTVSPropertyOp21
 70
     1
102
RTVSPropertyOp22
 70
     1
102
RTVSPropertyOp23
 70
     1
102
RTVSPropertyOp24
 70
     1
102
RTVSPropertyOp25
 70
     1
102
RTVSPropertyOp26
 70
     1
102
RTVSPropertyOp27
 70
     1
102
RTVSPropertyOp28
 70
     1
102
RTVSPropertyOp29
 70
     1
102
RTVSPropertyOp30
 70
     1
102
RTVSPropertyOp31
 70
     1
102
RTVSPropertyOp32
 70
     1
  0
XRECORD
  5
17D
102
{ACAD_REACTORS
330
17C
102
}
330
17C
100
AcDbXrecord
280
     1
102
RTVSPropertyOp0
 70
     1
102
RTVSPropertyOp1
 70
     1
102
RTVSPropertyOp2
 70
     1
102
RTVSPropertyOp3
 70
     1
102
RTVSPropertyOp4
 70
     1
102
RTVSPropertyOp5
 70
     1
102
RTVSPropertyOp6
 70
     1
102
RTVSPropertyOp7
 70
     1
102
RTVSPropertyOp8
 70
     1
102
RTVSPropertyOp9
 70
     1
102
RTVSPropertyOp10
 70
     1
102
RTVSPropertyOp11
 70
     1
102
RTVSPropertyOp12
 70
     1
102
RTVSPropertyOp13
 70
     1
102
RTVSPropertyOp14
 70
     1
102
RTVSPropertyOp15
 70
     1
102
RTVSPropertyOp16
 70
     1
102
RTVSPropertyOp17
 70
     1
102
RTVSPropertyOp18
 70
     1
102
RTVSPropertyOp19
 70
     1
102
RTVSPropertyOp20
 70
     1
102
RTVSPropertyOp21
 70
     1
102
RTVSPropertyOp22
 70
     1
102
RTVSPropertyOp23
 70
     1
102
RTVSPropertyOp24
 70
     1
102
RTVSPropertyOp25
 70
     1
102
RTVSPropertyOp26
 70
     1
102
RTVSPropertyOp27
 70
     1
102
RTVSPropertyOp28
 70
     1
102
RTVSPropertyOp29
 70
     1
102
RTVSPropertyOp30
 70
     1
102
RTVSPropertyOp31
 70
     1
102
RTVSPropertyOp32
 70
     1
  0
XRECORD
  5
191
102
{ACAD_REACTORS
330
190
102
}
330
190
100
AcDbXrecord
280
     1
102
RTVSPropertyOp0
 70
     1
102
RTVSPropertyOp1
 70
     1
102
RTVSPropertyOp2
 70
     1
102
RTVSPropertyOp3
 70
     1
102
RTVSPropertyOp4
 70
     1
102
RTVSPropertyOp5
 70
     1
102
RTVSPropertyOp6
 70
     1
102
RTVSPropertyOp7
 70
     1
102
RTVSPropertyOp8
 70
     1
102
RTVSPropertyOp9
 70
     1
102
RTVSPropertyOp10
 70
     1
102
RTVSPropertyOp11
 70
     1
102
RTVSPropertyOp12
 70
     1
102
RTVSPropertyOp13
 70
     1
102
RTVSPropertyOp14
 70
     1
102
RTVSPropertyOp15
 70
     1
102
RTVSPropertyOp16
 70
     1
102
RTVSPropertyOp17
 70
     1
102
RTVSPropertyOp18
 70
     1
102
RTVSPropertyOp19
 70
     1
102
RTVSPropertyOp20
 70
     1
102
RTVSPropertyOp21
 70
     1
102
RTVSPropertyOp22
 70
     1
102
RTVSPropertyOp23
 70
     1
102
RTVSPropertyOp24
 70
     1
102
RTVSPropertyOp25
 70
     1
102
RTVSPropertyOp26
 70
     1
102
RTVSPropertyOp27
 70
     1
102
RTVSPropertyOp28
 70
     1
102
RTVSPropertyOp29
 70
     1
102
RTVSPropertyOp30
 70
     1
102
RTVSPropertyOp31
 70
     1
102
RTVSPropertyOp32
 70
     1
  0
XRECORD
  5
187
102
{ACAD_REACTORS
330
186
102
}
330
186
100
AcDbXrecord
280
     1
102
RTVSPropertyOp0
 70
     1
102
RTVSPropertyOp1
 70
     1
102
RTVSPropertyOp2
 70
     1
102
RTVSPropertyOp3
 70
     1
102
RTVSPropertyOp4
 70
     1
102
RTVSPropertyOp5
 70
     1
102
RTVSPropertyOp6
 70
     1
102
RTVSPropertyOp7
 70
     1
102
RTVSPropertyOp8
 70
     1
102
RTVSPropertyOp9
 70
     1
102
RTVSPropertyOp10
 70
     1
102
RTVSPropertyOp11
 70
     1
102
RTVSPropertyOp12
 70
     1
102
RTVSPropertyOp13
 70
     1
102
RTVSPropertyOp14
 70
     1
102
RTVSPropertyOp15
 70
     1
102
RTVSPropertyOp16
 70
     1
102
RTVSPropertyOp17
 70
     1
102
RTVSPropertyOp18
 70
     1
102
RTVSPropertyOp19
 70
     1
102
RTVSPropertyOp20
 70
     1
102
RTVSPropertyOp21
 70
     1
102
RTVSPropertyOp22
 70
     1
102
RTVSPropertyOp23
 70
     1
102
RTVSPropertyOp24
 70
     1
102
RTVSPropertyOp25
 70
     1
102
RTVSPropertyOp26
 70
     1
102
RTVSPropertyOp27
 70
     1
102
RTVSPropertyOp28
 70
     1
102
RTVSPropertyOp29
 70
     1
102
RTVSPropertyOp30
 70
     1
102
RTVSPropertyOp31
 70
     1
102
RTVSPropertyOp32
 70
     1
  0
XRECORD
  5
18F
102
{ACAD_REACTORS
330
18E
102
}
330
18E
100
AcDbXrecord
280
     1
102
RTVSPropertyOp0
 70
     1
102
RTVSPropertyOp1
 70
     1
102
RTVSPropertyOp2
 70
     1
102
RTVSPropertyOp3
 70
     1
102
RTVSPropertyOp4
 70
     1
102
RTVSPropertyOp5
 70
     1
102
RTVSPropertyOp6
 70
     1
102
RTVSPropertyOp7
 70
     1
102
RTVSPropertyOp8
 70
     1
102
RTVSPropertyOp9
 70
     1
102
RTVSPropertyOp10
 70
     1
102
RTVSPropertyOp11
 70
     1
102
RTVSPropertyOp12
 70
     1
102
RTVSPropertyOp13
 70
     1
102
RTVSPropertyOp14
 70
     1
102
RTVSPropertyOp15
 70
     1
102
RTVSPropertyOp16
 70
     1
102
RTVSPropertyOp17
 70
     1
102
RTVSPropertyOp18
 70
     1
102
RTVSPropertyOp19
 70
     1
102
RTVSPropertyOp20
 70
     1
102
RTVSPropertyOp21
 70
     1
102
RTVSPropertyOp22
 70
     1
102
RTVSPropertyOp23
 70
     1
102
RTVSPropertyOp24
 70
     1
102
RTVSPropertyOp25
 70
     1
102
RTVSPropertyOp26
 70
     1
102
RTVSPropertyOp27
 70
     1
102
RTVSPropertyOp28
 70
     1
102
RTVSPropertyOp29
 70
     1
102
RTVSPropertyOp30
 70
     1
102
RTVSPropertyOp31
 70
     1
102
RTVSPropertyOp32
 70
     1
  0
ENDSEC
  0
EOF
