  0
SECTION
  2
HEADER
  9
$ACADVER
  1
AC1015
  9
$ACADMAINTVER
 70
     6
  9
$DWGCODEPAGE
  3
ANSI_932
  9
$INSBASE
 10
0.0
 20
0.0
 30
0.0
  9
$EXTMIN
 10
0.0
 20
0.0
 30
0.0
  9
$EXTMAX
 10
2100.0
 20
2970.0
 30
0.0
  9
$LIMMIN
 10
0.0
 20
0.0
  9
$LIMMAX
 10
12.0
 20
9.0
  9
$ORTHOMODE
 70
     0
  9
$REGENMODE
 70
     1
  9
$FILLMODE
 70
     1
  9
$QTEXTMODE
 70
     0
  9
$MIRRTEXT
 70
     1
  9
$LTSCALE
 40
1.0
  9
$ATTMODE
 70
     1
  9
$TEXTSIZE
 40
0.2
  9
$TRACEWID
 40
0.05
  9
$TEXTSTYLE
  7
Standard
  9
$CLAYER
  8
0
  9
$CELTYPE
  6
ByLayer
  9
$CECOLOR
 62
   256
  9
$CELTSCALE
 40
1.0
  9
$DISPSILH
 70
     0
  9
$DIMSCALE
 40
1.0
  9
$DIMASZ
 40
0.18
  9
$DIMEXO
 40
0.0625
  9
$DIMDLI
 40
0.38
  9
$DIMRND
 40
0.0
  9
$DIMDLE
 40
0.0
  9
$DIMEXE
 40
0.18
  9
$DIMTP
 40
0.0
  9
$DIMTM
 40
0.0
  9
$DIMTXT
 40
0.18
  9
$DIMCEN
 40
0.09
  9
$DIMTSZ
 40
0.0
  9
$DIMTOL
 70
     0
  9
$DIMLIM
 70
     0
  9
$DIMTIH
 70
     1
  9
$DIMTOH
 70
     1
  9
$DIMSE1
 70
     0
  9
$DIMSE2
 70
     0
  9
$DIMTAD
 70
     0
  9
$DIMZIN
 70
     0
  9
$DIMBLK
  1

  9
$DIMASO
 70
     1
  9
$DIMSHO
 70
     1
  9
$DIMPOST
  1

  9
$DIMAPOST
  1

  9
$DIMALT
 70
     0
  9
$DIMALTD
 70
     2
  9
$DIMALTF
 40
25.4
  9
$DIMLFAC
 40
1.0
  9
$DIMTOFL
 70
     0
  9
$DIMTVP
 40
0.0
  9
$DIMTIX
 70
     0
  9
$DIMSOXD
 70
     0
  9
$DIMSAH
 70
     0
  9
$DIMBLK1
  1

  9
$DIMBLK2
  1

  9
$DIMSTYLE
  2
Standard
  9
$DIMCLRD
 70
     0
  9
$DIMCLRE
 70
     0
  9
$DIMCLRT
 70
     0
  9
$DIMTFAC
 40
1.0
  9
$DIMGAP
 40
0.09
  9
$DIMJUST
 70
     0
  9
$DIMSD1
 70
     0
  9
$DIMSD2
 70
     0
  9
$DIMTOLJ
 70
     1
  9
$DIMTZIN
 70
     0
  9
$DIMALTZ
 70
     0
  9
$DIMALTTZ
 70
     0
  9
$DIMUPT
 70
     0
  9
$DIMDEC
 70
     4
  9
$DIMTDEC
 70
     4
  9
$DIMALTU
 70
     2
  9
$DIMALTTD
 70
     2
  9
$DIMTXSTY
  7
Standard
  9
$DIMAUNIT
 70
     0
  9
$DIMADEC
 70
     0
  9
$DIMALTRND
 40
0.0
  9
$DIMAZIN
 70
     0
  9
$DIMDSEP
 70
    46
  9
$DIMATFIT
 70
     3
  9
$DIMFRAC
 70
     0
  9
$DIMLDRBLK
  1

  9
$DIMLUNIT
 70
     2
  9
$DIMLWD
 70
    -2
  9
$DIMLWE
 70
    -2
  9
$DIMTMOVE
 70
     0
  9
$LUNITS
 70
     2
  9
$LUPREC
 70
     4
  9
$SKETCHINC
 40
0.1
  9
$FILLETRAD
 40
0.5
  9
$AUNITS
 70
     0
  9
$AUPREC
 70
     0
  9
$MENU
  1
.
  9
$ELEVATION
 40
0.0
  9
$PELEVATION
 40
0.0
  9
$THICKNESS
 40
0.0
  9
$LIMCHECK
 70
     0
  9
$CHAMFERA
 40
0.5
  9
$CHAMFERB
 40
0.5
  9
$CHAMFERC
 40
1.0
  9
$CHAMFERD
 40
0.0
  9
$SKPOLY
 70
     0
  9
$TDCREATE
 40
2456496.380037963
  9
$TDUCREATE
 40
2456496.005037963
  9
$TDUPDATE
 40
2456496.38003904
  9
$TDUUPDATE
 40
2456496.00503904
  9
$TDINDWG
 40
0.0000000116
  9
$TDUSRTIMER
 40
0.0000000116
  9
$USRTIMER
 70
     1
  9
$ANGBASE
 50
0.0
  9
$ANGDIR
 70
     0
  9
$PDMODE
 70
     0
  9
$PDSIZE
 40
0.0
  9
$PLINEWID
 40
0.0
  9
$SPLFRAME
 70
     0
  9
$SPLINETYPE
 70
     6
  9
$SPLINESEGS
 70
     8
  9
$HANDSEED
  5
1E0
  9
$SURFTAB1
 70
     6
  9
$SURFTAB2
 70
     6
  9
$SURFTYPE
 70
     6
  9
$SURFU
 70
     6
  9
$SURFV
 70
     6
  9
$UCSBASE
  2

  9
$UCSNAME
  2

  9
$UCSORG
 10
0.0
 20
0.0
 30
0.0
  9
$UCSXDIR
 10
1.0
 20
0.0
 30
0.0
  9
$UCSYDIR
 10
0.0
 20
1.0
 30
0.0
  9
$UCSORTHOREF
  2

  9
$UCSORTHOVIEW
 70
     0
  9
$UCSORGTOP
 10
0.0
 20
0.0
 30
0.0
  9
$UCSORGBOTTOM
 10
0.0
 20
0.0
 30
0.0
  9
$UCSORGLEFT
 10
0.0
 20
0.0
 30
0.0
  9
$UCSORGRIGHT
 10
0.0
 20
0.0
 30
0.0
  9
$UCSORGFRONT
 10
0.0
 20
0.0
 30
0.0
  9
$UCSORGBACK
 10
0.0
 20
0.0
 30
0.0
  9
$PUCSBASE
  2

  9
$PUCSNAME
  2

  9
$PUCSORG
 10
0.0
 20
0.0
 30
0.0
  9
$PUCSXDIR
 10
1.0
 20
0.0
 30
0.0
  9
$PUCSYDIR
 10
0.0
 20
1.0
 30
0.0
  9
$PUCSORTHOREF
  2

  9
$PUCSORTHOVIEW
 70
     0
  9
$PUCSORGTOP
 10
0.0
 20
0.0
 30
0.0
  9
$PUCSORGBOTTOM
 10
0.0
 20
0.0
 30
0.0
  9
$PUCSORGLEFT
 10
0.0
 20
0.0
 30
0.0
  9
$PUCSORGRIGHT
 10
0.0
 20
0.0
 30
0.0
  9
$PUCSORGFRONT
 10
0.0
 20
0.0
 30
0.0
  9
$PUCSORGBACK
 10
0.0
 20
0.0
 30
0.0
  9
$USERI1
 70
     0
  9
$USERI2
 70
     0
  9
$USERI3
 70
     0
  9
$USERI4
 70
     0
  9
$USERI5
 70
     0
  9
$USERR1
 40
18.1
  9
$USERR2
 40
0.0
  9
$USERR3
 40
0.0
  9
$USERR4
 40
0.0
  9
$USERR5
 40
0.0
  9
$WORLDVIEW
 70
     1
  9
$SHADEDGE
 70
     3
  9
$SHADEDIF
 70
    70
  9
$TILEMODE
 70
     1
  9
$MAXACTVP
 70
    64
  9
$PINSBASE
 10
0.0
 20
0.0
 30
0.0
  9
$PLIMCHECK
 70
     0
  9
$PEXTMIN
 10
1.00000000000000E+20
 20
1.00000000000000E+20
 30
1.00000000000000E+20
  9
$PEXTMAX
 10
-1.00000000000000E+20
 20
-1.00000000000000E+20
 30
-1.00000000000000E+20
  9
$PLIMMIN
 10
0.0
 20
0.0
  9
$PLIMMAX
 10
12.0
 20
9.0
  9
$UNITMODE
 70
     0
  9
$VISRETAIN
 70
     1
  9
$PLINEGEN
 70
     0
  9
$PSLTSCALE
 70
     1
  9
$TREEDEPTH
 70
  3020
  9
$CMLSTYLE
  2
Standard
  9
$CMLJUST
 70
     0
  9
$CMLSCALE
 40
1.0
  9
$PROXYGRAPHICS
 70
     1
  9
$MEASUREMENT
 70
     1
  9
$CELWEIGHT
370
    -1
  9
$ENDCAPS
280
     0
  9
$JOINSTYLE
280
     0
  9
$LWDISPLAY
290
     0
  9
$INSUNITS
 70
     4
  9
$HYPERLINKBASE
  1

  9
$STYLESHEET
  1

  9
$XEDIT
290
     1
  9
$CEPSNTYPE
380
     0
  9
$PSTYLEMODE
290
     1
  9
$FINGERPRINTGUID
  2
{94EF2EF9-B636-4FFF-9E70-763898E81B3F}
  9
$VERSIONGUID
  2
{FAEB1C32-E019-11D5-929B-00C0DF256EC4}
  9
$EXTNAMES
290
     1
  9
$PSVPSCALE
 40
0.0
  9
$OLESTARTUP
290
     0
  0
ENDSEC
  0
SECTION
  2
CLASSES
  0
CLASS
  1
ACDBDICTIONARYWDFLT
  2
AcDbDictionaryWithDefault
  3
ObjectDBX Classes
 90
        0
280
     0
281
     0
  0
CLASS
  1
VISUALSTYLE
  2
AcDbVisualStyle
  3
ObjectDBX Classes
 90
     4095
280
     0
281
     0
  0
CLASS
  1
MATERIAL
  2
AcDbMaterial
  3
ObjectDBX Classes
 90
     1153
280
     0
281
     0
  0
CLASS
  1
DICTIONARYVAR
  2
AcDbDictionaryVar
  3
ObjectDBX Classes
 90
        0
280
     0
281
     0
  0
CLASS
  1
ACDBPLACEHOLDER
  2
AcDbPlaceHolder
  3
ObjectDBX Classes
 90
        0
280
     0
281
     0
  0
CLASS
  1
LAYOUT
  2
AcDbLayout
  3
ObjectDBX Classes
 90
        0
280
     0
281
     0
  0
ENDSEC
  0
SECTION
  2
TABLES
  0
TABLE
  2
VPORT
  5
8
330
0
100
AcDbSymbolTable
 70
     1
  0
VPORT
  5
29
330
8
100
AcDbSymbolTableRecord
100
AcDbViewportTableRecord
  2
*Active
 70
     0
 10
0.0
 20
0.0
 11
1.0
 21
1.0
 12
1050.0
 22
1485.0
 13
0.0
 23
0.0
 14
0.5
 24
0.5
 15
0.5
 25
0.5
 16
0.0
 26
0.0
 36
1.0
 17
0.0
 27
0.0
 37
0.0
 40
3267.0
 41
1.60267857142857
 42
50.0
 43
0.0
 44
0.0
 50
0.0
 51
0.0
 71
     0
 72
   100
 73
     1
 74
     3
 75
     0
 76
     0
 77
     0
 78
     0
281
     0
 65
     1
110
0.0
120
0.0
130
0.0
111
1.0
121
0.0
131
0.0
112
0.0
122
1.0
132
0.0
 79
     0
146
0.0
  0
ENDTAB
  0
TABLE
  2
LTYPE
  5
5
330
0
100
AcDbSymbolTable
 70
     8
  0
LTYPE
  5
14
330
5
100
AcDbSymbolTableRecord
100
AcDbLinetypeTableRecord
  2
ByBlock
 70
     0
  3

 72
    65
 73
     0
 40
0.0
  0
LTYPE
  5
15
330
5
100
AcDbSymbolTableRecord
100
AcDbLinetypeTableRecord
  2
ByLayer
 70
     0
  3

 72
    65
 73
     0
 40
0.0
  0
LTYPE
  5
16
330
5
100
AcDbSymbolTableRecord
100
AcDbLinetypeTableRecord
  2
Continuous
 70
     0
  3
Solid line
 72
    65
 73
     0
 40
0.0
  0
LTYPE
  5
3F
330
5
100
AcDbSymbolTableRecord
100
AcDbLinetypeTableRecord
  2
DASHED
 70
     0
  3
Dashed
 72
    65
 73
     2
 40
15.0
 49
7.0
 74
     0
 49
-8.0
 74
     0
  0
LTYPE
  5
40
330
5
100
AcDbSymbolTableRecord
100
AcDbLinetypeTableRecord
  2
DOTTED
 70
     0
  3
Dotted
 72
    65
 73
     2
 40
1.0
 49
0.0
 74
     0
 49
-1.0
 74
     0
  0
LTYPE
  5
41
330
5
100
AcDbSymbolTableRecord
100
AcDbLinetypeTableRecord
  2
DOT_CENTER
 70
     0
  3
Dot_Center
 72
    65
 73
     4
 40
14.0
 49
12.0
 74
     0
 49
-1.0
 74
     0
 49
0.0
 74
     0
 49
-1.0
 74
     0
  0
LTYPE
  5
42
330
5
100
AcDbSymbolTableRecord
100
AcDbLinetypeTableRecord
  2
LONG_DASHED
 70
     0
  3
Long_Dashed
 72
    65
 73
     2
 40
15.0
 49
10.0
 74
     0
 49
-5.0
 74
     0
  0
LTYPE
  5
43
330
5
100
AcDbSymbolTableRecord
100
AcDbLinetypeTableRecord
  2
DASH_CENTER
 70
     0
  3
Dash_Center
 72
    65
 73
     4
 40
14.0
 49
11.0
 74
     0
 49
-1.0
 74
     0
 49
1.0
 74
     0
 49
-1.0
 74
     0
  0
LTYPE
  5
44
330
5
100
AcDbSymbolTableRecord
100
AcDbLinetypeTableRecord
  2
PHANTOM
 70
     0
  3
Phantom
 72
    65
 73
     6
 40
13.0
 49
10.0
 74
     0
 49
-1.0
 74
     0
 49
0.0
 74
     0
 49
-1.0
 74
     0
 49
0.0
 74
     0
 49
-1.0
 74
     0
  0
LTYPE
  5
45
330
5
100
AcDbSymbolTableRecord
100
AcDbLinetypeTableRecord
  2
CENTER_DASH_DASH
 70
     0
  3
Center_Dash_Dash
 72
    65
 73
     6
 40
14.0
 49
9.0
 74
     0
 49
-1.0
 74
     0
 49
1.0
 74
     0
 49
-1.0
 74
     0
 49
1.0
 74
     0
 49
-1.0
 74
     0
  0
ENDTAB
  0
TABLE
  2
LAYER
  5
2
330
0
100
AcDbSymbolTable
 70
     4
  0
LAYER
  5
10
330
2
100
AcDbSymbolTableRecord
100
AcDbLayerTableRecord
  2
0
 70
     0
 62
     7
  6
Continuous
370
    -3
390
F
  0
LAYER
  5
46
330
2
100
AcDbSymbolTableRecord
100
AcDbLayerTableRecord
  2
1
 70
     0
 62
     7
  6
Continuous
370
    -3
390
F
  0
LAYER
  5
47
330
2
100
AcDbSymbolTableRecord
100
AcDbLayerTableRecord
  2
実線
 70
     0
 62
     7
  6
Continuous
370
    -3
390
F
  0
LAYER
  5
48
330
2
100
AcDbSymbolTableRecord
100
AcDbLayerTableRecord
  2
寸法線
 70
     0
 62
     7
  6
Continuous
370
    -3
390
F
  0
ENDTAB
  0
TABLE
  2
STYLE
  5
3
330
0
100
AcDbSymbolTable
 70
     3
  0
STYLE
  5
11
330
3
100
AcDbSymbolTableRecord
100
AcDbTextStyleTableRecord
  2
Standard
 70
     0
 40
0.0
 41
1.0
 50
0.0
 71
     0
 42
0.2
  3
txt
  4

  0
STYLE
  5
98
330
3
100
AcDbSymbolTableRecord
100
AcDbTextStyleTableRecord
  2
CONVERTER_11
 70
     0
 40
0.0
 41
0.89
 50
0.0
 71
     0
 42
0.2
  3
MS Mincho.ttf
  4

1001
ACAD
1000
MS Mincho
1071
    32785
  0
STYLE
  5
13C
330
3
100
AcDbSymbolTableRecord
100
AcDbTextStyleTableRecord
  2
CONVERTER_12
 70
     0
 40
0.0
 41
0.9
 50
0.0
 71
     0
 42
0.2
  3
txt.shx
  4

  0
ENDTAB
  0
TABLE
  2
VIEW
  5
6
330
0
100
AcDbSymbolTable
 70
     0
  0
ENDTAB
  0
TABLE
  2
UCS
  5
7
330
0
100
AcDbSymbolTable
 70
     0
  0
ENDTAB
  0
TABLE
  2
APPID
  5
9
330
0
100
AcDbSymbolTable
 70
     1
  0
APPID
  5
12
330
9
100
AcDbSymbolTableRecord
100
AcDbRegAppTableRecord
  2
ACAD
 70
     0
  0
ENDTAB
  0
TABLE
  2
DIMSTYLE
  5
A
330
0
100
AcDbSymbolTable
 70
    10
100
AcDbDimStyleTable
  0
DIMSTYLE
105
27
330
A
100
AcDbSymbolTableRecord
100
AcDbDimStyleTableRecord
  2
Standard
 70
     0
178
     0
340
11
  0
DIMSTYLE
105
14C
102
{ACAD_REACTORS
330
14D
102
}
330
A
100
AcDbSymbolTableRecord
100
AcDbDimStyleTableRecord
  2
ME10_DIM_10
 70
     0
 41
35.0
 42
0.0
 44
10.0
 73
     0
 74
     0
 77
     1
 78
     8
140
35.0
147
10.0
172
     1
173
     1
174
     1
175
     1
176
     2
177
     2
271
     2
178
     7
271
     2
340
13C
  0
DIMSTYLE
105
157
102
{ACAD_REACTORS
330
158
102
}
330
A
100
AcDbSymbolTableRecord
100
AcDbDimStyleTableRecord
  2
ME10_DIM_11
 70
     0
 41
35.0
 42
0.0
 44
10.0
 73
     0
 74
     0
 77
     1
 78
     8
140
35.0
147
10.0
172
     1
173
     1
174
     1
175
     1
176
     2
177
     2
271
     2
178
     7
271
     2
340
13C
  0
DIMSTYLE
105
162
102
{ACAD_REACTORS
330
163
102
}
330
A
100
AcDbSymbolTableRecord
100
AcDbDimStyleTableRecord
  2
ME10_DIM_12
 70
     0
 41
35.0
 42
0.0
 44
10.0
 73
     0
 74
     0
 77
     1
 78
     8
140
35.0
147
10.0
172
     1
173
     1
174
     1
175
     1
176
     2
177
     2
271
     2
178
     7
271
     2
340
13C
  0
DIMSTYLE
105
16D
102
{ACAD_REACTORS
330
16E
102
}
330
A
100
AcDbSymbolTableRecord
100
AcDbDimStyleTableRecord
  2
ME10_DIM_13
 70
     0
 41
35.0
 42
0.0
 44
10.0
 73
     0
 74
     0
 77
     1
 78
     8
140
35.0
147
10.0
172
     1
173
     1
174
     1
175
     1
176
     2
177
     2
271
     2
178
     7
271
     2
340
13C
  0
DIMSTYLE
105
178
102
{ACAD_REACTORS
330
179
102
}
330
A
100
AcDbSymbolTableRecord
100
AcDbDimStyleTableRecord
  2
ME10_DIM_14
 70
     0
 41
35.0
 42
0.0
 44
10.0
 73
     0
 74
     0
 77
     1
 78
     8
140
35.0
147
10.0
172
     1
173
     1
174
     1
175
     1
176
     2
177
     2
271
     2
178
     7
271
     2
340
13C
  0
DIMSTYLE
105
183
102
{ACAD_REACTORS
330
184
102
}
330
A
100
AcDbSymbolTableRecord
100
AcDbDimStyleTableRecord
  2
ME10_DIM_15
 70
     0
 41
35.0
 42
0.0
 44
10.0
 73
     0
 74
     0
 77
     1
 78
     8
140
35.0
147
10.0
172
     1
173
     1
174
     1
175
     1
176
     2
177
     2
271
     2
178
     7
271
     2
340
13C
  0
DIMSTYLE
105
18E
102
{ACAD_REACTORS
330
18F
102
}
330
A
100
AcDbSymbolTableRecord
100
AcDbDimStyleTableRecord
  2
ME10_DIM_16
 70
     0
 41
35.0
 42
0.0
 44
10.0
 73
     0
 74
     0
 77
     1
 78
     8
140
35.0
147
10.0
172
     1
173
     1
174
     1
175
     1
176
     2
177
     2
271
     2
178
     7
271
     2
340
13C
  0
DIMSTYLE
105
199
102
{ACAD_REACTORS
330
19A
102
}
330
A
100
AcDbSymbolTableRecord
100
AcDbDimStyleTableRecord
  2
ME10_DIM_17
 70
     0
 41
35.0
 42
0.0
 44
10.0
 73
     0
 74
     0
 77
     1
 78
     8
140
35.0
147
10.0
172
     1
173
     1
174
     1
175
     1
176
     2
177
     2
271
     2
178
     7
271
     2
340
13C
  0
DIMSTYLE
105
1A4
102
{ACAD_REACTORS
330
1A5
102
}
330
A
100
AcDbSymbolTableRecord
100
AcDbDimStyleTableRecord
  2
ME10_DIM_18
 70
     0
  3
{\Fgdt;n}<>
 41
34.99999999999999
 42
0.0
 44
10.0
 73
     0
 74
     0
 77
     1
 78
     8
140
34.99999999999999
147
10.0
172
     1
173
     1
174
     1
175
     1
176
     2
177
     2
271
     2
178
     7
271
     2
340
13C
  0
ENDTAB
  0
TABLE
  2
BLOCK_RECORD
  5
1
330
0
100
AcDbSymbolTable
 70
    13
  0
BLOCK_RECORD
  5
1F
330
1
100
AcDbSymbolTableRecord
100
AcDbBlockTableRecord
  2
*Model_Space
340
22
  0
BLOCK_RECORD
  5
1B
330
1
100
AcDbSymbolTableRecord
100
AcDbBlockTableRecord
  2
*Paper_Space
340
1E
  0
BLOCK_RECORD
  5
23
330
1
100
AcDbSymbolTableRecord
100
AcDbBlockTableRecord
  2
*Paper_Space0
340
26
  0
BLOCK_RECORD
  5
49
330
1
100
AcDbSymbolTableRecord
100
AcDbBlockTableRecord
  2
開示A4
340
0
102
{BLKREFS
331
4C
102
}
  0
BLOCK_RECORD
  5
141
330
1
100
AcDbSymbolTableRecord
100
AcDbBlockTableRecord
  2
*D2
340
0
  0
BLOCK_RECORD
  5
14E
330
1
100
AcDbSymbolTableRecord
100
AcDbBlockTableRecord
  2
*D3
340
0
  0
BLOCK_RECORD
  5
159
330
1
100
AcDbSymbolTableRecord
100
AcDbBlockTableRecord
  2
*D4
340
0
  0
BLOCK_RECORD
  5
164
330
1
100
AcDbSymbolTableRecord
100
AcDbBlockTableRecord
  2
*D5
340
0
  0
BLOCK_RECORD
  5
16F
330
1
100
AcDbSymbolTableRecord
100
AcDbBlockTableRecord
  2
*D6
340
0
  0
BLOCK_RECORD
  5
17A
330
1
100
AcDbSymbolTableRecord
100
AcDbBlockTableRecord
  2
*D7
340
0
  0
BLOCK_RECORD
  5
185
330
1
100
AcDbSymbolTableRecord
100
AcDbBlockTableRecord
  2
*D8
340
0
  0
BLOCK_RECORD
  5
190
330
1
100
AcDbSymbolTableRecord
100
AcDbBlockTableRecord
  2
*D9
340
0
  0
BLOCK_RECORD
  5
19B
330
1
100
AcDbSymbolTableRecord
100
AcDbBlockTableRecord
  2
*D10
340
0
  0
BLOCK_RECORD
  5
1A6
330
1
100
AcDbSymbolTableRecord
100
AcDbBlockTableRecord
  2
*D11
340
0
102
{BLKREFS
331
1AD
102
}
  0
BLOCK_RECORD
  5
1AE
330
1
100
AcDbSymbolTableRecord
100
AcDbBlockTableRecord
  2
*D12
340
0
102
{BLKREFS
331
1B4
102
}
  0
ENDTAB
  0
ENDSEC
  0
SECTION
  2
BLOCKS
  0
BLOCK
  5
20
330
1F
100
AcDbEntity
  8
0
100
AcDbBlockBegin
  2
*Model_Space
 70
     0
 10
0.0
 20
0.0
 30
0.0
  3
*Model_Space
  1

  0
ENDBLK
  5
21
330
1F
100
AcDbEntity
  8
0
100
AcDbBlockEnd
  0
BLOCK
  5
1C
330
1B
100
AcDbEntity
 67
     1
  8
0
100
AcDbBlockBegin
  2
*Paper_Space
 70
     0
 10
0.0
 20
0.0
 30
0.0
  3
*Paper_Space
  1

  0
ENDBLK
  5
1D
330
1B
100
AcDbEntity
 67
     1
  8
0
100
AcDbBlockEnd
  0
BLOCK
  5
24
330
23
100
AcDbEntity
  8
0
100
AcDbBlockBegin
  2
*Paper_Space0
 70
     0
 10
0.0
 20
0.0
 30
0.0
  3
*Paper_Space0
  1

  0
ENDBLK
  5
25
330
23
100
AcDbEntity
  8
0
100
AcDbBlockEnd
  0
BLOCK
  5
4A
330
49
100
AcDbEntity
  8
0
100
AcDbBlockBegin
  2
開示A4
 70
     0
 10
0.0
 20
0.0
 30
0.0
  3
開示A4
  1

  0
POINT
  5
4D
330
49
100
AcDbEntity
  8
1
 62
     4
100
AcDbPoint
 10
93.75
 20
17.0
 30
0.0
  0
POINT
  5
4E
330
49
100
AcDbEntity
  8
1
 62
     4
100
AcDbPoint
 10
85.25
 20
17.0
 30
0.0
  0
POINT
  5
4F
330
49
100
AcDbEntity
  8
1
 62
     4
100
AcDbPoint
 10
106.5
 20
19.00000000000001
 30
0.0
  0
POINT
  5
50
330
49
100
AcDbEntity
  8
1
 62
     4
100
AcDbPoint
 10
106.5
 20
12.5
 30
0.0
  0
POINT
  5
51
330
49
100
AcDbEntity
  8
1
 62
     4
100
AcDbPoint
 10
112.25
 20
12.5
 30
0.0
  0
POINT
  5
52
330
49
100
AcDbEntity
  8
1
 62
     4
100
AcDbPoint
 10
100.75
 20
12.5
 30
0.0
  0
POINT
  5
53
330
49
100
AcDbEntity
  8
1
 62
     4
100
AcDbPoint
 10
123.5
 20
19.00000000000001
 30
0.0
  0
POINT
  5
54
330
49
100
AcDbEntity
  8
1
 62
     4
100
AcDbPoint
 10
123.5
 20
12.5
 30
0.0
  0
POINT
  5
55
330
49
100
AcDbEntity
  8
1
 62
     4
100
AcDbPoint
 10
129.25
 20
12.5
 30
0.0
  0
POINT
  5
56
330
49
100
AcDbEntity
  8
1
 62
     4
100
AcDbPoint
 10
117.75
 20
12.5
 30
0.0
  0
POINT
  5
57
330
49
100
AcDbEntity
  8
1
 62
     4
100
AcDbPoint
 10
140.5
 20
19.00000000000001
 30
0.0
  0
POINT
  5
58
330
49
100
AcDbEntity
  8
1
 62
     4
100
AcDbPoint
 10
140.5
 20
12.5
 30
0.0
  0
POINT
  5
59
330
49
100
AcDbEntity
  8
1
 62
     4
100
AcDbPoint
 10
146.25
 20
12.5
 30
0.0
  0
POINT
  5
5A
330
49
100
AcDbEntity
  8
1
 62
     4
100
AcDbPoint
 10
134.75
 20
12.5
 30
0.0
  0
POINT
  5
5B
330
49
100
AcDbEntity
  8
1
 62
     4
100
AcDbPoint
 10
151.75
 20
12.5
 30
0.0
  0
POINT
  5
5C
330
49
100
AcDbEntity
  8
1
 62
     4
100
AcDbPoint
 10
163.25
 20
12.5
 30
0.0
  0
POINT
  5
5D
330
49
100
AcDbEntity
  8
1
 62
     4
100
AcDbPoint
 10
157.5
 20
12.5
 30
0.0
  0
POINT
  5
5E
330
49
100
AcDbEntity
  8
1
 62
     4
100
AcDbPoint
 10
57.0
 20
14.25
 30
0.0
  0
POINT
  5
5F
330
49
100
AcDbEntity
  8
1
 62
     4
100
AcDbPoint
 10
57.0
 20
22.75000000000001
 30
0.0
  0
POINT
  5
60
330
49
100
AcDbEntity
  8
1
 62
     4
100
AcDbPoint
 10
47.5
 20
282.0000000000003
 30
0.0
  0
POINT
  5
61
330
49
100
AcDbEntity
  8
1
 62
     4
100
AcDbPoint
 10
157.5
 20
19.00000000000001
 30
0.0
  0
POINT
  5
62
330
49
100
AcDbEntity
  8
1
 62
     4
100
AcDbPoint
 10
57.0
 20
16.25
 30
0.0
  0
POINT
  5
63
330
49
100
AcDbEntity
  8
1
 62
     4
100
AcDbPoint
 10
57.0
 20
24.75000000000001
 30
0.0
  0
POINT
  5
64
330
49
100
AcDbEntity
  8
1
 62
     4
100
AcDbPoint
 10
57.0
 20
20.75000000000001
 30
0.0
  0
POINT
  5
65
330
49
100
AcDbEntity
  8
1
 62
     4
100
AcDbPoint
 10
57.0
 20
12.25
 30
0.0
  0
POINT
  5
66
330
49
100
AcDbEntity
  8
1
 62
     4
100
AcDbPoint
 10
34.0
 20
34.00000000000001
 30
0.0
  0
LINE
  5
67
330
49
100
AcDbEntity
  8
1
  6
Continuous
 62
     7
100
AcDbLine
 10
105.0
 20
10.0
 30
0.0
 11
200.0
 21
10.0
 31
0.0
  0
LINE
  5
68
330
49
100
AcDbEntity
  8
1
  6
Continuous
 62
     2
100
AcDbLine
 10
105.0
 20
10.0
 30
0.0
 11
105.0
 21
5.0
 31
0.0
  0
LINE
  5
69
330
49
100
AcDbEntity
  8
1
  6
Continuous
 62
     7
100
AcDbLine
 10
200.0
 20
148.5
 30
0.0
 11
200.0
 21
287.0000000000003
 31
0.0
  0
LINE
  5
6A
330
49
100
AcDbEntity
  8
1
  6
Continuous
 62
     2
100
AcDbLine
 10
200.0
 20
148.5
 30
0.0
 11
205.0
 21
148.5
 31
0.0
  0
LINE
  5
6B
330
49
100
AcDbEntity
  8
1
  6
Continuous
 62
     7
100
AcDbLine
 10
25.0
 20
148.5
 30
0.0
 11
25.0
 21
287.0000000000003
 31
0.0
  0
LINE
  5
6C
330
49
100
AcDbEntity
  8
1
  6
Continuous
 62
     2
100
AcDbLine
 10
25.0
 20
148.5
 30
0.0
 11
20.0
 21
148.5
 31
0.0
  0
LINE
  5
6D
330
49
100
AcDbEntity
  8
1
  6
Continuous
 62
     7
100
AcDbLine
 10
105.0
 20
287.0000000000003
 30
0.0
 11
25.0
 21
287.0000000000003
 31
0.0
  0
LINE
  5
6E
330
49
100
AcDbEntity
  8
1
  6
Continuous
 62
     2
100
AcDbLine
 10
105.0
 20
287.0000000000003
 30
0.0
 11
105.0
 21
292.0000000000003
 31
0.0
  0
LINE
  5
6F
330
49
100
AcDbEntity
  8
1
  6
Continuous
 62
     2
100
AcDbLine
 10
166.0
 20
20.00000000000001
 30
0.0
 11
200.0
 21
20.00000000000001
 31
0.0
  0
LINE
  5
70
330
49
100
AcDbEntity
  8
1
  6
Continuous
 62
     2
100
AcDbLine
 10
98.0
 20
27.00000000000001
 30
0.0
 11
98.0
 21
9.99999999999999
 31
0.0
  0
LINE
  5
71
330
49
100
AcDbEntity
  8
1
  6
Continuous
 62
     2
100
AcDbLine
 10
115.0
 20
27.00000000000001
 30
0.0
 11
115.0
 21
9.99999999999999
 31
0.0
  0
LINE
  5
72
330
49
100
AcDbEntity
  8
1
  6
Continuous
 62
     2
100
AcDbLine
 10
149.0
 20
27.00000000000001
 30
0.0
 11
149.0
 21
10.0
 31
0.0
  0
LINE
  5
73
330
49
100
AcDbEntity
  8
1
  6
Continuous
 62
     2
100
AcDbLine
 10
132.0
 20
27.00000000000001
 30
0.0
 11
132.0
 21
9.99999999999999
 31
0.0
  0
LINE
  5
74
330
49
100
AcDbEntity
  8
1
  6
Continuous
 62
     2
100
AcDbLine
 10
166.0
 20
27.00000000000001
 30
0.0
 11
166.0
 21
10.0
 31
0.0
  0
LINE
  5
75
330
49
100
AcDbEntity
  8
1
  6
Continuous
 62
     2
100
AcDbLine
 10
55.0
 20
277.0000000000003
 30
0.0
 11
25.0
 21
277.0000000000003
 31
0.0
  0
LINE
  5
76
330
49
100
AcDbEntity
  8
1
  6
Continuous
 62
     7
100
AcDbLine
 10
25.0
 20
10.0
 30
0.0
 11
25.0
 21
148.5
 31
0.0
  0
LINE
  5
77
330
49
100
AcDbEntity
  8
1
  6
Continuous
 62
     2
100
AcDbLine
 10
40.0
 20
287.0000000000003
 30
0.0
 11
40.0
 21
277.0000000000003
 31
0.0
  0
LINE
  5
78
330
49
100
AcDbEntity
  8
1
  6
Continuous
 62
     2
100
AcDbLine
 10
55.0
 20
287.0000000000003
 30
0.0
 11
55.0
 21
277.0000000000003
 31
0.0
  0
LINE
  5
79
330
49
100
AcDbEntity
  8
1
  6
Continuous
 62
     2
100
AcDbLine
 10
33.0
 20
41.00000000000001
 30
0.0
 11
33.0
 21
27.0
 31
0.0
  0
LINE
  5
7A
330
49
100
AcDbEntity
  8
1
  6
Continuous
 62
     7
100
AcDbLine
 10
200.0
 20
27.00000000000001
 30
0.0
 11
25.0
 21
27.00000000000001
 31
0.0
  0
LINE
  5
7B
330
49
100
AcDbEntity
  8
1
  6
Continuous
 62
     7
100
AcDbLine
 10
25.0
 20
41.0
 30
0.0
 11
200.0
 21
41.0
 31
0.0
  0
LINE
  5
7C
330
49
100
AcDbEntity
  8
1
  6
PHANTOM
 62
     4
100
AcDbLine
 10
0.0
 20
0.0
 30
0.0
 11
210.0
 21
0.0
 31
0.0
  0
LINE
  5
7D
330
49
100
AcDbEntity
  8
1
  6
PHANTOM
 62
     4
100
AcDbLine
 10
210.0
 20
0.0
 30
0.0
 11
210.0
 21
297.0
 31
0.0
  0
LINE
  5
7E
330
49
100
AcDbEntity
  8
1
  6
PHANTOM
 62
     4
100
AcDbLine
 10
210.0
 20
297.0
 30
0.0
 11
0.0
 21
297.0
 31
0.0
  0
LINE
  5
7F
330
49
100
AcDbEntity
  8
1
  6
PHANTOM
 62
     4
100
AcDbLine
 10
0.0
 20
297.0
 30
0.0
 11
0.0
 21
0.0
 31
0.0
  0
LINE
  5
80
330
49
100
AcDbEntity
  8
1
  6
Continuous
 62
     7
100
AcDbLine
 10
25.0
 20
10.0
 30
0.0
 11
105.0
 21
10.0
 31
0.0
  0
LINE
  5
81
330
49
100
AcDbEntity
  8
1
  6
Continuous
 62
     7
100
AcDbLine
 10
200.0
 20
10.0
 30
0.0
 11
200.0
 21
148.5
 31
0.0
  0
LINE
  5
82
330
49
100
AcDbEntity
  8
1
  6
Continuous
 62
     7
100
AcDbLine
 10
200.0
 20
287.0000000000003
 30
0.0
 11
105.0
 21
287.0000000000003
 31
0.0
  0
LINE
  5
83
330
49
100
AcDbEntity
  8
1
  6
Continuous
 62
     2
100
AcDbLine
 10
25.0
 20
18.50000000000001
 30
0.0
 11
81.0
 21
18.50000000000001
 31
0.0
  0
LINE
  5
84
330
49
100
AcDbEntity
  8
1
  6
Continuous
 62
     2
100
AcDbLine
 10
33.0
 20
27.0
 30
0.0
 11
33.0
 21
10.0
 31
0.0
  0
LINE
  5
85
330
49
100
AcDbEntity
  8
1
  6
Continuous
 62
     7
100
AcDbLine
 10
191.0
 20
24.70000000000001
 30
0.0
 11
191.0
 21
22.30000000000001
 31
0.0
  0
LINE
  5
86
330
49
100
AcDbEntity
  8
1
  6
Continuous
 62
     7
100
AcDbLine
 10
191.0
 20
24.70000000000001
 30
0.0
 11
196.0
 21
25.50000000000001
 31
0.0
  0
LINE
  5
87
330
49
100
AcDbEntity
  8
1
  6
Continuous
 62
     7
100
AcDbLine
 10
196.0
 20
25.50000000000001
 30
0.0
 11
196.0
 21
21.50000000000001
 31
0.0
  0
LINE
  5
88
330
49
100
AcDbEntity
  8
1
  6
Continuous
 62
     7
100
AcDbLine
 10
196.0
 20
21.50000000000001
 30
0.0
 11
191.0
 21
22.30000000000001
 31
0.0
  0
LINE
  5
89
330
49
100
AcDbEntity
  8
1
  6
DOT_CENTER
 62
     2
100
AcDbLine
 10
184.0
 20
23.50000000000001
 30
0.0
 11
197.0
 21
23.50000000000001
 31
0.0
  0
LINE
  5
8A
330
49
100
AcDbEntity
  8
1
  6
DOT_CENTER
 62
     2
100
AcDbLine
 10
187.0
 20
26.50000000000001
 30
0.0
 11
187.0
 21
20.50000000000001
 31
0.0
  0
LINE
  5
8B
330
49
100
AcDbEntity
  8
1
  6
Continuous
 62
     2
100
AcDbLine
 10
81.0
 20
27.00000000000001
 30
0.0
 11
81.0
 21
10.0
 31
0.0
  0
CIRCLE
  5
8C
330
49
100
AcDbEntity
  8
1
  6
Continuous
 62
     7
100
AcDbCircle
 10
103.5
 20
12.5
 30
0.0
 40
0.2999999999999972
  0
CIRCLE
  5
8D
330
49
100
AcDbEntity
  8
1
  6
Continuous
 62
     7
100
AcDbCircle
 10
109.5
 20
12.5
 30
0.0
 40
0.2999999999999972
  0
CIRCLE
  5
8E
330
49
100
AcDbEntity
  8
1
  6
Continuous
 62
     7
100
AcDbCircle
 10
120.5
 20
12.5
 30
0.0
 40
0.2999999999999972
  0
CIRCLE
  5
8F
330
49
100
AcDbEntity
  8
1
  6
Continuous
 62
     7
100
AcDbCircle
 10
126.5
 20
12.5
 30
0.0
 40
0.2999999999999972
  0
CIRCLE
  5
90
330
49
100
AcDbEntity
  8
1
  6
Continuous
 62
     7
100
AcDbCircle
 10
137.5
 20
12.5
 30
0.0
 40
0.3000000000000114
  0
CIRCLE
  5
91
330
49
100
AcDbEntity
  8
1
  6
Continuous
 62
     7
100
AcDbCircle
 10
143.5
 20
12.5
 30
0.0
 40
0.3000000000000114
  0
CIRCLE
  5
92
330
49
100
AcDbEntity
  8
1
  6
Continuous
 62
     7
100
AcDbCircle
 10
160.5
 20
12.5
 30
0.0
 40
0.3000000000000114
  0
CIRCLE
  5
93
330
49
100
AcDbEntity
  8
1
  6
Continuous
 62
     7
100
AcDbCircle
 10
154.5
 20
12.5
 30
0.0
 40
0.3000000000000114
  0
CIRCLE
  5
94
330
49
100
AcDbEntity
  8
1
  6
Continuous
 62
     7
100
AcDbCircle
 10
187.0
 20
23.50000000000001
 30
0.0
 40
1.200000000000102
  0
CIRCLE
  5
95
330
49
100
AcDbEntity
  8
1
  6
Continuous
 62
     7
100
AcDbCircle
 10
187.0
 20
23.50000000000001
 30
0.0
 40
2.0
  0
CIRCLE
  5
96
330
49
100
AcDbEntity
  8
1
  6
DOT_CENTER
 62
     7
100
AcDbCircle
 10
89.5
 20
16.0
 30
0.0
 40
0.1000000000000227
  0
CIRCLE
  5
97
330
49
100
AcDbEntity
  8
1
  6
DOT_CENTER
 62
     7
100
AcDbCircle
 10
89.5
 20
18.0
 30
0.0
 40
0.1000000000000227
  0
MTEXT
  5
99
330
49
100
AcDbEntity
  8
1
 62
     7
100
AcDbMText
 10
188.5
 20
15.0
 30
0.0
 40
3.0
 41
0.0
 71
     5
 72
     1
  1
三栄水栓製作所
  7
CONVERTER_11
 73
     1
 44
1.0
  0
MTEXT
  5
9A
330
49
100
AcDbEntity
  8
1
 62
     7
100
AcDbMText
 10
171.5
 20
15.0
 30
0.0
 40
2.5
 41
0.0
 71
     5
 72
     1
  1
株式会社
  7
CONVERTER_11
 73
     1
 44
1.0
  0
MTEXT
  5
9B
330
49
100
AcDbEntity
  8
1
 62
     2
100
AcDbMText
 10
32.5
 20
282.0000000000003
 30
0.0
 40
5.0
 41
0.0
 71
     5
 72
     1
  1
図番
  7
CONVERTER_11
 73
     1
 44
0.45454545454545
  0
MTEXT
  5
9C
330
49
100
AcDbEntity
  8
1
 62
     2
100
AcDbMText
 10
29.0
 20
34.00000000000001
 30
0.0
 40
3.5
 41
0.0
 71
     5
 72
     1
  1
備考
  7
CONVERTER_11
 73
     1
 44
0.45454545454545
  0
MTEXT
  5
9D
330
49
100
AcDbEntity
  8
1
 62
     2
100
AcDbMText
 10
29.0
 20
22.75
 30
0.0
 40
3.5
 41
0.0
 71
     5
 72
     1
  1
品名
  7
CONVERTER_11
 73
     1
 44
0.72727272727273
  0
MTEXT
  5
9E
330
49
100
AcDbEntity
  8
1
 62
     2
100
AcDbMText
 10
29.0
 20
14.25
 30
0.0
 40
3.5
 41
0.0
 71
     5
 72
     1
  1
品番
  7
CONVERTER_11
 73
     1
 44
0.72727272727273
  0
MTEXT
  5
9F
330
49
100
AcDbEntity
  8
1
 62
     2
100
AcDbMText
 10
101.5
 20
25.00000000000001
 30
0.0
 40
3.0
 41
0.0
 71
     5
 72
     1
  1
承認
  7
CONVERTER_11
 73
     1
 44
0.59090909090909
  0
MTEXT
  5
A0
330
49
100
AcDbEntity
  8
1
 62
     2
100
AcDbMText
 10
175.0
 20
23.50000000000001
 30
0.0
 40
3.5
 41
0.0
 71
     5
 72
     1
  1
第三角法
  7
CONVERTER_11
 73
     1
 44
0.54545454545455
  0
MTEXT
  5
A1
330
49
100
AcDbEntity
  8
1
 62
     2
100
AcDbMText
 10
118.5
 20
25.00000000000001
 30
0.0
 40
3.0
 41
0.0
 71
     5
 72
     1
  1
検図
  7
CONVERTER_11
 73
     1
 44
0.59090909090909
  0
MTEXT
  5
A2
330
49
100
AcDbEntity
  8
1
 62
     2
100
AcDbMText
 10
152.5
 20
25.00000000000001
 30
0.0
 40
3.0
 41
0.0
 71
     5
 72
     1
  1
担当
  7
CONVERTER_11
 73
     1
 44
0.59090909090909
  0
MTEXT
  5
A3
330
49
100
AcDbEntity
  8
1
 62
     2
100
AcDbMText
 10
135.5
 20
25.00000000000001
 30
0.0
 40
3.0
 41
0.0
 71
     5
 72
     1
  1
製図
  7
CONVERTER_11
 73
     1
 44
0.59090909090909
  0
MTEXT
  5
A4
330
49
100
AcDbEntity
  8
1
 62
     2
100
AcDbMText
 10
89.5
 20
24.00000000000001
 30
0.0
 40
3.5
 41
0.0
 71
     5
 72
     1
  1
尺度
  7
CONVERTER_11
 73
     1
 44
0.54545454545455
  0
MTEXT
  5
A5
330
49
100
AcDbEntity
  8
1
 62
   250
100
AcDbMText
 10
25.0
 20
5.0
 30
0.0
 40
3.5
 41
0.0
 71
     4
 72
     1
  1
備考欄の文字列 原点位置=4
  7
CONVERTER_11
 73
     1
 44
0.54545454545455
  0
ENDBLK
  5
4B
330
49
100
AcDbEntity
  8
0
100
AcDbBlockEnd
  0
BLOCK
  5
14A
330
141
100
AcDbEntity
  8
0
100
AcDbBlockBegin
  2
*D2
 70
     1
 10
0.0
 20
0.0
 30
0.0
  3
*D2
  1

  0
LINE
  5
142
330
141
100
AcDbEntity
  8
1
  6
Continuous
 62
     2
100
AcDbLine
 10
514.623115795591
 20
1034.756605599984
 30
0.0
 11
514.623115795591
 21
1104.756605599984
 31
0.0
  0
LINE
  5
143
330
141
100
AcDbEntity
  8
1
  6
Continuous
 62
     2
100
AcDbLine
 10
514.623115795591
 20
1104.756605599984
 30
0.0
 11
514.623115795591
 21
1167.756605599984
 31
0.0
  0
LINE
  5
144
330
141
100
AcDbEntity
  8
1
  6
Continuous
 62
     2
100
AcDbLine
 10
514.623115795591
 20
1167.756605599984
 30
0.0
 11
514.623115795591
 21
1237.756605599984
 31
0.0
  0
LINE
  5
145
330
141
100
AcDbEntity
  8
1
  6
Continuous
 62
     2
100
AcDbLine
 10
622.8627530703247
 20
1167.756605599984
 30
0.0
 11
504.6231157955911
 21
1167.756605599984
 31
0.0
  0
LINE
  5
146
330
141
100
AcDbEntity
  8
1
  6
Continuous
 62
     2
100
AcDbLine
 10
614.623115795591
 20
1104.756605599984
 30
0.0
 11
504.6231157955911
 21
1104.756605599984
 31
0.0
  0
SOLID
  5
147
330
141
100
AcDbEntity
  8
1
 62
     2
100
AcDbTrace
 10
519.2309532111499
 20
1069.756605599984
 30
0.0
 11
510.0152783800322
 21
1069.756605599984
 31
0.0
 12
514.623115795591
 22
1104.756605599984
 32
0.0
 13
514.623115795591
 23
1104.756605599984
 33
0.0
  0
SOLID
  5
148
330
141
100
AcDbEntity
  8
1
 62
     2
100
AcDbTrace
 10
510.0152783800322
 20
1202.756605599984
 30
0.0
 11
519.2309532111499
 21
1202.756605599984
 31
0.0
 12
514.623115795591
 22
1167.756605599984
 32
0.0
 13
514.623115795591
 23
1167.756605599984
 33
0.0
  0
MTEXT
  5
149
330
141
100
AcDbEntity
  8
1
 62
     7
100
AcDbMText
 10
504.6231157955911
 20
1110.006605599984
 30
0.0
 40
35.0
 41
0.0
 71
     7
 72
     1
  1
63
  7
CONVERTER_12
 11
0.0
 21
1.0
 31
0.0
 73
     1
 44
0.60024009603842
  0
ENDBLK
  5
14B
330
141
100
AcDbEntity
  8
0
100
AcDbBlockEnd
  0
BLOCK
  5
155
330
14E
100
AcDbEntity
  8
0
100
AcDbBlockBegin
  2
*D3
 70
     1
 10
0.0
 20
0.0
 30
0.0
  3
*D3
  1

  0
LINE
  5
14F
330
14E
100
AcDbEntity
  8
1
  6
Continuous
 62
     2
100
AcDbLine
 10
614.6231157955912
 20
2290.62157125636
 30
0.0
 11
1414.623115795597
 21
2290.62157125636
 31
0.0
  0
LINE
  5
150
330
14E
100
AcDbEntity
  8
1
  6
Continuous
 62
     2
100
AcDbLine
 10
1414.623115795597
 20
2095.62157125636
 30
0.0
 11
1414.623115795597
 21
2300.62157125636
 31
0.0
  0
LINE
  5
151
330
14E
100
AcDbEntity
  8
1
  6
Continuous
 62
     2
100
AcDbLine
 10
614.6231157955912
 20
2095.62157125636
 30
0.0
 11
614.6231157955912
 21
2300.62157125636
 31
0.0
  0
SOLID
  5
152
330
14E
100
AcDbEntity
  8
1
 62
     2
100
AcDbTrace
 10
649.6231157955912
 20
2295.229408671919
 30
0.0
 11
649.6231157955912
 21
2286.013733840801
 31
0.0
 12
614.6231157955912
 22
2290.62157125636
 32
0.0
 13
614.6231157955912
 23
2290.62157125636
 33
0.0
  0
SOLID
  5
153
330
14E
100
AcDbEntity
  8
1
 62
     2
100
AcDbTrace
 10
1379.623115795597
 20
2286.013733840801
 30
0.0
 11
1379.623115795597
 21
2295.229408671919
 31
0.0
 12
1414.623115795597
 22
2290.62157125636
 32
0.0
 13
1414.623115795597
 23
2290.62157125636
 33
0.0
  0
MTEXT
  5
154
330
14E
100
AcDbEntity
  8
1
 62
     7
100
AcDbMText
 10
972.623115795587
 20
2300.62157125636
 30
0.0
 40
35.0
 41
0.0
 71
     7
 72
     1
  1
800
  7
CONVERTER_12
 11
0.9999999999970619
 21
2.424068405545306E-6
 31
0.0
 73
     1
 44
0.60024009603842
  0
ENDBLK
  5
156
330
14E
100
AcDbEntity
  8
0
100
AcDbBlockEnd
  0
BLOCK
  5
160
330
159
100
AcDbEntity
  8
0
100
AcDbBlockBegin
  2
*D4
 70
     1
 10
0.0
 20
0.0
 30
0.0
  3
*D4
  1

  0
LINE
  5
15A
330
159
100
AcDbEntity
  8
1
  6
Continuous
 62
     2
100
AcDbLine
 10
434.623115795591
 20
2110.621571256361
 30
0.0
 11
434.623115795591
 21
1470.621571256361
 31
0.0
  0
LINE
  5
15B
330
159
100
AcDbEntity
  8
1
  6
Continuous
 62
     2
100
AcDbLine
 10
629.6231157955908
 20
1470.621571256361
 30
0.0
 11
424.623115795591
 21
1470.621571256361
 31
0.0
  0
LINE
  5
15C
330
159
100
AcDbEntity
  8
1
  6
Continuous
 62
     2
100
AcDbLine
 10
629.6231157955908
 20
2110.621571256361
 30
0.0
 11
424.623115795591
 21
2110.621571256361
 31
0.0
  0
SOLID
  5
15D
330
159
100
AcDbEntity
  8
1
 62
     2
100
AcDbTrace
 10
439.2309532111498
 20
2075.621571256361
 30
0.0
 11
430.0152783800322
 21
2075.621571256361
 31
0.0
 12
434.623115795591
 22
2110.621571256361
 32
0.0
 13
434.623115795591
 23
2110.621571256361
 33
0.0
  0
SOLID
  5
15E
330
159
100
AcDbEntity
  8
1
 62
     2
100
AcDbTrace
 10
430.0152783800322
 20
1505.621571256361
 30
0.0
 11
439.2309532111498
 21
1505.621571256361
 31
0.0
 12
434.623115795591
 22
1470.621571256361
 32
0.0
 13
434.623115795591
 23
1470.621571256361
 33
0.0
  0
MTEXT
  5
15F
330
159
100
AcDbEntity
  8
1
 62
     7
100
AcDbMText
 10
424.623115795591
 20
1753.621571256361
 30
0.0
 40
35.0
 41
0.0
 71
     7
 72
     1
  1
640
  7
CONVERTER_12
 11
0.0
 21
1.0
 31
0.0
 73
     1
 44
0.60024009603842
  0
ENDBLK
  5
161
330
159
100
AcDbEntity
  8
0
100
AcDbBlockEnd
  0
BLOCK
  5
16B
330
164
100
AcDbEntity
  8
0
100
AcDbBlockBegin
  2
*D5
 70
     1
 10
0.0
 20
0.0
 30
0.0
  3
*D5
  1

  0
LINE
  5
165
330
164
100
AcDbEntity
  8
1
  6
Continuous
 62
     2
100
AcDbLine
 10
514.623115795591
 20
2089.62157125636
 30
0.0
 11
514.623115795591
 21
1491.62157125636
 31
0.0
  0
LINE
  5
166
330
164
100
AcDbEntity
  8
1
  6
Continuous
 62
     2
100
AcDbLine
 10
625.1231157955917
 20
1491.62157125636
 30
0.0
 11
504.6231157955911
 21
1491.62157125636
 31
0.0
  0
LINE
  5
167
330
164
100
AcDbEntity
  8
1
  6
Continuous
 62
     2
100
AcDbLine
 10
625.1231157955917
 20
2089.62157125636
 30
0.0
 11
504.6231157955911
 21
2089.62157125636
 31
0.0
  0
SOLID
  5
168
330
164
100
AcDbEntity
  8
1
 62
     2
100
AcDbTrace
 10
519.2309532111499
 20
2054.62157125636
 30
0.0
 11
510.0152783800322
 21
2054.62157125636
 31
0.0
 12
514.623115795591
 22
2089.62157125636
 32
0.0
 13
514.623115795591
 23
2089.62157125636
 33
0.0
  0
SOLID
  5
169
330
164
100
AcDbEntity
  8
1
 62
     2
100
AcDbTrace
 10
510.0152783800322
 20
1526.62157125636
 30
0.0
 11
519.2309532111499
 21
1526.62157125636
 31
0.0
 12
514.623115795591
 22
1491.62157125636
 32
0.0
 13
514.623115795591
 23
1491.62157125636
 33
0.0
  0
MTEXT
  5
16A
330
164
100
AcDbEntity
  8
1
 62
     7
100
AcDbMText
 10
504.6231157955911
 20
1753.621571256361
 30
0.0
 40
35.0
 41
0.0
 71
     7
 72
     1
  1
598
  7
CONVERTER_12
 11
0.0
 21
1.0
 31
0.0
 73
     1
 44
0.60024009603842
  0
ENDBLK
  5
16C
330
164
100
AcDbEntity
  8
0
100
AcDbBlockEnd
  0
BLOCK
  5
176
330
16F
100
AcDbEntity
  8
0
100
AcDbBlockBegin
  2
*D6
 70
     1
 10
0.0
 20
0.0
 30
0.0
  3
*D6
  1

  0
LINE
  5
170
330
16F
100
AcDbEntity
  8
1
  6
Continuous
 62
     2
100
AcDbLine
 10
1393.623115795586
 20
2210.62157125636
 30
0.0
 11
635.6231157955913
 21
2210.62157125636
 31
0.0
  0
LINE
  5
171
330
16F
100
AcDbEntity
  8
1
  6
Continuous
 62
     2
100
AcDbLine
 10
635.6231157955913
 20
2100.12157125636
 30
0.0
 11
635.6231157955913
 21
2220.62157125636
 31
0.0
  0
LINE
  5
172
330
16F
100
AcDbEntity
  8
1
  6
Continuous
 62
     2
100
AcDbLine
 10
1393.623115795586
 20
2100.12157125636
 30
0.0
 11
1393.623115795586
 21
2220.62157125636
 31
0.0
  0
SOLID
  5
173
330
16F
100
AcDbEntity
  8
1
 62
     2
100
AcDbTrace
 10
1358.623115795586
 20
2206.013733840801
 30
0.0
 11
1358.623115795586
 21
2215.229408671919
 31
0.0
 12
1393.623115795586
 22
2210.62157125636
 32
0.0
 13
1393.623115795586
 23
2210.62157125636
 33
0.0
  0
SOLID
  5
174
330
16F
100
AcDbEntity
  8
1
 62
     2
100
AcDbTrace
 10
670.6231157955913
 20
2215.229408671919
 30
0.0
 11
670.6231157955913
 21
2206.013733840801
 31
0.0
 12
635.6231157955913
 22
2210.62157125636
 32
0.0
 13
635.6231157955913
 23
2210.62157125636
 33
0.0
  0
MTEXT
  5
175
330
16F
100
AcDbEntity
  8
1
 62
     7
100
AcDbMText
 10
972.623115795587
 20
2220.62157125636
 30
0.0
 40
35.0
 41
0.0
 71
     7
 72
     1
  1
758
  7
CONVERTER_12
 11
0.9999999999970619
 21
2.424068405545306E-6
 31
0.0
 73
     1
 44
0.60024009603842
  0
ENDBLK
  5
177
330
16F
100
AcDbEntity
  8
0
100
AcDbBlockEnd
  0
BLOCK
  5
181
330
17A
100
AcDbEntity
  8
0
100
AcDbBlockBegin
  2
*D7
 70
     1
 10
0.0
 20
0.0
 30
0.0
  3
*D7
  1

  0
LINE
  5
17B
330
17A
100
AcDbEntity
  8
1
  6
Continuous
 62
     2
100
AcDbLine
 10
1014.623115795587
 20
1370.621571256361
 30
0.0
 11
1291.618370795597
 21
1370.621571256361
 31
0.0
  0
LINE
  5
17C
330
17A
100
AcDbEntity
  8
1
  6
Continuous
 62
     2
100
AcDbLine
 10
1291.618370795597
 20
1440.621571256361
 30
0.0
 11
1291.618370795597
 21
1360.621571256361
 31
0.0
  0
LINE
  5
17D
330
17A
100
AcDbEntity
  8
1
  6
Continuous
 62
     2
100
AcDbLine
 10
1014.623115795587
 20
1440.621571256361
 30
0.0
 11
1014.623115795587
 21
1360.621571256361
 31
0.0
  0
SOLID
  5
17E
330
17A
100
AcDbEntity
  8
1
 62
     2
100
AcDbTrace
 10
1049.623115795587
 20
1375.22940867192
 30
0.0
 11
1049.623115795587
 21
1366.013733840802
 31
0.0
 12
1014.623115795587
 22
1370.621571256361
 32
0.0
 13
1014.623115795587
 23
1370.621571256361
 33
0.0
  0
SOLID
  5
17F
330
17A
100
AcDbEntity
  8
1
 62
     2
100
AcDbTrace
 10
1256.618370795597
 20
1366.013733840802
 30
0.0
 11
1256.618370795597
 21
1375.22940867192
 31
0.0
 12
1291.618370795597
 22
1370.621571256361
 32
0.0
 13
1291.618370795597
 23
1370.621571256361
 33
0.0
  0
MTEXT
  5
180
330
17A
100
AcDbEntity
  8
1
 62
     7
100
AcDbMText
 10
1111.120743295592
 20
1380.621571256361
 30
0.0
 40
35.0
 41
0.0
 71
     7
 72
     1
  1
277
  7
CONVERTER_12
 11
0.9999999999970619
 21
2.424068405545306E-6
 31
0.0
 73
     1
 44
0.60024009603842
  0
ENDBLK
  5
182
330
17A
100
AcDbEntity
  8
0
100
AcDbBlockEnd
  0
BLOCK
  5
18C
330
185
100
AcDbEntity
  8
0
100
AcDbBlockBegin
  2
*D8
 70
     1
 10
0.0
 20
0.0
 30
0.0
  3
*D8
  1

  0
LINE
  5
186
330
185
100
AcDbEntity
  8
1
  6
Continuous
 62
     2
100
AcDbLine
 10
1291.618370795597
 20
1370.621571256361
 30
0.0
 11
1414.623115795587
 21
1370.621571256361
 31
0.0
  0
LINE
  5
187
330
185
100
AcDbEntity
  8
1
  6
Continuous
 62
     2
100
AcDbLine
 10
1414.623115795587
 20
1485.621571256361
 30
0.0
 11
1414.623115795587
 21
1360.621571256361
 31
0.0
  0
LINE
  5
188
330
185
100
AcDbEntity
  8
1
  6
Continuous
 62
     2
100
AcDbLine
 10
1291.618370795597
 20
1440.621571256361
 30
0.0
 11
1291.618370795597
 21
1360.621571256361
 31
0.0
  0
SOLID
  5
189
330
185
100
AcDbEntity
  8
1
 62
     2
100
AcDbTrace
 10
1326.618370795597
 20
1375.22940867192
 30
0.0
 11
1326.618370795597
 21
1366.013733840802
 31
0.0
 12
1291.618370795597
 22
1370.621571256361
 32
0.0
 13
1291.618370795597
 23
1370.621571256361
 33
0.0
  0
SOLID
  5
18A
330
185
100
AcDbEntity
  8
1
 62
     2
100
AcDbTrace
 10
1379.623115795587
 20
1366.013733840802
 30
0.0
 11
1379.623115795587
 21
1375.22940867192
 31
0.0
 12
1414.623115795587
 22
1370.621571256361
 32
0.0
 13
1414.623115795587
 23
1370.621571256361
 33
0.0
  0
MTEXT
  5
18B
330
185
100
AcDbEntity
  8
1
 62
     7
100
AcDbMText
 10
1316.370743295593
 20
1380.621571256361
 30
0.0
 40
35.0
 41
0.0
 71
     7
 72
     1
  1
123
  7
CONVERTER_12
 11
0.9999999999970619
 21
2.424068405545306E-6
 31
0.0
 73
     1
 44
0.60024009603842
  0
ENDBLK
  5
18D
330
185
100
AcDbEntity
  8
0
100
AcDbBlockEnd
  0
BLOCK
  5
197
330
190
100
AcDbEntity
  8
0
100
AcDbBlockBegin
  2
*D9
 70
     1
 10
0.0
 20
0.0
 30
0.0
  3
*D9
  1

  0
LINE
  5
191
330
190
100
AcDbEntity
  8
1
  6
Continuous
 62
     2
100
AcDbLine
 10
1514.623115795588
 20
1593.62157125636
 30
0.0
 11
1514.623115795588
 21
1470.62157125636
 31
0.0
  0
LINE
  5
192
330
190
100
AcDbEntity
  8
1
  6
Continuous
 62
     2
100
AcDbLine
 10
1444.62311579559
 20
1593.62157125636
 30
0.0
 11
1524.623115795588
 21
1593.62157125636
 31
0.0
  0
LINE
  5
193
330
190
100
AcDbEntity
  8
1
  6
Continuous
 62
     2
100
AcDbLine
 10
1399.623115795587
 20
1470.62157125636
 30
0.0
 11
1524.623115795588
 21
1470.62157125636
 31
0.0
  0
SOLID
  5
194
330
190
100
AcDbEntity
  8
1
 62
     2
100
AcDbTrace
 10
1519.230953211147
 20
1558.62157125636
 30
0.0
 11
1510.015278380029
 21
1558.62157125636
 31
0.0
 12
1514.623115795588
 22
1593.62157125636
 32
0.0
 13
1514.623115795588
 23
1593.62157125636
 33
0.0
  0
SOLID
  5
195
330
190
100
AcDbEntity
  8
1
 62
     2
100
AcDbTrace
 10
1510.015278380029
 20
1505.62157125636
 30
0.0
 11
1519.230953211147
 21
1505.62157125636
 31
0.0
 12
1514.623115795588
 22
1470.62157125636
 32
0.0
 13
1514.623115795588
 23
1470.62157125636
 33
0.0
  0
MTEXT
  5
196
330
190
100
AcDbEntity
  8
1
 62
     7
100
AcDbMText
 10
1504.623115795588
 20
1495.37157125636
 30
0.0
 40
35.0
 41
0.0
 71
     7
 72
     1
  1
123
  7
CONVERTER_12
 11
0.0
 21
1.0
 31
0.0
 73
     1
 44
0.60024009603842
  0
ENDBLK
  5
198
330
190
100
AcDbEntity
  8
0
100
AcDbBlockEnd
  0
BLOCK
  5
1A2
330
19B
100
AcDbEntity
  8
0
100
AcDbBlockBegin
  2
*D10
 70
     1
 10
0.0
 20
0.0
 30
0.0
  3
*D10
  1

  0
LINE
  5
19C
330
19B
100
AcDbEntity
  8
1
  6
Continuous
 62
     2
100
AcDbLine
 10
1215.623115795587
 20
995.223099514938
 30
0.0
 11
1367.623115795586
 21
995.223099514938
 31
0.0
  0
LINE
  5
19D
330
19B
100
AcDbEntity
  8
1
  6
Continuous
 62
     2
100
AcDbLine
 10
1215.623115795587
 20
1099.223099514938
 30
0.0
 11
1215.623115795587
 21
985.223099514938
 31
0.0
  0
LINE
  5
19E
330
19B
100
AcDbEntity
  8
1
  6
Continuous
 62
     2
100
AcDbLine
 10
1367.623115795586
 20
1099.223099514938
 30
0.0
 11
1367.623115795586
 21
985.223099514938
 31
0.0
  0
SOLID
  5
19F
330
19B
100
AcDbEntity
  8
1
 62
     2
100
AcDbTrace
 10
1250.623115795587
 20
999.8309369304968
 30
0.0
 11
1250.623115795587
 21
990.6152620993792
 31
0.0
 12
1215.623115795587
 22
995.223099514938
 32
0.0
 13
1215.623115795587
 23
995.223099514938
 33
0.0
  0
SOLID
  5
1A0
330
19B
100
AcDbEntity
  8
1
 62
     2
100
AcDbTrace
 10
1332.623115795586
 20
990.6152620993792
 30
0.0
 11
1332.623115795586
 21
999.8309369304968
 31
0.0
 12
1367.623115795586
 22
995.223099514938
 32
0.0
 13
1367.623115795586
 23
995.223099514938
 33
0.0
  0
MTEXT
  5
1A1
330
19B
100
AcDbEntity
  8
1
 62
     7
100
AcDbMText
 10
1247.168370795681
 20
1005.223029944175
 30
0.0
 40
34.99999999999999
 41
0.0
 71
     7
 72
     1
  1
\C7;{\Fgdt;n}\C7;152
  7
CONVERTER_12
 11
0.9999999999970619
 21
2.424068405545306E-6
 31
0.0
 73
     1
 44
0.60024009603842
  0
ENDBLK
  5
1A3
330
19B
100
AcDbEntity
  8
0
100
AcDbBlockEnd
  0
BLOCK
  5
1AB
330
1A6
100
AcDbEntity
  8
0
100
AcDbBlockBegin
  2
*D11
 70
     1
 10
0.0
 20
0.0
 30
0.0
  3
*D11
  1

  0
LINE
  5
1A7
330
1A6
100
AcDbEntity
  8
1
  6
Continuous
 62
     2
100
AcDbLine
 10
1371.320265720869
 20
1514.109713230209
 30
0.0
 11
1129.587408320104
 21
1755.6138838903
 31
0.0
  0
SOLID
  5
1A8
330
1A6
100
AcDbEntity
  8
1
 62
     2
100
AcDbTrace
 10
1221.269498397408
 20
1657.505143392013
 30
0.0
 11
1227.782879986626
 21
1664.024692675985
 31
0.0
 12
1249.286635835437
 22
1636.027895536974
 32
0.0
 13
1249.286635835437
 23
1636.027895536974
 33
0.0
  0
SOLID
  5
1A9
330
1A6
100
AcDbEntity
  8
1
 62
     2
100
AcDbTrace
 10
1362.196733193767
 20
1529.737999120706
 30
0.0
 11
1355.683351604549
 21
1523.218449836735
 31
0.0
 12
1334.179595755737
 22
1551.215246975746
 32
0.0
 13
1334.179595755737
 23
1551.215246975746
 33
0.0
  0
MTEXT
  5
1AA
330
1A6
100
AcDbEntity
  8
1
 62
     7
100
AcDbMText
 10
1146.06409875804
 20
1753.288228668122
 30
0.0
 40
35.0
 41
0.0
 71
     7
 72
     1
  1
\C7;{\Fgdt;n}\C7;120
  7
CONVERTER_12
 11
0.707441332669167
 21
-0.706772071343565
 31
0.0
 73
     1
 44
0.60024009603842
  0
ENDBLK
  5
1AC
330
1A6
100
AcDbEntity
  8
0
100
AcDbBlockEnd
  0
BLOCK
  5
1B2
330
1AE
100
AcDbEntity
  8
0
100
AcDbBlockBegin
  2
*D12
 70
     1
 10
0.0
 20
0.0
 30
0.0
  3
*D12
  1

  0
LINE
  5
1AF
330
1AE
100
AcDbEntity
  8
1
  6
Continuous
 62
     2
100
AcDbLine
 10
1362.861691897992
 20
1577.198244503101
 30
0.0
 11
1086.995058886704
 21
1640.89483597912
 31
0.0
  0
SOLID
  5
1B0
330
1AE
100
AcDbEntity
  8
1
 62
     2
100
AcDbTrace
 10
1327.722292129693
 20
1580.582731106987
 30
0.0
 11
1329.795607732476
 21
1589.562153416031
 31
0.0
 12
1362.861691897992
 22
1577.198244503101
 32
0.0
 13
1362.861691897992
 23
1577.198244503101
 33
0.0
  0
MTEXT
  5
1B1
330
1AE
100
AcDbEntity
  8
1
 62
     7
100
AcDbMText
 10
1102.203871622246
 20
1647.646281392897
 30
0.0
 40
34.99999999999999
 41
0.0
 71
     7
 72
     1
  1
\C7;{\Fgdt;n}\C7;146
  7
CONVERTER_12
 11
0.9743640561973341
 21
-0.2249770788117711
 31
0.0
 73
     1
 44
0.60024009603842
  0
ENDBLK
  5
1B3
330
1AE
100
AcDbEntity
  8
0
100
AcDbBlockEnd
  0
ENDSEC
  0
SECTION
  2
ENTITIES
  0
INSERT
  5
4C
330
1F
100
AcDbEntity
  8
1
100
AcDbBlockReference
  2
開示A4
 10
0.0
 20
0.0
 30
0.0
 41
10.0
 42
10.0
 43
10.0
  0
LINE
  5
A6
330
1F
100
AcDbEntity
  8
1
  6
DASH_CENTER
 62
     2
100
AcDbLine
 10
1733.572348658513
 20
1593.62157125636
 30
0.0
 11
1601.038842573466
 21
1593.62157125636
 31
0.0
  0
LINE
  5
A7
330
1F
100
AcDbEntity
  8
1
  6
DASH_CENTER
 62
     2
100
AcDbLine
 10
1301.733115795601
 20
1790.62157125636
 30
0.0
 11
1444.623115795592
 21
1790.62157125636
 31
0.0
  0
LINE
  5
A8
330
1F
100
AcDbEntity
  8
1
  6
DASH_CENTER
 62
     2
100
AcDbLine
 10
1301.733115795587
 20
1790.62157125636
 30
0.0
 11
1301.733115795601
 21
1790.62157125636
 31
0.0
  0
LINE
  5
A9
330
1F
100
AcDbEntity
  8
実線
  6
Continuous
 62
     7
100
AcDbLine
 10
629.6231157955909
 20
2110.62157125636
 30
0.0
 11
1049.623115795587
 21
2110.62157125636
 31
0.0
  0
LINE
  5
AA
330
1F
100
AcDbEntity
  8
実線
  6
Continuous
 62
     7
100
AcDbLine
 10
1049.623115795587
 20
2110.62157125636
 30
0.0
 11
1399.623115795587
 21
2110.62157125636
 31
0.0
  0
LINE
  5
AB
330
1F
100
AcDbEntity
  8
実線
  6
Continuous
 62
     7
100
AcDbLine
 10
629.883895119776
 20
2102.36157125636
 30
0.0
 11
1049.623115795587
 21
2102.36157125636
 31
0.0
  0
LINE
  5
AC
330
1F
100
AcDbEntity
  8
実線
  6
Continuous
 62
     7
100
AcDbLine
 10
629.883895119776
 20
2105.361571256361
 30
0.0
 11
1049.623115795587
 21
2105.361571256361
 31
0.0
  0
LINE
  5
AD
330
1F
100
AcDbEntity
  8
実線
  6
Continuous
 62
     7
100
AcDbLine
 10
1049.623115795587
 20
2102.36157125636
 30
0.0
 11
1399.363115795587
 21
2102.36157125636
 31
0.0
  0
LINE
  5
AE
330
1F
100
AcDbEntity
  8
実線
  6
Continuous
 62
     7
100
AcDbLine
 10
1049.623115795587
 20
2105.361571256361
 30
0.0
 11
1399.363115795587
 21
2105.361571256361
 31
0.0
  0
LINE
  5
AF
330
1F
100
AcDbEntity
  8
実線
  6
Continuous
 62
     7
100
AcDbLine
 10
664.8023937232514
 20
2086.74157125636
 30
0.0
 11
1049.623115795587
 21
2086.74157125636
 31
0.0
  0
LINE
  5
B0
330
1F
100
AcDbEntity
  8
実線
  6
Continuous
 62
     7
100
AcDbLine
 10
1049.623115795587
 20
2086.74157125636
 30
0.0
 11
1364.443115795586
 21
2086.74157125636
 31
0.0
  0
LINE
  5
B1
330
1F
100
AcDbEntity
  8
実線
  6
Continuous
 62
     7
100
AcDbLine
 10
1414.623115795597
 20
2095.62157125636
 30
0.0
 11
1414.623115795587
 21
1485.62157125636
 31
0.0
  0
LINE
  5
B2
330
1F
100
AcDbEntity
  8
実線
  6
Continuous
 62
     7
100
AcDbLine
 10
1406.363115795586
 20
2095.361571256361
 30
0.0
 11
1406.363115795586
 21
1485.881571256361
 31
0.0
  0
LINE
  5
B3
330
1F
100
AcDbEntity
  8
実線
  6
Continuous
 62
     7
100
AcDbLine
 10
1409.363115795587
 20
2095.361571256361
 30
0.0
 11
1409.363115795587
 21
1485.881571256361
 31
0.0
  0
LINE
  5
B4
330
1F
100
AcDbEntity
  8
実線
  6
Continuous
 62
     7
100
AcDbLine
 10
1390.743115795586
 20
2060.441571256361
 30
0.0
 11
1390.743115795586
 21
1520.801571256361
 31
0.0
  0
LINE
  5
B5
330
1F
100
AcDbEntity
  8
実線
  6
Continuous
 62
     7
100
AcDbLine
 10
1399.623115795587
 20
1470.62157125636
 30
0.0
 11
1049.623115795587
 21
1470.62157125636
 31
0.0
  0
LINE
  5
B6
330
1F
100
AcDbEntity
  8
実線
  6
Continuous
 62
     7
100
AcDbLine
 10
1049.623115795587
 20
1470.62157125636
 30
0.0
 11
629.6231157955909
 21
1470.62157125636
 31
0.0
  0
LINE
  5
B7
330
1F
100
AcDbEntity
  8
実線
  6
Continuous
 62
     7
100
AcDbLine
 10
1399.363115795587
 20
1478.881571256361
 30
0.0
 11
1049.623115795587
 21
1478.881571256361
 31
0.0
  0
LINE
  5
B8
330
1F
100
AcDbEntity
  8
実線
  6
Continuous
 62
     7
100
AcDbLine
 10
1399.363115795587
 20
1475.881571256361
 30
0.0
 11
1049.623115795587
 21
1475.881571256361
 31
0.0
  0
LINE
  5
B9
330
1F
100
AcDbEntity
  8
実線
  6
Continuous
 62
     7
100
AcDbLine
 10
1049.623115795587
 20
1478.881571256361
 30
0.0
 11
629.883895119776
 21
1478.881571256359
 31
0.0
  0
LINE
  5
BA
330
1F
100
AcDbEntity
  8
実線
  6
Continuous
 62
     7
100
AcDbLine
 10
1049.623115795587
 20
1475.881571256361
 30
0.0
 11
629.883895119776
 21
1475.881571256361
 31
0.0
  0
LINE
  5
BB
330
1F
100
AcDbEntity
  8
実線
  6
Continuous
 62
     7
100
AcDbLine
 10
1364.443115795586
 20
1494.50157125636
 30
0.0
 11
1049.623115795587
 21
1494.50157125636
 31
0.0
  0
LINE
  5
BC
330
1F
100
AcDbEntity
  8
実線
  6
Continuous
 62
     7
100
AcDbLine
 10
1049.623115795587
 20
1494.50157125636
 30
0.0
 11
664.8023937232514
 21
1494.50157125636
 31
0.0
  0
LINE
  5
BD
330
1F
100
AcDbEntity
  8
実線
  6
Continuous
 62
     7
100
AcDbLine
 10
614.6231157955909
 20
1485.62157125636
 30
0.0
 11
614.6231157955909
 21
2095.62157125636
 31
0.0
  0
LINE
  5
BE
330
1F
100
AcDbEntity
  8
実線
  6
Continuous
 62
     7
100
AcDbLine
 10
622.8838951197766
 20
1485.881571256361
 30
0.0
 11
622.8838951197766
 21
2095.361571256361
 31
0.0
  0
LINE
  5
BF
330
1F
100
AcDbEntity
  8
実線
  6
Continuous
 62
     7
100
AcDbLine
 10
619.883895119776
 20
1485.881571256361
 30
0.0
 11
619.883895119776
 21
2095.361571256361
 31
0.0
  0
LINE
  5
C0
330
1F
100
AcDbEntity
  8
実線
  6
Continuous
 62
     7
100
AcDbLine
 10
622.8838951197766
 20
2082.12157125636
 30
0.0
 11
622.8838951197766
 21
1499.12157125636
 31
0.0
  0
LINE
  5
C1
330
1F
100
AcDbEntity
  8
実線
  6
Continuous
 62
     7
100
AcDbLine
 10
619.883895119776
 20
2082.12157125636
 30
0.0
 11
619.883895119776
 21
1499.12157125636
 31
0.0
  0
LINE
  5
C2
330
1F
100
AcDbEntity
  8
実線
  6
Continuous
 62
     7
100
AcDbLine
 10
1281.733115795581
 20
1785.621571256361
 30
0.0
 11
1281.733115795591
 21
1665.933396015523
 31
0.0
  0
LINE
  5
C3
330
1F
100
AcDbEntity
  8
実線
  6
Continuous
 62
     7
100
AcDbLine
 10
1281.733115795587
 20
1982.621571256361
 30
0.0
 11
1281.733115795603
 21
1795.621571256361
 31
0.0
  0
LINE
  5
C4
330
1F
100
AcDbEntity
  8
実線
  6
Continuous
 62
     7
100
AcDbLine
 10
1281.733115795597
 20
2062.945484680883
 30
0.0
 11
1281.733115795587
 21
1992.621571256361
 31
0.0
  0
LINE
  5
C5
330
1F
100
AcDbEntity
  8
実線
  6
Continuous
 62
     7
100
AcDbLine
 10
1301.733115795587
 20
1790.62157125636
 30
0.0
 11
1301.733115795587
 21
1665.933396015523
 31
0.0
  0
LINE
  5
C6
330
1F
100
AcDbEntity
  8
実線
  6
Continuous
 62
     7
100
AcDbLine
 10
1301.733115795587
 20
2062.945484680883
 30
0.0
 11
1301.733115795601
 21
1790.62157125636
 31
0.0
  0
LINE
  5
C7
330
1F
100
AcDbEntity
  8
実線
  6
Continuous
 62
     7
100
AcDbLine
 10
1049.623115795587
 20
1588.62157125636
 30
0.0
 11
1218.904549971456
 21
1588.62157125636
 31
0.0
  0
LINE
  5
C8
330
1F
100
AcDbEntity
  8
実線
  6
Continuous
 62
     7
100
AcDbLine
 10
1049.623115795587
 20
1992.621571256361
 30
0.0
 11
650.1058445868144
 21
1992.621571256361
 31
0.0
  0
LINE
  5
C9
330
1F
100
AcDbEntity
  8
実線
  6
Continuous
 62
     7
100
AcDbLine
 10
1049.733115795586
 20
1598.62157125636
 30
0.0
 11
1218.904549971456
 21
1598.62157125636
 31
0.0
  0
LINE
  5
CA
330
1F
100
AcDbEntity
  8
実線
  6
Continuous
 62
     7
100
AcDbLine
 10
1049.623115795587
 20
1982.621571256361
 30
0.0
 11
650.1058445868144
 21
1982.621571256361
 31
0.0
  0
LINE
  5
CB
330
1F
100
AcDbEntity
  8
実線
  6
Continuous
 62
     7
100
AcDbLine
 10
1281.733115795581
 20
1795.62157125636
 30
0.0
 11
650.1058445868146
 21
1795.62157125636
 31
0.0
  0
LINE
  5
CC
330
1F
100
AcDbEntity
  8
実線
  6
Continuous
 62
     7
100
AcDbLine
 10
1281.733115795603
 20
1785.62157125636
 30
0.0
 11
650.1058445868146
 21
1785.62157125636
 31
0.0
  0
LINE
  5
CD
330
1F
100
AcDbEntity
  8
実線
  6
Continuous
 62
     7
100
AcDbLine
 10
1049.623115795587
 20
1982.621571256361
 30
0.0
 11
1281.623115795596
 21
1982.621571256361
 31
0.0
  0
LINE
  5
CE
330
1F
100
AcDbEntity
  8
実線
  6
Continuous
 62
     7
100
AcDbLine
 10
1049.623115795587
 20
1598.62157125636
 30
0.0
 11
650.1058445868144
 21
1598.62157125636
 31
0.0
  0
LINE
  5
CF
330
1F
100
AcDbEntity
  8
実線
  6
Continuous
 62
     7
100
AcDbLine
 10
1049.623115795587
 20
1992.621571256361
 30
0.0
 11
1281.623115795596
 21
1992.621571256361
 31
0.0
  0
LINE
  5
D0
330
1F
100
AcDbEntity
  8
実線
  6
Continuous
 62
     7
100
AcDbLine
 10
1049.623115795587
 20
1588.62157125636
 30
0.0
 11
650.1058445868144
 21
1588.62157125636
 31
0.0
  0
LINE
  5
D1
330
1F
100
AcDbEntity
  8
実線
  6
Continuous
 62
     7
100
AcDbLine
 10
622.8838951197766
 20
1485.881571256361
 30
0.0
 11
622.8838951197766
 21
1511.036875771867
 31
0.0
  0
LINE
  5
D2
330
1F
100
AcDbEntity
  8
実線
  6
Continuous
 62
     7
100
AcDbLine
 10
619.883895119776
 20
1485.881571256361
 30
0.0
 11
619.883895119776
 21
1511.036875771867
 31
0.0
  0
LINE
  5
D3
330
1F
100
AcDbEntity
  8
実線
  6
Continuous
 62
     7
100
AcDbLine
 10
638.5023937232514
 20
1520.801571256359
 30
0.0
 11
638.5023937232514
 21
2060.441571256361
 31
0.0
  0
LINE
  5
D4
330
1F
100
AcDbEntity
  8
寸法線
  6
Continuous
 62
     7
100
AcDbLine
 10
629.6231157955909
 20
2110.62157125636
 30
0.0
 11
1399.623115795587
 21
2110.62157125636
 31
0.0
  0
LINE
  5
D5
330
1F
100
AcDbEntity
  8
実線
  6
Continuous
 62
     7
100
AcDbLine
 10
1694.038842573467
 20
2110.62157125636
 30
0.0
 11
1694.038842573467
 21
1470.881978521763
 31
0.0
  0
LINE
  5
D6
330
1F
100
AcDbEntity
  8
実線
  6
Continuous
 62
     7
100
AcDbLine
 10
1633.789706133907
 20
2105.37157125636
 30
0.0
 11
1694.038842573467
 21
2110.62157125636
 31
0.0
  0
LINE
  5
D7
330
1F
100
AcDbEntity
  8
実線
  6
Continuous
 62
     7
100
AcDbLine
 10
1631.038842573466
 20
2088.131969901061
 30
0.0
 11
1631.038842573466
 21
1478.892377166462
 31
0.0
  0
LINE
  5
D8
330
1F
100
AcDbEntity
  8
実線
  6
Continuous
 62
     7
100
AcDbLine
 10
1633.789706133907
 20
1475.902739891727
 30
0.0
 11
1694.038842573467
 21
1470.881978521763
 31
0.0
  0
LINE
  5
D9
330
1F
100
AcDbEntity
  8
実線
  6
Continuous
 62
     7
100
AcDbLine
 10
1392.133514440287
 20
1167.756605599984
 30
0.0
 11
637.1127171508928
 21
1167.756605599984
 31
0.0
  0
LINE
  5
DA
330
1F
100
AcDbEntity
  8
実線
  6
Continuous
 62
     7
100
AcDbLine
 10
1406.383478520856
 20
1167.756605599984
 30
0.0
 11
1392.133514440287
 21
1167.756605599984
 31
0.0
  0
LINE
  5
DB
330
1F
100
AcDbEntity
  8
実線
  6
Continuous
 62
     7
100
AcDbLine
 10
1409.373115795587
 20
1165.005742039545
 30
0.0
 11
1414.623115795587
 21
1104.756605599984
 31
0.0
  0
LINE
  5
DC
330
1F
100
AcDbEntity
  8
実線
  6
Continuous
 62
     7
100
AcDbLine
 10
637.1127171508928
 20
1167.756605599984
 30
0.0
 11
622.8627530703246
 21
1167.756605599984
 31
0.0
  0
LINE
  5
DD
330
1F
100
AcDbEntity
  8
実線
  6
Continuous
 62
     7
100
AcDbLine
 10
619.8731157955907
 20
1165.005742039545
 30
0.0
 11
614.6231157955909
 21
1104.756605599984
 31
0.0
  0
LINE
  5
DE
330
1F
100
AcDbEntity
  8
寸法線
  6
Continuous
 62
     7
100
AcDbLine
 10
1215.623115795587
 20
1099.223099514938
 30
0.0
 11
1215.623115795587
 21
1104.756605599984
 31
0.0
  0
LINE
  5
DF
330
1F
100
AcDbEntity
  8
実線
  6
Continuous
 62
     7
100
AcDbLine
 10
1364.140387004366
 20
2075.13884246514
 30
0.0
 11
665.1058445868144
 21
2075.13884246514
 31
0.0
  0
LINE
  5
E0
330
1F
100
AcDbEntity
  8
実線
  6
Continuous
 62
     7
100
AcDbLine
 10
1364.140387004366
 20
1505.482642929595
 30
0.0
 11
665.1058445868144
 21
1505.482642929595
 31
0.0
  0
LINE
  5
E1
330
1F
100
AcDbEntity
  8
実線
  6
Continuous
 62
     7
100
AcDbLine
 10
1364.123115795587
 20
1500.49991413837
 30
0.0
 11
665.1231157955905
 21
1500.49991413837
 31
0.0
  0
LINE
  5
E2
330
1F
100
AcDbEntity
  8
実線
  6
Continuous
 62
     7
100
AcDbLine
 10
1364.123115795587
 20
2080.121571256361
 30
0.0
 11
665.1231157955905
 21
2080.121571256361
 31
0.0
  0
LINE
  5
E3
330
1F
100
AcDbEntity
  8
寸法線
  6
Continuous
 62
     7
100
AcDbLine
 10
1384.123115795587
 20
1520.499914138371
 30
0.0
 11
1384.123115795587
 21
2060.121571256361
 31
0.0
  0
LINE
  5
E4
330
1F
100
AcDbEntity
  8
寸法線
  6
Continuous
 62
     7
100
AcDbLine
 10
1379.140387004366
 20
1520.482642929595
 30
0.0
 11
1379.140387004366
 21
2060.13884246514
 31
0.0
  0
LINE
  5
E5
330
1F
100
AcDbEntity
  8
寸法線
  6
Continuous
 62
     7
100
AcDbLine
 10
645.1231157955905
 20
1520.499914138371
 30
0.0
 11
645.1231157955905
 21
2060.121571256361
 31
0.0
  0
LINE
  5
E6
330
1F
100
AcDbEntity
  8
寸法線
  6
Continuous
 62
     7
100
AcDbLine
 10
650.1058445868144
 20
1520.482642929595
 30
0.0
 11
650.1058445868144
 21
1588.62157125636
 31
0.0
  0
LINE
  5
E7
330
1F
100
AcDbEntity
  8
寸法線
  6
Continuous
 62
     7
100
AcDbLine
 10
614.6231157955909
 20
1104.756605599984
 30
0.0
 11
1414.623115795587
 21
1104.756605599984
 31
0.0
  0
LINE
  5
E8
330
1F
100
AcDbEntity
  8
実線
  6
Continuous
 62
     7
100
AcDbLine
 10
1219.623115795587
 20
1095.223099514938
 30
0.0
 11
1363.623115795586
 21
1095.223099514938
 31
0.0
  0
LINE
  5
E9
330
1F
100
AcDbEntity
  8
実線
  6
Continuous
 62
     7
100
AcDbLine
 10
1631.038842573466
 20
2102.381933981631
 30
0.0
 11
1631.038842573466
 21
2088.131969901061
 31
0.0
  0
LINE
  5
EA
330
1F
100
AcDbEntity
  8
寸法線
  6
Continuous
 62
     7
100
AcDbLine
 10
1367.623115795586
 20
1099.223099514938
 30
0.0
 11
1367.623115795586
 21
1104.756605599984
 31
0.0
  0
LINE
  5
EB
330
1F
100
AcDbEntity
  8
1
  6
DASH_CENTER
 62
     2
100
AcDbLine
 10
1014.623115795587
 20
1197.756605599984
 30
0.0
 11
1014.623115795587
 21
1074.756605599984
 31
0.0
  0
LINE
  5
EC
330
1F
100
AcDbEntity
  8
1
  6
DASH_CENTER
 62
     2
100
AcDbLine
 10
1291.618370795597
 20
1065.223099514938
 30
0.0
 11
1291.618370795597
 21
1197.756605599984
 31
0.0
  0
LINE
  5
ED
330
1F
100
AcDbEntity
  8
1
  6
DASH_CENTER
 62
     2
100
AcDbLine
 10
1014.623115795587
 20
1440.621571256361
 30
0.0
 11
1014.623115795587
 21
2140.62157125636
 31
0.0
  0
LINE
  5
EE
330
1F
100
AcDbEntity
  8
1
  6
DASH_CENTER
 62
     2
100
AcDbLine
 10
584.623115795591
 20
1790.62157125636
 30
0.0
 11
1301.733115795587
 21
1790.62157125636
 31
0.0
  0
LINE
  5
EF
330
1F
100
AcDbEntity
  8
1
  6
DASH_CENTER
 62
     2
100
AcDbLine
 10
1601.038842573466
 20
1790.62157125636
 30
0.0
 11
1724.038842573467
 21
1790.62157125636
 31
0.0
  0
LINE
  5
F0
330
1F
100
AcDbEntity
  8
1
  6
DASH_CENTER
 62
     2
100
AcDbLine
 10
1444.623115795595
 20
1987.621571256361
 30
0.0
 11
584.623115795591
 21
1987.621571256361
 31
0.0
  0
LINE
  5
F1
330
1F
100
AcDbEntity
  8
1
  6
DASH_CENTER
 62
     2
100
AcDbLine
 10
584.623115795591
 20
1593.62157125636
 30
0.0
 11
1444.623115795589
 21
1593.62157125636
 31
0.0
  0
LINE
  5
F2
330
1F
100
AcDbEntity
  8
1
  6
DASH_CENTER
 62
     2
100
AcDbLine
 10
646.1231157955918
 20
2089.62157125636
 30
0.0
 11
625.1231157955916
 21
2089.62157125636
 31
0.0
  0
LINE
  5
F3
330
1F
100
AcDbEntity
  8
1
  6
DASH_CENTER
 62
     2
100
AcDbLine
 10
635.6231157955912
 20
2079.12157125636
 30
0.0
 11
635.6231157955912
 21
2100.121571256361
 31
0.0
  0
LINE
  5
F4
330
1F
100
AcDbEntity
  8
1
  6
DASH_CENTER
 62
     2
100
AcDbLine
 10
1383.123115795587
 20
2089.62157125636
 30
0.0
 11
1404.123115795587
 21
2089.62157125636
 31
0.0
  0
LINE
  5
F5
330
1F
100
AcDbEntity
  8
1
  6
DASH_CENTER
 62
     2
100
AcDbLine
 10
1393.623115795586
 20
2079.12157125636
 30
0.0
 11
1393.623115795586
 21
2100.121571256361
 31
0.0
  0
LINE
  5
F6
330
1F
100
AcDbEntity
  8
1
  6
DASH_CENTER
 62
     2
100
AcDbLine
 10
625.1231157955916
 20
1491.621571256359
 30
0.0
 11
646.1231157955918
 21
1491.621571256359
 31
0.0
  0
LINE
  5
F7
330
1F
100
AcDbEntity
  8
1
  6
DASH_CENTER
 62
     2
100
AcDbLine
 10
635.6231157955912
 20
1481.121571256359
 30
0.0
 11
635.6231157955912
 21
1502.121571256359
 31
0.0
  0
LINE
  5
F8
330
1F
100
AcDbEntity
  8
1
  6
DASH_CENTER
 62
     2
100
AcDbLine
 10
1383.023115795587
 20
1491.621571256359
 30
0.0
 11
1404.223115795587
 21
1491.621571256359
 31
0.0
  0
LINE
  5
F9
330
1F
100
AcDbEntity
  8
1
  6
DASH_CENTER
 62
     2
100
AcDbLine
 10
1393.623115795586
 20
1481.02157125636
 30
0.0
 11
1393.623115795586
 21
1502.221571256359
 31
0.0
  0
LINE
  5
FA
330
1F
100
AcDbEntity
  8
1
  6
DASH_CENTER
 62
     2
100
AcDbLine
 10
1291.618370795597
 20
1440.621571256361
 30
0.0
 11
1291.618370795597
 21
2140.62157125636
 31
0.0
  0
LINE
  5
FB
330
1F
100
AcDbEntity
  8
寸法線
  6
Continuous
 62
     7
100
AcDbLine
 10
650.1058445868144
 20
1992.621571256361
 30
0.0
 11
650.1058445868144
 21
2060.13884246514
 31
0.0
  0
LINE
  5
FC
330
1F
100
AcDbEntity
  8
寸法線
  6
Continuous
 62
     7
100
AcDbLine
 10
650.1058445868144
 20
1982.621571256361
 30
0.0
 11
650.1058445868144
 21
1992.621571256361
 31
0.0
  0
LINE
  5
FD
330
1F
100
AcDbEntity
  8
寸法線
  6
Continuous
 62
     7
100
AcDbLine
 10
650.1058445868146
 20
1785.62157125636
 30
0.0
 11
650.1058445868146
 21
1795.62157125636
 31
0.0
  0
LINE
  5
FE
330
1F
100
AcDbEntity
  8
寸法線
  6
Continuous
 62
     7
100
AcDbLine
 10
650.1058445868144
 20
1598.62157125636
 30
0.0
 11
650.1058445868146
 21
1785.62157125636
 31
0.0
  0
LINE
  5
FF
330
1F
100
AcDbEntity
  8
寸法線
  6
Continuous
 62
     7
100
AcDbLine
 10
650.1058445868144
 20
1588.62157125636
 30
0.0
 11
650.1058445868144
 21
1598.62157125636
 31
0.0
  0
LINE
  5
100
330
1F
100
AcDbEntity
  8
寸法線
  6
Continuous
 62
     7
100
AcDbLine
 10
650.1058445868146
 20
1795.62157125636
 30
0.0
 11
650.1058445868144
 21
1982.621571256361
 31
0.0
  0
LINE
  5
101
330
1F
100
AcDbEntity
  8
寸法線
  6
Continuous
 62
     7
100
AcDbLine
 10
1699.572348658512
 20
1669.62631625635
 30
0.0
 11
1694.038842573466
 21
1669.62631625635
 31
0.0
  0
LINE
  5
102
330
1F
100
AcDbEntity
  8
実線
  6
Continuous
 62
     7
100
AcDbLine
 10
1703.572348658513
 20
1521.62631625635
 30
0.0
 11
1703.572348658513
 21
1665.62631625635
 31
0.0
  0
LINE
  5
103
330
1F
100
AcDbEntity
  8
寸法線
  6
Continuous
 62
     7
100
AcDbLine
 10
1699.572348658512
 20
1517.62631625635
 30
0.0
 11
1694.038842573466
 21
1517.62631625635
 31
0.0
  0
ARC
  5
104
330
1F
100
AcDbEntity
  8
実線
  6
Continuous
 62
     7
100
AcDbCircle
 10
1291.733115795587
 20
1593.62157125636
 30
0.0
 40
72.99999999999916
100
AcDbArc
 50
82.12650620174426
 51
97.87349379825275
  0
ARC
  5
105
330
1F
100
AcDbEntity
  8
寸法線
  6
Continuous
 62
     7
100
AcDbCircle
 10
1699.572348658512
 20
1665.62631625635
 30
0.0
 40
4.000000000000909
100
AcDbArc
 50
0.0
 51
90.0
  0
ARC
  5
106
330
1F
100
AcDbEntity
  8
実線
  6
Continuous
 62
     7
100
AcDbCircle
 10
1291.733115795587
 20
1593.62157125636
 30
0.0
 40
72.99999999999886
100
AcDbArc
 50
0.0
 51
82.12650620174426
  0
ARC
  5
107
330
1F
100
AcDbEntity
  8
実線
  6
Continuous
 62
     7
100
AcDbCircle
 10
1291.733115795587
 20
1593.62157125636
 30
0.0
 40
72.99999999999864
100
AcDbArc
 50
97.87349379825275
 51
176.0725566384323
  0
ARC
  5
108
330
1F
100
AcDbEntity
  8
実線
  6
Continuous
 62
     7
100
AcDbCircle
 10
1291.733115795587
 20
1593.62157125636
 30
0.0
 40
72.99999999999865
100
AcDbArc
 50
183.9274433615677
 51
0.0
  0
ARC
  5
109
330
1F
100
AcDbEntity
  8
実線
  6
Continuous
 62
     7
100
AcDbCircle
 10
1291.733115795587
 20
1593.62157125636
 30
0.0
 40
72.99999999999865
100
AcDbArc
 50
176.0725566384323
 51
183.9274433615677
  0
ARC
  5
10A
330
1F
100
AcDbEntity
  8
実線
  6
Continuous
 62
     7
100
AcDbCircle
 10
629.6231157955909
 20
2095.62157125636
 30
0.0
 40
15.0
100
AcDbArc
 50
90.0
 51
180.0
  0
ARC
  5
10B
330
1F
100
AcDbEntity
  8
実線
  6
Continuous
 62
     7
100
AcDbCircle
 10
664.8023937232514
 20
2060.441571256361
 30
0.0
 40
26.29999999999927
100
AcDbArc
 50
90.0
 51
180.0
  0
ARC
  5
10C
330
1F
100
AcDbEntity
  8
実線
  6
Continuous
 62
     7
100
AcDbCircle
 10
629.883895119776
 20
2095.361571256361
 30
0.0
 40
6.999999999999091
100
AcDbArc
 50
90.0
 51
180.0
  0
ARC
  5
10D
330
1F
100
AcDbEntity
  8
実線
  6
Continuous
 62
     7
100
AcDbCircle
 10
629.883895119776
 20
2095.361571256361
 30
0.0
 40
10.0
100
AcDbArc
 50
90.0
 51
180.0
  0
ARC
  5
10E
330
1F
100
AcDbEntity
  8
実線
  6
Continuous
 62
     7
100
AcDbCircle
 10
1399.623115795587
 20
1485.62157125636
 30
0.0
 40
15.0
100
AcDbArc
 50
270.0
 51
0.0
  0
ARC
  5
10F
330
1F
100
AcDbEntity
  8
実線
  6
Continuous
 62
     7
100
AcDbCircle
 10
1399.623115795587
 20
2095.62157125636
 30
0.0
 40
15.00000000001
100
AcDbArc
 50
0.0
 51
90.0
  0
ARC
  5
110
330
1F
100
AcDbEntity
  8
実線
  6
Continuous
 62
     7
100
AcDbCircle
 10
1364.443115795586
 20
1520.801571256361
 30
0.0
 40
26.30000000000109
100
AcDbArc
 50
270.0
 51
0.0
  0
ARC
  5
111
330
1F
100
AcDbEntity
  8
実線
  6
Continuous
 62
     7
100
AcDbCircle
 10
1364.443115795586
 20
2060.441571256361
 30
0.0
 40
26.29999999999995
100
AcDbArc
 50
0.0
 51
90.0
  0
ARC
  5
112
330
1F
100
AcDbEntity
  8
実線
  6
Continuous
 62
     7
100
AcDbCircle
 10
1399.363115795587
 20
2095.361571256361
 30
0.0
 40
6.999999999999091
100
AcDbArc
 50
0.0
 51
90.0
  0
ARC
  5
113
330
1F
100
AcDbEntity
  8
実線
  6
Continuous
 62
     7
100
AcDbCircle
 10
1399.363115795587
 20
2095.361571256361
 30
0.0
 40
10.0
100
AcDbArc
 50
0.0
 51
90.0
  0
ARC
  5
114
330
1F
100
AcDbEntity
  8
実線
  6
Continuous
 62
     7
100
AcDbCircle
 10
1399.363115795587
 20
1485.881571256361
 30
0.0
 40
7.0
100
AcDbArc
 50
270.0
 51
0.0
  0
ARC
  5
115
330
1F
100
AcDbEntity
  8
実線
  6
Continuous
 62
     7
100
AcDbCircle
 10
1399.363115795587
 20
1485.881571256361
 30
0.0
 40
10.0
100
AcDbArc
 50
270.0
 51
0.0
  0
ARC
  5
116
330
1F
100
AcDbEntity
  8
実線
  6
Continuous
 62
     7
100
AcDbCircle
 10
629.6231157955909
 20
1485.62157125636
 30
0.0
 40
15.0
100
AcDbArc
 50
180.0
 51
270.0
  0
ARC
  5
117
330
1F
100
AcDbEntity
  8
実線
  6
Continuous
 62
     7
100
AcDbCircle
 10
664.8023937232514
 20
1520.801571256359
 30
0.0
 40
26.29999999999995
100
AcDbArc
 50
180.0
 51
270.0
  0
ARC
  5
118
330
1F
100
AcDbEntity
  8
実線
  6
Continuous
 62
     7
100
AcDbCircle
 10
629.883895119776
 20
1485.881571256361
 30
0.0
 40
6.999999999999318
100
AcDbArc
 50
180.0
 51
270.0
  0
ARC
  5
119
330
1F
100
AcDbEntity
  8
実線
  6
Continuous
 62
     7
100
AcDbCircle
 10
629.883895119776
 20
1485.881571256361
 30
0.0
 40
10.0
100
AcDbArc
 50
180.0
 51
270.0
  0
ARC
  5
11A
330
1F
100
AcDbEntity
  8
実線
  6
Continuous
 62
     7
100
AcDbCircle
 10
1634.038842573467
 20
2102.381933981631
 30
0.0
 40
2.999999999994205
100
AcDbArc
 50
94.7636416907132
 51
180.0
  0
ARC
  5
11B
330
1F
100
AcDbEntity
  8
実線
  6
Continuous
 62
     7
100
AcDbCircle
 10
1634.038842573467
 20
1478.892377166462
 30
0.0
 40
3.000000000001137
100
AcDbArc
 50
180.0
 51
265.2363583092966
  0
ARC
  5
11C
330
1F
100
AcDbEntity
  8
実線
  6
Continuous
 62
     7
100
AcDbCircle
 10
1406.383478520856
 20
1164.756605599984
 30
0.0
 40
2.999999999996339
100
AcDbArc
 50
4.76364169073159
 51
90.0
  0
ARC
  5
11D
330
1F
100
AcDbEntity
  8
実線
  6
Continuous
 62
     7
100
AcDbCircle
 10
622.8627530703246
 20
1164.756605599984
 30
0.0
 40
3.0
100
AcDbArc
 50
90.0
 51
175.2363583092731
  0
ARC
  5
11E
330
1F
100
AcDbEntity
  8
寸法線
  6
Continuous
 62
     7
100
AcDbCircle
 10
1219.623115795587
 20
1099.223099514938
 30
0.0
 40
4.0
100
AcDbArc
 50
180.0
 51
270.0
  0
ARC
  5
11F
330
1F
100
AcDbEntity
  8
寸法線
  6
Continuous
 62
     7
100
AcDbCircle
 10
1363.623115795586
 20
1099.223099514938
 30
0.0
 40
4.0
100
AcDbArc
 50
270.0
 51
0.0
  0
ARC
  5
120
330
1F
100
AcDbEntity
  8
寸法線
  6
Continuous
 62
     7
100
AcDbCircle
 10
1364.123115795587
 20
2060.121571256361
 30
0.0
 40
20.0
100
AcDbArc
 50
0.0
 51
90.0
  0
ARC
  5
121
330
1F
100
AcDbEntity
  8
寸法線
  6
Continuous
 62
     7
100
AcDbCircle
 10
665.1231157955905
 20
2060.121571256361
 30
0.0
 40
20.0
100
AcDbArc
 50
90.0
 51
180.0
  0
ARC
  5
122
330
1F
100
AcDbEntity
  8
寸法線
  6
Continuous
 62
     7
100
AcDbCircle
 10
665.1231157955905
 20
1520.499914138371
 30
0.0
 40
20.0
100
AcDbArc
 50
180.0
 51
270.0
  0
ARC
  5
123
330
1F
100
AcDbEntity
  8
寸法線
  6
Continuous
 62
     7
100
AcDbCircle
 10
1364.123115795587
 20
1520.499914138371
 30
0.0
 40
20.00000000000091
100
AcDbArc
 50
270.0
 51
0.0
  0
ARC
  5
124
330
1F
100
AcDbEntity
  8
寸法線
  6
Continuous
 62
     7
100
AcDbCircle
 10
1364.140387004366
 20
2060.13884246514
 30
0.0
 40
15.0
100
AcDbArc
 50
0.0
 51
90.0
  0
ARC
  5
125
330
1F
100
AcDbEntity
  8
寸法線
  6
Continuous
 62
     7
100
AcDbCircle
 10
1364.140387004366
 20
1520.482642929595
 30
0.0
 40
15.0
100
AcDbArc
 50
270.0
 51
0.0
  0
ARC
  5
126
330
1F
100
AcDbEntity
  8
寸法線
  6
Continuous
 62
     7
100
AcDbCircle
 10
665.1058445868144
 20
1520.482642929595
 30
0.0
 40
15.0
100
AcDbArc
 50
180.0
 51
270.0
  0
ARC
  5
127
330
1F
100
AcDbEntity
  8
寸法線
  6
Continuous
 62
     7
100
AcDbCircle
 10
665.1058445868144
 20
2060.13884246514
 30
0.0
 40
15.0
100
AcDbArc
 50
90.0
 51
180.0
  0
ARC
  5
128
330
1F
100
AcDbEntity
  8
寸法線
  6
Continuous
 62
     7
100
AcDbCircle
 10
1699.572348658512
 20
1521.62631625635
 30
0.0
 40
4.0
100
AcDbArc
 50
270.0
 51
0.0
  0
CIRCLE
  5
129
330
1F
100
AcDbEntity
  8
実線
  6
Continuous
 62
     7
100
AcDbCircle
 10
1393.623115795586
 20
1491.621571256359
 30
0.0
 40
7.599999999999909
  0
CIRCLE
  5
12A
330
1F
100
AcDbEntity
  8
実線
  6
Continuous
 62
     7
100
AcDbCircle
 10
1393.623115795586
 20
1491.621571256359
 30
0.0
 40
6.900000000001
  0
CIRCLE
  5
12B
330
1F
100
AcDbEntity
  8
実線
  6
Continuous
 62
     7
100
AcDbCircle
 10
1393.623115795586
 20
1491.621571256359
 30
0.0
 40
5.0
  0
CIRCLE
  5
12C
330
1F
100
AcDbEntity
  8
実線
  6
Continuous
 62
     7
100
AcDbCircle
 10
1393.623115795586
 20
1491.621571256359
 30
0.0
 40
2.5
  0
CIRCLE
  5
12D
330
1F
100
AcDbEntity
  8
実線
  6
Continuous
 62
     7
100
AcDbCircle
 10
1393.623115795586
 20
2089.62157125636
 30
0.0
 40
7.5
  0
CIRCLE
  5
12E
330
1F
100
AcDbEntity
  8
実線
  6
Continuous
 62
     7
100
AcDbCircle
 10
1393.623115795586
 20
2089.62157125636
 30
0.0
 40
6.900000000001
  0
CIRCLE
  5
12F
330
1F
100
AcDbEntity
  8
実線
  6
Continuous
 62
     7
100
AcDbCircle
 10
1393.623115795586
 20
2089.62157125636
 30
0.0
 40
5.0
  0
CIRCLE
  5
130
330
1F
100
AcDbEntity
  8
実線
  6
Continuous
 62
     7
100
AcDbCircle
 10
1393.623115795586
 20
2089.62157125636
 30
0.0
 40
2.5
  0
CIRCLE
  5
131
330
1F
100
AcDbEntity
  8
実線
  6
Continuous
 62
     7
100
AcDbCircle
 10
635.6231157955912
 20
2089.62157125636
 30
0.0
 40
7.5
  0
CIRCLE
  5
132
330
1F
100
AcDbEntity
  8
実線
  6
Continuous
 62
     7
100
AcDbCircle
 10
635.6231157955912
 20
2089.62157125636
 30
0.0
 40
6.900000000000546
  0
CIRCLE
  5
133
330
1F
100
AcDbEntity
  8
実線
  6
Continuous
 62
     7
100
AcDbCircle
 10
635.6231157955912
 20
2089.62157125636
 30
0.0
 40
5.0
  0
CIRCLE
  5
134
330
1F
100
AcDbEntity
  8
実線
  6
Continuous
 62
     7
100
AcDbCircle
 10
635.6231157955912
 20
2089.62157125636
 30
0.0
 40
2.5
  0
CIRCLE
  5
135
330
1F
100
AcDbEntity
  8
実線
  6
Continuous
 62
     7
100
AcDbCircle
 10
635.6231157955912
 20
1491.621571256359
 30
0.0
 40
7.5
  0
CIRCLE
  5
136
330
1F
100
AcDbEntity
  8
実線
  6
Continuous
 62
     7
100
AcDbCircle
 10
635.6231157955912
 20
1491.621571256359
 30
0.0
 40
6.899999999999409
  0
CIRCLE
  5
137
330
1F
100
AcDbEntity
  8
実線
  6
Continuous
 62
     7
100
AcDbCircle
 10
635.6231157955912
 20
1491.621571256359
 30
0.0
 40
5.0
  0
CIRCLE
  5
138
330
1F
100
AcDbEntity
  8
実線
  6
Continuous
 62
     7
100
AcDbCircle
 10
635.6231157955912
 20
1491.621571256359
 30
0.0
 40
2.5
  0
CIRCLE
  5
139
330
1F
100
AcDbEntity
  8
実線
  6
Continuous
 62
     7
100
AcDbCircle
 10
1291.733115795587
 20
1593.62157125636
 30
0.0
 40
60.0
  0
SOLID
  5
13A
330
1F
100
AcDbEntity
  8
1
 62
     2
100
AcDbTrace
 10
1255.728522084627
 20
1606.608663914891
 30
0.0
 11
1253.661860342072
 21
1597.627707850264
 31
0.0
 12
1220.586624231303
 22
1609.967113097887
 32
0.0
 13
1220.586624231303
 23
1609.967113097887
 33
0.0
  0
LEADER
  5
13B
330
1F
100
AcDbEntity
  8
1
  6
Continuous
 62
     2
100
AcDbLeader
  3
Standard
 71
     0
 76
     2
 10
1220.586624231303
 20
1609.967113097887
 30
0.0
 10
1291.618370795597
 20
1593.62157125636
 30
0.0
  0
MTEXT
  5
13D
330
1F
100
AcDbEntity
  8
1
 62
     7
100
AcDbMText
 10
570.0
 20
142.5
 30
0.0
 40
35.0
 41
0.0
 71
     5
 72
     1
  1
H541-800R
  7
CONVERTER_12
 73
     1
 44
0.7202881152461
  0
MTEXT
  5
13E
330
1F
100
AcDbEntity
  8
1
 62
     7
100
AcDbMText
 10
570.0
 20
227.5000000000001
 30
0.0
 40
35.0
 41
0.0
 71
     5
 72
     1
  1
洗濯機パン
  7
CONVERTER_11
 73
     1
 44
0.54545454545455
  0
MTEXT
  5
13F
330
1F
100
AcDbEntity
  8
1
 62
     7
100
AcDbMText
 10
852.5
 20
170.0
 30
0.0
 40
35.0
 41
0.0
 71
     5
 72
     1
  1
1
  7
CONVERTER_12
 73
     1
 44
0.7202881152461
  0
MTEXT
  5
140
330
1F
100
AcDbEntity
  8
1
 62
     7
100
AcDbMText
 10
937.5
 20
170.0
 30
0.0
 40
35.0
 41
0.0
 71
     5
 72
     1
  1
10
  7
CONVERTER_12
 73
     1
 44
0.7202881152461
  0
DIMENSION
  5
14D
330
1F
100
AcDbEntity
  8
1
100
AcDbDimension
  2
*D2
 10
514.623115795591
 20
1104.756605599984
 30
0.0
 11
487.1231157955911
 21
1136.256605599984
 31
0.0
 70
    32
  1
<>
 71
     5
 42
-1.0
 53
90.0
  3
ME10_DIM_10
100
AcDbAlignedDimension
 13
622.8627530703246
 23
1167.756605599984
 33
0.0
 14
614.6231157955909
 24
1104.756605599984
 34
0.0
 50
90.0
100
AcDbRotatedDimension
  0
DIMENSION
  5
158
330
1F
100
AcDbEntity
  8
1
100
AcDbDimension
  2
*D3
 10
614.6231157955912
 20
2290.62157125636
 30
0.0
 11
1014.623115795587
 21
2318.12157125636
 31
0.0
 70
    32
  1
<>
 71
     5
 42
-1.0
 53
0.00013888888889
  3
ME10_DIM_11
100
AcDbAlignedDimension
 13
1414.623115795597
 23
2095.62157125636
 33
0.0
 14
614.6231157955909
 24
2095.62157125636
 34
0.0
100
AcDbRotatedDimension
  0
DIMENSION
  5
163
330
1F
100
AcDbEntity
  8
1
100
AcDbDimension
  2
*D4
 10
434.623115795591
 20
2110.621571256361
 30
0.0
 11
407.123115795591
 21
1795.621571256361
 31
0.0
 70
    32
  1
<>
 71
     5
 42
-1.0
 53
90.0
  3
ME10_DIM_12
100
AcDbAlignedDimension
 13
629.6231157955909
 23
1470.62157125636
 33
0.0
 14
629.6231157955909
 24
2110.62157125636
 34
0.0
 50
90.0
100
AcDbRotatedDimension
  0
DIMENSION
  5
16E
330
1F
100
AcDbEntity
  8
1
100
AcDbDimension
  2
*D5
 10
514.623115795591
 20
2089.62157125636
 30
0.0
 11
487.1231157955911
 21
1795.621571256361
 31
0.0
 70
    32
  1
<>
 71
     5
 42
-1.0
 53
90.0
  3
ME10_DIM_13
100
AcDbAlignedDimension
 13
625.1231157955916
 23
1491.621571256359
 33
0.0
 14
625.1231157955916
 24
2089.62157125636
 34
0.0
 50
90.0
100
AcDbRotatedDimension
  0
DIMENSION
  5
179
330
1F
100
AcDbEntity
  8
1
100
AcDbDimension
  2
*D6
 10
1393.623115795586
 20
2210.62157125636
 30
0.0
 11
1014.623115795587
 21
2238.12157125636
 31
0.0
 70
    32
  1
<>
 71
     5
 42
-1.0
 53
0.00013888888889
  3
ME10_DIM_14
100
AcDbAlignedDimension
 13
635.6231157955912
 23
2100.121571256361
 33
0.0
 14
1393.623115795586
 24
2100.121571256361
 34
0.0
100
AcDbRotatedDimension
  0
DIMENSION
  5
184
330
1F
100
AcDbEntity
  8
1
100
AcDbDimension
  2
*D7
 10
1014.623115795587
 20
1370.621571256361
 30
0.0
 11
1153.120743295592
 21
1398.121571256361
 31
0.0
 70
    32
  1
<>
 71
     5
 42
-1.0
 53
0.00013888888889
  3
ME10_DIM_15
100
AcDbAlignedDimension
 13
1291.618370795597
 23
1440.621571256361
 33
0.0
 14
1014.623115795587
 24
1440.621571256361
 34
0.0
100
AcDbRotatedDimension
  0
DIMENSION
  5
18F
330
1F
100
AcDbEntity
  8
1
100
AcDbDimension
  2
*D8
 10
1291.618370795597
 20
1370.621571256361
 30
0.0
 11
1353.120743295593
 21
1398.121571256361
 31
0.0
 70
    32
  1
<>
 71
     5
 42
-1.0
 53
0.00013888888889
  3
ME10_DIM_16
100
AcDbAlignedDimension
 13
1414.623115795587
 23
1485.62157125636
 33
0.0
 14
1291.618370795597
 24
1440.621571256361
 34
0.0
100
AcDbRotatedDimension
  0
DIMENSION
  5
19A
330
1F
100
AcDbEntity
  8
1
100
AcDbDimension
  2
*D9
 10
1514.623115795588
 20
1593.62157125636
 30
0.0
 11
1487.123115795588
 21
1532.12157125636
 31
0.0
 70
    32
  1
<>
 71
     5
 42
-1.0
 53
90.0
  3
ME10_DIM_17
100
AcDbAlignedDimension
 13
1399.623115795587
 23
1470.62157125636
 33
0.0
 14
1444.623115795589
 24
1593.62157125636
 34
0.0
 50
90.0
100
AcDbRotatedDimension
  0
DIMENSION
  5
1A5
330
1F
100
AcDbEntity
  8
1
100
AcDbDimension
  2
*D10
 10
1215.623115795587
 20
995.223099514938
 30
0.0
 11
1291.618370795597
 21
1022.723099514938
 31
0.0
 70
    32
  1
<>
 71
     5
 42
-1.0
 53
0.00013888888889
  3
ME10_DIM_18
100
AcDbAlignedDimension
 13
1367.623115795586
 23
1099.223099514938
 33
0.0
 14
1215.623115795587
 24
1099.223099514938
 34
0.0
100
AcDbRotatedDimension
  0
INSERT
  5
1AD
330
1F
100
AcDbEntity
  8
1
100
AcDbBlockReference
  2
*D11
 10
0.0
 20
0.0
 30
0.0
  0
INSERT
  5
1B4
330
1F
100
AcDbEntity
  8
1
100
AcDbBlockReference
  2
*D12
 10
0.0
 20
0.0
 30
0.0
  0
ENDSEC
  0
SECTION
  2
OBJECTS
  0
DICTIONARY
  5
C
330
0
100
AcDbDictionary
281
     1
  3
ACAD_GROUP
350
D
  3
ACAD_LAYOUT
350
1A
  3
ACAD_MATERIAL
350
3B
  3
ACAD_MLEADERSTYLE
350
1B7
  3
ACAD_MLINESTYLE
350
17
  3
ACAD_PLOTSETTINGS
350
19
  3
ACAD_PLOTSTYLENAME
350
E
  3
ACAD_VISUALSTYLE
350
2A
  3
AcDbVariableDictionary
350
1B5
  0
DICTIONARY
  5
D
102
{ACAD_REACTORS
330
C
102
}
330
C
100
AcDbDictionary
281
     1
  0
DICTIONARY
  5
1A
102
{ACAD_REACTORS
330
C
102
}
330
C
100
AcDbDictionary
281
     1
  3
Layout1
350
1E
  3
Layout2
350
26
  3
Model
350
22
  0
DICTIONARY
  5
3B
102
{ACAD_REACTORS
330
C
102
}
330
C
100
AcDbDictionary
281
     1
  3
ByBlock
350
3D
  3
ByLayer
350
3C
  3
Global
350
3E
  0
DICTIONARY
  5
1B7
102
{ACAD_REACTORS
330
C
102
}
330
C
100
AcDbDictionary
281
     1
  0
DICTIONARY
  5
17
102
{ACAD_REACTORS
330
C
102
}
330
C
100
AcDbDictionary
281
     1
  3
Standard
350
18
  0
DICTIONARY
  5
19
102
{ACAD_REACTORS
330
C
102
}
330
C
100
AcDbDictionary
281
     1
  0
ACDBDICTIONARYWDFLT
  5
E
102
{ACAD_REACTORS
330
C
102
}
330
C
100
AcDbDictionary
281
     1
  3
Normal
350
F
100
AcDbDictionaryWithDefault
340
F
  0
DICTIONARY
  5
2A
102
{ACAD_REACTORS
330
C
102
}
330
C
100
AcDbDictionary
281
     1
  3
2dWireframe
350
2F
  3
3D Hidden
350
31
  3
3dWireframe
350
30
  3
Basic
350
32
  3
Brighten
350
36
  3
ColorChange
350
3A
  3
Conceptual
350
34
  3
Dim
350
35
  3
Facepattern
350
39
  3
Flat
350
2B
  3
FlatWithEdges
350
2C
  3
Gouraud
350
2D
  3
GouraudWithEdges
350
2E
  3
Linepattern
350
38
  3
Realistic
350
33
  3
Thicken
350
37
  0
DICTIONARY
  5
1B5
102
{ACAD_REACTORS
330
C
102
}
330
C
100
AcDbDictionary
281
     1
  3
DIMASSOC
350
1B8
  3
HIDETEXT
350
1B9
  0
LAYOUT
  5
1E
102
{ACAD_REACTORS
330
1A
102
}
330
1A
100
AcDbPlotSettings
  1

  2
none_device
  4

  6

 40
0.0
 41
0.0
 42
0.0
 43
0.0
 44
0.0
 45
0.0
 46
0.0
 47
0.0
 48
0.0
 49
0.0
140
0.0
141
0.0
142
1.0
143
1.0
 70
   688
 72
     0
 73
     0
 74
     5
  7

 75
    16
147
1.0
148
0.0
149
0.0
100
AcDbLayout
  1
Layout1
 70
     1
 71
     1
 10
0.0
 20
0.0
 11
12.0
 21
9.0
 12
0.0
 22
0.0
 32
0.0
 14
1.00000000000000E+20
 24
1.00000000000000E+20
 34
1.00000000000000E+20
 15
-1.00000000000000E+20
 25
-1.00000000000000E+20
 35
-1.00000000000000E+20
146
0.0
 13
0.0
 23
0.0
 33
0.0
 16
1.0
 26
0.0
 36
0.0
 17
0.0
 27
1.0
 37
0.0
 76
     0
330
1B
  0
LAYOUT
  5
26
102
{ACAD_REACTORS
330
1A
102
}
330
1A
100
AcDbPlotSettings
  1

  2
none_device
  4

  6

 40
0.0
 41
0.0
 42
0.0
 43
0.0
 44
0.0
 45
0.0
 46
0.0
 47
0.0
 48
0.0
 49
0.0
140
0.0
141
0.0
142
1.0
143
1.0
 70
   688
 72
     0
 73
     0
 74
     5
  7

 75
    16
147
1.0
148
0.0
149
0.0
100
AcDbLayout
  1
Layout2
 70
     1
 71
     2
 10
0.0
 20
0.0
 11
0.0
 21
0.0
 12
0.0
 22
0.0
 32
0.0
 14
0.0
 24
0.0
 34
0.0
 15
0.0
 25
0.0
 35
0.0
146
0.0
 13
0.0
 23
0.0
 33
0.0
 16
1.0
 26
0.0
 36
0.0
 17
0.0
 27
1.0
 37
0.0
 76
     0
330
23
  0
LAYOUT
  5
22
102
{ACAD_REACTORS
330
1A
102
}
330
1A
100
AcDbPlotSettings
  1

  2
none_device
  4

  6

 40
0.0
 41
0.0
 42
0.0
 43
0.0
 44
0.0
 45
0.0
 46
0.0
 47
0.0
 48
0.0
 49
0.0
140
0.0
141
0.0
142
1.0
143
1.0
 70
  1712
 72
     0
 73
     0
 74
     0
  7

 75
     0
147
1.0
148
0.0
149
0.0
100
AcDbLayout
  1
Model
 70
     1
 71
     0
 10
0.0
 20
0.0
 11
12.0
 21
9.0
 12
0.0
 22
0.0
 32
0.0
 14
0.0
 24
0.0
 34
0.0
 15
2100.0
 25
2970.0
 35
0.0
146
0.0
 13
0.0
 23
0.0
 33
0.0
 16
1.0
 26
0.0
 36
0.0
 17
0.0
 27
1.0
 37
0.0
 76
     0
330
1F
331
29
  0
MATERIAL
  5
3D
102
{ACAD_REACTORS
330
3B
102
}
102
{ACAD_XDICTIONARY
360
1DC
102
}
330
3B
100
AcDbMaterial
  1
ByBlock
  0
MATERIAL
  5
3C
102
{ACAD_REACTORS
330
3B
102
}
102
{ACAD_XDICTIONARY
360
1DA
102
}
330
3B
100
AcDbMaterial
  1
ByLayer
  0
MATERIAL
  5
3E
102
{ACAD_REACTORS
330
3B
102
}
102
{ACAD_XDICTIONARY
360
1DE
102
}
330
3B
100
AcDbMaterial
  1
Global
  0
MLINESTYLE
  5
18
102
{ACAD_REACTORS
330
17
102
}
330
17
100
AcDbMlineStyle
  2
Standard
 70
     0
  3

 62
   256
 51
90.0
 52
90.0
 71
     2
 49
0.5
 62
   256
  6
BYLAYER
 49
-0.5
 62
   256
  6
BYLAYER
  0
ACDBPLACEHOLDER
  5
F
102
{ACAD_REACTORS
330
E
102
}
330
E
  0
VISUALSTYLE
  5
2F
102
{ACAD_REACTORS
330
2A
102
}
102
{ACAD_XDICTIONARY
360
1C2
102
}
330
2A
100
AcDbVisualStyle
  2
2dWireframe
 70
     4
 71
     0
 72
     2
 73
     0
 90
        0
 40
-0.6
 41
-30.0
 62
     5
 63
     7
 74
     1
 91
        4
 64
     7
 65
   257
 75
     1
175
     1
 42
1.0
 92
        0
 66
   257
 43
1.0
 76
     1
 77
     6
 78
     2
 67
     7
 79
     5
170
     0
171
     0
290
     0
174
     0
 93
        1
 44
0.0
173
     0
291
     0
 45
0.0
1001
ACAD
1000
AcDbSavedByObjectVersion
1070
     0
  0
VISUALSTYLE
  5
31
102
{ACAD_REACTORS
330
2A
102
}
102
{ACAD_XDICTIONARY
360
1C6
102
}
330
2A
100
AcDbVisualStyle
  2
3D Hidden
 70
     6
 71
     1
 72
     2
 73
     2
 90
        0
 40
-0.6
 41
-30.0
 62
     5
 63
     7
 74
     2
 91
        2
 64
     7
 65
   257
 75
     2
175
     1
 42
40.0
 92
        0
 66
   257
 43
1.0
 76
     1
 77
     6
 78
     2
 67
     7
 79
     3
170
     0
171
     0
290
     0
174
     0
 93
        1
 44
0.0
173
     0
291
     0
 45
0.0
1001
ACAD
1000
AcDbSavedByObjectVersion
1070
     0
  0
VISUALSTYLE
  5
30
102
{ACAD_REACTORS
330
2A
102
}
102
{ACAD_XDICTIONARY
360
1C4
102
}
330
2A
100
AcDbVisualStyle
  2
3dWireframe
 70
     5
 71
     0
 72
     2
 73
     0
 90
        0
 40
-0.6
 41
-30.0
 62
     5
 63
     7
 74
     1
 91
        4
 64
     7
 65
   257
 75
     1
175
     1
 42
1.0
 92
        0
 66
   257
 43
1.0
 76
     1
 77
     6
 78
     2
 67
     7
 79
     5
170
     0
171
     0
290
     0
174
     0
 93
        1
 44
0.0
173
     0
291
     0
 45
0.0
1001
ACAD
1000
AcDbSavedByObjectVersion
1070
     0
  0
VISUALSTYLE
  5
32
102
{ACAD_REACTORS
330
2A
102
}
102
{ACAD_XDICTIONARY
360
1C8
102
}
330
2A
100
AcDbVisualStyle
  2
Basic
 70
     7
 71
     1
 72
     0
 73
     1
 90
        0
 40
-0.6
 41
-30.0
 62
     5
 63
     7
 74
     0
 91
        4
 64
     7
 65
   257
 75
     1
175
     1
 42
1.0
 92
        8
 66
     7
 43
1.0
 76
     1
 77
     6
 78
     2
 67
     7
 79
     5
170
     0
171
     0
290
     0
174
     0
 93
        1
 44
0.0
173
     0
291
     1
 45
0.0
1001
ACAD
1000
AcDbSavedByObjectVersion
1070
     0
  0
VISUALSTYLE
  5
36
102
{ACAD_REACTORS
330
2A
102
}
102
{ACAD_XDICTIONARY
360
1D0
102
}
330
2A
100
AcDbVisualStyle
  2
Brighten
 70
    12
 71
     2
 72
     2
 73
     0
 90
        0
 40
-0.6
 41
-30.0
 62
     5
 63
     7
 74
     1
 91
        4
 64
     7
 65
   257
 75
     1
175
     1
 42
1.0
 92
        8
 66
     7
 43
1.0
 76
     1
 77
     6
 78
     2
 67
     7
 79
     5
170
     0
171
     0
290
     0
174
     0
 93
        1
 44
50.0
173
     0
291
     1
 45
0.0
1001
ACAD
1000
AcDbSavedByObjectVersion
1070
     0
  0
VISUALSTYLE
  5
3A
102
{ACAD_REACTORS
330
2A
102
}
102
{ACAD_XDICTIONARY
360
1D8
102
}
330
2A
100
AcDbVisualStyle
  2
ColorChange
 70
    16
 71
     2
 72
     2
 73
     3
 90
        0
 40
-0.6
 41
-30.0
 62
     5
 63
     8
 74
     1
 91
        4
 64
     7
 65
   257
 75
     1
175
     1
 42
1.0
 92
        8
 66
     8
 43
1.0
 76
     1
 77
     6
 78
     2
 67
     7
 79
     5
170
     0
171
     0
290
     0
174
     0
 93
        1
 44
0.0
173
     0
291
     1
 45
0.0
1001
ACAD
1000
AcDbSavedByObjectVersion
1070
     0
  0
VISUALSTYLE
  5
34
102
{ACAD_REACTORS
330
2A
102
}
102
{ACAD_XDICTIONARY
360
1CC
102
}
330
2A
100
AcDbVisualStyle
  2
Conceptual
 70
     9
 71
     3
 72
     2
 73
     0
 90
        0
 40
-0.6
 41
-30.0
 62
     5
 63
     7
 74
     2
 91
        2
 64
     7
 65
   257
 75
     1
175
     1
 42
40.0
 92
        8
 66
     7
 43
1.0
 76
     1
 77
     6
 78
     2
 67
     7
 79
     3
170
     0
171
     0
290
     0
174
     0
 93
        1
 44
0.0
173
     0
291
     0
 45
0.0
1001
ACAD
1000
AcDbSavedByObjectVersion
1070
     0
  0
VISUALSTYLE
  5
35
102
{ACAD_REACTORS
330
2A
102
}
102
{ACAD_XDICTIONARY
360
1CE
102
}
330
2A
100
AcDbVisualStyle
  2
Dim
 70
    11
 71
     2
 72
     2
 73
     0
 90
        0
 40
-0.6
 41
-30.0
 62
     5
 63
     7
 74
     1
 91
        4
 64
     7
 65
   257
 75
     1
175
     1
 42
1.0
 92
        8
 66
     7
 43
1.0
 76
     1
 77
     6
 78
     2
 67
     7
 79
     5
170
     0
171
     0
290
     0
174
     0
 93
        1
 44
-50.0
173
     0
291
     1
 45
0.0
1001
ACAD
1000
AcDbSavedByObjectVersion
1070
     0
  0
VISUALSTYLE
  5
39
102
{ACAD_REACTORS
330
2A
102
}
102
{ACAD_XDICTIONARY
360
1D6
102
}
330
2A
100
AcDbVisualStyle
  2
Facepattern
 70
    15
 71
     2
 72
     2
 73
     0
 90
        0
 40
-0.6
 41
-30.0
 62
     5
 63
     7
 74
     1
 91
        4
 64
     7
 65
   257
 75
     1
175
     1
 42
1.0
 92
        8
 66
     7
 43
1.0
 76
     1
 77
     6
 78
     2
 67
     7
 79
     5
170
     0
171
     0
290
     0
174
     0
 93
        1
 44
0.0
173
     0
291
     1
 45
0.0
1001
ACAD
1000
AcDbSavedByObjectVersion
1070
     0
  0
VISUALSTYLE
  5
2B
102
{ACAD_REACTORS
330
2A
102
}
102
{ACAD_XDICTIONARY
360
1BA
102
}
330
2A
100
AcDbVisualStyle
  2
Flat
 70
     0
 71
     2
 72
     1
 73
     1
 90
        2
 40
-0.6
 41
30.0
 62
     5
 63
     7
 74
     0
 91
        4
 64
     7
 65
   257
 75
     1
175
     1
 42
1.0
 92
        8
 66
     7
 43
1.0
 76
     1
 77
     6
 78
     2
 67
     7
 79
     5
170
     0
171
     0
290
     0
174
     0
 93
       13
 44
0.0
173
     0
291
     1
 45
0.0
1001
ACAD
1000
AcDbSavedByObjectVersion
1070
     0
  0
VISUALSTYLE
  5
2C
102
{ACAD_REACTORS
330
2A
102
}
102
{ACAD_XDICTIONARY
360
1BC
102
}
330
2A
100
AcDbVisualStyle
  2
FlatWithEdges
 70
     1
 71
     2
 72
     1
 73
     1
 90
        2
 40
-0.6
 41
30.0
 62
     5
 63
     7
 74
     1
 91
        4
 64
     7
 65
   257
 75
     1
175
     1
 42
1.0
 92
        0
 66
   257
 43
1.0
 76
     1
 77
     6
 78
     2
 67
     7
 79
     5
170
     0
171
     0
290
     0
174
     0
 93
       13
 44
0.0
173
     0
291
     1
 45
0.0
1001
ACAD
1000
AcDbSavedByObjectVersion
1070
     0
  0
VISUALSTYLE
  5
2D
102
{ACAD_REACTORS
330
2A
102
}
102
{ACAD_XDICTIONARY
360
1BE
102
}
330
2A
100
AcDbVisualStyle
  2
Gouraud
 70
     2
 71
     2
 72
     2
 73
     1
 90
        2
 40
-0.6
 41
30.0
 62
     5
 63
     7
 74
     0
 91
        4
 64
     7
 65
   257
 75
     1
175
     1
 42
1.0
 92
        0
 66
     7
 43
1.0
 76
     1
 77
     6
 78
     2
 67
     7
 79
     5
170
     0
171
     0
290
     0
174
     0
 93
       13
 44
0.0
173
     0
291
     1
 45
0.0
1001
ACAD
1000
AcDbSavedByObjectVersion
1070
     0
  0
VISUALSTYLE
  5
2E
102
{ACAD_REACTORS
330
2A
102
}
102
{ACAD_XDICTIONARY
360
1C0
102
}
330
2A
100
AcDbVisualStyle
  2
GouraudWithEdges
 70
     3
 71
     2
 72
     2
 73
     1
 90
        2
 40
-0.6
 41
30.0
 62
     5
 63
     7
 74
     1
 91
        4
 64
     7
 65
   257
 75
     1
175
     1
 42
1.0
 92
        0
 66
   257
 43
1.0
 76
     1
 77
     6
 78
     2
 67
     7
 79
     5
170
     0
171
     0
290
     0
174
     0
 93
       13
 44
0.0
173
     0
291
     1
 45
0.0
1001
ACAD
1000
AcDbSavedByObjectVersion
1070
     0
  0
VISUALSTYLE
  5
38
102
{ACAD_REACTORS
330
2A
102
}
102
{ACAD_XDICTIONARY
360
1D4
102
}
330
2A
100
AcDbVisualStyle
  2
Linepattern
 70
    14
 71
     2
 72
     2
 73
     0
 90
        0
 40
-0.6
 41
-30.0
 62
     5
 63
     7
 74
     1
 91
        4
 64
     7
 65
   257
 75
     7
175
     7
 42
1.0
 92
        8
 66
     7
 43
1.0
 76
     1
 77
     6
 78
     2
 67
     7
 79
     5
170
     0
171
     0
290
     0
174
     0
 93
        1
 44
0.0
173
     0
291
     1
 45
0.0
1001
ACAD
1000
AcDbSavedByObjectVersion
1070
     0
  0
VISUALSTYLE
  5
33
102
{ACAD_REACTORS
330
2A
102
}
102
{ACAD_XDICTIONARY
360
1CA
102
}
330
2A
100
AcDbVisualStyle
  2
Realistic
 70
     8
 71
     2
 72
     2
 73
     0
 90
        0
 40
-0.6
 41
-30.0
 62
     5
 63
     7
 74
     1
 91
        0
 64
     7
 65
   257
 75
     1
175
     1
 42
1.0
 92
        8
 66
     8
 43
1.0
 76
     1
 77
     6
 78
     2
 67
     7
 79
     5
170
     0
171
     0
290
     0
174
     0
 93
       13
 44
0.0
173
     0
291
     0
 45
0.0
1001
ACAD
1000
AcDbSavedByObjectVersion
1070
     0
  0
VISUALSTYLE
  5
37
102
{ACAD_REACTORS
330
2A
102
}
102
{ACAD_XDICTIONARY
360
1D2
102
}
330
2A
100
AcDbVisualStyle
  2
Thicken
 70
    13
 71
     2
 72
     2
 73
     0
 90
        0
 40
-0.6
 41
-30.0
 62
     5
 63
     7
 74
     1
 91
        4
 64
     7
 65
   257
 75
     1
175
     1
 42
1.0
 92
       12
 66
     7
 43
1.0
 76
     1
 77
     6
 78
     2
 67
     7
 79
     5
170
     0
171
     0
290
     0
174
     0
 93
        1
 44
0.0
173
     0
291
     1
 45
0.0
1001
ACAD
1000
AcDbSavedByObjectVersion
1070
     0
  0
DICTIONARYVAR
  5
1B8
102
{ACAD_REACTORS
330
1B5
102
}
330
1B5
100
DictionaryVariables
280
     0
  1
2
  0
DICTIONARYVAR
  5
1B9
102
{ACAD_REACTORS
330
1B5
102
}
330
1B5
100
DictionaryVariables
280
     0
  1
1
  0
DICTIONARY
  5
1DC
330
3D
100
AcDbDictionary
280
     1
281
     1
  3
ACAD_XREC_ROUNDTRIP
360
1DD
  0
DICTIONARY
  5
1DA
330
3C
100
AcDbDictionary
280
     1
281
     1
  3
ACAD_XREC_ROUNDTRIP
360
1DB
  0
DICTIONARY
  5
1DE
330
3E
100
AcDbDictionary
280
     1
281
     1
  3
ACAD_XREC_ROUNDTRIP
360
1DF
  0
DICTIONARY
  5
1C2
330
2F
100
AcDbDictionary
280
     1
281
     1
  3
ACAD_XREC_ROUNDTRIP
360
1C3
  0
DICTIONARY
  5
1C6
330
31
100
AcDbDictionary
280
     1
281
     1
  3
ACAD_XREC_ROUNDTRIP
360
1C7
  0
DICTIONARY
  5
1C4
330
30
100
AcDbDictionary
280
     1
281
     1
  3
ACAD_XREC_ROUNDTRIP
360
1C5
  0
DICTIONARY
  5
1C8
330
32
100
AcDbDictionary
280
     1
281
     1
  3
ACAD_XREC_ROUNDTRIP
360
1C9
  0
DICTIONARY
  5
1D0
330
36
100
AcDbDictionary
280
     1
281
     1
  3
ACAD_XREC_ROUNDTRIP
360
1D1
  0
DICTIONARY
  5
1D8
330
3A
100
AcDbDictionary
280
     1
281
     1
  3
ACAD_XREC_ROUNDTRIP
360
1D9
  0
DICTIONARY
  5
1CC
330
34
100
AcDbDictionary
280
     1
281
     1
  3
ACAD_XREC_ROUNDTRIP
360
1CD
  0
DICTIONARY
  5
1CE
330
35
100
AcDbDictionary
280
     1
281
     1
  3
ACAD_XREC_ROUNDTRIP
360
1CF
  0
DICTIONARY
  5
1D6
330
39
100
AcDbDictionary
280
     1
281
     1
  3
ACAD_XREC_ROUNDTRIP
360
1D7
  0
DICTIONARY
  5
1BA
330
2B
100
AcDbDictionary
280
     1
281
     1
  3
ACAD_XREC_ROUNDTRIP
360
1BB
  0
DICTIONARY
  5
1BC
330
2C
100
AcDbDictionary
280
     1
281
     1
  3
ACAD_XREC_ROUNDTRIP
360
1BD
  0
DICTIONARY
  5
1BE
330
2D
100
AcDbDictionary
280
     1
281
     1
  3
ACAD_XREC_ROUNDTRIP
360
1BF
  0
DICTIONARY
  5
1C0
330
2E
100
AcDbDictionary
280
     1
281
     1
  3
ACAD_XREC_ROUNDTRIP
360
1C1
  0
DICTIONARY
  5
1D4
330
38
100
AcDbDictionary
280
     1
281
     1
  3
ACAD_XREC_ROUNDTRIP
360
1D5
  0
DICTIONARY
  5
1CA
330
33
100
AcDbDictionary
280
     1
281
     1
  3
ACAD_XREC_ROUNDTRIP
360
1CB
  0
DICTIONARY
  5
1D2
330
37
100
AcDbDictionary
280
     1
281
     1
  3
ACAD_XREC_ROUNDTRIP
360
1D3
  0
XRECORD
  5
1DD
102
{ACAD_REACTORS
330
1DC
102
}
330
1DC
100
AcDbXrecord
280
     1
102
MATERIAL
148
0.0
149
0.0
149
0.0
 93
        0
 94
      127
282
     0
 72
     1
 77
     1
171
     1
175
     1
179
     1
273
     0
  0
XRECORD
  5
1DB
102
{ACAD_REACTORS
330
1DA
102
}
330
1DA
100
AcDbXrecord
280
     1
102
MATERIAL
148
0.0
149
0.0
149
0.0
 93
        0
 94
      127
282
     0
 72
     1
 77
     1
171
     1
175
     1
179
     1
273
     0
  0
XRECORD
  5
1DF
102
{ACAD_REACTORS
330
1DE
102
}
330
1DE
100
AcDbXrecord
280
     1
102
MATERIAL
148
0.0
149
0.0
149
0.0
 93
        0
 94
      127
282
     0
 72
     1
 77
     1
171
     1
175
     1
179
     1
273
     0
  0
XRECORD
  5
1C3
102
{ACAD_REACTORS
330
1C2
102
}
330
1C2
100
AcDbXrecord
280
     1
102
RTVSPropertyOp0
 70
     1
102
RTVSPropertyOp1
 70
     1
102
RTVSPropertyOp2
 70
     1
102
RTVSPropertyOp3
 70
     1
102
RTVSPropertyOp4
 70
     1
102
RTVSPropertyOp5
 70
     1
102
RTVSPropertyOp6
 70
     1
102
RTVSPropertyOp7
 70
     1
102
RTVSPropertyOp8
 70
     1
102
RTVSPropertyOp9
 70
     1
102
RTVSPropertyOp10
 70
     1
102
RTVSPropertyOp11
 70
     1
102
RTVSPropertyOp12
 70
     1
102
RTVSPropertyOp13
 70
     1
102
RTVSPropertyOp14
 70
     1
102
RTVSPropertyOp15
 70
     1
102
RTVSPropertyOp16
 70
     1
102
RTVSPropertyOp17
 70
     1
102
RTVSPropertyOp18
 70
     1
102
RTVSPropertyOp19
 70
     1
102
RTVSPropertyOp20
 70
     1
102
RTVSPropertyOp21
 70
     1
102
RTVSPropertyOp22
 70
     1
102
RTVSPropertyOp23
 70
     1
102
RTVSPropertyOp24
 70
     1
102
RTVSPropertyOp25
 70
     1
102
RTVSPropertyOp26
 70
     1
102
RTVSPropertyOp27
 70
     1
102
RTVSPropertyOp28
 70
     1
102
RTVSPropertyOp29
 70
     1
102
RTVSPropertyOp30
 70
     1
102
RTVSPropertyOp31
 70
     1
102
RTVSPropertyOp32
 70
     1
  0
XRECORD
  5
1C7
102
{ACAD_REACTORS
330
1C6
102
}
330
1C6
100
AcDbXrecord
280
     1
102
RTVSPropertyOp0
 70
     1
102
RTVSPropertyOp1
 70
     1
102
RTVSPropertyOp2
 70
     1
102
RTVSPropertyOp3
 70
     1
102
RTVSPropertyOp4
 70
     1
102
RTVSPropertyOp5
 70
     1
102
RTVSPropertyOp6
 70
     1
102
RTVSPropertyOp7
 70
     1
102
RTVSPropertyOp8
 70
     1
102
RTVSPropertyOp9
 70
     1
102
RTVSPropertyOp10
 70
     1
102
RTVSPropertyOp11
 70
     1
102
RTVSPropertyOp12
 70
     1
102
RTVSPropertyOp13
 70
     1
102
RTVSPropertyOp14
 70
     1
102
RTVSPropertyOp15
 70
     1
102
RTVSPropertyOp16
 70
     1
102
RTVSPropertyOp17
 70
     1
102
RTVSPropertyOp18
 70
     1
102
RTVSPropertyOp19
 70
     1
102
RTVSPropertyOp20
 70
     1
102
RTVSPropertyOp21
 70
     1
102
RTVSPropertyOp22
 70
     1
102
RTVSPropertyOp23
 70
     1
102
RTVSPropertyOp24
 70
     1
102
RTVSPropertyOp25
 70
     1
102
RTVSPropertyOp26
 70
     1
102
RTVSPropertyOp27
 70
     1
102
RTVSPropertyOp28
 70
     1
102
RTVSPropertyOp29
 70
     1
102
RTVSPropertyOp30
 70
     1
102
RTVSPropertyOp31
 70
     1
102
RTVSPropertyOp32
 70
     1
  0
XRECORD
  5
1C5
102
{ACAD_REACTORS
330
1C4
102
}
330
1C4
100
AcDbXrecord
280
     1
102
RTVSPropertyOp0
 70
     1
102
RTVSPropertyOp1
 70
     1
102
RTVSPropertyOp2
 70
     1
102
RTVSPropertyOp3
 70
     1
102
RTVSPropertyOp4
 70
     1
102
RTVSPropertyOp5
 70
     1
102
RTVSPropertyOp6
 70
     1
102
RTVSPropertyOp7
 70
     1
102
RTVSPropertyOp8
 70
     1
102
RTVSPropertyOp9
 70
     1
102
RTVSPropertyOp10
 70
     1
102
RTVSPropertyOp11
 70
     1
102
RTVSPropertyOp12
 70
     1
102
RTVSPropertyOp13
 70
     1
102
RTVSPropertyOp14
 70
     1
102
RTVSPropertyOp15
 70
     1
102
RTVSPropertyOp16
 70
     1
102
RTVSPropertyOp17
 70
     1
102
RTVSPropertyOp18
 70
     1
102
RTVSPropertyOp19
 70
     1
102
RTVSPropertyOp20
 70
     1
102
RTVSPropertyOp21
 70
     1
102
RTVSPropertyOp22
 70
     1
102
RTVSPropertyOp23
 70
     1
102
RTVSPropertyOp24
 70
     1
102
RTVSPropertyOp25
 70
     1
102
RTVSPropertyOp26
 70
     1
102
RTVSPropertyOp27
 70
     1
102
RTVSPropertyOp28
 70
     1
102
RTVSPropertyOp29
 70
     1
102
RTVSPropertyOp30
 70
     1
102
RTVSPropertyOp31
 70
     1
102
RTVSPropertyOp32
 70
     1
  0
XRECORD
  5
1C9
102
{ACAD_REACTORS
330
1C8
102
}
330
1C8
100
AcDbXrecord
280
     1
102
RTVSPropertyOp0
 70
     1
102
RTVSPropertyOp1
 70
     1
102
RTVSPropertyOp2
 70
     1
102
RTVSPropertyOp3
 70
     1
102
RTVSPropertyOp4
 70
     1
102
RTVSPropertyOp5
 70
     1
102
RTVSPropertyOp6
 70
     1
102
RTVSPropertyOp7
 70
     1
102
RTVSPropertyOp8
 70
     1
102
RTVSPropertyOp9
 70
     1
102
RTVSPropertyOp10
 70
     1
102
RTVSPropertyOp11
 70
     1
102
RTVSPropertyOp12
 70
     1
102
RTVSPropertyOp13
 70
     1
102
RTVSPropertyOp14
 70
     1
102
RTVSPropertyOp15
 70
     1
102
RTVSPropertyOp16
 70
     1
102
RTVSPropertyOp17
 70
     1
102
RTVSPropertyOp18
 70
     1
102
RTVSPropertyOp19
 70
     1
102
RTVSPropertyOp20
 70
     1
102
RTVSPropertyOp21
 70
     1
102
RTVSPropertyOp22
 70
     1
102
RTVSPropertyOp23
 70
     1
102
RTVSPropertyOp24
 70
     1
102
RTVSPropertyOp25
 70
     1
102
RTVSPropertyOp26
 70
     1
102
RTVSPropertyOp27
 70
     1
102
RTVSPropertyOp28
 70
     1
102
RTVSPropertyOp29
 70
     1
102
RTVSPropertyOp30
 70
     1
102
RTVSPropertyOp31
 70
     1
102
RTVSPropertyOp32
 70
     1
  0
XRECORD
  5
1D1
102
{ACAD_REACTORS
330
1D0
102
}
330
1D0
100
AcDbXrecord
280
     1
102
RTVSPropertyOp0
 70
     1
102
RTVSPropertyOp1
 70
     1
102
RTVSPropertyOp2
 70
     1
102
RTVSPropertyOp3
 70
     1
102
RTVSPropertyOp4
 70
     1
102
RTVSPropertyOp5
 70
     1
102
RTVSPropertyOp6
 70
     1
102
RTVSPropertyOp7
 70
     1
102
RTVSPropertyOp8
 70
     1
102
RTVSPropertyOp9
 70
     1
102
RTVSPropertyOp10
 70
     1
102
RTVSPropertyOp11
 70
     1
102
RTVSPropertyOp12
 70
     1
102
RTVSPropertyOp13
 70
     1
102
RTVSPropertyOp14
 70
     1
102
RTVSPropertyOp15
 70
     1
102
RTVSPropertyOp16
 70
     1
102
RTVSPropertyOp17
 70
     1
102
RTVSPropertyOp18
 70
     1
102
RTVSPropertyOp19
 70
     1
102
RTVSPropertyOp20
 70
     1
102
RTVSPropertyOp21
 70
     1
102
RTVSPropertyOp22
 70
     1
102
RTVSPropertyOp23
 70
     1
102
RTVSPropertyOp24
 70
     1
102
RTVSPropertyOp25
 70
     1
102
RTVSPropertyOp26
 70
     1
102
RTVSPropertyOp27
 70
     1
102
RTVSPropertyOp28
 70
     1
102
RTVSPropertyOp29
 70
     1
102
RTVSPropertyOp30
 70
     1
102
RTVSPropertyOp31
 70
     1
102
RTVSPropertyOp32
 70
     1
  0
XRECORD
  5
1D9
102
{ACAD_REACTORS
330
1D8
102
}
330
1D8
100
AcDbXrecord
280
     1
102
RTVSPropertyOp0
 70
     1
102
RTVSPropertyOp1
 70
     1
102
RTVSPropertyOp2
 70
     1
102
RTVSPropertyOp3
 70
     1
102
RTVSPropertyOp4
 70
     1
102
RTVSPropertyOp5
 70
     1
102
RTVSPropertyOp6
 70
     1
102
RTVSPropertyOp7
 70
     1
102
RTVSPropertyOp8
 70
     1
102
RTVSPropertyOp9
 70
     1
102
RTVSPropertyOp10
 70
     1
102
RTVSPropertyOp11
 70
     1
102
RTVSPropertyOp12
 70
     1
102
RTVSPropertyOp13
 70
     1
102
RTVSPropertyOp14
 70
     1
102
RTVSPropertyOp15
 70
     1
102
RTVSPropertyOp16
 70
     1
102
RTVSPropertyOp17
 70
     1
102
RTVSPropertyOp18
 70
     1
102
RTVSPropertyOp19
 70
     1
102
RTVSPropertyOp20
 70
     1
102
RTVSPropertyOp21
 70
     1
102
RTVSPropertyOp22
 70
     1
102
RTVSPropertyOp23
 70
     1
102
RTVSPropertyOp24
 70
     1
102
RTVSPropertyOp25
 70
     1
102
RTVSPropertyOp26
 70
     1
102
RTVSPropertyOp27
 70
     1
102
RTVSPropertyOp28
 70
     1
102
RTVSPropertyOp29
 70
     1
102
RTVSPropertyOp30
 70
     1
102
RTVSPropertyOp31
 70
     1
102
RTVSPropertyOp32
 70
     1
  0
XRECORD
  5
1CD
102
{ACAD_REACTORS
330
1CC
102
}
330
1CC
100
AcDbXrecord
280
     1
102
RTVSPropertyOp0
 70
     1
102
RTVSPropertyOp1
 70
     1
102
RTVSPropertyOp2
 70
     1
102
RTVSPropertyOp3
 70
     1
102
RTVSPropertyOp4
 70
     1
102
RTVSPropertyOp5
 70
     1
102
RTVSPropertyOp6
 70
     1
102
RTVSPropertyOp7
 70
     1
102
RTVSPropertyOp8
 70
     1
102
RTVSPropertyOp9
 70
     1
102
RTVSPropertyOp10
 70
     1
102
RTVSPropertyOp11
 70
     1
102
RTVSPropertyOp12
 70
     1
102
RTVSPropertyOp13
 70
     1
102
RTVSPropertyOp14
 70
     1
102
RTVSPropertyOp15
 70
     1
102
RTVSPropertyOp16
 70
     1
102
RTVSPropertyOp17
 70
     1
102
RTVSPropertyOp18
 70
     1
102
RTVSPropertyOp19
 70
     1
102
RTVSPropertyOp20
 70
     1
102
RTVSPropertyOp21
 70
     1
102
RTVSPropertyOp22
 70
     1
102
RTVSPropertyOp23
 70
     1
102
RTVSPropertyOp24
 70
     1
102
RTVSPropertyOp25
 70
     1
102
RTVSPropertyOp26
 70
     1
102
RTVSPropertyOp27
 70
     1
102
RTVSPropertyOp28
 70
     1
102
RTVSPropertyOp29
 70
     1
102
RTVSPropertyOp30
 70
     1
102
RTVSPropertyOp31
 70
     1
102
RTVSPropertyOp32
 70
     1
  0
XRECORD
  5
1CF
102
{ACAD_REACTORS
330
1CE
102
}
330
1CE
100
AcDbXrecord
280
     1
102
RTVSPropertyOp0
 70
     1
102
RTVSPropertyOp1
 70
     1
102
RTVSPropertyOp2
 70
     1
102
RTVSPropertyOp3
 70
     1
102
RTVSPropertyOp4
 70
     1
102
RTVSPropertyOp5
 70
     1
102
RTVSPropertyOp6
 70
     1
102
RTVSPropertyOp7
 70
     1
102
RTVSPropertyOp8
 70
     1
102
RTVSPropertyOp9
 70
     1
102
RTVSPropertyOp10
 70
     1
102
RTVSPropertyOp11
 70
     1
102
RTVSPropertyOp12
 70
     1
102
RTVSPropertyOp13
 70
     1
102
RTVSPropertyOp14
 70
     1
102
RTVSPropertyOp15
 70
     1
102
RTVSPropertyOp16
 70
     1
102
RTVSPropertyOp17
 70
     1
102
RTVSPropertyOp18
 70
     1
102
RTVSPropertyOp19
 70
     1
102
RTVSPropertyOp20
 70
     1
102
RTVSPropertyOp21
 70
     1
102
RTVSPropertyOp22
 70
     1
102
RTVSPropertyOp23
 70
     1
102
RTVSPropertyOp24
 70
     1
102
RTVSPropertyOp25
 70
     1
102
RTVSPropertyOp26
 70
     1
102
RTVSPropertyOp27
 70
     1
102
RTVSPropertyOp28
 70
     1
102
RTVSPropertyOp29
 70
     1
102
RTVSPropertyOp30
 70
     1
102
RTVSPropertyOp31
 70
     1
102
RTVSPropertyOp32
 70
     1
  0
XRECORD
  5
1D7
102
{ACAD_REACTORS
330
1D6
102
}
330
1D6
100
AcDbXrecord
280
     1
102
RTVSPropertyOp0
 70
     1
102
RTVSPropertyOp1
 70
     1
102
RTVSPropertyOp2
 70
     1
102
RTVSPropertyOp3
 70
     1
102
RTVSPropertyOp4
 70
     1
102
RTVSPropertyOp5
 70
     1
102
RTVSPropertyOp6
 70
     1
102
RTVSPropertyOp7
 70
     1
102
RTVSPropertyOp8
 70
     1
102
RTVSPropertyOp9
 70
     1
102
RTVSPropertyOp10
 70
     1
102
RTVSPropertyOp11
 70
     1
102
RTVSPropertyOp12
 70
     1
102
RTVSPropertyOp13
 70
     1
102
RTVSPropertyOp14
 70
     1
102
RTVSPropertyOp15
 70
     1
102
RTVSPropertyOp16
 70
     1
102
RTVSPropertyOp17
 70
     1
102
RTVSPropertyOp18
 70
     1
102
RTVSPropertyOp19
 70
     1
102
RTVSPropertyOp20
 70
     1
102
RTVSPropertyOp21
 70
     1
102
RTVSPropertyOp22
 70
     1
102
RTVSPropertyOp23
 70
     1
102
RTVSPropertyOp24
 70
     1
102
RTVSPropertyOp25
 70
     1
102
RTVSPropertyOp26
 70
     1
102
RTVSPropertyOp27
 70
     1
102
RTVSPropertyOp28
 70
     1
102
RTVSPropertyOp29
 70
     1
102
RTVSPropertyOp30
 70
     1
102
RTVSPropertyOp31
 70
     1
102
RTVSPropertyOp32
 70
     1
  0
XRECORD
  5
1BB
102
{ACAD_REACTORS
330
1BA
102
}
330
1BA
100
AcDbXrecord
280
     1
102
RTVSPropertyOp0
 70
     1
102
RTVSPropertyOp1
 70
     1
102
RTVSPropertyOp2
 70
     1
102
RTVSPropertyOp3
 70
     1
102
RTVSPropertyOp4
 70
     1
102
RTVSPropertyOp5
 70
     1
102
RTVSPropertyOp6
 70
     1
102
RTVSPropertyOp7
 70
     1
102
RTVSPropertyOp8
 70
     1
102
RTVSPropertyOp9
 70
     1
102
RTVSPropertyOp10
 70
     1
102
RTVSPropertyOp11
 70
     1
102
RTVSPropertyOp12
 70
     1
102
RTVSPropertyOp13
 70
     1
102
RTVSPropertyOp14
 70
     1
102
RTVSPropertyOp15
 70
     1
102
RTVSPropertyOp16
 70
     1
102
RTVSPropertyOp17
 70
     1
102
RTVSPropertyOp18
 70
     1
102
RTVSPropertyOp19
 70
     1
102
RTVSPropertyOp20
 70
     1
102
RTVSPropertyOp21
 70
     1
102
RTVSPropertyOp22
 70
     1
102
RTVSPropertyOp23
 70
     1
102
RTVSPropertyOp24
 70
     1
102
RTVSPropertyOp25
 70
     1
102
RTVSPropertyOp26
 70
     1
102
RTVSPropertyOp27
 70
     1
102
RTVSPropertyOp28
 70
     1
102
RTVSPropertyOp29
 70
     1
102
RTVSPropertyOp30
 70
     1
102
RTVSPropertyOp31
 70
     1
102
RTVSPropertyOp32
 70
     1
  0
XRECORD
  5
1BD
102
{ACAD_REACTORS
330
1BC
102
}
330
1BC
100
AcDbXrecord
280
     1
102
RTVSPropertyOp0
 70
     1
102
RTVSPropertyOp1
 70
     1
102
RTVSPropertyOp2
 70
     1
102
RTVSPropertyOp3
 70
     1
102
RTVSPropertyOp4
 70
     1
102
RTVSPropertyOp5
 70
     1
102
RTVSPropertyOp6
 70
     1
102
RTVSPropertyOp7
 70
     1
102
RTVSPropertyOp8
 70
     1
102
RTVSPropertyOp9
 70
     1
102
RTVSPropertyOp10
 70
     1
102
RTVSPropertyOp11
 70
     1
102
RTVSPropertyOp12
 70
     1
102
RTVSPropertyOp13
 70
     1
102
RTVSPropertyOp14
 70
     1
102
RTVSPropertyOp15
 70
     1
102
RTVSPropertyOp16
 70
     1
102
RTVSPropertyOp17
 70
     1
102
RTVSPropertyOp18
 70
     1
102
RTVSPropertyOp19
 70
     1
102
RTVSPropertyOp20
 70
     1
102
RTVSPropertyOp21
 70
     1
102
RTVSPropertyOp22
 70
     1
102
RTVSPropertyOp23
 70
     1
102
RTVSPropertyOp24
 70
     1
102
RTVSPropertyOp25
 70
     1
102
RTVSPropertyOp26
 70
     1
102
RTVSPropertyOp27
 70
     1
102
RTVSPropertyOp28
 70
     1
102
RTVSPropertyOp29
 70
     1
102
RTVSPropertyOp30
 70
     1
102
RTVSPropertyOp31
 70
     1
102
RTVSPropertyOp32
 70
     1
  0
XRECORD
  5
1BF
102
{ACAD_REACTORS
330
1BE
102
}
330
1BE
100
AcDbXrecord
280
     1
102
RTVSPropertyOp0
 70
     1
102
RTVSPropertyOp1
 70
     1
102
RTVSPropertyOp2
 70
     1
102
RTVSPropertyOp3
 70
     1
102
RTVSPropertyOp4
 70
     1
102
RTVSPropertyOp5
 70
     1
102
RTVSPropertyOp6
 70
     1
102
RTVSPropertyOp7
 70
     1
102
RTVSPropertyOp8
 70
     1
102
RTVSPropertyOp9
 70
     1
102
RTVSPropertyOp10
 70
     1
102
RTVSPropertyOp11
 70
     1
102
RTVSPropertyOp12
 70
     1
102
RTVSPropertyOp13
 70
     1
102
RTVSPropertyOp14
 70
     1
102
RTVSPropertyOp15
 70
     1
102
RTVSPropertyOp16
 70
     1
102
RTVSPropertyOp17
 70
     1
102
RTVSPropertyOp18
 70
     1
102
RTVSPropertyOp19
 70
     1
102
RTVSPropertyOp20
 70
     1
102
RTVSPropertyOp21
 70
     1
102
RTVSPropertyOp22
 70
     1
102
RTVSPropertyOp23
 70
     1
102
RTVSPropertyOp24
 70
     1
102
RTVSPropertyOp25
 70
     1
102
RTVSPropertyOp26
 70
     1
102
RTVSPropertyOp27
 70
     1
102
RTVSPropertyOp28
 70
     1
102
RTVSPropertyOp29
 70
     1
102
RTVSPropertyOp30
 70
     1
102
RTVSPropertyOp31
 70
     1
102
RTVSPropertyOp32
 70
     1
  0
XRECORD
  5
1C1
102
{ACAD_REACTORS
330
1C0
102
}
330
1C0
100
AcDbXrecord
280
     1
102
RTVSPropertyOp0
 70
     1
102
RTVSPropertyOp1
 70
     1
102
RTVSPropertyOp2
 70
     1
102
RTVSPropertyOp3
 70
     1
102
RTVSPropertyOp4
 70
     1
102
RTVSPropertyOp5
 70
     1
102
RTVSPropertyOp6
 70
     1
102
RTVSPropertyOp7
 70
     1
102
RTVSPropertyOp8
 70
     1
102
RTVSPropertyOp9
 70
     1
102
RTVSPropertyOp10
 70
     1
102
RTVSPropertyOp11
 70
     1
102
RTVSPropertyOp12
 70
     1
102
RTVSPropertyOp13
 70
     1
102
RTVSPropertyOp14
 70
     1
102
RTVSPropertyOp15
 70
     1
102
RTVSPropertyOp16
 70
     1
102
RTVSPropertyOp17
 70
     1
102
RTVSPropertyOp18
 70
     1
102
RTVSPropertyOp19
 70
     1
102
RTVSPropertyOp20
 70
     1
102
RTVSPropertyOp21
 70
     1
102
RTVSPropertyOp22
 70
     1
102
RTVSPropertyOp23
 70
     1
102
RTVSPropertyOp24
 70
     1
102
RTVSPropertyOp25
 70
     1
102
RTVSPropertyOp26
 70
     1
102
RTVSPropertyOp27
 70
     1
102
RTVSPropertyOp28
 70
     1
102
RTVSPropertyOp29
 70
     1
102
RTVSPropertyOp30
 70
     1
102
RTVSPropertyOp31
 70
     1
102
RTVSPropertyOp32
 70
     1
  0
XRECORD
  5
1D5
102
{ACAD_REACTORS
330
1D4
102
}
330
1D4
100
AcDbXrecord
280
     1
102
RTVSPropertyOp0
 70
     1
102
RTVSPropertyOp1
 70
     1
102
RTVSPropertyOp2
 70
     1
102
RTVSPropertyOp3
 70
     1
102
RTVSPropertyOp4
 70
     1
102
RTVSPropertyOp5
 70
     1
102
RTVSPropertyOp6
 70
     1
102
RTVSPropertyOp7
 70
     1
102
RTVSPropertyOp8
 70
     1
102
RTVSPropertyOp9
 70
     1
102
RTVSPropertyOp10
 70
     1
102
RTVSPropertyOp11
 70
     1
102
RTVSPropertyOp12
 70
     1
102
RTVSPropertyOp13
 70
     1
102
RTVSPropertyOp14
 70
     1
102
RTVSPropertyOp15
 70
     1
102
RTVSPropertyOp16
 70
     1
102
RTVSPropertyOp17
 70
     1
102
RTVSPropertyOp18
 70
     1
102
RTVSPropertyOp19
 70
     1
102
RTVSPropertyOp20
 70
     1
102
RTVSPropertyOp21
 70
     1
102
RTVSPropertyOp22
 70
     1
102
RTVSPropertyOp23
 70
     1
102
RTVSPropertyOp24
 70
     1
102
RTVSPropertyOp25
 70
     1
102
RTVSPropertyOp26
 70
     1
102
RTVSPropertyOp27
 70
     1
102
RTVSPropertyOp28
 70
     1
102
RTVSPropertyOp29
 70
     1
102
RTVSPropertyOp30
 70
     1
102
RTVSPropertyOp31
 70
     1
102
RTVSPropertyOp32
 70
     1
  0
XRECORD
  5
1CB
102
{ACAD_REACTORS
330
1CA
102
}
330
1CA
100
AcDbXrecord
280
     1
102
RTVSPropertyOp0
 70
     1
102
RTVSPropertyOp1
 70
     1
102
RTVSPropertyOp2
 70
     1
102
RTVSPropertyOp3
 70
     1
102
RTVSPropertyOp4
 70
     1
102
RTVSPropertyOp5
 70
     1
102
RTVSPropertyOp6
 70
     1
102
RTVSPropertyOp7
 70
     1
102
RTVSPropertyOp8
 70
     1
102
RTVSPropertyOp9
 70
     1
102
RTVSPropertyOp10
 70
     1
102
RTVSPropertyOp11
 70
     1
102
RTVSPropertyOp12
 70
     1
102
RTVSPropertyOp13
 70
     1
102
RTVSPropertyOp14
 70
     1
102
RTVSPropertyOp15
 70
     1
102
RTVSPropertyOp16
 70
     1
102
RTVSPropertyOp17
 70
     1
102
RTVSPropertyOp18
 70
     1
102
RTVSPropertyOp19
 70
     1
102
RTVSPropertyOp20
 70
     1
102
RTVSPropertyOp21
 70
     1
102
RTVSPropertyOp22
 70
     1
102
RTVSPropertyOp23
 70
     1
102
RTVSPropertyOp24
 70
     1
102
RTVSPropertyOp25
 70
     1
102
RTVSPropertyOp26
 70
     1
102
RTVSPropertyOp27
 70
     1
102
RTVSPropertyOp28
 70
     1
102
RTVSPropertyOp29
 70
     1
102
RTVSPropertyOp30
 70
     1
102
RTVSPropertyOp31
 70
     1
102
RTVSPropertyOp32
 70
     1
  0
XRECORD
  5
1D3
102
{ACAD_REACTORS
330
1D2
102
}
330
1D2
100
AcDbXrecord
280
     1
102
RTVSPropertyOp0
 70
     1
102
RTVSPropertyOp1
 70
     1
102
RTVSPropertyOp2
 70
     1
102
RTVSPropertyOp3
 70
     1
102
RTVSPropertyOp4
 70
     1
102
RTVSPropertyOp5
 70
     1
102
RTVSPropertyOp6
 70
     1
102
RTVSPropertyOp7
 70
     1
102
RTVSPropertyOp8
 70
     1
102
RTVSPropertyOp9
 70
     1
102
RTVSPropertyOp10
 70
     1
102
RTVSPropertyOp11
 70
     1
102
RTVSPropertyOp12
 70
     1
102
RTVSPropertyOp13
 70
     1
102
RTVSPropertyOp14
 70
     1
102
RTVSPropertyOp15
 70
     1
102
RTVSPropertyOp16
 70
     1
102
RTVSPropertyOp17
 70
     1
102
RTVSPropertyOp18
 70
     1
102
RTVSPropertyOp19
 70
     1
102
RTVSPropertyOp20
 70
     1
102
RTVSPropertyOp21
 70
     1
102
RTVSPropertyOp22
 70
     1
102
RTVSPropertyOp23
 70
     1
102
RTVSPropertyOp24
 70
     1
102
RTVSPropertyOp25
 70
     1
102
RTVSPropertyOp26
 70
     1
102
RTVSPropertyOp27
 70
     1
102
RTVSPropertyOp28
 70
     1
102
RTVSPropertyOp29
 70
     1
102
RTVSPropertyOp30
 70
     1
102
RTVSPropertyOp31
 70
     1
102
RTVSPropertyOp32
 70
     1
  0
ENDSEC
  0
EOF
