  0
SECTION
  2
HEADER
  9
$ACADVER
  1
AC1015
  9
$ACADMAINTVER
 70
     6
  9
$DWGCODEPAGE
  3
ANSI_932
  9
$INSBASE
 10
0.0
 20
0.0
 30
0.0
  9
$EXTMIN
 10
0.0
 20
0.0
 30
0.0
  9
$EXTMAX
 10
2100.0
 20
2970.0
 30
0.0
  9
$LIMMIN
 10
0.0
 20
0.0
  9
$LIMMAX
 10
12.0
 20
9.0
  9
$ORTHOMODE
 70
     0
  9
$REGENMODE
 70
     1
  9
$FILLMODE
 70
     1
  9
$QTEXTMODE
 70
     0
  9
$MIRRTEXT
 70
     1
  9
$LTSCALE
 40
1.0
  9
$ATTMODE
 70
     1
  9
$TEXTSIZE
 40
0.2
  9
$TRACEWID
 40
0.05
  9
$TEXTSTYLE
  7
Standard
  9
$CLAYER
  8
0
  9
$CELTYPE
  6
ByLayer
  9
$CECOLOR
 62
   256
  9
$CELTSCALE
 40
1.0
  9
$DISPSILH
 70
     0
  9
$DIMSCALE
 40
1.0
  9
$DIMASZ
 40
0.18
  9
$DIMEXO
 40
0.0625
  9
$DIMDLI
 40
0.38
  9
$DIMRND
 40
0.0
  9
$DIMDLE
 40
0.0
  9
$DIMEXE
 40
0.18
  9
$DIMTP
 40
0.0
  9
$DIMTM
 40
0.0
  9
$DIMTXT
 40
0.18
  9
$DIMCEN
 40
0.09
  9
$DIMTSZ
 40
0.0
  9
$DIMTOL
 70
     0
  9
$DIMLIM
 70
     0
  9
$DIMTIH
 70
     1
  9
$DIMTOH
 70
     1
  9
$DIMSE1
 70
     0
  9
$DIMSE2
 70
     0
  9
$DIMTAD
 70
     0
  9
$DIMZIN
 70
     0
  9
$DIMBLK
  1

  9
$DIMASO
 70
     1
  9
$DIMSHO
 70
     1
  9
$DIMPOST
  1

  9
$DIMAPOST
  1

  9
$DIMALT
 70
     0
  9
$DIMALTD
 70
     2
  9
$DIMALTF
 40
25.4
  9
$DIMLFAC
 40
1.0
  9
$DIMTOFL
 70
     0
  9
$DIMTVP
 40
0.0
  9
$DIMTIX
 70
     0
  9
$DIMSOXD
 70
     0
  9
$DIMSAH
 70
     0
  9
$DIMBLK1
  1

  9
$DIMBLK2
  1

  9
$DIMSTYLE
  2
Standard
  9
$DIMCLRD
 70
     0
  9
$DIMCLRE
 70
     0
  9
$DIMCLRT
 70
     0
  9
$DIMTFAC
 40
1.0
  9
$DIMGAP
 40
0.09
  9
$DIMJUST
 70
     0
  9
$DIMSD1
 70
     0
  9
$DIMSD2
 70
     0
  9
$DIMTOLJ
 70
     1
  9
$DIMTZIN
 70
     0
  9
$DIMALTZ
 70
     0
  9
$DIMALTTZ
 70
     0
  9
$DIMUPT
 70
     0
  9
$DIMDEC
 70
     4
  9
$DIMTDEC
 70
     4
  9
$DIMALTU
 70
     2
  9
$DIMALTTD
 70
     2
  9
$DIMTXSTY
  7
Standard
  9
$DIMAUNIT
 70
     0
  9
$DIMADEC
 70
     0
  9
$DIMALTRND
 40
0.0
  9
$DIMAZIN
 70
     0
  9
$DIMDSEP
 70
    46
  9
$DIMATFIT
 70
     3
  9
$DIMFRAC
 70
     0
  9
$DIMLDRBLK
  1

  9
$DIMLUNIT
 70
     2
  9
$DIMLWD
 70
    -2
  9
$DIMLWE
 70
    -2
  9
$DIMTMOVE
 70
     0
  9
$LUNITS
 70
     2
  9
$LUPREC
 70
     4
  9
$SKETCHINC
 40
0.1
  9
$FILLETRAD
 40
0.5
  9
$AUNITS
 70
     0
  9
$AUPREC
 70
     0
  9
$MENU
  1
.
  9
$ELEVATION
 40
0.0
  9
$PELEVATION
 40
0.0
  9
$THICKNESS
 40
0.0
  9
$LIMCHECK
 70
     0
  9
$CHAMFERA
 40
0.5
  9
$CHAMFERB
 40
0.5
  9
$CHAMFERC
 40
1.0
  9
$CHAMFERD
 40
0.0
  9
$SKPOLY
 70
     0
  9
$TDCREATE
 40
2456496.408523634
  9
$TDUCREATE
 40
2456496.033523634
  9
$TDUPDATE
 40
2456496.408524896
  9
$TDUUPDATE
 40
2456496.033524896
  9
$TDINDWG
 40
0.0000000116
  9
$TDUSRTIMER
 40
0.0000000116
  9
$USRTIMER
 70
     1
  9
$ANGBASE
 50
0.0
  9
$ANGDIR
 70
     0
  9
$PDMODE
 70
     0
  9
$PDSIZE
 40
0.0
  9
$PLINEWID
 40
0.0
  9
$SPLFRAME
 70
     0
  9
$SPLINETYPE
 70
     6
  9
$SPLINESEGS
 70
     8
  9
$HANDSEED
  5
DB4
  9
$SURFTAB1
 70
     6
  9
$SURFTAB2
 70
     6
  9
$SURFTYPE
 70
     6
  9
$SURFU
 70
     6
  9
$SURFV
 70
     6
  9
$UCSBASE
  2

  9
$UCSNAME
  2

  9
$UCSORG
 10
0.0
 20
0.0
 30
0.0
  9
$UCSXDIR
 10
1.0
 20
0.0
 30
0.0
  9
$UCSYDIR
 10
0.0
 20
1.0
 30
0.0
  9
$UCSORTHOREF
  2

  9
$UCSORTHOVIEW
 70
     0
  9
$UCSORGTOP
 10
0.0
 20
0.0
 30
0.0
  9
$UCSORGBOTTOM
 10
0.0
 20
0.0
 30
0.0
  9
$UCSORGLEFT
 10
0.0
 20
0.0
 30
0.0
  9
$UCSORGRIGHT
 10
0.0
 20
0.0
 30
0.0
  9
$UCSORGFRONT
 10
0.0
 20
0.0
 30
0.0
  9
$UCSORGBACK
 10
0.0
 20
0.0
 30
0.0
  9
$PUCSBASE
  2

  9
$PUCSNAME
  2

  9
$PUCSORG
 10
0.0
 20
0.0
 30
0.0
  9
$PUCSXDIR
 10
1.0
 20
0.0
 30
0.0
  9
$PUCSYDIR
 10
0.0
 20
1.0
 30
0.0
  9
$PUCSORTHOREF
  2

  9
$PUCSORTHOVIEW
 70
     0
  9
$PUCSORGTOP
 10
0.0
 20
0.0
 30
0.0
  9
$PUCSORGBOTTOM
 10
0.0
 20
0.0
 30
0.0
  9
$PUCSORGLEFT
 10
0.0
 20
0.0
 30
0.0
  9
$PUCSORGRIGHT
 10
0.0
 20
0.0
 30
0.0
  9
$PUCSORGFRONT
 10
0.0
 20
0.0
 30
0.0
  9
$PUCSORGBACK
 10
0.0
 20
0.0
 30
0.0
  9
$USERI1
 70
     0
  9
$USERI2
 70
     0
  9
$USERI3
 70
     0
  9
$USERI4
 70
     0
  9
$USERI5
 70
     0
  9
$USERR1
 40
18.1
  9
$USERR2
 40
0.0
  9
$USERR3
 40
0.0
  9
$USERR4
 40
0.0
  9
$USERR5
 40
0.0
  9
$WORLDVIEW
 70
     1
  9
$SHADEDGE
 70
     3
  9
$SHADEDIF
 70
    70
  9
$TILEMODE
 70
     1
  9
$MAXACTVP
 70
    64
  9
$PINSBASE
 10
0.0
 20
0.0
 30
0.0
  9
$PLIMCHECK
 70
     0
  9
$PEXTMIN
 10
1.00000000000000E+20
 20
1.00000000000000E+20
 30
1.00000000000000E+20
  9
$PEXTMAX
 10
-1.00000000000000E+20
 20
-1.00000000000000E+20
 30
-1.00000000000000E+20
  9
$PLIMMIN
 10
0.0
 20
0.0
  9
$PLIMMAX
 10
12.0
 20
9.0
  9
$UNITMODE
 70
     0
  9
$VISRETAIN
 70
     1
  9
$PLINEGEN
 70
     0
  9
$PSLTSCALE
 70
     1
  9
$TREEDEPTH
 70
  3020
  9
$CMLSTYLE
  2
Standard
  9
$CMLJUST
 70
     0
  9
$CMLSCALE
 40
1.0
  9
$PROXYGRAPHICS
 70
     1
  9
$MEASUREMENT
 70
     1
  9
$CELWEIGHT
370
    -1
  9
$ENDCAPS
280
     0
  9
$JOINSTYLE
280
     0
  9
$LWDISPLAY
290
     0
  9
$INSUNITS
 70
     4
  9
$HYPERLINKBASE
  1

  9
$STYLESHEET
  1

  9
$XEDIT
290
     1
  9
$CEPSNTYPE
380
     0
  9
$PSTYLEMODE
290
     1
  9
$FINGERPRINTGUID
  2
{41235090-9A39-464E-B11B-69829304DF3F}
  9
$VERSIONGUID
  2
{FAEB1C32-E019-11D5-929B-00C0DF256EC4}
  9
$EXTNAMES
290
     1
  9
$PSVPSCALE
 40
0.0
  9
$OLESTARTUP
290
     0
  0
ENDSEC
  0
SECTION
  2
CLASSES
  0
CLASS
  1
ACDBDICTIONARYWDFLT
  2
AcDbDictionaryWithDefault
  3
ObjectDBX Classes
 90
        0
280
     0
281
     0
  0
CLASS
  1
VISUALSTYLE
  2
AcDbVisualStyle
  3
ObjectDBX Classes
 90
     4095
280
     0
281
     0
  0
CLASS
  1
MATERIAL
  2
AcDbMaterial
  3
ObjectDBX Classes
 90
     1153
280
     0
281
     0
  0
CLASS
  1
DICTIONARYVAR
  2
AcDbDictionaryVar
  3
ObjectDBX Classes
 90
        0
280
     0
281
     0
  0
CLASS
  1
ACDBPLACEHOLDER
  2
AcDbPlaceHolder
  3
ObjectDBX Classes
 90
        0
280
     0
281
     0
  0
CLASS
  1
LAYOUT
  2
AcDbLayout
  3
ObjectDBX Classes
 90
        0
280
     0
281
     0
  0
ENDSEC
  0
SECTION
  2
TABLES
  0
TABLE
  2
VPORT
  5
8
330
0
100
AcDbSymbolTable
 70
     1
  0
VPORT
  5
29
330
8
100
AcDbSymbolTableRecord
100
AcDbViewportTableRecord
  2
*Active
 70
     0
 10
0.0
 20
0.0
 11
1.0
 21
1.0
 12
1050.0
 22
1485.0
 13
0.0
 23
0.0
 14
0.5
 24
0.5
 15
0.5
 25
0.5
 16
0.0
 26
0.0
 36
1.0
 17
0.0
 27
0.0
 37
0.0
 40
3267.0
 41
1.60267857142857
 42
50.0
 43
0.0
 44
0.0
 50
0.0
 51
0.0
 71
     0
 72
   100
 73
     1
 74
     3
 75
     0
 76
     0
 77
     0
 78
     0
281
     0
 65
     1
110
0.0
120
0.0
130
0.0
111
1.0
121
0.0
131
0.0
112
0.0
122
1.0
132
0.0
 79
     0
146
0.0
  0
ENDTAB
  0
TABLE
  2
LTYPE
  5
5
330
0
100
AcDbSymbolTable
 70
     8
  0
LTYPE
  5
14
330
5
100
AcDbSymbolTableRecord
100
AcDbLinetypeTableRecord
  2
ByBlock
 70
     0
  3

 72
    65
 73
     0
 40
0.0
  0
LTYPE
  5
15
330
5
100
AcDbSymbolTableRecord
100
AcDbLinetypeTableRecord
  2
ByLayer
 70
     0
  3

 72
    65
 73
     0
 40
0.0
  0
LTYPE
  5
16
330
5
100
AcDbSymbolTableRecord
100
AcDbLinetypeTableRecord
  2
Continuous
 70
     0
  3
Solid line
 72
    65
 73
     0
 40
0.0
  0
LTYPE
  5
3F
330
5
100
AcDbSymbolTableRecord
100
AcDbLinetypeTableRecord
  2
DASHED
 70
     0
  3
Dashed
 72
    65
 73
     2
 40
15.0
 49
7.0
 74
     0
 49
-8.0
 74
     0
  0
LTYPE
  5
40
330
5
100
AcDbSymbolTableRecord
100
AcDbLinetypeTableRecord
  2
DOTTED
 70
     0
  3
Dotted
 72
    65
 73
     2
 40
1.0
 49
0.0
 74
     0
 49
-1.0
 74
     0
  0
LTYPE
  5
41
330
5
100
AcDbSymbolTableRecord
100
AcDbLinetypeTableRecord
  2
DOT_CENTER
 70
     0
  3
Dot_Center
 72
    65
 73
     4
 40
14.0
 49
12.0
 74
     0
 49
-1.0
 74
     0
 49
0.0
 74
     0
 49
-1.0
 74
     0
  0
LTYPE
  5
42
330
5
100
AcDbSymbolTableRecord
100
AcDbLinetypeTableRecord
  2
LONG_DASHED
 70
     0
  3
Long_Dashed
 72
    65
 73
     2
 40
15.0
 49
10.0
 74
     0
 49
-5.0
 74
     0
  0
LTYPE
  5
43
330
5
100
AcDbSymbolTableRecord
100
AcDbLinetypeTableRecord
  2
DASH_CENTER
 70
     0
  3
Dash_Center
 72
    65
 73
     4
 40
14.0
 49
11.0
 74
     0
 49
-1.0
 74
     0
 49
1.0
 74
     0
 49
-1.0
 74
     0
  0
LTYPE
  5
44
330
5
100
AcDbSymbolTableRecord
100
AcDbLinetypeTableRecord
  2
PHANTOM
 70
     0
  3
Phantom
 72
    65
 73
     6
 40
13.0
 49
10.0
 74
     0
 49
-1.0
 74
     0
 49
0.0
 74
     0
 49
-1.0
 74
     0
 49
0.0
 74
     0
 49
-1.0
 74
     0
  0
LTYPE
  5
45
330
5
100
AcDbSymbolTableRecord
100
AcDbLinetypeTableRecord
  2
CENTER_DASH_DASH
 70
     0
  3
Center_Dash_Dash
 72
    65
 73
     6
 40
14.0
 49
9.0
 74
     0
 49
-1.0
 74
     0
 49
1.0
 74
     0
 49
-1.0
 74
     0
 49
1.0
 74
     0
 49
-1.0
 74
     0
  0
ENDTAB
  0
TABLE
  2
LAYER
  5
2
330
0
100
AcDbSymbolTable
 70
     2
  0
LAYER
  5
10
330
2
100
AcDbSymbolTableRecord
100
AcDbLayerTableRecord
  2
0
 70
     0
 62
     7
  6
Continuous
370
    -3
390
F
  0
LAYER
  5
46
330
2
100
AcDbSymbolTableRecord
100
AcDbLayerTableRecord
  2
1
 70
     0
 62
     7
  6
Continuous
370
    -3
390
F
  0
ENDTAB
  0
TABLE
  2
STYLE
  5
3
330
0
100
AcDbSymbolTable
 70
     3
  0
STYLE
  5
11
330
3
100
AcDbSymbolTableRecord
100
AcDbTextStyleTableRecord
  2
Standard
 70
     0
 40
0.0
 41
1.0
 50
0.0
 71
     0
 42
0.2
  3
txt
  4

  0
STYLE
  5
96
330
3
100
AcDbSymbolTableRecord
100
AcDbTextStyleTableRecord
  2
CONVERTER_11
 70
     0
 40
0.0
 41
0.89
 50
0.0
 71
     0
 42
0.2
  3
MS Mincho.ttf
  4

1001
ACAD
1000
MS Mincho
1071
    32785
  0
STYLE
  5
D0B
330
3
100
AcDbSymbolTableRecord
100
AcDbTextStyleTableRecord
  2
CONVERTER_12
 70
     0
 40
0.0
 41
0.9
 50
0.0
 71
     0
 42
0.2
  3
txt.shx
  4

  0
ENDTAB
  0
TABLE
  2
VIEW
  5
6
330
0
100
AcDbSymbolTable
 70
     0
  0
ENDTAB
  0
TABLE
  2
UCS
  5
7
330
0
100
AcDbSymbolTable
 70
     0
  0
ENDTAB
  0
TABLE
  2
APPID
  5
9
330
0
100
AcDbSymbolTable
 70
     1
  0
APPID
  5
12
330
9
100
AcDbSymbolTableRecord
100
AcDbRegAppTableRecord
  2
ACAD
 70
     0
  0
ENDTAB
  0
TABLE
  2
DIMSTYLE
  5
A
330
0
100
AcDbSymbolTable
 70
    10
100
AcDbDimStyleTable
  0
DIMSTYLE
105
27
330
A
100
AcDbSymbolTableRecord
100
AcDbDimStyleTableRecord
  2
Standard
 70
     0
178
     0
340
11
  0
DIMSTYLE
105
D1B
102
{ACAD_REACTORS
330
D1C
102
}
330
A
100
AcDbSymbolTableRecord
100
AcDbDimStyleTableRecord
  2
ME10_DIM_10
 70
     0
 41
35.0
 42
0.0
 44
10.0
 73
     0
 74
     0
 77
     1
 78
     8
140
35.0
147
10.0
172
     1
173
     1
174
     1
175
     1
176
     2
177
     2
271
     2
178
     7
271
     2
340
D0B
  0
DIMSTYLE
105
D28
102
{ACAD_REACTORS
330
D29
102
}
330
A
100
AcDbSymbolTableRecord
100
AcDbDimStyleTableRecord
  2
ME10_DIM_11
 70
     0
 41
35.0
 42
0.0
 44
10.0
 73
     0
 74
     0
 77
     1
 78
     8
140
35.0
147
10.0
172
     1
173
     1
174
     1
175
     1
176
     2
177
     2
271
     2
178
     7
271
     2
340
D0B
  0
DIMSTYLE
105
D33
102
{ACAD_REACTORS
330
D34
102
}
330
A
100
AcDbSymbolTableRecord
100
AcDbDimStyleTableRecord
  2
ME10_DIM_12
 70
     0
 41
35.0
 42
0.0
 44
10.0
 73
     0
 74
     0
 77
     1
 78
     8
140
35.0
147
10.0
172
     1
173
     1
174
     1
175
     1
176
     2
177
     2
271
     2
178
     7
271
     2
340
D0B
  0
DIMSTYLE
105
D3E
102
{ACAD_REACTORS
330
D3F
102
}
330
A
100
AcDbSymbolTableRecord
100
AcDbDimStyleTableRecord
  2
ME10_DIM_13
 70
     0
 41
35.0
 42
0.0
 44
10.0
 73
     0
 74
     0
 77
     1
 78
     8
140
35.0
147
10.0
172
     1
173
     1
174
     1
175
     1
176
     2
177
     2
271
     2
178
     7
271
     2
340
D0B
  0
DIMSTYLE
105
D49
102
{ACAD_REACTORS
330
D4A
102
}
330
A
100
AcDbSymbolTableRecord
100
AcDbDimStyleTableRecord
  2
ME10_DIM_14
 70
     0
 41
35.0
 42
0.0
 44
10.0
 73
     0
 74
     0
 77
     1
 78
     8
140
35.0
147
10.0
172
     1
173
     1
174
     1
175
     1
176
     2
177
     2
271
     2
178
     7
271
     2
340
D0B
  0
DIMSTYLE
105
D54
102
{ACAD_REACTORS
330
D55
102
}
330
A
100
AcDbSymbolTableRecord
100
AcDbDimStyleTableRecord
  2
ME10_DIM_15
 70
     0
 41
35.0
 42
0.0
 44
10.0
 73
     0
 74
     0
 77
     1
 78
     8
140
35.0
147
10.0
172
     1
173
     1
174
     1
175
     1
176
     2
177
     2
271
     2
178
     7
271
     2
340
D0B
  0
DIMSTYLE
105
D5F
102
{ACAD_REACTORS
330
D60
102
}
330
A
100
AcDbSymbolTableRecord
100
AcDbDimStyleTableRecord
  2
ME10_DIM_16
 70
     0
 41
35.0
 42
0.0
 44
10.0
 73
     0
 74
     0
 77
     1
 78
     8
140
35.0
147
10.0
172
     1
173
     1
174
     1
175
     1
176
     2
177
     2
271
     2
178
     7
271
     2
340
D0B
  0
DIMSTYLE
105
D6A
102
{ACAD_REACTORS
330
D6B
102
}
330
A
100
AcDbSymbolTableRecord
100
AcDbDimStyleTableRecord
  2
ME10_DIM_17
 70
     0
  3
{\Fgdt;n}<>
 41
34.99999999999999
 42
0.0
 44
10.0
 73
     0
 74
     0
 77
     1
 78
     8
140
34.99999999999999
147
10.0
172
     1
173
     1
174
     1
175
     1
176
     2
177
     2
271
     2
178
     7
271
     2
340
D0B
  0
DIMSTYLE
105
D75
102
{ACAD_REACTORS
330
D76
102
}
330
A
100
AcDbSymbolTableRecord
100
AcDbDimStyleTableRecord
  2
ME10_DIM_18
 70
     0
 41
35.0
 42
0.0
 44
10.0
 73
     0
 74
     0
 77
     1
 78
     8
140
35.0
147
10.0
172
     1
173
     1
174
     1
175
     1
176
     2
177
     2
271
     2
178
     7
271
     2
340
D0B
  0
ENDTAB
  0
TABLE
  2
BLOCK_RECORD
  5
1
330
0
100
AcDbSymbolTable
 70
    13
  0
BLOCK_RECORD
  5
1F
330
1
100
AcDbSymbolTableRecord
100
AcDbBlockTableRecord
  2
*Model_Space
340
22
  0
BLOCK_RECORD
  5
1B
330
1
100
AcDbSymbolTableRecord
100
AcDbBlockTableRecord
  2
*Paper_Space
340
1E
  0
BLOCK_RECORD
  5
23
330
1
100
AcDbSymbolTableRecord
100
AcDbBlockTableRecord
  2
*Paper_Space0
340
26
  0
BLOCK_RECORD
  5
47
330
1
100
AcDbSymbolTableRecord
100
AcDbBlockTableRecord
  2
開示A4
340
0
102
{BLKREFS
331
4A
102
}
  0
BLOCK_RECORD
  5
D10
330
1
100
AcDbSymbolTableRecord
100
AcDbBlockTableRecord
  2
*D2
340
0
  0
BLOCK_RECORD
  5
D1D
330
1
100
AcDbSymbolTableRecord
100
AcDbBlockTableRecord
  2
*D3
340
0
  0
BLOCK_RECORD
  5
D2A
330
1
100
AcDbSymbolTableRecord
100
AcDbBlockTableRecord
  2
*D4
340
0
  0
BLOCK_RECORD
  5
D35
330
1
100
AcDbSymbolTableRecord
100
AcDbBlockTableRecord
  2
*D5
340
0
  0
BLOCK_RECORD
  5
D40
330
1
100
AcDbSymbolTableRecord
100
AcDbBlockTableRecord
  2
*D6
340
0
  0
BLOCK_RECORD
  5
D4B
330
1
100
AcDbSymbolTableRecord
100
AcDbBlockTableRecord
  2
*D7
340
0
  0
BLOCK_RECORD
  5
D56
330
1
100
AcDbSymbolTableRecord
100
AcDbBlockTableRecord
  2
*D8
340
0
  0
BLOCK_RECORD
  5
D61
330
1
100
AcDbSymbolTableRecord
100
AcDbBlockTableRecord
  2
*D9
340
0
  0
BLOCK_RECORD
  5
D6C
330
1
100
AcDbSymbolTableRecord
100
AcDbBlockTableRecord
  2
*D10
340
0
  0
BLOCK_RECORD
  5
D77
330
1
100
AcDbSymbolTableRecord
100
AcDbBlockTableRecord
  2
*D11
340
0
102
{BLKREFS
331
D80
102
}
  0
BLOCK_RECORD
  5
D81
330
1
100
AcDbSymbolTableRecord
100
AcDbBlockTableRecord
  2
*D12
340
0
102
{BLKREFS
331
D88
102
}
  0
ENDTAB
  0
ENDSEC
  0
SECTION
  2
BLOCKS
  0
BLOCK
  5
20
330
1F
100
AcDbEntity
  8
0
100
AcDbBlockBegin
  2
*Model_Space
 70
     0
 10
0.0
 20
0.0
 30
0.0
  3
*Model_Space
  1

  0
ENDBLK
  5
21
330
1F
100
AcDbEntity
  8
0
100
AcDbBlockEnd
  0
BLOCK
  5
1C
330
1B
100
AcDbEntity
 67
     1
  8
0
100
AcDbBlockBegin
  2
*Paper_Space
 70
     0
 10
0.0
 20
0.0
 30
0.0
  3
*Paper_Space
  1

  0
ENDBLK
  5
1D
330
1B
100
AcDbEntity
 67
     1
  8
0
100
AcDbBlockEnd
  0
BLOCK
  5
24
330
23
100
AcDbEntity
  8
0
100
AcDbBlockBegin
  2
*Paper_Space0
 70
     0
 10
0.0
 20
0.0
 30
0.0
  3
*Paper_Space0
  1

  0
ENDBLK
  5
25
330
23
100
AcDbEntity
  8
0
100
AcDbBlockEnd
  0
BLOCK
  5
48
330
47
100
AcDbEntity
  8
0
100
AcDbBlockBegin
  2
開示A4
 70
     0
 10
0.0
 20
0.0
 30
0.0
  3
開示A4
  1

  0
POINT
  5
4B
330
47
100
AcDbEntity
  8
1
 62
     4
100
AcDbPoint
 10
93.75
 20
17.0
 30
0.0
  0
POINT
  5
4C
330
47
100
AcDbEntity
  8
1
 62
     4
100
AcDbPoint
 10
85.25
 20
17.0
 30
0.0
  0
POINT
  5
4D
330
47
100
AcDbEntity
  8
1
 62
     4
100
AcDbPoint
 10
106.5
 20
19.00000000000001
 30
0.0
  0
POINT
  5
4E
330
47
100
AcDbEntity
  8
1
 62
     4
100
AcDbPoint
 10
106.5
 20
12.5
 30
0.0
  0
POINT
  5
4F
330
47
100
AcDbEntity
  8
1
 62
     4
100
AcDbPoint
 10
112.25
 20
12.5
 30
0.0
  0
POINT
  5
50
330
47
100
AcDbEntity
  8
1
 62
     4
100
AcDbPoint
 10
100.75
 20
12.5
 30
0.0
  0
POINT
  5
51
330
47
100
AcDbEntity
  8
1
 62
     4
100
AcDbPoint
 10
123.5
 20
19.00000000000001
 30
0.0
  0
POINT
  5
52
330
47
100
AcDbEntity
  8
1
 62
     4
100
AcDbPoint
 10
123.5
 20
12.5
 30
0.0
  0
POINT
  5
53
330
47
100
AcDbEntity
  8
1
 62
     4
100
AcDbPoint
 10
129.25
 20
12.5
 30
0.0
  0
POINT
  5
54
330
47
100
AcDbEntity
  8
1
 62
     4
100
AcDbPoint
 10
117.75
 20
12.5
 30
0.0
  0
POINT
  5
55
330
47
100
AcDbEntity
  8
1
 62
     4
100
AcDbPoint
 10
140.5
 20
19.00000000000001
 30
0.0
  0
POINT
  5
56
330
47
100
AcDbEntity
  8
1
 62
     4
100
AcDbPoint
 10
140.5
 20
12.5
 30
0.0
  0
POINT
  5
57
330
47
100
AcDbEntity
  8
1
 62
     4
100
AcDbPoint
 10
146.25
 20
12.5
 30
0.0
  0
POINT
  5
58
330
47
100
AcDbEntity
  8
1
 62
     4
100
AcDbPoint
 10
134.75
 20
12.5
 30
0.0
  0
POINT
  5
59
330
47
100
AcDbEntity
  8
1
 62
     4
100
AcDbPoint
 10
151.75
 20
12.5
 30
0.0
  0
POINT
  5
5A
330
47
100
AcDbEntity
  8
1
 62
     4
100
AcDbPoint
 10
163.25
 20
12.5
 30
0.0
  0
POINT
  5
5B
330
47
100
AcDbEntity
  8
1
 62
     4
100
AcDbPoint
 10
157.5
 20
12.5
 30
0.0
  0
POINT
  5
5C
330
47
100
AcDbEntity
  8
1
 62
     4
100
AcDbPoint
 10
57.0
 20
14.25
 30
0.0
  0
POINT
  5
5D
330
47
100
AcDbEntity
  8
1
 62
     4
100
AcDbPoint
 10
57.0
 20
22.75000000000001
 30
0.0
  0
POINT
  5
5E
330
47
100
AcDbEntity
  8
1
 62
     4
100
AcDbPoint
 10
47.5
 20
282.0000000000003
 30
0.0
  0
POINT
  5
5F
330
47
100
AcDbEntity
  8
1
 62
     4
100
AcDbPoint
 10
157.5
 20
19.00000000000001
 30
0.0
  0
POINT
  5
60
330
47
100
AcDbEntity
  8
1
 62
     4
100
AcDbPoint
 10
57.0
 20
16.25
 30
0.0
  0
POINT
  5
61
330
47
100
AcDbEntity
  8
1
 62
     4
100
AcDbPoint
 10
57.0
 20
24.75000000000001
 30
0.0
  0
POINT
  5
62
330
47
100
AcDbEntity
  8
1
 62
     4
100
AcDbPoint
 10
57.0
 20
20.75000000000001
 30
0.0
  0
POINT
  5
63
330
47
100
AcDbEntity
  8
1
 62
     4
100
AcDbPoint
 10
57.0
 20
12.25
 30
0.0
  0
POINT
  5
64
330
47
100
AcDbEntity
  8
1
 62
     4
100
AcDbPoint
 10
34.0
 20
34.00000000000001
 30
0.0
  0
LINE
  5
65
330
47
100
AcDbEntity
  8
1
  6
Continuous
 62
     7
100
AcDbLine
 10
105.0
 20
10.0
 30
0.0
 11
200.0
 21
10.0
 31
0.0
  0
LINE
  5
66
330
47
100
AcDbEntity
  8
1
  6
Continuous
 62
     2
100
AcDbLine
 10
105.0
 20
10.0
 30
0.0
 11
105.0
 21
5.0
 31
0.0
  0
LINE
  5
67
330
47
100
AcDbEntity
  8
1
  6
Continuous
 62
     7
100
AcDbLine
 10
200.0
 20
148.5
 30
0.0
 11
200.0
 21
287.0000000000003
 31
0.0
  0
LINE
  5
68
330
47
100
AcDbEntity
  8
1
  6
Continuous
 62
     2
100
AcDbLine
 10
200.0
 20
148.5
 30
0.0
 11
205.0
 21
148.5
 31
0.0
  0
LINE
  5
69
330
47
100
AcDbEntity
  8
1
  6
Continuous
 62
     7
100
AcDbLine
 10
25.0
 20
148.5
 30
0.0
 11
25.0
 21
287.0000000000003
 31
0.0
  0
LINE
  5
6A
330
47
100
AcDbEntity
  8
1
  6
Continuous
 62
     2
100
AcDbLine
 10
25.0
 20
148.5
 30
0.0
 11
20.0
 21
148.5
 31
0.0
  0
LINE
  5
6B
330
47
100
AcDbEntity
  8
1
  6
Continuous
 62
     7
100
AcDbLine
 10
105.0
 20
287.0000000000003
 30
0.0
 11
25.0
 21
287.0000000000003
 31
0.0
  0
LINE
  5
6C
330
47
100
AcDbEntity
  8
1
  6
Continuous
 62
     2
100
AcDbLine
 10
105.0
 20
287.0000000000003
 30
0.0
 11
105.0
 21
292.0000000000003
 31
0.0
  0
LINE
  5
6D
330
47
100
AcDbEntity
  8
1
  6
Continuous
 62
     2
100
AcDbLine
 10
166.0
 20
20.00000000000001
 30
0.0
 11
200.0
 21
20.00000000000001
 31
0.0
  0
LINE
  5
6E
330
47
100
AcDbEntity
  8
1
  6
Continuous
 62
     2
100
AcDbLine
 10
98.0
 20
27.00000000000001
 30
0.0
 11
98.0
 21
9.99999999999999
 31
0.0
  0
LINE
  5
6F
330
47
100
AcDbEntity
  8
1
  6
Continuous
 62
     2
100
AcDbLine
 10
115.0
 20
27.00000000000001
 30
0.0
 11
115.0
 21
9.99999999999999
 31
0.0
  0
LINE
  5
70
330
47
100
AcDbEntity
  8
1
  6
Continuous
 62
     2
100
AcDbLine
 10
149.0
 20
27.00000000000001
 30
0.0
 11
149.0
 21
10.0
 31
0.0
  0
LINE
  5
71
330
47
100
AcDbEntity
  8
1
  6
Continuous
 62
     2
100
AcDbLine
 10
132.0
 20
27.00000000000001
 30
0.0
 11
132.0
 21
9.99999999999999
 31
0.0
  0
LINE
  5
72
330
47
100
AcDbEntity
  8
1
  6
Continuous
 62
     2
100
AcDbLine
 10
166.0
 20
27.00000000000001
 30
0.0
 11
166.0
 21
10.0
 31
0.0
  0
LINE
  5
73
330
47
100
AcDbEntity
  8
1
  6
Continuous
 62
     2
100
AcDbLine
 10
55.0
 20
277.0000000000003
 30
0.0
 11
25.0
 21
277.0000000000003
 31
0.0
  0
LINE
  5
74
330
47
100
AcDbEntity
  8
1
  6
Continuous
 62
     7
100
AcDbLine
 10
25.0
 20
10.0
 30
0.0
 11
25.0
 21
148.5
 31
0.0
  0
LINE
  5
75
330
47
100
AcDbEntity
  8
1
  6
Continuous
 62
     2
100
AcDbLine
 10
40.0
 20
287.0000000000003
 30
0.0
 11
40.0
 21
277.0000000000003
 31
0.0
  0
LINE
  5
76
330
47
100
AcDbEntity
  8
1
  6
Continuous
 62
     2
100
AcDbLine
 10
55.0
 20
287.0000000000003
 30
0.0
 11
55.0
 21
277.0000000000003
 31
0.0
  0
LINE
  5
77
330
47
100
AcDbEntity
  8
1
  6
Continuous
 62
     2
100
AcDbLine
 10
33.0
 20
41.00000000000001
 30
0.0
 11
33.0
 21
27.0
 31
0.0
  0
LINE
  5
78
330
47
100
AcDbEntity
  8
1
  6
Continuous
 62
     7
100
AcDbLine
 10
200.0
 20
27.00000000000001
 30
0.0
 11
25.0
 21
27.00000000000001
 31
0.0
  0
LINE
  5
79
330
47
100
AcDbEntity
  8
1
  6
Continuous
 62
     7
100
AcDbLine
 10
25.0
 20
41.0
 30
0.0
 11
200.0
 21
41.0
 31
0.0
  0
LINE
  5
7A
330
47
100
AcDbEntity
  8
1
  6
PHANTOM
 62
     4
100
AcDbLine
 10
0.0
 20
0.0
 30
0.0
 11
210.0
 21
0.0
 31
0.0
  0
LINE
  5
7B
330
47
100
AcDbEntity
  8
1
  6
PHANTOM
 62
     4
100
AcDbLine
 10
210.0
 20
0.0
 30
0.0
 11
210.0
 21
297.0
 31
0.0
  0
LINE
  5
7C
330
47
100
AcDbEntity
  8
1
  6
PHANTOM
 62
     4
100
AcDbLine
 10
210.0
 20
297.0
 30
0.0
 11
0.0
 21
297.0
 31
0.0
  0
LINE
  5
7D
330
47
100
AcDbEntity
  8
1
  6
PHANTOM
 62
     4
100
AcDbLine
 10
0.0
 20
297.0
 30
0.0
 11
0.0
 21
0.0
 31
0.0
  0
LINE
  5
7E
330
47
100
AcDbEntity
  8
1
  6
Continuous
 62
     7
100
AcDbLine
 10
25.0
 20
10.0
 30
0.0
 11
105.0
 21
10.0
 31
0.0
  0
LINE
  5
7F
330
47
100
AcDbEntity
  8
1
  6
Continuous
 62
     7
100
AcDbLine
 10
200.0
 20
10.0
 30
0.0
 11
200.0
 21
148.5
 31
0.0
  0
LINE
  5
80
330
47
100
AcDbEntity
  8
1
  6
Continuous
 62
     7
100
AcDbLine
 10
200.0
 20
287.0000000000003
 30
0.0
 11
105.0
 21
287.0000000000003
 31
0.0
  0
LINE
  5
81
330
47
100
AcDbEntity
  8
1
  6
Continuous
 62
     2
100
AcDbLine
 10
25.0
 20
18.50000000000001
 30
0.0
 11
81.0
 21
18.50000000000001
 31
0.0
  0
LINE
  5
82
330
47
100
AcDbEntity
  8
1
  6
Continuous
 62
     2
100
AcDbLine
 10
33.0
 20
27.0
 30
0.0
 11
33.0
 21
10.0
 31
0.0
  0
LINE
  5
83
330
47
100
AcDbEntity
  8
1
  6
Continuous
 62
     7
100
AcDbLine
 10
191.0
 20
24.70000000000001
 30
0.0
 11
191.0
 21
22.30000000000001
 31
0.0
  0
LINE
  5
84
330
47
100
AcDbEntity
  8
1
  6
Continuous
 62
     7
100
AcDbLine
 10
191.0
 20
24.70000000000001
 30
0.0
 11
196.0
 21
25.50000000000001
 31
0.0
  0
LINE
  5
85
330
47
100
AcDbEntity
  8
1
  6
Continuous
 62
     7
100
AcDbLine
 10
196.0
 20
25.50000000000001
 30
0.0
 11
196.0
 21
21.50000000000001
 31
0.0
  0
LINE
  5
86
330
47
100
AcDbEntity
  8
1
  6
Continuous
 62
     7
100
AcDbLine
 10
196.0
 20
21.50000000000001
 30
0.0
 11
191.0
 21
22.30000000000001
 31
0.0
  0
LINE
  5
87
330
47
100
AcDbEntity
  8
1
  6
DOT_CENTER
 62
     2
100
AcDbLine
 10
184.0
 20
23.50000000000001
 30
0.0
 11
197.0
 21
23.50000000000001
 31
0.0
  0
LINE
  5
88
330
47
100
AcDbEntity
  8
1
  6
DOT_CENTER
 62
     2
100
AcDbLine
 10
187.0
 20
26.50000000000001
 30
0.0
 11
187.0
 21
20.50000000000001
 31
0.0
  0
LINE
  5
89
330
47
100
AcDbEntity
  8
1
  6
Continuous
 62
     2
100
AcDbLine
 10
81.0
 20
27.00000000000001
 30
0.0
 11
81.0
 21
10.0
 31
0.0
  0
CIRCLE
  5
8A
330
47
100
AcDbEntity
  8
1
  6
Continuous
 62
     7
100
AcDbCircle
 10
103.5
 20
12.5
 30
0.0
 40
0.2999999999999972
  0
CIRCLE
  5
8B
330
47
100
AcDbEntity
  8
1
  6
Continuous
 62
     7
100
AcDbCircle
 10
109.5
 20
12.5
 30
0.0
 40
0.2999999999999972
  0
CIRCLE
  5
8C
330
47
100
AcDbEntity
  8
1
  6
Continuous
 62
     7
100
AcDbCircle
 10
120.5
 20
12.5
 30
0.0
 40
0.2999999999999972
  0
CIRCLE
  5
8D
330
47
100
AcDbEntity
  8
1
  6
Continuous
 62
     7
100
AcDbCircle
 10
126.5
 20
12.5
 30
0.0
 40
0.2999999999999972
  0
CIRCLE
  5
8E
330
47
100
AcDbEntity
  8
1
  6
Continuous
 62
     7
100
AcDbCircle
 10
137.5
 20
12.5
 30
0.0
 40
0.3000000000000114
  0
CIRCLE
  5
8F
330
47
100
AcDbEntity
  8
1
  6
Continuous
 62
     7
100
AcDbCircle
 10
143.5
 20
12.5
 30
0.0
 40
0.3000000000000114
  0
CIRCLE
  5
90
330
47
100
AcDbEntity
  8
1
  6
Continuous
 62
     7
100
AcDbCircle
 10
160.5
 20
12.5
 30
0.0
 40
0.3000000000000114
  0
CIRCLE
  5
91
330
47
100
AcDbEntity
  8
1
  6
Continuous
 62
     7
100
AcDbCircle
 10
154.5
 20
12.5
 30
0.0
 40
0.3000000000000114
  0
CIRCLE
  5
92
330
47
100
AcDbEntity
  8
1
  6
Continuous
 62
     7
100
AcDbCircle
 10
187.0
 20
23.50000000000001
 30
0.0
 40
1.200000000000102
  0
CIRCLE
  5
93
330
47
100
AcDbEntity
  8
1
  6
Continuous
 62
     7
100
AcDbCircle
 10
187.0
 20
23.50000000000001
 30
0.0
 40
2.0
  0
CIRCLE
  5
94
330
47
100
AcDbEntity
  8
1
  6
DOT_CENTER
 62
     7
100
AcDbCircle
 10
89.5
 20
16.0
 30
0.0
 40
0.1000000000000227
  0
CIRCLE
  5
95
330
47
100
AcDbEntity
  8
1
  6
DOT_CENTER
 62
     7
100
AcDbCircle
 10
89.5
 20
18.0
 30
0.0
 40
0.1000000000000227
  0
MTEXT
  5
97
330
47
100
AcDbEntity
  8
1
 62
     7
100
AcDbMText
 10
188.5
 20
15.0
 30
0.0
 40
3.0
 41
0.0
 71
     5
 72
     1
  1
三栄水栓製作所
  7
CONVERTER_11
 73
     1
 44
1.0
  0
MTEXT
  5
98
330
47
100
AcDbEntity
  8
1
 62
     7
100
AcDbMText
 10
171.5
 20
15.0
 30
0.0
 40
2.5
 41
0.0
 71
     5
 72
     1
  1
株式会社
  7
CONVERTER_11
 73
     1
 44
1.0
  0
MTEXT
  5
99
330
47
100
AcDbEntity
  8
1
 62
     2
100
AcDbMText
 10
32.5
 20
282.0000000000003
 30
0.0
 40
5.0
 41
0.0
 71
     5
 72
     1
  1
図番
  7
CONVERTER_11
 73
     1
 44
0.45454545454545
  0
MTEXT
  5
9A
330
47
100
AcDbEntity
  8
1
 62
     2
100
AcDbMText
 10
29.0
 20
34.00000000000001
 30
0.0
 40
3.5
 41
0.0
 71
     5
 72
     1
  1
備考
  7
CONVERTER_11
 73
     1
 44
0.45454545454545
  0
MTEXT
  5
9B
330
47
100
AcDbEntity
  8
1
 62
     2
100
AcDbMText
 10
29.0
 20
22.75
 30
0.0
 40
3.5
 41
0.0
 71
     5
 72
     1
  1
品名
  7
CONVERTER_11
 73
     1
 44
0.72727272727273
  0
MTEXT
  5
9C
330
47
100
AcDbEntity
  8
1
 62
     2
100
AcDbMText
 10
29.0
 20
14.25
 30
0.0
 40
3.5
 41
0.0
 71
     5
 72
     1
  1
品番
  7
CONVERTER_11
 73
     1
 44
0.72727272727273
  0
MTEXT
  5
9D
330
47
100
AcDbEntity
  8
1
 62
     2
100
AcDbMText
 10
101.5
 20
25.00000000000001
 30
0.0
 40
3.0
 41
0.0
 71
     5
 72
     1
  1
承認
  7
CONVERTER_11
 73
     1
 44
0.59090909090909
  0
MTEXT
  5
9E
330
47
100
AcDbEntity
  8
1
 62
     2
100
AcDbMText
 10
175.0
 20
23.50000000000001
 30
0.0
 40
3.5
 41
0.0
 71
     5
 72
     1
  1
第三角法
  7
CONVERTER_11
 73
     1
 44
0.54545454545455
  0
MTEXT
  5
9F
330
47
100
AcDbEntity
  8
1
 62
     2
100
AcDbMText
 10
118.5
 20
25.00000000000001
 30
0.0
 40
3.0
 41
0.0
 71
     5
 72
     1
  1
検図
  7
CONVERTER_11
 73
     1
 44
0.59090909090909
  0
MTEXT
  5
A0
330
47
100
AcDbEntity
  8
1
 62
     2
100
AcDbMText
 10
152.5
 20
25.00000000000001
 30
0.0
 40
3.0
 41
0.0
 71
     5
 72
     1
  1
設計
  7
CONVERTER_11
 73
     1
 44
0.59090909090909
  0
MTEXT
  5
A1
330
47
100
AcDbEntity
  8
1
 62
     2
100
AcDbMText
 10
135.5
 20
25.00000000000001
 30
0.0
 40
3.0
 41
0.0
 71
     5
 72
     1
  1
製図
  7
CONVERTER_11
 73
     1
 44
0.59090909090909
  0
MTEXT
  5
A2
330
47
100
AcDbEntity
  8
1
 62
     2
100
AcDbMText
 10
89.5
 20
24.00000000000001
 30
0.0
 40
3.5
 41
0.0
 71
     5
 72
     1
  1
尺度
  7
CONVERTER_11
 73
     1
 44
0.54545454545455
  0
MTEXT
  5
A3
330
47
100
AcDbEntity
  8
1
 62
   250
100
AcDbMText
 10
25.0
 20
5.0
 30
0.0
 40
3.5
 41
0.0
 71
     4
 72
     1
  1
備考欄の文字列 原点位置=4
  7
CONVERTER_11
 73
     1
 44
0.54545454545455
  0
ENDBLK
  5
49
330
47
100
AcDbEntity
  8
0
100
AcDbBlockEnd
  0
BLOCK
  5
D19
330
D10
100
AcDbEntity
  8
0
100
AcDbBlockBegin
  2
*D2
 70
     1
 10
0.0
 20
0.0
 30
0.0
  3
*D2
  1

  0
LINE
  5
D11
330
D10
100
AcDbEntity
  8
1
  6
Continuous
 62
     2
100
AcDbLine
 10
1687.298774763642
 20
2401.484851970291
 30
0.0
 11
1757.298774763642
 21
2401.484851970291
 31
0.0
  0
LINE
  5
D12
330
D10
100
AcDbEntity
  8
1
  6
Continuous
 62
     2
100
AcDbLine
 10
1631.144689479367
 20
2401.484851970291
 30
0.0
 11
1687.298774763642
 21
2401.484851970291
 31
0.0
  0
LINE
  5
D13
330
D10
100
AcDbEntity
  8
1
  6
Continuous
 62
     2
100
AcDbLine
 10
1561.144689479367
 20
2401.484851970291
 30
0.0
 11
1631.144689479367
 21
2401.484851970291
 31
0.0
  0
LINE
  5
D14
330
D10
100
AcDbEntity
  8
1
  6
Continuous
 62
     2
100
AcDbLine
 10
1687.298774763642
 20
2301.484851970291
 30
0.0
 11
1687.298774763642
 21
2411.484851970291
 31
0.0
  0
LINE
  5
D15
330
D10
100
AcDbEntity
  8
1
  6
Continuous
 62
     2
100
AcDbLine
 10
1631.144689479367
 20
2077.683359792687
 30
0.0
 11
1631.144689479367
 21
2411.484851970291
 31
0.0
  0
SOLID
  5
D16
330
D10
100
AcDbEntity
  8
1
 62
     2
100
AcDbTrace
 10
1596.144689479367
 20
2396.877014554732
 30
0.0
 11
1596.144689479367
 21
2406.09268938585
 31
0.0
 12
1631.144689479367
 22
2401.484851970291
 32
0.0
 13
1631.144689479367
 23
2401.484851970291
 33
0.0
  0
SOLID
  5
D17
330
D10
100
AcDbEntity
  8
1
 62
     2
100
AcDbTrace
 10
1722.298774763642
 20
2406.09268938585
 30
0.0
 11
1722.298774763642
 21
2396.877014554732
 31
0.0
 12
1687.298774763642
 22
2401.484851970291
 32
0.0
 13
1687.298774763642
 23
2401.484851970291
 33
0.0
  0
MTEXT
  5
D18
330
D10
100
AcDbEntity
  8
1
 62
     7
100
AcDbMText
 10
1632.971732121505
 20
2411.484851970291
 30
0.0
 40
35.0
 41
0.0
 71
     7
 72
     1
  1
56
  7
CONVERTER_12
 11
0.9999999999970619
 21
2.424068405545306E-6
 31
0.0
 73
     1
 44
0.60024009603842
  0
ENDBLK
  5
D1A
330
D10
100
AcDbEntity
  8
0
100
AcDbBlockEnd
  0
BLOCK
  5
D26
330
D1D
100
AcDbEntity
  8
0
100
AcDbBlockBegin
  2
*D3
 70
     1
 10
0.0
 20
0.0
 30
0.0
  3
*D3
  1

  0
LINE
  5
D1E
330
D1D
100
AcDbEntity
  8
1
  6
Continuous
 62
     2
100
AcDbLine
 10
1687.298774763642
 20
2481.484851970291
 30
0.0
 11
1757.298774763642
 21
2481.484851970291
 31
0.0
  0
LINE
  5
D1F
330
D1D
100
AcDbEntity
  8
1
  6
Continuous
 62
     2
100
AcDbLine
 10
1604.298774763974
 20
2481.484851970291
 30
0.0
 11
1687.298774763642
 21
2481.484851970291
 31
0.0
  0
LINE
  5
D20
330
D1D
100
AcDbEntity
  8
1
  6
Continuous
 62
     2
100
AcDbLine
 10
1534.298774763974
 20
2481.484851970291
 30
0.0
 11
1604.298774763974
 21
2481.484851970291
 31
0.0
  0
LINE
  5
D21
330
D1D
100
AcDbEntity
  8
1
  6
Continuous
 62
     2
100
AcDbLine
 10
1687.298774763642
 20
2301.484851970291
 30
0.0
 11
1687.298774763642
 21
2491.484851970291
 31
0.0
  0
LINE
  5
D22
330
D1D
100
AcDbEntity
  8
1
  6
Continuous
 62
     2
100
AcDbLine
 10
1604.298774763974
 20
2255.846674280474
 30
0.0
 11
1604.298774763974
 21
2491.484851970291
 31
0.0
  0
SOLID
  5
D23
330
D1D
100
AcDbEntity
  8
1
 62
     2
100
AcDbTrace
 10
1569.298774763974
 20
2476.877014554732
 30
0.0
 11
1569.298774763974
 21
2486.09268938585
 31
0.0
 12
1604.298774763974
 22
2481.484851970291
 32
0.0
 13
1604.298774763974
 23
2481.484851970291
 33
0.0
  0
SOLID
  5
D24
330
D1D
100
AcDbEntity
  8
1
 62
     2
100
AcDbTrace
 10
1722.298774763642
 20
2486.09268938585
 30
0.0
 11
1722.298774763642
 21
2476.877014554732
 31
0.0
 12
1687.298774763642
 22
2481.484851970291
 32
0.0
 13
1687.298774763642
 23
2481.484851970291
 33
0.0
  0
MTEXT
  5
D25
330
D1D
100
AcDbEntity
  8
1
 62
     7
100
AcDbMText
 10
1619.548774763808
 20
2491.484851970291
 30
0.0
 40
35.0
 41
0.0
 71
     7
 72
     1
  1
83
  7
CONVERTER_12
 11
0.9999999999970619
 21
2.424068405545306E-6
 31
0.0
 73
     1
 44
0.60024009603842
  0
ENDBLK
  5
D27
330
D1D
100
AcDbEntity
  8
0
100
AcDbBlockEnd
  0
BLOCK
  5
D31
330
D2A
100
AcDbEntity
  8
0
100
AcDbBlockBegin
  2
*D4
 70
     1
 10
0.0
 20
0.0
 30
0.0
  3
*D4
  1

  0
LINE
  5
D2B
330
D2A
100
AcDbEntity
  8
1
  6
Continuous
 62
     2
100
AcDbLine
 10
661.0966938502463
 20
2481.484851970291
 30
0.0
 11
1301.096679542187
 21
2481.484851970291
 31
0.0
  0
LINE
  5
D2C
330
D2A
100
AcDbEntity
  8
1
  6
Continuous
 62
     2
100
AcDbLine
 10
1301.096679542187
 20
2286.541937722851
 30
0.0
 11
1301.096679542187
 21
2491.484851970291
 31
0.0
  0
LINE
  5
D2D
330
D2A
100
AcDbEntity
  8
1
  6
Continuous
 62
     2
100
AcDbLine
 10
661.0966938502463
 20
2286.541937722851
 30
0.0
 11
661.0966938502463
 21
2491.484851970291
 31
0.0
  0
SOLID
  5
D2E
330
D2A
100
AcDbEntity
  8
1
 62
     2
100
AcDbTrace
 10
696.0966938502463
 20
2486.09268938585
 30
0.0
 11
696.0966938502463
 21
2476.877014554732
 31
0.0
 12
661.0966938502463
 22
2481.484851970291
 32
0.0
 13
661.0966938502463
 23
2481.484851970291
 33
0.0
  0
SOLID
  5
D2F
330
D2A
100
AcDbEntity
  8
1
 62
     2
100
AcDbTrace
 10
1266.096679542187
 20
2476.877014554732
 30
0.0
 11
1266.096679542187
 21
2486.09268938585
 31
0.0
 12
1301.096679542187
 22
2481.484851970291
 32
0.0
 13
1301.096679542187
 23
2481.484851970291
 33
0.0
  0
MTEXT
  5
D30
330
D2A
100
AcDbEntity
  8
1
 62
     7
100
AcDbMText
 10
939.0966866964662
 20
2491.484851970291
 30
0.0
 40
35.0
 41
0.0
 71
     7
 72
     1
  1
640
  7
CONVERTER_12
 11
0.9999999999970619
 21
2.424068405545306E-6
 31
0.0
 73
     1
 44
0.60024009603842
  0
ENDBLK
  5
D32
330
D2A
100
AcDbEntity
  8
0
100
AcDbBlockEnd
  0
BLOCK
  5
D3C
330
D35
100
AcDbEntity
  8
0
100
AcDbBlockBegin
  2
*D5
 70
     1
 10
0.0
 20
0.0
 30
0.0
  3
*D5
  1

  0
LINE
  5
D36
330
D35
100
AcDbEntity
  8
1
  6
Continuous
 62
     2
100
AcDbLine
 10
481.0966938502463
 20
2301.484851970291
 30
0.0
 11
481.0966938502463
 21
1661.484866277852
 31
0.0
  0
LINE
  5
D37
330
D35
100
AcDbEntity
  8
1
  6
Continuous
 62
     2
100
AcDbLine
 10
676.0396080976864
 20
1661.484866277852
 30
0.0
 11
471.0966938502463
 21
1661.484866277852
 31
0.0
  0
LINE
  5
D38
330
D35
100
AcDbEntity
  8
1
  6
Continuous
 62
     2
100
AcDbLine
 10
676.0396080976864
 20
2301.484851970291
 30
0.0
 11
471.0966938502463
 21
2301.484851970291
 31
0.0
  0
SOLID
  5
D39
330
D35
100
AcDbEntity
  8
1
 62
     2
100
AcDbTrace
 10
485.7045312658051
 20
2266.484851970291
 30
0.0
 11
476.4888564346875
 21
2266.484851970291
 31
0.0
 12
481.0966938502463
 22
2301.484851970291
 32
0.0
 13
481.0966938502463
 23
2301.484851970291
 33
0.0
  0
SOLID
  5
D3A
330
D35
100
AcDbEntity
  8
1
 62
     2
100
AcDbTrace
 10
476.4888564346875
 20
1696.484866277852
 30
0.0
 11
485.7045312658051
 21
1696.484866277852
 31
0.0
 12
481.0966938502463
 22
1661.484866277852
 32
0.0
 13
481.0966938502463
 23
1661.484866277852
 33
0.0
  0
MTEXT
  5
D3B
330
D35
100
AcDbEntity
  8
1
 62
     7
100
AcDbMText
 10
471.0966938502463
 20
1939.484859124072
 30
0.0
 40
35.0
 41
0.0
 71
     7
 72
     1
  1
640
  7
CONVERTER_12
 11
0.0
 21
1.0
 31
0.0
 73
     1
 44
0.60024009603842
  0
ENDBLK
  5
D3D
330
D35
100
AcDbEntity
  8
0
100
AcDbBlockEnd
  0
BLOCK
  5
D47
330
D40
100
AcDbEntity
  8
0
100
AcDbBlockBegin
  2
*D6
 70
     1
 10
0.0
 20
0.0
 30
0.0
  3
*D6
  1

  0
LINE
  5
D41
330
D40
100
AcDbEntity
  8
1
  6
Continuous
 62
     2
100
AcDbLine
 10
1178.096790383679
 20
1561.484866277853
 30
0.0
 11
1301.096679542187
 21
1561.484866277853
 31
0.0
  0
LINE
  5
D42
330
D40
100
AcDbEntity
  8
1
  6
Continuous
 62
     2
100
AcDbLine
 10
1301.096679542187
 20
1676.427780525293
 30
0.0
 11
1301.096679542187
 21
1551.484866277853
 31
0.0
  0
LINE
  5
D43
330
D40
100
AcDbEntity
  8
1
  6
Continuous
 62
     2
100
AcDbLine
 10
1178.096790383679
 20
1893.705075655093
 30
0.0
 11
1178.096790383679
 21
1551.484866277853
 31
0.0
  0
SOLID
  5
D44
330
D40
100
AcDbEntity
  8
1
 62
     2
100
AcDbTrace
 10
1213.096790383679
 20
1566.092703693412
 30
0.0
 11
1213.096790383679
 21
1556.877028862294
 31
0.0
 12
1178.096790383679
 22
1561.484866277853
 32
0.0
 13
1178.096790383679
 23
1561.484866277853
 33
0.0
  0
SOLID
  5
D45
330
D40
100
AcDbEntity
  8
1
 62
     2
100
AcDbTrace
 10
1266.096679542187
 20
1556.877028862294
 30
0.0
 11
1266.096679542187
 21
1566.092703693412
 31
0.0
 12
1301.096679542187
 22
1561.484866277853
 32
0.0
 13
1301.096679542187
 23
1561.484866277853
 33
0.0
  0
MTEXT
  5
D46
330
D40
100
AcDbEntity
  8
1
 62
     7
100
AcDbMText
 10
1202.803029857183
 20
1571.484866277853
 30
0.0
 40
35.0
 41
0.0
 71
     7
 72
     1
  1
123
  7
CONVERTER_12
 11
0.9999999999970619
 21
2.424068405545306E-6
 31
0.0
 73
     1
 44
0.60024009603842
  0
ENDBLK
  5
D48
330
D40
100
AcDbEntity
  8
0
100
AcDbBlockEnd
  0
BLOCK
  5
D52
330
D4B
100
AcDbEntity
  8
0
100
AcDbBlockBegin
  2
*D7
 70
     1
 10
0.0
 20
0.0
 30
0.0
  3
*D7
  1

  0
LINE
  5
D4C
330
D4B
100
AcDbEntity
  8
1
  6
Continuous
 62
     2
100
AcDbLine
 10
1401.009269330687
 20
1981.484859124072
 30
0.0
 11
1401.009269330687
 21
1661.484866277852
 31
0.0
  0
LINE
  5
D4D
330
D4B
100
AcDbEntity
  8
1
  6
Continuous
 62
     2
100
AcDbLine
 10
1286.153765294747
 20
1661.484866277852
 30
0.0
 11
1411.009269330687
 21
1661.484866277852
 31
0.0
  0
LINE
  5
D4E
330
D4B
100
AcDbEntity
  8
1
  6
Continuous
 62
     2
100
AcDbLine
 10
1356.719328203964
 20
1981.484859124072
 30
0.0
 11
1411.009269330687
 21
1981.484859124072
 31
0.0
  0
SOLID
  5
D4F
330
D4B
100
AcDbEntity
  8
1
 62
     2
100
AcDbTrace
 10
1405.617106746246
 20
1946.484859124072
 30
0.0
 11
1396.401431915128
 21
1946.484859124072
 31
0.0
 12
1401.009269330687
 22
1981.484859124072
 32
0.0
 13
1401.009269330687
 23
1981.484859124072
 33
0.0
  0
SOLID
  5
D50
330
D4B
100
AcDbEntity
  8
1
 62
     2
100
AcDbTrace
 10
1396.401431915128
 20
1696.484866277852
 30
0.0
 11
1405.617106746246
 21
1696.484866277852
 31
0.0
 12
1401.009269330687
 22
1661.484866277852
 32
0.0
 13
1401.009269330687
 23
1661.484866277852
 33
0.0
  0
MTEXT
  5
D51
330
D4B
100
AcDbEntity
  8
1
 62
     7
100
AcDbMText
 10
1391.009269330687
 20
1779.484862700962
 30
0.0
 40
35.0
 41
0.0
 71
     7
 72
     1
  1
320
  7
CONVERTER_12
 11
0.0
 21
1.0
 31
0.0
 73
     1
 44
0.60024009603842
  0
ENDBLK
  5
D53
330
D4B
100
AcDbEntity
  8
0
100
AcDbBlockEnd
  0
BLOCK
  5
D5D
330
D56
100
AcDbEntity
  8
0
100
AcDbBlockBegin
  2
*D8
 70
     1
 10
0.0
 20
0.0
 30
0.0
  3
*D8
  1

  0
LINE
  5
D57
330
D56
100
AcDbEntity
  8
1
  6
Continuous
 62
     2
100
AcDbLine
 10
682.0966866976621
 20
2401.484851970291
 30
0.0
 11
1280.096686695271
 21
2401.484851970291
 31
0.0
  0
LINE
  5
D58
330
D56
100
AcDbEntity
  8
1
  6
Continuous
 62
     2
100
AcDbLine
 10
1280.096686695271
 20
2290.584859122836
 30
0.0
 11
1280.096686695271
 21
2411.484851970291
 31
0.0
  0
LINE
  5
D59
330
D56
100
AcDbEntity
  8
1
  6
Continuous
 62
     2
100
AcDbLine
 10
682.0966866976621
 20
2290.484859122836
 30
0.0
 11
682.0966866976621
 21
2411.484851970291
 31
0.0
  0
SOLID
  5
D5A
330
D56
100
AcDbEntity
  8
1
 62
     2
100
AcDbTrace
 10
717.0966866976621
 20
2406.09268938585
 30
0.0
 11
717.0966866976621
 21
2396.877014554732
 31
0.0
 12
682.0966866976621
 22
2401.484851970291
 32
0.0
 13
682.0966866976621
 23
2401.484851970291
 33
0.0
  0
SOLID
  5
D5B
330
D56
100
AcDbEntity
  8
1
 62
     2
100
AcDbTrace
 10
1245.096686695271
 20
2396.877014554732
 30
0.0
 11
1245.096686695271
 21
2406.09268938585
 31
0.0
 12
1280.096686695271
 22
2401.484851970291
 32
0.0
 13
1280.096686695271
 23
2401.484851970291
 33
0.0
  0
MTEXT
  5
D5C
330
D56
100
AcDbEntity
  8
1
 62
     7
100
AcDbMText
 10
939.0966866964662
 20
2411.484851970291
 30
0.0
 40
35.0
 41
0.0
 71
     7
 72
     1
  1
598
  7
CONVERTER_12
 11
0.9999999999970619
 21
2.424068405545306E-6
 31
0.0
 73
     1
 44
0.60024009603842
  0
ENDBLK
  5
D5E
330
D56
100
AcDbEntity
  8
0
100
AcDbBlockEnd
  0
BLOCK
  5
D68
330
D61
100
AcDbEntity
  8
0
100
AcDbBlockBegin
  2
*D9
 70
     1
 10
0.0
 20
0.0
 30
0.0
  3
*D9
  1

  0
LINE
  5
D62
330
D61
100
AcDbEntity
  8
1
  6
Continuous
 62
     2
100
AcDbLine
 10
1102.096790383982
 20
1101.240162542693
 30
0.0
 11
1254.096786268438
 21
1101.240162542693
 31
0.0
  0
LINE
  5
D63
330
D61
100
AcDbEntity
  8
1
  6
Continuous
 62
     2
100
AcDbLine
 10
1254.096786268438
 20
1206.240162542693
 30
0.0
 11
1254.096786268438
 21
1091.240162542693
 31
0.0
  0
LINE
  5
D64
330
D61
100
AcDbEntity
  8
1
  6
Continuous
 62
     2
100
AcDbLine
 10
1102.096790383982
 20
1207.00774453117
 30
0.0
 11
1102.096790383982
 21
1091.240162542693
 31
0.0
  0
SOLID
  5
D65
330
D61
100
AcDbEntity
  8
1
 62
     2
100
AcDbTrace
 10
1137.096790383982
 20
1105.847999958252
 30
0.0
 11
1137.096790383982
 21
1096.632325127134
 31
0.0
 12
1102.096790383982
 22
1101.240162542693
 32
0.0
 13
1102.096790383982
 23
1101.240162542693
 33
0.0
  0
SOLID
  5
D66
330
D61
100
AcDbEntity
  8
1
 62
     2
100
AcDbTrace
 10
1219.096786268438
 20
1096.632325127134
 30
0.0
 11
1219.096786268438
 21
1105.847999958252
 31
0.0
 12
1254.096786268438
 22
1101.240162542693
 32
0.0
 13
1254.096786268438
 23
1101.240162542693
 33
0.0
  0
MTEXT
  5
D67
330
D61
100
AcDbEntity
  8
1
 62
     7
100
AcDbMText
 10
1133.146788326286
 20
1111.24009297193
 30
0.0
 40
34.99999999999999
 41
0.0
 71
     7
 72
     1
  1
\C7;{\Fgdt;n}\C7;152
  7
CONVERTER_12
 11
0.9999999999970619
 21
2.424068405545306E-6
 31
0.0
 73
     1
 44
0.60024009603842
  0
ENDBLK
  5
D69
330
D61
100
AcDbEntity
  8
0
100
AcDbBlockEnd
  0
BLOCK
  5
D73
330
D6C
100
AcDbEntity
  8
0
100
AcDbBlockBegin
  2
*D10
 70
     1
 10
0.0
 20
0.0
 30
0.0
  3
*D10
  1

  0
LINE
  5
D6D
330
D6C
100
AcDbEntity
  8
1
  6
Continuous
 62
     2
100
AcDbLine
 10
561.0966938502463
 20
2280.484859122876
 30
0.0
 11
561.0966938502463
 21
1682.484859125269
 31
0.0
  0
LINE
  5
D6E
330
D6C
100
AcDbEntity
  8
1
  6
Continuous
 62
     2
100
AcDbLine
 10
671.9966866977031
 20
1682.484859125269
 30
0.0
 11
551.0966938502463
 21
1682.484859125269
 31
0.0
  0
LINE
  5
D6F
330
D6C
100
AcDbEntity
  8
1
  6
Continuous
 62
     2
100
AcDbLine
 10
672.0966866977021
 20
2280.484859122876
 30
0.0
 11
551.0966938502463
 21
2280.484859122876
 31
0.0
  0
SOLID
  5
D70
330
D6C
100
AcDbEntity
  8
1
 62
     2
100
AcDbTrace
 10
565.7045312658051
 20
2245.484859122876
 30
0.0
 11
556.4888564346875
 21
2245.484859122876
 31
0.0
 12
561.0966938502463
 22
2280.484859122876
 32
0.0
 13
561.0966938502463
 23
2280.484859122876
 33
0.0
  0
SOLID
  5
D71
330
D6C
100
AcDbEntity
  8
1
 62
     2
100
AcDbTrace
 10
556.4888564346875
 20
1717.484859125269
 30
0.0
 11
565.7045312658051
 21
1717.484859125269
 31
0.0
 12
561.0966938502463
 22
1682.484859125269
 32
0.0
 13
561.0966938502463
 23
1682.484859125269
 33
0.0
  0
MTEXT
  5
D72
330
D6C
100
AcDbEntity
  8
1
 62
     7
100
AcDbMText
 10
551.0966938502463
 20
1939.484859124072
 30
0.0
 40
35.0
 41
0.0
 71
     7
 72
     1
  1
598
  7
CONVERTER_12
 11
0.0
 21
1.0
 31
0.0
 73
     1
 44
0.60024009603842
  0
ENDBLK
  5
D74
330
D6C
100
AcDbEntity
  8
0
100
AcDbBlockEnd
  0
BLOCK
  5
D7E
330
D77
100
AcDbEntity
  8
0
100
AcDbBlockBegin
  2
*D11
 70
     1
 10
0.0
 20
0.0
 30
0.0
  3
*D11
  1

  0
LINE
  5
D78
330
D77
100
AcDbEntity
  8
1
  6
Continuous
 62
     2
100
AcDbLine
 10
1245.714692220756
 20
2087.21124284425
 30
0.0
 11
1036.363809649742
 21
1759.873197707251
 31
0.0
  0
ARC
  5
D79
330
D77
100
AcDbEntity
  8
1
  6
Continuous
 62
     2
100
AcDbCircle
 10
1178.096789529679
 20
1981.484857498571
 30
0.0
 40
72.99999730120794
100
AcDbArc
 50
0.0
 51
65.247560900422
  0
ARC
  5
D7A
330
D77
100
AcDbEntity
  8
1
  6
Continuous
 62
     2
100
AcDbCircle
 10
1178.096789529679
 20
1981.484857498571
 30
0.0
 40
72.99999730120801
100
AcDbArc
 50
229.5500864808896
 51
270.0000104197323
  0
SOLID
  5
D7B
330
D77
100
AcDbEntity
  8
1
 62
     2
100
AcDbTrace
 10
1123.78951095991
 20
1888.018547648151
 30
0.0
 11
1116.025845546621
 21
1892.983843404035
 31
0.0
 12
1138.76526108259
 22
1919.986642272499
 32
0.0
 13
1138.76526108259
 23
1919.986642272499
 33
0.0
  0
SOLID
  5
D7C
330
D77
100
AcDbEntity
  8
1
 62
     2
100
AcDbTrace
 10
1232.404068099447
 20
2074.951167348991
 30
0.0
 11
1240.167733512736
 21
2069.985871593107
 31
0.0
 12
1217.428317976767
 22
2042.983072724642
 32
0.0
 13
1217.428317976767
 23
2042.983072724642
 33
0.0
  0
MTEXT
  5
D7D
330
D77
100
AcDbEntity
  8
1
 62
     7
100
AcDbMText
 10
1030.27453291408
 20
1780.349648145946
 30
0.0
 40
35.0
 41
0.0
 71
     7
 72
     1
  1
\C7;{\Fgdt;n}\C7;146
  7
CONVERTER_12
 11
0.7071067168898059
 21
0.7071068454832833
 31
0.0
 73
     1
 44
0.60024009603842
  0
ENDBLK
  5
D7F
330
D77
100
AcDbEntity
  8
0
100
AcDbBlockEnd
  0
BLOCK
  5
D86
330
D81
100
AcDbEntity
  8
0
100
AcDbBlockBegin
  2
*D12
 70
     1
 10
0.0
 20
0.0
 30
0.0
  3
*D12
  1

  0
LINE
  5
D82
330
D81
100
AcDbEntity
  8
1
  6
Continuous
 62
     2
100
AcDbLine
 10
1269.881816263548
 20
2046.536830840369
 30
0.0
 11
1008.23096384715
 21
1861.093685972557
 31
0.0
  0
SOLID
  5
D83
330
D81
100
AcDbEntity
  8
1
 62
     2
100
AcDbTrace
 10
1103.253869944982
 20
1922.792700995328
 30
0.0
 11
1097.925000447545
 21
1930.311465020896
 31
0.0
 12
1129.144776581174
 22
1946.790474208779
 32
0.0
 13
1129.144776581174
 23
1946.790474208779
 33
0.0
  0
SOLID
  5
D84
330
D81
100
AcDbEntity
  8
1
 62
     2
100
AcDbTrace
 10
1252.939710822375
 20
2040.177017252817
 30
0.0
 11
1258.268580319812
 21
2032.658253227249
 31
0.0
 12
1227.048804186184
 22
2016.179244039366
 32
0.0
 13
1227.048804186184
 23
2016.179244039366
 33
0.0
  0
MTEXT
  5
D85
330
D81
100
AcDbEntity
  8
1
 62
     7
100
AcDbMText
 10
1013.29959608751
 20
1876.942943595928
 30
0.0
 40
34.99999999999999
 41
0.0
 71
     7
 72
     1
  1
\C7;{\Fgdt;n}\C7;120
  7
CONVERTER_12
 11
0.815866896711685
 21
0.5782397485905346
 31
0.0
 73
     1
 44
0.60024009603842
  0
ENDBLK
  5
D87
330
D81
100
AcDbEntity
  8
0
100
AcDbBlockEnd
  0
ENDSEC
  0
SECTION
  2
ENTITIES
  0
INSERT
  5
4A
330
1F
100
AcDbEntity
  8
1
100
AcDbBlockReference
  2
開示A4
 10
0.0
 20
0.0
 30
0.0
 41
10.0
 42
10.0
 43
10.0
  0
POINT
  5
A4
330
1F
100
AcDbEntity
  8
0
 62
     7
100
AcDbPoint
 10
1105.782605594468
 20
1991.467778448532
 30
0.0
  0
POINT
  5
A5
330
1F
100
AcDbEntity
  8
0
 62
     7
100
AcDbPoint
 10
1105.782605594468
 20
1971.501939799612
 30
0.0
  0
POINT
  5
A6
330
1F
100
AcDbEntity
  8
0
 62
     2
100
AcDbPoint
 10
1178.096790383679
 20
1981.484859124072
 30
0.0
  0
POINT
  5
A7
330
1F
100
AcDbEntity
  8
0
 62
     2
100
AcDbPoint
 10
1267.096686695323
 20
1732.484859125068
 30
0.0
  0
POINT
  5
A8
330
1F
100
AcDbEntity
  8
0
 62
     2
100
AcDbPoint
 10
1267.096686695323
 20
1730.484859125075
 30
0.0
  0
POINT
  5
A9
330
1F
100
AcDbEntity
  8
0
 62
     2
100
AcDbPoint
 10
1232.096686695462
 20
1695.484859125216
 30
0.0
  0
POINT
  5
AA
330
1F
100
AcDbEntity
  8
0
 62
     2
100
AcDbPoint
 10
1230.096686695471
 20
1695.484859125216
 30
0.0
  0
POINT
  5
AB
330
1F
100
AcDbEntity
  8
0
 62
     7
100
AcDbPoint
 10
703.5197119640764
 20
2001.484859123992
 30
0.0
  0
POINT
  5
AC
330
1F
100
AcDbEntity
  8
0
 62
     7
100
AcDbPoint
 10
703.5197119640764
 20
1961.484859124152
 30
0.0
  0
LINE
  5
AD
330
1F
100
AcDbEntity
  8
0
  6
DASH_CENTER
 62
     2
100
AcDbLine
 10
687.0966866976421
 20
2280.484859122876
 30
0.0
 11
672.0966866977021
 21
2280.484859122876
 31
0.0
  0
LINE
  5
AE
330
1F
100
AcDbEntity
  8
0
  6
Continuous
 62
     2
100
AcDbLine
 10
689.6034198766322
 20
2280.049203767377
 30
0.0
 11
689.6491068366324
 21
2280.003516807378
 31
0.0
  0
LINE
  5
AF
330
1F
100
AcDbEntity
  8
0
  6
Continuous
 62
     2
100
AcDbLine
 10
682.5780290131604
 20
2272.932438983906
 30
0.0
 11
682.5323420526604
 21
2272.978125943906
 31
0.0
  0
LINE
  5
B0
330
1F
100
AcDbEntity
  8
0
  6
Continuous
 62
     2
100
AcDbLine
 10
1272.5442665558
 20
2280.003516807378
 30
0.0
 11
1268.982868363815
 21
2276.442108603892
 31
0.0
  0
LINE
  5
B1
330
1F
100
AcDbEntity
  8
0
  6
Continuous
 62
     2
100
AcDbLine
 10
1272.5442665558
 20
1682.966201441266
 30
0.0
 11
1268.982868363815
 21
1686.527609644752
 31
0.0
  0
LINE
  5
B2
330
1F
100
AcDbEntity
  8
0
  6
Continuous
 62
     2
100
AcDbLine
 10
682.5780290131604
 20
1690.037279264737
 30
0.0
 11
682.5323420526604
 21
1689.991592304738
 31
0.0
  0
LINE
  5
B3
330
1F
100
AcDbEntity
  8
0
  6
Continuous
 62
     2
100
AcDbLine
 10
689.6034198766322
 20
1682.920514480766
 30
0.0
 11
689.6491068366324
 21
1682.966201441266
 31
0.0
  0
LINE
  5
B4
330
1F
100
AcDbEntity
  8
0
  6
Continuous
 62
     2
100
AcDbLine
 10
682.5780290131604
 20
2272.932438983906
 30
0.0
 11
686.1394372166458
 21
2269.37104079192
 31
0.0
  0
LINE
  5
B5
330
1F
100
AcDbEntity
  8
0
  6
Continuous
 62
     2
100
AcDbLine
 10
1279.615344379273
 20
1690.037279264737
 30
0.0
 11
1279.661031339773
 21
1689.991592304738
 31
0.0
  0
LINE
  5
B6
330
1F
100
AcDbEntity
  8
0
  6
Continuous
 62
     2
100
AcDbLine
 10
1272.589953515801
 20
1682.920514480766
 30
0.0
 11
1272.5442665558
 21
1682.966201441266
 31
0.0
  0
LINE
  5
B7
330
1F
100
AcDbEntity
  8
0
  6
Continuous
 62
     2
100
AcDbLine
 10
682.5780290131604
 20
1690.037279264737
 30
0.0
 11
686.1394372166458
 21
1693.598677456724
 31
0.0
  0
LINE
  5
B8
330
1F
100
AcDbEntity
  8
0
  6
Continuous
 62
     2
100
AcDbLine
 10
1272.589953515801
 20
2280.049203767377
 30
0.0
 11
1272.5442665558
 21
2280.003516807378
 31
0.0
  0
LINE
  5
B9
330
1F
100
AcDbEntity
  8
0
  6
Continuous
 62
     2
100
AcDbLine
 10
1279.615344379273
 20
2272.932438983906
 30
0.0
 11
1279.661031339773
 21
2272.978125943906
 31
0.0
  0
LINE
  5
BA
330
1F
100
AcDbEntity
  8
0
  6
Continuous
 62
     2
100
AcDbLine
 10
1276.053936175787
 20
2269.37104079192
 30
0.0
 11
1279.615344379273
 21
2272.932438983906
 31
0.0
  0
LINE
  5
BB
330
1F
100
AcDbEntity
  8
0
  6
Continuous
 62
     2
100
AcDbLine
 10
1276.053936175787
 20
1693.598677456724
 30
0.0
 11
1279.615344379273
 21
1690.037279264737
 31
0.0
  0
LINE
  5
BC
330
1F
100
AcDbEntity
  8
0
  6
Continuous
 62
     2
100
AcDbLine
 10
693.2105050286175
 20
2276.442108603892
 30
0.0
 11
689.6491068366324
 21
2280.003516807378
 31
0.0
  0
LINE
  5
BD
330
1F
100
AcDbEntity
  8
0
  6
Continuous
 62
     2
100
AcDbLine
 10
693.2105050286175
 20
1686.527609644752
 30
0.0
 11
689.6491068366324
 21
1682.966201441266
 31
0.0
  0
LINE
  5
BE
330
1F
100
AcDbEntity
  8
0
  6
Continuous
 62
     7
100
AcDbLine
 10
1301.096679542187
 20
1676.427780525292
 30
0.0
 11
1301.096679542187
 21
2286.541937722851
 31
0.0
  0
LINE
  5
BF
330
1F
100
AcDbEntity
  8
0
  6
Continuous
 62
     7
100
AcDbLine
 10
1286.153765294747
 20
2301.484851970291
 30
0.0
 11
676.0396080976864
 21
2301.484851970291
 31
0.0
  0
LINE
  5
C0
330
1F
100
AcDbEntity
  8
0
  6
Continuous
 62
     7
100
AcDbLine
 10
1286.153765294747
 20
1661.484866277852
 30
0.0
 11
676.0396080976864
 21
1661.484866277852
 31
0.0
  0
LINE
  5
C1
330
1F
100
AcDbEntity
  8
0
  6
Continuous
 62
     7
100
AcDbLine
 10
661.0966938502463
 20
2286.541937722851
 30
0.0
 11
661.0966938502463
 21
1676.427780525292
 31
0.0
  0
LINE
  5
C2
330
1F
100
AcDbEntity
  8
0
  6
Continuous
 62
     2
100
AcDbLine
 10
1195.096688245111
 20
1841.484858528632
 30
0.0
 11
1195.096688245111
 21
1806.484862105272
 31
0.0
  0
LINE
  5
C3
330
1F
100
AcDbEntity
  8
0
  6
Continuous
 62
     2
100
AcDbLine
 10
1195.096688245111
 20
1841.484858528632
 30
0.0
 11
1230.096684668471
 21
1841.484858528632
 31
0.0
  0
LINE
  5
C4
330
1F
100
AcDbEntity
  8
0
  6
Continuous
 62
     2
100
AcDbLine
 10
1230.096684668471
 20
1841.484858528632
 30
0.0
 11
1230.096684668471
 21
1806.484862105272
 31
0.0
  0
LINE
  5
C5
330
1F
100
AcDbEntity
  8
0
  6
Continuous
 62
     2
100
AcDbLine
 10
1195.096688245111
 20
1806.484862105272
 30
0.0
 11
1230.096684668471
 21
1806.484862105272
 31
0.0
  0
LINE
  5
C6
330
1F
100
AcDbEntity
  8
0
  6
Continuous
 62
     2
100
AcDbLine
 10
767.096685147322
 20
2195.484860673215
 30
0.0
 11
732.0966887239622
 21
2195.484860673215
 31
0.0
  0
LINE
  5
C7
330
1F
100
AcDbEntity
  8
0
  6
Continuous
 62
     2
100
AcDbLine
 10
732.0966887239622
 20
2195.484860673215
 30
0.0
 11
732.0966887239622
 21
2230.484857096576
 31
0.0
  0
LINE
  5
C8
330
1F
100
AcDbEntity
  8
0
  6
Continuous
 62
     2
100
AcDbLine
 10
767.096685147322
 20
2230.484857096576
 30
0.0
 11
732.0966887239622
 21
2230.484857096576
 31
0.0
  0
LINE
  5
C9
330
1F
100
AcDbEntity
  8
0
  6
Continuous
 62
     2
100
AcDbLine
 10
767.096685147322
 20
2195.484860673215
 30
0.0
 11
767.096685147322
 21
2230.484857096576
 31
0.0
  0
LINE
  5
CA
330
1F
100
AcDbEntity
  8
0
  6
Continuous
 62
     2
100
AcDbLine
 10
827.0966866970828
 20
2121.484859123512
 30
0.0
 11
806.0966896771663
 21
2121.484859719512
 31
0.0
  0
LINE
  5
CB
330
1F
100
AcDbEntity
  8
0
  6
Continuous
 62
     2
100
AcDbLine
 10
841.0966861005261
 20
2156.484856143371
 30
0.0
 11
806.0966896771663
 21
2156.484856143371
 31
0.0
  0
LINE
  5
CC
330
1F
100
AcDbEntity
  8
0
  6
Continuous
 62
     2
100
AcDbLine
 10
841.0966861005261
 20
2156.484856143371
 30
0.0
 11
841.0966866970268
 21
2135.484859123455
 31
0.0
  0
LINE
  5
CD
330
1F
100
AcDbEntity
  8
0
  6
Continuous
 62
     2
100
AcDbLine
 10
806.0966896771663
 20
2121.484859719512
 30
0.0
 11
806.0966896771663
 21
2156.484856143371
 31
0.0
  0
LINE
  5
CE
330
1F
100
AcDbEntity
  8
0
  6
Continuous
 62
     2
100
AcDbLine
 10
804.0966856241741
 20
1769.484861628419
 30
0.0
 11
769.0966892003146
 21
1769.484861628419
 31
0.0
  0
LINE
  5
CF
330
1F
100
AcDbEntity
  8
0
  6
Continuous
 62
     2
100
AcDbLine
 10
769.0966892003146
 20
1804.48485805228
 30
0.0
 11
769.0966892003146
 21
1769.484861628419
 31
0.0
  0
LINE
  5
D0
330
1F
100
AcDbEntity
  8
0
  6
Continuous
 62
     2
100
AcDbLine
 10
804.0966856241741
 20
1804.48485805228
 30
0.0
 11
769.0966892003146
 21
1804.48485805228
 31
0.0
  0
LINE
  5
D1
330
1F
100
AcDbEntity
  8
0
  6
Continuous
 62
     2
100
AcDbLine
 10
804.0966856241741
 20
1804.48485805228
 30
0.0
 11
804.0966856241741
 21
1769.484861628419
 31
0.0
  0
LINE
  5
D2
330
1F
100
AcDbEntity
  8
0
  6
Continuous
 62
     2
100
AcDbLine
 10
730.0966995719702
 20
1769.484861628419
 30
0.0
 11
695.0966733461103
 21
1769.484861628419
 31
0.0
  0
LINE
  5
D3
330
1F
100
AcDbEntity
  8
0
  6
Continuous
 62
     2
100
AcDbLine
 10
695.0966733461103
 20
1804.48485805228
 30
0.0
 11
695.0966733461103
 21
1769.484861628419
 31
0.0
  0
LINE
  5
D4
330
1F
100
AcDbEntity
  8
0
  6
Continuous
 62
     2
100
AcDbLine
 10
730.0966995719702
 20
1804.48485805228
 30
0.0
 11
695.0966733461103
 21
1804.48485805228
 31
0.0
  0
LINE
  5
D5
330
1F
100
AcDbEntity
  8
0
  6
Continuous
 62
     2
100
AcDbLine
 10
730.0966995719702
 20
1804.48485805228
 30
0.0
 11
730.0966995719702
 21
1769.484861628419
 31
0.0
  0
LINE
  5
D6
330
1F
100
AcDbEntity
  8
0
  6
Continuous
 62
     2
100
AcDbLine
 10
841.0966861005261
 20
1732.484861151568
 30
0.0
 11
806.0966896771663
 21
1732.484861151568
 31
0.0
  0
LINE
  5
D7
330
1F
100
AcDbEntity
  8
0
  6
Continuous
 62
     2
100
AcDbLine
 10
806.0966896771663
 20
1767.484857575428
 30
0.0
 11
806.0966896771663
 21
1732.484861151568
 31
0.0
  0
LINE
  5
D8
330
1F
100
AcDbEntity
  8
0
  6
Continuous
 62
     2
100
AcDbLine
 10
841.0966861005261
 20
1767.484857575428
 30
0.0
 11
806.0966896771663
 21
1767.484857575428
 31
0.0
  0
LINE
  5
D9
330
1F
100
AcDbEntity
  8
0
  6
Continuous
 62
     2
100
AcDbLine
 10
841.0966861005261
 20
1732.484861151568
 30
0.0
 11
841.0966861005261
 21
1767.484857575428
 31
0.0
  0
LINE
  5
DA
330
1F
100
AcDbEntity
  8
0
  6
Continuous
 62
     2
100
AcDbLine
 10
730.0966995719702
 20
2195.484860673215
 30
0.0
 11
695.0966733461103
 21
2195.484860673215
 31
0.0
  0
LINE
  5
DB
330
1F
100
AcDbEntity
  8
0
  6
Continuous
 62
     2
100
AcDbLine
 10
695.0966733461103
 20
2195.484860673215
 30
0.0
 11
695.0966733461103
 21
2230.484857096576
 31
0.0
  0
LINE
  5
DC
330
1F
100
AcDbEntity
  8
0
  6
Continuous
 62
     2
100
AcDbLine
 10
730.0966995719702
 20
2230.484857096576
 30
0.0
 11
695.0966733461103
 21
2230.484857096576
 31
0.0
  0
LINE
  5
DD
330
1F
100
AcDbEntity
  8
0
  6
Continuous
 62
     2
100
AcDbLine
 10
730.0966995719702
 20
2195.484860673215
 30
0.0
 11
730.0966995719702
 21
2230.484857096576
 31
0.0
  0
LINE
  5
DE
330
1F
100
AcDbEntity
  8
0
  6
Continuous
 62
     2
100
AcDbLine
 10
1253.096686695379
 20
2267.484859122928
 30
0.0
 11
1232.096673820463
 21
2267.484872474427
 31
0.0
  0
LINE
  5
DF
330
1F
100
AcDbEntity
  8
0
  6
Continuous
 62
     2
100
AcDbLine
 10
1267.096700046323
 20
2232.484846248568
 30
0.0
 11
1267.096686695323
 21
2253.484859122983
 31
0.0
  0
LINE
  5
E0
330
1F
100
AcDbEntity
  8
0
  6
Continuous
 62
     2
100
AcDbLine
 10
1232.096673820463
 20
2232.484846248568
 30
0.0
 11
1267.096700046323
 21
2232.484846248568
 31
0.0
  0
LINE
  5
E1
330
1F
100
AcDbEntity
  8
0
  6
Continuous
 62
     2
100
AcDbLine
 10
1232.096673820463
 20
2232.484846248568
 30
0.0
 11
1232.096673820463
 21
2267.484872474427
 31
0.0
  0
LINE
  5
E2
330
1F
100
AcDbEntity
  8
0
  6
Continuous
 62
     2
100
AcDbLine
 10
732.0966887239622
 20
2232.484846248568
 30
0.0
 11
732.0966887239622
 21
2267.484872474427
 31
0.0
  0
LINE
  5
E3
330
1F
100
AcDbEntity
  8
0
  6
Continuous
 62
     2
100
AcDbLine
 10
767.096685147322
 20
2232.484846248568
 30
0.0
 11
767.096685147322
 21
2267.484872474427
 31
0.0
  0
LINE
  5
E4
330
1F
100
AcDbEntity
  8
0
  6
Continuous
 62
     2
100
AcDbLine
 10
767.096685147322
 20
2232.484846248568
 30
0.0
 11
732.0966887239622
 21
2232.484846248568
 31
0.0
  0
LINE
  5
E5
330
1F
100
AcDbEntity
  8
0
  6
Continuous
 62
     2
100
AcDbLine
 10
732.0966887239622
 20
2267.484872474427
 30
0.0
 11
767.096685147322
 21
2267.484872474427
 31
0.0
  0
LINE
  5
E6
330
1F
100
AcDbEntity
  8
0
  6
Continuous
 62
     2
100
AcDbLine
 10
1119.096686695915
 20
1709.48485912516
 30
0.0
 11
1119.096686695915
 21
1827.484859124688
 31
0.0
  0
LINE
  5
E7
330
1F
100
AcDbEntity
  8
0
  6
Continuous
 62
     2
100
AcDbLine
 10
1253.096686695379
 20
1693.484859125224
 30
0.0
 11
1135.096686695851
 21
1693.484859125224
 31
0.0
  0
LINE
  5
E8
330
1F
100
AcDbEntity
  8
0
  6
Continuous
 62
     2
100
AcDbLine
 10
1269.096686695315
 20
1827.484859124688
 30
0.0
 11
1269.096686695315
 21
1709.48485912516
 31
0.0
  0
LINE
  5
E9
330
1F
100
AcDbEntity
  8
0
  6
Continuous
 62
     2
100
AcDbLine
 10
1135.096686695851
 20
1843.484859124624
 30
0.0
 11
1253.096686695379
 21
1843.484859124624
 31
0.0
  0
LINE
  5
EA
330
1F
100
AcDbEntity
  8
0
  6
Continuous
 62
     2
100
AcDbLine
 10
767.096685147322
 20
2121.484859719512
 30
0.0
 11
732.0966887239622
 21
2121.484859719512
 31
0.0
  0
LINE
  5
EB
330
1F
100
AcDbEntity
  8
0
  6
Continuous
 62
     2
100
AcDbLine
 10
732.0966887239622
 20
2121.484859719512
 30
0.0
 11
732.0966887239622
 21
2156.484856143371
 31
0.0
  0
LINE
  5
EC
330
1F
100
AcDbEntity
  8
0
  6
Continuous
 62
     2
100
AcDbLine
 10
767.096685147322
 20
2156.484856143371
 30
0.0
 11
732.0966887239622
 21
2156.484856143371
 31
0.0
  0
LINE
  5
ED
330
1F
100
AcDbEntity
  8
0
  6
Continuous
 62
     2
100
AcDbLine
 10
767.096685147322
 20
2121.484859719512
 30
0.0
 11
767.096685147322
 21
2156.484856143371
 31
0.0
  0
LINE
  5
EE
330
1F
100
AcDbEntity
  8
0
  6
Continuous
 62
     2
100
AcDbLine
 10
804.0966856241741
 20
2156.484856143371
 30
0.0
 11
769.0966892003146
 21
2156.484856143371
 31
0.0
  0
LINE
  5
EF
330
1F
100
AcDbEntity
  8
0
  6
Continuous
 62
     2
100
AcDbLine
 10
804.0966856241741
 20
2121.484859719512
 30
0.0
 11
804.0966856241741
 21
2156.484856143371
 31
0.0
  0
LINE
  5
F0
330
1F
100
AcDbEntity
  8
0
  6
Continuous
 62
     2
100
AcDbLine
 10
804.0966856241741
 20
2121.484859719512
 30
0.0
 11
769.0966892003146
 21
2121.484859719512
 31
0.0
  0
LINE
  5
F1
330
1F
100
AcDbEntity
  8
0
  6
Continuous
 62
     2
100
AcDbLine
 10
769.0966892003146
 20
2121.484859719512
 30
0.0
 11
769.0966892003146
 21
2156.484856143371
 31
0.0
  0
LINE
  5
F2
330
1F
100
AcDbEntity
  8
0
  6
Continuous
 62
     2
100
AcDbLine
 10
804.0966856241741
 20
1732.484861151568
 30
0.0
 11
769.0966892003146
 21
1732.484861151568
 31
0.0
  0
LINE
  5
F3
330
1F
100
AcDbEntity
  8
0
  6
Continuous
 62
     2
100
AcDbLine
 10
804.0966856241741
 20
1767.484857575428
 30
0.0
 11
769.0966892003146
 21
1767.484857575428
 31
0.0
  0
LINE
  5
F4
330
1F
100
AcDbEntity
  8
0
  6
Continuous
 62
     2
100
AcDbLine
 10
769.0966892003146
 20
1767.484857575428
 30
0.0
 11
769.0966892003146
 21
1732.484861151568
 31
0.0
  0
LINE
  5
F5
330
1F
100
AcDbEntity
  8
0
  6
Continuous
 62
     2
100
AcDbLine
 10
804.0966856241741
 20
1767.484857575428
 30
0.0
 11
804.0966856241741
 21
1732.484861151568
 31
0.0
  0
LINE
  5
F6
330
1F
100
AcDbEntity
  8
0
  6
Continuous
 62
     2
100
AcDbLine
 10
1267.096686695323
 20
2135.484859123455
 30
0.0
 11
1267.096700046323
 21
2156.484856143371
 31
0.0
  0
LINE
  5
F7
330
1F
100
AcDbEntity
  8
0
  6
Continuous
 62
     2
100
AcDbLine
 10
1232.096673820463
 20
2121.484859719512
 30
0.0
 11
1253.096686695379
 21
2121.484859123512
 31
0.0
  0
LINE
  5
F8
330
1F
100
AcDbEntity
  8
0
  6
Continuous
 62
     2
100
AcDbLine
 10
1232.096673820463
 20
2156.484856143371
 30
0.0
 11
1267.096700046323
 21
2156.484856143371
 31
0.0
  0
LINE
  5
F9
330
1F
100
AcDbEntity
  8
0
  6
Continuous
 62
     2
100
AcDbLine
 10
1232.096673820463
 20
2121.484859719512
 30
0.0
 11
1232.096673820463
 21
2156.484856143371
 31
0.0
  0
LINE
  5
FA
330
1F
100
AcDbEntity
  8
0
  6
Continuous
 62
     2
100
AcDbLine
 10
1158.096687768259
 20
1841.484858528632
 30
0.0
 11
1158.096687768259
 21
1806.484862105272
 31
0.0
  0
LINE
  5
FB
330
1F
100
AcDbEntity
  8
0
  6
Continuous
 62
     2
100
AcDbLine
 10
1158.096687768259
 20
1841.484858528632
 30
0.0
 11
1193.096684192119
 21
1841.484858528632
 31
0.0
  0
LINE
  5
FC
330
1F
100
AcDbEntity
  8
0
  6
Continuous
 62
     2
100
AcDbLine
 10
1193.096684192119
 20
1841.484858528632
 30
0.0
 11
1193.096684192119
 21
1806.484862105272
 31
0.0
  0
LINE
  5
FD
330
1F
100
AcDbEntity
  8
0
  6
Continuous
 62
     2
100
AcDbLine
 10
1158.096687768259
 20
1806.484862105272
 30
0.0
 11
1193.096684192119
 21
1806.484862105272
 31
0.0
  0
LINE
  5
FE
330
1F
100
AcDbEntity
  8
0
  6
Continuous
 62
     2
100
AcDbLine
 10
767.096685147322
 20
1769.484861628419
 30
0.0
 11
732.0966887239622
 21
1769.484861628419
 31
0.0
  0
LINE
  5
FF
330
1F
100
AcDbEntity
  8
0
  6
Continuous
 62
     2
100
AcDbLine
 10
732.0966887239622
 20
1804.48485805228
 30
0.0
 11
732.0966887239622
 21
1769.484861628419
 31
0.0
  0
LINE
  5
100
330
1F
100
AcDbEntity
  8
0
  6
Continuous
 62
     2
100
AcDbLine
 10
767.096685147322
 20
1804.48485805228
 30
0.0
 11
732.0966887239622
 21
1804.48485805228
 31
0.0
  0
LINE
  5
101
330
1F
100
AcDbEntity
  8
0
  6
Continuous
 62
     2
100
AcDbLine
 10
767.096685147322
 20
1804.48485805228
 30
0.0
 11
767.096685147322
 21
1769.484861628419
 31
0.0
  0
LINE
  5
102
330
1F
100
AcDbEntity
  8
0
  6
Continuous
 62
     2
100
AcDbLine
 10
1135.096686695851
 20
2119.48485912352
 30
0.0
 11
1253.096686695379
 21
2119.48485912352
 31
0.0
  0
LINE
  5
103
330
1F
100
AcDbEntity
  8
0
  6
Continuous
 62
     2
100
AcDbLine
 10
1269.096686695315
 20
2135.484859123455
 30
0.0
 11
1269.096686695315
 21
2253.484859122983
 31
0.0
  0
LINE
  5
104
330
1F
100
AcDbEntity
  8
0
  6
Continuous
 62
     2
100
AcDbLine
 10
1253.096686695379
 20
2269.48485912292
 30
0.0
 11
1135.096686695851
 21
2269.48485912292
 31
0.0
  0
LINE
  5
105
330
1F
100
AcDbEntity
  8
0
  6
Continuous
 62
     2
100
AcDbLine
 10
1119.096686695915
 20
2253.484859122983
 30
0.0
 11
1119.096686695915
 21
2135.484859123455
 31
0.0
  0
LINE
  5
106
330
1F
100
AcDbEntity
  8
0
  6
Continuous
 62
     2
100
AcDbLine
 10
1193.096684192119
 20
2267.484872474427
 30
0.0
 11
1158.096687768259
 21
2267.484872474427
 31
0.0
  0
LINE
  5
107
330
1F
100
AcDbEntity
  8
0
  6
Continuous
 62
     2
100
AcDbLine
 10
1193.096684192119
 20
2232.484846248568
 30
0.0
 11
1193.096684192119
 21
2267.484872474427
 31
0.0
  0
LINE
  5
108
330
1F
100
AcDbEntity
  8
0
  6
Continuous
 62
     2
100
AcDbLine
 10
1158.096687768259
 20
2232.484846248568
 30
0.0
 11
1193.096684192119
 21
2232.484846248568
 31
0.0
  0
LINE
  5
109
330
1F
100
AcDbEntity
  8
0
  6
Continuous
 62
     2
100
AcDbLine
 10
1158.096687768259
 20
2232.484846248568
 30
0.0
 11
1158.096687768259
 21
2267.484872474427
 31
0.0
  0
LINE
  5
10A
330
1F
100
AcDbEntity
  8
0
  6
Continuous
 62
     2
100
AcDbLine
 10
767.096685147322
 20
1806.484862105272
 30
0.0
 11
732.0966887239622
 21
1806.484862105272
 31
0.0
  0
LINE
  5
10B
330
1F
100
AcDbEntity
  8
0
  6
Continuous
 62
     2
100
AcDbLine
 10
732.0966887239622
 20
1841.484858528632
 30
0.0
 11
732.0966887239622
 21
1806.484862105272
 31
0.0
  0
LINE
  5
10C
330
1F
100
AcDbEntity
  8
0
  6
Continuous
 62
     2
100
AcDbLine
 10
767.096685147322
 20
1841.484858528632
 30
0.0
 11
732.0966887239622
 21
1841.484858528632
 31
0.0
  0
LINE
  5
10D
330
1F
100
AcDbEntity
  8
0
  6
Continuous
 62
     2
100
AcDbLine
 10
767.096685147322
 20
1841.484858528632
 30
0.0
 11
767.096685147322
 21
1806.484862105272
 31
0.0
  0
LINE
  5
10E
330
1F
100
AcDbEntity
  8
0
  6
Continuous
 62
     2
100
AcDbLine
 10
1193.096684192119
 20
2195.484860673215
 30
0.0
 11
1193.096684192119
 21
2230.484857096576
 31
0.0
  0
LINE
  5
10F
330
1F
100
AcDbEntity
  8
0
  6
Continuous
 62
     2
100
AcDbLine
 10
1158.096687768259
 20
2195.484860673215
 30
0.0
 11
1193.096684192119
 21
2195.484860673215
 31
0.0
  0
LINE
  5
110
330
1F
100
AcDbEntity
  8
0
  6
Continuous
 62
     2
100
AcDbLine
 10
1158.096687768259
 20
2195.484860673215
 30
0.0
 11
1158.096687768259
 21
2230.484857096576
 31
0.0
  0
LINE
  5
111
330
1F
100
AcDbEntity
  8
0
  6
Continuous
 62
     2
100
AcDbLine
 10
1158.096687768259
 20
2230.484857096576
 30
0.0
 11
1193.096684192119
 21
2230.484857096576
 31
0.0
  0
LINE
  5
112
330
1F
100
AcDbEntity
  8
0
  6
Continuous
 62
     2
100
AcDbLine
 10
730.0966995719702
 20
1730.484872000076
 30
0.0
 11
730.0966995719702
 21
1695.484845773716
 31
0.0
  0
LINE
  5
113
330
1F
100
AcDbEntity
  8
0
  6
Continuous
 62
     2
100
AcDbLine
 10
709.0966866975539
 20
1695.484859125216
 30
0.0
 11
730.0966995719702
 21
1695.484845773716
 31
0.0
  0
LINE
  5
114
330
1F
100
AcDbEntity
  8
0
  6
Continuous
 62
     2
100
AcDbLine
 10
695.0966733461103
 20
1730.484872000076
 30
0.0
 11
695.0966866976103
 21
1709.48485912516
 31
0.0
  0
LINE
  5
115
330
1F
100
AcDbEntity
  8
0
  6
Continuous
 62
     2
100
AcDbLine
 10
730.0966995719702
 20
1730.484872000076
 30
0.0
 11
695.0966733461103
 21
1730.484872000076
 31
0.0
  0
LINE
  5
116
330
1F
100
AcDbEntity
  8
0
  6
Continuous
 62
     2
100
AcDbLine
 10
841.0966861005261
 20
1769.484861628419
 30
0.0
 11
806.0966896771663
 21
1769.484861628419
 31
0.0
  0
LINE
  5
117
330
1F
100
AcDbEntity
  8
0
  6
Continuous
 62
     2
100
AcDbLine
 10
806.0966896771663
 20
1804.48485805228
 30
0.0
 11
806.0966896771663
 21
1769.484861628419
 31
0.0
  0
LINE
  5
118
330
1F
100
AcDbEntity
  8
0
  6
Continuous
 62
     2
100
AcDbLine
 10
841.0966861005261
 20
1804.48485805228
 30
0.0
 11
806.0966896771663
 21
1804.48485805228
 31
0.0
  0
LINE
  5
119
330
1F
100
AcDbEntity
  8
0
  6
Continuous
 62
     2
100
AcDbLine
 10
841.0966861005261
 20
1769.484861628419
 30
0.0
 11
841.0966861005261
 21
1804.48485805228
 31
0.0
  0
LINE
  5
11A
330
1F
100
AcDbEntity
  8
0
  6
Continuous
 62
     2
100
AcDbLine
 10
841.0966861005261
 20
1806.484862105272
 30
0.0
 11
806.0966896771663
 21
1806.484862105272
 31
0.0
  0
LINE
  5
11B
330
1F
100
AcDbEntity
  8
0
  6
Continuous
 62
     2
100
AcDbLine
 10
806.0966896771663
 20
1841.484858528632
 30
0.0
 11
806.0966896771663
 21
1806.484862105272
 31
0.0
  0
LINE
  5
11C
330
1F
100
AcDbEntity
  8
0
  6
Continuous
 62
     2
100
AcDbLine
 10
827.0966866970828
 20
1841.484859124632
 30
0.0
 11
806.0966896771663
 21
1841.484858528632
 31
0.0
  0
LINE
  5
11D
330
1F
100
AcDbEntity
  8
0
  6
Continuous
 62
     2
100
AcDbLine
 10
841.0966861005261
 20
1806.484862105272
 30
0.0
 11
841.0966866970268
 21
1827.484859124688
 31
0.0
  0
LINE
  5
11E
330
1F
100
AcDbEntity
  8
0
  6
Continuous
 62
     2
100
AcDbLine
 10
804.0966856241741
 20
2195.484860673215
 30
0.0
 11
769.0966892003146
 21
2195.484860673215
 31
0.0
  0
LINE
  5
11F
330
1F
100
AcDbEntity
  8
0
  6
Continuous
 62
     2
100
AcDbLine
 10
804.0966856241741
 20
2230.484857096576
 30
0.0
 11
769.0966892003146
 21
2230.484857096576
 31
0.0
  0
LINE
  5
120
330
1F
100
AcDbEntity
  8
0
  6
Continuous
 62
     2
100
AcDbLine
 10
804.0966856241741
 20
2195.484860673215
 30
0.0
 11
804.0966856241741
 21
2230.484857096576
 31
0.0
  0
LINE
  5
121
330
1F
100
AcDbEntity
  8
0
  6
Continuous
 62
     2
100
AcDbLine
 10
769.0966892003146
 20
2195.484860673215
 30
0.0
 11
769.0966892003146
 21
2230.484857096576
 31
0.0
  0
LINE
  5
122
330
1F
100
AcDbEntity
  8
0
  6
Continuous
 62
     2
100
AcDbLine
 10
767.096685147322
 20
1732.484861151568
 30
0.0
 11
732.0966887239622
 21
1732.484861151568
 31
0.0
  0
LINE
  5
123
330
1F
100
AcDbEntity
  8
0
  6
Continuous
 62
     2
100
AcDbLine
 10
767.096685147322
 20
1767.484857575428
 30
0.0
 11
732.0966887239622
 21
1767.484857575428
 31
0.0
  0
LINE
  5
124
330
1F
100
AcDbEntity
  8
0
  6
Continuous
 62
     2
100
AcDbLine
 10
767.096685147322
 20
1767.484857575428
 30
0.0
 11
767.096685147322
 21
1732.484861151568
 31
0.0
  0
LINE
  5
125
330
1F
100
AcDbEntity
  8
0
  6
Continuous
 62
     2
100
AcDbLine
 10
732.0966887239622
 20
1767.484857575428
 30
0.0
 11
732.0966887239622
 21
1732.484861151568
 31
0.0
  0
LINE
  5
126
330
1F
100
AcDbEntity
  8
0
  6
Continuous
 62
     2
100
AcDbLine
 10
695.0966733461103
 20
2232.484846248568
 30
0.0
 11
695.0966866976103
 21
2253.484859122983
 31
0.0
  0
LINE
  5
127
330
1F
100
AcDbEntity
  8
0
  6
Continuous
 62
     2
100
AcDbLine
 10
730.0966995719702
 20
2232.484846248568
 30
0.0
 11
730.0966995719702
 21
2267.484872474427
 31
0.0
  0
LINE
  5
128
330
1F
100
AcDbEntity
  8
0
  6
Continuous
 62
     2
100
AcDbLine
 10
730.0966995719702
 20
2232.484846248568
 30
0.0
 11
695.0966733461103
 21
2232.484846248568
 31
0.0
  0
LINE
  5
129
330
1F
100
AcDbEntity
  8
0
  6
Continuous
 62
     2
100
AcDbLine
 10
709.0966866975539
 20
2267.484859122928
 30
0.0
 11
730.0966995719702
 21
2267.484872474427
 31
0.0
  0
LINE
  5
12A
330
1F
100
AcDbEntity
  8
0
  6
Continuous
 62
     2
100
AcDbLine
 10
1135.096686695851
 20
2121.484859123512
 30
0.0
 11
1156.096683715267
 21
2121.484859719512
 31
0.0
  0
LINE
  5
12B
330
1F
100
AcDbEntity
  8
0
  6
Continuous
 62
     2
100
AcDbLine
 10
1121.096687291907
 20
2156.484856143371
 30
0.0
 11
1121.096686695907
 21
2135.484859123455
 31
0.0
  0
LINE
  5
12C
330
1F
100
AcDbEntity
  8
0
  6
Continuous
 62
     2
100
AcDbLine
 10
1121.096687291907
 20
2156.484856143371
 30
0.0
 11
1156.096683715267
 21
2156.484856143371
 31
0.0
  0
LINE
  5
12D
330
1F
100
AcDbEntity
  8
0
  6
Continuous
 62
     2
100
AcDbLine
 10
1156.096683715267
 20
2121.484859719512
 30
0.0
 11
1156.096683715267
 21
2156.484856143371
 31
0.0
  0
LINE
  5
12E
330
1F
100
AcDbEntity
  8
0
  6
Continuous
 62
     2
100
AcDbLine
 10
730.0966995719702
 20
2156.484856143371
 30
0.0
 11
695.0966733461103
 21
2156.484856143371
 31
0.0
  0
LINE
  5
12F
330
1F
100
AcDbEntity
  8
0
  6
Continuous
 62
     2
100
AcDbLine
 10
730.0966995719702
 20
2121.484859719512
 30
0.0
 11
730.0966995719702
 21
2156.484856143371
 31
0.0
  0
LINE
  5
130
330
1F
100
AcDbEntity
  8
0
  6
Continuous
 62
     2
100
AcDbLine
 10
730.0966995719702
 20
2121.484859719512
 30
0.0
 11
709.0966866975539
 21
2121.484859123512
 31
0.0
  0
LINE
  5
131
330
1F
100
AcDbEntity
  8
0
  6
Continuous
 62
     2
100
AcDbLine
 10
695.0966866976103
 20
2135.484859123455
 30
0.0
 11
695.0966733461103
 21
2156.484856143371
 31
0.0
  0
LINE
  5
132
330
1F
100
AcDbEntity
  8
0
  6
Continuous
 62
     2
100
AcDbLine
 10
1193.096684192119
 20
1804.48485805228
 30
0.0
 11
1193.096684192119
 21
1769.484861628419
 31
0.0
  0
LINE
  5
133
330
1F
100
AcDbEntity
  8
0
  6
Continuous
 62
     2
100
AcDbLine
 10
1158.096687768259
 20
1769.484861628419
 30
0.0
 11
1193.096684192119
 21
1769.484861628419
 31
0.0
  0
LINE
  5
134
330
1F
100
AcDbEntity
  8
0
  6
Continuous
 62
     2
100
AcDbLine
 10
1158.096687768259
 20
1804.48485805228
 30
0.0
 11
1193.096684192119
 21
1804.48485805228
 31
0.0
  0
LINE
  5
135
330
1F
100
AcDbEntity
  8
0
  6
Continuous
 62
     2
100
AcDbLine
 10
1158.096687768259
 20
1804.48485805228
 30
0.0
 11
1158.096687768259
 21
1769.484861628419
 31
0.0
  0
LINE
  5
136
330
1F
100
AcDbEntity
  8
0
  6
Continuous
 62
     2
100
AcDbLine
 10
1156.096683715267
 20
1841.484858528632
 30
0.0
 11
1156.096683715267
 21
1806.484862105272
 31
0.0
  0
LINE
  5
137
330
1F
100
AcDbEntity
  8
0
  6
Continuous
 62
     2
100
AcDbLine
 10
1121.096687291907
 20
1806.484862105272
 30
0.0
 11
1156.096683715267
 21
1806.484862105272
 31
0.0
  0
LINE
  5
138
330
1F
100
AcDbEntity
  8
0
  6
Continuous
 62
     2
100
AcDbLine
 10
1121.096687291907
 20
1806.484862105272
 30
0.0
 11
1121.096686695907
 21
1827.484859124688
 31
0.0
  0
LINE
  5
139
330
1F
100
AcDbEntity
  8
0
  6
Continuous
 62
     2
100
AcDbLine
 10
1135.096686695851
 20
1841.484859124632
 30
0.0
 11
1156.096683715267
 21
1841.484858528632
 31
0.0
  0
LINE
  5
13A
330
1F
100
AcDbEntity
  8
0
  6
Continuous
 62
     2
100
AcDbLine
 10
1156.096683715267
 20
2195.484860673215
 30
0.0
 11
1156.096683715267
 21
2230.484857096576
 31
0.0
  0
LINE
  5
13B
330
1F
100
AcDbEntity
  8
0
  6
Continuous
 62
     2
100
AcDbLine
 10
1121.096687291907
 20
2195.484860673215
 30
0.0
 11
1156.096683715267
 21
2195.484860673215
 31
0.0
  0
LINE
  5
13C
330
1F
100
AcDbEntity
  8
0
  6
Continuous
 62
     2
100
AcDbLine
 10
1121.096687291907
 20
2230.484857096576
 30
0.0
 11
1156.096683715267
 21
2230.484857096576
 31
0.0
  0
LINE
  5
13D
330
1F
100
AcDbEntity
  8
0
  6
Continuous
 62
     2
100
AcDbLine
 10
1121.096687291907
 20
2230.484857096576
 30
0.0
 11
1121.096687291907
 21
2195.484860673215
 31
0.0
  0
LINE
  5
13E
330
1F
100
AcDbEntity
  8
0
  6
Continuous
 62
     2
100
AcDbLine
 10
841.0966861005261
 20
2158.484860196364
 30
0.0
 11
806.0966896771663
 21
2158.484860196364
 31
0.0
  0
LINE
  5
13F
330
1F
100
AcDbEntity
  8
0
  6
Continuous
 62
     2
100
AcDbLine
 10
806.0966896771663
 20
2158.484860196364
 30
0.0
 11
806.0966896771663
 21
2193.484856620223
 31
0.0
  0
LINE
  5
140
330
1F
100
AcDbEntity
  8
0
  6
Continuous
 62
     2
100
AcDbLine
 10
841.0966861005261
 20
2193.484856620223
 30
0.0
 11
841.0966861005261
 21
2158.484860196364
 31
0.0
  0
LINE
  5
141
330
1F
100
AcDbEntity
  8
0
  6
Continuous
 62
     2
100
AcDbLine
 10
841.0966861005261
 20
2193.484856620223
 30
0.0
 11
806.0966896771663
 21
2193.484856620223
 31
0.0
  0
LINE
  5
142
330
1F
100
AcDbEntity
  8
0
  6
Continuous
 62
     2
100
AcDbLine
 10
1156.096683715267
 20
2158.484860196364
 30
0.0
 11
1156.096683715267
 21
2193.484856620223
 31
0.0
  0
LINE
  5
143
330
1F
100
AcDbEntity
  8
0
  6
Continuous
 62
     2
100
AcDbLine
 10
1121.096687291907
 20
2158.484860196364
 30
0.0
 11
1156.096683715267
 21
2158.484860196364
 31
0.0
  0
LINE
  5
144
330
1F
100
AcDbEntity
  8
0
  6
Continuous
 62
     2
100
AcDbLine
 10
1121.096687291907
 20
2193.484856620223
 30
0.0
 11
1121.096687291907
 21
2158.484860196364
 31
0.0
  0
LINE
  5
145
330
1F
100
AcDbEntity
  8
0
  6
Continuous
 62
     2
100
AcDbLine
 10
1121.096687291907
 20
2193.484856620223
 30
0.0
 11
1156.096683715267
 21
2193.484856620223
 31
0.0
  0
LINE
  5
146
330
1F
100
AcDbEntity
  8
0
  6
Continuous
 62
     2
100
AcDbLine
 10
769.0966892003146
 20
2232.484846248568
 30
0.0
 11
769.0966892003146
 21
2267.484872474427
 31
0.0
  0
LINE
  5
147
330
1F
100
AcDbEntity
  8
0
  6
Continuous
 62
     2
100
AcDbLine
 10
804.0966856241741
 20
2232.484846248568
 30
0.0
 11
804.0966856241741
 21
2267.484872474427
 31
0.0
  0
LINE
  5
148
330
1F
100
AcDbEntity
  8
0
  6
Continuous
 62
     2
100
AcDbLine
 10
804.0966856241741
 20
2232.484846248568
 30
0.0
 11
769.0966892003146
 21
2232.484846248568
 31
0.0
  0
LINE
  5
149
330
1F
100
AcDbEntity
  8
0
  6
Continuous
 62
     2
100
AcDbLine
 10
769.0966892003146
 20
2267.484872474427
 30
0.0
 11
804.0966856241741
 21
2267.484872474427
 31
0.0
  0
LINE
  5
14A
330
1F
100
AcDbEntity
  8
0
  6
Continuous
 62
     2
100
AcDbLine
 10
709.0966866975539
 20
2269.48485912292
 30
0.0
 11
827.0966866970828
 21
2269.48485912292
 31
0.0
  0
LINE
  5
14B
330
1F
100
AcDbEntity
  8
0
  6
Continuous
 62
     2
100
AcDbLine
 10
693.096686697618
 20
2135.484859123455
 30
0.0
 11
693.096686697618
 21
2253.484859122983
 31
0.0
  0
LINE
  5
14C
330
1F
100
AcDbEntity
  8
0
  6
Continuous
 62
     2
100
AcDbLine
 10
827.0966866970828
 20
2119.48485912352
 30
0.0
 11
709.0966866975539
 21
2119.48485912352
 31
0.0
  0
LINE
  5
14D
330
1F
100
AcDbEntity
  8
0
  6
Continuous
 62
     2
100
AcDbLine
 10
843.0966866970182
 20
2253.484859122983
 30
0.0
 11
843.0966866970182
 21
2135.484859123455
 31
0.0
  0
LINE
  5
14E
330
1F
100
AcDbEntity
  8
0
  6
Continuous
 62
     2
100
AcDbLine
 10
1156.096683715267
 20
2267.484872474427
 30
0.0
 11
1135.096686695851
 21
2267.484859122928
 31
0.0
  0
LINE
  5
14F
330
1F
100
AcDbEntity
  8
0
  6
Continuous
 62
     2
100
AcDbLine
 10
1121.096687291907
 20
2232.484846248568
 30
0.0
 11
1156.096683715267
 21
2232.484846248568
 31
0.0
  0
LINE
  5
150
330
1F
100
AcDbEntity
  8
0
  6
Continuous
 62
     2
100
AcDbLine
 10
1121.096686695907
 20
2253.484859122983
 30
0.0
 11
1121.096687291907
 21
2232.484846248568
 31
0.0
  0
LINE
  5
151
330
1F
100
AcDbEntity
  8
0
  6
Continuous
 62
     2
100
AcDbLine
 10
1156.096683715267
 20
2232.484846248568
 30
0.0
 11
1156.096683715267
 21
2267.484872474427
 31
0.0
  0
LINE
  5
152
330
1F
100
AcDbEntity
  8
0
  6
Continuous
 62
     2
100
AcDbLine
 10
804.0966856241741
 20
1806.484862105272
 30
0.0
 11
769.0966892003146
 21
1806.484862105272
 31
0.0
  0
LINE
  5
153
330
1F
100
AcDbEntity
  8
0
  6
Continuous
 62
     2
100
AcDbLine
 10
804.0966856241741
 20
1841.484858528632
 30
0.0
 11
769.0966892003146
 21
1841.484858528632
 31
0.0
  0
LINE
  5
154
330
1F
100
AcDbEntity
  8
0
  6
Continuous
 62
     2
100
AcDbLine
 10
804.0966856241741
 20
1841.484858528632
 30
0.0
 11
804.0966856241741
 21
1806.484862105272
 31
0.0
  0
LINE
  5
155
330
1F
100
AcDbEntity
  8
0
  6
Continuous
 62
     2
100
AcDbLine
 10
769.0966892003146
 20
1841.484858528632
 30
0.0
 11
769.0966892003146
 21
1806.484862105272
 31
0.0
  0
LINE
  5
156
330
1F
100
AcDbEntity
  8
0
  6
Continuous
 62
     2
100
AcDbLine
 10
730.0966995719702
 20
1806.484862105272
 30
0.0
 11
695.0966733461103
 21
1806.484862105272
 31
0.0
  0
LINE
  5
157
330
1F
100
AcDbEntity
  8
0
  6
Continuous
 62
     2
100
AcDbLine
 10
695.0966866976103
 20
1827.484859124688
 30
0.0
 11
695.0966733461103
 21
1806.484862105272
 31
0.0
  0
LINE
  5
158
330
1F
100
AcDbEntity
  8
0
  6
Continuous
 62
     2
100
AcDbLine
 10
730.0966995719702
 20
1841.484858528632
 30
0.0
 11
709.0966866975539
 21
1841.484859124632
 31
0.0
  0
LINE
  5
159
330
1F
100
AcDbEntity
  8
0
  6
Continuous
 62
     2
100
AcDbLine
 10
730.0966995719702
 20
1841.484858528632
 30
0.0
 11
730.0966995719702
 21
1806.484862105272
 31
0.0
  0
LINE
  5
15A
330
1F
100
AcDbEntity
  8
0
  6
Continuous
 62
     2
100
AcDbLine
 10
1230.096684668471
 20
2195.484860673215
 30
0.0
 11
1230.096684668471
 21
2230.484857096576
 31
0.0
  0
LINE
  5
15B
330
1F
100
AcDbEntity
  8
0
  6
Continuous
 62
     2
100
AcDbLine
 10
1195.096688245111
 20
2195.484860673215
 30
0.0
 11
1230.096684668471
 21
2195.484860673215
 31
0.0
  0
LINE
  5
15C
330
1F
100
AcDbEntity
  8
0
  6
Continuous
 62
     2
100
AcDbLine
 10
1195.096688245111
 20
2195.484860673215
 30
0.0
 11
1195.096688245111
 21
2230.484857096576
 31
0.0
  0
LINE
  5
15D
330
1F
100
AcDbEntity
  8
0
  6
Continuous
 62
     2
100
AcDbLine
 10
1195.096688245111
 20
2230.484857096576
 30
0.0
 11
1230.096684668471
 21
2230.484857096576
 31
0.0
  0
LINE
  5
15E
330
1F
100
AcDbEntity
  8
0
  6
Continuous
 62
     2
100
AcDbLine
 10
1232.096673820463
 20
1841.484858528632
 30
0.0
 11
1232.096673820463
 21
1806.484862105272
 31
0.0
  0
LINE
  5
15F
330
1F
100
AcDbEntity
  8
0
  6
Continuous
 62
     2
100
AcDbLine
 10
1232.096673820463
 20
1806.484862105272
 30
0.0
 11
1267.096700046323
 21
1806.484862105272
 31
0.0
  0
LINE
  5
160
330
1F
100
AcDbEntity
  8
0
  6
Continuous
 62
     2
100
AcDbLine
 10
1232.096673820463
 20
1841.484858528632
 30
0.0
 11
1253.096686695379
 21
1841.484859124632
 31
0.0
  0
LINE
  5
161
330
1F
100
AcDbEntity
  8
0
  6
Continuous
 62
     2
100
AcDbLine
 10
1267.096686695323
 20
1827.484859124688
 30
0.0
 11
1267.096700046323
 21
1806.484862105272
 31
0.0
  0
LINE
  5
162
330
1F
100
AcDbEntity
  8
0
  6
Continuous
 62
     2
100
AcDbLine
 10
827.0966866970828
 20
1843.484859124624
 30
0.0
 11
709.0966866975539
 21
1843.484859124624
 31
0.0
  0
LINE
  5
163
330
1F
100
AcDbEntity
  8
0
  6
Continuous
 62
     2
100
AcDbLine
 10
709.0966866975539
 20
1693.484859125224
 30
0.0
 11
827.0966866970828
 21
1693.484859125224
 31
0.0
  0
LINE
  5
164
330
1F
100
AcDbEntity
  8
0
  6
Continuous
 62
     2
100
AcDbLine
 10
843.0966866970182
 20
1709.48485912516
 30
0.0
 11
843.0966866970182
 21
1827.484859124688
 31
0.0
  0
LINE
  5
165
330
1F
100
AcDbEntity
  8
0
  6
Continuous
 62
     2
100
AcDbLine
 10
693.096686697618
 20
1827.484859124688
 30
0.0
 11
693.096686697618
 21
1709.48485912516
 31
0.0
  0
LINE
  5
166
330
1F
100
AcDbEntity
  8
0
  6
Continuous
 62
     2
100
AcDbLine
 10
1230.096684668471
 20
2158.484860196364
 30
0.0
 11
1230.096684668471
 21
2193.484856620223
 31
0.0
  0
LINE
  5
167
330
1F
100
AcDbEntity
  8
0
  6
Continuous
 62
     2
100
AcDbLine
 10
1195.096688245111
 20
2158.484860196364
 30
0.0
 11
1195.096688245111
 21
2193.484856620223
 31
0.0
  0
LINE
  5
168
330
1F
100
AcDbEntity
  8
0
  6
Continuous
 62
     2
100
AcDbLine
 10
1195.096688245111
 20
2193.484856620223
 30
0.0
 11
1230.096684668471
 21
2193.484856620223
 31
0.0
  0
LINE
  5
169
330
1F
100
AcDbEntity
  8
0
  6
Continuous
 62
     2
100
AcDbLine
 10
1195.096688245111
 20
2158.484860196364
 30
0.0
 11
1230.096684668471
 21
2158.484860196364
 31
0.0
  0
LINE
  5
16A
330
1F
100
AcDbEntity
  8
0
  6
Continuous
 62
     2
100
AcDbLine
 10
730.0966995719702
 20
1732.484861151568
 30
0.0
 11
695.0966733461103
 21
1732.484861151568
 31
0.0
  0
LINE
  5
16B
330
1F
100
AcDbEntity
  8
0
  6
Continuous
 62
     2
100
AcDbLine
 10
730.0966995719702
 20
1767.484857575428
 30
0.0
 11
695.0966733461103
 21
1767.484857575428
 31
0.0
  0
LINE
  5
16C
330
1F
100
AcDbEntity
  8
0
  6
Continuous
 62
     2
100
AcDbLine
 10
730.0966995719702
 20
1767.484857575428
 30
0.0
 11
730.0966995719702
 21
1732.484861151568
 31
0.0
  0
LINE
  5
16D
330
1F
100
AcDbEntity
  8
0
  6
Continuous
 62
     2
100
AcDbLine
 10
695.0966733461103
 20
1767.484857575428
 30
0.0
 11
695.0966733461103
 21
1732.484861151568
 31
0.0
  0
LINE
  5
16E
330
1F
100
AcDbEntity
  8
0
  6
Continuous
 62
     2
100
AcDbLine
 10
806.0966896771663
 20
2232.484846248568
 30
0.0
 11
806.0966896771663
 21
2267.484872474427
 31
0.0
  0
LINE
  5
16F
330
1F
100
AcDbEntity
  8
0
  6
Continuous
 62
     2
100
AcDbLine
 10
806.0966896771663
 20
2267.484872474427
 30
0.0
 11
827.0966866970828
 21
2267.484859122928
 31
0.0
  0
LINE
  5
170
330
1F
100
AcDbEntity
  8
0
  6
Continuous
 62
     2
100
AcDbLine
 10
841.0966866970268
 20
2253.484859122983
 30
0.0
 11
841.0966861005261
 21
2232.484846248568
 31
0.0
  0
LINE
  5
171
330
1F
100
AcDbEntity
  8
0
  6
Continuous
 62
     2
100
AcDbLine
 10
841.0966861005261
 20
2232.484846248568
 30
0.0
 11
806.0966896771663
 21
2232.484846248568
 31
0.0
  0
LINE
  5
172
330
1F
100
AcDbEntity
  8
0
  6
Continuous
 62
     2
100
AcDbLine
 10
1195.096688245111
 20
2121.484859719512
 30
0.0
 11
1230.096684668471
 21
2121.484859719512
 31
0.0
  0
LINE
  5
173
330
1F
100
AcDbEntity
  8
0
  6
Continuous
 62
     2
100
AcDbLine
 10
1195.096688245111
 20
2156.484856143371
 30
0.0
 11
1230.096684668471
 21
2156.484856143371
 31
0.0
  0
LINE
  5
174
330
1F
100
AcDbEntity
  8
0
  6
Continuous
 62
     2
100
AcDbLine
 10
1230.096684668471
 20
2121.484859719512
 30
0.0
 11
1230.096684668471
 21
2156.484856143371
 31
0.0
  0
LINE
  5
175
330
1F
100
AcDbEntity
  8
0
  6
Continuous
 62
     2
100
AcDbLine
 10
1195.096688245111
 20
2121.484859719512
 30
0.0
 11
1195.096688245111
 21
2156.484856143371
 31
0.0
  0
LINE
  5
176
330
1F
100
AcDbEntity
  8
0
  6
Continuous
 62
     2
100
AcDbLine
 10
1158.096687768259
 20
2121.484859719512
 30
0.0
 11
1193.096684192119
 21
2121.484859719512
 31
0.0
  0
LINE
  5
177
330
1F
100
AcDbEntity
  8
0
  6
Continuous
 62
     2
100
AcDbLine
 10
1158.096687768259
 20
2156.484856143371
 30
0.0
 11
1193.096684192119
 21
2156.484856143371
 31
0.0
  0
LINE
  5
178
330
1F
100
AcDbEntity
  8
0
  6
Continuous
 62
     2
100
AcDbLine
 10
1158.096687768259
 20
2121.484859719512
 30
0.0
 11
1158.096687768259
 21
2156.484856143371
 31
0.0
  0
LINE
  5
179
330
1F
100
AcDbEntity
  8
0
  6
Continuous
 62
     2
100
AcDbLine
 10
1193.096684192119
 20
2121.484859719512
 30
0.0
 11
1193.096684192119
 21
2156.484856143371
 31
0.0
  0
LINE
  5
17A
330
1F
100
AcDbEntity
  8
0
  6
Continuous
 62
     2
100
AcDbLine
 10
1195.096688245111
 20
1769.484861628419
 30
0.0
 11
1230.096684668471
 21
1769.484861628419
 31
0.0
  0
LINE
  5
17B
330
1F
100
AcDbEntity
  8
0
  6
Continuous
 62
     2
100
AcDbLine
 10
1195.096688245111
 20
1804.48485805228
 30
0.0
 11
1230.096684668471
 21
1804.48485805228
 31
0.0
  0
LINE
  5
17C
330
1F
100
AcDbEntity
  8
0
  6
Continuous
 62
     2
100
AcDbLine
 10
1195.096688245111
 20
1804.48485805228
 30
0.0
 11
1195.096688245111
 21
1769.484861628419
 31
0.0
  0
LINE
  5
17D
330
1F
100
AcDbEntity
  8
0
  6
Continuous
 62
     2
100
AcDbLine
 10
1230.096684668471
 20
1804.48485805228
 30
0.0
 11
1230.096684668471
 21
1769.484861628419
 31
0.0
  0
LINE
  5
17E
330
1F
100
AcDbEntity
  8
0
  6
Continuous
 62
     2
100
AcDbLine
 10
1232.096673820463
 20
1804.48485805228
 30
0.0
 11
1267.096700046323
 21
1804.48485805228
 31
0.0
  0
LINE
  5
17F
330
1F
100
AcDbEntity
  8
0
  6
Continuous
 62
     2
100
AcDbLine
 10
1267.096700046323
 20
1804.48485805228
 30
0.0
 11
1267.096700046323
 21
1769.484861628419
 31
0.0
  0
LINE
  5
180
330
1F
100
AcDbEntity
  8
0
  6
Continuous
 62
     2
100
AcDbLine
 10
1232.096673820463
 20
1769.484861628419
 30
0.0
 11
1267.096700046323
 21
1769.484861628419
 31
0.0
  0
LINE
  5
181
330
1F
100
AcDbEntity
  8
0
  6
Continuous
 62
     2
100
AcDbLine
 10
1232.096673820463
 20
1804.48485805228
 30
0.0
 11
1232.096673820463
 21
1769.484861628419
 31
0.0
  0
LINE
  5
182
330
1F
100
AcDbEntity
  8
0
  6
Continuous
 62
     2
100
AcDbLine
 10
841.0966861005261
 20
2230.484857096576
 30
0.0
 11
841.0966861005261
 21
2195.484860673215
 31
0.0
  0
LINE
  5
183
330
1F
100
AcDbEntity
  8
0
  6
Continuous
 62
     2
100
AcDbLine
 10
841.0966861005261
 20
2230.484857096576
 30
0.0
 11
806.0966896771663
 21
2230.484857096576
 31
0.0
  0
LINE
  5
184
330
1F
100
AcDbEntity
  8
0
  6
Continuous
 62
     2
100
AcDbLine
 10
806.0966896771663
 20
2195.484860673215
 30
0.0
 11
806.0966896771663
 21
2230.484857096576
 31
0.0
  0
LINE
  5
185
330
1F
100
AcDbEntity
  8
0
  6
Continuous
 62
     2
100
AcDbLine
 10
841.0966861005261
 20
2195.484860673215
 30
0.0
 11
806.0966896771663
 21
2195.484860673215
 31
0.0
  0
LINE
  5
186
330
1F
100
AcDbEntity
  8
0
  6
Continuous
 62
     2
100
AcDbLine
 10
730.0966995719702
 20
2158.484860196364
 30
0.0
 11
695.0966733461103
 21
2158.484860196364
 31
0.0
  0
LINE
  5
187
330
1F
100
AcDbEntity
  8
0
  6
Continuous
 62
     2
100
AcDbLine
 10
695.0966733461103
 20
2158.484860196364
 30
0.0
 11
695.0966733461103
 21
2193.484856620223
 31
0.0
  0
LINE
  5
188
330
1F
100
AcDbEntity
  8
0
  6
Continuous
 62
     2
100
AcDbLine
 10
730.0966995719702
 20
2193.484856620223
 30
0.0
 11
695.0966733461103
 21
2193.484856620223
 31
0.0
  0
LINE
  5
189
330
1F
100
AcDbEntity
  8
0
  6
Continuous
 62
     2
100
AcDbLine
 10
730.0966995719702
 20
2158.484860196364
 30
0.0
 11
730.0966995719702
 21
2193.484856620223
 31
0.0
  0
LINE
  5
18A
330
1F
100
AcDbEntity
  8
0
  6
Continuous
 62
     2
100
AcDbLine
 10
767.096685147322
 20
2193.484856620223
 30
0.0
 11
732.0966887239622
 21
2193.484856620223
 31
0.0
  0
LINE
  5
18B
330
1F
100
AcDbEntity
  8
0
  6
Continuous
 62
     2
100
AcDbLine
 10
767.096685147322
 20
2158.484860196364
 30
0.0
 11
732.0966887239622
 21
2158.484860196364
 31
0.0
  0
LINE
  5
18C
330
1F
100
AcDbEntity
  8
0
  6
Continuous
 62
     2
100
AcDbLine
 10
767.096685147322
 20
2158.484860196364
 30
0.0
 11
767.096685147322
 21
2193.484856620223
 31
0.0
  0
LINE
  5
18D
330
1F
100
AcDbEntity
  8
0
  6
Continuous
 62
     2
100
AcDbLine
 10
732.0966887239622
 20
2158.484860196364
 30
0.0
 11
732.0966887239622
 21
2193.484856620223
 31
0.0
  0
LINE
  5
18E
330
1F
100
AcDbEntity
  8
0
  6
Continuous
 62
     2
100
AcDbLine
 10
804.0966856241741
 20
2158.484860196364
 30
0.0
 11
769.0966892003146
 21
2158.484860196364
 31
0.0
  0
LINE
  5
18F
330
1F
100
AcDbEntity
  8
0
  6
Continuous
 62
     2
100
AcDbLine
 10
804.0966856241741
 20
2158.484860196364
 30
0.0
 11
804.0966856241741
 21
2193.484856620223
 31
0.0
  0
LINE
  5
190
330
1F
100
AcDbEntity
  8
0
  6
Continuous
 62
     2
100
AcDbLine
 10
769.0966892003146
 20
2158.484860196364
 30
0.0
 11
769.0966892003146
 21
2193.484856620223
 31
0.0
  0
LINE
  5
191
330
1F
100
AcDbEntity
  8
0
  6
Continuous
 62
     2
100
AcDbLine
 10
804.0966856241741
 20
2193.484856620223
 30
0.0
 11
769.0966892003146
 21
2193.484856620223
 31
0.0
  0
LINE
  5
192
330
1F
100
AcDbEntity
  8
0
  6
Continuous
 62
     2
100
AcDbLine
 10
804.0966856241741
 20
1730.484872000076
 30
0.0
 11
804.0966856241741
 21
1695.484845773716
 31
0.0
  0
LINE
  5
193
330
1F
100
AcDbEntity
  8
0
  6
Continuous
 62
     2
100
AcDbLine
 10
769.0966892003146
 20
1695.484845773716
 30
0.0
 11
804.0966856241741
 21
1695.484845773716
 31
0.0
  0
LINE
  5
194
330
1F
100
AcDbEntity
  8
0
  6
Continuous
 62
     2
100
AcDbLine
 10
769.0966892003146
 20
1730.484872000076
 30
0.0
 11
769.0966892003146
 21
1695.484845773716
 31
0.0
  0
LINE
  5
195
330
1F
100
AcDbEntity
  8
0
  6
Continuous
 62
     2
100
AcDbLine
 10
804.0966856241741
 20
1730.484872000076
 30
0.0
 11
769.0966892003146
 21
1730.484872000076
 31
0.0
  0
LINE
  5
196
330
1F
100
AcDbEntity
  8
0
  6
Continuous
 62
     2
100
AcDbLine
 10
1232.096673820463
 20
2193.484856620223
 30
0.0
 11
1267.096700046323
 21
2193.484856620223
 31
0.0
  0
LINE
  5
197
330
1F
100
AcDbEntity
  8
0
  6
Continuous
 62
     2
100
AcDbLine
 10
1267.096700046323
 20
2158.484860196364
 30
0.0
 11
1267.096700046323
 21
2193.484856620223
 31
0.0
  0
LINE
  5
198
330
1F
100
AcDbEntity
  8
0
  6
Continuous
 62
     2
100
AcDbLine
 10
1232.096673820463
 20
2158.484860196364
 30
0.0
 11
1267.096700046323
 21
2158.484860196364
 31
0.0
  0
LINE
  5
199
330
1F
100
AcDbEntity
  8
0
  6
Continuous
 62
     2
100
AcDbLine
 10
1232.096673820463
 20
2158.484860196364
 30
0.0
 11
1232.096673820463
 21
2193.484856620223
 31
0.0
  0
LINE
  5
19A
330
1F
100
AcDbEntity
  8
0
  6
Continuous
 62
     2
100
AcDbLine
 10
1158.096687768259
 20
1767.484857575428
 30
0.0
 11
1158.096687768259
 21
1732.484861151568
 31
0.0
  0
LINE
  5
19B
330
1F
100
AcDbEntity
  8
0
  6
Continuous
 62
     2
100
AcDbLine
 10
1193.096684192119
 20
1767.484857575428
 30
0.0
 11
1193.096684192119
 21
1732.484861151568
 31
0.0
  0
LINE
  5
19C
330
1F
100
AcDbEntity
  8
0
  6
Continuous
 62
     2
100
AcDbLine
 10
1158.096687768259
 20
1732.484861151568
 30
0.0
 11
1193.096684192119
 21
1732.484861151568
 31
0.0
  0
LINE
  5
19D
330
1F
100
AcDbEntity
  8
0
  6
Continuous
 62
     2
100
AcDbLine
 10
1158.096687768259
 20
1767.484857575428
 30
0.0
 11
1193.096684192119
 21
1767.484857575428
 31
0.0
  0
LINE
  5
19E
330
1F
100
AcDbEntity
  8
0
  6
Continuous
 62
     2
100
AcDbLine
 10
1230.096684668471
 20
2267.484872474427
 30
0.0
 11
1195.096688245111
 21
2267.484872474427
 31
0.0
  0
LINE
  5
19F
330
1F
100
AcDbEntity
  8
0
  6
Continuous
 62
     2
100
AcDbLine
 10
1195.096688245111
 20
2232.484846248568
 30
0.0
 11
1230.096684668471
 21
2232.484846248568
 31
0.0
  0
LINE
  5
1A0
330
1F
100
AcDbEntity
  8
0
  6
Continuous
 62
     2
100
AcDbLine
 10
1230.096684668471
 20
2232.484846248568
 30
0.0
 11
1230.096684668471
 21
2267.484872474427
 31
0.0
  0
LINE
  5
1A1
330
1F
100
AcDbEntity
  8
0
  6
Continuous
 62
     2
100
AcDbLine
 10
1195.096688245111
 20
2232.484846248568
 30
0.0
 11
1195.096688245111
 21
2267.484872474427
 31
0.0
  0
LINE
  5
1A2
330
1F
100
AcDbEntity
  8
0
  6
Continuous
 62
     2
100
AcDbLine
 10
1158.096687768259
 20
1730.484872000076
 30
0.0
 11
1193.096684192119
 21
1730.484872000076
 31
0.0
  0
LINE
  5
1A3
330
1F
100
AcDbEntity
  8
0
  6
Continuous
 62
     2
100
AcDbLine
 10
1193.096684192119
 20
1730.484872000076
 30
0.0
 11
1193.096684192119
 21
1695.484845773716
 31
0.0
  0
LINE
  5
1A4
330
1F
100
AcDbEntity
  8
0
  6
Continuous
 62
     2
100
AcDbLine
 10
1158.096687768259
 20
1730.484872000076
 30
0.0
 11
1158.096687768259
 21
1695.484845773716
 31
0.0
  0
LINE
  5
1A5
330
1F
100
AcDbEntity
  8
0
  6
Continuous
 62
     2
100
AcDbLine
 10
1193.096684192119
 20
1695.484845773716
 30
0.0
 11
1158.096687768259
 21
1695.484845773716
 31
0.0
  0
LINE
  5
1A6
330
1F
100
AcDbEntity
  8
0
  6
Continuous
 62
     2
100
AcDbLine
 10
1121.096687291907
 20
1732.484861151568
 30
0.0
 11
1121.096687291907
 21
1767.484857575428
 31
0.0
  0
LINE
  5
1A7
330
1F
100
AcDbEntity
  8
0
  6
Continuous
 62
     2
100
AcDbLine
 10
1156.096683715267
 20
1767.484857575428
 30
0.0
 11
1156.096683715267
 21
1732.484861151568
 31
0.0
  0
LINE
  5
1A8
330
1F
100
AcDbEntity
  8
0
  6
Continuous
 62
     2
100
AcDbLine
 10
1121.096687291907
 20
1732.484861151568
 30
0.0
 11
1156.096683715267
 21
1732.484861151568
 31
0.0
  0
LINE
  5
1A9
330
1F
100
AcDbEntity
  8
0
  6
Continuous
 62
     2
100
AcDbLine
 10
1121.096687291907
 20
1767.484857575428
 30
0.0
 11
1156.096683715267
 21
1767.484857575428
 31
0.0
  0
LINE
  5
1AA
330
1F
100
AcDbEntity
  8
0
  6
Continuous
 62
     2
100
AcDbLine
 10
1121.096687291907
 20
1769.484861628419
 30
0.0
 11
1121.096687291907
 21
1804.48485805228
 31
0.0
  0
LINE
  5
1AB
330
1F
100
AcDbEntity
  8
0
  6
Continuous
 62
     2
100
AcDbLine
 10
1121.096687291907
 20
1769.484861628419
 30
0.0
 11
1156.096683715267
 21
1769.484861628419
 31
0.0
  0
LINE
  5
1AC
330
1F
100
AcDbEntity
  8
0
  6
Continuous
 62
     2
100
AcDbLine
 10
1121.096687291907
 20
1804.48485805228
 30
0.0
 11
1156.096683715267
 21
1804.48485805228
 31
0.0
  0
LINE
  5
1AD
330
1F
100
AcDbEntity
  8
0
  6
Continuous
 62
     2
100
AcDbLine
 10
1156.096683715267
 20
1804.48485805228
 30
0.0
 11
1156.096683715267
 21
1769.484861628419
 31
0.0
  0
LINE
  5
1AE
330
1F
100
AcDbEntity
  8
0
  6
Continuous
 62
     2
100
AcDbLine
 10
1193.096684192119
 20
2158.484860196364
 30
0.0
 11
1193.096684192119
 21
2193.484856620223
 31
0.0
  0
LINE
  5
1AF
330
1F
100
AcDbEntity
  8
0
  6
Continuous
 62
     2
100
AcDbLine
 10
1158.096687768259
 20
2193.484856620223
 30
0.0
 11
1193.096684192119
 21
2193.484856620223
 31
0.0
  0
LINE
  5
1B0
330
1F
100
AcDbEntity
  8
0
  6
Continuous
 62
     2
100
AcDbLine
 10
1158.096687768259
 20
2158.484860196364
 30
0.0
 11
1193.096684192119
 21
2158.484860196364
 31
0.0
  0
LINE
  5
1B1
330
1F
100
AcDbEntity
  8
0
  6
Continuous
 62
     2
100
AcDbLine
 10
1158.096687768259
 20
2158.484860196364
 30
0.0
 11
1158.096687768259
 21
2193.484856620223
 31
0.0
  0
LINE
  5
1B2
330
1F
100
AcDbEntity
  8
0
  6
Continuous
 62
     2
100
AcDbLine
 10
1156.096683715267
 20
1730.484872000076
 30
0.0
 11
1156.096683715267
 21
1695.484845773716
 31
0.0
  0
LINE
  5
1B3
330
1F
100
AcDbEntity
  8
0
  6
Continuous
 62
     2
100
AcDbLine
 10
1121.096687291907
 20
1730.484872000076
 30
0.0
 11
1156.096683715267
 21
1730.484872000076
 31
0.0
  0
LINE
  5
1B4
330
1F
100
AcDbEntity
  8
0
  6
Continuous
 62
     2
100
AcDbLine
 10
1121.096686695907
 20
1709.48485912516
 30
0.0
 11
1121.096687291907
 21
1730.484872000076
 31
0.0
  0
LINE
  5
1B5
330
1F
100
AcDbEntity
  8
0
  6
Continuous
 62
     2
100
AcDbLine
 10
1156.096683715267
 20
1695.484845773716
 30
0.0
 11
1135.096686695851
 21
1695.484859125216
 31
0.0
  0
LINE
  5
1B6
330
1F
100
AcDbEntity
  8
0
  6
Continuous
 62
     2
100
AcDbLine
 10
1230.096684668471
 20
1767.484857575428
 30
0.0
 11
1230.096684668471
 21
1732.484861151568
 31
0.0
  0
LINE
  5
1B7
330
1F
100
AcDbEntity
  8
0
  6
Continuous
 62
     2
100
AcDbLine
 10
1195.096688245111
 20
1732.484861151568
 30
0.0
 11
1230.096684668471
 21
1732.484861151568
 31
0.0
  0
LINE
  5
1B8
330
1F
100
AcDbEntity
  8
0
  6
Continuous
 62
     2
100
AcDbLine
 10
1195.096688245111
 20
1767.484857575428
 30
0.0
 11
1230.096684668471
 21
1767.484857575428
 31
0.0
  0
LINE
  5
1B9
330
1F
100
AcDbEntity
  8
0
  6
Continuous
 62
     2
100
AcDbLine
 10
1195.096688245111
 20
1767.484857575428
 30
0.0
 11
1195.096688245111
 21
1732.484861151568
 31
0.0
  0
LINE
  5
1BA
330
1F
100
AcDbEntity
  8
0
  6
Continuous
 62
     2
100
AcDbLine
 10
1232.096673820463
 20
1730.484872000076
 30
0.0
 11
1232.096673820463
 21
1695.484845773716
 31
0.0
  0
LINE
  5
1BB
330
1F
100
AcDbEntity
  8
0
  6
Continuous
 62
     2
100
AcDbLine
 10
1267.096700046323
 20
1730.484872000076
 30
0.0
 11
1267.096686695323
 21
1709.48485912516
 31
0.0
  0
LINE
  5
1BC
330
1F
100
AcDbEntity
  8
0
  6
Continuous
 62
     2
100
AcDbLine
 10
1232.096673820463
 20
1730.484872000076
 30
0.0
 11
1267.096700046323
 21
1730.484872000076
 31
0.0
  0
LINE
  5
1BD
330
1F
100
AcDbEntity
  8
0
  6
Continuous
 62
     2
100
AcDbLine
 10
1253.096686695379
 20
1695.484859125216
 30
0.0
 11
1232.096673820463
 21
1695.484845773716
 31
0.0
  0
LINE
  5
1BE
330
1F
100
AcDbEntity
  8
0
  6
Continuous
 62
     2
100
AcDbLine
 10
1195.096688245111
 20
1730.484872000076
 30
0.0
 11
1230.096684668471
 21
1730.484872000076
 31
0.0
  0
LINE
  5
1BF
330
1F
100
AcDbEntity
  8
0
  6
Continuous
 62
     2
100
AcDbLine
 10
1195.096688245111
 20
1730.484872000076
 30
0.0
 11
1195.096688245111
 21
1695.484845773716
 31
0.0
  0
LINE
  5
1C0
330
1F
100
AcDbEntity
  8
0
  6
Continuous
 62
     2
100
AcDbLine
 10
1230.096684668471
 20
1730.484872000076
 30
0.0
 11
1230.096684668471
 21
1695.484845773716
 31
0.0
  0
LINE
  5
1C1
330
1F
100
AcDbEntity
  8
0
  6
Continuous
 62
     2
100
AcDbLine
 10
1230.096684668471
 20
1695.484845773716
 30
0.0
 11
1195.096688245111
 21
1695.484845773716
 31
0.0
  0
LINE
  5
1C2
330
1F
100
AcDbEntity
  8
0
  6
Continuous
 62
     2
100
AcDbLine
 10
1232.096673820463
 20
2195.484860673215
 30
0.0
 11
1267.096700046323
 21
2195.484860673215
 31
0.0
  0
LINE
  5
1C3
330
1F
100
AcDbEntity
  8
0
  6
Continuous
 62
     2
100
AcDbLine
 10
1232.096673820463
 20
2195.484860673215
 30
0.0
 11
1232.096673820463
 21
2230.484857096576
 31
0.0
  0
LINE
  5
1C4
330
1F
100
AcDbEntity
  8
0
  6
Continuous
 62
     2
100
AcDbLine
 10
1232.096673820463
 20
2230.484857096576
 30
0.0
 11
1267.096700046323
 21
2230.484857096576
 31
0.0
  0
LINE
  5
1C5
330
1F
100
AcDbEntity
  8
0
  6
Continuous
 62
     2
100
AcDbLine
 10
1267.096700046323
 20
2195.484860673215
 30
0.0
 11
1267.096700046323
 21
2230.484857096576
 31
0.0
  0
LINE
  5
1C6
330
1F
100
AcDbEntity
  8
0
  6
Continuous
 62
     2
100
AcDbLine
 10
1267.096700046323
 20
1767.484857575428
 30
0.0
 11
1267.096700046323
 21
1732.484861151568
 31
0.0
  0
LINE
  5
1C7
330
1F
100
AcDbEntity
  8
0
  6
Continuous
 62
     2
100
AcDbLine
 10
1232.096673820463
 20
1767.484857575428
 30
0.0
 11
1267.096700046323
 21
1767.484857575428
 31
0.0
  0
LINE
  5
1C8
330
1F
100
AcDbEntity
  8
0
  6
Continuous
 62
     2
100
AcDbLine
 10
1232.096673820463
 20
1767.484857575428
 30
0.0
 11
1232.096673820463
 21
1732.484861151568
 31
0.0
  0
LINE
  5
1C9
330
1F
100
AcDbEntity
  8
0
  6
Continuous
 62
     2
100
AcDbLine
 10
1232.096673820463
 20
1732.484861151568
 30
0.0
 11
1267.096700046323
 21
1732.484861151568
 31
0.0
  0
LINE
  5
1CA
330
1F
100
AcDbEntity
  8
0
  6
Continuous
 62
     2
100
AcDbLine
 10
806.0966896771663
 20
1730.484872000076
 30
0.0
 11
806.0966896771663
 21
1695.484845773716
 31
0.0
  0
LINE
  5
1CB
330
1F
100
AcDbEntity
  8
0
  6
Continuous
 62
     2
100
AcDbLine
 10
841.0966861005261
 20
1730.484872000076
 30
0.0
 11
806.0966896771663
 21
1730.484872000076
 31
0.0
  0
LINE
  5
1CC
330
1F
100
AcDbEntity
  8
0
  6
Continuous
 62
     2
100
AcDbLine
 10
841.0966866970268
 20
1709.48485912516
 30
0.0
 11
841.0966861005261
 21
1730.484872000076
 31
0.0
  0
LINE
  5
1CD
330
1F
100
AcDbEntity
  8
0
  6
Continuous
 62
     2
100
AcDbLine
 10
806.0966896771663
 20
1695.484845773716
 30
0.0
 11
827.0966866970828
 21
1695.484859125216
 31
0.0
  0
LINE
  5
1CE
330
1F
100
AcDbEntity
  8
0
  6
Continuous
 62
     2
100
AcDbLine
 10
732.0966887239622
 20
1695.484845773716
 30
0.0
 11
767.096685147322
 21
1695.484845773716
 31
0.0
  0
LINE
  5
1CF
330
1F
100
AcDbEntity
  8
0
  6
Continuous
 62
     2
100
AcDbLine
 10
767.096685147322
 20
1730.484872000076
 30
0.0
 11
732.0966887239622
 21
1730.484872000076
 31
0.0
  0
LINE
  5
1D0
330
1F
100
AcDbEntity
  8
0
  6
Continuous
 62
     2
100
AcDbLine
 10
767.096685147322
 20
1730.484872000076
 30
0.0
 11
767.096685147322
 21
1695.484845773716
 31
0.0
  0
LINE
  5
1D1
330
1F
100
AcDbEntity
  8
0
  6
Continuous
 62
     2
100
AcDbLine
 10
732.0966887239622
 20
1730.484872000076
 30
0.0
 11
732.0966887239622
 21
1695.484845773716
 31
0.0
  0
LINE
  5
1D2
330
1F
100
AcDbEntity
  8
0
  6
Continuous
 62
     7
100
AcDbLine
 10
703.5316544535765
 20
1981.484859134072
 30
0.0
 11
703.5197037225764
 21
1961.484859571151
 31
0.0
  0
LINE
  5
1D3
330
1F
100
AcDbEntity
  8
0
  6
Continuous
 62
     7
100
AcDbLine
 10
703.5316544535765
 20
1981.484859114572
 30
0.0
 11
703.5197037225764
 21
2001.484858676992
 31
0.0
  0
LINE
  5
1D4
330
1F
100
AcDbEntity
  8
0
  6
Continuous
 62
     7
100
AcDbLine
 10
1101.783210311984
 20
1991.567370355532
 30
0.0
 11
703.5197037225764
 21
2001.484858676992
 31
0.0
  0
LINE
  5
1D5
330
1F
100
AcDbEntity
  8
0
  6
Continuous
 62
     7
100
AcDbLine
 10
1101.783210311984
 20
1971.402347893112
 30
0.0
 11
703.5197037225764
 21
1961.484859571151
 31
0.0
  0
LINE
  5
1D6
330
1F
100
AcDbEntity
  8
0
  6
Continuous
 62
     7
100
AcDbLine
 10
703.5197037225764
 20
1961.484859571151
 30
0.0
 11
703.5316544535765
 21
1971.485005565612
 31
0.0
  0
LINE
  5
1D7
330
1F
100
AcDbEntity
  8
0
  6
Continuous
 62
     7
100
AcDbLine
 10
703.5197037225764
 20
2001.484858676992
 30
0.0
 11
703.5316544535765
 21
1991.484712683031
 31
0.0
  0
LINE
  5
1D8
330
1F
100
AcDbEntity
  8
0
  6
Continuous
 62
     7
100
AcDbLine
 10
1101.952286337483
 20
1971.415596888112
 30
0.0
 11
1101.783210311984
 21
1971.402347893112
 31
0.0
  0
LINE
  5
1D9
330
1F
100
AcDbEntity
  8
0
  6
Continuous
 62
     7
100
AcDbLine
 10
1101.952286337483
 20
1991.554121360532
 30
0.0
 11
1101.783210311984
 21
1991.567370355532
 31
0.0
  0
LINE
  5
1DA
330
1F
100
AcDbEntity
  8
0
  6
Continuous
 62
     7
100
AcDbLine
 10
703.5316544535765
 20
1991.484712683031
 30
0.0
 11
1101.132253085486
 21
1981.583600381071
 31
0.0
  0
LINE
  5
1DB
330
1F
100
AcDbEntity
  8
0
  6
Continuous
 62
     7
100
AcDbLine
 10
703.5316544535765
 20
1981.484859114572
 30
0.0
 11
703.5316544535765
 21
1991.484712683031
 31
0.0
  0
LINE
  5
1DC
330
1F
100
AcDbEntity
  8
0
  6
Continuous
 62
     7
100
AcDbLine
 10
1101.157376442986
 20
1981.583186699072
 30
0.0
 11
1101.132253085486
 21
1981.583600381071
 31
0.0
  0
LINE
  5
1DD
330
1F
100
AcDbEntity
  8
0
  6
Continuous
 62
     7
100
AcDbLine
 10
1101.157376442986
 20
1981.386531549073
 30
0.0
 11
1101.132253085486
 21
1981.386117867572
 31
0.0
  0
LINE
  5
1DE
330
1F
100
AcDbEntity
  8
0
  6
Continuous
 62
     7
100
AcDbLine
 10
1105.101460491001
 20
1982.310788696124
 30
0.0
 11
1105.101460491001
 21
1980.658929552521
 31
0.0
  0
LINE
  5
1DF
330
1F
100
AcDbEntity
  8
0
  6
Continuous
 62
     2
100
AcDbLine
 10
1268.275761582818
 20
2277.149215384889
 30
0.0
 11
1272.555561507686
 21
2281.429015309502
 31
0.0
  0
LINE
  5
1E0
330
1F
100
AcDbEntity
  8
0
  6
Continuous
 62
     2
100
AcDbLine
 10
1268.275761582818
 20
1685.820502863255
 30
0.0
 11
1272.555561507686
 21
1681.540702938642
 31
0.0
  0
LINE
  5
1E1
330
1F
100
AcDbEntity
  8
0
  6
Continuous
 62
     2
100
AcDbLine
 10
685.4323304356487
 20
2268.663934010923
 30
0.0
 11
681.1525305106659
 21
2272.943733935406
 31
0.0
  0
LINE
  5
1E2
330
1F
100
AcDbEntity
  8
0
  6
Continuous
 62
     2
100
AcDbLine
 10
685.4323304356487
 20
1694.305784237721
 30
0.0
 11
681.1525305106659
 21
1690.025984313238
 31
0.0
  0
LINE
  5
1E3
330
1F
100
AcDbEntity
  8
0
  6
Continuous
 62
     2
100
AcDbLine
 10
1281.040842881897
 20
2272.943733935291
 30
0.0
 11
1276.761042956784
 21
2268.663934010923
 31
0.0
  0
LINE
  5
1E4
330
1F
100
AcDbEntity
  8
0
  6
Continuous
 62
     2
100
AcDbLine
 10
1281.040842881897
 20
1690.025984312853
 30
0.0
 11
1276.761042956784
 21
1694.305784237721
 31
0.0
  0
LINE
  5
1E5
330
1F
100
AcDbEntity
  8
0
  6
Continuous
 62
     2
100
AcDbLine
 10
689.6378118852456
 20
2281.429015309502
 30
0.0
 11
693.917611809615
 21
2277.149215384889
 31
0.0
  0
LINE
  5
1E6
330
1F
100
AcDbEntity
  8
0
  6
Continuous
 62
     2
100
AcDbLine
 10
689.6378118852456
 20
1681.540702938642
 30
0.0
 11
693.917611809615
 21
1685.820502863255
 31
0.0
  0
LINE
  5
1E7
330
1F
100
AcDbEntity
  8
0
  6
Continuous
 62
     7
100
AcDbLine
 10
1289.253471752234
 20
1852.683359793587
 30
0.0
 11
1289.253471752234
 21
1683.290021049264
 31
0.0
  0
LINE
  5
1E8
330
1F
100
AcDbEntity
  8
0
  6
Continuous
 62
     7
100
AcDbLine
 10
1289.253471752234
 20
2110.286358455056
 30
0.0
 11
1289.253471752234
 21
2279.679697199379
 31
0.0
  0
LINE
  5
1E9
330
1F
100
AcDbEntity
  8
0
  6
Continuous
 62
     7
100
AcDbLine
 10
852.2951873654813
 20
2289.641644180339
 30
0.0
 11
682.9018486211592
 21
2289.641644180339
 31
0.0
  0
LINE
  5
1EA
330
1F
100
AcDbEntity
  8
0
  6
Continuous
 62
     7
100
AcDbLine
 10
1279.291524771274
 20
2289.641644180339
 30
0.0
 11
1109.898186026952
 21
2289.641644180339
 31
0.0
  0
LINE
  5
1EB
330
1F
100
AcDbEntity
  8
0
  6
Continuous
 62
     7
100
AcDbLine
 10
1109.898186026952
 20
1682.283747576269
 30
0.0
 11
1255.458501852369
 21
1682.283747576269
 31
0.0
  0
LINE
  5
1EC
330
1F
100
AcDbEntity
  8
0
  6
Continuous
 62
     7
100
AcDbLine
 10
1280.29779824427
 20
1707.123043968169
 30
0.0
 11
1280.29779824427
 21
1852.683359793587
 31
0.0
  0
LINE
  5
1ED
330
1F
100
AcDbEntity
  8
0
  6
Continuous
 62
     7
100
AcDbLine
 10
1279.291524771274
 20
1673.328074068304
 30
0.0
 11
1109.898186026952
 21
1673.328074068304
 31
0.0
  0
LINE
  5
1EE
330
1F
100
AcDbEntity
  8
0
  6
Continuous
 62
     7
100
AcDbLine
 10
681.8955751481628
 20
2110.286358455056
 30
0.0
 11
681.8955751481628
 21
2255.846674280474
 31
0.0
  0
LINE
  5
1EF
330
1F
100
AcDbEntity
  8
0
  6
Continuous
 62
     7
100
AcDbLine
 10
706.7348715400638
 20
2280.685970672375
 30
0.0
 11
852.2951873654813
 21
2280.685970672375
 31
0.0
  0
LINE
  5
1F0
330
1F
100
AcDbEntity
  8
0
  6
Continuous
 62
     7
100
AcDbLine
 10
706.7348715400638
 20
1682.283747576269
 30
0.0
 11
852.2951873654813
 21
1682.283747576269
 31
0.0
  0
LINE
  5
1F1
330
1F
100
AcDbEntity
  8
0
  6
Continuous
 62
     7
100
AcDbLine
 10
852.2951873654813
 20
1673.328074068304
 30
0.0
 11
682.9018486211592
 21
1673.328074068304
 31
0.0
  0
LINE
  5
1F2
330
1F
100
AcDbEntity
  8
0
  6
Continuous
 62
     7
100
AcDbLine
 10
672.9399016401987
 20
1683.290021049264
 30
0.0
 11
672.9399016401987
 21
1852.683359793587
 31
0.0
  0
LINE
  5
1F3
330
1F
100
AcDbEntity
  8
0
  6
Continuous
 62
     7
100
AcDbLine
 10
681.8955751481628
 20
1852.683359793587
 30
0.0
 11
681.8955751481628
 21
1707.123043968169
 31
0.0
  0
LINE
  5
1F4
330
1F
100
AcDbEntity
  8
0
  6
Continuous
 62
     7
100
AcDbLine
 10
1109.898186026952
 20
2280.685970672375
 30
0.0
 11
1255.458501852369
 21
2280.685970672375
 31
0.0
  0
LINE
  5
1F5
330
1F
100
AcDbEntity
  8
0
  6
Continuous
 62
     7
100
AcDbLine
 10
1280.29779824427
 20
2255.846674280474
 30
0.0
 11
1280.29779824427
 21
2110.286358455056
 31
0.0
  0
LINE
  5
1F6
330
1F
100
AcDbEntity
  8
0
  6
Continuous
 62
     2
100
AcDbLine
 10
694.4483512231125
 20
2273.790048846402
 30
0.0
 11
689.4111948971329
 21
2278.827189340383
 31
0.0
  0
LINE
  5
1F7
330
1F
100
AcDbEntity
  8
0
  6
Continuous
 62
     2
100
AcDbLine
 10
683.7543564801556
 20
1689.799367325239
 30
0.0
 11
688.791496973636
 21
1694.836523651219
 31
0.0
  0
LINE
  5
1F8
330
1F
100
AcDbEntity
  8
0
  6
Continuous
 62
     2
100
AcDbLine
 10
1272.7821784953
 20
2278.827189340383
 30
0.0
 11
1267.74502216932
 21
2273.790048846402
 31
0.0
  0
LINE
  5
1F9
330
1F
100
AcDbEntity
  8
0
  6
Continuous
 62
     2
100
AcDbLine
 10
683.7543564801556
 20
2273.170350923405
 30
0.0
 11
688.791496973636
 21
2268.133194596926
 31
0.0
  0
LINE
  5
1FA
330
1F
100
AcDbEntity
  8
0
  6
Continuous
 62
     2
100
AcDbLine
 10
694.4483512231125
 20
1689.179669401741
 30
0.0
 11
689.4111948971329
 21
1684.142528908262
 31
0.0
  0
LINE
  5
1FB
330
1F
100
AcDbEntity
  8
0
  6
Continuous
 62
     2
100
AcDbLine
 10
1272.7821784953
 20
1684.142528908262
 30
0.0
 11
1267.74502216932
 21
1689.179669401741
 31
0.0
  0
LINE
  5
1FC
330
1F
100
AcDbEntity
  8
0
  6
Continuous
 62
     2
100
AcDbLine
 10
1273.401876418797
 20
1694.836523651219
 30
0.0
 11
1278.439016912277
 21
1689.799367325239
 31
0.0
  0
LINE
  5
1FD
330
1F
100
AcDbEntity
  8
0
  6
Continuous
 62
     2
100
AcDbLine
 10
1273.401876418797
 20
2268.133194596926
 30
0.0
 11
1278.439016912277
 21
2273.170350923405
 31
0.0
  0
LINE
  5
1FE
330
1F
100
AcDbEntity
  8
0
  6
Continuous
 62
     7
100
AcDbLine
 10
707.1001064550621
 20
1687.616841769747
 30
0.0
 11
848.6573228624964
 21
1687.616841769747
 31
0.0
  0
LINE
  5
1FF
330
1F
100
AcDbEntity
  8
0
  6
Continuous
 62
     7
100
AcDbLine
 10
865.1218732294303
 20
1693.965359933721
 30
0.0
 11
1096.979188022003
 21
1694.102048863721
 31
0.0
  0
LINE
  5
200
330
1F
100
AcDbEntity
  8
0
  6
Continuous
 62
     7
100
AcDbLine
 10
1113.536050529936
 20
1687.616841769747
 30
0.0
 11
1255.093266937371
 21
1687.616841769747
 31
0.0
  0
LINE
  5
201
330
1F
100
AcDbEntity
  8
0
  6
Continuous
 62
     7
100
AcDbLine
 10
865.1218732294303
 20
2269.004358314921
 30
0.0
 11
1096.979188022003
 21
2268.867669384923
 31
0.0
  0
LINE
  5
202
330
1F
100
AcDbEntity
  8
0
  6
Continuous
 62
     7
100
AcDbLine
 10
707.1001064550621
 20
2275.352876478897
 30
0.0
 11
848.6573228624964
 21
2275.352876478897
 31
0.0
  0
LINE
  5
203
330
1F
100
AcDbEntity
  8
0
  6
Continuous
 62
     7
100
AcDbLine
 10
1274.964704050791
 20
2255.481439365476
 30
0.0
 11
1274.964704050791
 21
2115.707142060035
 31
0.0
  0
LINE
  5
204
330
1F
100
AcDbEntity
  8
0
  6
Continuous
 62
     7
100
AcDbLine
 10
1274.964704050791
 20
1707.488278883168
 30
0.0
 11
1274.964704050791
 21
1847.262576188609
 31
0.0
  0
LINE
  5
205
330
1F
100
AcDbEntity
  8
0
  6
Continuous
 62
     7
100
AcDbLine
 10
1268.386180791318
 20
1860.697518989555
 30
0.0
 11
1268.314065311318
 21
1981.484859124072
 31
0.0
  0
LINE
  5
206
330
1F
100
AcDbEntity
  8
0
  6
Continuous
 62
     7
100
AcDbLine
 10
1268.386180791318
 20
2102.272199259088
 30
0.0
 11
1268.314065311318
 21
1981.484859124072
 31
0.0
  0
LINE
  5
207
330
1F
100
AcDbEntity
  8
0
  6
Continuous
 62
     7
100
AcDbLine
 10
687.2286693416415
 20
2113.924222958042
 30
0.0
 11
687.2286693416415
 21
2255.481439365476
 31
0.0
  0
LINE
  5
208
330
1F
100
AcDbEntity
  8
0
  6
Continuous
 62
     7
100
AcDbLine
 10
693.647624826616
 20
1981.484859124072
 30
0.0
 11
693.5783832381164
 21
2097.458865059608
 31
0.0
  0
LINE
  5
209
330
1F
100
AcDbEntity
  8
0
  6
Continuous
 62
     7
100
AcDbLine
 10
693.647624826616
 20
1981.484859124072
 30
0.0
 11
693.5783832381164
 21
1865.510853189036
 31
0.0
  0
LINE
  5
20A
330
1F
100
AcDbEntity
  8
0
  6
Continuous
 62
     7
100
AcDbLine
 10
1113.536050529936
 20
1687.616841769747
 30
0.0
 11
1113.536050529936
 21
1690.597557336736
 31
0.0
  0
LINE
  5
20B
330
1F
100
AcDbEntity
  8
0
  6
Continuous
 62
     7
100
AcDbLine
 10
687.2286693416415
 20
2113.924222958042
 30
0.0
 11
690.2093849086298
 21
2113.924222958042
 31
0.0
  0
LINE
  5
20C
330
1F
100
AcDbEntity
  8
0
  6
Continuous
 62
     7
100
AcDbLine
 10
687.2286693416415
 20
1849.045495290602
 30
0.0
 11
690.2093849086298
 21
1849.045495290602
 31
0.0
  0
LINE
  5
20D
330
1F
100
AcDbEntity
  8
0
  6
Continuous
 62
     7
100
AcDbLine
 10
848.6573228624964
 20
1687.616841769747
 30
0.0
 11
848.6573228624964
 21
1690.597557336736
 31
0.0
  0
LINE
  5
20E
330
1F
100
AcDbEntity
  8
0
  6
Continuous
 62
     7
100
AcDbLine
 10
848.6573228624964
 20
2275.352876478897
 30
0.0
 11
848.6573228624964
 21
2272.372160911908
 31
0.0
  0
LINE
  5
20F
330
1F
100
AcDbEntity
  8
0
  6
Continuous
 62
     7
100
AcDbLine
 10
1274.964704050791
 20
2115.707142060035
 30
0.0
 11
1271.983988483803
 21
2115.707142060035
 31
0.0
  0
LINE
  5
210
330
1F
100
AcDbEntity
  8
0
  6
Continuous
 62
     7
100
AcDbLine
 10
1274.964704050791
 20
1847.262576188609
 30
0.0
 11
1271.983988483803
 21
1847.262576188609
 31
0.0
  0
LINE
  5
211
330
1F
100
AcDbEntity
  8
0
  6
Continuous
 62
     7
100
AcDbLine
 10
1271.983988483803
 20
2115.707142060035
 30
0.0
 11
1271.983988483803
 21
2255.481439365476
 31
0.0
  0
LINE
  5
212
330
1F
100
AcDbEntity
  8
0
  6
Continuous
 62
     7
100
AcDbLine
 10
1271.983988483803
 20
1847.262576188609
 30
0.0
 11
1271.983988483803
 21
1707.488278883168
 31
0.0
  0
LINE
  5
213
330
1F
100
AcDbEntity
  8
0
  6
Continuous
 62
     7
100
AcDbLine
 10
848.6573228624964
 20
2272.372160911908
 30
0.0
 11
707.1001064550621
 21
2272.372160911908
 31
0.0
  0
LINE
  5
214
330
1F
100
AcDbEntity
  8
0
  6
Continuous
 62
     7
100
AcDbLine
 10
848.6573228624964
 20
1690.597557336736
 30
0.0
 11
707.1001064550621
 21
1690.597557336736
 31
0.0
  0
LINE
  5
215
330
1F
100
AcDbEntity
  8
0
  6
Continuous
 62
     7
100
AcDbLine
 10
690.2093849086298
 20
1707.488278883168
 30
0.0
 11
690.2093849086298
 21
1849.045495290602
 31
0.0
  0
LINE
  5
216
330
1F
100
AcDbEntity
  8
0
  6
Continuous
 62
     7
100
AcDbLine
 10
1255.093266937371
 20
1690.597557336736
 30
0.0
 11
1113.536050529936
 21
1690.597557336736
 31
0.0
  0
LINE
  5
217
330
1F
100
AcDbEntity
  8
0
  6
Continuous
 62
     7
100
AcDbLine
 10
690.2093849086298
 20
2255.481439365476
 30
0.0
 11
690.2093849086298
 21
2113.924222958042
 31
0.0
  0
LINE
  5
218
330
1F
100
AcDbEntity
  8
0
  6
Continuous
 62
     7
100
AcDbLine
 10
683.7870528611554
 20
1872.19176406851
 30
0.0
 11
682.4791891031607
 21
1865.777954180534
 31
0.0
  0
LINE
  5
219
330
1F
100
AcDbEntity
  8
0
  6
Continuous
 62
     7
100
AcDbLine
 10
683.7870528611554
 20
2090.777954179635
 30
0.0
 11
682.4791891031607
 21
2097.191764067609
 31
0.0
  0
LINE
  5
21A
330
1F
100
AcDbEntity
  8
0
  6
Continuous
 62
     7
100
AcDbLine
 10
1279.714184289273
 20
2097.191764067609
 30
0.0
 11
1278.406320531277
 21
2090.777954179635
 31
0.0
  0
LINE
  5
21B
330
1F
100
AcDbEntity
  8
0
  6
Continuous
 62
     7
100
AcDbLine
 10
1279.714184289273
 20
1865.777954180534
 30
0.0
 11
1278.406320531277
 21
1872.19176406851
 31
0.0
  0
LINE
  5
21C
330
1F
100
AcDbEntity
  8
0
  6
Continuous
 62
     7
100
AcDbLine
 10
865.3897817524291
 20
1682.867361531266
 30
0.0
 11
871.8035916409037
 21
1684.175225289261
 31
0.0
  0
LINE
  5
21D
330
1F
100
AcDbEntity
  8
0
  6
Continuous
 62
     7
100
AcDbLine
 10
865.3897817524291
 20
2280.102356717378
 30
0.0
 11
871.8035916409037
 21
2278.794492958883
 31
0.0
  0
LINE
  5
21E
330
1F
100
AcDbEntity
  8
0
  6
Continuous
 62
     7
100
AcDbLine
 10
1090.389781751529
 20
1684.175225289261
 30
0.0
 11
1096.803591640004
 21
1682.867361531266
 31
0.0
  0
LINE
  5
21F
330
1F
100
AcDbEntity
  8
0
  6
Continuous
 62
     7
100
AcDbLine
 10
1090.389781751529
 20
2278.794492958883
 30
0.0
 11
1096.803591640004
 21
2280.102356717378
 31
0.0
  0
LINE
  5
220
330
1F
100
AcDbEntity
  8
0
  6
Continuous
 62
     7
100
AcDbLine
 10
871.8035916409037
 20
2291.094068577834
 30
0.0
 11
865.3897817524291
 21
2290.089788581337
 31
0.0
  0
LINE
  5
221
330
1F
100
AcDbEntity
  8
0
  6
Continuous
 62
     7
100
AcDbLine
 10
871.8035916409037
 20
1671.87564967081
 30
0.0
 11
865.3897817524291
 21
1672.879929667306
 31
0.0
  0
LINE
  5
222
330
1F
100
AcDbEntity
  8
0
  6
Continuous
 62
     7
100
AcDbLine
 10
1290.705896149728
 20
1872.19176406851
 30
0.0
 11
1289.701616153232
 21
1865.777954180534
 31
0.0
  0
LINE
  5
223
330
1F
100
AcDbEntity
  8
0
  6
Continuous
 62
     7
100
AcDbLine
 10
672.4917572392003
 20
1865.777954180534
 30
0.0
 11
671.4874772427045
 21
1872.19176406851
 31
0.0
  0
LINE
  5
224
330
1F
100
AcDbEntity
  8
0
  6
Continuous
 62
     7
100
AcDbLine
 10
672.4917572392003
 20
2097.191764067609
 30
0.0
 11
671.4874772427045
 21
2090.777954179635
 31
0.0
  0
LINE
  5
225
330
1F
100
AcDbEntity
  8
0
  6
Continuous
 62
     7
100
AcDbLine
 10
1290.705896149728
 20
2090.777954179635
 30
0.0
 11
1289.701616153232
 21
2097.191764067609
 31
0.0
  0
LINE
  5
226
330
1F
100
AcDbEntity
  8
0
  6
Continuous
 62
     7
100
AcDbLine
 10
1096.803591640004
 20
1672.879929667306
 30
0.0
 11
1090.389781751529
 21
1671.87564967081
 31
0.0
  0
LINE
  5
227
330
1F
100
AcDbEntity
  8
0
  6
Continuous
 62
     7
100
AcDbLine
 10
1096.803591640004
 20
2290.089788581337
 30
0.0
 11
1090.389781751529
 21
2291.094068577834
 31
0.0
  0
LINE
  5
228
330
1F
100
AcDbEntity
  8
0
  6
Continuous
 62
     7
100
AcDbLine
 10
1110.741473700948
 20
1698.423214895204
 30
0.0
 11
1115.726737461928
 21
1698.423214895204
 31
0.0
  0
LINE
  5
229
330
1F
100
AcDbEntity
  8
0
  6
Continuous
 62
     7
100
AcDbLine
 10
698.0350424670985
 20
1851.84007211959
 30
0.0
 11
698.0350424670985
 21
1846.854808358611
 31
0.0
  0
LINE
  5
22A
330
1F
100
AcDbEntity
  8
0
  6
Continuous
 62
     7
100
AcDbLine
 10
1269.146974443314
 20
1851.84007211959
 30
0.0
 11
1269.146974443314
 21
1846.854808358611
 31
0.0
  0
LINE
  5
22B
330
1F
100
AcDbEntity
  8
0
  6
Continuous
 62
     7
100
AcDbLine
 10
1126.096686695887
 20
1846.854808358611
 30
0.0
 11
1269.146974443314
 21
1846.854808358611
 31
0.0
  0
LINE
  5
22C
330
1F
100
AcDbEntity
  8
0
  6
Continuous
 62
     7
100
AcDbLine
 10
1115.726737461928
 20
1698.423214895204
 30
0.0
 11
1115.726737461928
 21
1836.484859124651
 31
0.0
  0
LINE
  5
22D
330
1F
100
AcDbEntity
  8
0
  6
Continuous
 62
     7
100
AcDbLine
 10
1269.146974443314
 20
1851.84007211959
 30
0.0
 11
1126.096686695887
 21
1851.84007211959
 31
0.0
  0
LINE
  5
22E
330
1F
100
AcDbEntity
  8
0
  6
Continuous
 62
     7
100
AcDbLine
 10
836.0966866970459
 20
1851.84007211959
 30
0.0
 11
698.0350424670985
 21
1851.84007211959
 31
0.0
  0
LINE
  5
22F
330
1F
100
AcDbEntity
  8
0
  6
Continuous
 62
     7
100
AcDbLine
 10
698.0350424670985
 20
1846.854808358611
 30
0.0
 11
836.0966866970459
 21
1846.854808358611
 31
0.0
  0
LINE
  5
230
330
1F
100
AcDbEntity
  8
0
  6
Continuous
 62
     7
100
AcDbLine
 10
1115.726737461928
 20
2264.54650335344
 30
0.0
 11
1115.726737461928
 21
2126.484859123492
 31
0.0
  0
LINE
  5
231
330
1F
100
AcDbEntity
  8
0
  6
Continuous
 62
     7
100
AcDbLine
 10
1126.096686695887
 20
2116.114909890033
 30
0.0
 11
1269.146974443314
 21
2116.114909890033
 31
0.0
  0
LINE
  5
232
330
1F
100
AcDbEntity
  8
0
  6
Continuous
 62
     7
100
AcDbLine
 10
1110.741473700948
 20
1836.484859124651
 30
0.0
 11
1110.741473700948
 21
1698.423214895204
 31
0.0
  0
LINE
  5
233
330
1F
100
AcDbEntity
  8
0
  6
Continuous
 62
     7
100
AcDbLine
 10
698.0350424670985
 20
2116.114909890033
 30
0.0
 11
836.0966866970459
 21
2116.114909890033
 31
0.0
  0
LINE
  5
234
330
1F
100
AcDbEntity
  8
0
  6
Continuous
 62
     7
100
AcDbLine
 10
846.4666359305045
 20
1836.484859124651
 30
0.0
 11
846.4666359305045
 21
1698.423214895204
 31
0.0
  0
LINE
  5
235
330
1F
100
AcDbEntity
  8
0
  6
Continuous
 62
     7
100
AcDbLine
 10
851.4518996914846
 20
1698.423214895204
 30
0.0
 11
851.4518996914846
 21
1836.484859124651
 31
0.0
  0
LINE
  5
236
330
1F
100
AcDbEntity
  8
0
  6
Continuous
 62
     7
100
AcDbLine
 10
851.4518996914846
 20
2264.54650335344
 30
0.0
 11
851.4518996914846
 21
2126.484859123492
 31
0.0
  0
LINE
  5
237
330
1F
100
AcDbEntity
  8
0
  6
Continuous
 62
     7
100
AcDbLine
 10
836.0966866970459
 20
2111.129646128553
 30
0.0
 11
698.0350424670985
 21
2111.129646128553
 31
0.0
  0
LINE
  5
238
330
1F
100
AcDbEntity
  8
0
  6
Continuous
 62
     7
100
AcDbLine
 10
1110.741473700948
 20
2126.484859123492
 30
0.0
 11
1110.741473700948
 21
2264.54650335344
 31
0.0
  0
LINE
  5
239
330
1F
100
AcDbEntity
  8
0
  6
Continuous
 62
     7
100
AcDbLine
 10
703.5141017945764
 20
2107.429392582068
 30
0.0
 11
836.0966866970459
 21
2107.376616110568
 31
0.0
  0
LINE
  5
23A
330
1F
100
AcDbEntity
  8
0
  6
Continuous
 62
     7
100
AcDbLine
 10
703.5141017945764
 20
1855.540325666575
 30
0.0
 11
836.0966866970459
 21
1855.593102137575
 31
0.0
  0
LINE
  5
23B
330
1F
100
AcDbEntity
  8
0
  6
Continuous
 62
     7
100
AcDbLine
 10
1106.949715543964
 20
1704.037767420181
 30
0.0
 11
1106.896374316463
 21
1836.484859124651
 31
0.0
  0
LINE
  5
23C
330
1F
100
AcDbEntity
  8
0
  6
Continuous
 62
     7
100
AcDbLine
 10
855.2047844944702
 20
1836.484859124651
 30
0.0
 11
855.1513457069698
 21
1703.901078490182
 31
0.0
  0
LINE
  5
23D
330
1F
100
AcDbEntity
  8
0
  6
Continuous
 62
     7
100
AcDbLine
 10
1178.096340869178
 20
2107.240482106569
 30
0.0
 11
1263.439118123337
 21
2107.274875751069
 31
0.0
  0
LINE
  5
23E
330
1F
100
AcDbEntity
  8
0
  6
Continuous
 62
     7
100
AcDbLine
 10
1126.096686695887
 20
2107.261177295069
 30
0.0
 11
1178.096340869178
 21
2107.240482106569
 31
0.0
  0
LINE
  5
23F
330
1F
100
AcDbEntity
  8
0
  6
Continuous
 62
     7
100
AcDbLine
 10
1126.096686695887
 20
1855.708540953576
 30
0.0
 11
1178.096340869178
 21
1855.729236141574
 31
0.0
  0
LINE
  5
240
330
1F
100
AcDbEntity
  8
0
  6
Continuous
 62
     7
100
AcDbLine
 10
1178.096340869178
 20
1855.729236141574
 30
0.0
 11
1263.439118123337
 21
1855.694842497075
 31
0.0
  0
LINE
  5
241
330
1F
100
AcDbEntity
  8
0
  6
Continuous
 62
     7
100
AcDbLine
 10
855.2047844944702
 20
2126.484859123492
 30
0.0
 11
855.1513457069698
 21
2259.068639758462
 31
0.0
  0
LINE
  5
242
330
1F
100
AcDbEntity
  8
0
  6
Continuous
 62
     7
100
AcDbLine
 10
1106.949715543964
 20
2258.931950828462
 30
0.0
 11
1106.896374316463
 21
2126.484859123492
 31
0.0
  0
LINE
  5
243
330
1F
100
AcDbEntity
  8
0
  6
Continuous
 62
     7
100
AcDbLine
 10
670.591188440708
 20
2077.683359792687
 30
0.0
 11
670.591188440708
 21
1885.286358455957
 31
0.0
  0
LINE
  5
244
330
1F
100
AcDbEntity
  8
0
  6
Continuous
 62
     7
100
AcDbLine
 10
1291.602184951725
 20
1885.286358455957
 30
0.0
 11
1291.602184951725
 21
2077.683359792687
 31
0.0
  0
LINE
  5
245
330
1F
100
AcDbEntity
  8
0
  6
Continuous
 62
     7
100
AcDbLine
 10
1277.239092620782
 20
2077.683359792687
 30
0.0
 11
1277.239092620782
 21
1885.286358455957
 31
0.0
  0
LINE
  5
246
330
1F
100
AcDbEntity
  8
0
  6
Continuous
 62
     7
100
AcDbLine
 10
684.9542807716505
 20
1885.286358455957
 30
0.0
 11
684.9542807716505
 21
2077.683359792687
 31
0.0
  0
LINE
  5
247
330
1F
100
AcDbEntity
  8
0
  6
Continuous
 62
     7
100
AcDbLine
 10
1077.295187364582
 20
1670.979360868814
 30
0.0
 11
884.8981860278507
 21
1670.979360868814
 31
0.0
  0
LINE
  5
248
330
1F
100
AcDbEntity
  8
0
  6
Continuous
 62
     7
100
AcDbLine
 10
1077.295187364582
 20
2291.99035737983
 30
0.0
 11
884.8981860278507
 21
2291.99035737983
 31
0.0
  0
LINE
  5
249
330
1F
100
AcDbEntity
  8
0
  6
Continuous
 62
     7
100
AcDbLine
 10
884.8981860278507
 20
2277.627265048887
 30
0.0
 11
1077.295187364582
 21
2277.627265048887
 31
0.0
  0
LINE
  5
24A
330
1F
100
AcDbEntity
  8
0
  6
Continuous
 62
     7
100
AcDbLine
 10
884.8981860278507
 20
1685.342453199757
 30
0.0
 11
1077.295187364582
 21
1685.342453199757
 31
0.0
  0
LINE
  5
24B
330
1F
100
AcDbEntity
  8
0
  6
Continuous
 62
     7
100
AcDbLine
 10
865.0701623244306
 20
2259.120999396462
 30
0.0
 11
865.1236011119302
 21
2126.537218761992
 31
0.0
  0
LINE
  5
24C
330
1F
100
AcDbEntity
  8
0
  6
Continuous
 62
     7
100
AcDbLine
 10
865.0701623244306
 20
1703.848718852183
 30
0.0
 11
865.1236011119302
 21
1836.432499486653
 31
0.0
  0
LINE
  5
24D
330
1F
100
AcDbEntity
  8
0
  6
Continuous
 62
     7
100
AcDbLine
 10
836.0449757920462
 20
2097.458448227108
 30
0.0
 11
703.4623908895767
 21
2097.511224698108
 31
0.0
  0
LINE
  5
24E
330
1F
100
AcDbEntity
  8
0
  6
Continuous
 62
     7
100
AcDbLine
 10
836.0449757920462
 20
1865.511270021536
 30
0.0
 11
703.4623908895767
 21
1865.458493550536
 31
0.0
  0
LINE
  5
24F
330
1F
100
AcDbEntity
  8
0
  6
Continuous
 62
     7
100
AcDbLine
 10
1096.927477117003
 20
1703.985407781682
 30
0.0
 11
865.0701623244306
 21
1703.848718852183
 31
0.0
  0
LINE
  5
250
330
1F
100
AcDbEntity
  8
0
  6
Continuous
 62
     7
100
AcDbLine
 10
1096.927477117003
 20
2258.984310466462
 30
0.0
 11
865.0701623244306
 21
2259.120999396462
 31
0.0
  0
LINE
  5
251
330
1F
100
AcDbEntity
  8
0
  6
Continuous
 62
     7
100
AcDbLine
 10
703.4623908895767
 20
1865.458493550536
 30
0.0
 11
703.5197037225764
 21
1961.484859571151
 31
0.0
  0
LINE
  5
252
330
1F
100
AcDbEntity
  8
0
  6
Continuous
 62
     7
100
AcDbLine
 10
703.4623908895767
 20
2097.511224698108
 30
0.0
 11
703.5197037225764
 21
2001.484858676992
 31
0.0
  0
LINE
  5
253
330
1F
100
AcDbEntity
  8
0
  6
Continuous
 62
     7
100
AcDbLine
 10
1096.874135889503
 20
1836.432499486653
 30
0.0
 11
1096.927477117003
 21
1703.985407781682
 31
0.0
  0
LINE
  5
254
330
1F
100
AcDbEntity
  8
0
  6
Continuous
 62
     7
100
AcDbLine
 10
1258.499862525857
 20
2097.354694143108
 30
0.0
 11
1178.096668694679
 21
2097.322291568109
 31
0.0
  0
LINE
  5
255
330
1F
100
AcDbEntity
  8
0
  6
Continuous
 62
     7
100
AcDbLine
 10
1258.499862525857
 20
1865.615024105535
 30
0.0
 11
1178.096668694679
 21
1865.647426680535
 31
0.0
  0
LINE
  5
256
330
1F
100
AcDbEntity
  8
0
  6
Continuous
 62
     7
100
AcDbLine
 10
1178.096668694679
 20
2097.322291568109
 30
0.0
 11
1126.044975790886
 21
2097.343009411108
 31
0.0
  0
LINE
  5
257
330
1F
100
AcDbEntity
  8
0
  6
Continuous
 62
     7
100
AcDbLine
 10
1178.096668694679
 20
1865.647426680535
 30
0.0
 11
1126.044975790886
 21
1865.626708837536
 31
0.0
  0
LINE
  5
258
330
1F
100
AcDbEntity
  8
0
  6
Continuous
 62
     7
100
AcDbLine
 10
1258.430691335857
 20
1981.484859124072
 30
0.0
 11
1258.499862525857
 21
2097.354694143108
 31
0.0
  0
LINE
  5
259
330
1F
100
AcDbEntity
  8
0
  6
Continuous
 62
     7
100
AcDbLine
 10
1258.430691335857
 20
1981.484859124072
 30
0.0
 11
1258.499862525857
 21
1865.615024105535
 31
0.0
  0
LINE
  5
25A
330
1F
100
AcDbEntity
  8
0
  6
Continuous
 62
     7
100
AcDbLine
 10
703.5256939890771
 20
1991.486775562531
 30
0.0
 11
703.5316544535765
 21
1991.484712683031
 31
0.0
  0
LINE
  5
25B
330
1F
100
AcDbEntity
  8
0
  6
Continuous
 62
     7
100
AcDbLine
 10
1101.157376442986
 20
1981.386531549073
 30
0.0
 11
1101.157376442986
 21
1981.583186699072
 31
0.0
  0
LINE
  5
25C
330
1F
100
AcDbEntity
  8
0
  6
DASH_CENTER
 62
     2
100
AcDbLine
 10
591.2098942450259
 20
1981.484859124072
 30
0.0
 11
1356.719328203964
 21
1981.484859124072
 31
0.0
  0
LINE
  5
AC5
330
1F
100
AcDbEntity
  8
0
  6
DASH_CENTER
 62
     2
100
AcDbLine
 10
981.0966866964661
 20
1593.975425163622
 30
0.0
 11
981.0966866964661
 21
2364.239576104041
 31
0.0
  0
LINE
  5
AC6
330
1F
100
AcDbEntity
  8
0
  6
DASH_CENTER
 62
     2
100
AcDbLine
 10
682.0966866976621
 20
1677.484859125288
 30
0.0
 11
682.0966866976621
 21
1692.584859125228
 31
0.0
  0
LINE
  5
AC7
330
1F
100
AcDbEntity
  8
0
  6
DASH_CENTER
 62
     2
100
AcDbLine
 10
677.0966866976826
 20
1682.484859125269
 30
0.0
 11
671.9966866977031
 21
1682.484859125269
 31
0.0
  0
LINE
  5
AC8
330
1F
100
AcDbEntity
  8
0
  6
DASH_CENTER
 62
     2
100
AcDbLine
 10
682.0966866976621
 20
1677.484859125288
 30
0.0
 11
682.0966866976621
 21
1672.384859125308
 31
0.0
  0
LINE
  5
AC9
330
1F
100
AcDbEntity
  8
0
  6
DASH_CENTER
 62
     2
100
AcDbLine
 10
677.0966866976826
 20
1682.484859125269
 30
0.0
 11
692.1966866976215
 21
1682.484859125269
 31
0.0
  0
LINE
  5
ACA
330
1F
100
AcDbEntity
  8
0
  6
DASH_CENTER
 62
     2
100
AcDbLine
 10
1280.096686695271
 20
1677.484859125288
 30
0.0
 11
1280.096686695271
 21
1692.584859125228
 31
0.0
  0
LINE
  5
ACB
330
1F
100
AcDbEntity
  8
0
  6
DASH_CENTER
 62
     2
100
AcDbLine
 10
1285.09668669525
 20
1682.484859125269
 30
0.0
 11
1269.996686695311
 21
1682.484859125269
 31
0.0
  0
LINE
  5
ACC
330
1F
100
AcDbEntity
  8
0
  6
DASH_CENTER
 62
     2
100
AcDbLine
 10
1280.096686695271
 20
1677.484859125288
 30
0.0
 11
1280.096686695271
 21
1672.384859125308
 31
0.0
  0
LINE
  5
ACD
330
1F
100
AcDbEntity
  8
0
  6
DASH_CENTER
 62
     2
100
AcDbLine
 10
1285.09668669525
 20
1682.484859125269
 30
0.0
 11
1290.19668669523
 21
1682.484859125269
 31
0.0
  0
LINE
  5
ACE
330
1F
100
AcDbEntity
  8
0
  6
DASH_CENTER
 62
     2
100
AcDbLine
 10
1280.096686695271
 20
2275.484859122896
 30
0.0
 11
1280.096686695271
 21
2290.584859122836
 31
0.0
  0
LINE
  5
ACF
330
1F
100
AcDbEntity
  8
0
  6
DASH_CENTER
 62
     2
100
AcDbLine
 10
1285.09668669525
 20
2280.484859122876
 30
0.0
 11
1269.996686695311
 21
2280.484859122876
 31
0.0
  0
LINE
  5
AD0
330
1F
100
AcDbEntity
  8
0
  6
DASH_CENTER
 62
     2
100
AcDbLine
 10
1280.096686695271
 20
2275.484859122896
 30
0.0
 11
1280.096686695271
 21
2270.384859122917
 31
0.0
  0
LINE
  5
AD1
330
1F
100
AcDbEntity
  8
0
  6
DASH_CENTER
 62
     2
100
AcDbLine
 10
1285.09668669525
 20
2280.484859122876
 30
0.0
 11
1290.19668669523
 21
2280.484859122876
 31
0.0
  0
LINE
  5
AD2
330
1F
100
AcDbEntity
  8
0
  6
DASH_CENTER
 62
     2
100
AcDbLine
 10
682.0966866976621
 20
2275.484859122896
 30
0.0
 11
682.0966866976621
 21
2290.484859122836
 31
0.0
  0
LINE
  5
AD3
330
1F
100
AcDbEntity
  8
0
  6
DASH_CENTER
 62
     2
100
AcDbLine
 10
682.0966866976621
 20
2275.484859122896
 30
0.0
 11
682.0966866976621
 21
2270.484859122916
 31
0.0
  0
LINE
  5
AD4
330
1F
100
AcDbEntity
  8
0
  6
DASH_CENTER
 62
     2
100
AcDbLine
 10
687.0966866976421
 20
2280.484859122876
 30
0.0
 11
692.0966866976221
 21
2280.484859122876
 31
0.0
  0
LINE
  5
AD5
330
1F
100
AcDbEntity
  8
0
  6
Continuous
 62
     7
100
AcDbLine
 10
1102.096790383982
 20
1207.00774453117
 30
0.0
 11
1102.096790383982
 21
1205.240162542677
 31
0.0
  0
LINE
  5
AD6
330
1F
100
AcDbEntity
  8
0
  6
Continuous
 62
     7
100
AcDbLine
 10
1106.096790383966
 20
1201.240162542693
 30
0.0
 11
1249.096786268438
 21
1201.240162542693
 31
0.0
  0
LINE
  5
AD7
330
1F
100
AcDbEntity
  8
0
  6
Continuous
 62
     7
100
AcDbLine
 10
884.8981860278507
 20
1265.194247826938
 30
0.0
 11
1077.295187364582
 21
1265.194247826938
 31
0.0
  0
LINE
  5
AD8
330
1F
100
AcDbEntity
  8
0
  6
Continuous
 62
     7
100
AcDbLine
 10
865.3897817524291
 20
1284.356691626861
 30
0.0
 11
871.8035916409037
 21
1272.877718742906
 31
0.0
  0
LINE
  5
AD9
330
1F
100
AcDbEntity
  8
0
  6
Continuous
 62
     7
100
AcDbLine
 10
1090.389781751529
 20
1272.877718742906
 30
0.0
 11
1096.803591640004
 21
1284.356691626861
 31
0.0
  0
LINE
  5
ADA
330
1F
100
AcDbEntity
  8
0
  6
Continuous
 62
     7
100
AcDbLine
 10
1109.898186026952
 20
1292.04016254233
 30
0.0
 11
1293.835131977158
 21
1292.04016254233
 31
0.0
  0
LINE
  5
ADB
330
1F
100
AcDbEntity
  8
0
  6
DASH_CENTER
 62
     2
100
AcDbLine
 10
981.0966866964661
 20
1189.30965523874
 30
0.0
 11
981.0966866964661
 21
1324.869222176698
 31
0.0
  0
LINE
  5
ADC
330
1F
100
AcDbEntity
  8
0
  6
DASH_CENTER
 62
     2
100
AcDbLine
 10
1540.38500510423
 20
1981.484859124072
 30
0.0
 11
1719.823455642512
 21
1981.484859124072
 31
0.0
  0
LINE
  5
ADD
330
1F
100
AcDbEntity
  8
0
  6
Continuous
 62
     7
100
AcDbLine
 10
1687.298774763642
 20
1661.484866277852
 30
0.0
 11
1635.708910765848
 21
1665.998387378334
 31
0.0
  0
LINE
  5
ADE
330
1F
100
AcDbEntity
  8
0
  6
Continuous
 62
     7
100
AcDbLine
 10
1635.708910765608
 20
2296.97133087027
 30
0.0
 11
1687.298774763642
 21
2301.484851970291
 31
0.0
  0
LINE
  5
ADF
330
1F
100
AcDbEntity
  8
0
  6
Continuous
 62
     7
100
AcDbLine
 10
1613.985309994435
 20
1667.898956176826
 30
0.0
 11
1625.464282877889
 21
1666.89467618033
 31
0.0
  0
LINE
  5
AE0
330
1F
100
AcDbEntity
  8
0
  6
Continuous
 62
     7
100
AcDbLine
 10
1613.985309994435
 20
2295.070762071817
 30
0.0
 11
1625.464282877889
 21
2296.075042068314
 31
0.0
  0
LINE
  5
AE1
330
1F
100
AcDbEntity
  8
0
  6
Continuous
 62
     7
100
AcDbLine
 10
1604.298774763974
 20
1682.283747576269
 30
0.0
 11
1604.298774763974
 21
1673.328074068304
 31
0.0
  0
LINE
  5
AE2
330
1F
100
AcDbEntity
  8
0
  6
Continuous
 62
     7
100
AcDbLine
 10
1604.298774763974
 20
2255.846674280474
 30
0.0
 11
1604.298774763974
 21
2289.641644180339
 31
0.0
  0
LINE
  5
AE3
330
1F
100
AcDbEntity
  8
0
  6
Continuous
 62
     7
100
AcDbLine
 10
1631.144689479367
 20
1885.286358455957
 30
0.0
 11
1631.144689479367
 21
2077.683359792687
 31
0.0
  0
LINE
  5
AE4
330
1F
100
AcDbEntity
  8
0
  6
Continuous
 62
     7
100
AcDbLine
 10
1623.461218563897
 20
2090.777954179635
 30
0.0
 11
1611.982245679943
 21
2097.191764067609
 31
0.0
  0
LINE
  5
AE5
330
1F
100
AcDbEntity
  8
0
  6
Continuous
 62
     7
100
AcDbLine
 10
1623.461218563897
 20
1872.19176406851
 30
0.0
 11
1611.982245679943
 21
1865.777954180534
 31
0.0
  0
LINE
  5
AE6
330
1F
100
AcDbEntity
  8
0
  6
Continuous
 62
     7
100
AcDbLine
 10
1604.298774763974
 20
2110.286358455056
 30
0.0
 11
1604.298774763974
 21
2255.846674280474
 31
0.0
  0
LINE
  5
AE7
330
1F
100
AcDbEntity
  8
0
  6
Continuous
 62
     7
100
AcDbLine
 10
1604.298774763974
 20
1852.683359793587
 30
0.0
 11
1604.298774763974
 21
1682.283747576269
 31
0.0
  0
LINE
  5
B3E
330
1F
100
AcDbEntity
  8
1
  6
Continuous
 62
     7
100
AcDbLine
 10
661.0966938502463
 20
1209.040162542662
 30
0.0
 11
1254.096786268438
 21
1209.040162542662
 31
0.0
  0
LINE
  5
B3F
330
1F
100
AcDbEntity
  8
0
  6
Continuous
 62
     7
100
AcDbLine
 10
672.9399020337871
 20
1292.04016254233
 30
0.0
 11
852.2951873654813
 21
1292.04016254233
 31
0.0
  0
LINE
  5
B40
330
1F
100
AcDbEntity
  8
1
  6
Continuous
 62
     7
100
AcDbLine
 10
667.9589285060608
 20
1287.475940830096
 30
0.0
 11
661.0966938502463
 21
1209.040162542662
 31
0.0
  0
LINE
  5
B41
330
1F
100
AcDbEntity
  8
1
  6
Continuous
 62
     7
100
AcDbLine
 10
1293.835131977158
 20
1292.04016254233
 30
0.0
 11
1301.096679542187
 21
1209.040162542662
 31
0.0
  0
LINE
  5
B42
330
1F
100
AcDbEntity
  8
0
  6
DASH_CENTER
 62
     2
100
AcDbLine
 10
1177.596788326202
 20
1181.509655238771
 30
0.0
 11
1177.596788326202
 21
1249.28943870775
 31
0.0
  0
LINE
  5
B43
330
1F
100
AcDbEntity
  8
1
  6
Continuous
 62
     7
100
AcDbLine
 10
1254.096786268438
 20
1209.040162542662
 30
0.0
 11
1254.096786268438
 21
1206.240162542693
 31
0.0
  0
LINE
  5
B44
330
1F
100
AcDbEntity
  8
1
  6
Continuous
 62
     7
100
AcDbLine
 10
1254.096786268438
 20
1209.040162542662
 30
0.0
 11
1301.096679542187
 21
1209.040162542662
 31
0.0
  0
LINE
  5
B68
330
1F
100
AcDbEntity
  8
0
  6
Continuous
 62
     7
100
AcDbLine
 10
1096.874135889503
 20
2126.537218761992
 30
0.0
 11
1096.927477117003
 21
2258.984310466462
 31
0.0
  0
LINE
  5
B69
330
1F
100
AcDbEntity
  8
0
  6
Continuous
 62
     7
100
AcDbLine
 10
703.5316544535765
 20
1971.485005565612
 30
0.0
 11
1101.132253085486
 21
1981.386117867572
 31
0.0
  0
LINE
  5
B6A
330
1F
100
AcDbEntity
  8
0
  6
Continuous
 62
     7
100
AcDbLine
 10
703.5256939890771
 20
1971.482942686112
 30
0.0
 11
703.5316544535765
 21
1971.485005565612
 31
0.0
  0
LINE
  5
B6B
330
1F
100
AcDbEntity
  8
0
  6
Continuous
 62
     7
100
AcDbLine
 10
703.5316544535765
 20
1981.484859134072
 30
0.0
 11
703.5316544535765
 21
1971.485005565612
 31
0.0
  0
LINE
  5
B9B
330
1F
100
AcDbEntity
  8
0
  6
Continuous
 62
     7
100
AcDbLine
 10
846.4666359305045
 20
2126.484859123492
 30
0.0
 11
846.4666359305045
 21
2264.54650335344
 31
0.0
  0
LINE
  5
BA8
330
1F
100
AcDbEntity
  8
0
  6
Continuous
 62
     7
100
AcDbLine
 10
672.9399016401987
 20
2279.679697199379
 30
0.0
 11
672.9399016401987
 21
2110.286358455056
 31
0.0
  0
LINE
  5
BA9
330
1F
100
AcDbEntity
  8
0
  6
Continuous
 62
     7
100
AcDbLine
 10
1269.146974443314
 20
2111.129646128553
 30
0.0
 11
1126.096686695887
 21
2111.129646128553
 31
0.0
  0
LINE
  5
BAA
330
1F
100
AcDbEntity
  8
0
  6
Continuous
 62
     7
100
AcDbLine
 10
687.2286693416415
 20
1849.045495290602
 30
0.0
 11
687.2286693416415
 21
1707.488278883168
 31
0.0
  0
LINE
  5
BAB
330
1F
100
AcDbEntity
  8
0
  6
Continuous
 62
     7
100
AcDbLine
 10
1113.536050529936
 20
2275.352876478897
 30
0.0
 11
1255.093266937371
 21
2275.352876478897
 31
0.0
  0
LINE
  5
BAC
330
1F
100
AcDbEntity
  8
0
  6
Continuous
 62
     7
100
AcDbLine
 10
1255.093266937371
 20
2272.372160911908
 30
0.0
 11
1113.536050529936
 21
2272.372160911908
 31
0.0
  0
LINE
  5
BB7
330
1F
100
AcDbEntity
  8
0
  6
DASH_CENTER
 62
     2
100
AcDbLine
 10
1178.096790383679
 20
1893.705075655093
 30
0.0
 11
1178.096790383679
 21
2069.264642593052
 31
0.0
  0
LINE
  5
BB8
330
1F
100
AcDbEntity
  8
1
  6
Continuous
 62
     7
100
AcDbLine
 10
1687.298774763642
 20
2301.484851970291
 30
0.0
 11
1687.298774763642
 21
1661.484866277852
 31
0.0
  0
LINE
  5
BB9
330
1F
100
AcDbEntity
  8
1
  6
Continuous
 62
     7
100
AcDbLine
 10
1687.298774763642
 20
2057.984857066308
 30
0.0
 11
1690.098774763611
 21
2057.984857066308
 31
0.0
  0
LINE
  5
BBA
330
1F
100
AcDbEntity
  8
0
  6
Continuous
 62
     7
100
AcDbLine
 10
1695.098774763611
 20
1909.984861181836
 30
0.0
 11
1695.098774763611
 21
2052.984857066308
 31
0.0
  0
LINE
  5
BBB
330
1F
100
AcDbEntity
  8
0
  6
Continuous
 62
     7
100
AcDbLine
 10
1689.331192775134
 20
1905.984861181852
 30
0.0
 11
1691.098774763626
 21
1905.984861181852
 31
0.0
  0
LINE
  5
BBC
330
1F
100
AcDbEntity
  8
1
  6
Continuous
 62
     2
100
AcDbLine
 10
1301.096679542187
 20
1209.040162542662
 30
0.0
 11
1301.096679542187
 21
1233.540162542662
 31
0.0
  0
ARC
  5
BBD
330
1F
100
AcDbEntity
  8
0
  6
Continuous
 62
     2
100
AcDbCircle
 10
682.0966866976621
 20
2280.484859122876
 30
0.0
 40
7.599999999970406
100
AcDbArc
 50
7.13635363830443
 51
262.8636463617036
  0
ARC
  5
BBE
330
1F
100
AcDbEntity
  8
0
  6
Continuous
 62
     7
100
AcDbCircle
 10
1255.061696667871
 20
1707.604421018667
 30
0.0
 40
19.98759211941746
100
AcDbArc
 50
270.090530807995
 51
291.9500172229923
  0
ARC
  5
BBF
330
1F
100
AcDbEntity
  8
0
  6
Continuous
 62
     7
100
AcDbCircle
 10
682.0966866976621
 20
2280.484859122876
 30
0.0
 40
7.499999999970246
100
AcDbArc
 50
354.7918194994867
 51
275.2081805004003
  0
ARC
  5
BC0
330
1F
100
AcDbEntity
  8
0
  6
Continuous
 62
     2
100
AcDbCircle
 10
682.0966866976621
 20
1682.484859125269
 30
0.0
 40
7.59999999997097
100
AcDbArc
 50
97.136353638297
 51
352.8636463616888
  0
ARC
  5
BC1
330
1F
100
AcDbEntity
  8
0
  6
Continuous
 62
     7
100
AcDbCircle
 10
682.0966866976621
 20
1682.484859125269
 30
0.0
 40
7.499999999971189
100
AcDbArc
 50
84.791819499599
 51
5.20818050038434
  0
ARC
  5
BC2
330
1F
100
AcDbEntity
  8
0
  6
Continuous
 62
     7
100
AcDbCircle
 10
1280.096686695271
 20
1682.484859125269
 30
0.0
 40
7.499999999971888
100
AcDbArc
 50
174.7918194996169
 51
95.20818050039928
  0
ARC
  5
BC3
330
1F
100
AcDbEntity
  8
0
  6
Continuous
 62
     2
100
AcDbCircle
 10
1280.096686695271
 20
1682.484859125269
 30
0.0
 40
7.599999999972098
100
AcDbArc
 50
187.1363536383097
 51
82.86364636169621
  0
ARC
  5
BC4
330
1F
100
AcDbEntity
  8
0
  6
Continuous
 62
     2
100
AcDbCircle
 10
1280.096686695271
 20
2280.484859122876
 30
0.0
 40
7.599999999971759
100
AcDbArc
 50
277.1363536383031
 51
172.8636463616971
  0
ARC
  5
BC5
330
1F
100
AcDbEntity
  8
0
  6
Continuous
 62
     7
100
AcDbCircle
 10
1280.096686695271
 20
2280.484859122876
 30
0.0
 40
7.499999999972074
100
AcDbArc
 50
264.7918194996013
 51
185.2081805005145
  0
ARC
  5
BC6
330
1F
100
AcDbEntity
  8
0
  6
Continuous
 62
     7
100
AcDbCircle
 10
1280.096686695271
 20
2280.484859122876
 30
0.0
 40
7.499999999968434
100
AcDbArc
 50
185.2081805005145
 51
264.7918194996013
  0
ARC
  5
BC7
330
1F
100
AcDbEntity
  8
0
  6
Continuous
 62
     7
100
AcDbCircle
 10
682.0966866976621
 20
1682.484859125269
 30
0.0
 40
7.499999999970077
100
AcDbArc
 50
5.20818050038434
 51
84.791819499599
  0
ARC
  5
BC8
330
1F
100
AcDbEntity
  8
0
  6
Continuous
 62
     7
100
AcDbCircle
 10
682.0966866976621
 20
2280.484859122876
 30
0.0
 40
7.499999999972095
100
AcDbArc
 50
275.2081805004003
 51
354.7918194994867
  0
ARC
  5
BC9
330
1F
100
AcDbEntity
  8
0
  6
Continuous
 62
     7
100
AcDbCircle
 10
1280.096686695271
 20
1682.484859125269
 30
0.0
 40
7.499999999971169
100
AcDbArc
 50
95.20818050039928
 51
174.7918194996169
  0
ARC
  5
BCA
330
1F
100
AcDbEntity
  8
0
  6
Continuous
 62
     2
100
AcDbCircle
 10
827.0966866970828
 20
2135.484859123455
 30
0.0
 40
13.99999999994316
100
AcDbArc
 50
270.0
 51
0.0
  0
ARC
  5
BCB
330
1F
100
AcDbEntity
  8
0
  6
Continuous
 62
     2
100
AcDbCircle
 10
1253.096686695379
 20
2253.484859122983
 30
0.0
 40
13.99999999994384
100
AcDbArc
 50
0.0
 51
90.0
  0
ARC
  5
BCC
330
1F
100
AcDbEntity
  8
0
  6
Continuous
 62
     2
100
AcDbCircle
 10
1135.096686695851
 20
1709.48485912516
 30
0.0
 40
15.99999999993611
100
AcDbArc
 50
180.0
 51
270.0
  0
ARC
  5
BCD
330
1F
100
AcDbEntity
  8
0
  6
Continuous
 62
     2
100
AcDbCircle
 10
1253.096686695379
 20
1827.484859124688
 30
0.0
 40
15.99999999993588
100
AcDbArc
 50
0.0
 51
90.0
  0
ARC
  5
BCE
330
1F
100
AcDbEntity
  8
0
  6
Continuous
 62
     2
100
AcDbCircle
 10
1135.096686695851
 20
1827.484859124688
 30
0.0
 40
15.99999999993611
100
AcDbArc
 50
90.0
 51
180.0
  0
ARC
  5
BCF
330
1F
100
AcDbEntity
  8
0
  6
Continuous
 62
     2
100
AcDbCircle
 10
1253.096686695379
 20
1709.48485912516
 30
0.0
 40
15.99999999993611
100
AcDbArc
 50
270.0
 51
0.0
  0
ARC
  5
BD0
330
1F
100
AcDbEntity
  8
0
  6
Continuous
 62
     2
100
AcDbCircle
 10
1253.096686695379
 20
2135.484859123455
 30
0.0
 40
13.99999999994316
100
AcDbArc
 50
270.0
 51
0.0
  0
ARC
  5
BD1
330
1F
100
AcDbEntity
  8
0
  6
Continuous
 62
     2
100
AcDbCircle
 10
1135.096686695851
 20
2253.484859122983
 30
0.0
 40
15.99999999993724
100
AcDbArc
 50
90.0
 51
180.0
  0
ARC
  5
BD2
330
1F
100
AcDbEntity
  8
0
  6
Continuous
 62
     2
100
AcDbCircle
 10
1135.096686695851
 20
2135.484859123455
 30
0.0
 40
15.99999999993611
100
AcDbArc
 50
180.0
 51
270.0
  0
ARC
  5
BD3
330
1F
100
AcDbEntity
  8
0
  6
Continuous
 62
     2
100
AcDbCircle
 10
1253.096686695379
 20
2135.484859123455
 30
0.0
 40
15.99999999993497
100
AcDbArc
 50
270.0
 51
0.0
  0
ARC
  5
BD4
330
1F
100
AcDbEntity
  8
0
  6
Continuous
 62
     2
100
AcDbCircle
 10
1253.096686695379
 20
2253.484859122983
 30
0.0
 40
15.99999999993588
100
AcDbArc
 50
0.0
 51
90.0
  0
ARC
  5
BD5
330
1F
100
AcDbEntity
  8
0
  6
Continuous
 62
     2
100
AcDbCircle
 10
709.0966866975539
 20
1709.48485912516
 30
0.0
 40
13.99999999994361
100
AcDbArc
 50
180.0
 51
270.0
  0
ARC
  5
BD6
330
1F
100
AcDbEntity
  8
0
  6
Continuous
 62
     2
100
AcDbCircle
 10
827.0966866970828
 20
1827.484859124688
 30
0.0
 40
13.99999999994407
100
AcDbArc
 50
0.0
 51
90.0
  0
ARC
  5
BD7
330
1F
100
AcDbEntity
  8
0
  6
Continuous
 62
     2
100
AcDbCircle
 10
709.0966866975539
 20
2253.484859122983
 30
0.0
 40
13.99999999994498
100
AcDbArc
 50
90.0
 51
180.0
  0
ARC
  5
BD8
330
1F
100
AcDbEntity
  8
0
  6
Continuous
 62
     2
100
AcDbCircle
 10
1135.096686695851
 20
2135.484859123455
 30
0.0
 40
13.99999999994407
100
AcDbArc
 50
180.0
 51
270.0
  0
ARC
  5
BD9
330
1F
100
AcDbEntity
  8
0
  6
Continuous
 62
     2
100
AcDbCircle
 10
709.0966866975539
 20
2135.484859123455
 30
0.0
 40
13.99999999994361
100
AcDbArc
 50
180.0
 51
270.0
  0
ARC
  5
BDA
330
1F
100
AcDbEntity
  8
0
  6
Continuous
 62
     2
100
AcDbCircle
 10
1135.096686695851
 20
1827.484859124688
 30
0.0
 40
13.99999999994407
100
AcDbArc
 50
90.0
 51
180.0
  0
ARC
  5
BDB
330
1F
100
AcDbEntity
  8
0
  6
Continuous
 62
     2
100
AcDbCircle
 10
827.0966866970828
 20
2253.484859122983
 30
0.0
 40
15.99999999993543
100
AcDbArc
 50
0.0
 51
90.0
  0
ARC
  5
BDC
330
1F
100
AcDbEntity
  8
0
  6
Continuous
 62
     2
100
AcDbCircle
 10
709.0966866975539
 20
2253.484859122983
 30
0.0
 40
15.99999999993724
100
AcDbArc
 50
90.0
 51
180.0
  0
ARC
  5
BDD
330
1F
100
AcDbEntity
  8
0
  6
Continuous
 62
     2
100
AcDbCircle
 10
709.0966866975539
 20
2135.484859123455
 30
0.0
 40
15.99999999993588
100
AcDbArc
 50
180.0
 51
270.0
  0
ARC
  5
BDE
330
1F
100
AcDbEntity
  8
0
  6
Continuous
 62
     2
100
AcDbCircle
 10
827.0966866970828
 20
2135.484859123455
 30
0.0
 40
15.99999999993497
100
AcDbArc
 50
270.0
 51
0.0
  0
ARC
  5
BDF
330
1F
100
AcDbEntity
  8
0
  6
Continuous
 62
     2
100
AcDbCircle
 10
1135.096686695851
 20
2253.484859122983
 30
0.0
 40
13.99999999994498
100
AcDbArc
 50
90.0
 51
180.0
  0
ARC
  5
BE0
330
1F
100
AcDbEntity
  8
0
  6
Continuous
 62
     2
100
AcDbCircle
 10
709.0966866975539
 20
1827.484859124688
 30
0.0
 40
13.99999999994407
100
AcDbArc
 50
90.0
 51
180.0
  0
ARC
  5
BE1
330
1F
100
AcDbEntity
  8
0
  6
Continuous
 62
     2
100
AcDbCircle
 10
1253.096686695379
 20
1827.484859124688
 30
0.0
 40
13.99999999994384
100
AcDbArc
 50
0.0
 51
90.0
  0
ARC
  5
BE2
330
1F
100
AcDbEntity
  8
0
  6
Continuous
 62
     2
100
AcDbCircle
 10
827.0966866970828
 20
1827.484859124688
 30
0.0
 40
15.99999999993543
100
AcDbArc
 50
0.0
 51
90.0
  0
ARC
  5
BE3
330
1F
100
AcDbEntity
  8
0
  6
Continuous
 62
     2
100
AcDbCircle
 10
709.0966866975539
 20
1827.484859124688
 30
0.0
 40
15.99999999993611
100
AcDbArc
 50
90.0
 51
180.0
  0
ARC
  5
BE4
330
1F
100
AcDbEntity
  8
0
  6
Continuous
 62
     2
100
AcDbCircle
 10
709.0966866975539
 20
1709.48485912516
 30
0.0
 40
15.99999999993588
100
AcDbArc
 50
180.0
 51
270.0
  0
ARC
  5
BE5
330
1F
100
AcDbEntity
  8
0
  6
Continuous
 62
     2
100
AcDbCircle
 10
827.0966866970828
 20
1709.48485912516
 30
0.0
 40
15.99999999993611
100
AcDbArc
 50
270.0
 51
0.0
  0
ARC
  5
BE6
330
1F
100
AcDbEntity
  8
0
  6
Continuous
 62
     2
100
AcDbCircle
 10
827.0966866970828
 20
2253.484859122983
 30
0.0
 40
13.99999999994407
100
AcDbArc
 50
0.0
 51
90.0
  0
ARC
  5
BE7
330
1F
100
AcDbEntity
  8
0
  6
Continuous
 62
     2
100
AcDbCircle
 10
1135.096686695851
 20
1709.48485912516
 30
0.0
 40
13.99999999994407
100
AcDbArc
 50
180.0
 51
270.0
  0
ARC
  5
BE8
330
1F
100
AcDbEntity
  8
0
  6
Continuous
 62
     2
100
AcDbCircle
 10
1253.096686695379
 20
1709.48485912516
 30
0.0
 40
13.99999999994407
100
AcDbArc
 50
270.0
 51
0.0
  0
ARC
  5
BE9
330
1F
100
AcDbEntity
  8
0
  6
Continuous
 62
     2
100
AcDbCircle
 10
827.0966866970828
 20
1709.48485912516
 30
0.0
 40
13.99999999994407
100
AcDbArc
 50
270.0
 51
0.0
  0
ARC
  5
BEA
330
1F
100
AcDbEntity
  8
0
  6
Continuous
 62
     7
100
AcDbCircle
 10
1178.098486755179
 20
1981.484992914572
 30
0.0
 40
73.0017001452104
100
AcDbArc
 50
180.6483541380012
 51
188.1112348633986
  0
ARC
  5
BEB
330
1F
100
AcDbEntity
  8
0
  6
Continuous
 62
     7
100
AcDbCircle
 10
1178.096784536179
 20
1981.484862441571
 30
0.0
 40
72.99999560971106
100
AcDbArc
 50
89.99998566100045
 51
171.8886831648005
  0
ARC
  5
BEC
330
1F
100
AcDbEntity
  8
0
  6
Continuous
 62
     7
100
AcDbCircle
 10
1178.096784536179
 20
1981.484855807071
 30
0.0
 40
72.99999561003428
100
AcDbArc
 50
188.1113168350788
 51
270.0000143389996
  0
ARC
  5
BED
330
1F
100
AcDbEntity
  8
0
  6
Continuous
 62
     7
100
AcDbCircle
 10
1178.098486755179
 20
1981.484725334072
 30
0.0
 40
73.00170014488178
100
AcDbArc
 50
171.8887651364823
 51
179.3516458619981
  0
ARC
  5
BEE
330
1F
100
AcDbEntity
  8
0
  6
Continuous
 62
     7
100
AcDbCircle
 10
1178.096789529679
 20
1981.484860749572
 30
0.0
 40
72.99999730120794
100
AcDbArc
 50
0.0
 51
89.99998958026767
  0
ARC
  5
BEF
330
1F
100
AcDbEntity
  8
0
  6
Continuous
 62
     7
100
AcDbCircle
 10
1178.096789529679
 20
1981.484857498571
 30
0.0
 40
72.99999730120824
100
AcDbArc
 50
270.0000104197323
 51
0.0
  0
ARC
  5
BF0
330
1F
100
AcDbEntity
  8
0
  6
Continuous
 62
     2
100
AcDbCircle
 10
1472.539594915001
 20
2091.314073938632
 30
0.0
 40
276.1492628428967
100
AcDbArc
 50
137.7046997228003
 51
138.5415828734001
  0
ARC
  5
BF1
330
1F
100
AcDbEntity
  8
0
  6
Continuous
 62
     2
100
AcDbCircle
 10
1472.539594916501
 20
1871.655644311011
 30
0.0
 40
276.1492628443926
100
AcDbArc
 50
221.4584171266
 51
222.2953002771995
  0
ARC
  5
BF2
330
1F
100
AcDbEntity
  8
0
  6
Continuous
 62
     2
100
AcDbCircle
 10
871.2674718874057
 20
1490.041950899538
 30
0.0
 40
276.1492628508956
100
AcDbArc
 50
131.4584171265999
 51
132.2953002772001
  0
ARC
  5
BF3
330
1F
100
AcDbEntity
  8
0
  6
Continuous
 62
     2
100
AcDbCircle
 10
871.2674718819055
 20
2472.927767343106
 30
0.0
 40
276.1492628428969
100
AcDbArc
 50
227.7046997228002
 51
228.5415828734003
  0
ARC
  5
BF4
330
1F
100
AcDbEntity
  8
0
  6
Continuous
 62
     2
100
AcDbCircle
 10
1255.474314653869
 20
2255.862487081975
 30
0.0
 40
21.72482657291198
100
AcDbArc
 50
34.39007578569613
 51
55.60992421430054
  0
ARC
  5
BF5
330
1F
100
AcDbEntity
  8
0
  6
Continuous
 62
     2
100
AcDbCircle
 10
1255.507824494369
 20
2255.895996921974
 30
0.0
 40
19.70288943042076
100
AcDbArc
 50
32.66065251830528
 51
57.3393474816966
  0
ARC
  5
BF6
330
1F
100
AcDbEntity
  8
0
  6
Continuous
 62
     2
100
AcDbCircle
 10
1255.507824494369
 20
1707.07372132617
 30
0.0
 40
19.70288943042027
100
AcDbArc
 50
302.660652518303
 51
327.3393474816942
  0
ARC
  5
BF7
330
1F
100
AcDbEntity
  8
0
  6
Continuous
 62
     2
100
AcDbCircle
 10
1255.474314653869
 20
1707.107231166669
 30
0.0
 40
21.7248265729125
100
AcDbArc
 50
304.3900757856982
 51
325.6099242143018
  0
ARC
  5
BF8
330
1F
100
AcDbEntity
  8
0
  6
Continuous
 62
     2
100
AcDbCircle
 10
706.6855488980639
 20
1707.07372132617
 30
0.0
 40
19.70288943042184
100
AcDbArc
 50
212.660652518304
 51
237.339347481697
  0
ARC
  5
BF9
330
1F
100
AcDbEntity
  8
0
  6
Continuous
 62
     2
100
AcDbCircle
 10
706.7190587385637
 20
1707.107231166669
 30
0.0
 40
21.72482657291287
100
AcDbArc
 50
214.3900757856974
 51
235.6099242142999
  0
ARC
  5
BFA
330
1F
100
AcDbEntity
  8
0
  6
Continuous
 62
     2
100
AcDbCircle
 10
706.7190587385637
 20
2255.862487081975
 30
0.0
 40
21.72482657291226
100
AcDbArc
 50
124.3900757857015
 51
145.6099242143046
  0
ARC
  5
BFB
330
1F
100
AcDbEntity
  8
0
  6
Continuous
 62
     2
100
AcDbCircle
 10
706.6855488980639
 20
2255.895996921974
 30
0.0
 40
19.70288943042008
100
AcDbArc
 50
122.6606525183034
 51
147.3393474816965
  0
ARC
  5
BFC
330
1F
100
AcDbEntity
  8
0
  6
Continuous
 62
     7
100
AcDbCircle
 10
707.1316767245619
 20
1707.604421018667
 30
0.0
 40
19.98759211942113
100
AcDbArc
 50
248.0499827770005
 51
269.909469192001
  0
ARC
  5
BFD
330
1F
100
AcDbEntity
  8
0
  6
Continuous
 62
     7
100
AcDbCircle
 10
707.2162485910615
 20
1707.519849152668
 30
0.0
 40
19.98759211941996
100
AcDbArc
 50
180.0905308079983
 51
201.9500172229967
  0
ARC
  5
BFE
330
1F
100
AcDbEntity
  8
0
  6
Continuous
 62
     7
100
AcDbCircle
 10
707.0743504490622
 20
1707.462522877168
 30
0.0
 40
19.83455170792065
100
AcDbArc
 50
201.9496430676994
 51
248.0503569330188
  0
ARC
  5
BFF
330
1F
100
AcDbEntity
  8
0
  6
Continuous
 62
     7
100
AcDbCircle
 10
707.2162485910615
 20
2255.449869095976
 30
0.0
 40
19.9875921194185
100
AcDbArc
 50
158.0499827770087
 51
179.9094691920037
  0
ARC
  5
C00
330
1F
100
AcDbEntity
  8
0
  6
Continuous
 62
     7
100
AcDbCircle
 10
707.1316767245619
 20
2255.365297229476
 30
0.0
 40
19.9875921194186
100
AcDbArc
 50
90.09053080800024
 51
111.9500172229981
  0
ARC
  5
C01
330
1F
100
AcDbEntity
  8
0
  6
Continuous
 62
     7
100
AcDbCircle
 10
707.0743504490622
 20
2255.507195371476
 30
0.0
 40
19.83455170757072
100
AcDbArc
 50
111.9496430675211
 51
158.0503569323037
  0
ARC
  5
C02
330
1F
100
AcDbEntity
  8
0
  6
Continuous
 62
     7
100
AcDbCircle
 10
1255.061696667871
 20
2255.365297229476
 30
0.0
 40
19.98759211942137
100
AcDbArc
 50
68.04998277700918
 51
89.90946919200496
  0
ARC
  5
C03
330
1F
100
AcDbEntity
  8
0
  6
Continuous
 62
     7
100
AcDbCircle
 10
1254.977124801371
 20
2255.449869095976
 30
0.0
 40
19.98759211941837
100
AcDbArc
 50
0.09053080799634
 51
21.95001722298889
  0
ARC
  5
C04
330
1F
100
AcDbEntity
  8
0
  6
Continuous
 62
     7
100
AcDbCircle
 10
1255.119022943371
 20
2255.507195371476
 30
0.0
 40
19.83455170756898
100
AcDbArc
 50
21.94964306751037
 51
68.05035693248685
  0
ARC
  5
C05
330
1F
100
AcDbEntity
  8
0
  6
Continuous
 62
     7
100
AcDbCircle
 10
1254.977124801371
 20
1707.519849152668
 30
0.0
 40
19.98759211942138
100
AcDbArc
 50
338.0499827770057
 51
359.9094691920017
  0
ARC
  5
C06
330
1F
100
AcDbEntity
  8
0
  6
Continuous
 62
     7
100
AcDbCircle
 10
1255.119022943371
 20
1707.462522877168
 30
0.0
 40
19.83455170803336
100
AcDbArc
 50
291.9496430669732
 51
338.0503569324835
  0
ARC
  5
C07
330
1F
100
AcDbEntity
  8
0
  6
Continuous
 62
     7
100
AcDbCircle
 10
1254.991244628871
 20
1707.481867960667
 30
0.0
 40
16.99273947093062
100
AcDbArc
 50
338.1400175993925
 51
0.02157803259708
  0
ARC
  5
C08
330
1F
100
AcDbEntity
  8
0
  6
Continuous
 62
     7
100
AcDbCircle
 10
1254.991244628871
 20
2255.487850287976
 30
0.0
 40
16.9927394709306
100
AcDbArc
 50
359.9784219671039
 51
21.85998240060821
  0
ARC
  5
C09
330
1F
100
AcDbEntity
  8
0
  6
Continuous
 62
     7
100
AcDbCircle
 10
707.0936955325626
 20
1707.590301191667
 30
0.0
 40
16.9927394709302
100
AcDbArc
 50
248.1400175993961
 51
270.0215780326002
  0
ARC
  5
C0A
330
1F
100
AcDbEntity
  8
0
  6
Continuous
 62
     7
100
AcDbCircle
 10
707.0936955325626
 20
2255.379417056976
 30
0.0
 40
16.99273947093079
100
AcDbArc
 50
89.97842196739985
 51
111.8599824006037
  0
ARC
  5
C0B
330
1F
100
AcDbEntity
  8
0
  6
Continuous
 62
     7
100
AcDbCircle
 10
1255.101908860871
 20
2255.390981606477
 30
0.0
 40
16.98117590943156
100
AcDbArc
 50
68.13247533768988
 51
90.02912029430992
  0
ARC
  5
C0C
330
1F
100
AcDbEntity
  8
0
  6
Continuous
 62
     7
100
AcDbCircle
 10
707.1905642135619
 20
1707.479636959668
 30
0.0
 40
16.98117590943226
100
AcDbArc
 50
179.9708797056924
 51
201.8675246623077
  0
ARC
  5
C0D
330
1F
100
AcDbEntity
  8
0
  6
Continuous
 62
     7
100
AcDbCircle
 10
707.1905642135619
 20
2255.490081288976
 30
0.0
 40
16.98117590943249
100
AcDbArc
 50
158.1324753376944
 51
180.0291202943076
  0
ARC
  5
C0E
330
1F
100
AcDbEntity
  8
0
  6
Continuous
 62
     7
100
AcDbCircle
 10
1255.101908860871
 20
1707.578736641668
 30
0.0
 40
16.98117590943226
100
AcDbArc
 50
269.97087970569
 51
291.8675246623076
  0
ARC
  5
C0F
330
1F
100
AcDbEntity
  8
0
  6
Continuous
 62
     7
100
AcDbCircle
 10
1255.17001782387
 20
1707.411527996668
 30
0.0
 40
16.80063037911817
100
AcDbArc
 50
291.8643546978256
 51
338.1356453017779
  0
ARC
  5
C10
330
1F
100
AcDbEntity
  8
0
  6
Continuous
 62
     7
100
AcDbCircle
 10
1255.17001782387
 20
2255.558190251975
 30
0.0
 40
16.80063037879872
100
AcDbArc
 50
21.86435469822352
 51
68.13564530153965
  0
ARC
  5
C11
330
1F
100
AcDbEntity
  8
0
  6
Continuous
 62
     7
100
AcDbCircle
 10
707.0233555685629
 20
2255.558190251975
 30
0.0
 40
16.80063037879808
100
AcDbArc
 50
111.864354698216
 51
158.1356453021771
  0
ARC
  5
C12
330
1F
100
AcDbEntity
  8
0
  6
Continuous
 62
     7
100
AcDbCircle
 10
707.0233555685629
 20
1707.411527996668
 30
0.0
 40
16.80063037911817
100
AcDbArc
 50
201.8643546978214
 51
248.1356453017834
  0
ARC
  5
C13
330
1F
100
AcDbEntity
  8
0
  6
Continuous
 62
     7
100
AcDbCircle
 10
1269.148767302314
 20
2106.054443844073
 30
0.0
 40
10.0604696734624
100
AcDbArc
 50
73.63129608459796
 51
90.0101754186007
  0
ARC
  5
C14
330
1F
100
AcDbEntity
  8
0
  6
Continuous
 62
     7
100
AcDbCircle
 10
1269.148767302314
 20
1856.91527440407
 30
0.0
 40
10.06046967345767
100
AcDbArc
 50
269.9898245813993
 51
286.3687039154039
  0
ARC
  5
C15
330
1F
100
AcDbEntity
  8
0
  6
Continuous
 62
     7
100
AcDbCircle
 10
1126.096686695887
 20
1836.484859124651
 30
0.0
 40
10.36994923396014
100
AcDbArc
 50
90.0
 51
180.0
  0
ARC
  5
C16
330
1F
100
AcDbEntity
  8
0
  6
Continuous
 62
     7
100
AcDbCircle
 10
1126.096686695887
 20
2126.484859123492
 30
0.0
 40
10.36994923395901
100
AcDbArc
 50
180.0
 51
270.0
  0
ARC
  5
C17
330
1F
100
AcDbEntity
  8
0
  6
Continuous
 62
     7
100
AcDbCircle
 10
836.0966866970459
 20
1836.484859124651
 30
0.0
 40
15.35521299493894
100
AcDbArc
 50
0.0
 51
90.0
  0
ARC
  5
C18
330
1F
100
AcDbEntity
  8
0
  6
Continuous
 62
     7
100
AcDbCircle
 10
836.0966866970459
 20
1836.484859124651
 30
0.0
 40
10.36994923395878
100
AcDbArc
 50
0.0
 51
90.0
  0
ARC
  5
C19
330
1F
100
AcDbEntity
  8
0
  6
Continuous
 62
     7
100
AcDbCircle
 10
1126.096686695887
 20
1836.484859124651
 30
0.0
 40
15.35521299493917
100
AcDbArc
 50
90.0
 51
180.0
  0
ARC
  5
C1A
330
1F
100
AcDbEntity
  8
0
  6
Continuous
 62
     7
100
AcDbCircle
 10
836.0966866970459
 20
2126.484859123492
 30
0.0
 40
10.36994923345901
100
AcDbArc
 50
270.0
 51
0.0
  0
ARC
  5
C1B
330
1F
100
AcDbEntity
  8
0
  6
Continuous
 62
     7
100
AcDbCircle
 10
836.0966866970459
 20
2126.484859123492
 30
0.0
 40
15.35521299493894
100
AcDbArc
 50
270.0
 51
0.0
  0
ARC
  5
C1C
330
1F
100
AcDbEntity
  8
0
  6
Continuous
 62
     7
100
AcDbCircle
 10
1126.096686695887
 20
2126.484859123492
 30
0.0
 40
15.35521299493894
100
AcDbArc
 50
180.0
 51
270.0
  0
ARC
  5
C1D
330
1F
100
AcDbEntity
  8
0
  6
Continuous
 62
     7
100
AcDbCircle
 10
1126.108302099886
 20
2126.473109583492
 30
0.0
 40
19.21193327792416
100
AcDbArc
 50
179.9649717684923
 51
269.9653469158012
  0
ARC
  5
C1E
330
1F
100
AcDbEntity
  8
0
  6
Continuous
 62
     7
100
AcDbCircle
 10
836.1082567250462
 20
1836.496578074152
 30
0.0
 40
19.09652456142397
100
AcDbArc
 50
359.9648518603084
 51
90.03470132870022
  0
ARC
  5
C1F
330
1F
100
AcDbEntity
  8
0
  6
Continuous
 62
     7
100
AcDbCircle
 10
836.0565520895464
 20
1836.444217824153
 30
0.0
 40
29.0670518038843
100
AcDbArc
 50
359.9769035204948
 51
90.02283223230013
  0
ARC
  5
C20
330
1F
100
AcDbEntity
  8
0
  6
Continuous
 62
     7
100
AcDbCircle
 10
836.0565520895464
 20
2126.525500423991
 30
0.0
 40
29.06705180388226
100
AcDbArc
 50
269.9771677676999
 51
0.02309647960153
  0
ARC
  5
C21
330
1F
100
AcDbEntity
  8
0
  6
Continuous
 62
     7
100
AcDbCircle
 10
1126.056589949387
 20
1836.444251127153
 30
0.0
 40
29.18245779988146
100
AcDbArc
 50
90.02280340159854
 51
180.0230705272014
  0
ARC
  5
C22
330
1F
100
AcDbEntity
  8
0
  6
Continuous
 62
     7
100
AcDbCircle
 10
1126.056589949387
 20
2126.525467120991
 30
0.0
 40
29.18245779988478
100
AcDbArc
 50
179.976929472604
 51
269.9771965984015
  0
ARC
  5
C23
330
1F
100
AcDbEntity
  8
0
  6
Continuous
 62
     7
100
AcDbCircle
 10
1106.096790383966
 20
1205.240162542677
 30
0.0
 40
3.999999999984084
100
AcDbArc
 50
180.0
 51
270.0
  0
ARC
  5
C24
330
1F
100
AcDbEntity
  8
0
  6
Continuous
 62
     7
100
AcDbCircle
 10
884.8981964823508
 20
1280.194261553377
 30
0.0
 40
15.00001554993948
100
AcDbArc
 50
209.1940425765977
 51
269.9999656660005
  0
ARC
  5
C25
330
1F
100
AcDbEntity
  8
0
  6
Continuous
 62
     7
100
AcDbCircle
 10
1077.295176910081
 20
1280.194261553377
 30
0.0
 40
15.00001554994056
100
AcDbArc
 50
270.0000343340055
 51
330.80595742341
  0
ARC
  5
C26
330
1F
100
AcDbEntity
  8
0
  6
Continuous
 62
     7
100
AcDbCircle
 10
852.2951972749813
 20
1277.04017753089
 30
0.0
 40
14.99998185243984
100
AcDbArc
 50
29.19398335109779
 51
90.00002068319708
  0
ARC
  5
C27
330
1F
100
AcDbEntity
  8
0
  6
Continuous
 62
     7
100
AcDbCircle
 10
1109.898176117451
 20
1277.04017753089
 30
0.0
 40
14.99998185243892
100
AcDbArc
 50
89.99997931679077
 51
150.8060166489018
  0
ARC
  5
C28
330
1F
100
AcDbEntity
  8
0
  6
Continuous
 62
     7
100
AcDbCircle
 10
1609.298774763954
 20
1673.328074068304
 30
0.0
 40
4.999999999979991
100
AcDbArc
 50
180.0
 51
264.9999999999728
  0
ARC
  5
C29
330
1F
100
AcDbEntity
  8
0
  6
Continuous
 62
     7
100
AcDbCircle
 10
1609.298774763954
 20
2289.641644180339
 30
0.0
 40
4.999999999981593
100
AcDbArc
 50
95.0000000000261
 51
180.0
  0
ARC
  5
C2A
330
1F
100
AcDbEntity
  8
0
  6
Continuous
 62
     7
100
AcDbCircle
 10
1616.144675753426
 20
1885.286368910457
 30
0.0
 40
15.00001554993833
100
AcDbArc
 50
299.1940425766041
 51
0.0
  0
ARC
  5
C2B
330
1F
100
AcDbEntity
  8
0
  6
Continuous
 62
     7
100
AcDbCircle
 10
1616.144675753426
 20
2077.683349338187
 30
0.0
 40
15.00001554994083
100
AcDbArc
 50
0.0
 51
60.80595742340352
  0
ARC
  5
C2C
330
1F
100
AcDbEntity
  8
0
  6
Continuous
 62
     7
100
AcDbCircle
 10
1619.298759775913
 20
1852.683369702588
 30
0.0
 40
14.99998185243985
100
AcDbArc
 50
119.1939833511067
 51
180.0
  0
ARC
  5
C2D
330
1F
100
AcDbEntity
  8
0
  6
Continuous
 62
     7
100
AcDbCircle
 10
1619.298759775913
 20
2110.286348545556
 30
0.0
 40
14.99998185243885
100
AcDbArc
 50
180.0
 51
240.8060166488945
  0
ARC
  5
C2E
330
1F
100
AcDbEntity
  8
0
  6
Continuous
 62
     7
100
AcDbCircle
 10
1099.096790383995
 20
1207.00774453117
 30
0.0
 40
2.999999999986812
100
AcDbArc
 50
0.0
 51
42.64646288448972
  0
ARC
  5
C2F
330
1F
100
AcDbEntity
  8
0
  6
Continuous
 62
     7
100
AcDbCircle
 10
1689.331192775134
 20
1902.984861181865
 30
0.0
 40
2.99999999998704
100
AcDbArc
 50
90.0
 51
132.6464628844836
  0
ARC
  5
C30
330
1F
100
AcDbEntity
  8
0
  6
Continuous
 62
     7
100
AcDbCircle
 10
1691.098774763626
 20
1909.984861181836
 30
0.0
 40
3.999999999984084
100
AcDbArc
 50
270.0
 51
0.0
  0
CIRCLE
  5
C31
330
1F
100
AcDbEntity
  8
0
  6
Continuous
 62
     7
100
AcDbCircle
 10
682.0966866976621
 20
2280.484859122876
 30
0.0
 40
2.499999999989996
  0
CIRCLE
  5
C32
330
1F
100
AcDbEntity
  8
0
  6
Continuous
 62
     7
100
AcDbCircle
 10
1280.096686695271
 20
2280.484859122876
 30
0.0
 40
5.999999999975898
  0
CIRCLE
  5
C33
330
1F
100
AcDbEntity
  8
0
  6
Continuous
 62
     7
100
AcDbCircle
 10
682.0966866976621
 20
1682.484859125269
 30
0.0
 40
5.999999999975898
  0
CIRCLE
  5
C34
330
1F
100
AcDbEntity
  8
0
  6
Continuous
 62
     7
100
AcDbCircle
 10
1280.096686695271
 20
1682.484859125269
 30
0.0
 40
4.999999999978854
  0
CIRCLE
  5
C35
330
1F
100
AcDbEntity
  8
0
  6
Continuous
 62
     7
100
AcDbCircle
 10
1280.096686695271
 20
1682.484859125269
 30
0.0
 40
5.999999999975898
  0
CIRCLE
  5
C36
330
1F
100
AcDbEntity
  8
0
  6
Continuous
 62
     7
100
AcDbCircle
 10
682.0966866976621
 20
2280.484859122876
 30
0.0
 40
5.999999999975898
  0
CIRCLE
  5
C37
330
1F
100
AcDbEntity
  8
0
  6
Continuous
 62
     7
100
AcDbCircle
 10
682.0966866976621
 20
2280.484859122876
 30
0.0
 40
4.999999999979991
  0
CIRCLE
  5
C38
330
1F
100
AcDbEntity
  8
0
  6
Continuous
 62
     7
100
AcDbCircle
 10
1280.096686695271
 20
2280.484859122876
 30
0.0
 40
4.999999999978854
  0
CIRCLE
  5
C39
330
1F
100
AcDbEntity
  8
0
  6
Continuous
 62
     7
100
AcDbCircle
 10
682.0966866976621
 20
1682.484859125269
 30
0.0
 40
4.999999999979991
  0
CIRCLE
  5
C3A
330
1F
100
AcDbEntity
  8
0
  6
Continuous
 62
     7
100
AcDbCircle
 10
1280.096686695271
 20
1682.484859125269
 30
0.0
 40
2.499999999989996
  0
CIRCLE
  5
C3B
330
1F
100
AcDbEntity
  8
0
  6
Continuous
 62
     7
100
AcDbCircle
 10
682.0966866976621
 20
1682.484859125269
 30
0.0
 40
2.499999999989996
  0
CIRCLE
  5
C3C
330
1F
100
AcDbEntity
  8
0
  6
Continuous
 62
     7
100
AcDbCircle
 10
1280.096686695271
 20
2280.484859122876
 30
0.0
 40
2.499999999989996
  0
CIRCLE
  5
C3D
330
1F
100
AcDbEntity
  8
0
  6
Continuous
 62
     7
100
AcDbCircle
 10
1178.096790383679
 20
1981.484859124072
 30
0.0
 40
59.99999999975989
  0
ARC
  5
C3E
330
1F
100
AcDbEntity
  8
1
  6
Continuous
 62
     7
100
AcDbCircle
 10
672.9399020337871
 20
1287.04016254233
 30
0.0
 40
5.0
100
AcDbArc
 50
90.0
 51
175.0000048999288
  0
ARC
  5
C3F
330
1F
100
AcDbEntity
  8
1
  6
Continuous
 62
     7
100
AcDbCircle
 10
1249.096786268438
 20
1206.240162542693
 30
0.0
 40
5.0
100
AcDbArc
 50
270.0
 51
0.0
  0
ARC
  5
C40
330
1F
100
AcDbEntity
  8
1
  6
Continuous
 62
     7
100
AcDbCircle
 10
1690.098774763611
 20
2052.984857066308
 30
0.0
 40
5.0
100
AcDbArc
 50
0.0
 51
90.0
  0
LWPOLYLINE
  5
C41
330
1F
100
AcDbEntity
  8
0
  6
Continuous
 62
     7
100
AcDbPolyline
 90
       13
 70
     0
 43
0.0
 10
681.8955856326631
 20
2255.846678151974
 10
681.9207387926629
 20
2256.97108997347
 10
681.9961386686625
 20
2258.092610969465
 10
682.121666050162
 20
2259.208976163961
 10
682.2970527176615
 20
2260.318009986956
 10
682.5219410421603
 20
2261.417447461952
 10
682.7958839896594
 20
2262.505083217448
 10
683.1183153156578
 20
2263.578771485943
 10
683.4886389736564
 20
2264.636366500939
 10
683.9060801031549
 20
2265.675722493935
 10
684.3698042396529
 20
2266.694783105931
 10
684.8788875106509
 20
2267.691521777927
 10
685.4323166376487
 20
2268.663941754923
  0
LWPOLYLINE
  5
C42
330
1F
100
AcDbEntity
  8
0
  6
Continuous
 62
     7
100
AcDbPolyline
 90
       13
 70
     0
 43
0.0
 10
688.0369800096385
 20
2101.201227739593
 10
688.0354898931384
 20
2101.213491395093
 10
687.8832596306395
 20
2102.514742747087
 10
687.7373176576396
 20
2103.871128395082
 10
687.6015978816401
 20
2105.304702058577
 10
687.5137108331403
 20
2106.381839946072
 10
687.4343770506409
 20
2107.514171734567
 10
687.3654740816412
 20
2108.696653381062
 10
687.3089092736411
 20
2109.924225941058
 10
687.2749048236412
 20
2110.897674098554
 10
687.2497218611413
 20
2111.89542604955
 10
687.2340458396418
 20
2112.907587424046
 10
687.2286814216416
 20
2113.924219146042
  0
LWPOLYLINE
  5
C43
330
1F
100
AcDbEntity
  8
0
  6
Continuous
 62
     7
100
AcDbPolyline
 90
       12
 70
     0
 43
0.0
 10
690.2093904976302
 20
2113.924219146042
 10
689.9684089186305
 20
2112.888260617546
 10
689.7232550146316
 20
2111.86022950705
 10
689.4768792156326
 20
2110.848530069054
 10
689.1129034521343
 20
2109.370752111061
 10
688.7689548496353
 20
2107.917561069067
 10
688.4657162191368
 20
2106.478622987571
 10
688.2443743711376
 20
2105.167141988577
 10
688.0911606316388
 20
2103.850967124082
 10
688.0177873136383
 20
2102.533890739087
 10
688.0359965326386
 20
2101.219720080593
 10
688.0369800096385
 20
2101.201227739593
  0
LWPOLYLINE
  5
C44
330
1F
100
AcDbEntity
  8
0
  6
Continuous
 62
     7
100
AcDbPolyline
 90
       25
 70
     0
 43
0.0
 10
698.0350333215986
 20
2111.129640475053
 10
697.3765510086016
 20
2111.111163035053
 10
696.7214065556034
 20
2111.050157681053
 10
696.0723715786064
 20
2110.946892634054
 10
695.4321878916087
 20
2110.801800027555
 10
694.8035973076114
 20
2110.615490809055
 10
694.1892522341143
 20
2110.388769641556
 10
693.5917454721164
 20
2110.122575298057
 10
693.0136102201188
 20
2109.818055167558
 10
692.4573200706211
 20
2109.47647584956
 10
691.9251698021228
 20
2109.099312558562
 10
691.4194541936247
 20
2108.688144818063
 10
690.9423190121267
 20
2108.244716063065
 10
690.4957908156287
 20
2107.770903840566
 10
690.0817173486305
 20
2107.268719807069
 10
689.7019165521317
 20
2106.740279927571
 10
689.3579381471329
 20
2106.187834277573
 10
689.0512722496344
 20
2105.613714888575
 10
688.7832003596352
 20
2105.020358100578
 10
688.5548549656362
 20
2104.41027475908
 10
688.3672195436372
 20
2103.786042764582
 10
688.2210987571377
 20
2103.150314524586
 10
688.1170588496382
 20
2102.505779698588
 10
688.0556064611385
 20
2101.85516519859
 10
688.0369800096385
 20
2101.201227739593
  0
LWPOLYLINE
  5
C45
330
1F
100
AcDbEntity
  8
0
  6
Continuous
 62
     7
100
AcDbPolyline
 90
       13
 70
     0
 43
0.0
 10
688.0369800096385
 20
1861.768490509051
 10
688.0354898931384
 20
1861.756226853551
 10
687.8832596306395
 20
1860.454975501556
 10
687.7373176576396
 20
1859.098589853561
 10
687.6015978816401
 20
1857.665016190067
 10
687.5137108331403
 20
1856.587878302571
 10
687.4343770506409
 20
1855.455546514076
 10
687.3654740816412
 20
1854.27306486758
 10
687.3089092736411
 20
1853.045492307086
 10
687.2749048236412
 20
1852.072044150089
 10
687.2497218611413
 20
1851.074292198594
 10
687.2340458396418
 20
1850.062130824598
 10
687.2286814216416
 20
1849.045499102102
  0
LWPOLYLINE
  5
C46
330
1F
100
AcDbEntity
  8
0
  6
Continuous
 62
     7
100
AcDbPolyline
 90
       24
 70
     0
 43
0.0
 10
682.9018610481587
 20
2289.641647472339
 10
682.2203117376619
 20
2289.618461265339
 10
681.5422791006642
 20
2289.54905165634
 10
680.8708923821671
 20
2289.43371666884
 10
680.2092212206696
 20
2289.27296294184
 10
679.5603352551723
 20
2289.067595138341
 10
678.927244520675
 20
2288.818507327842
 10
678.3128398421775
 20
2288.526861800844
 10
677.7199822431796
 20
2288.194029464345
 10
677.1514135366822
 20
2287.821530236846
 10
676.6097265246847
 20
2287.411062850848
 10
676.097484207686
 20
2286.96456445685
 10
675.6169813636882
 20
2286.484061612852
 10
675.1704829696898
 20
2285.971819295854
 10
674.7600155836915
 20
2285.430132283856
 10
674.3875163561931
 20
2284.861563577358
 10
674.0546840196942
 20
2284.268705978361
 10
673.7630384926954
 20
2283.654301299863
 10
673.5139506821963
 20
2283.021210565366
 10
673.3085828786973
 20
2282.372324599869
 10
673.147829151698
 20
2281.710653438371
 10
673.0324941641982
 20
2281.039266719874
 10
672.9630845551985
 20
2280.361234082876
 10
672.9398983481985
 20
2279.67968477238
  0
LWPOLYLINE
  5
C47
330
1F
100
AcDbEntity
  8
0
  6
Continuous
 62
     7
100
AcDbPolyline
 90
       19
 70
     0
 43
0.0
 10
1608.862996146455
 20
2294.622628822319
 10
1608.880370900455
 20
2294.624148740319
 10
1608.932435557455
 20
2294.628678693319
 10
1609.019018754455
 20
2294.636278285819
 10
1609.139807566955
 20
2294.646828307819
 10
1609.294377312454
 20
2294.660358562319
 10
1609.482213899453
 20
2294.676779641819
 10
1609.702639326452
 20
2294.696091546819
 10
1609.954901084451
 20
2294.718145265319
 10
1610.23812000495
 20
2294.742910995319
 10
1610.551320061449
 20
2294.770329131819
 10
1610.893391117448
 20
2294.800250663319
 10
1611.263170883446
 20
2294.832615985818
 10
1611.659355506444
 20
2294.867276086818
 10
1612.080574080443
 20
2294.904111756818
 10
1612.525358840941
 20
2294.943033590318
 10
1612.992174968439
 20
2294.983862771818
 10
1613.479383334437
 20
2295.026509895317
 10
1613.985307559435
 20
2295.070766343818
  0
LWPOLYLINE
  5
C48
330
1F
100
AcDbEntity
  8
0
  6
Continuous
 62
     7
100
AcDbPolyline
 90
       19
 70
     0
 43
0.0
 10
1608.862996146455
 20
1668.347089426324
 10
1608.880370900455
 20
1668.345569507824
 10
1608.932435557455
 20
1668.341039554824
 10
1609.019018754455
 20
1668.333439962824
 10
1609.139807566955
 20
1668.322889940825
 10
1609.294377312454
 20
1668.309359686325
 10
1609.482213899453
 20
1668.292938606824
 10
1609.702639326452
 20
1668.273626701824
 10
1609.954901084451
 20
1668.251572983325
 10
1610.23812000495
 20
1668.226807253325
 10
1610.551320061449
 20
1668.199389116825
 10
1610.893391117448
 20
1668.169467584825
 10
1611.263170883446
 20
1668.137102262825
 10
1611.659355506444
 20
1668.102442161825
 10
1612.080574080443
 20
1668.065606491326
 10
1612.525358840941
 20
1668.026684658326
 10
1612.992174968439
 20
1667.985855476826
 10
1613.479383334437
 20
1667.943208353326
 10
1613.985307559435
 20
1667.898951904826
  0
LWPOLYLINE
  5
C49
330
1F
100
AcDbEntity
  8
0
  6
Continuous
 62
     7
100
AcDbPolyline
 90
       26
 70
     0
 43
0.0
 10
1625.464282974889
 20
1666.89467324483
 10
1626.196436628886
 20
1666.83062805383
 10
1626.909691885383
 20
1666.768221990831
 10
1627.602767243881
 20
1666.707574264831
 10
1628.274414733378
 20
1666.648833887331
 10
1628.923419907875
 20
1666.592030660831
 10
1629.548613026873
 20
1666.537343399331
 10
1630.14887277787
 20
1666.484831707332
 10
1630.723115101368
 20
1666.434584991833
 10
1631.270304366866
 20
1666.386722461833
 10
1631.789457097863
 20
1666.341303722832
 10
1632.279634520362
 20
1666.298418180833
 10
1632.73995374136
 20
1666.258125440833
 10
1633.169587746358
 20
1666.220544712333
 10
1633.567761674357
 20
1666.185705797333
 10
1633.933760270355
 20
1666.153698103333
 10
1634.266916707354
 20
1666.124551431833
 10
1634.566638663353
 20
1666.098325388333
 10
1634.832382246852
 20
1666.075079576834
 10
1635.063670620351
 20
1666.054843799834
 10
1635.26008655135
 20
1666.037647859833
 10
1635.42127613735
 20
1666.023551361334
 10
1635.546945080349
 20
1666.012554304334
 10
1635.636873587848
 20
1666.004686491333
 10
1635.690894022848
 20
1665.999977724334
 10
1635.708909526349
 20
1665.998398201335
  0
LWPOLYLINE
  5
C4A
330
1F
100
AcDbEntity
  8
0
  6
Continuous
 62
     7
100
AcDbPolyline
 90
       26
 70
     0
 43
0.0
 10
1625.464282974889
 20
2296.075045003814
 10
1626.196436628886
 20
2296.139090194314
 10
1626.909691885383
 20
2296.201496257313
 10
1627.602767243881
 20
2296.262143983813
 10
1628.274414733378
 20
2296.320884360812
 10
1628.923419907875
 20
2296.377687587312
 10
1629.548613026873
 20
2296.432374849312
 10
1630.14887277787
 20
2296.484886541312
 10
1630.723115101368
 20
2296.535133256811
 10
1631.270304366866
 20
2296.582995786311
 10
1631.789457097863
 20
2296.628414525811
 10
1632.279634520362
 20
2296.671300067811
 10
1632.73995374136
 20
2296.71159280731
 10
1633.169587746358
 20
2296.74917353581
 10
1633.567761674357
 20
2296.784012450811
 10
1633.933760270355
 20
2296.816020145311
 10
1634.266916707354
 20
2296.84516681631
 10
1634.566638663353
 20
2296.87139286031
 10
1634.832382246852
 20
2296.89463867181
 10
1635.063670620351
 20
2296.914874448311
 10
1635.26008655135
 20
2296.93207038831
 10
1635.42127613735
 20
2296.94616688681
 10
1635.546945080349
 20
2296.95716394381
 10
1635.636873587848
 20
2296.96503175731
 10
1635.690894022848
 20
2296.96974052381
 10
1635.708909526349
 20
2296.97132004731
  0
LWPOLYLINE
  5
C4B
330
1F
100
AcDbEntity
  8
0
  6
Continuous
 62
     7
100
AcDbPolyline
 90
       17
 70
     0
 43
0.0
 10
1268.386186931818
 20
2102.272196546089
 10
1268.356474016317
 20
2102.755158081587
 10
1268.279971454818
 20
2103.233537510084
 10
1268.157454107319
 20
2103.702812329083
 10
1267.990024660319
 20
2104.158541992082
 10
1267.77929243832
 20
2104.59640516358
 10
1267.527254197821
 20
2105.012244418077
 10
1267.236294124822
 20
2105.402140751576
 10
1266.909183834323
 20
2105.762383774075
 10
1266.548992965825
 20
2106.089568570074
 10
1266.159178588826
 20
2106.380595699072
 10
1265.743376586828
 20
2106.632708445071
 10
1265.30555066883
 20
2106.843530073571
 10
1264.849843357332
 20
2107.01103402657
 10
1264.380605791333
 20
2107.13367058307
 10
1263.902248714336
 20
2107.210247650569
 10
1263.419272277838
 20
2107.240064874069
  0
LWPOLYLINE
  5
C4C
330
1F
100
AcDbEntity
  8
0
  6
Continuous
 62
     7
100
AcDbPolyline
 90
       17
 70
     0
 43
0.0
 10
1268.386186931818
 20
1860.697521702555
 10
1268.356474016317
 20
1860.214560167057
 10
1268.279971454818
 20
1859.736180738558
 10
1268.157454107319
 20
1859.266905919561
 10
1267.990024660319
 20
1858.811176256063
 10
1267.77929243832
 20
1858.373313085065
 10
1267.527254197821
 20
1857.957473830066
 10
1267.236294124822
 20
1857.567577497068
 10
1266.909183834323
 20
1857.207334474569
 10
1266.548992965825
 20
1856.880149678071
 10
1266.159178588826
 20
1856.589122549571
 10
1265.743376586828
 20
1856.337009803573
 10
1265.30555066883
 20
1856.126188174574
 10
1264.849843357332
 20
1855.958684222074
 10
1264.380605791333
 20
1855.836047665075
 10
1263.902248714336
 20
1855.759470598076
 10
1263.419272277838
 20
1855.729653374076
  0
LWPOLYLINE
  5
C4D
330
1F
100
AcDbEntity
  8
0
  6
Continuous
 62
     7
100
AcDbPolyline
 90
        3
 70
     0
 43
0.0
 10
1263.419272277838
 20
1855.729653374076
 10
1263.429196451337
 20
1855.710579888075
 10
1263.439120624338
 20
1855.694844261575
  0
LWPOLYLINE
  5
C4E
330
1F
100
AcDbEntity
  8
0
  6
Continuous
 62
     7
100
AcDbPolyline
 90
        3
 70
     0
 43
0.0
 10
1263.419272277838
 20
2107.240064874069
 10
1263.429196451337
 20
2107.259138360568
 10
1263.439120624338
 20
2107.274873986569
  0
LWPOLYLINE
  5
C4F
330
1F
100
AcDbEntity
  8
0
  6
Continuous
 62
     7
100
AcDbPolyline
 90
       20
 70
     0
 43
0.0
 10
884.8981874938511
 20
1670.979349748814
 10
884.0607794878549
 20
1670.982091562814
 10
883.2259866353577
 20
1670.990257398814
 10
882.3964091893611
 20
1671.003877060314
 10
881.5746399518646
 20
1671.022861139814
 10
880.7632270213674
 20
1671.047150032313
 10
879.9647184963708
 20
1671.076713936314
 10
879.1815954203737
 20
1671.111403839313
 10
878.416309034377
 20
1671.151160137313
 10
877.6712286228806
 20
1671.195833818813
 10
876.9487011188828
 20
1671.245305673813
 10
876.2509616968857
 20
1671.299367086812
 10
875.5801933763889
 20
1671.357928650312
 10
874.9384897703915
 20
1671.420751945812
 10
874.3278550858934
 20
1671.487628357312
 10
873.7501892203957
 20
1671.558408872812
 10
873.2072877643975
 20
1671.632825271811
 10
872.7008568998997
 20
1671.710668937811
 10
872.2324761509014
 20
1671.791701452811
 10
871.8035909294038
 20
1671.87565459481
  0
LWPOLYLINE
  5
C50
330
1F
100
AcDbEntity
  8
0
  6
Continuous
 62
     7
100
AcDbPolyline
 90
       20
 70
     0
 43
0.0
 10
884.8981874938511
 20
2291.990368499329
 10
884.0607794878549
 20
2291.98762668583
 10
883.2259866353577
 20
2291.97946084933
 10
882.3964091893611
 20
2291.96584118833
 10
881.5746399518646
 20
2291.946857108831
 10
880.7632270213674
 20
2291.92256821633
 10
879.9647184963708
 20
2291.893004312331
 10
879.1815954203737
 20
2291.85831440883
 10
878.416309034377
 20
2291.818558110831
 10
877.6712286228806
 20
2291.773884429831
 10
876.9487011188828
 20
2291.724412574331
 10
876.2509616968857
 20
2291.670351161831
 10
875.5801933763889
 20
2291.611789598331
 10
874.9384897703915
 20
2291.548966302832
 10
874.3278550858934
 20
2291.482089891332
 10
873.7501892203957
 20
2291.411309375332
 10
873.2072877643975
 20
2291.336892976332
 10
872.7008568998997
 20
2291.259049310332
 10
872.2324761509014
 20
2291.178016795833
 10
871.8035909294038
 20
2291.094063653834
  0
LWPOLYLINE
  5
C51
330
1F
100
AcDbEntity
  8
0
  6
Continuous
 62
     7
100
AcDbPolyline
 90
       20
 70
     0
 43
0.0
 10
1291.602196071725
 20
1885.286359921957
 10
1291.599454257725
 20
1884.44895191596
 10
1291.591288421725
 20
1883.614159063463
 10
1291.577668760225
 20
1882.784581617466
 10
1291.558684680725
 20
1881.96281237997
 10
1291.534395788225
 20
1881.151399449473
 10
1291.504831884225
 20
1880.352890924477
 10
1291.470141981225
 20
1879.569767848479
 10
1291.430385682726
 20
1878.804481462483
 10
1291.385712001726
 20
1878.059401050985
 10
1291.336240146726
 20
1877.336873546988
 10
1291.282178733726
 20
1876.639134124992
 10
1291.223617170226
 20
1875.968365803994
 10
1291.160793874726
 20
1875.326662198497
 10
1291.093917463227
 20
1874.716027513999
 10
1291.023136947727
 20
1874.138361648501
 10
1290.948720548727
 20
1873.595460192003
 10
1290.870876882228
 20
1873.089029328005
 10
1290.789844367728
 20
1872.620648578507
 10
1290.705891225729
 20
1872.191763357009
  0
LWPOLYLINE
  5
C52
330
1F
100
AcDbEntity
  8
0
  6
Continuous
 62
     7
100
AcDbPolyline
 90
       20
 70
     0
 43
0.0
 10
1090.389782463529
 20
1671.87565459481
 10
1089.960897242032
 20
1671.791701452811
 10
1089.492516492533
 20
1671.710668937811
 10
1088.986085628035
 20
1671.632825271811
 10
1088.443184172037
 20
1671.558408872812
 10
1087.86551830654
 20
1671.487628357312
 10
1087.254883622042
 20
1671.420751945812
 10
1086.613180016044
 20
1671.357928650312
 10
1085.942411695547
 20
1671.299367086812
 10
1085.24467227355
 20
1671.245305673813
 10
1084.522144769553
 20
1671.195833818813
 10
1083.777064358056
 20
1671.151160137313
 10
1083.011777972059
 20
1671.111403839313
 10
1082.228654896062
 20
1671.076713936314
 10
1081.430146371066
 20
1671.047150032313
 10
1080.618733440568
 20
1671.022861139814
 10
1079.796964203072
 20
1671.003877060314
 10
1078.967386757075
 20
1670.990257398814
 10
1078.132593904578
 20
1670.982091562814
 10
1077.295185898582
 20
1670.979349748814
  0
LWPOLYLINE
  5
C53
330
1F
100
AcDbEntity
  8
0
  6
Continuous
 62
     7
100
AcDbPolyline
 90
       20
 70
     0
 43
0.0
 10
671.4874821667047
 20
1872.191763357009
 10
671.403529024705
 20
1872.620648578507
 10
671.3224965102052
 20
1873.089029328005
 10
671.2446528437056
 20
1873.595460192003
 10
671.1702364447058
 20
1874.138361648501
 10
671.099455929206
 20
1874.716027513999
 10
671.0325795177066
 20
1875.326662198497
 10
670.9697562222066
 20
1875.968365803994
 10
670.911194658707
 20
1876.639134124992
 10
670.857133245707
 20
1877.336873546988
 10
670.8076613907072
 20
1878.059401050985
 10
670.7629877097077
 20
1878.804481462483
 10
670.7232314112077
 20
1879.569767848479
 10
670.6885415082077
 20
1880.352890924477
 10
670.6589776042081
 20
1881.151399449473
 10
670.6346887117081
 20
1881.96281237997
 10
670.615704632208
 20
1882.784581617466
 10
670.6020849707081
 20
1883.614159063463
 10
670.5939191347081
 20
1884.44895191596
 10
670.5911773207083
 20
1885.286359921957
  0
LWPOLYLINE
  5
C54
330
1F
100
AcDbEntity
  8
0
  6
Continuous
 62
     7
100
AcDbPolyline
 90
       20
 70
     0
 43
0.0
 10
1291.602196071725
 20
2077.683358326687
 10
1291.599454257725
 20
2078.520766332683
 10
1291.591288421725
 20
2079.355559185181
 10
1291.577668760225
 20
2080.185136631177
 10
1291.558684680725
 20
2081.006905868674
 10
1291.534395788225
 20
2081.81831879917
 10
1291.504831884225
 20
2082.616827324167
 10
1291.470141981225
 20
2083.399950400164
 10
1291.430385682726
 20
2084.165236786161
 10
1291.385712001726
 20
2084.910317197658
 10
1291.336240146726
 20
2085.632844701655
 10
1291.282178733726
 20
2086.330584123652
 10
1291.223617170226
 20
2087.00135244415
 10
1291.160793874726
 20
2087.643056050147
 10
1291.093917463227
 20
2088.253690734644
 10
1291.023136947727
 20
2088.831356600143
 10
1290.948720548727
 20
2089.374258056141
 10
1290.870876882228
 20
2089.880688920639
 10
1290.789844367728
 20
2090.349069669637
 10
1290.705891225729
 20
2090.777954891134
  0
LWPOLYLINE
  5
C55
330
1F
100
AcDbEntity
  8
0
  6
Continuous
 62
     7
100
AcDbPolyline
 90
       20
 70
     0
 43
0.0
 10
1090.389782463529
 20
2291.094063653834
 10
1089.960897242032
 20
2291.178016795833
 10
1089.492516492533
 20
2291.259049310332
 10
1088.986085628035
 20
2291.336892976332
 10
1088.443184172037
 20
2291.411309375332
 10
1087.86551830654
 20
2291.482089891332
 10
1087.254883622042
 20
2291.548966302832
 10
1086.613180016044
 20
2291.611789598331
 10
1085.942411695547
 20
2291.670351161831
 10
1085.24467227355
 20
2291.724412574331
 10
1084.522144769553
 20
2291.773884429831
 10
1083.777064358056
 20
2291.818558110831
 10
1083.011777972059
 20
2291.85831440883
 10
1082.228654896062
 20
2291.893004312331
 10
1081.430146371066
 20
2291.92256821633
 10
1080.618733440568
 20
2291.946857108831
 10
1079.796964203072
 20
2291.96584118833
 10
1078.967386757075
 20
2291.97946084933
 10
1078.132593904578
 20
2291.98762668583
 10
1077.295185898582
 20
2291.990368499329
  0
LWPOLYLINE
  5
C56
330
1F
100
AcDbEntity
  8
0
  6
Continuous
 62
     7
100
AcDbPolyline
 90
       20
 70
     0
 43
0.0
 10
671.4874821667047
 20
2090.777954891134
 10
671.403529024705
 20
2090.349069669637
 10
671.3224965102052
 20
2089.880688920639
 10
671.2446528437056
 20
2089.374258056141
 10
671.1702364447058
 20
2088.831356600143
 10
671.099455929206
 20
2088.253690734644
 10
671.0325795177066
 20
2087.643056050147
 10
670.9697562222066
 20
2087.00135244415
 10
670.911194658707
 20
2086.330584123652
 10
670.857133245707
 20
2085.632844701655
 10
670.8076613907072
 20
2084.910317197658
 10
670.7629877097077
 20
2084.165236786161
 10
670.7232314112077
 20
2083.399950400164
 10
670.6885415082077
 20
2082.616827324167
 10
670.6589776042081
 20
2081.81831879917
 10
670.6346887117081
 20
2081.006905868674
 10
670.615704632208
 20
2080.185136631177
 10
670.6020849707081
 20
2079.355559185181
 10
670.5939191347081
 20
2078.520766332683
 10
670.5911773207083
 20
2077.683358326687
  0
LWPOLYLINE
  5
C57
330
1F
100
AcDbEntity
  8
0
  6
Continuous
 62
     7
100
AcDbPolyline
 90
       20
 70
     0
 43
0.0
 10
871.8035909294038
 20
1684.175222055761
 10
872.2324761509014
 20
1684.28453697426
 10
872.7008568998997
 20
1684.39006699776
 10
873.2072877643975
 20
1684.49142469626
 10
873.7501892203957
 20
1684.58837165076
 10
874.3278550858934
 20
1684.680520431759
 10
874.9384897703915
 20
1684.767662422258
 10
875.5801933763889
 20
1684.849469797258
 10
876.2509616968857
 20
1684.925704138258
 10
876.9487011188828
 20
1684.996127025758
 10
877.6712286228806
 20
1685.060529844758
 10
878.416309034377
 20
1685.118703977758
 10
879.1815954203737
 20
1685.170470611757
 10
879.9647184963708
 20
1685.215680734757
 10
880.7632270213674
 20
1685.254155533257
 10
881.5746399518646
 20
1685.285805599756
 10
882.3964091893611
 20
1685.310541527256
 10
883.2259866353577
 20
1685.328244106757
 10
884.0607794878549
 20
1685.338913337757
 10
884.8981874938511
 20
1685.342459814256
  0
LWPOLYLINE
  5
C58
330
1F
100
AcDbEntity
  8
0
  6
Continuous
 62
     7
100
AcDbPolyline
 90
       20
 70
     0
 43
0.0
 10
871.8035909294038
 20
2278.794496192882
 10
872.2324761509014
 20
2278.685181274383
 10
872.7008568998997
 20
2278.579651250884
 10
873.2072877643975
 20
2278.478293552384
 10
873.7501892203957
 20
2278.381346597384
 10
874.3278550858934
 20
2278.289197816884
 10
874.9384897703915
 20
2278.202055825885
 10
875.5801933763889
 20
2278.120248450885
 10
876.2509616968857
 20
2278.044014110386
 10
876.9487011188828
 20
2277.973591222386
 10
877.6712286228806
 20
2277.909188403886
 10
878.416309034377
 20
2277.851014270387
 10
879.1815954203737
 20
2277.799247636387
 10
879.9647184963708
 20
2277.754037513386
 10
880.7632270213674
 20
2277.715562715387
 10
881.5746399518646
 20
2277.683912648887
 10
882.3964091893611
 20
2277.659176721387
 10
883.2259866353577
 20
2277.641474141887
 10
884.0607794878549
 20
2277.630804910388
 10
884.8981874938511
 20
2277.627258433887
  0
LWPOLYLINE
  5
C59
330
1F
100
AcDbEntity
  8
0
  6
Continuous
 62
     7
100
AcDbPolyline
 90
       20
 70
     0
 43
0.0
 10
684.9542873861508
 20
2077.683358326687
 10
684.9507409101509
 20
2078.520766332683
 10
684.9400716786506
 20
2079.355559185181
 10
684.922369099151
 20
2080.185136631177
 10
684.897633171651
 20
2081.006905868674
 10
684.8659831051511
 20
2081.81831879917
 10
684.827508307151
 20
2082.616827324167
 10
684.7822981836514
 20
2083.399950400164
 10
684.7305315496517
 20
2084.165236786161
 10
684.672357416652
 20
2084.910317197658
 10
684.607954597652
 20
2085.632844701655
 10
684.5375317101527
 20
2086.330584123652
 10
684.4612973696533
 20
2087.00135244415
 10
684.3794899946536
 20
2087.643056050147
 10
684.2923480036532
 20
2088.253690734644
 10
684.2001992231537
 20
2088.831356600143
 10
684.1032522681542
 20
2089.374258056141
 10
684.0018945696545
 20
2089.880688920639
 10
683.8963645461552
 20
2090.349069669637
 10
683.7870496276553
 20
2090.777954891134
  0
LWPOLYLINE
  5
C5A
330
1F
100
AcDbEntity
  8
0
  6
Continuous
 62
     7
100
AcDbPolyline
 90
       20
 70
     0
 43
0.0
 10
1278.406323764777
 20
1872.191763357009
 10
1278.297008846278
 20
1872.620648578507
 10
1278.191478822779
 20
1873.089029328005
 10
1278.090121124279
 20
1873.595460192003
 10
1277.993174169279
 20
1874.138361648501
 10
1277.90102538878
 20
1874.716027513999
 10
1277.81388339778
 20
1875.326662198497
 10
1277.73207602328
 20
1875.968365803994
 10
1277.65584168228
 20
1876.639134124992
 10
1277.58541879478
 20
1877.336873546988
 10
1277.521015975781
 20
1878.059401050985
 10
1277.462841842782
 20
1878.804481462483
 10
1277.411075208781
 20
1879.569767848479
 10
1277.365865085782
 20
1880.352890924477
 10
1277.327390287282
 20
1881.151399449473
 10
1277.295740220782
 20
1881.96281237997
 10
1277.271004293282
 20
1882.784581617466
 10
1277.253301713782
 20
1883.614159063463
 10
1277.242632482282
 20
1884.44895191596
 10
1277.239086006282
 20
1885.286359921957
  0
LWPOLYLINE
  5
C5B
330
1F
100
AcDbEntity
  8
0
  6
Continuous
 62
     7
100
AcDbPolyline
 90
       20
 70
     0
 43
0.0
 10
1278.406323764777
 20
2090.777954891134
 10
1278.297008846278
 20
2090.349069669637
 10
1278.191478822779
 20
2089.880688920639
 10
1278.090121124279
 20
2089.374258056141
 10
1277.993174169279
 20
2088.831356600143
 10
1277.90102538878
 20
2088.253690734644
 10
1277.81388339778
 20
2087.643056050147
 10
1277.73207602328
 20
2087.00135244415
 10
1277.65584168228
 20
2086.330584123652
 10
1277.58541879478
 20
2085.632844701655
 10
1277.521015975781
 20
2084.910317197658
 10
1277.462841842782
 20
2084.165236786161
 10
1277.411075208781
 20
2083.399950400164
 10
1277.365865085782
 20
2082.616827324167
 10
1277.327390287282
 20
2081.81831879917
 10
1277.295740220782
 20
2081.006905868674
 10
1277.271004293282
 20
2080.185136631177
 10
1277.253301713782
 20
2079.355559185181
 10
1277.242632482282
 20
2078.520766332683
 10
1277.239086006282
 20
2077.683358326687
  0
LWPOLYLINE
  5
C5C
330
1F
100
AcDbEntity
  8
0
  6
Continuous
 62
     7
100
AcDbPolyline
 90
       20
 70
     0
 43
0.0
 10
684.9542873861508
 20
1885.286359921957
 10
684.9507409101509
 20
1884.44895191596
 10
684.9400716786506
 20
1883.614159063463
 10
684.922369099151
 20
1882.784581617466
 10
684.897633171651
 20
1881.96281237997
 10
684.8659831051511
 20
1881.151399449473
 10
684.827508307151
 20
1880.352890924477
 10
684.7822981836514
 20
1879.569767848479
 10
684.7305315496517
 20
1878.804481462483
 10
684.672357416652
 20
1878.059401050985
 10
684.607954597652
 20
1877.336873546988
 10
684.5375317101527
 20
1876.639134124992
 10
684.4612973696533
 20
1875.968365803994
 10
684.3794899946536
 20
1875.326662198497
 10
684.2923480036532
 20
1874.716027513999
 10
684.2001992231537
 20
1874.138361648501
 10
684.1032522681542
 20
1873.595460192003
 10
684.0018945696545
 20
1873.089029328005
 10
683.8963645461552
 20
1872.620648578507
 10
683.7870496276553
 20
1872.191763357009
  0
LWPOLYLINE
  5
C5D
330
1F
100
AcDbEntity
  8
0
  6
Continuous
 62
     7
100
AcDbPolyline
 90
       20
 70
     0
 43
0.0
 10
1077.295185898582
 20
2277.627258433887
 10
1078.132593904578
 20
2277.630804910388
 10
1078.967386757075
 20
2277.641474141887
 10
1079.796964203072
 20
2277.659176721387
 10
1080.618733440568
 20
2277.683912648887
 10
1081.430146371066
 20
2277.715562715387
 10
1082.228654896062
 20
2277.754037513386
 10
1083.011777972059
 20
2277.799247636387
 10
1083.777064358056
 20
2277.851014270387
 10
1084.522144769553
 20
2277.909188403886
 10
1085.24467227355
 20
2277.973591222386
 10
1085.942411695547
 20
2278.044014110386
 10
1086.613180016044
 20
2278.120248450885
 10
1087.254883622042
 20
2278.202055825885
 10
1087.86551830654
 20
2278.289197816884
 10
1088.443184172037
 20
2278.381346597384
 10
1088.986085628035
 20
2278.478293552384
 10
1089.492516492533
 20
2278.579651250884
 10
1089.960897242032
 20
2278.685181274383
 10
1090.389782463529
 20
2278.794496192882
  0
LWPOLYLINE
  5
C5E
330
1F
100
AcDbEntity
  8
0
  6
Continuous
 62
     7
100
AcDbPolyline
 90
       20
 70
     0
 43
0.0
 10
1077.295185898582
 20
1685.342459814256
 10
1078.132593904578
 20
1685.338913337757
 10
1078.967386757075
 20
1685.328244106757
 10
1079.796964203072
 20
1685.310541527256
 10
1080.618733440568
 20
1685.285805599756
 10
1081.430146371066
 20
1685.254155533257
 10
1082.228654896062
 20
1685.215680734757
 10
1083.011777972059
 20
1685.170470611757
 10
1083.777064358056
 20
1685.118703977758
 10
1084.522144769553
 20
1685.060529844758
 10
1085.24467227355
 20
1684.996127025758
 10
1085.942411695547
 20
1684.925704138258
 10
1086.613180016044
 20
1684.849469797258
 10
1087.254883622042
 20
1684.767662422258
 10
1087.86551830654
 20
1684.680520431759
 10
1088.443184172037
 20
1684.58837165076
 10
1088.986085628035
 20
1684.49142469626
 10
1089.492516492533
 20
1684.39006699776
 10
1089.960897242032
 20
1684.28453697426
 10
1090.389782463529
 20
1684.175222055761
  0
LWPOLYLINE
  5
C5F
330
1F
100
AcDbEntity
  8
0
  6
Continuous
 62
     7
100
AcDbPolyline
 90
       20
 70
     0
 43
0.0
 10
836.0966908690459
 20
2107.376619115568
 10
837.7024399995396
 20
2107.444359794068
 10
839.3024968860334
 20
2107.647611633067
 10
840.8800679205272
 20
2107.983528509566
 10
842.4183147905212
 20
2108.449249401564
 10
843.9111429210154
 20
2109.044684901562
 10
845.3537541385097
 20
2109.766109719559
 10
846.7312174795036
 20
2110.605283513556
 10
848.0286019799985
 20
2111.553921237551
 10
849.2401408909934
 20
2112.609892025548
 10
850.3625857589889
 20
2113.768099680543
 10
851.3845968004855
 20
2115.015848413038
 10
852.2948193309815
 20
2116.340382829033
 10
853.0885445829783
 20
2117.737798825027
 10
853.7643569464756
 20
2119.202225342021
 10
854.3157595154737
 20
2120.717882052014
 10
854.7362553834716
 20
2122.268973723008
 10
854.9962657449707
 20
2123.660786882003
 10
855.1528769489698
 20
2125.069944992497
 10
855.2047776934699
 20
2126.484854951491
  0
LWPOLYLINE
  5
C60
330
1F
100
AcDbEntity
  8
0
  6
Continuous
 62
     7
100
AcDbPolyline
 90
       20
 70
     0
 43
0.0
 10
1106.896372412463
 20
1836.484863297151
 10
1106.964515422463
 20
1838.100372688146
 10
1107.169004057463
 20
1839.710174934139
 10
1107.506962393461
 20
1841.297312514133
 10
1107.975514505959
 20
1842.844872609626
 10
1108.574556086956
 20
1844.34673084412
 10
1109.300361846454
 20
1845.798074142115
 10
1110.144616936451
 20
1847.183867232109
 10
1111.099006508447
 20
1848.489074842104
 10
1112.161444400442
 20
1849.708049432599
 10
1113.326804612937
 20
1850.837363735594
 10
1114.582227443433
 20
1851.86561836409
 10
1115.914927695927
 20
1852.781369225088
 10
1117.321016167422
 20
1853.579937354583
 10
1118.794517491916
 20
1854.259847537581
 10
1120.31959173541
 20
1854.814558164079
 10
1121.880339358903
 20
1855.237542526077
 10
1123.272316430898
 20
1855.497791306075
 10
1124.681578849392
 20
1855.655207173075
 10
1126.096682523386
 20
1855.708538429075
  0
LWPOLYLINE
  5
C61
330
1F
100
AcDbEntity
  8
0
  6
Continuous
 62
     7
100
AcDbPolyline
 90
       17
 70
     0
 43
0.0
 10
1263.439120624338
 20
2107.274873986569
 10
1263.923378560835
 20
2107.246919408568
 10
1264.403046939834
 20
2107.171743050069
 10
1264.873536203332
 20
2107.050060168069
 10
1265.33034620083
 20
2106.88304795307
 10
1265.769125793328
 20
2106.672271028072
 10
1266.185762260326
 20
2106.419770851572
 10
1266.576202485825
 20
2106.127924159073
 10
1266.936780784823
 20
2105.799517467575
 10
1267.264040086822
 20
2105.437680021076
 10
1267.554851148821
 20
2105.045868888578
 10
1267.80647215632
 20
2104.627794459579
 10
1268.016518924819
 20
2104.187457695581
 10
1268.182935092818
 20
2103.729038372583
 10
1268.304200742818
 20
2103.256917432085
 10
1268.379123781317
 20
2102.775580123087
 10
1268.406988952817
 20
2102.289608553088
  0
LWPOLYLINE
  5
C62
330
1F
100
AcDbEntity
  8
0
  6
Continuous
 62
     7
100
AcDbPolyline
 90
       24
 70
     0
 43
0.0
 10
865.1218729969298
 20
2269.004343881422
 10
864.4451889154327
 20
2268.975584640422
 10
863.771626626936
 20
2268.901138438922
 10
863.1042930244382
 20
2268.781362905423
 10
862.4462577459406
 20
2268.616794480924
 10
861.8005680794438
 20
2268.408208026924
 10
861.170181905946
 20
2268.156527414425
 10
860.5580273029484
 20
2267.862974538926
 10
859.9669131394505
 20
2267.528860702427
 10
859.3995663284529
 20
2267.155735625929
 10
858.8586094734553
 20
2266.745298041931
 10
858.3465310689573
 20
2266.299485101432
 10
857.8656929489591
 20
2265.820323362434
 10
857.4183153864608
 20
2265.310047998436
 10
857.0064547414624
 20
2264.770983590939
 10
856.6320183629643
 20
2264.205603732941
 10
856.2967347859656
 20
2263.616560830943
 10
856.0021388289672
 20
2263.006537093946
 10
855.7495939489679
 20
2262.378363742948
 10
855.540262436469
 20
2261.734901799951
 10
855.375112866969
 20
2261.079161300454
 10
855.2549201009699
 20
2260.414182080956
 10
855.1802056784697
 20
2259.742974176459
 10
855.1513421294705
 20
2259.068637027461
  0
LWPOLYLINE
  5
C63
330
1F
100
AcDbEntity
  8
0
  6
Continuous
 62
     7
100
AcDbPolyline
 90
       24
 70
     0
 43
0.0
 10
703.5141008855765
 20
2107.429399028568
 10
702.839793539579
 20
2107.400535479068
 10
702.1685856345819
 20
2107.325821057069
 10
701.5035766125845
 20
2107.205613389569
 10
700.8478361130872
 20
2107.04047872107
 10
700.2044039730897
 20
2106.83114720857
 10
699.5762008195927
 20
2106.578602328571
 10
698.9661770825949
 20
2106.284006372072
 10
698.3771341805971
 20
2105.948715344074
 10
697.8117841245992
 20
2105.574278965576
 10
697.2726899151014
 20
2105.162425771077
 10
696.7624145511038
 20
2104.715048208579
 10
696.2832528116053
 20
2104.234210088581
 10
695.8374398711073
 20
2103.722131684583
 10
695.4270320896087
 20
2103.181174829585
 10
695.0538772111101
 20
2102.613828018087
 10
694.7197633746116
 20
2102.02271385509
 10
694.4262104991128
 20
2101.410551801092
 10
694.1745298866138
 20
2100.780173078094
 10
693.9659434321145
 20
2100.134475961097
 10
693.8013750081157
 20
2099.4764481336
 10
693.6815994741157
 20
2098.809107080102
 10
693.607153273116
 20
2098.135544791605
 10
693.578394032116
 20
2097.458868160608
  0
LWPOLYLINE
  5
C64
330
1F
100
AcDbEntity
  8
0
  6
Continuous
 62
     7
100
AcDbPolyline
 90
       24
 70
     0
 43
0.0
 10
1106.949718569464
 20
1704.037754671181
 10
1106.920855019963
 20
1703.363447325185
 10
1106.846140597964
 20
1702.692239420187
 10
1106.725947831964
 20
1702.02723039819
 10
1106.560798262465
 20
1701.371489898692
 10
1106.351466749965
 20
1700.728057758695
 10
1106.098921869967
 20
1700.099884407197
 10
1105.804325912967
 20
1699.4898606702
 10
1105.469042335469
 20
1698.900787966202
 10
1105.094605956971
 20
1698.335437910204
 10
1104.682745312472
 20
1697.796373503207
 10
1104.235367749974
 20
1697.286068336709
 10
1103.754529629976
 20
1696.80690659721
 10
1103.242451225478
 20
1696.361093656713
 10
1102.70149437048
 20
1695.950685875213
 10
1102.134147559483
 20
1695.577560798716
 10
1101.543033395985
 20
1695.243446962717
 10
1100.930878792987
 20
1694.949864284718
 10
1100.30049261899
 20
1694.69821347472
 10
1099.654802952992
 20
1694.48959721772
 10
1098.996767674495
 20
1694.325028793721
 10
1098.329434071498
 20
1694.20525325972
 10
1097.655871783501
 20
1694.130807058722
 10
1096.979187702003
 20
1694.102047817722
  0
LWPOLYLINE
  5
C65
330
1F
100
AcDbEntity
  8
0
  6
Continuous
 62
     7
100
AcDbPolyline
 90
       24
 70
     0
 43
0.0
 10
865.1218729969298
 20
1693.965374367222
 10
864.4451889154327
 20
1693.994133608222
 10
863.771626626936
 20
1694.068579809221
 10
863.1042930244382
 20
1694.18835534322
 10
862.4462577459406
 20
1694.352923767221
 10
861.8005680794438
 20
1694.561510221719
 10
861.170181905946
 20
1694.813190834218
 10
860.5580273029484
 20
1695.106743709717
 10
859.9669131394505
 20
1695.440857546217
 10
859.3995663284529
 20
1695.813982622215
 10
858.8586094734553
 20
1696.224420206213
 10
858.3465310689573
 20
1696.670233146711
 10
857.8656929489591
 20
1697.149394886209
 10
857.4183153864608
 20
1697.659670250208
 10
857.0064547414624
 20
1698.198734657705
 10
856.6320183629643
 20
1698.764114515703
 10
856.2967347859656
 20
1699.3531574177
 10
856.0021388289672
 20
1699.963181154697
 10
855.7495939489679
 20
1700.591354505695
 10
855.540262436469
 20
1701.234816448693
 10
855.375112866969
 20
1701.89055694769
 10
855.2549201009699
 20
1702.555536167187
 10
855.1802056784697
 20
1703.226744072185
 10
855.1513421294705
 20
1703.901081220682
  0
LWPOLYLINE
  5
C66
330
1F
100
AcDbEntity
  8
0
  6
Continuous
 62
     7
100
AcDbPolyline
 90
       24
 70
     0
 43
0.0
 10
1106.949718569464
 20
2258.931963576962
 10
1106.920855019963
 20
2259.606270923459
 10
1106.846140597964
 20
2260.277478828456
 10
1106.725947831964
 20
2260.942487849954
 10
1106.560798262465
 20
2261.598228349452
 10
1106.351466749965
 20
2262.241660489949
 10
1106.098921869967
 20
2262.869833841447
 10
1105.804325912967
 20
2263.479857577944
 10
1105.469042335469
 20
2264.068930282442
 10
1105.094605956971
 20
2264.634280337939
 10
1104.682745312472
 20
2265.173344745437
 10
1104.235367749974
 20
2265.683649911935
 10
1103.754529629976
 20
2266.162811650933
 10
1103.242451225478
 20
2266.608624591931
 10
1102.70149437048
 20
2267.019032373429
 10
1102.134147559483
 20
2267.392157449428
 10
1101.543033395985
 20
2267.726271285927
 10
1100.930878792987
 20
2268.019853963926
 10
1100.30049261899
 20
2268.271504773925
 10
1099.654802952992
 20
2268.480121030924
 10
1098.996767674495
 20
2268.644689454923
 10
1098.329434071498
 20
2268.764464988423
 10
1097.655871783501
 20
2268.838911189923
 10
1096.979187702003
 20
2268.867670430922
  0
LWPOLYLINE
  5
C67
330
1F
100
AcDbEntity
  8
0
  6
Continuous
 62
     7
100
AcDbPolyline
 90
       17
 70
     0
 43
0.0
 10
1263.439120624338
 20
1855.694844261575
 10
1263.923378560835
 20
1855.722798840075
 10
1264.403046939834
 20
1855.797975198575
 10
1264.873536203332
 20
1855.919658080574
 10
1265.33034620083
 20
1856.086670295574
 10
1265.769125793328
 20
1856.297447220573
 10
1266.185762260326
 20
1856.549947397072
 10
1266.576202485825
 20
1856.841794089571
 10
1266.936780784823
 20
1857.170200781069
 10
1267.264040086822
 20
1857.532038227567
 10
1267.554851148821
 20
1857.923849360066
 10
1267.80647215632
 20
1858.341923789065
 10
1268.016518924819
 20
1858.782260553062
 10
1268.182935092818
 20
1859.240679876061
 10
1268.304200742818
 20
1859.712800816559
 10
1268.379123781317
 20
1860.194138125557
 10
1268.406988952817
 20
1860.680109695556
  0
LWPOLYLINE
  5
C68
330
1F
100
AcDbEntity
  8
0
  6
Continuous
 62
     7
100
AcDbPolyline
 90
       24
 70
     0
 43
0.0
 10
703.5141008855765
 20
1855.540319220075
 10
702.839793539579
 20
1855.569182769576
 10
702.1685856345819
 20
1855.643897191575
 10
701.5035766125845
 20
1855.764104859075
 10
700.8478361130872
 20
1855.929239527075
 10
700.2044039730897
 20
1856.138571039573
 10
699.5762008195927
 20
1856.391115919572
 10
698.9661770825949
 20
1856.685711876571
 10
698.3771341805971
 20
1857.02100290457
 10
697.8117841245992
 20
1857.395439283068
 10
697.2726899151014
 20
1857.807292477067
 10
696.7624145511038
 20
1858.254670039565
 10
696.2832528116053
 20
1858.735508159563
 10
695.8374398711073
 20
1859.24758656406
 10
695.4270320896087
 20
1859.788543419059
 10
695.0538772111101
 20
1860.355890230056
 10
694.7197633746116
 20
1860.947004393554
 10
694.4262104991128
 20
1861.559166447052
 10
694.1745298866138
 20
1862.189545170549
 10
693.9659434321145
 20
1862.835242287046
 10
693.8013750081157
 20
1863.493270115044
 10
693.6815994741157
 20
1864.160611168541
 10
693.607153273116
 20
1864.834173456538
 10
693.578394032116
 20
1865.510850087535
  0
LWPOLYLINE
  5
C69
330
1F
100
AcDbEntity
  8
0
  6
Continuous
 62
     7
100
AcDbPolyline
 90
       18
 70
     0
 43
0.0
 10
1274.156393382795
 20
1856.797261969071
 10
1274.138869617294
 20
1856.334819332572
 10
1274.078460309795
 20
1855.877010957574
 10
1273.975701902295
 20
1855.427711145076
 10
1273.831488464296
 20
1854.990689889578
 10
1273.646982286297
 20
1854.569657580079
 10
1273.423792694297
 20
1854.168145791581
 10
1273.163767431298
 20
1853.789551989083
 10
1272.869111869799
 20
1853.437079922084
 10
1272.542329404801
 20
1853.113694922085
 10
1272.186132047802
 20
1852.822123901087
 10
1271.803559635304
 20
1852.564825550588
 10
1271.397860620306
 20
1852.343975440589
 10
1270.972402666308
 20
1852.161436216089
 10
1270.530821655309
 20
1852.01874269659
 10
1270.076813075811
 20
1851.917101876091
 10
1269.614251230313
 20
1851.857378021591
 10
1269.146980617315
 20
1851.84007777359
  0
LWPOLYLINE
  5
C6A
330
1F
100
AcDbEntity
  8
0
  6
Continuous
 62
     7
100
AcDbPolyline
 90
       18
 70
     0
 43
0.0
 10
1274.156393382795
 20
2106.172456279073
 10
1274.138869617294
 20
2106.634898915571
 10
1274.078460309795
 20
2107.09270729107
 10
1273.975701902295
 20
2107.542007103567
 10
1273.831488464296
 20
2107.979028359066
 10
1273.646982286297
 20
2108.400060668564
 10
1273.423792694297
 20
2108.801572457063
 10
1273.163767431298
 20
2109.18016625956
 10
1272.869111869799
 20
2109.532638326059
 10
1272.542329404801
 20
2109.856023326558
 10
1272.186132047802
 20
2110.147594347558
 10
1271.803559635304
 20
2110.404892698056
 10
1271.397860620306
 20
2110.625742808055
 10
1270.972402666308
 20
2110.808282032554
 10
1270.530821655309
 20
2110.950975552054
 10
1270.076813075811
 20
2111.052616372553
 10
1269.614251230313
 20
2111.112340226553
 10
1269.146980617315
 20
2111.129640475053
  0
LWPOLYLINE
  5
C6B
330
1F
100
AcDbEntity
  8
0
  6
Continuous
 62
     7
100
AcDbPolyline
 90
       11
 70
     0
 43
0.0
 10
690.2093904976302
 20
2113.924219146042
 10
690.9219938281269
 20
2114.33200432354
 10
691.6562038426239
 20
2114.700197115538
 10
692.4098747736209
 20
2115.027709737538
 10
693.1807118421177
 20
2115.313558712537
 10
693.9664500716146
 20
2115.556894674536
 10
694.764705277112
 20
2115.756972566035
 10
695.5731230741083
 20
2115.913226142534
 10
696.3892596726048
 20
2116.025163665534
 10
697.2107308866018
 20
2116.092457309034
 10
698.0350333215986
 20
2116.114913359033
  0
LWPOLYLINE
  5
C6C
330
1F
100
AcDbEntity
  8
0
  6
Continuous
 62
     7
100
AcDbPolyline
 90
       11
 70
     0
 43
0.0
 10
690.2093904976302
 20
1849.045499102102
 10
690.9219938281269
 20
1848.637713925103
 10
691.6562038426239
 20
1848.269521133105
 10
692.4098747736209
 20
1847.942008511106
 10
693.1807118421177
 20
1847.656159536107
 10
693.9664500716146
 20
1847.412823573608
 10
694.764705277112
 20
1847.212745682609
 10
695.5731230741083
 20
1847.05649210611
 10
696.3892596726048
 20
1846.94455458311
 10
697.2107308866018
 20
1846.877260939111
 10
698.0350333215986
 20
1846.854804889111
  0
LWPOLYLINE
  5
C6D
330
1F
100
AcDbEntity
  8
0
  6
Continuous
 62
     7
100
AcDbPolyline
 90
       25
 70
     0
 43
0.0
 10
698.0350333215986
 20
1851.84007777359
 10
697.3765510086016
 20
1851.858555213591
 10
696.7214065556034
 20
1851.91956056759
 10
696.0723715786064
 20
1852.02282561459
 10
695.4321878916087
 20
1852.167918221089
 10
694.8035973076114
 20
1852.354227439589
 10
694.1892522341143
 20
1852.580948607087
 10
693.5917454721164
 20
1852.847142950587
 10
693.0136102201188
 20
1853.151663080585
 10
692.4573200706211
 20
1853.493242399084
 10
691.9251698021228
 20
1853.870405689582
 10
691.4194541936247
 20
1854.28157343058
 10
690.9423190121267
 20
1854.72500218558
 10
690.4957908156287
 20
1855.198814408077
 10
690.0817173486305
 20
1855.700998441075
 10
689.7019165521317
 20
1856.229438320573
 10
689.3579381471329
 20
1856.78188397107
 10
689.0512722496344
 20
1857.356003360068
 10
688.7832003596352
 20
1857.949360148066
 10
688.5548549656362
 20
1858.559443489564
 10
688.3672195436372
 20
1859.183675483561
 10
688.2210987571377
 20
1859.819403723559
 10
688.1170588496382
 20
1860.463938550055
 10
688.0556064611385
 20
1861.114553050054
 10
688.0369800096385
 20
1861.768490509051
  0
LWPOLYLINE
  5
C6E
330
1F
100
AcDbEntity
  8
0
  6
Continuous
 62
     7
100
AcDbPolyline
 90
       25
 70
     0
 43
0.0
 10
1110.741468046948
 20
2264.546512498939
 10
1110.722990606948
 20
2265.204994811937
 10
1110.661985252949
 20
2265.860139264934
 10
1110.558720205949
 20
2266.509174241931
 10
1110.413627599449
 20
2267.149357928929
 10
1110.22731838095
 20
2267.777948512926
 10
1110.000597213451
 20
2268.392293586424
 10
1109.734402869952
 20
2268.989800347922
 10
1109.429882739454
 20
2269.56793559992
 10
1109.088303421455
 20
2270.124225749918
 10
1108.711140130456
 20
2270.656376018415
 10
1108.299972389958
 20
2271.162091626914
 10
1107.85654363496
 20
2271.639226808411
 10
1107.382731412462
 20
2272.085755004909
 10
1106.880547378964
 20
2272.499828471907
 10
1106.352107499966
 20
2272.879629268406
 10
1105.799661849468
 20
2273.223607673405
 10
1105.22554246047
 20
2273.530273570903
 10
1104.632185672473
 20
2273.798345460903
 10
1104.022102330975
 20
2274.026690854902
 10
1103.397870336477
 20
2274.214326276401
 10
1102.76214209648
 20
2274.3604470634
 10
1102.117607270483
 20
2274.4644869709
 10
1101.466992770485
 20
2274.5259393594
 10
1100.813055311488
 20
2274.5445658109
  0
LWPOLYLINE
  5
C6F
330
1F
100
AcDbEntity
  8
0
  6
Continuous
 62
     7
100
AcDbPolyline
 90
       11
 70
     0
 43
0.0
 10
1113.536046718437
 20
1690.597562925735
 10
1113.943831895435
 20
1691.310166256233
 10
1114.312024687434
 20
1692.04437627073
 10
1114.639537309432
 20
1692.798047201226
 10
1114.925386284432
 20
1693.568884270224
 10
1115.16872224693
 20
1694.354622499721
 10
1115.368800137929
 20
1695.152877704717
 10
1115.525053714428
 20
1695.961295501714
 10
1115.636991237428
 20
1696.777432100711
 10
1115.704284881428
 20
1697.598903314708
 10
1115.726740930928
 20
1698.423205749704
  0
LWPOLYLINE
  5
C70
330
1F
100
AcDbEntity
  8
0
  6
Continuous
 62
     7
100
AcDbPolyline
 90
       25
 70
     0
 43
0.0
 10
1110.741468046948
 20
1698.423205749704
 10
1110.722990606948
 20
1697.764723436706
 10
1110.661985252949
 20
1697.10957898371
 10
1110.558720205949
 20
1696.460544006712
 10
1110.413627599449
 20
1695.820360319215
 10
1110.22731838095
 20
1695.191769735718
 10
1110.000597213451
 20
1694.57742466172
 10
1109.734402869952
 20
1693.979917900222
 10
1109.429882739454
 20
1693.401782648224
 10
1109.088303421455
 20
1692.845492498726
 10
1108.711140130456
 20
1692.313342230229
 10
1108.299972389958
 20
1691.80762662173
 10
1107.85654363496
 20
1691.330491440232
 10
1107.382731412462
 20
1690.883963243734
 10
1106.880547378964
 20
1690.469889776735
 10
1106.352107499966
 20
1690.090088980237
 10
1105.799661849468
 20
1689.746110575239
 10
1105.22554246047
 20
1689.43944467774
 10
1104.632185672473
 20
1689.171372787741
 10
1104.022102330975
 20
1688.943027393742
 10
1103.397870336477
 20
1688.755391971743
 10
1102.76214209648
 20
1688.609271185243
 10
1102.117607270483
 20
1688.505231277744
 10
1101.466992770485
 20
1688.443778888744
 10
1100.813055311488
 20
1688.425152437744
  0
LWPOLYLINE
  5
C71
330
1F
100
AcDbEntity
  8
0
  6
Continuous
 62
     7
100
AcDbPolyline
 90
       25
 70
     0
 43
0.0
 10
861.3803180809452
 20
1688.425152437744
 10
860.7263806219482
 20
1688.443778888744
 10
860.0757661219502
 20
1688.505231277744
 10
859.431231295953
 20
1688.609271185243
 10
858.7955030559554
 20
1688.755391971743
 10
858.1712710614577
 20
1688.943027393742
 10
857.5611877199606
 20
1689.171372787741
 10
856.9678309319631
 20
1689.43944467774
 10
856.3937115429651
 20
1689.746110575239
 10
855.8412658924669
 20
1690.090088980237
 10
855.3128260134697
 20
1690.469889776735
 10
854.8106419799713
 20
1690.883963243734
 10
854.3368297574732
 20
1691.330491440232
 10
853.8934010024748
 20
1691.80762662173
 10
853.4822332619767
 20
1692.313342230229
 10
853.1050699709783
 20
1692.845492498726
 10
852.7634906529795
 20
1693.401782648224
 10
852.4589705224805
 20
1693.979917900222
 10
852.1927761789818
 20
1694.57742466172
 10
851.9660550114834
 20
1695.191769735718
 10
851.7797457929835
 20
1695.820360319215
 10
851.6346531864845
 20
1696.460544006712
 10
851.5313881394843
 20
1697.10957898371
 10
851.4703827854848
 20
1697.764723436706
 10
851.4519053454849
 20
1698.423205749704
  0
LWPOLYLINE
  5
C72
330
1F
100
AcDbEntity
  8
0
  6
Continuous
 62
     7
100
AcDbPolyline
 90
       11
 70
     0
 43
0.0
 10
846.4666324615048
 20
1698.423205749704
 10
846.4890885110046
 20
1697.598903314708
 10
846.5563821550047
 20
1696.777432100711
 10
846.6683196780043
 20
1695.961295501714
 10
846.8245732545035
 20
1695.152877704717
 10
847.0246511455027
 20
1694.354622499721
 10
847.2679871080015
 20
1693.568884270224
 10
847.5538360830008
 20
1692.798047201226
 10
847.881348704999
 20
1692.04437627073
 10
848.2495414969974
 20
1691.310166256233
 10
848.6573266739958
 20
1690.597562925735
  0
LWPOLYLINE
  5
C73
330
1F
100
AcDbEntity
  8
0
  6
Continuous
 62
     7
100
AcDbPolyline
 90
       11
 70
     0
 43
0.0
 10
846.4666324615048
 20
2264.546512498939
 10
846.4890885110046
 20
2265.370814933436
 10
846.5563821550047
 20
2266.192286147933
 10
846.6683196780043
 20
2267.00842274643
 10
846.8245732545035
 20
2267.816840543426
 10
847.0246511455027
 20
2268.615095748923
 10
847.2679871080015
 20
2269.40083397842
 10
847.5538360830008
 20
2270.171671046917
 10
847.881348704999
 20
2270.925341977914
 10
848.2495414969974
 20
2271.659551992412
 10
848.6573266739958
 20
2272.372155322908
  0
LWPOLYLINE
  5
C74
330
1F
100
AcDbEntity
  8
0
  6
Continuous
 62
     7
100
AcDbPolyline
 90
       25
 70
     0
 43
0.0
 10
861.3803180809452
 20
2274.5445658109
 10
860.7263806219482
 20
2274.5259393594
 10
860.0757661219502
 20
2274.4644869709
 10
859.431231295953
 20
2274.3604470634
 10
858.7955030559554
 20
2274.214326276401
 10
858.1712710614577
 20
2274.026690854902
 10
857.5611877199606
 20
2273.798345460903
 10
856.9678309319631
 20
2273.530273570903
 10
856.3937115429651
 20
2273.223607673405
 10
855.8412658924669
 20
2272.879629268406
 10
855.3128260134697
 20
2272.499828471907
 10
854.8106419799713
 20
2272.085755004909
 10
854.3368297574732
 20
2271.639226808411
 10
853.8934010024748
 20
2271.162091626914
 10
853.4822332619767
 20
2270.656376018415
 10
853.1050699709783
 20
2270.124225749918
 10
852.7634906529795
 20
2269.56793559992
 10
852.4589705224805
 20
2268.989800347922
 10
852.1927761789818
 20
2268.392293586424
 10
851.9660550114834
 20
2267.777948512926
 10
851.7797457929835
 20
2267.149357928929
 10
851.6346531864845
 20
2266.509174241931
 10
851.5313881394843
 20
2265.860139264934
 10
851.4703827854848
 20
2265.204994811937
 10
851.4519053454849
 20
2264.546512498939
  0
LWPOLYLINE
  5
C75
330
1F
100
AcDbEntity
  8
0
  6
Continuous
 62
     7
100
AcDbPolyline
 90
       13
 70
     0
 43
0.0
 10
1274.156393382795
 20
1856.797261969071
 10
1274.157138441294
 20
1856.783873276071
 10
1274.148465965294
 20
1855.893551246075
 10
1274.114193294295
 20
1855.540110604076
 10
1273.920329187296
 20
1854.50354112758
 10
1273.626955125797
 20
1853.504492775584
 10
1273.225488040798
 20
1852.365224496588
 10
1272.8326338273
 20
1851.214035288593
 10
1272.562952611801
 20
1850.259854332597
 10
1272.331716392302
 20
1849.250688092101
 10
1272.206755254802
 20
1848.601653115104
 10
1272.091509673802
 20
1847.935601012106
 10
1271.983982894989
 20
1847.262575165324
  0
LWPOLYLINE
  5
C76
330
1F
100
AcDbEntity
  8
0
  6
Continuous
 62
     7
100
AcDbPolyline
 90
       13
 70
     0
 43
0.0
 10
1274.156393382795
 20
2106.172456279073
 10
1274.157138441294
 20
2106.185844972573
 10
1274.148465965294
 20
2107.07616700207
 10
1274.114193294295
 20
2107.429607644568
 10
1273.920329187296
 20
2108.466177120564
 10
1273.626955125797
 20
2109.46522547306
 10
1273.225488040798
 20
2110.604493752055
 10
1272.8326338273
 20
2111.75568296005
 10
1272.562952611801
 20
2112.709863916047
 10
1272.331716392302
 20
2113.719030156543
 10
1272.206755254802
 20
2114.36806513354
 10
1272.091509673802
 20
2115.034117236537
 10
1271.983982894989
 20
2115.70714308282
  0
LWPOLYLINE
  5
C77
330
1F
100
AcDbEntity
  8
0
  6
Continuous
 62
     7
100
AcDbPolyline
 90
       12
 70
     0
 43
0.0
 10
861.3803180809452
 20
2274.5445658109
 10
861.3618257399451
 20
2274.545549287399
 10
860.0476550814503
 20
2274.563758506399
 10
858.7305786964555
 20
2274.4903851889
 10
857.414403831461
 20
2274.3371714494
 10
856.1029228324662
 20
2274.115829600901
 10
854.6639847514718
 20
2273.812590970903
 10
853.2107937094777
 20
2273.468642368404
 10
851.7330157514841
 20
2273.104666604906
 10
850.7213163134877
 20
2272.858290805907
 10
849.6932852024918
 20
2272.613136901907
 10
848.6573266739958
 20
2272.372155322908
  0
LWPOLYLINE
  5
C78
330
1F
100
AcDbEntity
  8
0
  6
Continuous
 62
     7
100
AcDbPolyline
 90
       12
 70
     0
 43
0.0
 10
861.3803180809452
 20
1688.425152437744
 10
861.3618257399451
 20
1688.424168960744
 10
860.0476550814503
 20
1688.405959741744
 10
858.7305786964555
 20
1688.479333059744
 10
857.414403831461
 20
1688.632546798743
 10
856.1029228324662
 20
1688.853888647243
 10
854.6639847514718
 20
1689.157127277742
 10
853.2107937094777
 20
1689.50107588024
 10
851.7330157514841
 20
1689.865051643738
 10
850.7213163134877
 20
1690.111427442737
 10
849.6932852024918
 20
1690.356581346736
 10
848.6573266739958
 20
1690.597562925735
  0
LWPOLYLINE
  5
C79
330
1F
100
AcDbEntity
  8
0
  6
Continuous
 62
     7
100
AcDbPolyline
 90
       12
 70
     0
 43
0.0
 10
690.2093904976302
 20
1849.045499102102
 10
689.9684089186305
 20
1850.081457630598
 10
689.7232550146316
 20
1851.109488741593
 10
689.4768792156326
 20
1852.121188179589
 10
689.1129034521343
 20
1853.598966137584
 10
688.7689548496353
 20
1855.052157179578
 10
688.4657162191368
 20
1856.491095260572
 10
688.2443743711376
 20
1857.802576259567
 10
688.0911606316388
 20
1859.118751124561
 10
688.0177873136383
 20
1860.435827509557
 10
688.0359965326386
 20
1861.749998168051
 10
688.0369800096385
 20
1861.768490509051
  0
LWPOLYLINE
  5
C7A
330
1F
100
AcDbEntity
  8
0
  6
Continuous
 62
     7
100
AcDbPolyline
 90
       14
 70
     0
 43
0.0
 10
1113.536046718437
 20
1690.597562925735
 10
1112.76599941144
 20
1690.419345037736
 10
1111.991794680443
 20
1690.236567394737
 10
1111.225174640446
 20
1690.052031414237
 10
1110.460357640949
 20
1689.865051643738
 10
1109.353857015454
 20
1689.59262861474
 10
1108.260722731458
 20
1689.32774557324
 10
1107.173355196462
 20
1689.078031914241
 10
1106.090450559967
 20
1688.853888647243
 10
1104.788588260472
 20
1688.632129566243
 10
1103.480840002477
 20
1688.477604524745
 10
1102.158525858982
 20
1688.404380218744
 10
1100.831547652488
 20
1688.424168960744
 10
1100.813055311488
 20
1688.425152437744
  0
LWPOLYLINE
  5
C7B
330
1F
100
AcDbEntity
  8
0
  6
Continuous
 62
     7
100
AcDbPolyline
 90
       12
 70
     0
 43
0.0
 10
1113.536046718437
 20
2272.372155322908
 10
1112.500088189941
 20
2272.613136901907
 10
1111.472057078946
 20
2272.858290805907
 10
1110.460357640949
 20
2273.104666604906
 10
1108.982579682955
 20
2273.468642368404
 10
1107.529388640961
 20
2273.812590970903
 10
1106.090450559967
 20
2274.115829600901
 10
1104.778969560972
 20
2274.3371714494
 10
1103.462794695978
 20
2274.4903851889
 10
1102.145718310982
 20
2274.563758506399
 10
1100.831547652488
 20
2274.545549287399
 10
1100.813055311488
 20
2274.5445658109
  0
LWPOLYLINE
  5
C7C
330
1F
100
AcDbEntity
  8
0
  6
Continuous
 62
     7
100
AcDbPolyline
 90
        3
 70
     0
 43
0.0
 10
1268.406988952817
 20
1860.680109695556
 10
1268.396558139817
 20
1860.687977508555
 10
1268.386186931818
 20
1860.697521702555
  0
LWPOLYLINE
  5
C7D
330
1F
100
AcDbEntity
  8
0
  6
Continuous
 62
     7
100
AcDbPolyline
 90
       14
 70
     0
 43
0.0
 10
1274.964691970792
 20
1847.262575165608
 10
1274.958016250791
 20
1848.266540900605
 10
1274.938346717791
 20
1849.260597364101
 10
1274.906309221291
 20
1850.225954190596
 10
1274.862440202791
 20
1851.151152388093
 10
1274.807544324792
 20
1852.03263057859
 10
1274.742873285292
 20
1852.857752577586
 10
1274.664105747292
 20
1853.669672147583
 10
1274.576576326293
 20
1854.41213740508
 10
1274.482102964293
 20
1855.082257525077
 10
1274.363340709794
 20
1855.787037746075
 10
1274.239184234794
 20
1856.416298882072
 10
1274.158211324795
 20
1856.78917063857
 10
1274.156393382795
 20
1856.797261969071
  0
LWPOLYLINE
  5
C7E
330
1F
100
AcDbEntity
  8
0
  6
Continuous
 62
     7
100
AcDbPolyline
 90
       14
 70
     0
 43
0.0
 10
1274.964691970792
 20
2115.707143083035
 10
1274.958016250791
 20
2114.703177347539
 10
1274.938346717791
 20
2113.709120884543
 10
1274.906309221291
 20
2112.743764057547
 10
1274.862440202791
 20
2111.81856586005
 10
1274.807544324792
 20
2110.937087670054
 10
1274.742873285292
 20
2110.111965671058
 10
1274.664105747292
 20
2109.300046101061
 10
1274.576576326293
 20
2108.557580843564
 10
1274.482102964293
 20
2107.887460723566
 10
1274.363340709794
 20
2107.182680502569
 10
1274.239184234794
 20
2106.553419366571
 10
1274.158211324795
 20
2106.180547610073
 10
1274.156393382795
 20
2106.172456279073
  0
LWPOLYLINE
  5
C7F
330
1F
100
AcDbEntity
  8
0
  6
Continuous
 62
     7
100
AcDbPolyline
 90
        3
 70
     0
 43
0.0
 10
1268.406988952817
 20
2102.289608553088
 10
1268.396558139817
 20
2102.281740740089
 10
1268.386186931818
 20
2102.272196546089
  0
LWPOLYLINE
  5
C80
330
1F
100
AcDbEntity
  8
0
  6
Continuous
 62
     7
100
AcDbPolyline
 90
       13
 70
     0
 43
0.0
 10
848.6573266739958
 20
2275.352864398896
 10
849.673958396492
 20
2275.347499980896
 10
850.686119770988
 20
2275.331823959397
 10
851.6838717219837
 20
2275.306640996897
 10
852.6573198794797
 20
2275.272636546897
 10
853.8848924394749
 20
2275.216071738897
 10
855.0673740859709
 20
2275.147168769897
 10
856.1997058744657
 20
2275.067834987397
 10
857.2768437619613
 20
2274.979947938898
 10
858.7104174254557
 20
2274.844228162399
 10
860.0668030734507
 20
2274.698286189899
 10
861.368054425445
 20
2274.5460559269
 10
861.3803180809452
 20
2274.5445658109
  0
LWPOLYLINE
  5
C81
330
1F
100
AcDbEntity
  8
0
  6
Continuous
 62
     7
100
AcDbPolyline
 90
       13
 70
     0
 43
0.0
 10
1100.813055311488
 20
2274.5445658109
 10
1100.825318966988
 20
2274.5460559269
 10
1102.126570318982
 20
2274.698286189899
 10
1103.482955966977
 20
2274.844228162399
 10
1104.916529630471
 20
2274.979947938898
 10
1105.993667517967
 20
2275.067834987397
 10
1107.125999306462
 20
2275.147168769897
 10
1108.308480952957
 20
2275.216071738897
 10
1109.536053512953
 20
2275.272636546897
 10
1110.509501670449
 20
2275.306640996897
 10
1111.507253621945
 20
2275.331823959397
 10
1112.519414995941
 20
2275.347499980896
 10
1113.536046718437
 20
2275.352864398896
  0
LWPOLYLINE
  5
C82
330
1F
100
AcDbEntity
  8
0
  6
Continuous
 62
     7
100
AcDbPolyline
 90
       13
 70
     0
 43
0.0
 10
1100.813055311488
 20
1688.425152437744
 10
1100.825318966988
 20
1688.423662321245
 10
1102.126570318982
 20
1688.271432058744
 10
1103.482955966977
 20
1688.125490085745
 10
1104.916529630471
 20
1687.989770309745
 10
1105.993667517967
 20
1687.901883261246
 10
1107.125999306462
 20
1687.822549478746
 10
1108.308480952957
 20
1687.753646509247
 10
1109.536053512953
 20
1687.697081701747
 10
1110.509501670449
 20
1687.663077251747
 10
1111.507253621945
 20
1687.637894289247
 10
1112.519414995941
 20
1687.622218267747
 10
1113.536046718437
 20
1687.616853849748
  0
LWPOLYLINE
  5
C83
330
1F
100
AcDbEntity
  8
0
  6
Continuous
 62
     7
100
AcDbPolyline
 90
       13
 70
     0
 43
0.0
 10
848.6573266739958
 20
1687.616853849748
 10
849.673958396492
 20
1687.622218267747
 10
850.686119770988
 20
1687.637894289247
 10
851.6838717219837
 20
1687.663077251747
 10
852.6573198794797
 20
1687.697081701747
 10
853.8848924394749
 20
1687.753646509247
 10
855.0673740859709
 20
1687.822549478746
 10
856.1997058744657
 20
1687.901883261246
 10
857.2768437619613
 20
1687.989770309745
 10
858.7104174254557
 20
1688.125490085745
 10
860.0668030734507
 20
1688.271432058744
 10
861.368054425445
 20
1688.423662321245
 10
861.3803180809452
 20
1688.425152437744
  0
LWPOLYLINE
  5
C84
330
1F
100
AcDbEntity
  8
0
  6
Continuous
 62
     2
100
AcDbPolyline
 90
        5
 70
     0
 43
0.0
 10
1266.140730951596
 20
2272.483496799268
 10
1266.135217521827
 20
2272.488026752407
 10
1265.928061578827
 20
2272.658347024908
 10
1265.733959052828
 20
2272.819577588907
 10
1265.40896472733
 20
2273.103236093406
  0
LWPOLYLINE
  5
C85
330
1F
100
AcDbEntity
  8
0
  6
Continuous
 62
     2
100
AcDbPolyline
 90
        5
 70
     0
 43
0.0
 10
1266.140730951596
 20
1690.486221448876
 10
1266.135217521827
 20
1690.481691496236
 10
1265.928061578827
 20
1690.311371223737
 10
1265.733959052828
 20
1690.150140659737
 10
1265.40896472733
 20
1689.866482155238
  0
LWPOLYLINE
  5
C86
330
1F
100
AcDbEntity
  8
0
  6
Continuous
 62
     2
100
AcDbPolyline
 90
        5
 70
     0
 43
0.0
 10
690.0980490211307
 20
1696.440814869213
 10
690.09351906813
 20
1696.446328298712
 10
689.9231987956307
 20
1696.653484241711
 10
689.7619682316315
 20
1696.847586767211
 10
689.4783097271331
 20
1697.172581093209
  0
LWPOLYLINE
  5
C87
330
1F
100
AcDbEntity
  8
0
  6
Continuous
 62
     2
100
AcDbPolyline
 90
        5
 70
     0
 43
0.0
 10
696.7844086651032
 20
2273.103236093406
 10
696.4594143396046
 20
2272.819577588907
 10
696.2653118136056
 20
2272.658347024908
 10
696.0581558706065
 20
2272.488026752407
 10
696.052642440837
 20
2272.483496799268
  0
LWPOLYLINE
  5
C88
330
1F
100
AcDbEntity
  8
0
  6
Continuous
 62
     2
100
AcDbPolyline
 90
        5
 70
     0
 43
0.0
 10
696.7844086651032
 20
1689.866482155238
 10
696.4594143396046
 20
1690.150140659737
 10
696.2653118136056
 20
1690.311371223737
 10
696.0581558706065
 20
1690.481691496236
 10
696.052642440837
 20
1690.486221448876
  0
LWPOLYLINE
  5
C89
330
1F
100
AcDbEntity
  8
0
  6
Continuous
 62
     2
100
AcDbPolyline
 90
        5
 70
     0
 43
0.0
 10
690.0980490211307
 20
2266.528903379432
 10
690.09351906813
 20
2266.523389949432
 10
689.9231987956307
 20
2266.316234006933
 10
689.7619682316315
 20
2266.122131480933
 10
689.4783097271331
 20
2265.797137155435
  0
LWPOLYLINE
  5
C8A
330
1F
100
AcDbEntity
  8
0
  6
Continuous
 62
     2
100
AcDbPolyline
 90
        5
 70
     0
 43
0.0
 10
1272.7150636653
 20
2265.797137155435
 10
1272.431405160802
 20
2266.122131480933
 10
1272.270174596802
 20
2266.316234006933
 10
1272.099854324303
 20
2266.523389949432
 10
1272.095324371663
 20
2266.528903379202
  0
LWPOLYLINE
  5
C8B
330
1F
100
AcDbEntity
  8
0
  6
Continuous
 62
     2
100
AcDbPolyline
 90
        5
 70
     0
 43
0.0
 10
1272.7150636653
 20
1697.172581093209
 10
1272.431405160802
 20
1696.847586767211
 10
1272.270174596802
 20
1696.653484241711
 10
1272.099854324303
 20
1696.446328298712
 10
1272.095324371663
 20
1696.440814868942
  0
LWPOLYLINE
  5
C8C
330
1F
100
AcDbEntity
  8
0
  6
Continuous
 62
     2
100
AcDbPolyline
 90
       10
 70
     0
 43
0.0
 10
696.052642440837
 20
1690.486221448876
 10
696.0360127451065
 20
1690.473078625235
 10
695.9569173816069
 20
1690.410463945736
 10
695.8375292781072
 20
1690.315573351236
 10
695.6787127021078
 20
1690.188585655737
 10
695.4882460596084
 20
1690.035252706738
 10
695.2656227116092
 20
1689.854620830738
 10
695.0224059586105
 20
1689.655690328739
 10
694.7393136981116
 20
1689.42201031924
 10
694.4483536244868
 20
1689.179657833211
  0
LWPOLYLINE
  5
C8D
330
1F
100
AcDbEntity
  8
0
  6
Continuous
 62
     2
100
AcDbPolyline
 90
        9
 70
     0
 43
0.0
 10
695.15544352561
 20
1688.472567932243
 10
695.1418834691101
 20
1688.486157791244
 10
695.1016205316103
 20
1688.526390926744
 10
695.0362938406104
 20
1688.591717617243
 10
694.9483471876108
 20
1688.679664270743
 10
694.8412078386111
 20
1688.786833421743
 10
694.7189587121118
 20
1688.909082548242
 10
694.5863085751128
 20
1689.041732685242
 10
694.4483536244868
 20
1689.179657833211
  0
LWPOLYLINE
  5
C8E
330
1F
100
AcDbEntity
  8
0
  6
Continuous
 62
     2
100
AcDbPolyline
 90
        5
 70
     0
 43
0.0
 10
696.052642440837
 20
1690.486221448876
 10
696.0543709761062
 20
1690.483449833235
 10
696.1125153066062
 20
1690.342633859736
 10
696.1389797691061
 20
1690.182565586237
 10
696.137310839106
 20
1689.861356155738
  0
LWPOLYLINE
  5
C8F
330
1F
100
AcDbEntity
  8
0
  6
Continuous
 62
     2
100
AcDbPolyline
 90
       10
 70
     0
 43
0.0
 10
696.052642440837
 20
2272.483496799268
 10
696.0360127451065
 20
2272.496639623408
 10
695.9569173816069
 20
2272.559254302907
 10
695.8375292781072
 20
2272.654144897407
 10
695.6787127021078
 20
2272.781132592907
 10
695.4882460596084
 20
2272.934465541906
 10
695.2656227116092
 20
2273.115097417905
 10
695.0224059586105
 20
2273.314027919405
 10
694.7393136981116
 20
2273.547707929404
 10
694.4483536244868
 20
2273.790060415432
  0
LWPOLYLINE
  5
C90
330
1F
100
AcDbEntity
  8
0
  6
Continuous
 62
     2
100
AcDbPolyline
 90
        5
 70
     0
 43
0.0
 10
696.052642440837
 20
2272.483496799268
 10
696.0543709761062
 20
2272.486268415408
 10
696.1125153066062
 20
2272.627084388407
 10
696.1389797691061
 20
2272.787152661907
 10
696.137310839106
 20
2273.108362092905
  0
LWPOLYLINE
  5
C91
330
1F
100
AcDbEntity
  8
0
  6
Continuous
 62
     2
100
AcDbPolyline
 90
        9
 70
     0
 43
0.0
 10
695.15544352561
 20
2274.4971503159
 10
695.1418834691101
 20
2274.483560456899
 10
695.1016205316103
 20
2274.4433273219
 10
695.0362938406104
 20
2274.378000631401
 10
694.9483471876108
 20
2274.290053977901
 10
694.8412078386111
 20
2274.182884826401
 10
694.7189587121118
 20
2274.060635699901
 10
694.5863085751128
 20
2273.927985562902
 10
694.4483536244868
 20
2273.790060415432
  0
LWPOLYLINE
  5
C92
330
1F
100
AcDbEntity
  8
0
  6
Continuous
 62
     2
100
AcDbPolyline
 90
       10
 70
     0
 43
0.0
 10
1272.095324371663
 20
1696.440814868942
 10
1272.105755184303
 20
1696.427612440212
 10
1272.167445991302
 20
1696.349679367213
 10
1272.266389701802
 20
1696.225195066713
 10
1272.397132490302
 20
1696.061699526213
 10
1272.560836646801
 20
1695.858417885214
 10
1272.7456408483
 20
1695.630817549215
 10
1272.954823348799
 20
1695.375381843716
 10
1273.171635244299
 20
1695.112882988217
 10
1273.401887987327
 20
1694.836526052593
  0
LWPOLYLINE
  5
C93
330
1F
100
AcDbEntity
  8
0
  6
Continuous
 62
     2
100
AcDbPolyline
 90
        9
 70
     0
 43
0.0
 10
1274.108977888294
 20
1695.543615953715
 10
1274.095388029295
 20
1695.530055897215
 10
1274.055154893795
 20
1695.489792959716
 10
1273.989828203295
 20
1695.424466268716
 10
1273.901881549795
 20
1695.336519615217
 10
1273.794712398296
 20
1695.229380266217
 10
1273.672463272296
 20
1695.107131140217
 10
1273.539813135297
 20
1694.974481003218
 10
1273.401887987327
 20
1694.836526052593
  0
LWPOLYLINE
  5
C94
330
1F
100
AcDbEntity
  8
0
  6
Continuous
 62
     2
100
AcDbPolyline
 90
        5
 70
     0
 43
0.0
 10
1272.095324371663
 20
1696.440814868942
 10
1272.098095987302
 20
1696.442543403712
 10
1272.238911960802
 20
1696.500687734712
 10
1272.398980234301
 20
1696.527152197212
 10
1272.7201896648
 20
1696.525483267212
  0
LWPOLYLINE
  5
C95
330
1F
100
AcDbEntity
  8
0
  6
Continuous
 62
     2
100
AcDbPolyline
 90
       10
 70
     0
 43
0.0
 10
1272.095324371663
 20
2266.528903379202
 10
1272.105755184303
 20
2266.542105807931
 10
1272.167445991302
 20
2266.620038880932
 10
1272.266389701802
 20
2266.744523181931
 10
1272.397132490302
 20
2266.90801872243
 10
1272.560836646801
 20
2267.111300363429
 10
1272.7456408483
 20
2267.338900699429
 10
1272.954823348799
 20
2267.594336404427
 10
1273.171635244299
 20
2267.856835260427
 10
1273.401887987327
 20
2268.13319219605
  0
LWPOLYLINE
  5
C96
330
1F
100
AcDbEntity
  8
0
  6
Continuous
 62
     2
100
AcDbPolyline
 90
        5
 70
     0
 43
0.0
 10
1272.095324371663
 20
2266.528903379202
 10
1272.098095987302
 20
2266.527174844432
 10
1272.238911960802
 20
2266.469030513431
 10
1272.398980234301
 20
2266.442566051432
 10
1272.7201896648
 20
2266.444234981432
  0
LWPOLYLINE
  5
C97
330
1F
100
AcDbEntity
  8
0
  6
Continuous
 62
     2
100
AcDbPolyline
 90
        9
 70
     0
 43
0.0
 10
1274.108977888294
 20
2267.426102294928
 10
1274.095388029295
 20
2267.439662351428
 10
1274.055154893795
 20
2267.479925288928
 10
1273.989828203295
 20
2267.545251979928
 10
1273.901881549795
 20
2267.633198632927
 10
1273.794712398296
 20
2267.740337981927
 10
1273.672463272296
 20
2267.862587108426
 10
1273.539813135297
 20
2267.995237245426
 10
1273.401887987327
 20
2268.13319219605
  0
LWPOLYLINE
  5
C98
330
1F
100
AcDbEntity
  8
0
  6
Continuous
 62
     2
100
AcDbPolyline
 90
        5
 70
     0
 43
0.0
 10
1266.056062553327
 20
2273.108362092905
 10
1266.054393623327
 20
2272.787152661907
 10
1266.080858085827
 20
2272.627084388407
 10
1266.139002416826
 20
2272.486268415408
 10
1266.140730951596
 20
2272.483496799268
  0
LWPOLYLINE
  5
C99
330
1F
100
AcDbEntity
  8
0
  6
Continuous
 62
     2
100
AcDbPolyline
 90
       10
 70
     0
 43
0.0
 10
1267.745019767945
 20
2273.790060415432
 10
1267.458530042821
 20
2273.551403417403
 10
1267.170967433823
 20
2273.314027919405
 10
1266.930820320323
 20
2273.117571010405
 10
1266.705127332824
 20
2272.934465541906
 10
1266.516955469325
 20
2272.782980336906
 10
1266.355844114326
 20
2272.654144897407
 10
1266.237767312826
 20
2272.560297383907
 10
1266.157360647327
 20
2272.496639623408
 10
1266.140730951596
 20
2272.483496799268
  0
LWPOLYLINE
  5
C9A
330
1F
100
AcDbEntity
  8
0
  6
Continuous
 62
     2
100
AcDbPolyline
 90
        9
 70
     0
 43
0.0
 10
1267.745019767945
 20
2273.790060415432
 10
1267.60706481732
 20
2273.927985562902
 10
1267.474414680321
 20
2274.060635699901
 10
1267.352165553822
 20
2274.182884826401
 10
1267.245026204822
 20
2274.290053977901
 10
1267.157079551822
 20
2274.378000631401
 10
1267.091752860823
 20
2274.4433273219
 10
1267.051489923323
 20
2274.483560456899
 10
1267.037929866823
 20
2274.4971503159
  0
LWPOLYLINE
  5
C9B
330
1F
100
AcDbEntity
  8
0
  6
Continuous
 62
     2
100
AcDbPolyline
 90
        9
 70
     0
 43
0.0
 10
688.7914854051053
 20
1694.836526052593
 10
688.653560257136
 20
1694.974481003218
 10
688.5209101206362
 20
1695.107131140217
 10
688.3986609941369
 20
1695.229380266217
 10
688.2914918426379
 20
1695.336519615217
 10
688.2035451891377
 20
1695.424466268716
 10
688.138218498638
 20
1695.489792959716
 10
688.0979853636384
 20
1695.530055897215
 10
688.0843955046387
 20
1695.543615953715
  0
LWPOLYLINE
  5
C9C
330
1F
100
AcDbEntity
  8
0
  6
Continuous
 62
     2
100
AcDbPolyline
 90
       10
 70
     0
 43
0.0
 10
688.7914854051053
 20
1694.836526052593
 10
689.0155988696345
 20
1695.105492012217
 10
689.2385500436337
 20
1695.375381843716
 10
689.4421893121328
 20
1695.624022619715
 10
689.6325367456318
 20
1695.858417885214
 10
689.7918599611314
 20
1696.056215898714
 10
689.9269836906308
 20
1696.225195066713
 10
690.0234240061311
 20
1696.346490518713
 10
690.0876182081299
 20
1696.427612440212
 10
690.0980490211307
 20
1696.440814869213
  0
LWPOLYLINE
  5
C9D
330
1F
100
AcDbEntity
  8
0
  6
Continuous
 62
     2
100
AcDbPolyline
 90
        5
 70
     0
 43
0.0
 10
689.4731837276324
 20
1696.525483267212
 10
689.7943931581315
 20
1696.527152197212
 10
689.9544614321305
 20
1696.500687734712
 10
690.0952774051304
 20
1696.442543403712
 10
690.0980490211307
 20
1696.440814869213
  0
LWPOLYLINE
  5
C9E
330
1F
100
AcDbEntity
  8
0
  6
Continuous
 62
     2
100
AcDbPolyline
 90
        5
 70
     0
 43
0.0
 10
689.4731837276324
 20
2266.444234981432
 10
689.7943931581315
 20
2266.442566051432
 10
689.9544614321305
 20
2266.469030513431
 10
690.0952774051304
 20
2266.527174844432
 10
690.0980490211307
 20
2266.528903379432
  0
LWPOLYLINE
  5
C9F
330
1F
100
AcDbEntity
  8
0
  6
Continuous
 62
     2
100
AcDbPolyline
 90
       10
 70
     0
 43
0.0
 10
688.7914854051053
 20
2268.13319219605
 10
689.0155988696345
 20
2267.864226236426
 10
689.2385500436337
 20
2267.594336404427
 10
689.4421893121328
 20
2267.345695628928
 10
689.6325367456318
 20
2267.111300363429
 10
689.7918599611314
 20
2266.91350234993
 10
689.9269836906308
 20
2266.744523181931
 10
690.0234240061311
 20
2266.623227729432
 10
690.0876182081299
 20
2266.542105807931
 10
690.0980490211307
 20
2266.528903379432
  0
LWPOLYLINE
  5
CA0
330
1F
100
AcDbEntity
  8
0
  6
Continuous
 62
     2
100
AcDbPolyline
 90
        9
 70
     0
 43
0.0
 10
688.7914854051053
 20
2268.13319219605
 10
688.653560257136
 20
2267.995237245426
 10
688.5209101206362
 20
2267.862587108426
 10
688.3986609941369
 20
2267.740337981927
 10
688.2914918426379
 20
2267.633198632927
 10
688.2035451891377
 20
2267.545251979928
 10
688.138218498638
 20
2267.479925288928
 10
688.0979853636384
 20
2267.439662351428
 10
688.0843955046387
 20
2267.426102294928
  0
LWPOLYLINE
  5
CA1
330
1F
100
AcDbEntity
  8
0
  6
Continuous
 62
     2
100
AcDbPolyline
 90
        9
 70
     0
 43
0.0
 10
1267.745019767945
 20
1689.179657833211
 10
1267.60706481732
 20
1689.041732685242
 10
1267.474414680321
 20
1688.909082548242
 10
1267.352165553822
 20
1688.786833421743
 10
1267.245026204822
 20
1688.679664270743
 10
1267.157079551822
 20
1688.591717617243
 10
1267.091752860823
 20
1688.526390926744
 10
1267.051489923323
 20
1688.486157791244
 10
1267.037929866823
 20
1688.472567932243
  0
LWPOLYLINE
  5
CA2
330
1F
100
AcDbEntity
  8
0
  6
Continuous
 62
     2
100
AcDbPolyline
 90
       10
 70
     0
 43
0.0
 10
1267.745019767945
 20
1689.179657833211
 10
1267.458530042821
 20
1689.41831483124
 10
1267.170967433823
 20
1689.655690328739
 10
1266.930820320323
 20
1689.852147238238
 10
1266.705127332824
 20
1690.035252706738
 10
1266.516955469325
 20
1690.186737911738
 10
1266.355844114326
 20
1690.315573351236
 10
1266.237767312826
 20
1690.409420864236
 10
1266.157360647327
 20
1690.473078625235
 10
1266.140730951596
 20
1690.486221448876
  0
LWPOLYLINE
  5
CA3
330
1F
100
AcDbEntity
  8
0
  6
Continuous
 62
     2
100
AcDbPolyline
 90
        5
 70
     0
 43
0.0
 10
1266.056062553327
 20
1689.861356155738
 10
1266.054393623327
 20
1690.182565586237
 10
1266.080858085827
 20
1690.342633859736
 10
1266.139002416826
 20
1690.483449833235
 10
1266.140730951596
 20
1690.486221448876
  0
LWPOLYLINE
  5
CA4
330
1F
100
AcDbEntity
  8
0
  6
Continuous
 62
     2
100
AcDbPolyline
 90
        9
 70
     0
 43
0.0
 10
689.4731837276324
 20
2266.444234981432
 10
689.5016449456323
 20
2266.360401048432
 10
689.5223873621323
 20
2266.275911464433
 10
689.5351427561325
 20
2266.191570892433
 10
689.5398515226323
 20
2266.108064784934
 10
689.5364540581324
 20
2266.026168002934
 10
689.5249801641323
 20
2265.946565999934
 10
689.5055490496322
 20
2265.870003833434
 10
689.4783097271331
 20
2265.797137155435
  0
LWPOLYLINE
  5
CA5
330
1F
100
AcDbEntity
  8
0
  6
Continuous
 62
     2
100
AcDbPolyline
 90
        6
 70
     0
 43
0.0
 10
688.4513216976368
 20
2267.05917610143
 10
688.656719303636
 20
2266.86778558743
 10
688.8622063166351
 20
2266.70578016293
 10
689.0684085851342
 20
2266.576438083431
 10
689.2707067491335
 20
2266.487597360432
 10
689.4731837276324
 20
2266.444234981432
  0
LWPOLYLINE
  5
CA6
330
1F
100
AcDbEntity
  8
0
  6
Continuous
 62
     2
100
AcDbPolyline
 90
        6
 70
     0
 43
0.0
 10
688.4513216976368
 20
1695.910542146715
 10
688.656719303636
 20
1696.101932661214
 10
688.8622063166351
 20
1696.263938085712
 10
689.0684085851342
 20
1696.393280165212
 10
689.2707067491335
 20
1696.482120888212
 10
689.4731837276324
 20
1696.525483267212
  0
LWPOLYLINE
  5
CA7
330
1F
100
AcDbEntity
  8
0
  6
Continuous
 62
     2
100
AcDbPolyline
 90
        9
 70
     0
 43
0.0
 10
689.4731837276324
 20
1696.525483267212
 10
689.5016449456323
 20
1696.609317199712
 10
689.5223873621323
 20
1696.69380678371
 10
689.5351427561325
 20
1696.778147356211
 10
689.5398515226323
 20
1696.86165346371
 10
689.5364540581324
 20
1696.94355024571
 10
689.5249801641323
 20
1697.02315224871
 10
689.5055490496322
 20
1697.09971441471
 10
689.4783097271331
 20
1697.172581093209
  0
LWPOLYLINE
  5
CA8
330
1F
100
AcDbEntity
  8
0
  6
Continuous
 62
     2
100
AcDbPolyline
 90
        6
 70
     0
 43
0.0
 10
1266.671003673324
 20
1688.839494125743
 10
1266.479613159326
 20
1689.044891731741
 10
1266.317607734826
 20
1689.250378744241
 10
1266.188265655327
 20
1689.45658101324
 10
1266.099424932326
 20
1689.658879177239
 10
1266.056062553327
 20
1689.861356155738
  0
LWPOLYLINE
  5
CA9
330
1F
100
AcDbEntity
  8
0
  6
Continuous
 62
     2
100
AcDbPolyline
 90
        9
 70
     0
 43
0.0
 10
1266.056062553327
 20
1689.861356155738
 10
1265.972228620327
 20
1689.889817373739
 10
1265.887739036327
 20
1689.910559789739
 10
1265.803398464328
 20
1689.923315183738
 10
1265.719892356828
 20
1689.928023950738
 10
1265.637995574828
 20
1689.924626486239
 10
1265.558393571829
 20
1689.913152591738
 10
1265.481831405829
 20
1689.893721477738
 10
1265.40896472733
 20
1689.866482155238
  0
LWPOLYLINE
  5
CAA
330
1F
100
AcDbEntity
  8
0
  6
Continuous
 62
     2
100
AcDbPolyline
 90
        9
 70
     0
 43
0.0
 10
1266.056062553327
 20
2273.108362092905
 10
1265.972228620327
 20
2273.079900874905
 10
1265.887739036327
 20
2273.059158458405
 10
1265.803398464328
 20
2273.046403064406
 10
1265.719892356828
 20
2273.041694297406
 10
1265.637995574828
 20
2273.045091762405
 10
1265.558393571829
 20
2273.056565656405
 10
1265.481831405829
 20
2273.075996770905
 10
1265.40896472733
 20
2273.103236093406
  0
LWPOLYLINE
  5
CAB
330
1F
100
AcDbEntity
  8
0
  6
Continuous
 62
     2
100
AcDbPolyline
 90
        6
 70
     0
 43
0.0
 10
1266.671003673324
 20
2274.130224122901
 10
1266.479613159326
 20
2273.924826516902
 10
1266.317607734826
 20
2273.719339503903
 10
1266.188265655327
 20
2273.513137235404
 10
1266.099424932326
 20
2273.310839070904
 10
1266.056062553327
 20
2273.108362092905
  0
LWPOLYLINE
  5
CAC
330
1F
100
AcDbEntity
  8
0
  6
Continuous
 62
     2
100
AcDbPolyline
 90
        4
 70
     0
 43
0.0
 10
1272.7201896648
 20
2266.444234981432
 10
1273.057164524299
 20
2266.542165412932
 10
1273.406984184298
 20
2266.76192773793
 10
1273.742051694796
 20
2267.05917610143
  0
LWPOLYLINE
  5
CAD
330
1F
100
AcDbEntity
  8
0
  6
Continuous
 62
     2
100
AcDbPolyline
 90
        9
 70
     0
 43
0.0
 10
1272.7150636653
 20
2265.797137155435
 10
1272.687824342801
 20
2265.870003833434
 10
1272.6683932283
 20
2265.946565999934
 10
1272.656919334301
 20
2266.026168002934
 10
1272.6535218698
 20
2266.108064784934
 10
1272.6582306368
 20
2266.191570892433
 10
1272.6709860308
 20
2266.275911464433
 10
1272.6917284468
 20
2266.360401048432
 10
1272.7201896648
 20
2266.444234981432
  0
LWPOLYLINE
  5
CAE
330
1F
100
AcDbEntity
  8
0
  6
Continuous
 62
     2
100
AcDbPolyline
 90
        9
 70
     0
 43
0.0
 10
1272.7150636653
 20
1697.172581093209
 10
1272.687824342801
 20
1697.09971441471
 10
1272.6683932283
 20
1697.02315224871
 10
1272.656919334301
 20
1696.94355024571
 10
1272.6535218698
 20
1696.86165346371
 10
1272.6582306368
 20
1696.778147356211
 10
1272.6709860308
 20
1696.69380678371
 10
1272.6917284468
 20
1696.609317199712
 10
1272.7201896648
 20
1696.525483267212
  0
LWPOLYLINE
  5
CAF
330
1F
100
AcDbEntity
  8
0
  6
Continuous
 62
     2
100
AcDbPolyline
 90
        4
 70
     0
 43
0.0
 10
1272.7201896648
 20
1696.525483267212
 10
1273.057164524299
 20
1696.427552835712
 10
1273.406984184298
 20
1696.207790510213
 10
1273.742051694796
 20
1695.910542146715
  0
LWPOLYLINE
  5
CB0
330
1F
100
AcDbEntity
  8
0
  6
Continuous
 62
     2
100
AcDbPolyline
 90
        4
 70
     0
 43
0.0
 10
696.137310839106
 20
2273.108362092905
 10
696.0393804076064
 20
2273.445336951904
 10
695.8196180826073
 20
2273.795156612403
 10
695.5223697191084
 20
2274.130224122901
  0
LWPOLYLINE
  5
CB1
330
1F
100
AcDbEntity
  8
0
  6
Continuous
 62
     2
100
AcDbPolyline
 90
        9
 70
     0
 43
0.0
 10
696.7844086651032
 20
2273.103236093406
 10
696.7115419866038
 20
2273.075996770905
 10
696.634979820604
 20
2273.056565656405
 10
696.5553778176043
 20
2273.045091762405
 10
696.4734810356051
 20
2273.041694297406
 10
696.3899749281052
 20
2273.046403064406
 10
696.3056343561054
 20
2273.059158458405
 10
696.2211447721054
 20
2273.079900874905
 10
696.137310839106
 20
2273.108362092905
  0
LWPOLYLINE
  5
CB2
330
1F
100
AcDbEntity
  8
0
  6
Continuous
 62
     2
100
AcDbPolyline
 90
        9
 70
     0
 43
0.0
 10
696.7844086651032
 20
1689.866482155238
 10
696.7115419866038
 20
1689.893721477738
 10
696.634979820604
 20
1689.913152591738
 10
696.5553778176043
 20
1689.924626486239
 10
696.4734810356051
 20
1689.928023950738
 10
696.3899749281052
 20
1689.923315183738
 10
696.3056343561054
 20
1689.910559789739
 10
696.2211447721054
 20
1689.889817373739
 10
696.137310839106
 20
1689.861356155738
  0
LWPOLYLINE
  5
CB3
330
1F
100
AcDbEntity
  8
0
  6
Continuous
 62
     2
100
AcDbPolyline
 90
        4
 70
     0
 43
0.0
 10
696.137310839106
 20
1689.861356155738
 10
696.0393804076064
 20
1689.52438129624
 10
695.8196180826073
 20
1689.174561636241
 10
695.5223697191084
 20
1688.839494125743
  0
LWPOLYLINE
  5
CB4
330
1F
100
AcDbEntity
  8
0
  6
Continuous
 62
     7
100
AcDbPolyline
 90
       20
 70
     0
 43
0.0
 10
1109.898181532452
 20
1673.328070776305
 10
1109.060780976955
 20
1673.326699869305
 10
1108.225988124458
 20
1673.322616951304
 10
1107.396410678461
 20
1673.315822021804
 10
1106.574641440965
 20
1673.306315080804
 10
1105.763228510468
 20
1673.294185535804
 10
1104.964719985471
 20
1673.279403583805
 10
1104.181596909474
 20
1673.262058632304
 10
1103.416303072977
 20
1673.242180483305
 10
1102.67123011248
 20
1673.219828741305
 10
1101.948695157483
 20
1673.195122616306
 10
1101.250963185986
 20
1673.168062107305
 10
1100.580194865489
 20
1673.138796226805
 10
1099.938491259991
 20
1673.107384578806
 10
1099.327856574993
 20
1673.073946373306
 10
1098.750190709996
 20
1673.038541214306
 10
1098.207289253498
 20
1673.001347915806
 10
1097.700858389
 20
1672.962426082806
 10
1097.232470189502
 20
1672.921894924305
 10
1096.803592418504
 20
1672.879933254807
  0
LWPOLYLINE
  5
CB5
330
1F
100
AcDbEntity
  8
0
  6
Continuous
 62
     7
100
AcDbPolyline
 90
       20
 70
     0
 43
0.0
 10
1096.803592418504
 20
1682.867347137767
 10
1097.232470189502
 20
1682.812689678267
 10
1097.700858389
 20
1682.759939567767
 10
1098.207289253498
 20
1682.709245817267
 10
1098.750190709996
 20
1682.660787241267
 10
1099.327856574993
 20
1682.614712850767
 10
1099.938491259991
 20
1682.571141855768
 10
1100.580194865489
 20
1682.530253069268
 10
1101.250963185986
 20
1682.492135898768
 10
1101.948695157483
 20
1682.456909553768
 10
1102.67123011248
 20
1682.424693243268
 10
1103.416303072977
 20
1682.395606176768
 10
1104.181596909474
 20
1682.369737760768
 10
1104.964719985471
 20
1682.347147600269
 10
1105.763228510468
 20
1682.327895300269
 10
1106.574641440965
 20
1682.312070267269
 10
1107.396410678461
 20
1682.299702303269
 10
1108.225988124458
 20
1682.290851013269
 10
1109.060780976955
 20
1682.285516397769
 10
1109.898181532452
 20
1682.283758060769
  0
LWPOLYLINE
  5
CB6
330
1F
100
AcDbEntity
  8
0
  6
Continuous
 62
     7
100
AcDbPolyline
 90
       20
 70
     0
 43
0.0
 10
865.389780973929
 20
1672.879933254807
 10
864.9609032034307
 20
1672.921894924305
 10
864.4925150034326
 20
1672.962426082806
 10
863.9860841389348
 20
1673.001347915806
 10
863.4431826829366
 20
1673.038541214306
 10
862.8655168174389
 20
1673.073946373306
 10
862.2548821329417
 20
1673.107384578806
 10
861.6131785269442
 20
1673.138796226805
 10
860.942410206447
 20
1673.168062107305
 10
860.2446782349496
 20
1673.195122616306
 10
859.5221432804526
 20
1673.219828741305
 10
858.7770703194553
 20
1673.242180483305
 10
858.011776482959
 20
1673.262058632304
 10
857.2286534069615
 20
1673.279403583805
 10
856.4301448819654
 20
1673.294185535804
 10
855.6187319514681
 20
1673.306315080804
 10
854.7969627139712
 20
1673.315822021804
 10
853.967385267975
 20
1673.322616951304
 10
853.1325924154778
 20
1673.326699869305
 10
852.2951918599813
 20
1673.328070776305
  0
LWPOLYLINE
  5
CB7
330
1F
100
AcDbEntity
  8
0
  6
Continuous
 62
     7
100
AcDbPolyline
 90
       20
 70
     0
 43
0.0
 10
682.4791747096608
 20
1865.777953402034
 10
682.424517250661
 20
1865.349075631037
 10
682.371767139661
 20
1864.880687431539
 10
682.321073389661
 20
1864.374256567041
 10
682.2726148131612
 20
1863.831355110543
 10
682.2265404226621
 20
1863.253689245045
 10
682.1829694276619
 20
1862.643054560547
 10
682.1420806411618
 20
1862.00135095505
 10
682.1039634706619
 20
1861.330582634553
 10
682.0687371256624
 20
1860.632850662556
 10
682.0365208151622
 20
1859.910315708058
 10
682.0074337486624
 20
1859.165242747562
 10
681.9815653326625
 20
1858.399948910564
 10
681.9589751726628
 20
1857.616825835068
 10
681.9397228721625
 20
1856.81831731007
 10
681.9238978391629
 20
1856.006904379573
 10
681.9115298751628
 20
1855.185135142077
 10
681.9026785856629
 20
1854.35555769608
 10
681.8973439696631
 20
1853.520764843584
 10
681.8955856326631
 20
1852.683364288087
  0
LWPOLYLINE
  5
CB8
330
1F
100
AcDbEntity
  8
0
  6
Continuous
 62
     7
100
AcDbPolyline
 90
       20
 70
     0
 43
0.0
 10
682.4791747096608
 20
2097.191764846609
 10
682.424517250661
 20
2097.620642617107
 10
682.371767139661
 20
2098.089030817105
 10
682.321073389661
 20
2098.595461681603
 10
682.2726148131612
 20
2099.138363137601
 10
682.2265404226621
 20
2099.716029003098
 10
682.1829694276619
 20
2100.326663687597
 10
682.1420806411618
 20
2100.968367293594
 10
682.1039634706619
 20
2101.639135614092
 10
682.0687371256624
 20
2102.336867585589
 10
682.0365208151622
 20
2103.059402540086
 10
682.0074337486624
 20
2103.804475501083
 10
681.9815653326625
 20
2104.569769337579
 10
681.9589751726628
 20
2105.352892413577
 10
681.9397228721625
 20
2106.151400938573
 10
681.9238978391629
 20
2106.96281386907
 10
681.9115298751628
 20
2107.784583106567
 10
681.9026785856629
 20
2108.614160552563
 10
681.8973439696631
 20
2109.44895340506
 10
681.8955856326631
 20
2110.286353960556
  0
LWPOLYLINE
  5
CB9
330
1F
100
AcDbEntity
  8
0
  6
Continuous
 62
     7
100
AcDbPolyline
 90
       20
 70
     0
 43
0.0
 10
1280.29778775977
 20
2110.286353960556
 10
1280.29602942277
 20
2109.44895340506
 10
1280.290694806769
 20
2108.614160552563
 10
1280.28184351727
 20
2107.784583106567
 10
1280.26947555327
 20
2106.96281386907
 10
1280.25365052027
 20
2106.151400938573
 10
1280.23439821977
 20
2105.352892413577
 10
1280.21180805977
 20
2104.569769337579
 10
1280.18593964377
 20
2103.804475501083
 10
1280.156852577271
 20
2103.059402540086
 10
1280.12463626677
 20
2102.336867585589
 10
1280.089409921771
 20
2101.639135614092
 10
1280.051292751271
 20
2100.968367293594
 10
1280.010403964771
 20
2100.326663687597
 10
1279.966832969771
 20
2099.716029003098
 10
1279.920758579271
 20
2099.138363137601
 10
1279.872300002772
 20
2098.595461681603
 10
1279.821606252772
 20
2098.089030817105
 10
1279.768856141772
 20
2097.620642617107
 10
1279.714198682772
 20
2097.191764846609
  0
LWPOLYLINE
  5
CBA
330
1F
100
AcDbEntity
  8
0
  6
Continuous
 62
     7
100
AcDbPolyline
 90
       20
 70
     0
 43
0.0
 10
865.389780973929
 20
2290.089784993837
 10
864.9609032034307
 20
2290.047823323838
 10
864.4925150034326
 20
2290.007292165338
 10
863.9860841389348
 20
2289.968370332338
 10
863.4431826829366
 20
2289.931177034338
 10
862.8655168174389
 20
2289.895771875339
 10
862.2548821329417
 20
2289.862333669339
 10
861.6131785269442
 20
2289.830922021838
 10
860.942410206447
 20
2289.801656140838
 10
860.2446782349496
 20
2289.774595632338
 10
859.5221432804526
 20
2289.749889506839
 10
858.7770703194553
 20
2289.727537765338
 10
858.011776482959
 20
2289.707659616338
 10
857.2286534069615
 20
2289.690314664839
 10
856.4301448819654
 20
2289.675532712839
 10
855.6187319514681
 20
2289.663403167339
 10
854.7969627139712
 20
2289.653896226839
 10
853.967385267975
 20
2289.647101297339
 10
853.1325924154778
 20
2289.643018378839
 10
852.2951918599813
 20
2289.641647472339
  0
LWPOLYLINE
  5
CBB
330
1F
100
AcDbEntity
  8
0
  6
Continuous
 62
     7
100
AcDbPolyline
 90
       20
 70
     0
 43
0.0
 10
852.2951918599813
 20
1682.283758060769
 10
853.1325924154778
 20
1682.285516397769
 10
853.967385267975
 20
1682.290851013269
 10
854.7969627139712
 20
1682.299702303269
 10
855.6187319514681
 20
1682.312070267269
 10
856.4301448819654
 20
1682.327895300269
 10
857.2286534069615
 20
1682.347147600269
 10
858.011776482959
 20
1682.369737760768
 10
858.7770703194553
 20
1682.395606176768
 10
859.5221432804526
 20
1682.424693243268
 10
860.2446782349496
 20
1682.456909553768
 10
860.942410206447
 20
1682.492135898768
 10
861.6131785269442
 20
1682.530253069268
 10
862.2548821329417
 20
1682.571141855768
 10
862.8655168174389
 20
1682.614712850767
 10
863.4431826829366
 20
1682.660787241267
 10
863.9860841389348
 20
1682.709245817267
 10
864.4925150034326
 20
1682.759939567767
 10
864.9609032034307
 20
1682.812689678267
 10
865.389780973929
 20
1682.867347137767
  0
LWPOLYLINE
  5
CBC
330
1F
100
AcDbEntity
  8
0
  6
Continuous
 62
     7
100
AcDbPolyline
 90
       20
 70
     0
 43
0.0
 10
852.2951918599813
 20
2280.685960187875
 10
853.1325924154778
 20
2280.684201850875
 10
853.967385267975
 20
2280.678867234875
 10
854.7969627139712
 20
2280.670015945375
 10
855.6187319514681
 20
2280.657647981375
 10
856.4301448819654
 20
2280.641822948375
 10
857.2286534069615
 20
2280.622570647876
 10
858.011776482959
 20
2280.599980487875
 10
858.7770703194553
 20
2280.574112071875
 10
859.5221432804526
 20
2280.545025005376
 10
860.2446782349496
 20
2280.512808694876
 10
860.942410206447
 20
2280.477582349376
 10
861.6131785269442
 20
2280.439465179376
 10
862.2548821329417
 20
2280.398576392876
 10
862.8655168174389
 20
2280.355005397376
 10
863.4431826829366
 20
2280.308931007377
 10
863.9860841389348
 20
2280.260472430876
 10
864.4925150034326
 20
2280.209778680377
 10
864.9609032034307
 20
2280.157028569877
 10
865.389780973929
 20
2280.102371110877
  0
LWPOLYLINE
  5
CBD
330
1F
100
AcDbEntity
  8
0
  6
Continuous
 62
     7
100
AcDbPolyline
 90
       24
 70
     0
 43
0.0
 10
1289.253475044234
 20
2279.67968477238
 10
1289.230288837234
 20
2280.361234082876
 10
1289.160879228735
 20
2281.039266719874
 10
1289.045544240735
 20
2281.710653438371
 10
1288.884790513736
 20
2282.372324599869
 10
1288.679422710236
 20
2283.021210565366
 10
1288.430334899737
 20
2283.654301299863
 10
1288.138689372738
 20
2284.268705978361
 10
1287.805857036739
 20
2284.861563577358
 10
1287.433357808741
 20
2285.430132283856
 10
1287.022890422743
 20
2285.971819295854
 10
1286.576392028745
 20
2286.484061612852
 10
1286.095889184746
 20
2286.96456445685
 10
1285.583646867749
 20
2287.411062850848
 10
1285.041959855751
 20
2287.821530236846
 10
1284.473391149253
 20
2288.194029464345
 10
1283.880533550256
 20
2288.526861800844
 10
1283.266128871758
 20
2288.818507327842
 10
1282.63303813726
 20
2289.067595138341
 10
1281.984152172263
 20
2289.27296294184
 10
1281.322481010266
 20
2289.43371666884
 10
1280.651094291769
 20
2289.54905165634
 10
1279.973061654771
 20
2289.618461265339
 10
1279.291512344274
 20
2289.641647472339
  0
LWPOLYLINE
  5
CBE
330
1F
100
AcDbEntity
  8
0
  6
Continuous
 62
     7
100
AcDbPolyline
 90
       24
 70
     0
 43
0.0
 10
682.9018610481587
 20
1673.328070776305
 10
682.2203117376619
 20
1673.351256983304
 10
681.5422791006642
 20
1673.420666591804
 10
680.8708923821671
 20
1673.536001579803
 10
680.2092212206696
 20
1673.696755306803
 10
679.5603352551723
 20
1673.902123110302
 10
678.927244520675
 20
1674.151210920802
 10
678.3128398421775
 20
1674.4428564478
 10
677.7199822431796
 20
1674.775688783798
 10
677.1514135366822
 20
1675.148188011297
 10
676.6097265246847
 20
1675.558655397795
 10
676.097484207686
 20
1676.005153791794
 10
675.6169813636882
 20
1676.485656635792
 10
675.1704829696898
 20
1676.99789895279
 10
674.7600155836915
 20
1677.539585964287
 10
674.3875163561931
 20
1678.108154671285
 10
674.0546840196942
 20
1678.701012270283
 10
673.7630384926954
 20
1679.31541694878
 10
673.5139506821963
 20
1679.948507683278
 10
673.3085828786973
 20
1680.597393648276
 10
673.147829151698
 20
1681.259064810273
 10
673.0324941641982
 20
1681.93045152877
 10
672.9630845551985
 20
1682.608484165267
 10
672.9398983481985
 20
1683.290033476265
  0
LWPOLYLINE
  5
CBF
330
1F
100
AcDbEntity
  8
0
  6
Continuous
 62
     7
100
AcDbPolyline
 90
       20
 70
     0
 43
0.0
 10
672.9398983481985
 20
2110.286353960556
 10
672.9385274416989
 20
2109.44895340506
 10
672.9344445231989
 20
2108.614160552563
 10
672.927649593699
 20
2107.784583106567
 10
672.9181426531989
 20
2106.96281386907
 10
672.9060131076988
 20
2106.151400938573
 10
672.891231155699
 20
2105.352892413577
 10
672.8738862041989
 20
2104.569769337579
 10
672.8540080551991
 20
2103.804475501083
 10
672.8316563131991
 20
2103.059402540086
 10
672.8069501881994
 20
2102.336867585589
 10
672.7798896791994
 20
2101.639135614092
 10
672.7506237986997
 20
2100.968367293594
 10
672.7192121511996
 20
2100.326663687597
 10
672.6857739452
 20
2099.716029003098
 10
672.6503687861998
 20
2099.138363137601
 10
672.6131754882001
 20
2098.595461681603
 10
672.5742536547002
 20
2098.089030817105
 10
672.5337224967009
 20
2097.620642617107
 10
672.4917608267003
 20
2097.191764846609
  0
LWPOLYLINE
  5
CC0
330
1F
100
AcDbEntity
  8
0
  6
Continuous
 62
     7
100
AcDbPolyline
 90
       20
 70
     0
 43
0.0
 10
1280.29778775977
 20
1852.683364288087
 10
1280.29602942277
 20
1853.520764843584
 10
1280.290694806769
 20
1854.35555769608
 10
1280.28184351727
 20
1855.185135142077
 10
1280.26947555327
 20
1856.006904379573
 10
1280.25365052027
 20
1856.81831731007
 10
1280.23439821977
 20
1857.616825835068
 10
1280.21180805977
 20
1858.399948910564
 10
1280.18593964377
 20
1859.165242747562
 10
1280.156852577271
 20
1859.910315708058
 10
1280.12463626677
 20
1860.632850662556
 10
1280.089409921771
 20
1861.330582634553
 10
1280.051292751271
 20
1862.00135095505
 10
1280.010403964771
 20
1862.643054560547
 10
1279.966832969771
 20
1863.253689245045
 10
1279.920758579271
 20
1863.831355110543
 10
1279.872300002772
 20
1864.374256567041
 10
1279.821606252772
 20
1864.880687431539
 10
1279.768856141772
 20
1865.349075631037
 10
1279.714198682772
 20
1865.777953402034
  0
LWPOLYLINE
  5
CC1
330
1F
100
AcDbEntity
  8
0
  6
Continuous
 62
     7
100
AcDbPolyline
 90
       20
 70
     0
 43
0.0
 10
1109.898181532452
 20
2289.641647472339
 10
1109.060780976955
 20
2289.643018378839
 10
1108.225988124458
 20
2289.647101297339
 10
1107.396410678461
 20
2289.653896226839
 10
1106.574641440965
 20
2289.663403167339
 10
1105.763228510468
 20
2289.675532712839
 10
1104.964719985471
 20
2289.690314664839
 10
1104.181596909474
 20
2289.707659616338
 10
1103.416303072977
 20
2289.727537765338
 10
1102.67123011248
 20
2289.749889506839
 10
1101.948695157483
 20
2289.774595632338
 10
1101.250963185986
 20
2289.801656140838
 10
1100.580194865489
 20
2289.830922021838
 10
1099.938491259991
 20
2289.862333669339
 10
1099.327856574993
 20
2289.895771875339
 10
1098.750190709996
 20
2289.931177034338
 10
1098.207289253498
 20
2289.968370332338
 10
1097.700858389
 20
2290.007292165338
 10
1097.232470189502
 20
2290.047823323838
 10
1096.803592418504
 20
2290.089784993837
  0
LWPOLYLINE
  5
CC2
330
1F
100
AcDbEntity
  8
0
  6
Continuous
 62
     7
100
AcDbPolyline
 90
       20
 70
     0
 43
0.0
 10
1096.803592418504
 20
2280.102371110877
 10
1097.232470189502
 20
2280.157028569877
 10
1097.700858389
 20
2280.209778680377
 10
1098.207289253498
 20
2280.260472430876
 10
1098.750190709996
 20
2280.308931007377
 10
1099.327856574993
 20
2280.355005397376
 10
1099.938491259991
 20
2280.398576392876
 10
1100.580194865489
 20
2280.439465179376
 10
1101.250963185986
 20
2280.477582349376
 10
1101.948695157483
 20
2280.512808694876
 10
1102.67123011248
 20
2280.545025005376
 10
1103.416303072977
 20
2280.574112071875
 10
1104.181596909474
 20
2280.599980487875
 10
1104.964719985471
 20
2280.622570647876
 10
1105.763228510468
 20
2280.641822948375
 10
1106.574641440965
 20
2280.657647981375
 10
1107.396410678461
 20
2280.670015945375
 10
1108.225988124458
 20
2280.678867234875
 10
1109.060780976955
 20
2280.684201850875
 10
1109.898181532452
 20
2280.685960187875
  0
LWPOLYLINE
  5
CC3
330
1F
100
AcDbEntity
  8
0
  6
Continuous
 62
     7
100
AcDbPolyline
 90
       24
 70
     0
 43
0.0
 10
1289.253475044234
 20
1683.290033476265
 10
1289.230288837234
 20
1682.608484165267
 10
1289.160879228735
 20
1681.93045152877
 10
1289.045544240735
 20
1681.259064810273
 10
1288.884790513736
 20
1680.597393648276
 10
1288.679422710236
 20
1679.948507683278
 10
1288.430334899737
 20
1679.31541694878
 10
1288.138689372738
 20
1678.701012270283
 10
1287.805857036739
 20
1678.108154671285
 10
1287.433357808741
 20
1677.539585964287
 10
1287.022890422743
 20
1676.99789895279
 10
1286.576392028745
 20
1676.485656635792
 10
1286.095889184746
 20
1676.005153791794
 10
1285.583646867749
 20
1675.558655397795
 10
1285.041959855751
 20
1675.148188011297
 10
1284.473391149253
 20
1674.775688783798
 10
1283.880533550256
 20
1674.4428564478
 10
1283.266128871758
 20
1674.151210920802
 10
1282.63303813726
 20
1673.902123110302
 10
1281.984152172263
 20
1673.696755306803
 10
1281.322481010266
 20
1673.536001579803
 10
1280.651094291769
 20
1673.420666591804
 10
1279.973061654771
 20
1673.351256983304
 10
1279.291512344274
 20
1673.328070776305
  0
LWPOLYLINE
  5
CC4
330
1F
100
AcDbEntity
  8
0
  6
Continuous
 62
     7
100
AcDbPolyline
 90
       20
 70
     0
 43
0.0
 10
672.9398983481985
 20
1852.683364288087
 10
672.9385274416989
 20
1853.520764843584
 10
672.9344445231989
 20
1854.35555769608
 10
672.927649593699
 20
1855.185135142077
 10
672.9181426531989
 20
1856.006904379573
 10
672.9060131076988
 20
1856.81831731007
 10
672.891231155699
 20
1857.616825835068
 10
672.8738862041989
 20
1858.399948910564
 10
672.8540080551991
 20
1859.165242747562
 10
672.8316563131991
 20
1859.910315708058
 10
672.8069501881994
 20
1860.632850662556
 10
672.7798896791994
 20
1861.330582634553
 10
672.7506237986997
 20
1862.00135095505
 10
672.7192121511996
 20
1862.643054560547
 10
672.6857739452
 20
1863.253689245045
 10
672.6503687861998
 20
1863.831355110543
 10
672.6131754882001
 20
1864.374256567041
 10
672.5742536547002
 20
1864.880687431539
 10
672.5337224967009
 20
1865.349075631037
 10
672.4917608267003
 20
1865.777953402034
  0
LWPOLYLINE
  5
CC5
330
1F
100
AcDbEntity
  8
0
  6
Continuous
 62
     7
100
AcDbPolyline
 90
       20
 70
     0
 43
0.0
 10
1289.701612565732
 20
2097.191764846609
 10
1289.659650895732
 20
2097.620642617107
 10
1289.619119737733
 20
2098.089030817105
 10
1289.580197904733
 20
2098.595461681603
 10
1289.543004606232
 20
2099.138363137601
 10
1289.507599447233
 20
2099.716029003098
 10
1289.474161241233
 20
2100.326663687597
 10
1289.442749593733
 20
2100.968367293594
 10
1289.413483713234
 20
2101.639135614092
 10
1289.386423204234
 20
2102.336867585589
 10
1289.361717079234
 20
2103.059402540086
 10
1289.339365337234
 20
2103.804475501083
 10
1289.319487188233
 20
2104.569769337579
 10
1289.302142236734
 20
2105.352892413577
 10
1289.287360284734
 20
2106.151400938573
 10
1289.275230739734
 20
2106.96281386907
 10
1289.265723798734
 20
2107.784583106567
 10
1289.258928869234
 20
2108.614160552563
 10
1289.254845951234
 20
2109.44895340506
 10
1289.253475044234
 20
2110.286353960556
  0
LWPOLYLINE
  5
CC6
330
1F
100
AcDbEntity
  8
0
  6
Continuous
 62
     7
100
AcDbPolyline
 90
       20
 70
     0
 43
0.0
 10
1289.701612565732
 20
1865.777953402034
 10
1289.659650895732
 20
1865.349075631037
 10
1289.619119737733
 20
1864.880687431539
 10
1289.580197904733
 20
1864.374256567041
 10
1289.543004606232
 20
1863.831355110543
 10
1289.507599447233
 20
1863.253689245045
 10
1289.474161241233
 20
1862.643054560547
 10
1289.442749593733
 20
1862.00135095505
 10
1289.413483713234
 20
1861.330582634553
 10
1289.386423204234
 20
1860.632850662556
 10
1289.361717079234
 20
1859.910315708058
 10
1289.339365337234
 20
1859.165242747562
 10
1289.319487188233
 20
1858.399948910564
 10
1289.302142236734
 20
1857.616825835068
 10
1289.287360284734
 20
1856.81831731007
 10
1289.275230739734
 20
1856.006904379573
 10
1289.265723798734
 20
1855.185135142077
 10
1289.258928869234
 20
1854.35555769608
 10
1289.254845951234
 20
1853.520764843584
 10
1289.253475044234
 20
1852.683364288087
  0
LWPOLYLINE
  5
CC7
330
1F
100
AcDbEntity
  8
0
  6
Continuous
 62
     2
100
AcDbPolyline
 90
        6
 70
     0
 43
0.0
 10
689.4783097271331
 20
2265.797137155435
 10
689.2956810956332
 20
2265.667944087935
 10
689.106555557634
 20
2265.628128184935
 10
688.8975816731352
 20
2265.670238866935
 10
688.6762398246358
 20
2265.785603656435
 10
688.4355860716371
 20
2265.971450938934
  0
LWPOLYLINE
  5
CC8
330
1F
100
AcDbEntity
  8
0
  6
Continuous
 62
     7
100
AcDbPolyline
 90
       13
 70
     0
 43
0.0
 10
681.8955856326631
 20
1707.12304009667
 10
681.9207387926629
 20
1705.998628275174
 10
681.9961386686625
 20
1704.877107279179
 10
682.121666050162
 20
1703.760742084683
 10
682.2970527176615
 20
1702.651708261687
 10
682.5219410421603
 20
1701.552270786691
 10
682.7958839896594
 20
1700.464635031196
 10
683.1183153156578
 20
1699.3909467622
 10
683.4886389736564
 20
1698.333351747705
 10
683.9060801031549
 20
1697.293995754708
 10
684.3698042396529
 20
1696.274935142713
 10
684.8788875106509
 20
1695.278196470717
 10
685.4323166374345
 20
1694.305776493575
  0
LWPOLYLINE
  5
CC9
330
1F
100
AcDbEntity
  8
0
  6
Continuous
 62
     2
100
AcDbPolyline
 90
        6
 70
     0
 43
0.0
 10
689.4783097271331
 20
1697.172581093209
 10
689.2956810956332
 20
1697.301774160709
 10
689.106555557634
 20
1697.341590063209
 10
688.8975816731352
 20
1697.299479381708
 10
688.6762398246358
 20
1697.184114591709
 10
688.4355860714916
 20
1696.998267309764
  0
LWPOLYLINE
  5
CCA
330
1F
100
AcDbEntity
  8
0
  6
Continuous
 62
     2
100
AcDbPolyline
 90
        9
 70
     0
 43
0.0
 10
686.139436340646
 20
2269.37103165592
 10
686.1258464816462
 20
2269.35744179692
 10
686.0856133466461
 20
2269.31720866192
 10
686.0202568536463
 20
2269.251881971421
 10
685.9323400026467
 20
2269.163935317921
 10
685.8251708511473
 20
2269.056795968921
 10
685.7029217246479
 20
2268.934546842422
 10
685.5702715876489
 20
2268.801896705423
 10
685.4323166376487
 20
2268.663941754923
  0
LWPOLYLINE
  5
CCB
330
1F
100
AcDbEntity
  8
0
  6
Continuous
 62
     2
100
AcDbPolyline
 90
        9
 70
     0
 43
0.0
 10
688.4513216976368
 20
2267.05917610143
 10
688.5335165026365
 20
2266.95689453093
 10
688.5932999616359
 20
2266.837476625431
 10
688.6290031436358
 20
2266.704290046431
 10
688.6395829681358
 20
2266.561089887432
 10
688.624771214136
 20
2266.411959066432
 10
688.5849851136361
 20
2266.261129512433
 10
688.5213273531365
 20
2266.112892760933
 10
688.4355860716371
 20
2265.971450938934
  0
LWPOLYLINE
  5
CCC
330
1F
100
AcDbEntity
  8
0
  6
Continuous
 62
     2
100
AcDbPolyline
 90
        9
 70
     0
 43
0.0
 10
686.139436340646
 20
1693.598686592224
 10
686.1258464816462
 20
1693.612276451224
 10
686.0856133466461
 20
1693.652509586723
 10
686.0202568536463
 20
1693.717836277222
 10
685.9323400026467
 20
1693.805782930722
 10
685.8251708511473
 20
1693.912922279722
 10
685.7029217246479
 20
1694.035171406221
 10
685.5702715876489
 20
1694.167821543221
 10
685.4323166374345
 20
1694.305776493575
  0
LWPOLYLINE
  5
CCD
330
1F
100
AcDbEntity
  8
0
  6
Continuous
 62
     2
100
AcDbPolyline
 90
        9
 70
     0
 43
0.0
 10
688.4513216976368
 20
1695.910542146715
 10
688.5335165026365
 20
1696.012823717214
 10
688.5932999616359
 20
1696.132241623213
 10
688.6290031436358
 20
1696.265428201712
 10
688.6395829681358
 20
1696.408628361212
 10
688.624771214136
 20
1696.557759182212
 10
688.5849851136361
 20
1696.708588735712
 10
688.5213273531365
 20
1696.85682548721
 10
688.4355860714916
 20
1696.998267309764
  0
LWPOLYLINE
  5
CCE
330
1F
100
AcDbEntity
  8
0
  6
Continuous
 62
     2
100
AcDbPolyline
 90
        9
 70
     0
 43
0.0
 10
1268.982859228315
 20
1686.527608768751
 10
1268.969269369315
 20
1686.514018909752
 10
1268.929036233816
 20
1686.473785774752
 10
1268.863709543316
 20
1686.408429281752
 10
1268.775762889815
 20
1686.320512430253
 10
1268.668623540817
 20
1686.213343279253
 10
1268.546374414317
 20
1686.091094152753
 10
1268.413724277317
 20
1685.958444015754
 10
1268.275769327268
 20
1685.820489065415
  0
LWPOLYLINE
  5
CCF
330
1F
100
AcDbEntity
  8
0
  6
Continuous
 62
     2
100
AcDbPolyline
 90
        9
 70
     0
 43
0.0
 10
1266.671003673324
 20
1688.839494125743
 10
1266.568722103325
 20
1688.921688930743
 10
1266.449304197326
 20
1688.981472389742
 10
1266.316117618326
 20
1689.017175571742
 10
1266.172917459327
 20
1689.027755396242
 10
1266.023786638327
 20
1689.012943641742
 10
1265.872957084827
 20
1688.973157541741
 10
1265.724720333329
 20
1688.909499780742
 10
1265.583278511149
 20
1688.823758499402
  0
LWPOLYLINE
  5
CD0
330
1F
100
AcDbEntity
  8
0
  6
Continuous
 62
     7
100
AcDbPolyline
 90
       13
 70
     0
 43
0.0
 10
1255.45850572387
 20
1682.283758060769
 10
1256.582917545365
 20
1682.308911220769
 10
1257.70443854136
 20
1682.384311096269
 10
1258.820803735856
 20
1682.509838478267
 10
1259.929837558851
 20
1682.685225145768
 10
1261.029275033847
 20
1682.910113470266
 10
1262.116910789343
 20
1683.184056417766
 10
1263.190599058338
 20
1683.506487743764
 10
1264.248194072834
 20
1683.876811401762
 10
1265.28755006583
 20
1684.294252531261
 10
1266.306610677826
 20
1684.757976667759
 10
1267.303349349822
 20
1685.267059938756
 10
1268.275769327268
 20
1685.820489065415
  0
LWPOLYLINE
  5
CD1
330
1F
100
AcDbEntity
  8
0
  6
Continuous
 62
     2
100
AcDbPolyline
 90
        6
 70
     0
 43
0.0
 10
1265.40896472733
 20
1689.866482155238
 10
1265.27977165983
 20
1689.683853523739
 10
1265.23995575733
 20
1689.494727985741
 10
1265.28206643883
 20
1689.285754101241
 10
1265.397431228829
 20
1689.064412252742
 10
1265.583278511149
 20
1688.823758499402
  0
LWPOLYLINE
  5
CD2
330
1F
100
AcDbEntity
  8
0
  6
Continuous
 62
     2
100
AcDbPolyline
 90
        6
 70
     0
 43
0.0
 10
1265.40896472733
 20
2273.103236093406
 10
1265.27977165983
 20
2273.285864724905
 10
1265.23995575733
 20
2273.474990262904
 10
1265.28206643883
 20
2273.683964147403
 10
1265.397431228829
 20
2273.905305995902
 10
1265.583278510768
 20
2274.145959749252
  0
LWPOLYLINE
  5
CD3
330
1F
100
AcDbEntity
  8
0
  6
Continuous
 62
     7
100
AcDbPolyline
 90
       13
 70
     0
 43
0.0
 10
1255.45850572387
 20
2280.685960187875
 10
1256.582917545365
 20
2280.660807027875
 10
1257.70443854136
 20
2280.585407151875
 10
1258.820803735856
 20
2280.459879769876
 10
1259.929837558851
 20
2280.284493102877
 10
1261.029275033847
 20
2280.059604777878
 10
1262.116910789343
 20
2279.785661830878
 10
1263.190599058338
 20
2279.463230504879
 10
1264.248194072834
 20
2279.092906846881
 10
1265.28755006583
 20
2278.675465717383
 10
1266.306610677826
 20
2278.211741580885
 10
1267.303349349822
 20
2277.702658309886
 10
1268.275769326878
 20
2277.14922918322
  0
LWPOLYLINE
  5
CD4
330
1F
100
AcDbEntity
  8
0
  6
Continuous
 62
     2
100
AcDbPolyline
 90
        9
 70
     0
 43
0.0
 10
1268.982859228315
 20
2276.442109479892
 10
1268.969269369315
 20
2276.455699338892
 10
1268.929036233816
 20
2276.495932473892
 10
1268.863709543316
 20
2276.561288966891
 10
1268.775762889815
 20
2276.649205817892
 10
1268.668623540817
 20
2276.75637496939
 10
1268.546374414317
 20
2276.87862409589
 10
1268.413724277317
 20
2277.01127423289
 10
1268.275769326878
 20
2277.14922918322
  0
LWPOLYLINE
  5
CD5
330
1F
100
AcDbEntity
  8
0
  6
Continuous
 62
     2
100
AcDbPolyline
 90
        9
 70
     0
 43
0.0
 10
1266.671003673324
 20
2274.130224122901
 10
1266.568722103325
 20
2274.048029317902
 10
1266.449304197326
 20
2273.988245858901
 10
1266.316117618326
 20
2273.952542676902
 10
1266.172917459327
 20
2273.941962852402
 10
1266.023786638327
 20
2273.956774606402
 10
1265.872957084827
 20
2273.996560706902
 10
1265.724720333329
 20
2274.060218467401
 10
1265.583278510768
 20
2274.145959749252
  0
LWPOLYLINE
  5
CD6
330
1F
100
AcDbEntity
  8
0
  6
Continuous
 62
     7
100
AcDbPolyline
 90
       13
 70
     0
 43
0.0
 10
693.9176040651148
 20
1685.820489065255
 10
694.8900240426112
 20
1685.267059938756
 10
695.8867627146071
 20
1684.757976667759
 10
696.905823326603
 20
1684.294252531261
 10
697.9451793195988
 20
1683.876811401762
 10
699.0027743340945
 20
1683.506487743764
 10
700.0764626030902
 20
1683.184056417766
 10
701.164098358586
 20
1682.910113470266
 10
702.2635358335817
 20
1682.685225145768
 10
703.3725696565768
 20
1682.509838478267
 10
704.4889348510726
 20
1682.384311096269
 10
705.6104558470681
 20
1682.308911220769
 10
706.7348676685635
 20
1682.283758060769
  0
LWPOLYLINE
  5
CD7
330
1F
100
AcDbEntity
  8
0
  6
Continuous
 62
     2
100
AcDbPolyline
 90
        7
 70
     0
 43
0.0
 10
696.610094881604
 20
1688.823758499243
 10
696.7643815046033
 20
1689.017861025241
 10
696.8765872481029
 20
1689.20531763274
 10
696.9411092761027
 20
1689.386277334741
 10
696.9494539266027
 20
1689.55874337424
 10
696.8991774086028
 20
1689.713328020239
 10
696.7844086651032
 20
1689.866482155238
  0
LWPOLYLINE
  5
CD8
330
1F
100
AcDbEntity
  8
0
  6
Continuous
 62
     2
100
AcDbPolyline
 90
        7
 70
     0
 43
0.0
 10
696.610094881604
 20
2274.145959748901
 10
696.7643815046033
 20
2273.951857223402
 10
696.8765872481029
 20
2273.764400615403
 10
696.9411092761027
 20
2273.583440913904
 10
696.9494539266027
 20
2273.410974874405
 10
696.8991774086028
 20
2273.256390227905
 10
696.7844086651032
 20
2273.103236093406
  0
LWPOLYLINE
  5
CD9
330
1F
100
AcDbEntity
  8
0
  6
Continuous
 62
     7
100
AcDbPolyline
 90
       13
 70
     0
 43
0.0
 10
693.9176040651148
 20
2277.149229182889
 10
694.8900240426112
 20
2277.702658309886
 10
695.8867627146071
 20
2278.211741580885
 10
696.905823326603
 20
2278.675465717383
 10
697.9451793195988
 20
2279.092906846881
 10
699.0027743340945
 20
2279.463230504879
 10
700.0764626030902
 20
2279.785661830878
 10
701.164098358586
 20
2280.059604777878
 10
702.2635358335817
 20
2280.284493102877
 10
703.3725696565768
 20
2280.459879769876
 10
704.4889348510726
 20
2280.585407151875
 10
705.6104558470681
 20
2280.660807027875
 10
706.7348676685635
 20
2280.685960187875
  0
LWPOLYLINE
  5
CDA
330
1F
100
AcDbEntity
  8
0
  6
Continuous
 62
     2
100
AcDbPolyline
 90
        9
 70
     0
 43
0.0
 10
693.9176040651148
 20
1685.820489065255
 10
693.7796491151155
 20
1685.958444015754
 10
693.646998978116
 20
1686.091094152753
 10
693.5247498516162
 20
1686.213343279253
 10
693.417610502617
 20
1686.320512430253
 10
693.3296638491177
 20
1686.408429281752
 10
693.2643371586175
 20
1686.473785774752
 10
693.2241040231177
 20
1686.514018909752
 10
693.2105141641175
 20
1686.527608768751
  0
LWPOLYLINE
  5
CDB
330
1F
100
AcDbEntity
  8
0
  6
Continuous
 62
     2
100
AcDbPolyline
 90
        7
 70
     0
 43
0.0
 10
693.9176040651148
 20
1685.820489065255
 10
694.5014315611127
 20
1686.464517252252
 10
695.0834411146104
 20
1687.11018456675
 10
695.6143098836085
 20
1687.702535526747
 10
696.1090582376062
 20
1688.257872001745
 10
696.371884918605
 20
1688.554256098244
 10
696.610094881604
 20
1688.823758499243
  0
LWPOLYLINE
  5
CDC
330
1F
100
AcDbEntity
  8
0
  6
Continuous
 62
     2
100
AcDbPolyline
 90
        9
 70
     0
 43
0.0
 10
696.610094881604
 20
1688.823758499243
 10
696.4686530596048
 20
1688.909499780742
 10
696.320416307605
 20
1688.973157541741
 10
696.1695867541059
 20
1689.012943641742
 10
696.0204559331066
 20
1689.027755396242
 10
695.877255774107
 20
1689.017175571742
 10
695.7440691951076
 20
1688.981472389742
 10
695.624651289608
 20
1688.921688930743
 10
695.5223697191084
 20
1688.839494125743
  0
LWPOLYLINE
  5
CDD
330
1F
100
AcDbEntity
  8
0
  6
Continuous
 62
     2
100
AcDbPolyline
 90
        9
 70
     0
 43
0.0
 10
693.9176040651148
 20
2277.149229182889
 10
693.7796491151155
 20
2277.01127423289
 10
693.646998978116
 20
2276.87862409589
 10
693.5247498516162
 20
2276.75637496939
 10
693.417610502617
 20
2276.649205817892
 10
693.3296638491177
 20
2276.561288966891
 10
693.2643371586175
 20
2276.495932473892
 10
693.2241040231177
 20
2276.455699338892
 10
693.2105141641175
 20
2276.442109479892
  0
LWPOLYLINE
  5
CDE
330
1F
100
AcDbEntity
  8
0
  6
Continuous
 62
     2
100
AcDbPolyline
 90
        9
 70
     0
 43
0.0
 10
696.610094881604
 20
2274.145959748901
 10
696.4686530596048
 20
2274.060218467401
 10
696.320416307605
 20
2273.996560706902
 10
696.1695867541059
 20
2273.956774606402
 10
696.0204559331066
 20
2273.941962852402
 10
695.877255774107
 20
2273.952542676902
 10
695.7440691951076
 20
2273.988245858901
 10
695.624651289608
 20
2274.048029317902
 10
695.5223697191084
 20
2274.130224122901
  0
LWPOLYLINE
  5
CDF
330
1F
100
AcDbEntity
  8
0
  6
Continuous
 62
     2
100
AcDbPolyline
 90
        7
 70
     0
 43
0.0
 10
693.9176040651148
 20
2277.149229182889
 10
694.5014315611127
 20
2276.505200996392
 10
695.0834411146104
 20
2275.859533681894
 10
695.6143098836085
 20
2275.267182721897
 10
696.1090582376062
 20
2274.711846246399
 10
696.371884918605
 20
2274.4154621504
 10
696.610094881604
 20
2274.145959748901
  0
LWPOLYLINE
  5
CE0
330
1F
100
AcDbEntity
  8
0
  6
Continuous
 62
     2
100
AcDbPolyline
 90
        9
 70
     0
 43
0.0
 10
1276.761056754784
 20
2268.663941754923
 10
1276.623101804784
 20
2268.801896705423
 10
1276.490451667785
 20
2268.934546842422
 10
1276.368202541286
 20
2269.056795968921
 10
1276.261033389786
 20
2269.163935317921
 10
1276.173116538786
 20
2269.251881971421
 10
1276.107760045787
 20
2269.31720866192
 10
1276.067526910787
 20
2269.35744179692
 10
1276.053937051787
 20
2269.37103165592
  0
LWPOLYLINE
  5
CE1
330
1F
100
AcDbEntity
  8
0
  6
Continuous
 62
     2
100
AcDbPolyline
 90
        9
 70
     0
 43
0.0
 10
1273.757787321296
 20
2265.971450938934
 10
1273.672046039796
 20
2266.112892760933
 10
1273.608388278796
 20
2266.261129512433
 10
1273.568602178297
 20
2266.411959066432
 10
1273.553790424297
 20
2266.561089887432
 10
1273.564370248797
 20
2266.704290046431
 10
1273.600073430797
 20
2266.837476625431
 10
1273.659856889796
 20
2266.95689453093
 10
1273.742051694796
 20
2267.05917610143
  0
LWPOLYLINE
  5
CE2
330
1F
100
AcDbEntity
  8
0
  6
Continuous
 62
     2
100
AcDbPolyline
 90
        9
 70
     0
 43
0.0
 10
1276.761056754784
 20
1694.305776493221
 10
1276.623101804784
 20
1694.167821543221
 10
1276.490451667785
 20
1694.035171406221
 10
1276.368202541286
 20
1693.912922279722
 10
1276.261033389786
 20
1693.805782930722
 10
1276.173116538786
 20
1693.717836277222
 10
1276.107760045787
 20
1693.652509586723
 10
1276.067526910787
 20
1693.612276451224
 10
1276.053937051787
 20
1693.598686592224
  0
LWPOLYLINE
  5
CE3
330
1F
100
AcDbEntity
  8
0
  6
Continuous
 62
     2
100
AcDbPolyline
 90
        9
 70
     0
 43
0.0
 10
1273.757787321296
 20
1696.99826730921
 10
1273.672046039796
 20
1696.85682548721
 10
1273.608388278796
 20
1696.708588735712
 10
1273.568602178297
 20
1696.557759182212
 10
1273.553790424297
 20
1696.408628361212
 10
1273.564370248797
 20
1696.265428201712
 10
1273.600073430797
 20
1696.132241623213
 10
1273.659856889796
 20
1696.012823717214
 10
1273.742051694796
 20
1695.910542146715
  0
LWPOLYLINE
  5
CE4
330
1F
100
AcDbEntity
  8
0
  6
Continuous
 62
     2
100
AcDbPolyline
 90
        7
 70
     0
 43
0.0
 10
1276.761056754784
 20
1694.305776493221
 10
1276.117028568287
 20
1694.889603988718
 10
1275.471361253789
 20
1695.471613542716
 10
1274.879010293792
 20
1696.002482311713
 10
1274.323673818793
 20
1696.497230665212
 10
1274.027289722295
 20
1696.76005734671
 10
1273.757787321296
 20
1696.99826730921
  0
LWPOLYLINE
  5
CE5
330
1F
100
AcDbEntity
  8
0
  6
Continuous
 62
     7
100
AcDbPolyline
 90
       13
 70
     0
 43
0.0
 10
1276.761056754784
 20
1694.305776493221
 10
1277.314485881781
 20
1695.278196470717
 10
1277.82356915278
 20
1696.274935142713
 10
1278.287293289278
 20
1697.293995754708
 10
1278.704734418776
 20
1698.333351747705
 10
1279.075058076775
 20
1699.3909467622
 10
1279.397489402774
 20
1700.464635031196
 10
1279.671432350272
 20
1701.552270786691
 10
1279.896320674772
 20
1702.651708261687
 10
1280.071707342271
 20
1703.760742084683
 10
1280.19723472377
 20
1704.877107279179
 10
1280.27263459977
 20
1705.998628275174
 10
1280.29778775977
 20
1707.12304009667
  0
LWPOLYLINE
  5
CE6
330
1F
100
AcDbEntity
  8
0
  6
Continuous
 62
     2
100
AcDbPolyline
 90
        7
 70
     0
 43
0.0
 10
1273.757787321296
 20
1696.99826730921
 10
1273.563684795297
 20
1697.152553932209
 10
1273.376228187298
 20
1697.264759676209
 10
1273.195268485798
 20
1697.329281704208
 10
1273.022802446299
 20
1697.337626354709
 10
1272.8682178003
 20
1697.287349836709
 10
1272.7150636653
 20
1697.172581093209
  0
LWPOLYLINE
  5
CE7
330
1F
100
AcDbEntity
  8
0
  6
Continuous
 62
     2
100
AcDbPolyline
 90
        7
 70
     0
 43
0.0
 10
1276.761056754784
 20
2268.663941754923
 10
1276.117028568287
 20
2268.080114259426
 10
1275.471361253789
 20
2267.498104705928
 10
1274.879010293792
 20
2266.96723593693
 10
1274.323673818793
 20
2266.472487582932
 10
1274.027289722295
 20
2266.209660901933
 10
1273.757787321296
 20
2265.971450938934
  0
LWPOLYLINE
  5
CE8
330
1F
100
AcDbEntity
  8
0
  6
Continuous
 62
     2
100
AcDbPolyline
 90
        7
 70
     0
 43
0.0
 10
1273.757787321296
 20
2265.971450938934
 10
1273.563684795297
 20
2265.817164315934
 10
1273.376228187298
 20
2265.704958572435
 10
1273.195268485798
 20
2265.640436544436
 10
1273.022802446299
 20
2265.632091893935
 10
1272.8682178003
 20
2265.682368411935
 10
1272.7150636653
 20
2265.797137155435
  0
LWPOLYLINE
  5
CE9
330
1F
100
AcDbEntity
  8
0
  6
Continuous
 62
     7
100
AcDbPolyline
 90
       13
 70
     0
 43
0.0
 10
1276.761056754784
 20
2268.663941754923
 10
1277.314485881781
 20
2267.691521777927
 10
1277.82356915278
 20
2266.694783105931
 10
1278.287293289278
 20
2265.675722493935
 10
1278.704734418776
 20
2264.636366500939
 10
1279.075058076775
 20
2263.578771485943
 10
1279.397489402774
 20
2262.505083217448
 10
1279.671432350272
 20
2261.417447461952
 10
1279.896320674772
 20
2260.318009986956
 10
1280.071707342271
 20
2259.208976163961
 10
1280.19723472377
 20
2258.092610969465
 10
1280.27263459977
 20
2256.97108997347
 10
1280.29778775977
 20
2255.846678151974
  0
LWPOLYLINE
  5
CEA
330
1F
100
AcDbEntity
  8
0
  6
Continuous
 62
     7
100
AcDbPolyline
 90
       12
 70
     0
 43
0.0
 10
1101.157376442986
 20
1981.583186699072
 10
1101.809101079483
 20
1981.588300125571
 10
1102.459313248481
 20
1981.614998357571
 10
1103.053243730979
 20
1981.660929760571
 10
1103.608416293977
 20
1981.72725737557
 10
1104.082958672974
 20
1981.80905195957
 10
1104.486407612473
 20
1981.90799799807
 10
1104.791516338472
 20
1982.01801952857
 10
1104.999439691471
 20
1982.140419005569
 10
1105.073952947971
 20
1982.222422598569
 10
1105.101371084471
 20
1982.306945244068
 10
1105.101460491001
 20
1982.310788696124
  0
LWPOLYLINE
  5
CEB
330
1F
100
AcDbEntity
  8
0
  6
Continuous
 62
     7
100
AcDbPolyline
 90
       11
 70
     0
 43
0.0
 10
1101.952286337483
 20
1991.554121360532
 10
1102.598087762481
 20
1991.478994362532
 10
1103.241408143977
 20
1991.426129699032
 10
1103.828059409976
 20
1991.399867334033
 10
1104.375364159474
 20
1991.399234034532
 10
1104.842269693471
 20
1991.424375087532
 10
1105.23788062197
 20
1991.475855805531
 10
1105.535307799469
 20
1991.550809577532
 10
1105.735698615468
 20
1991.650463887032
 10
1105.826498840967
 20
1991.781071633531
 10
1105.827094887428
 20
1991.7849263778
  0
LWPOLYLINE
  5
CEC
330
1F
100
AcDbEntity
  8
0
  6
Continuous
 62
     7
100
AcDbPolyline
 90
       12
 70
     0
 43
0.0
 10
1101.157376442986
 20
1981.386531549073
 10
1101.818451558484
 20
1981.381111936072
 10
1102.459313248481
 20
1981.354719891072
 10
1103.061186049979
 20
1981.307928251572
 10
1103.608416293977
 20
1981.242460872573
 10
1104.088762675475
 20
1981.159364765573
 10
1104.486407612473
 20
1981.061720250573
 10
1104.794742439972
 20
1980.950057147574
 10
1104.999439691471
 20
1980.829299243074
 10
1105.074183915971
 20
1980.746809499574
 10
1105.101371084471
 20
1980.662773004075
 10
1105.101460491001
 20
1980.658929552521
  0
LWPOLYLINE
  5
CED
330
1F
100
AcDbEntity
  8
0
  6
Continuous
 62
     7
100
AcDbPolyline
 90
       11
 70
     0
 43
0.0
 10
1101.952286337483
 20
1971.415596888112
 10
1102.60734883398
 20
1971.491563939112
 10
1103.241408143977
 20
1971.543588549611
 10
1103.835889969975
 20
1971.569951497612
 10
1104.375364159474
 20
1971.570484214112
 10
1104.847976838472
 20
1971.544727557112
 10
1105.23788062197
 20
1971.493862443112
 10
1105.538437043469
 20
1971.417622514613
 10
1105.735698615468
 20
1971.319254361613
 10
1105.826498840967
 20
1971.188646615113
 10
1105.827094887082
 20
1971.184791870948
  0
LWPOLYLINE
  5
CEE
330
1F
100
AcDbEntity
  8
0
  6
Continuous
 62
     7
100
AcDbPolyline
 90
       30
 70
     0
 43
0.0
 10
1286.153765294747
 20
2301.484851970291
 10
1286.964835498744
 20
2301.462977065792
 10
1287.77319369124
 20
2301.397441758792
 10
1288.576515291237
 20
2301.288424863792
 10
1289.372475717234
 20
2301.136224403293
 10
1290.158780191231
 20
2300.941287412294
 10
1290.933074329227
 20
2300.704209937795
 10
1291.693182561724
 20
2300.425647630296
 10
1292.436869714722
 20
2300.106405152797
 10
1293.161960218219
 20
2299.747465982299
 10
1293.866338107715
 20
2299.349813594801
 10
1294.548006627712
 20
2298.914610280802
 10
1295.20496902271
 20
2298.443167342804
 10
1295.835288141208
 20
2297.936796083306
 10
1296.437146041705
 20
2297.396986617808
 10
1297.008814189703
 20
2296.82531846981
 10
1297.548623655201
 20
2296.223460569313
 10
1298.054994914699
 20
2295.593141450815
 10
1298.526437852697
 20
2294.936179055818
 10
1298.961641166695
 20
2294.254510535821
 10
1299.359293554193
 20
2293.550132646323
 10
1299.718232725192
 20
2292.825042142827
 10
1300.037475202191
 20
2292.081354989829
 10
1300.31603750969
 20
2291.321246757333
 10
1300.553114984189
 20
2290.546952619335
 10
1300.748051975188
 20
2289.760648145339
 10
1300.900252435687
 20
2288.964687719342
 10
1301.009269330687
 20
2288.161366119346
 10
1301.074804637687
 20
2287.353007926848
 10
1301.096679542187
 20
2286.541937722851
  0
LWPOLYLINE
  5
CEF
330
1F
100
AcDbEntity
  8
0
  6
Continuous
 62
     7
100
AcDbPolyline
 90
       30
 70
     0
 43
0.0
 10
661.0966938502463
 20
2286.541937722851
 10
661.1185687547461
 20
2287.353007926848
 10
661.1841040617458
 20
2288.161366119346
 10
661.2931209567453
 20
2288.964687719342
 10
661.4453214172447
 20
2289.760648145339
 10
661.6402584082441
 20
2290.546952619335
 10
661.8773358827432
 20
2291.321246757333
 10
662.1558981902419
 20
2292.081354989829
 10
662.4751406672406
 20
2292.825042142827
 10
662.8340798382399
 20
2293.550132646323
 10
663.2317322257375
 20
2294.254510535821
 10
663.6669355397364
 20
2294.936179055818
 10
664.1383784777338
 20
2295.593141450815
 10
664.6447497372321
 20
2296.223460569313
 10
665.1845592027296
 20
2296.82531846981
 10
665.7562273507276
 20
2297.396986617808
 10
666.3580852512252
 20
2297.936796083306
 10
666.9884043697227
 20
2298.443167342804
 10
667.6453667647199
 20
2298.914610280802
 10
668.3270352847173
 20
2299.349813594801
 10
669.0314131742145
 20
2299.747465982299
 10
669.7565036777116
 20
2300.106405152797
 10
670.5001908307083
 20
2300.425647630296
 10
671.260299063206
 20
2300.704209937795
 10
672.0345932012021
 20
2300.941287412294
 10
672.8208976751991
 20
2301.136224403293
 10
673.6168581011959
 20
2301.288424863792
 10
674.4201797011926
 20
2301.397441758792
 10
675.2285378936897
 20
2301.462977065792
 10
676.0396080976864
 20
2301.484851970291
  0
LWPOLYLINE
  5
CF0
330
1F
100
AcDbEntity
  8
0
  6
Continuous
 62
     7
100
AcDbPolyline
 90
       30
 70
     0
 43
0.0
 10
661.0966938502463
 20
1676.427780525292
 10
661.1185687547461
 20
1675.616710321795
 10
661.1841040617458
 20
1674.808352129299
 10
661.2931209567453
 20
1674.005030529302
 10
661.4453214172447
 20
1673.209070102806
 10
661.6402584082441
 20
1672.422765629308
 10
661.8773358827432
 20
1671.648471491311
 10
662.1558981902419
 20
1670.888363258815
 10
662.4751406672406
 20
1670.144676105818
 10
662.8340798382399
 20
1669.419585602321
 10
663.2317322257375
 20
1668.715207712323
 10
663.6669355397364
 20
1668.033539192325
 10
664.1383784777338
 20
1667.376576797828
 10
664.6447497372321
 20
1666.746257679331
 10
665.1845592027296
 20
1666.144399778834
 10
665.7562273507276
 20
1665.572731630835
 10
666.3580852512252
 20
1665.032922165337
 10
666.9884043697227
 20
1664.52655090584
 10
667.6453667647199
 20
1664.055107967841
 10
668.3270352847173
 20
1663.619904653844
 10
669.0314131742145
 20
1663.222252266345
 10
669.7565036777116
 20
1662.863313095347
 10
670.5001908307083
 20
1662.544070617848
 10
671.260299063206
 20
1662.265508310849
 10
672.0345932012021
 20
1662.028430836349
 10
672.8208976751991
 20
1661.83349384535
 10
673.6168581011959
 20
1661.681293384851
 10
674.4201797011926
 20
1661.572276489851
 10
675.2285378936897
 20
1661.506741182852
 10
676.0396080976864
 20
1661.484866277852
  0
LWPOLYLINE
  5
CF1
330
1F
100
AcDbEntity
  8
0
  6
Continuous
 62
     7
100
AcDbPolyline
 90
       30
 70
     0
 43
0.0
 10
1286.153765294747
 20
1661.484866277852
 10
1286.964835498744
 20
1661.506741182852
 10
1287.77319369124
 20
1661.572276489851
 10
1288.576515291237
 20
1661.681293384851
 10
1289.372475717234
 20
1661.83349384535
 10
1290.158780191231
 20
1662.028430836349
 10
1290.933074329227
 20
1662.265508310849
 10
1291.693182561724
 20
1662.544070617848
 10
1292.436869714722
 20
1662.863313095347
 10
1293.161960218219
 20
1663.222252266345
 10
1293.866338107715
 20
1663.619904653844
 10
1294.548006627712
 20
1664.055107967841
 10
1295.20496902271
 20
1664.52655090584
 10
1295.835288141208
 20
1665.032922165337
 10
1296.437146041705
 20
1665.572731630835
 10
1297.008814189703
 20
1666.144399778834
 10
1297.548623655201
 20
1666.746257679331
 10
1298.054994914699
 20
1667.376576797828
 10
1298.526437852697
 20
1668.033539192325
 10
1298.961641166695
 20
1668.715207712323
 10
1299.359293554193
 20
1669.419585602321
 10
1299.718232725192
 20
1670.144676105818
 10
1300.037475202191
 20
1670.888363258815
 10
1300.31603750969
 20
1671.648471491311
 10
1300.553114984189
 20
1672.422765629308
 10
1300.748051975188
 20
1673.209070102806
 10
1300.900252435687
 20
1674.005030529302
 10
1301.009269330687
 20
1674.808352129299
 10
1301.074804637687
 20
1675.616710321795
 10
1301.096679542187
 20
1676.427780525292
  0
LWPOLYLINE
  5
CF2
330
1F
100
AcDbEntity
  8
0
  6
Continuous
 62
     2
100
AcDbPolyline
 90
        4
 70
     0
 43
0.0
 10
1272.589953515801
 20
2280.049203767377
 10
1272.6011591893
 20
2280.008136167378
 10
1272.618116710801
 20
2279.880671634378
 10
1272.6276534538
 20
2279.804049863878
  0
LWPOLYLINE
  5
CF3
330
1F
100
AcDbEntity
  8
0
  6
Continuous
 62
     2
100
AcDbPolyline
 90
        6
 70
     0
 43
0.0
 10
1279.415877435773
 20
2273.015825881906
 10
1279.508175228273
 20
2273.004322185406
 10
1279.583724115272
 20
2272.994606628406
 10
1279.634805295772
 20
2272.986858024405
 10
1279.659809444272
 20
2272.980510129906
 10
1279.661031339773
 20
2272.978125943906
  0
LWPOLYLINE
  5
CF4
330
1F
100
AcDbEntity
  8
0
  6
Continuous
 62
     2
100
AcDbPolyline
 90
       15
 70
     0
 43
0.0
 10
1279.615344379273
 20
2272.932438983906
 10
1279.622884366773
 20
2272.927700414406
 10
1279.654474828772
 20
2272.921531333906
 10
1279.706390474272
 20
2272.914766206406
 10
1279.778839919772
 20
2272.907703056406
 10
1279.869796607772
 20
2272.901057138406
 10
1279.976518724272
 20
2272.895633115406
 10
1280.064554784771
 20
2272.892801894906
 10
1280.158253286271
 20
2272.891252174406
 10
1280.25797185677
 20
2272.891192569406
 10
1280.361475322769
 20
2272.892831697407
 10
1280.524315212268
 20
2272.898762359406
 10
1280.692102287268
 20
2272.909014358406
 10
1280.865671012768
 20
2272.924064531406
 10
1281.040849063767
 20
2272.943734063906
  0
LWPOLYLINE
  5
CF5
330
1F
100
AcDbEntity
  8
0
  6
Continuous
 62
     2
100
AcDbPolyline
 90
        4
 70
     0
 43
0.0
 10
1272.589953515801
 20
1682.920514480766
 10
1272.6011591893
 20
1682.961582081266
 10
1272.618116710801
 20
1683.089046613765
 10
1272.6276534538
 20
1683.165668384765
  0
LWPOLYLINE
  5
CF6
330
1F
100
AcDbEntity
  8
0
  6
Continuous
 62
     2
100
AcDbPolyline
 90
        7
 70
     0
 43
0.0
 10
1279.615344379273
 20
1690.037279264737
 10
1279.654474828772
 20
1690.048186914738
 10
1279.778839919772
 20
1690.062015192237
 10
1279.976518724272
 20
1690.074085132737
 10
1280.361475322769
 20
1690.076886551238
 10
1280.697168682269
 20
1690.060197250737
 10
1281.040849063767
 20
1690.025984184738
  0
LWPOLYLINE
  5
CF7
330
1F
100
AcDbEntity
  8
0
  6
Continuous
 62
     2
100
AcDbPolyline
 90
        4
 70
     0
 43
0.0
 10
1279.415877435773
 20
1689.953892366737
 10
1279.583724115272
 20
1689.975111620237
 10
1279.659809444272
 20
1689.989208118738
 10
1279.661031339773
 20
1689.991592304738
  0
LWPOLYLINE
  5
CF8
330
1F
100
AcDbEntity
  8
0
  6
Continuous
 62
     7
100
AcDbPolyline
 90
        7
 70
     0
 43
0.0
 10
689.6491068366324
 20
1682.966201441266
 10
689.6600144866318
 20
1682.927070991766
 10
689.6738427641324
 20
1682.802705900267
 10
689.6859127046316
 20
1682.605027096268
 10
689.6887141231316
 20
1682.220070497769
 10
689.6720248226318
 20
1681.88437713827
 10
689.6378117566321
 20
1681.540696756772
  0
LWPOLYLINE
  5
CF9
330
1F
100
AcDbEntity
  8
0
  6
Continuous
 62
     2
100
AcDbPolyline
 90
        4
 70
     0
 43
0.0
 10
689.5657199386326
 20
1683.165668384765
 10
689.5869391921321
 20
1682.997821705265
 10
689.601035690632
 20
1682.921736376266
 10
689.6034198766322
 20
1682.920514480766
  0
LWPOLYLINE
  5
CFA
330
1F
100
AcDbEntity
  8
0
  6
Continuous
 62
     2
100
AcDbPolyline
 90
        4
 70
     0
 43
0.0
 10
682.5323420526604
 20
1689.991592304738
 10
682.5734096531603
 20
1689.980386631237
 10
682.7008741861598
 20
1689.963429109738
 10
682.7774959566593
 20
1689.953892366737
  0
LWPOLYLINE
  5
CFB
330
1F
100
AcDbEntity
  8
0
  6
Continuous
 62
     2
100
AcDbPolyline
 90
        7
 70
     0
 43
0.0
 10
681.1525243286658
 20
1690.025984184738
 10
681.5122979646646
 20
1690.061359541237
 10
681.8625050546632
 20
1690.077542202238
 10
682.2106557851619
 20
1690.074323551238
 10
682.4370044236609
 20
1690.060018436737
 10
682.5516241556604
 20
1690.046070949738
 10
682.5780290131604
 20
1690.037279264737
  0
LWPOLYLINE
  5
CFC
330
1F
100
AcDbEntity
  8
0
  6
Continuous
 62
     2
100
AcDbPolyline
 90
        7
 70
     0
 43
0.0
 10
1272.555561635801
 20
1681.540696756772
 10
1272.520484302301
 20
1681.89453973027
 10
1272.504003618301
 20
1682.250677482769
 10
1272.507222268801
 20
1682.598828213267
 10
1272.521527383801
 20
1682.825176851766
 10
1272.535474870801
 20
1682.939796583267
 10
1272.5442665558
 20
1682.966201441266
  0
LWPOLYLINE
  5
CFD
330
1F
100
AcDbEntity
  8
0
  6
Continuous
 62
     2
100
AcDbPolyline
 90
        7
 70
     0
 43
0.0
 10
1272.555561635801
 20
2281.429021491872
 10
1272.520484302301
 20
2281.075178517873
 10
1272.504003618301
 20
2280.719040765375
 10
1272.507222268801
 20
2280.370890035376
 10
1272.521527383801
 20
2280.144541396877
 10
1272.535474870801
 20
2280.029921664878
 10
1272.5442665558
 20
2280.003516807378
  0
LWPOLYLINE
  5
CFE
330
1F
100
AcDbEntity
  8
0
  6
Continuous
 62
     2
100
AcDbPolyline
 90
       11
 70
     0
 43
0.0
 10
689.6491068366324
 20
2280.003516807378
 10
689.6538454061317
 20
2280.011056794877
 10
689.6600144866318
 20
2280.042647256877
 10
689.6667796141317
 20
2280.094562902377
 10
689.6738427641324
 20
2280.167012347877
 10
689.6804886821317
 20
2280.257969035877
 10
689.6859127046316
 20
2280.364691152376
 10
689.6902936461317
 20
2280.546425714375
 10
689.6887141231316
 20
2280.749647750874
 10
689.6725314621319
 20
2281.080274715373
 10
689.6378117566321
 20
2281.429021491872
  0
LWPOLYLINE
  5
CFF
330
1F
100
AcDbEntity
  8
0
  6
Continuous
 62
     2
100
AcDbPolyline
 90
        7
 70
     0
 43
0.0
 10
681.1525243286658
 20
2272.943734063906
 10
681.5063673021643
 20
2272.908656730406
 10
681.8625050546632
 20
2272.892176046406
 10
682.2106557851619
 20
2272.895394696906
 10
682.4370044236609
 20
2272.909699811906
 10
682.5516241556604
 20
2272.923647298906
 10
682.5780290131604
 20
2272.932438983906
  0
LWPOLYLINE
  5
D00
330
1F
100
AcDbEntity
  8
0
  6
Continuous
 62
     2
100
AcDbPolyline
 90
        4
 70
     0
 43
0.0
 10
682.5323420526604
 20
2272.978125943906
 10
682.5734096531603
 20
2272.989331617405
 10
682.7008741861598
 20
2273.006289138406
 10
682.7774959566593
 20
2273.015825881906
  0
LWPOLYLINE
  5
D01
330
1F
100
AcDbEntity
  8
0
  6
Continuous
 62
     2
100
AcDbPolyline
 90
        4
 70
     0
 43
0.0
 10
689.5657199386326
 20
2279.804049863878
 10
689.5869391921321
 20
2279.971896543378
 10
689.601035690632
 20
2280.047981872378
 10
689.6034198766322
 20
2280.049203767377
  0
LWPOLYLINE
  5
D02
330
1F
100
AcDbEntity
  8
0
  6
Continuous
 62
     2
100
AcDbPolyline
 90
        7
 70
     0
 43
0.0
 10
686.139436340646
 20
2269.37103165592
 10
686.4674108986449
 20
2269.043057098421
 10
686.7953854566433
 20
2268.715112342923
 10
687.2611957556417
 20
2268.249272241425
 10
687.7090054516395
 20
2267.801462545427
 10
688.1024259096382
 20
2267.408042087428
 10
688.4513216976368
 20
2267.05917610143
  0
LWPOLYLINE
  5
D03
330
1F
100
AcDbEntity
  8
0
  6
Continuous
 62
     2
100
AcDbPolyline
 90
        7
 70
     0
 43
0.0
 10
686.139436340646
 20
1693.598686592224
 10
686.4674108986449
 20
1693.926661150222
 10
686.7953854566433
 20
1694.254605905721
 10
687.2611957556417
 20
1694.720446007219
 10
687.7090054516395
 20
1695.168255703217
 10
688.1024259096382
 20
1695.561676161215
 10
688.4513216976368
 20
1695.910542146715
  0
LWPOLYLINE
  5
D04
330
1F
100
AcDbEntity
  8
0
  6
Continuous
 62
     2
100
AcDbPolyline
 90
        7
 70
     0
 43
0.0
 10
1268.982859228315
 20
1686.527608768751
 10
1268.654884670317
 20
1686.855583326751
 10
1268.326939914818
 20
1687.183557884749
 10
1267.861099813319
 20
1687.649368183247
 10
1267.413290117321
 20
1688.097177879745
 10
1267.019869659323
 20
1688.490598337244
 10
1266.671003673324
 20
1688.839494125743
  0
LWPOLYLINE
  5
D05
330
1F
100
AcDbEntity
  8
0
  6
Continuous
 62
     2
100
AcDbPolyline
 90
        7
 70
     0
 43
0.0
 10
1268.982859228315
 20
2276.442109479892
 10
1268.654884670317
 20
2276.114134921894
 10
1268.326939914818
 20
2275.786160363894
 10
1267.861099813319
 20
2275.320350064897
 10
1267.413290117321
 20
2274.872540368898
 10
1267.019869659323
 20
2274.4791199109
 10
1266.671003673324
 20
2274.130224122901
  0
LWPOLYLINE
  5
D06
330
1F
100
AcDbEntity
  8
0
  6
Continuous
 62
     2
100
AcDbPolyline
 90
        7
 70
     0
 43
0.0
 10
695.5223697191084
 20
1688.839494125743
 10
695.317985392109
 20
1688.635109798743
 10
695.0882094866099
 20
1688.405304090745
 10
694.6742850306116
 20
1687.991409437246
 10
694.2054944996137
 20
1687.522589103748
 10
693.7222498421158
 20
1687.03937424875
 10
693.2105141641175
 20
1686.527608768751
  0
LWPOLYLINE
  5
D07
330
1F
100
AcDbEntity
  8
0
  6
Continuous
 62
     2
100
AcDbPolyline
 90
        7
 70
     0
 43
0.0
 10
695.5223697191084
 20
2274.130224122901
 10
695.317985392109
 20
2274.3346084499
 10
695.0882094866099
 20
2274.564414157899
 10
694.6742850306116
 20
2274.978308810898
 10
694.2054944996137
 20
2275.447129144397
 10
693.7222498421158
 20
2275.930343999894
 10
693.2105141641175
 20
2276.442109479892
  0
LWPOLYLINE
  5
D08
330
1F
100
AcDbEntity
  8
0
  6
Continuous
 62
     2
100
AcDbPolyline
 90
        7
 70
     0
 43
0.0
 10
1273.742051694796
 20
2267.05917610143
 10
1273.946436021796
 20
2267.263560428428
 10
1274.176241729794
 20
2267.493336333927
 10
1274.590136382793
 20
2267.907260789926
 10
1275.058956716291
 20
2268.376051320924
 10
1275.542171571789
 20
2268.859295978422
 10
1276.053937051787
 20
2269.37103165592
  0
LWPOLYLINE
  5
D09
330
1F
100
AcDbEntity
  8
0
  6
Continuous
 62
     2
100
AcDbPolyline
 90
        7
 70
     0
 43
0.0
 10
1273.742051694796
 20
1695.910542146715
 10
1273.946436021796
 20
1695.706157820216
 10
1274.176241729794
 20
1695.476381914216
 10
1274.590136382793
 20
1695.062457458718
 10
1275.058956716291
 20
1694.59366692772
 10
1275.542171571789
 20
1694.110422270222
 10
1276.053937051787
 20
1693.598686592224
  0
LWPOLYLINE
  5
D0A
330
1F
100
AcDbEntity
  8
0
  6
Continuous
 62
     7
100
AcDbPolyline
 90
       11
 70
     0
 43
0.0
 10
1113.536046718437
 20
2272.372155322908
 10
1113.943831895435
 20
2271.659551992412
 10
1114.312024687434
 20
2270.925341977914
 10
1114.639537309432
 20
2270.171671046917
 10
1114.925386284432
 20
2269.40083397842
 10
1115.16872224693
 20
2268.615095748923
 10
1115.368800137929
 20
2267.816840543426
 10
1115.525053714428
 20
2267.00842274643
 10
1115.636991237428
 20
2266.192286147933
 10
1115.704284881428
 20
2265.370814933436
 10
1115.726740930928
 20
2264.546512498939
  0
MTEXT
  5
D0C
330
1F
100
AcDbEntity
  8
0
 62
     7
100
AcDbMText
 10
937.5
 20
170.0
 30
0.0
 40
35.0
 41
0.0
 71
     5
 72
     1
  1
10
  7
CONVERTER_12
 73
     1
 44
1.32052821128451
  0
MTEXT
  5
D0D
330
1F
100
AcDbEntity
  8
0
 62
     7
100
AcDbMText
 10
852.5
 20
170.0
 30
0.0
 40
35.0
 41
0.0
 71
     5
 72
     1
  1
1
  7
CONVERTER_12
 73
     1
 44
1.32052821128451
  0
MTEXT
  5
D0E
330
1F
100
AcDbEntity
  8
1
 62
     7
100
AcDbMText
 10
569.9999999999999
 20
142.5
 30
0.0
 40
35.0
 41
0.0
 71
     5
 72
     1
  1
H5410-640
  7
CONVERTER_12
 73
     1
 44
0.7202881152461
  0
MTEXT
  5
D0F
330
1F
100
AcDbEntity
  8
1
 62
     7
100
AcDbMText
 10
570.0
 20
227.5000000000001
 30
0.0
 40
35.0
 41
0.0
 71
     5
 72
     1
  1
洗濯機パン
  7
CONVERTER_11
 73
     1
 44
0.54545454545455
  0
DIMENSION
  5
D1C
330
1F
100
AcDbEntity
  8
1
100
AcDbDimension
  2
*D2
 10
1631.144689479367
 20
2401.484851970291
 30
0.0
 11
1659.221732121505
 21
2428.984851970291
 31
0.0
 70
    32
  1
56
 71
     5
 42
-1.0
 53
0.00013888888889
  3
ME10_DIM_10
100
AcDbAlignedDimension
 13
1687.298774763642
 23
2301.484851970291
 33
0.0
 14
1631.144689479367
 24
2077.683359792687
 34
0.0
100
AcDbRotatedDimension
  0
DIMENSION
  5
D29
330
1F
100
AcDbEntity
  8
1
100
AcDbDimension
  2
*D3
 10
1604.298774763974
 20
2481.484851970291
 30
0.0
 11
1645.798774763808
 21
2508.984851970291
 31
0.0
 70
    32
  1
<>
 71
     5
 42
-1.0
 53
0.00013888888889
  3
ME10_DIM_11
100
AcDbAlignedDimension
 13
1687.298774763642
 23
2301.484851970291
 33
0.0
 14
1604.298774763974
 24
2255.846674280474
 34
0.0
100
AcDbRotatedDimension
  0
DIMENSION
  5
D34
330
1F
100
AcDbEntity
  8
1
100
AcDbDimension
  2
*D4
 10
661.0966938502463
 20
2481.484851970291
 30
0.0
 11
981.0966866964662
 21
2508.984851970291
 31
0.0
 70
    33
  1
<>
 71
     5
 42
-1.0
 53
0.00013888888889
  3
ME10_DIM_12
100
AcDbAlignedDimension
 13
1301.096679542187
 23
2286.541937722851
 33
0.0
 14
661.0966938502463
 24
2286.541937722851
 34
0.0
  0
DIMENSION
  5
D3F
330
1F
100
AcDbEntity
  8
1
100
AcDbDimension
  2
*D5
 10
481.0966938502463
 20
2301.484851970291
 30
0.0
 11
453.5966938502463
 21
1981.484859124072
 31
0.0
 70
    33
  1
<>
 71
     5
 42
-1.0
 53
90.0
  3
ME10_DIM_13
100
AcDbAlignedDimension
 13
676.0396080976864
 23
1661.484866277852
 33
0.0
 14
676.0396080976864
 24
2301.484851970291
 34
0.0
  0
DIMENSION
  5
D4A
330
1F
100
AcDbEntity
  8
1
100
AcDbDimension
  2
*D6
 10
1178.096790383679
 20
1561.484866277853
 30
0.0
 11
1239.553029857183
 21
1588.984866277853
 31
0.0
 70
    32
  1
<>
 71
     5
 42
-1.0
 53
0.00013888888889
  3
ME10_DIM_14
100
AcDbAlignedDimension
 13
1301.096679542187
 23
1676.427780525292
 33
0.0
 14
1178.096790383679
 24
1893.705075655093
 34
0.0
100
AcDbRotatedDimension
  0
DIMENSION
  5
D55
330
1F
100
AcDbEntity
  8
1
100
AcDbDimension
  2
*D7
 10
1401.009269330687
 20
1981.484859124072
 30
0.0
 11
1373.509269330687
 21
1821.484862700962
 31
0.0
 70
    32
  1
<>
 71
     5
 42
-1.0
 53
90.0
  3
ME10_DIM_15
100
AcDbAlignedDimension
 13
1286.153765294747
 23
1661.484866277852
 33
0.0
 14
1356.719328203964
 24
1981.484859124072
 34
0.0
 50
90.0
100
AcDbRotatedDimension
  0
DIMENSION
  5
D60
330
1F
100
AcDbEntity
  8
1
100
AcDbDimension
  2
*D8
 10
682.0966866976621
 20
2401.484851970291
 30
0.0
 11
981.0966866964662
 21
2428.984851970291
 31
0.0
 70
    32
  1
<>
 71
     5
 42
-1.0
 53
0.00013888888889
  3
ME10_DIM_16
100
AcDbAlignedDimension
 13
1280.096686695271
 23
2290.584859122836
 33
0.0
 14
682.0966866976621
 24
2290.484859122836
 34
0.0
100
AcDbRotatedDimension
  0
DIMENSION
  5
D6B
330
1F
100
AcDbEntity
  8
1
100
AcDbDimension
  2
*D9
 10
1102.096790383982
 20
1101.240162542693
 30
0.0
 11
1177.596788326202
 21
1128.740162542693
 31
0.0
 70
    32
  1
<>
 71
     5
 42
-1.0
 53
0.00013888888889
  3
ME10_DIM_17
100
AcDbAlignedDimension
 13
1254.096786268438
 23
1206.240162542693
 33
0.0
 14
1102.096790383982
 24
1207.00774453117
 34
0.0
100
AcDbRotatedDimension
  0
DIMENSION
  5
D76
330
1F
100
AcDbEntity
  8
1
100
AcDbDimension
  2
*D10
 10
561.0966938502463
 20
2280.484859122876
 30
0.0
 11
533.5966938502463
 21
1981.484859124072
 31
0.0
 70
    32
  1
<>
 71
     5
 42
-1.0
 53
90.0
  3
ME10_DIM_18
100
AcDbAlignedDimension
 13
671.9966866977031
 23
1682.484859125269
 33
0.0
 14
672.0966866977021
 24
2280.484859122876
 34
0.0
 50
90.0
100
AcDbRotatedDimension
  0
INSERT
  5
D80
330
1F
100
AcDbEntity
  8
1
100
AcDbBlockReference
  2
*D11
 10
0.0
 20
0.0
 30
0.0
  0
INSERT
  5
D88
330
1F
100
AcDbEntity
  8
1
100
AcDbBlockReference
  2
*D12
 10
0.0
 20
0.0
 30
0.0
  0
ENDSEC
  0
SECTION
  2
OBJECTS
  0
DICTIONARY
  5
C
330
0
100
AcDbDictionary
281
     1
  3
ACAD_GROUP
350
D
  3
ACAD_LAYOUT
350
1A
  3
ACAD_MATERIAL
350
3B
  3
ACAD_MLEADERSTYLE
350
D8B
  3
ACAD_MLINESTYLE
350
17
  3
ACAD_PLOTSETTINGS
350
19
  3
ACAD_PLOTSTYLENAME
350
E
  3
ACAD_VISUALSTYLE
350
2A
  3
AcDbVariableDictionary
350
D89
  0
DICTIONARY
  5
D
102
{ACAD_REACTORS
330
C
102
}
330
C
100
AcDbDictionary
281
     1
  0
DICTIONARY
  5
1A
102
{ACAD_REACTORS
330
C
102
}
330
C
100
AcDbDictionary
281
     1
  3
Layout1
350
1E
  3
Layout2
350
26
  3
Model
350
22
  0
DICTIONARY
  5
3B
102
{ACAD_REACTORS
330
C
102
}
330
C
100
AcDbDictionary
281
     1
  3
ByBlock
350
3D
  3
ByLayer
350
3C
  3
Global
350
3E
  0
DICTIONARY
  5
D8B
102
{ACAD_REACTORS
330
C
102
}
330
C
100
AcDbDictionary
281
     1
  0
DICTIONARY
  5
17
102
{ACAD_REACTORS
330
C
102
}
330
C
100
AcDbDictionary
281
     1
  3
Standard
350
18
  0
DICTIONARY
  5
19
102
{ACAD_REACTORS
330
C
102
}
330
C
100
AcDbDictionary
281
     1
  0
ACDBDICTIONARYWDFLT
  5
E
102
{ACAD_REACTORS
330
C
102
}
330
C
100
AcDbDictionary
281
     1
  3
Normal
350
F
100
AcDbDictionaryWithDefault
340
F
  0
DICTIONARY
  5
2A
102
{ACAD_REACTORS
330
C
102
}
330
C
100
AcDbDictionary
281
     1
  3
2dWireframe
350
2F
  3
3D Hidden
350
31
  3
3dWireframe
350
30
  3
Basic
350
32
  3
Brighten
350
36
  3
ColorChange
350
3A
  3
Conceptual
350
34
  3
Dim
350
35
  3
Facepattern
350
39
  3
Flat
350
2B
  3
FlatWithEdges
350
2C
  3
Gouraud
350
2D
  3
GouraudWithEdges
350
2E
  3
Linepattern
350
38
  3
Realistic
350
33
  3
Thicken
350
37
  0
DICTIONARY
  5
D89
102
{ACAD_REACTORS
330
C
102
}
330
C
100
AcDbDictionary
281
     1
  3
DIMASSOC
350
D8C
  3
HIDETEXT
350
D8D
  0
LAYOUT
  5
1E
102
{ACAD_REACTORS
330
1A
102
}
330
1A
100
AcDbPlotSettings
  1

  2
none_device
  4

  6

 40
0.0
 41
0.0
 42
0.0
 43
0.0
 44
0.0
 45
0.0
 46
0.0
 47
0.0
 48
0.0
 49
0.0
140
0.0
141
0.0
142
1.0
143
1.0
 70
   688
 72
     0
 73
     0
 74
     5
  7

 75
    16
147
1.0
148
0.0
149
0.0
100
AcDbLayout
  1
Layout1
 70
     1
 71
     1
 10
0.0
 20
0.0
 11
12.0
 21
9.0
 12
0.0
 22
0.0
 32
0.0
 14
1.00000000000000E+20
 24
1.00000000000000E+20
 34
1.00000000000000E+20
 15
-1.00000000000000E+20
 25
-1.00000000000000E+20
 35
-1.00000000000000E+20
146
0.0
 13
0.0
 23
0.0
 33
0.0
 16
1.0
 26
0.0
 36
0.0
 17
0.0
 27
1.0
 37
0.0
 76
     0
330
1B
  0
LAYOUT
  5
26
102
{ACAD_REACTORS
330
1A
102
}
330
1A
100
AcDbPlotSettings
  1

  2
none_device
  4

  6

 40
0.0
 41
0.0
 42
0.0
 43
0.0
 44
0.0
 45
0.0
 46
0.0
 47
0.0
 48
0.0
 49
0.0
140
0.0
141
0.0
142
1.0
143
1.0
 70
   688
 72
     0
 73
     0
 74
     5
  7

 75
    16
147
1.0
148
0.0
149
0.0
100
AcDbLayout
  1
Layout2
 70
     1
 71
     2
 10
0.0
 20
0.0
 11
0.0
 21
0.0
 12
0.0
 22
0.0
 32
0.0
 14
0.0
 24
0.0
 34
0.0
 15
0.0
 25
0.0
 35
0.0
146
0.0
 13
0.0
 23
0.0
 33
0.0
 16
1.0
 26
0.0
 36
0.0
 17
0.0
 27
1.0
 37
0.0
 76
     0
330
23
  0
LAYOUT
  5
22
102
{ACAD_REACTORS
330
1A
102
}
330
1A
100
AcDbPlotSettings
  1

  2
none_device
  4

  6

 40
0.0
 41
0.0
 42
0.0
 43
0.0
 44
0.0
 45
0.0
 46
0.0
 47
0.0
 48
0.0
 49
0.0
140
0.0
141
0.0
142
1.0
143
1.0
 70
  1712
 72
     0
 73
     0
 74
     0
  7

 75
     0
147
1.0
148
0.0
149
0.0
100
AcDbLayout
  1
Model
 70
     1
 71
     0
 10
0.0
 20
0.0
 11
12.0
 21
9.0
 12
0.0
 22
0.0
 32
0.0
 14
0.0
 24
0.0
 34
0.0
 15
2100.0
 25
2970.0
 35
0.0
146
0.0
 13
0.0
 23
0.0
 33
0.0
 16
1.0
 26
0.0
 36
0.0
 17
0.0
 27
1.0
 37
0.0
 76
     0
330
1F
331
29
  0
MATERIAL
  5
3D
102
{ACAD_REACTORS
330
3B
102
}
102
{ACAD_XDICTIONARY
360
DB0
102
}
330
3B
100
AcDbMaterial
  1
ByBlock
  0
MATERIAL
  5
3C
102
{ACAD_REACTORS
330
3B
102
}
102
{ACAD_XDICTIONARY
360
DAE
102
}
330
3B
100
AcDbMaterial
  1
ByLayer
  0
MATERIAL
  5
3E
102
{ACAD_REACTORS
330
3B
102
}
102
{ACAD_XDICTIONARY
360
DB2
102
}
330
3B
100
AcDbMaterial
  1
Global
  0
MLINESTYLE
  5
18
102
{ACAD_REACTORS
330
17
102
}
330
17
100
AcDbMlineStyle
  2
Standard
 70
     0
  3

 62
   256
 51
90.0
 52
90.0
 71
     2
 49
0.5
 62
   256
  6
BYLAYER
 49
-0.5
 62
   256
  6
BYLAYER
  0
ACDBPLACEHOLDER
  5
F
102
{ACAD_REACTORS
330
E
102
}
330
E
  0
VISUALSTYLE
  5
2F
102
{ACAD_REACTORS
330
2A
102
}
102
{ACAD_XDICTIONARY
360
D96
102
}
330
2A
100
AcDbVisualStyle
  2
2dWireframe
 70
     4
 71
     0
 72
     2
 73
     0
 90
        0
 40
-0.6
 41
-30.0
 62
     5
 63
     7
 74
     1
 91
        4
 64
     7
 65
   257
 75
     1
175
     1
 42
1.0
 92
        0
 66
   257
 43
1.0
 76
     1
 77
     6
 78
     2
 67
     7
 79
     5
170
     0
171
     0
290
     0
174
     0
 93
        1
 44
0.0
173
     0
291
     0
 45
0.0
1001
ACAD
1000
AcDbSavedByObjectVersion
1070
     0
  0
VISUALSTYLE
  5
31
102
{ACAD_REACTORS
330
2A
102
}
102
{ACAD_XDICTIONARY
360
D9A
102
}
330
2A
100
AcDbVisualStyle
  2
3D Hidden
 70
     6
 71
     1
 72
     2
 73
     2
 90
        0
 40
-0.6
 41
-30.0
 62
     5
 63
     7
 74
     2
 91
        2
 64
     7
 65
   257
 75
     2
175
     1
 42
40.0
 92
        0
 66
   257
 43
1.0
 76
     1
 77
     6
 78
     2
 67
     7
 79
     3
170
     0
171
     0
290
     0
174
     0
 93
        1
 44
0.0
173
     0
291
     0
 45
0.0
1001
ACAD
1000
AcDbSavedByObjectVersion
1070
     0
  0
VISUALSTYLE
  5
30
102
{ACAD_REACTORS
330
2A
102
}
102
{ACAD_XDICTIONARY
360
D98
102
}
330
2A
100
AcDbVisualStyle
  2
3dWireframe
 70
     5
 71
     0
 72
     2
 73
     0
 90
        0
 40
-0.6
 41
-30.0
 62
     5
 63
     7
 74
     1
 91
        4
 64
     7
 65
   257
 75
     1
175
     1
 42
1.0
 92
        0
 66
   257
 43
1.0
 76
     1
 77
     6
 78
     2
 67
     7
 79
     5
170
     0
171
     0
290
     0
174
     0
 93
        1
 44
0.0
173
     0
291
     0
 45
0.0
1001
ACAD
1000
AcDbSavedByObjectVersion
1070
     0
  0
VISUALSTYLE
  5
32
102
{ACAD_REACTORS
330
2A
102
}
102
{ACAD_XDICTIONARY
360
D9C
102
}
330
2A
100
AcDbVisualStyle
  2
Basic
 70
     7
 71
     1
 72
     0
 73
     1
 90
        0
 40
-0.6
 41
-30.0
 62
     5
 63
     7
 74
     0
 91
        4
 64
     7
 65
   257
 75
     1
175
     1
 42
1.0
 92
        8
 66
     7
 43
1.0
 76
     1
 77
     6
 78
     2
 67
     7
 79
     5
170
     0
171
     0
290
     0
174
     0
 93
        1
 44
0.0
173
     0
291
     1
 45
0.0
1001
ACAD
1000
AcDbSavedByObjectVersion
1070
     0
  0
VISUALSTYLE
  5
36
102
{ACAD_REACTORS
330
2A
102
}
102
{ACAD_XDICTIONARY
360
DA4
102
}
330
2A
100
AcDbVisualStyle
  2
Brighten
 70
    12
 71
     2
 72
     2
 73
     0
 90
        0
 40
-0.6
 41
-30.0
 62
     5
 63
     7
 74
     1
 91
        4
 64
     7
 65
   257
 75
     1
175
     1
 42
1.0
 92
        8
 66
     7
 43
1.0
 76
     1
 77
     6
 78
     2
 67
     7
 79
     5
170
     0
171
     0
290
     0
174
     0
 93
        1
 44
50.0
173
     0
291
     1
 45
0.0
1001
ACAD
1000
AcDbSavedByObjectVersion
1070
     0
  0
VISUALSTYLE
  5
3A
102
{ACAD_REACTORS
330
2A
102
}
102
{ACAD_XDICTIONARY
360
DAC
102
}
330
2A
100
AcDbVisualStyle
  2
ColorChange
 70
    16
 71
     2
 72
     2
 73
     3
 90
        0
 40
-0.6
 41
-30.0
 62
     5
 63
     8
 74
     1
 91
        4
 64
     7
 65
   257
 75
     1
175
     1
 42
1.0
 92
        8
 66
     8
 43
1.0
 76
     1
 77
     6
 78
     2
 67
     7
 79
     5
170
     0
171
     0
290
     0
174
     0
 93
        1
 44
0.0
173
     0
291
     1
 45
0.0
1001
ACAD
1000
AcDbSavedByObjectVersion
1070
     0
  0
VISUALSTYLE
  5
34
102
{ACAD_REACTORS
330
2A
102
}
102
{ACAD_XDICTIONARY
360
DA0
102
}
330
2A
100
AcDbVisualStyle
  2
Conceptual
 70
     9
 71
     3
 72
     2
 73
     0
 90
        0
 40
-0.6
 41
-30.0
 62
     5
 63
     7
 74
     2
 91
        2
 64
     7
 65
   257
 75
     1
175
     1
 42
40.0
 92
        8
 66
     7
 43
1.0
 76
     1
 77
     6
 78
     2
 67
     7
 79
     3
170
     0
171
     0
290
     0
174
     0
 93
        1
 44
0.0
173
     0
291
     0
 45
0.0
1001
ACAD
1000
AcDbSavedByObjectVersion
1070
     0
  0
VISUALSTYLE
  5
35
102
{ACAD_REACTORS
330
2A
102
}
102
{ACAD_XDICTIONARY
360
DA2
102
}
330
2A
100
AcDbVisualStyle
  2
Dim
 70
    11
 71
     2
 72
     2
 73
     0
 90
        0
 40
-0.6
 41
-30.0
 62
     5
 63
     7
 74
     1
 91
        4
 64
     7
 65
   257
 75
     1
175
     1
 42
1.0
 92
        8
 66
     7
 43
1.0
 76
     1
 77
     6
 78
     2
 67
     7
 79
     5
170
     0
171
     0
290
     0
174
     0
 93
        1
 44
-50.0
173
     0
291
     1
 45
0.0
1001
ACAD
1000
AcDbSavedByObjectVersion
1070
     0
  0
VISUALSTYLE
  5
39
102
{ACAD_REACTORS
330
2A
102
}
102
{ACAD_XDICTIONARY
360
DAA
102
}
330
2A
100
AcDbVisualStyle
  2
Facepattern
 70
    15
 71
     2
 72
     2
 73
     0
 90
        0
 40
-0.6
 41
-30.0
 62
     5
 63
     7
 74
     1
 91
        4
 64
     7
 65
   257
 75
     1
175
     1
 42
1.0
 92
        8
 66
     7
 43
1.0
 76
     1
 77
     6
 78
     2
 67
     7
 79
     5
170
     0
171
     0
290
     0
174
     0
 93
        1
 44
0.0
173
     0
291
     1
 45
0.0
1001
ACAD
1000
AcDbSavedByObjectVersion
1070
     0
  0
VISUALSTYLE
  5
2B
102
{ACAD_REACTORS
330
2A
102
}
102
{ACAD_XDICTIONARY
360
D8E
102
}
330
2A
100
AcDbVisualStyle
  2
Flat
 70
     0
 71
     2
 72
     1
 73
     1
 90
        2
 40
-0.6
 41
30.0
 62
     5
 63
     7
 74
     0
 91
        4
 64
     7
 65
   257
 75
     1
175
     1
 42
1.0
 92
        8
 66
     7
 43
1.0
 76
     1
 77
     6
 78
     2
 67
     7
 79
     5
170
     0
171
     0
290
     0
174
     0
 93
       13
 44
0.0
173
     0
291
     1
 45
0.0
1001
ACAD
1000
AcDbSavedByObjectVersion
1070
     0
  0
VISUALSTYLE
  5
2C
102
{ACAD_REACTORS
330
2A
102
}
102
{ACAD_XDICTIONARY
360
D90
102
}
330
2A
100
AcDbVisualStyle
  2
FlatWithEdges
 70
     1
 71
     2
 72
     1
 73
     1
 90
        2
 40
-0.6
 41
30.0
 62
     5
 63
     7
 74
     1
 91
        4
 64
     7
 65
   257
 75
     1
175
     1
 42
1.0
 92
        0
 66
   257
 43
1.0
 76
     1
 77
     6
 78
     2
 67
     7
 79
     5
170
     0
171
     0
290
     0
174
     0
 93
       13
 44
0.0
173
     0
291
     1
 45
0.0
1001
ACAD
1000
AcDbSavedByObjectVersion
1070
     0
  0
VISUALSTYLE
  5
2D
102
{ACAD_REACTORS
330
2A
102
}
102
{ACAD_XDICTIONARY
360
D92
102
}
330
2A
100
AcDbVisualStyle
  2
Gouraud
 70
     2
 71
     2
 72
     2
 73
     1
 90
        2
 40
-0.6
 41
30.0
 62
     5
 63
     7
 74
     0
 91
        4
 64
     7
 65
   257
 75
     1
175
     1
 42
1.0
 92
        0
 66
     7
 43
1.0
 76
     1
 77
     6
 78
     2
 67
     7
 79
     5
170
     0
171
     0
290
     0
174
     0
 93
       13
 44
0.0
173
     0
291
     1
 45
0.0
1001
ACAD
1000
AcDbSavedByObjectVersion
1070
     0
  0
VISUALSTYLE
  5
2E
102
{ACAD_REACTORS
330
2A
102
}
102
{ACAD_XDICTIONARY
360
D94
102
}
330
2A
100
AcDbVisualStyle
  2
GouraudWithEdges
 70
     3
 71
     2
 72
     2
 73
     1
 90
        2
 40
-0.6
 41
30.0
 62
     5
 63
     7
 74
     1
 91
        4
 64
     7
 65
   257
 75
     1
175
     1
 42
1.0
 92
        0
 66
   257
 43
1.0
 76
     1
 77
     6
 78
     2
 67
     7
 79
     5
170
     0
171
     0
290
     0
174
     0
 93
       13
 44
0.0
173
     0
291
     1
 45
0.0
1001
ACAD
1000
AcDbSavedByObjectVersion
1070
     0
  0
VISUALSTYLE
  5
38
102
{ACAD_REACTORS
330
2A
102
}
102
{ACAD_XDICTIONARY
360
DA8
102
}
330
2A
100
AcDbVisualStyle
  2
Linepattern
 70
    14
 71
     2
 72
     2
 73
     0
 90
        0
 40
-0.6
 41
-30.0
 62
     5
 63
     7
 74
     1
 91
        4
 64
     7
 65
   257
 75
     7
175
     7
 42
1.0
 92
        8
 66
     7
 43
1.0
 76
     1
 77
     6
 78
     2
 67
     7
 79
     5
170
     0
171
     0
290
     0
174
     0
 93
        1
 44
0.0
173
     0
291
     1
 45
0.0
1001
ACAD
1000
AcDbSavedByObjectVersion
1070
     0
  0
VISUALSTYLE
  5
33
102
{ACAD_REACTORS
330
2A
102
}
102
{ACAD_XDICTIONARY
360
D9E
102
}
330
2A
100
AcDbVisualStyle
  2
Realistic
 70
     8
 71
     2
 72
     2
 73
     0
 90
        0
 40
-0.6
 41
-30.0
 62
     5
 63
     7
 74
     1
 91
        0
 64
     7
 65
   257
 75
     1
175
     1
 42
1.0
 92
        8
 66
     8
 43
1.0
 76
     1
 77
     6
 78
     2
 67
     7
 79
     5
170
     0
171
     0
290
     0
174
     0
 93
       13
 44
0.0
173
     0
291
     0
 45
0.0
1001
ACAD
1000
AcDbSavedByObjectVersion
1070
     0
  0
VISUALSTYLE
  5
37
102
{ACAD_REACTORS
330
2A
102
}
102
{ACAD_XDICTIONARY
360
DA6
102
}
330
2A
100
AcDbVisualStyle
  2
Thicken
 70
    13
 71
     2
 72
     2
 73
     0
 90
        0
 40
-0.6
 41
-30.0
 62
     5
 63
     7
 74
     1
 91
        4
 64
     7
 65
   257
 75
     1
175
     1
 42
1.0
 92
       12
 66
     7
 43
1.0
 76
     1
 77
     6
 78
     2
 67
     7
 79
     5
170
     0
171
     0
290
     0
174
     0
 93
        1
 44
0.0
173
     0
291
     1
 45
0.0
1001
ACAD
1000
AcDbSavedByObjectVersion
1070
     0
  0
DICTIONARYVAR
  5
D8C
102
{ACAD_REACTORS
330
D89
102
}
330
D89
100
DictionaryVariables
280
     0
  1
2
  0
DICTIONARYVAR
  5
D8D
102
{ACAD_REACTORS
330
D89
102
}
330
D89
100
DictionaryVariables
280
     0
  1
1
  0
DICTIONARY
  5
DB0
330
3D
100
AcDbDictionary
280
     1
281
     1
  3
ACAD_XREC_ROUNDTRIP
360
DB1
  0
DICTIONARY
  5
DAE
330
3C
100
AcDbDictionary
280
     1
281
     1
  3
ACAD_XREC_ROUNDTRIP
360
DAF
  0
DICTIONARY
  5
DB2
330
3E
100
AcDbDictionary
280
     1
281
     1
  3
ACAD_XREC_ROUNDTRIP
360
DB3
  0
DICTIONARY
  5
D96
330
2F
100
AcDbDictionary
280
     1
281
     1
  3
ACAD_XREC_ROUNDTRIP
360
D97
  0
DICTIONARY
  5
D9A
330
31
100
AcDbDictionary
280
     1
281
     1
  3
ACAD_XREC_ROUNDTRIP
360
D9B
  0
DICTIONARY
  5
D98
330
30
100
AcDbDictionary
280
     1
281
     1
  3
ACAD_XREC_ROUNDTRIP
360
D99
  0
DICTIONARY
  5
D9C
330
32
100
AcDbDictionary
280
     1
281
     1
  3
ACAD_XREC_ROUNDTRIP
360
D9D
  0
DICTIONARY
  5
DA4
330
36
100
AcDbDictionary
280
     1
281
     1
  3
ACAD_XREC_ROUNDTRIP
360
DA5
  0
DICTIONARY
  5
DAC
330
3A
100
AcDbDictionary
280
     1
281
     1
  3
ACAD_XREC_ROUNDTRIP
360
DAD
  0
DICTIONARY
  5
DA0
330
34
100
AcDbDictionary
280
     1
281
     1
  3
ACAD_XREC_ROUNDTRIP
360
DA1
  0
DICTIONARY
  5
DA2
330
35
100
AcDbDictionary
280
     1
281
     1
  3
ACAD_XREC_ROUNDTRIP
360
DA3
  0
DICTIONARY
  5
DAA
330
39
100
AcDbDictionary
280
     1
281
     1
  3
ACAD_XREC_ROUNDTRIP
360
DAB
  0
DICTIONARY
  5
D8E
330
2B
100
AcDbDictionary
280
     1
281
     1
  3
ACAD_XREC_ROUNDTRIP
360
D8F
  0
DICTIONARY
  5
D90
330
2C
100
AcDbDictionary
280
     1
281
     1
  3
ACAD_XREC_ROUNDTRIP
360
D91
  0
DICTIONARY
  5
D92
330
2D
100
AcDbDictionary
280
     1
281
     1
  3
ACAD_XREC_ROUNDTRIP
360
D93
  0
DICTIONARY
  5
D94
330
2E
100
AcDbDictionary
280
     1
281
     1
  3
ACAD_XREC_ROUNDTRIP
360
D95
  0
DICTIONARY
  5
DA8
330
38
100
AcDbDictionary
280
     1
281
     1
  3
ACAD_XREC_ROUNDTRIP
360
DA9
  0
DICTIONARY
  5
D9E
330
33
100
AcDbDictionary
280
     1
281
     1
  3
ACAD_XREC_ROUNDTRIP
360
D9F
  0
DICTIONARY
  5
DA6
330
37
100
AcDbDictionary
280
     1
281
     1
  3
ACAD_XREC_ROUNDTRIP
360
DA7
  0
XRECORD
  5
DB1
102
{ACAD_REACTORS
330
DB0
102
}
330
DB0
100
AcDbXrecord
280
     1
102
MATERIAL
148
0.0
149
0.0
149
0.0
 93
        0
 94
      127
282
     0
 72
     1
 77
     1
171
     1
175
     1
179
     1
273
     0
  0
XRECORD
  5
DAF
102
{ACAD_REACTORS
330
DAE
102
}
330
DAE
100
AcDbXrecord
280
     1
102
MATERIAL
148
0.0
149
0.0
149
0.0
 93
        0
 94
      127
282
     0
 72
     1
 77
     1
171
     1
175
     1
179
     1
273
     0
  0
XRECORD
  5
DB3
102
{ACAD_REACTORS
330
DB2
102
}
330
DB2
100
AcDbXrecord
280
     1
102
MATERIAL
148
0.0
149
0.0
149
0.0
 93
        0
 94
      127
282
     0
 72
     1
 77
     1
171
     1
175
     1
179
     1
273
     0
  0
XRECORD
  5
D97
102
{ACAD_REACTORS
330
D96
102
}
330
D96
100
AcDbXrecord
280
     1
102
RTVSPropertyOp0
 70
     1
102
RTVSPropertyOp1
 70
     1
102
RTVSPropertyOp2
 70
     1
102
RTVSPropertyOp3
 70
     1
102
RTVSPropertyOp4
 70
     1
102
RTVSPropertyOp5
 70
     1
102
RTVSPropertyOp6
 70
     1
102
RTVSPropertyOp7
 70
     1
102
RTVSPropertyOp8
 70
     1
102
RTVSPropertyOp9
 70
     1
102
RTVSPropertyOp10
 70
     1
102
RTVSPropertyOp11
 70
     1
102
RTVSPropertyOp12
 70
     1
102
RTVSPropertyOp13
 70
     1
102
RTVSPropertyOp14
 70
     1
102
RTVSPropertyOp15
 70
     1
102
RTVSPropertyOp16
 70
     1
102
RTVSPropertyOp17
 70
     1
102
RTVSPropertyOp18
 70
     1
102
RTVSPropertyOp19
 70
     1
102
RTVSPropertyOp20
 70
     1
102
RTVSPropertyOp21
 70
     1
102
RTVSPropertyOp22
 70
     1
102
RTVSPropertyOp23
 70
     1
102
RTVSPropertyOp24
 70
     1
102
RTVSPropertyOp25
 70
     1
102
RTVSPropertyOp26
 70
     1
102
RTVSPropertyOp27
 70
     1
102
RTVSPropertyOp28
 70
     1
102
RTVSPropertyOp29
 70
     1
102
RTVSPropertyOp30
 70
     1
102
RTVSPropertyOp31
 70
     1
102
RTVSPropertyOp32
 70
     1
  0
XRECORD
  5
D9B
102
{ACAD_REACTORS
330
D9A
102
}
330
D9A
100
AcDbXrecord
280
     1
102
RTVSPropertyOp0
 70
     1
102
RTVSPropertyOp1
 70
     1
102
RTVSPropertyOp2
 70
     1
102
RTVSPropertyOp3
 70
     1
102
RTVSPropertyOp4
 70
     1
102
RTVSPropertyOp5
 70
     1
102
RTVSPropertyOp6
 70
     1
102
RTVSPropertyOp7
 70
     1
102
RTVSPropertyOp8
 70
     1
102
RTVSPropertyOp9
 70
     1
102
RTVSPropertyOp10
 70
     1
102
RTVSPropertyOp11
 70
     1
102
RTVSPropertyOp12
 70
     1
102
RTVSPropertyOp13
 70
     1
102
RTVSPropertyOp14
 70
     1
102
RTVSPropertyOp15
 70
     1
102
RTVSPropertyOp16
 70
     1
102
RTVSPropertyOp17
 70
     1
102
RTVSPropertyOp18
 70
     1
102
RTVSPropertyOp19
 70
     1
102
RTVSPropertyOp20
 70
     1
102
RTVSPropertyOp21
 70
     1
102
RTVSPropertyOp22
 70
     1
102
RTVSPropertyOp23
 70
     1
102
RTVSPropertyOp24
 70
     1
102
RTVSPropertyOp25
 70
     1
102
RTVSPropertyOp26
 70
     1
102
RTVSPropertyOp27
 70
     1
102
RTVSPropertyOp28
 70
     1
102
RTVSPropertyOp29
 70
     1
102
RTVSPropertyOp30
 70
     1
102
RTVSPropertyOp31
 70
     1
102
RTVSPropertyOp32
 70
     1
  0
XRECORD
  5
D99
102
{ACAD_REACTORS
330
D98
102
}
330
D98
100
AcDbXrecord
280
     1
102
RTVSPropertyOp0
 70
     1
102
RTVSPropertyOp1
 70
     1
102
RTVSPropertyOp2
 70
     1
102
RTVSPropertyOp3
 70
     1
102
RTVSPropertyOp4
 70
     1
102
RTVSPropertyOp5
 70
     1
102
RTVSPropertyOp6
 70
     1
102
RTVSPropertyOp7
 70
     1
102
RTVSPropertyOp8
 70
     1
102
RTVSPropertyOp9
 70
     1
102
RTVSPropertyOp10
 70
     1
102
RTVSPropertyOp11
 70
     1
102
RTVSPropertyOp12
 70
     1
102
RTVSPropertyOp13
 70
     1
102
RTVSPropertyOp14
 70
     1
102
RTVSPropertyOp15
 70
     1
102
RTVSPropertyOp16
 70
     1
102
RTVSPropertyOp17
 70
     1
102
RTVSPropertyOp18
 70
     1
102
RTVSPropertyOp19
 70
     1
102
RTVSPropertyOp20
 70
     1
102
RTVSPropertyOp21
 70
     1
102
RTVSPropertyOp22
 70
     1
102
RTVSPropertyOp23
 70
     1
102
RTVSPropertyOp24
 70
     1
102
RTVSPropertyOp25
 70
     1
102
RTVSPropertyOp26
 70
     1
102
RTVSPropertyOp27
 70
     1
102
RTVSPropertyOp28
 70
     1
102
RTVSPropertyOp29
 70
     1
102
RTVSPropertyOp30
 70
     1
102
RTVSPropertyOp31
 70
     1
102
RTVSPropertyOp32
 70
     1
  0
XRECORD
  5
D9D
102
{ACAD_REACTORS
330
D9C
102
}
330
D9C
100
AcDbXrecord
280
     1
102
RTVSPropertyOp0
 70
     1
102
RTVSPropertyOp1
 70
     1
102
RTVSPropertyOp2
 70
     1
102
RTVSPropertyOp3
 70
     1
102
RTVSPropertyOp4
 70
     1
102
RTVSPropertyOp5
 70
     1
102
RTVSPropertyOp6
 70
     1
102
RTVSPropertyOp7
 70
     1
102
RTVSPropertyOp8
 70
     1
102
RTVSPropertyOp9
 70
     1
102
RTVSPropertyOp10
 70
     1
102
RTVSPropertyOp11
 70
     1
102
RTVSPropertyOp12
 70
     1
102
RTVSPropertyOp13
 70
     1
102
RTVSPropertyOp14
 70
     1
102
RTVSPropertyOp15
 70
     1
102
RTVSPropertyOp16
 70
     1
102
RTVSPropertyOp17
 70
     1
102
RTVSPropertyOp18
 70
     1
102
RTVSPropertyOp19
 70
     1
102
RTVSPropertyOp20
 70
     1
102
RTVSPropertyOp21
 70
     1
102
RTVSPropertyOp22
 70
     1
102
RTVSPropertyOp23
 70
     1
102
RTVSPropertyOp24
 70
     1
102
RTVSPropertyOp25
 70
     1
102
RTVSPropertyOp26
 70
     1
102
RTVSPropertyOp27
 70
     1
102
RTVSPropertyOp28
 70
     1
102
RTVSPropertyOp29
 70
     1
102
RTVSPropertyOp30
 70
     1
102
RTVSPropertyOp31
 70
     1
102
RTVSPropertyOp32
 70
     1
  0
XRECORD
  5
DA5
102
{ACAD_REACTORS
330
DA4
102
}
330
DA4
100
AcDbXrecord
280
     1
102
RTVSPropertyOp0
 70
     1
102
RTVSPropertyOp1
 70
     1
102
RTVSPropertyOp2
 70
     1
102
RTVSPropertyOp3
 70
     1
102
RTVSPropertyOp4
 70
     1
102
RTVSPropertyOp5
 70
     1
102
RTVSPropertyOp6
 70
     1
102
RTVSPropertyOp7
 70
     1
102
RTVSPropertyOp8
 70
     1
102
RTVSPropertyOp9
 70
     1
102
RTVSPropertyOp10
 70
     1
102
RTVSPropertyOp11
 70
     1
102
RTVSPropertyOp12
 70
     1
102
RTVSPropertyOp13
 70
     1
102
RTVSPropertyOp14
 70
     1
102
RTVSPropertyOp15
 70
     1
102
RTVSPropertyOp16
 70
     1
102
RTVSPropertyOp17
 70
     1
102
RTVSPropertyOp18
 70
     1
102
RTVSPropertyOp19
 70
     1
102
RTVSPropertyOp20
 70
     1
102
RTVSPropertyOp21
 70
     1
102
RTVSPropertyOp22
 70
     1
102
RTVSPropertyOp23
 70
     1
102
RTVSPropertyOp24
 70
     1
102
RTVSPropertyOp25
 70
     1
102
RTVSPropertyOp26
 70
     1
102
RTVSPropertyOp27
 70
     1
102
RTVSPropertyOp28
 70
     1
102
RTVSPropertyOp29
 70
     1
102
RTVSPropertyOp30
 70
     1
102
RTVSPropertyOp31
 70
     1
102
RTVSPropertyOp32
 70
     1
  0
XRECORD
  5
DAD
102
{ACAD_REACTORS
330
DAC
102
}
330
DAC
100
AcDbXrecord
280
     1
102
RTVSPropertyOp0
 70
     1
102
RTVSPropertyOp1
 70
     1
102
RTVSPropertyOp2
 70
     1
102
RTVSPropertyOp3
 70
     1
102
RTVSPropertyOp4
 70
     1
102
RTVSPropertyOp5
 70
     1
102
RTVSPropertyOp6
 70
     1
102
RTVSPropertyOp7
 70
     1
102
RTVSPropertyOp8
 70
     1
102
RTVSPropertyOp9
 70
     1
102
RTVSPropertyOp10
 70
     1
102
RTVSPropertyOp11
 70
     1
102
RTVSPropertyOp12
 70
     1
102
RTVSPropertyOp13
 70
     1
102
RTVSPropertyOp14
 70
     1
102
RTVSPropertyOp15
 70
     1
102
RTVSPropertyOp16
 70
     1
102
RTVSPropertyOp17
 70
     1
102
RTVSPropertyOp18
 70
     1
102
RTVSPropertyOp19
 70
     1
102
RTVSPropertyOp20
 70
     1
102
RTVSPropertyOp21
 70
     1
102
RTVSPropertyOp22
 70
     1
102
RTVSPropertyOp23
 70
     1
102
RTVSPropertyOp24
 70
     1
102
RTVSPropertyOp25
 70
     1
102
RTVSPropertyOp26
 70
     1
102
RTVSPropertyOp27
 70
     1
102
RTVSPropertyOp28
 70
     1
102
RTVSPropertyOp29
 70
     1
102
RTVSPropertyOp30
 70
     1
102
RTVSPropertyOp31
 70
     1
102
RTVSPropertyOp32
 70
     1
  0
XRECORD
  5
DA1
102
{ACAD_REACTORS
330
DA0
102
}
330
DA0
100
AcDbXrecord
280
     1
102
RTVSPropertyOp0
 70
     1
102
RTVSPropertyOp1
 70
     1
102
RTVSPropertyOp2
 70
     1
102
RTVSPropertyOp3
 70
     1
102
RTVSPropertyOp4
 70
     1
102
RTVSPropertyOp5
 70
     1
102
RTVSPropertyOp6
 70
     1
102
RTVSPropertyOp7
 70
     1
102
RTVSPropertyOp8
 70
     1
102
RTVSPropertyOp9
 70
     1
102
RTVSPropertyOp10
 70
     1
102
RTVSPropertyOp11
 70
     1
102
RTVSPropertyOp12
 70
     1
102
RTVSPropertyOp13
 70
     1
102
RTVSPropertyOp14
 70
     1
102
RTVSPropertyOp15
 70
     1
102
RTVSPropertyOp16
 70
     1
102
RTVSPropertyOp17
 70
     1
102
RTVSPropertyOp18
 70
     1
102
RTVSPropertyOp19
 70
     1
102
RTVSPropertyOp20
 70
     1
102
RTVSPropertyOp21
 70
     1
102
RTVSPropertyOp22
 70
     1
102
RTVSPropertyOp23
 70
     1
102
RTVSPropertyOp24
 70
     1
102
RTVSPropertyOp25
 70
     1
102
RTVSPropertyOp26
 70
     1
102
RTVSPropertyOp27
 70
     1
102
RTVSPropertyOp28
 70
     1
102
RTVSPropertyOp29
 70
     1
102
RTVSPropertyOp30
 70
     1
102
RTVSPropertyOp31
 70
     1
102
RTVSPropertyOp32
 70
     1
  0
XRECORD
  5
DA3
102
{ACAD_REACTORS
330
DA2
102
}
330
DA2
100
AcDbXrecord
280
     1
102
RTVSPropertyOp0
 70
     1
102
RTVSPropertyOp1
 70
     1
102
RTVSPropertyOp2
 70
     1
102
RTVSPropertyOp3
 70
     1
102
RTVSPropertyOp4
 70
     1
102
RTVSPropertyOp5
 70
     1
102
RTVSPropertyOp6
 70
     1
102
RTVSPropertyOp7
 70
     1
102
RTVSPropertyOp8
 70
     1
102
RTVSPropertyOp9
 70
     1
102
RTVSPropertyOp10
 70
     1
102
RTVSPropertyOp11
 70
     1
102
RTVSPropertyOp12
 70
     1
102
RTVSPropertyOp13
 70
     1
102
RTVSPropertyOp14
 70
     1
102
RTVSPropertyOp15
 70
     1
102
RTVSPropertyOp16
 70
     1
102
RTVSPropertyOp17
 70
     1
102
RTVSPropertyOp18
 70
     1
102
RTVSPropertyOp19
 70
     1
102
RTVSPropertyOp20
 70
     1
102
RTVSPropertyOp21
 70
     1
102
RTVSPropertyOp22
 70
     1
102
RTVSPropertyOp23
 70
     1
102
RTVSPropertyOp24
 70
     1
102
RTVSPropertyOp25
 70
     1
102
RTVSPropertyOp26
 70
     1
102
RTVSPropertyOp27
 70
     1
102
RTVSPropertyOp28
 70
     1
102
RTVSPropertyOp29
 70
     1
102
RTVSPropertyOp30
 70
     1
102
RTVSPropertyOp31
 70
     1
102
RTVSPropertyOp32
 70
     1
  0
XRECORD
  5
DAB
102
{ACAD_REACTORS
330
DAA
102
}
330
DAA
100
AcDbXrecord
280
     1
102
RTVSPropertyOp0
 70
     1
102
RTVSPropertyOp1
 70
     1
102
RTVSPropertyOp2
 70
     1
102
RTVSPropertyOp3
 70
     1
102
RTVSPropertyOp4
 70
     1
102
RTVSPropertyOp5
 70
     1
102
RTVSPropertyOp6
 70
     1
102
RTVSPropertyOp7
 70
     1
102
RTVSPropertyOp8
 70
     1
102
RTVSPropertyOp9
 70
     1
102
RTVSPropertyOp10
 70
     1
102
RTVSPropertyOp11
 70
     1
102
RTVSPropertyOp12
 70
     1
102
RTVSPropertyOp13
 70
     1
102
RTVSPropertyOp14
 70
     1
102
RTVSPropertyOp15
 70
     1
102
RTVSPropertyOp16
 70
     1
102
RTVSPropertyOp17
 70
     1
102
RTVSPropertyOp18
 70
     1
102
RTVSPropertyOp19
 70
     1
102
RTVSPropertyOp20
 70
     1
102
RTVSPropertyOp21
 70
     1
102
RTVSPropertyOp22
 70
     1
102
RTVSPropertyOp23
 70
     1
102
RTVSPropertyOp24
 70
     1
102
RTVSPropertyOp25
 70
     1
102
RTVSPropertyOp26
 70
     1
102
RTVSPropertyOp27
 70
     1
102
RTVSPropertyOp28
 70
     1
102
RTVSPropertyOp29
 70
     1
102
RTVSPropertyOp30
 70
     1
102
RTVSPropertyOp31
 70
     1
102
RTVSPropertyOp32
 70
     1
  0
XRECORD
  5
D8F
102
{ACAD_REACTORS
330
D8E
102
}
330
D8E
100
AcDbXrecord
280
     1
102
RTVSPropertyOp0
 70
     1
102
RTVSPropertyOp1
 70
     1
102
RTVSPropertyOp2
 70
     1
102
RTVSPropertyOp3
 70
     1
102
RTVSPropertyOp4
 70
     1
102
RTVSPropertyOp5
 70
     1
102
RTVSPropertyOp6
 70
     1
102
RTVSPropertyOp7
 70
     1
102
RTVSPropertyOp8
 70
     1
102
RTVSPropertyOp9
 70
     1
102
RTVSPropertyOp10
 70
     1
102
RTVSPropertyOp11
 70
     1
102
RTVSPropertyOp12
 70
     1
102
RTVSPropertyOp13
 70
     1
102
RTVSPropertyOp14
 70
     1
102
RTVSPropertyOp15
 70
     1
102
RTVSPropertyOp16
 70
     1
102
RTVSPropertyOp17
 70
     1
102
RTVSPropertyOp18
 70
     1
102
RTVSPropertyOp19
 70
     1
102
RTVSPropertyOp20
 70
     1
102
RTVSPropertyOp21
 70
     1
102
RTVSPropertyOp22
 70
     1
102
RTVSPropertyOp23
 70
     1
102
RTVSPropertyOp24
 70
     1
102
RTVSPropertyOp25
 70
     1
102
RTVSPropertyOp26
 70
     1
102
RTVSPropertyOp27
 70
     1
102
RTVSPropertyOp28
 70
     1
102
RTVSPropertyOp29
 70
     1
102
RTVSPropertyOp30
 70
     1
102
RTVSPropertyOp31
 70
     1
102
RTVSPropertyOp32
 70
     1
  0
XRECORD
  5
D91
102
{ACAD_REACTORS
330
D90
102
}
330
D90
100
AcDbXrecord
280
     1
102
RTVSPropertyOp0
 70
     1
102
RTVSPropertyOp1
 70
     1
102
RTVSPropertyOp2
 70
     1
102
RTVSPropertyOp3
 70
     1
102
RTVSPropertyOp4
 70
     1
102
RTVSPropertyOp5
 70
     1
102
RTVSPropertyOp6
 70
     1
102
RTVSPropertyOp7
 70
     1
102
RTVSPropertyOp8
 70
     1
102
RTVSPropertyOp9
 70
     1
102
RTVSPropertyOp10
 70
     1
102
RTVSPropertyOp11
 70
     1
102
RTVSPropertyOp12
 70
     1
102
RTVSPropertyOp13
 70
     1
102
RTVSPropertyOp14
 70
     1
102
RTVSPropertyOp15
 70
     1
102
RTVSPropertyOp16
 70
     1
102
RTVSPropertyOp17
 70
     1
102
RTVSPropertyOp18
 70
     1
102
RTVSPropertyOp19
 70
     1
102
RTVSPropertyOp20
 70
     1
102
RTVSPropertyOp21
 70
     1
102
RTVSPropertyOp22
 70
     1
102
RTVSPropertyOp23
 70
     1
102
RTVSPropertyOp24
 70
     1
102
RTVSPropertyOp25
 70
     1
102
RTVSPropertyOp26
 70
     1
102
RTVSPropertyOp27
 70
     1
102
RTVSPropertyOp28
 70
     1
102
RTVSPropertyOp29
 70
     1
102
RTVSPropertyOp30
 70
     1
102
RTVSPropertyOp31
 70
     1
102
RTVSPropertyOp32
 70
     1
  0
XRECORD
  5
D93
102
{ACAD_REACTORS
330
D92
102
}
330
D92
100
AcDbXrecord
280
     1
102
RTVSPropertyOp0
 70
     1
102
RTVSPropertyOp1
 70
     1
102
RTVSPropertyOp2
 70
     1
102
RTVSPropertyOp3
 70
     1
102
RTVSPropertyOp4
 70
     1
102
RTVSPropertyOp5
 70
     1
102
RTVSPropertyOp6
 70
     1
102
RTVSPropertyOp7
 70
     1
102
RTVSPropertyOp8
 70
     1
102
RTVSPropertyOp9
 70
     1
102
RTVSPropertyOp10
 70
     1
102
RTVSPropertyOp11
 70
     1
102
RTVSPropertyOp12
 70
     1
102
RTVSPropertyOp13
 70
     1
102
RTVSPropertyOp14
 70
     1
102
RTVSPropertyOp15
 70
     1
102
RTVSPropertyOp16
 70
     1
102
RTVSPropertyOp17
 70
     1
102
RTVSPropertyOp18
 70
     1
102
RTVSPropertyOp19
 70
     1
102
RTVSPropertyOp20
 70
     1
102
RTVSPropertyOp21
 70
     1
102
RTVSPropertyOp22
 70
     1
102
RTVSPropertyOp23
 70
     1
102
RTVSPropertyOp24
 70
     1
102
RTVSPropertyOp25
 70
     1
102
RTVSPropertyOp26
 70
     1
102
RTVSPropertyOp27
 70
     1
102
RTVSPropertyOp28
 70
     1
102
RTVSPropertyOp29
 70
     1
102
RTVSPropertyOp30
 70
     1
102
RTVSPropertyOp31
 70
     1
102
RTVSPropertyOp32
 70
     1
  0
XRECORD
  5
D95
102
{ACAD_REACTORS
330
D94
102
}
330
D94
100
AcDbXrecord
280
     1
102
RTVSPropertyOp0
 70
     1
102
RTVSPropertyOp1
 70
     1
102
RTVSPropertyOp2
 70
     1
102
RTVSPropertyOp3
 70
     1
102
RTVSPropertyOp4
 70
     1
102
RTVSPropertyOp5
 70
     1
102
RTVSPropertyOp6
 70
     1
102
RTVSPropertyOp7
 70
     1
102
RTVSPropertyOp8
 70
     1
102
RTVSPropertyOp9
 70
     1
102
RTVSPropertyOp10
 70
     1
102
RTVSPropertyOp11
 70
     1
102
RTVSPropertyOp12
 70
     1
102
RTVSPropertyOp13
 70
     1
102
RTVSPropertyOp14
 70
     1
102
RTVSPropertyOp15
 70
     1
102
RTVSPropertyOp16
 70
     1
102
RTVSPropertyOp17
 70
     1
102
RTVSPropertyOp18
 70
     1
102
RTVSPropertyOp19
 70
     1
102
RTVSPropertyOp20
 70
     1
102
RTVSPropertyOp21
 70
     1
102
RTVSPropertyOp22
 70
     1
102
RTVSPropertyOp23
 70
     1
102
RTVSPropertyOp24
 70
     1
102
RTVSPropertyOp25
 70
     1
102
RTVSPropertyOp26
 70
     1
102
RTVSPropertyOp27
 70
     1
102
RTVSPropertyOp28
 70
     1
102
RTVSPropertyOp29
 70
     1
102
RTVSPropertyOp30
 70
     1
102
RTVSPropertyOp31
 70
     1
102
RTVSPropertyOp32
 70
     1
  0
XRECORD
  5
DA9
102
{ACAD_REACTORS
330
DA8
102
}
330
DA8
100
AcDbXrecord
280
     1
102
RTVSPropertyOp0
 70
     1
102
RTVSPropertyOp1
 70
     1
102
RTVSPropertyOp2
 70
     1
102
RTVSPropertyOp3
 70
     1
102
RTVSPropertyOp4
 70
     1
102
RTVSPropertyOp5
 70
     1
102
RTVSPropertyOp6
 70
     1
102
RTVSPropertyOp7
 70
     1
102
RTVSPropertyOp8
 70
     1
102
RTVSPropertyOp9
 70
     1
102
RTVSPropertyOp10
 70
     1
102
RTVSPropertyOp11
 70
     1
102
RTVSPropertyOp12
 70
     1
102
RTVSPropertyOp13
 70
     1
102
RTVSPropertyOp14
 70
     1
102
RTVSPropertyOp15
 70
     1
102
RTVSPropertyOp16
 70
     1
102
RTVSPropertyOp17
 70
     1
102
RTVSPropertyOp18
 70
     1
102
RTVSPropertyOp19
 70
     1
102
RTVSPropertyOp20
 70
     1
102
RTVSPropertyOp21
 70
     1
102
RTVSPropertyOp22
 70
     1
102
RTVSPropertyOp23
 70
     1
102
RTVSPropertyOp24
 70
     1
102
RTVSPropertyOp25
 70
     1
102
RTVSPropertyOp26
 70
     1
102
RTVSPropertyOp27
 70
     1
102
RTVSPropertyOp28
 70
     1
102
RTVSPropertyOp29
 70
     1
102
RTVSPropertyOp30
 70
     1
102
RTVSPropertyOp31
 70
     1
102
RTVSPropertyOp32
 70
     1
  0
XRECORD
  5
D9F
102
{ACAD_REACTORS
330
D9E
102
}
330
D9E
100
AcDbXrecord
280
     1
102
RTVSPropertyOp0
 70
     1
102
RTVSPropertyOp1
 70
     1
102
RTVSPropertyOp2
 70
     1
102
RTVSPropertyOp3
 70
     1
102
RTVSPropertyOp4
 70
     1
102
RTVSPropertyOp5
 70
     1
102
RTVSPropertyOp6
 70
     1
102
RTVSPropertyOp7
 70
     1
102
RTVSPropertyOp8
 70
     1
102
RTVSPropertyOp9
 70
     1
102
RTVSPropertyOp10
 70
     1
102
RTVSPropertyOp11
 70
     1
102
RTVSPropertyOp12
 70
     1
102
RTVSPropertyOp13
 70
     1
102
RTVSPropertyOp14
 70
     1
102
RTVSPropertyOp15
 70
     1
102
RTVSPropertyOp16
 70
     1
102
RTVSPropertyOp17
 70
     1
102
RTVSPropertyOp18
 70
     1
102
RTVSPropertyOp19
 70
     1
102
RTVSPropertyOp20
 70
     1
102
RTVSPropertyOp21
 70
     1
102
RTVSPropertyOp22
 70
     1
102
RTVSPropertyOp23
 70
     1
102
RTVSPropertyOp24
 70
     1
102
RTVSPropertyOp25
 70
     1
102
RTVSPropertyOp26
 70
     1
102
RTVSPropertyOp27
 70
     1
102
RTVSPropertyOp28
 70
     1
102
RTVSPropertyOp29
 70
     1
102
RTVSPropertyOp30
 70
     1
102
RTVSPropertyOp31
 70
     1
102
RTVSPropertyOp32
 70
     1
  0
XRECORD
  5
DA7
102
{ACAD_REACTORS
330
DA6
102
}
330
DA6
100
AcDbXrecord
280
     1
102
RTVSPropertyOp0
 70
     1
102
RTVSPropertyOp1
 70
     1
102
RTVSPropertyOp2
 70
     1
102
RTVSPropertyOp3
 70
     1
102
RTVSPropertyOp4
 70
     1
102
RTVSPropertyOp5
 70
     1
102
RTVSPropertyOp6
 70
     1
102
RTVSPropertyOp7
 70
     1
102
RTVSPropertyOp8
 70
     1
102
RTVSPropertyOp9
 70
     1
102
RTVSPropertyOp10
 70
     1
102
RTVSPropertyOp11
 70
     1
102
RTVSPropertyOp12
 70
     1
102
RTVSPropertyOp13
 70
     1
102
RTVSPropertyOp14
 70
     1
102
RTVSPropertyOp15
 70
     1
102
RTVSPropertyOp16
 70
     1
102
RTVSPropertyOp17
 70
     1
102
RTVSPropertyOp18
 70
     1
102
RTVSPropertyOp19
 70
     1
102
RTVSPropertyOp20
 70
     1
102
RTVSPropertyOp21
 70
     1
102
RTVSPropertyOp22
 70
     1
102
RTVSPropertyOp23
 70
     1
102
RTVSPropertyOp24
 70
     1
102
RTVSPropertyOp25
 70
     1
102
RTVSPropertyOp26
 70
     1
102
RTVSPropertyOp27
 70
     1
102
RTVSPropertyOp28
 70
     1
102
RTVSPropertyOp29
 70
     1
102
RTVSPropertyOp30
 70
     1
102
RTVSPropertyOp31
 70
     1
102
RTVSPropertyOp32
 70
     1
  0
ENDSEC
  0
EOF
