  0
SECTION
  2
HEADER
  9
$ACADVER
  1
AC1015
  9
$ACADMAINTVER
 70
     6
  9
$DWGCODEPAGE
  3
ANSI_932
  9
$INSBASE
 10
0.0
 20
0.0
 30
0.0
  9
$EXTMIN
 10
0.0
 20
0.0
 30
0.0
  9
$EXTMAX
 10
2100.0
 20
2970.0
 30
0.0
  9
$LIMMIN
 10
0.0
 20
0.0
  9
$LIMMAX
 10
12.0
 20
9.0
  9
$ORTHOMODE
 70
     0
  9
$REGENMODE
 70
     1
  9
$FILLMODE
 70
     1
  9
$QTEXTMODE
 70
     0
  9
$MIRRTEXT
 70
     1
  9
$LTSCALE
 40
1.0
  9
$ATTMODE
 70
     1
  9
$TEXTSIZE
 40
0.2
  9
$TRACEWID
 40
0.05
  9
$TEXTSTYLE
  7
Standard
  9
$CLAYER
  8
0
  9
$CELTYPE
  6
ByLayer
  9
$CECOLOR
 62
   256
  9
$CELTSCALE
 40
1.0
  9
$DISPSILH
 70
     0
  9
$DIMSCALE
 40
1.0
  9
$DIMASZ
 40
0.18
  9
$DIMEXO
 40
0.0625
  9
$DIMDLI
 40
0.38
  9
$DIMRND
 40
0.0
  9
$DIMDLE
 40
0.0
  9
$DIMEXE
 40
0.18
  9
$DIMTP
 40
0.0
  9
$DIMTM
 40
0.0
  9
$DIMTXT
 40
0.18
  9
$DIMCEN
 40
0.09
  9
$DIMTSZ
 40
0.0
  9
$DIMTOL
 70
     0
  9
$DIMLIM
 70
     0
  9
$DIMTIH
 70
     1
  9
$DIMTOH
 70
     1
  9
$DIMSE1
 70
     0
  9
$DIMSE2
 70
     0
  9
$DIMTAD
 70
     0
  9
$DIMZIN
 70
     0
  9
$DIMBLK
  1

  9
$DIMASO
 70
     1
  9
$DIMSHO
 70
     1
  9
$DIMPOST
  1

  9
$DIMAPOST
  1

  9
$DIMALT
 70
     0
  9
$DIMALTD
 70
     2
  9
$DIMALTF
 40
25.4
  9
$DIMLFAC
 40
1.0
  9
$DIMTOFL
 70
     0
  9
$DIMTVP
 40
0.0
  9
$DIMTIX
 70
     0
  9
$DIMSOXD
 70
     0
  9
$DIMSAH
 70
     0
  9
$DIMBLK1
  1

  9
$DIMBLK2
  1

  9
$DIMSTYLE
  2
Standard
  9
$DIMCLRD
 70
     0
  9
$DIMCLRE
 70
     0
  9
$DIMCLRT
 70
     0
  9
$DIMTFAC
 40
1.0
  9
$DIMGAP
 40
0.09
  9
$DIMJUST
 70
     0
  9
$DIMSD1
 70
     0
  9
$DIMSD2
 70
     0
  9
$DIMTOLJ
 70
     1
  9
$DIMTZIN
 70
     0
  9
$DIMALTZ
 70
     0
  9
$DIMALTTZ
 70
     0
  9
$DIMUPT
 70
     0
  9
$DIMDEC
 70
     4
  9
$DIMTDEC
 70
     4
  9
$DIMALTU
 70
     2
  9
$DIMALTTD
 70
     2
  9
$DIMTXSTY
  7
Standard
  9
$DIMAUNIT
 70
     0
  9
$DIMADEC
 70
     0
  9
$DIMALTRND
 40
0.0
  9
$DIMAZIN
 70
     0
  9
$DIMDSEP
 70
    46
  9
$DIMATFIT
 70
     3
  9
$DIMFRAC
 70
     0
  9
$DIMLDRBLK
  1

  9
$DIMLUNIT
 70
     2
  9
$DIMLWD
 70
    -2
  9
$DIMLWE
 70
    -2
  9
$DIMTMOVE
 70
     0
  9
$LUNITS
 70
     2
  9
$LUPREC
 70
     4
  9
$SKETCHINC
 40
0.1
  9
$FILLETRAD
 40
0.5
  9
$AUNITS
 70
     0
  9
$AUPREC
 70
     0
  9
$MENU
  1
.
  9
$ELEVATION
 40
0.0
  9
$PELEVATION
 40
0.0
  9
$THICKNESS
 40
0.0
  9
$LIMCHECK
 70
     0
  9
$CHAMFERA
 40
0.5
  9
$CHAMFERB
 40
0.5
  9
$CHAMFERC
 40
1.0
  9
$CHAMFERD
 40
0.0
  9
$SKPOLY
 70
     0
  9
$TDCREATE
 40
2456493.724714792
  9
$TDUCREATE
 40
2456493.349714792
  9
$TDUPDATE
 40
2456493.72471588
  9
$TDUUPDATE
 40
2456493.34971588
  9
$TDINDWG
 40
0.0000000116
  9
$TDUSRTIMER
 40
0.0000000116
  9
$USRTIMER
 70
     1
  9
$ANGBASE
 50
0.0
  9
$ANGDIR
 70
     0
  9
$PDMODE
 70
     0
  9
$PDSIZE
 40
0.0
  9
$PLINEWID
 40
0.0
  9
$SPLFRAME
 70
     0
  9
$SPLINETYPE
 70
     6
  9
$SPLINESEGS
 70
     8
  9
$HANDSEED
  5
369
  9
$SURFTAB1
 70
     6
  9
$SURFTAB2
 70
     6
  9
$SURFTYPE
 70
     6
  9
$SURFU
 70
     6
  9
$SURFV
 70
     6
  9
$UCSBASE
  2

  9
$UCSNAME
  2

  9
$UCSORG
 10
0.0
 20
0.0
 30
0.0
  9
$UCSXDIR
 10
1.0
 20
0.0
 30
0.0
  9
$UCSYDIR
 10
0.0
 20
1.0
 30
0.0
  9
$UCSORTHOREF
  2

  9
$UCSORTHOVIEW
 70
     0
  9
$UCSORGTOP
 10
0.0
 20
0.0
 30
0.0
  9
$UCSORGBOTTOM
 10
0.0
 20
0.0
 30
0.0
  9
$UCSORGLEFT
 10
0.0
 20
0.0
 30
0.0
  9
$UCSORGRIGHT
 10
0.0
 20
0.0
 30
0.0
  9
$UCSORGFRONT
 10
0.0
 20
0.0
 30
0.0
  9
$UCSORGBACK
 10
0.0
 20
0.0
 30
0.0
  9
$PUCSBASE
  2

  9
$PUCSNAME
  2

  9
$PUCSORG
 10
0.0
 20
0.0
 30
0.0
  9
$PUCSXDIR
 10
1.0
 20
0.0
 30
0.0
  9
$PUCSYDIR
 10
0.0
 20
1.0
 30
0.0
  9
$PUCSORTHOREF
  2

  9
$PUCSORTHOVIEW
 70
     0
  9
$PUCSORGTOP
 10
0.0
 20
0.0
 30
0.0
  9
$PUCSORGBOTTOM
 10
0.0
 20
0.0
 30
0.0
  9
$PUCSORGLEFT
 10
0.0
 20
0.0
 30
0.0
  9
$PUCSORGRIGHT
 10
0.0
 20
0.0
 30
0.0
  9
$PUCSORGFRONT
 10
0.0
 20
0.0
 30
0.0
  9
$PUCSORGBACK
 10
0.0
 20
0.0
 30
0.0
  9
$USERI1
 70
     0
  9
$USERI2
 70
     0
  9
$USERI3
 70
     0
  9
$USERI4
 70
     0
  9
$USERI5
 70
     0
  9
$USERR1
 40
18.1
  9
$USERR2
 40
0.0
  9
$USERR3
 40
0.0
  9
$USERR4
 40
0.0
  9
$USERR5
 40
0.0
  9
$WORLDVIEW
 70
     1
  9
$SHADEDGE
 70
     3
  9
$SHADEDIF
 70
    70
  9
$TILEMODE
 70
     1
  9
$MAXACTVP
 70
    64
  9
$PINSBASE
 10
0.0
 20
0.0
 30
0.0
  9
$PLIMCHECK
 70
     0
  9
$PEXTMIN
 10
1.00000000000000E+20
 20
1.00000000000000E+20
 30
1.00000000000000E+20
  9
$PEXTMAX
 10
-1.00000000000000E+20
 20
-1.00000000000000E+20
 30
-1.00000000000000E+20
  9
$PLIMMIN
 10
0.0
 20
0.0
  9
$PLIMMAX
 10
12.0
 20
9.0
  9
$UNITMODE
 70
     0
  9
$VISRETAIN
 70
     1
  9
$PLINEGEN
 70
     0
  9
$PSLTSCALE
 70
     1
  9
$TREEDEPTH
 70
  3020
  9
$CMLSTYLE
  2
Standard
  9
$CMLJUST
 70
     0
  9
$CMLSCALE
 40
1.0
  9
$PROXYGRAPHICS
 70
     1
  9
$MEASUREMENT
 70
     1
  9
$CELWEIGHT
370
    -1
  9
$ENDCAPS
280
     0
  9
$JOINSTYLE
280
     0
  9
$LWDISPLAY
290
     0
  9
$INSUNITS
 70
     4
  9
$HYPERLINKBASE
  1

  9
$STYLESHEET
  1

  9
$XEDIT
290
     1
  9
$CEPSNTYPE
380
     0
  9
$PSTYLEMODE
290
     1
  9
$FINGERPRINTGUID
  2
{7141983C-1EE9-4170-9985-3D350DB37A3C}
  9
$VERSIONGUID
  2
{FAEB1C32-E019-11D5-929B-00C0DF256EC4}
  9
$EXTNAMES
290
     1
  9
$PSVPSCALE
 40
0.0
  9
$OLESTARTUP
290
     0
  0
ENDSEC
  0
SECTION
  2
CLASSES
  0
CLASS
  1
ACDBDICTIONARYWDFLT
  2
AcDbDictionaryWithDefault
  3
ObjectDBX Classes
 90
        0
280
     0
281
     0
  0
CLASS
  1
VISUALSTYLE
  2
AcDbVisualStyle
  3
ObjectDBX Classes
 90
     4095
280
     0
281
     0
  0
CLASS
  1
MATERIAL
  2
AcDbMaterial
  3
ObjectDBX Classes
 90
     1153
280
     0
281
     0
  0
CLASS
  1
DICTIONARYVAR
  2
AcDbDictionaryVar
  3
ObjectDBX Classes
 90
        0
280
     0
281
     0
  0
CLASS
  1
ACDBPLACEHOLDER
  2
AcDbPlaceHolder
  3
ObjectDBX Classes
 90
        0
280
     0
281
     0
  0
CLASS
  1
LAYOUT
  2
AcDbLayout
  3
ObjectDBX Classes
 90
        0
280
     0
281
     0
  0
ENDSEC
  0
SECTION
  2
TABLES
  0
TABLE
  2
VPORT
  5
8
330
0
100
AcDbSymbolTable
 70
     1
  0
VPORT
  5
29
330
8
100
AcDbSymbolTableRecord
100
AcDbViewportTableRecord
  2
*Active
 70
     0
 10
0.0
 20
0.0
 11
1.0
 21
1.0
 12
1050.0
 22
1485.0
 13
0.0
 23
0.0
 14
0.5
 24
0.5
 15
0.5
 25
0.5
 16
0.0
 26
0.0
 36
1.0
 17
0.0
 27
0.0
 37
0.0
 40
3267.0
 41
1.60267857142857
 42
50.0
 43
0.0
 44
0.0
 50
0.0
 51
0.0
 71
     0
 72
   100
 73
     1
 74
     3
 75
     0
 76
     0
 77
     0
 78
     0
281
     0
 65
     1
110
0.0
120
0.0
130
0.0
111
1.0
121
0.0
131
0.0
112
0.0
122
1.0
132
0.0
 79
     0
146
0.0
  0
ENDTAB
  0
TABLE
  2
LTYPE
  5
5
330
0
100
AcDbSymbolTable
 70
     8
  0
LTYPE
  5
14
330
5
100
AcDbSymbolTableRecord
100
AcDbLinetypeTableRecord
  2
ByBlock
 70
     0
  3

 72
    65
 73
     0
 40
0.0
  0
LTYPE
  5
15
330
5
100
AcDbSymbolTableRecord
100
AcDbLinetypeTableRecord
  2
ByLayer
 70
     0
  3

 72
    65
 73
     0
 40
0.0
  0
LTYPE
  5
16
330
5
100
AcDbSymbolTableRecord
100
AcDbLinetypeTableRecord
  2
Continuous
 70
     0
  3
Solid line
 72
    65
 73
     0
 40
0.0
  0
LTYPE
  5
3F
330
5
100
AcDbSymbolTableRecord
100
AcDbLinetypeTableRecord
  2
DASHED
 70
     0
  3
Dashed
 72
    65
 73
     2
 40
15.0
 49
7.0
 74
     0
 49
-8.0
 74
     0
  0
LTYPE
  5
40
330
5
100
AcDbSymbolTableRecord
100
AcDbLinetypeTableRecord
  2
DOTTED
 70
     0
  3
Dotted
 72
    65
 73
     2
 40
1.0
 49
0.0
 74
     0
 49
-1.0
 74
     0
  0
LTYPE
  5
41
330
5
100
AcDbSymbolTableRecord
100
AcDbLinetypeTableRecord
  2
DOT_CENTER
 70
     0
  3
Dot_Center
 72
    65
 73
     4
 40
14.0
 49
12.0
 74
     0
 49
-1.0
 74
     0
 49
0.0
 74
     0
 49
-1.0
 74
     0
  0
LTYPE
  5
42
330
5
100
AcDbSymbolTableRecord
100
AcDbLinetypeTableRecord
  2
LONG_DASHED
 70
     0
  3
Long_Dashed
 72
    65
 73
     2
 40
15.0
 49
10.0
 74
     0
 49
-5.0
 74
     0
  0
LTYPE
  5
43
330
5
100
AcDbSymbolTableRecord
100
AcDbLinetypeTableRecord
  2
DASH_CENTER
 70
     0
  3
Dash_Center
 72
    65
 73
     4
 40
14.0
 49
11.0
 74
     0
 49
-1.0
 74
     0
 49
1.0
 74
     0
 49
-1.0
 74
     0
  0
LTYPE
  5
44
330
5
100
AcDbSymbolTableRecord
100
AcDbLinetypeTableRecord
  2
PHANTOM
 70
     0
  3
Phantom
 72
    65
 73
     6
 40
13.0
 49
10.0
 74
     0
 49
-1.0
 74
     0
 49
0.0
 74
     0
 49
-1.0
 74
     0
 49
0.0
 74
     0
 49
-1.0
 74
     0
  0
LTYPE
  5
45
330
5
100
AcDbSymbolTableRecord
100
AcDbLinetypeTableRecord
  2
CENTER_DASH_DASH
 70
     0
  3
Center_Dash_Dash
 72
    65
 73
     6
 40
14.0
 49
9.0
 74
     0
 49
-1.0
 74
     0
 49
1.0
 74
     0
 49
-1.0
 74
     0
 49
1.0
 74
     0
 49
-1.0
 74
     0
  0
ENDTAB
  0
TABLE
  2
LAYER
  5
2
330
0
100
AcDbSymbolTable
 70
     4
  0
LAYER
  5
10
330
2
100
AcDbSymbolTableRecord
100
AcDbLayerTableRecord
  2
0
 70
     0
 62
     7
  6
Continuous
370
    -3
390
F
  0
LAYER
  5
46
330
2
100
AcDbSymbolTableRecord
100
AcDbLayerTableRecord
  2
1
 70
     0
 62
     7
  6
Continuous
370
    -3
390
F
  0
LAYER
  5
47
330
2
100
AcDbSymbolTableRecord
100
AcDbLayerTableRecord
  2
実線
 70
     0
 62
     7
  6
Continuous
370
    -3
390
F
  0
LAYER
  5
48
330
2
100
AcDbSymbolTableRecord
100
AcDbLayerTableRecord
  2
寸法線
 70
     0
 62
     7
  6
Continuous
370
    -3
390
F
  0
ENDTAB
  0
TABLE
  2
STYLE
  5
3
330
0
100
AcDbSymbolTable
 70
     3
  0
STYLE
  5
11
330
3
100
AcDbSymbolTableRecord
100
AcDbTextStyleTableRecord
  2
Standard
 70
     0
 40
0.0
 41
1.0
 50
0.0
 71
     0
 42
0.2
  3
txt
  4

  0
STYLE
  5
98
330
3
100
AcDbSymbolTableRecord
100
AcDbTextStyleTableRecord
  2
CONVERTER_11
 70
     0
 40
0.0
 41
0.89
 50
0.0
 71
     0
 42
0.2
  3
MS Mincho.ttf
  4

1001
ACAD
1000
MS Mincho
1071
    32785
  0
STYLE
  5
300
330
3
100
AcDbSymbolTableRecord
100
AcDbTextStyleTableRecord
  2
CONVERTER_12
 70
     0
 40
0.0
 41
0.9
 50
0.0
 71
     0
 42
0.2
  3
txt.shx
  4

  0
ENDTAB
  0
TABLE
  2
VIEW
  5
6
330
0
100
AcDbSymbolTable
 70
     0
  0
ENDTAB
  0
TABLE
  2
UCS
  5
7
330
0
100
AcDbSymbolTable
 70
     0
  0
ENDTAB
  0
TABLE
  2
APPID
  5
9
330
0
100
AcDbSymbolTable
 70
     1
  0
APPID
  5
12
330
9
100
AcDbSymbolTableRecord
100
AcDbRegAppTableRecord
  2
ACAD
 70
     0
  0
ENDTAB
  0
TABLE
  2
DIMSTYLE
  5
A
330
0
100
AcDbSymbolTable
 70
     6
100
AcDbDimStyleTable
  0
DIMSTYLE
105
27
330
A
100
AcDbSymbolTableRecord
100
AcDbDimStyleTableRecord
  2
Standard
 70
     0
178
     0
340
11
  0
DIMSTYLE
105
310
102
{ACAD_REACTORS
330
311
102
}
330
A
100
AcDbSymbolTableRecord
100
AcDbDimStyleTableRecord
  2
ME10_DIM_10
 70
     0
 41
35.0
 42
0.0
 44
10.0
 73
     0
 74
     0
 77
     1
 78
     8
140
35.0
147
10.0
172
     1
173
     1
174
     1
175
     1
176
     2
177
     2
271
     2
178
     7
271
     2
340
300
  0
DIMSTYLE
105
31B
102
{ACAD_REACTORS
330
31C
102
}
330
A
100
AcDbSymbolTableRecord
100
AcDbDimStyleTableRecord
  2
ME10_DIM_11
 70
     0
 41
35.0
 42
0.0
 44
10.0
 73
     0
 74
     0
 77
     1
 78
     8
140
35.0
147
10.0
172
     1
173
     1
174
     1
175
     1
176
     2
177
     2
271
     2
178
     7
271
     2
340
300
  0
DIMSTYLE
105
326
102
{ACAD_REACTORS
330
327
102
}
330
A
100
AcDbSymbolTableRecord
100
AcDbDimStyleTableRecord
  2
ME10_DIM_12
 70
     0
 41
35.0
 42
0.0
 44
10.0
 73
     0
 74
     0
 77
     1
 78
     8
140
35.0
147
10.0
172
     1
173
     1
174
     1
175
     1
176
     2
177
     2
271
     2
178
     7
271
     2
340
300
  0
DIMSTYLE
105
331
102
{ACAD_REACTORS
330
332
102
}
330
A
100
AcDbSymbolTableRecord
100
AcDbDimStyleTableRecord
  2
ME10_DIM_13
 70
     0
 41
35.0
 42
0.0
 44
10.0
 73
     0
 74
     0
 77
     1
 78
     8
140
35.0
147
10.0
172
     1
173
     1
174
     1
175
     1
176
     2
177
     2
271
     2
178
     7
271
     2
340
300
  0
DIMSTYLE
105
33C
102
{ACAD_REACTORS
330
33D
102
}
330
A
100
AcDbSymbolTableRecord
100
AcDbDimStyleTableRecord
  2
ME10_DIM_14
 70
     0
 41
35.0
 42
0.0
 44
10.0
 73
     0
 74
     0
 77
     1
 78
     8
140
35.0
147
10.0
172
     1
173
     1
174
     1
175
     1
176
     2
177
     2
271
     2
178
     7
271
     2
340
300
  0
ENDTAB
  0
TABLE
  2
BLOCK_RECORD
  5
1
330
0
100
AcDbSymbolTable
 70
     7
  0
BLOCK_RECORD
  5
1F
330
1
100
AcDbSymbolTableRecord
100
AcDbBlockTableRecord
  2
*Model_Space
340
22
  0
BLOCK_RECORD
  5
1B
330
1
100
AcDbSymbolTableRecord
100
AcDbBlockTableRecord
  2
*Paper_Space
340
1E
  0
BLOCK_RECORD
  5
23
330
1
100
AcDbSymbolTableRecord
100
AcDbBlockTableRecord
  2
*Paper_Space0
340
26
  0
BLOCK_RECORD
  5
49
330
1
100
AcDbSymbolTableRecord
100
AcDbBlockTableRecord
  2
開示A4
340
0
102
{BLKREFS
331
4C
102
}
  0
BLOCK_RECORD
  5
305
330
1
100
AcDbSymbolTableRecord
100
AcDbBlockTableRecord
  2
*D2
340
0
  0
BLOCK_RECORD
  5
312
330
1
100
AcDbSymbolTableRecord
100
AcDbBlockTableRecord
  2
*D3
340
0
  0
BLOCK_RECORD
  5
31D
330
1
100
AcDbSymbolTableRecord
100
AcDbBlockTableRecord
  2
*D4
340
0
  0
BLOCK_RECORD
  5
328
330
1
100
AcDbSymbolTableRecord
100
AcDbBlockTableRecord
  2
*D5
340
0
  0
BLOCK_RECORD
  5
333
330
1
100
AcDbSymbolTableRecord
100
AcDbBlockTableRecord
  2
*D6
340
0
  0
ENDTAB
  0
ENDSEC
  0
SECTION
  2
BLOCKS
  0
BLOCK
  5
20
330
1F
100
AcDbEntity
  8
0
100
AcDbBlockBegin
  2
*Model_Space
 70
     0
 10
0.0
 20
0.0
 30
0.0
  3
*Model_Space
  1

  0
ENDBLK
  5
21
330
1F
100
AcDbEntity
  8
0
100
AcDbBlockEnd
  0
BLOCK
  5
1C
330
1B
100
AcDbEntity
 67
     1
  8
0
100
AcDbBlockBegin
  2
*Paper_Space
 70
     0
 10
0.0
 20
0.0
 30
0.0
  3
*Paper_Space
  1

  0
ENDBLK
  5
1D
330
1B
100
AcDbEntity
 67
     1
  8
0
100
AcDbBlockEnd
  0
BLOCK
  5
24
330
23
100
AcDbEntity
  8
0
100
AcDbBlockBegin
  2
*Paper_Space0
 70
     0
 10
0.0
 20
0.0
 30
0.0
  3
*Paper_Space0
  1

  0
ENDBLK
  5
25
330
23
100
AcDbEntity
  8
0
100
AcDbBlockEnd
  0
BLOCK
  5
4A
330
49
100
AcDbEntity
  8
0
100
AcDbBlockBegin
  2
開示A4
 70
     0
 10
0.0
 20
0.0
 30
0.0
  3
開示A4
  1

  0
POINT
  5
4D
330
49
100
AcDbEntity
  8
1
 62
     4
100
AcDbPoint
 10
93.75
 20
17.0
 30
0.0
  0
POINT
  5
4E
330
49
100
AcDbEntity
  8
1
 62
     4
100
AcDbPoint
 10
85.25
 20
17.0
 30
0.0
  0
POINT
  5
4F
330
49
100
AcDbEntity
  8
1
 62
     4
100
AcDbPoint
 10
106.5
 20
19.00000000000001
 30
0.0
  0
POINT
  5
50
330
49
100
AcDbEntity
  8
1
 62
     4
100
AcDbPoint
 10
106.5
 20
12.5
 30
0.0
  0
POINT
  5
51
330
49
100
AcDbEntity
  8
1
 62
     4
100
AcDbPoint
 10
112.25
 20
12.5
 30
0.0
  0
POINT
  5
52
330
49
100
AcDbEntity
  8
1
 62
     4
100
AcDbPoint
 10
100.75
 20
12.5
 30
0.0
  0
POINT
  5
53
330
49
100
AcDbEntity
  8
1
 62
     4
100
AcDbPoint
 10
123.5
 20
19.00000000000001
 30
0.0
  0
POINT
  5
54
330
49
100
AcDbEntity
  8
1
 62
     4
100
AcDbPoint
 10
123.5
 20
12.5
 30
0.0
  0
POINT
  5
55
330
49
100
AcDbEntity
  8
1
 62
     4
100
AcDbPoint
 10
129.25
 20
12.5
 30
0.0
  0
POINT
  5
56
330
49
100
AcDbEntity
  8
1
 62
     4
100
AcDbPoint
 10
117.75
 20
12.5
 30
0.0
  0
POINT
  5
57
330
49
100
AcDbEntity
  8
1
 62
     4
100
AcDbPoint
 10
140.5
 20
19.00000000000001
 30
0.0
  0
POINT
  5
58
330
49
100
AcDbEntity
  8
1
 62
     4
100
AcDbPoint
 10
140.5
 20
12.5
 30
0.0
  0
POINT
  5
59
330
49
100
AcDbEntity
  8
1
 62
     4
100
AcDbPoint
 10
146.25
 20
12.5
 30
0.0
  0
POINT
  5
5A
330
49
100
AcDbEntity
  8
1
 62
     4
100
AcDbPoint
 10
134.75
 20
12.5
 30
0.0
  0
POINT
  5
5B
330
49
100
AcDbEntity
  8
1
 62
     4
100
AcDbPoint
 10
151.75
 20
12.5
 30
0.0
  0
POINT
  5
5C
330
49
100
AcDbEntity
  8
1
 62
     4
100
AcDbPoint
 10
163.25
 20
12.5
 30
0.0
  0
POINT
  5
5D
330
49
100
AcDbEntity
  8
1
 62
     4
100
AcDbPoint
 10
157.5
 20
12.5
 30
0.0
  0
POINT
  5
5E
330
49
100
AcDbEntity
  8
1
 62
     4
100
AcDbPoint
 10
57.0
 20
14.25
 30
0.0
  0
POINT
  5
5F
330
49
100
AcDbEntity
  8
1
 62
     4
100
AcDbPoint
 10
57.0
 20
22.75000000000001
 30
0.0
  0
POINT
  5
60
330
49
100
AcDbEntity
  8
1
 62
     4
100
AcDbPoint
 10
47.5
 20
282.0000000000003
 30
0.0
  0
POINT
  5
61
330
49
100
AcDbEntity
  8
1
 62
     4
100
AcDbPoint
 10
157.5
 20
19.00000000000001
 30
0.0
  0
POINT
  5
62
330
49
100
AcDbEntity
  8
1
 62
     4
100
AcDbPoint
 10
57.0
 20
16.25
 30
0.0
  0
POINT
  5
63
330
49
100
AcDbEntity
  8
1
 62
     4
100
AcDbPoint
 10
57.0
 20
24.75000000000001
 30
0.0
  0
POINT
  5
64
330
49
100
AcDbEntity
  8
1
 62
     4
100
AcDbPoint
 10
57.0
 20
20.75000000000001
 30
0.0
  0
POINT
  5
65
330
49
100
AcDbEntity
  8
1
 62
     4
100
AcDbPoint
 10
57.0
 20
12.25
 30
0.0
  0
POINT
  5
66
330
49
100
AcDbEntity
  8
1
 62
     4
100
AcDbPoint
 10
34.0
 20
34.00000000000001
 30
0.0
  0
LINE
  5
67
330
49
100
AcDbEntity
  8
1
  6
Continuous
 62
     7
100
AcDbLine
 10
105.0
 20
10.0
 30
0.0
 11
200.0
 21
10.0
 31
0.0
  0
LINE
  5
68
330
49
100
AcDbEntity
  8
1
  6
Continuous
 62
     2
100
AcDbLine
 10
105.0
 20
10.0
 30
0.0
 11
105.0
 21
5.0
 31
0.0
  0
LINE
  5
69
330
49
100
AcDbEntity
  8
1
  6
Continuous
 62
     7
100
AcDbLine
 10
200.0
 20
148.5
 30
0.0
 11
200.0
 21
287.0000000000003
 31
0.0
  0
LINE
  5
6A
330
49
100
AcDbEntity
  8
1
  6
Continuous
 62
     2
100
AcDbLine
 10
200.0
 20
148.5
 30
0.0
 11
205.0
 21
148.5
 31
0.0
  0
LINE
  5
6B
330
49
100
AcDbEntity
  8
1
  6
Continuous
 62
     7
100
AcDbLine
 10
25.0
 20
148.5
 30
0.0
 11
25.0
 21
287.0000000000003
 31
0.0
  0
LINE
  5
6C
330
49
100
AcDbEntity
  8
1
  6
Continuous
 62
     2
100
AcDbLine
 10
25.0
 20
148.5
 30
0.0
 11
20.0
 21
148.5
 31
0.0
  0
LINE
  5
6D
330
49
100
AcDbEntity
  8
1
  6
Continuous
 62
     7
100
AcDbLine
 10
105.0
 20
287.0000000000003
 30
0.0
 11
25.0
 21
287.0000000000003
 31
0.0
  0
LINE
  5
6E
330
49
100
AcDbEntity
  8
1
  6
Continuous
 62
     2
100
AcDbLine
 10
105.0
 20
287.0000000000003
 30
0.0
 11
105.0
 21
292.0000000000003
 31
0.0
  0
LINE
  5
6F
330
49
100
AcDbEntity
  8
1
  6
Continuous
 62
     2
100
AcDbLine
 10
166.0
 20
20.00000000000001
 30
0.0
 11
200.0
 21
20.00000000000001
 31
0.0
  0
LINE
  5
70
330
49
100
AcDbEntity
  8
1
  6
Continuous
 62
     2
100
AcDbLine
 10
98.0
 20
27.00000000000001
 30
0.0
 11
98.0
 21
9.99999999999999
 31
0.0
  0
LINE
  5
71
330
49
100
AcDbEntity
  8
1
  6
Continuous
 62
     2
100
AcDbLine
 10
115.0
 20
27.00000000000001
 30
0.0
 11
115.0
 21
9.99999999999999
 31
0.0
  0
LINE
  5
72
330
49
100
AcDbEntity
  8
1
  6
Continuous
 62
     2
100
AcDbLine
 10
149.0
 20
27.00000000000001
 30
0.0
 11
149.0
 21
10.0
 31
0.0
  0
LINE
  5
73
330
49
100
AcDbEntity
  8
1
  6
Continuous
 62
     2
100
AcDbLine
 10
132.0
 20
27.00000000000001
 30
0.0
 11
132.0
 21
9.99999999999999
 31
0.0
  0
LINE
  5
74
330
49
100
AcDbEntity
  8
1
  6
Continuous
 62
     2
100
AcDbLine
 10
166.0
 20
27.00000000000001
 30
0.0
 11
166.0
 21
10.0
 31
0.0
  0
LINE
  5
75
330
49
100
AcDbEntity
  8
1
  6
Continuous
 62
     2
100
AcDbLine
 10
55.0
 20
277.0000000000003
 30
0.0
 11
25.0
 21
277.0000000000003
 31
0.0
  0
LINE
  5
76
330
49
100
AcDbEntity
  8
1
  6
Continuous
 62
     7
100
AcDbLine
 10
25.0
 20
10.0
 30
0.0
 11
25.0
 21
148.5
 31
0.0
  0
LINE
  5
77
330
49
100
AcDbEntity
  8
1
  6
Continuous
 62
     2
100
AcDbLine
 10
40.0
 20
287.0000000000003
 30
0.0
 11
40.0
 21
277.0000000000003
 31
0.0
  0
LINE
  5
78
330
49
100
AcDbEntity
  8
1
  6
Continuous
 62
     2
100
AcDbLine
 10
55.0
 20
287.0000000000003
 30
0.0
 11
55.0
 21
277.0000000000003
 31
0.0
  0
LINE
  5
79
330
49
100
AcDbEntity
  8
1
  6
Continuous
 62
     2
100
AcDbLine
 10
33.0
 20
41.00000000000001
 30
0.0
 11
33.0
 21
27.0
 31
0.0
  0
LINE
  5
7A
330
49
100
AcDbEntity
  8
1
  6
Continuous
 62
     7
100
AcDbLine
 10
200.0
 20
27.00000000000001
 30
0.0
 11
25.0
 21
27.00000000000001
 31
0.0
  0
LINE
  5
7B
330
49
100
AcDbEntity
  8
1
  6
Continuous
 62
     7
100
AcDbLine
 10
25.0
 20
41.0
 30
0.0
 11
200.0
 21
41.0
 31
0.0
  0
LINE
  5
7C
330
49
100
AcDbEntity
  8
1
  6
PHANTOM
 62
     4
100
AcDbLine
 10
0.0
 20
0.0
 30
0.0
 11
210.0
 21
0.0
 31
0.0
  0
LINE
  5
7D
330
49
100
AcDbEntity
  8
1
  6
PHANTOM
 62
     4
100
AcDbLine
 10
210.0
 20
0.0
 30
0.0
 11
210.0
 21
297.0
 31
0.0
  0
LINE
  5
7E
330
49
100
AcDbEntity
  8
1
  6
PHANTOM
 62
     4
100
AcDbLine
 10
210.0
 20
297.0
 30
0.0
 11
0.0
 21
297.0
 31
0.0
  0
LINE
  5
7F
330
49
100
AcDbEntity
  8
1
  6
PHANTOM
 62
     4
100
AcDbLine
 10
0.0
 20
297.0
 30
0.0
 11
0.0
 21
0.0
 31
0.0
  0
LINE
  5
80
330
49
100
AcDbEntity
  8
1
  6
Continuous
 62
     7
100
AcDbLine
 10
25.0
 20
10.0
 30
0.0
 11
105.0
 21
10.0
 31
0.0
  0
LINE
  5
81
330
49
100
AcDbEntity
  8
1
  6
Continuous
 62
     7
100
AcDbLine
 10
200.0
 20
10.0
 30
0.0
 11
200.0
 21
148.5
 31
0.0
  0
LINE
  5
82
330
49
100
AcDbEntity
  8
1
  6
Continuous
 62
     7
100
AcDbLine
 10
200.0
 20
287.0000000000003
 30
0.0
 11
105.0
 21
287.0000000000003
 31
0.0
  0
LINE
  5
83
330
49
100
AcDbEntity
  8
1
  6
Continuous
 62
     2
100
AcDbLine
 10
25.0
 20
18.50000000000001
 30
0.0
 11
81.0
 21
18.50000000000001
 31
0.0
  0
LINE
  5
84
330
49
100
AcDbEntity
  8
1
  6
Continuous
 62
     2
100
AcDbLine
 10
33.0
 20
27.0
 30
0.0
 11
33.0
 21
10.0
 31
0.0
  0
LINE
  5
85
330
49
100
AcDbEntity
  8
1
  6
Continuous
 62
     7
100
AcDbLine
 10
191.0
 20
24.70000000000001
 30
0.0
 11
191.0
 21
22.30000000000001
 31
0.0
  0
LINE
  5
86
330
49
100
AcDbEntity
  8
1
  6
Continuous
 62
     7
100
AcDbLine
 10
191.0
 20
24.70000000000001
 30
0.0
 11
196.0
 21
25.50000000000001
 31
0.0
  0
LINE
  5
87
330
49
100
AcDbEntity
  8
1
  6
Continuous
 62
     7
100
AcDbLine
 10
196.0
 20
25.50000000000001
 30
0.0
 11
196.0
 21
21.50000000000001
 31
0.0
  0
LINE
  5
88
330
49
100
AcDbEntity
  8
1
  6
Continuous
 62
     7
100
AcDbLine
 10
196.0
 20
21.50000000000001
 30
0.0
 11
191.0
 21
22.30000000000001
 31
0.0
  0
LINE
  5
89
330
49
100
AcDbEntity
  8
1
  6
DOT_CENTER
 62
     2
100
AcDbLine
 10
184.0
 20
23.50000000000001
 30
0.0
 11
197.0
 21
23.50000000000001
 31
0.0
  0
LINE
  5
8A
330
49
100
AcDbEntity
  8
1
  6
DOT_CENTER
 62
     2
100
AcDbLine
 10
187.0
 20
26.50000000000001
 30
0.0
 11
187.0
 21
20.50000000000001
 31
0.0
  0
LINE
  5
8B
330
49
100
AcDbEntity
  8
1
  6
Continuous
 62
     2
100
AcDbLine
 10
81.0
 20
27.00000000000001
 30
0.0
 11
81.0
 21
10.0
 31
0.0
  0
CIRCLE
  5
8C
330
49
100
AcDbEntity
  8
1
  6
Continuous
 62
     7
100
AcDbCircle
 10
103.5
 20
12.5
 30
0.0
 40
0.2999999999999972
  0
CIRCLE
  5
8D
330
49
100
AcDbEntity
  8
1
  6
Continuous
 62
     7
100
AcDbCircle
 10
109.5
 20
12.5
 30
0.0
 40
0.2999999999999972
  0
CIRCLE
  5
8E
330
49
100
AcDbEntity
  8
1
  6
Continuous
 62
     7
100
AcDbCircle
 10
120.5
 20
12.5
 30
0.0
 40
0.2999999999999972
  0
CIRCLE
  5
8F
330
49
100
AcDbEntity
  8
1
  6
Continuous
 62
     7
100
AcDbCircle
 10
126.5
 20
12.5
 30
0.0
 40
0.2999999999999972
  0
CIRCLE
  5
90
330
49
100
AcDbEntity
  8
1
  6
Continuous
 62
     7
100
AcDbCircle
 10
137.5
 20
12.5
 30
0.0
 40
0.3000000000000114
  0
CIRCLE
  5
91
330
49
100
AcDbEntity
  8
1
  6
Continuous
 62
     7
100
AcDbCircle
 10
143.5
 20
12.5
 30
0.0
 40
0.3000000000000114
  0
CIRCLE
  5
92
330
49
100
AcDbEntity
  8
1
  6
Continuous
 62
     7
100
AcDbCircle
 10
160.5
 20
12.5
 30
0.0
 40
0.3000000000000114
  0
CIRCLE
  5
93
330
49
100
AcDbEntity
  8
1
  6
Continuous
 62
     7
100
AcDbCircle
 10
154.5
 20
12.5
 30
0.0
 40
0.3000000000000114
  0
CIRCLE
  5
94
330
49
100
AcDbEntity
  8
1
  6
Continuous
 62
     7
100
AcDbCircle
 10
187.0
 20
23.50000000000001
 30
0.0
 40
1.200000000000102
  0
CIRCLE
  5
95
330
49
100
AcDbEntity
  8
1
  6
Continuous
 62
     7
100
AcDbCircle
 10
187.0
 20
23.50000000000001
 30
0.0
 40
2.0
  0
CIRCLE
  5
96
330
49
100
AcDbEntity
  8
1
  6
DOT_CENTER
 62
     7
100
AcDbCircle
 10
89.5
 20
16.0
 30
0.0
 40
0.1000000000000227
  0
CIRCLE
  5
97
330
49
100
AcDbEntity
  8
1
  6
DOT_CENTER
 62
     7
100
AcDbCircle
 10
89.5
 20
18.0
 30
0.0
 40
0.1000000000000227
  0
MTEXT
  5
99
330
49
100
AcDbEntity
  8
1
 62
     7
100
AcDbMText
 10
188.5
 20
15.0
 30
0.0
 40
3.0
 41
0.0
 71
     5
 72
     1
  1
三栄水栓製作所
  7
CONVERTER_11
 73
     1
 44
1.0
  0
MTEXT
  5
9A
330
49
100
AcDbEntity
  8
1
 62
     7
100
AcDbMText
 10
171.5
 20
15.0
 30
0.0
 40
2.5
 41
0.0
 71
     5
 72
     1
  1
株式会社
  7
CONVERTER_11
 73
     1
 44
1.0
  0
MTEXT
  5
9B
330
49
100
AcDbEntity
  8
1
 62
     2
100
AcDbMText
 10
32.5
 20
282.0000000000003
 30
0.0
 40
5.0
 41
0.0
 71
     5
 72
     1
  1
図番
  7
CONVERTER_11
 73
     1
 44
0.45454545454545
  0
MTEXT
  5
9C
330
49
100
AcDbEntity
  8
1
 62
     2
100
AcDbMText
 10
29.0
 20
34.00000000000001
 30
0.0
 40
3.5
 41
0.0
 71
     5
 72
     1
  1
備考
  7
CONVERTER_11
 73
     1
 44
0.45454545454545
  0
MTEXT
  5
9D
330
49
100
AcDbEntity
  8
1
 62
     2
100
AcDbMText
 10
29.0
 20
22.75
 30
0.0
 40
3.5
 41
0.0
 71
     5
 72
     1
  1
品名
  7
CONVERTER_11
 73
     1
 44
0.72727272727273
  0
MTEXT
  5
9E
330
49
100
AcDbEntity
  8
1
 62
     2
100
AcDbMText
 10
29.0
 20
14.25
 30
0.0
 40
3.5
 41
0.0
 71
     5
 72
     1
  1
品番
  7
CONVERTER_11
 73
     1
 44
0.72727272727273
  0
MTEXT
  5
9F
330
49
100
AcDbEntity
  8
1
 62
     2
100
AcDbMText
 10
101.5
 20
25.00000000000001
 30
0.0
 40
3.0
 41
0.0
 71
     5
 72
     1
  1
承認
  7
CONVERTER_11
 73
     1
 44
0.59090909090909
  0
MTEXT
  5
A0
330
49
100
AcDbEntity
  8
1
 62
     2
100
AcDbMText
 10
175.0
 20
23.50000000000001
 30
0.0
 40
3.5
 41
0.0
 71
     5
 72
     1
  1
第三角法
  7
CONVERTER_11
 73
     1
 44
0.54545454545455
  0
MTEXT
  5
A1
330
49
100
AcDbEntity
  8
1
 62
     2
100
AcDbMText
 10
118.5
 20
25.00000000000001
 30
0.0
 40
3.0
 41
0.0
 71
     5
 72
     1
  1
検図
  7
CONVERTER_11
 73
     1
 44
0.59090909090909
  0
MTEXT
  5
A2
330
49
100
AcDbEntity
  8
1
 62
     2
100
AcDbMText
 10
152.5
 20
25.00000000000001
 30
0.0
 40
3.0
 41
0.0
 71
     5
 72
     1
  1
担当
  7
CONVERTER_11
 73
     1
 44
0.59090909090909
  0
MTEXT
  5
A3
330
49
100
AcDbEntity
  8
1
 62
     2
100
AcDbMText
 10
135.5
 20
25.00000000000001
 30
0.0
 40
3.0
 41
0.0
 71
     5
 72
     1
  1
製図
  7
CONVERTER_11
 73
     1
 44
0.59090909090909
  0
MTEXT
  5
A4
330
49
100
AcDbEntity
  8
1
 62
     2
100
AcDbMText
 10
89.5
 20
24.00000000000001
 30
0.0
 40
3.5
 41
0.0
 71
     5
 72
     1
  1
尺度
  7
CONVERTER_11
 73
     1
 44
0.54545454545455
  0
MTEXT
  5
A5
330
49
100
AcDbEntity
  8
1
 62
   250
100
AcDbMText
 10
25.0
 20
5.0
 30
0.0
 40
3.5
 41
0.0
 71
     4
 72
     1
  1
備考欄の文字列 原点位置=4
  7
CONVERTER_11
 73
     1
 44
0.54545454545455
  0
ENDBLK
  5
4B
330
49
100
AcDbEntity
  8
0
100
AcDbBlockEnd
  0
BLOCK
  5
30E
330
305
100
AcDbEntity
  8
0
100
AcDbBlockBegin
  2
*D2
 70
     1
 10
0.0
 20
0.0
 30
0.0
  3
*D2
  1

  0
LINE
  5
306
330
305
100
AcDbEntity
  8
1
  6
Continuous
 62
     2
100
AcDbLine
 10
779.5118767625524
 20
1029.618048247778
 30
0.0
 11
779.5118767625524
 21
959.6180482477776
 31
0.0
  0
LINE
  5
307
330
305
100
AcDbEntity
  8
1
  6
Continuous
 62
     2
100
AcDbLine
 10
779.5118767625524
 20
1089.618048247778
 30
0.0
 11
779.5118767625524
 21
1029.618048247778
 31
0.0
  0
LINE
  5
308
330
305
100
AcDbEntity
  8
1
  6
Continuous
 62
     2
100
AcDbLine
 10
779.5118767625524
 20
1159.618048247778
 30
0.0
 11
779.5118767625524
 21
1089.618048247778
 31
0.0
  0
LINE
  5
309
330
305
100
AcDbEntity
  8
1
  6
Continuous
 62
     2
100
AcDbLine
 10
887.5101900961622
 20
1089.618048247778
 30
0.0
 11
769.5118767625524
 21
1089.618048247778
 31
0.0
  0
LINE
  5
30A
330
305
100
AcDbEntity
  8
1
  6
Continuous
 62
     2
100
AcDbLine
 10
879.5118767625522
 20
1029.618048247778
 30
0.0
 11
769.5118767625524
 21
1029.618048247778
 31
0.0
  0
SOLID
  5
30B
330
305
100
AcDbEntity
  8
1
 62
     2
100
AcDbTrace
 10
774.9040393469936
 20
1124.618048247778
 30
0.0
 11
784.1197141781113
 21
1124.618048247778
 31
0.0
 12
779.5118767625524
 22
1089.618048247778
 32
0.0
 13
779.5118767625524
 23
1089.618048247778
 33
0.0
  0
SOLID
  5
30C
330
305
100
AcDbEntity
  8
1
 62
     2
100
AcDbTrace
 10
784.1197141781113
 20
994.6180482477776
 30
0.0
 11
774.9040393469936
 21
994.6180482477776
 31
0.0
 12
779.5118767625524
 22
1029.618048247778
 32
0.0
 13
779.5118767625524
 23
1029.618048247778
 33
0.0
  0
MTEXT
  5
30D
330
305
100
AcDbEntity
  8
1
 62
     7
100
AcDbMText
 10
769.5118767625524
 20
1033.368048247778
 30
0.0
 40
35.0
 41
0.0
 71
     7
 72
     1
  1
60
  7
CONVERTER_12
 11
0.0
 21
1.0
 31
0.0
 73
     1
 44
0.60024009603842
  0
ENDBLK
  5
30F
330
305
100
AcDbEntity
  8
0
100
AcDbBlockEnd
  0
BLOCK
  5
319
330
312
100
AcDbEntity
  8
0
100
AcDbBlockBegin
  2
*D3
 70
     1
 10
0.0
 20
0.0
 30
0.0
  3
*D3
  1

  0
LINE
  5
313
330
312
100
AcDbEntity
  8
1
  6
Continuous
 62
     2
100
AcDbLine
 10
779.5118767625522
 20
2012.821872016794
 30
0.0
 11
779.5118767625522
 21
1406.829988924759
 31
0.0
  0
LINE
  5
314
330
312
100
AcDbEntity
  8
1
  6
Continuous
 62
     2
100
AcDbLine
 10
881.4659352165386
 20
2012.821872016794
 30
0.0
 11
769.5118767625522
 21
2012.821872016794
 31
0.0
  0
LINE
  5
315
330
312
100
AcDbEntity
  8
1
  6
Continuous
 62
     2
100
AcDbLine
 10
881.3159352165408
 20
1406.829988924759
 30
0.0
 11
769.5118767625522
 21
1406.829988924759
 31
0.0
  0
SOLID
  5
316
330
312
100
AcDbEntity
  8
1
 62
     2
100
AcDbTrace
 10
784.119714178111
 20
1977.821872016794
 30
0.0
 11
774.9040393469934
 21
1977.821872016794
 31
0.0
 12
779.5118767625522
 22
2012.821872016794
 32
0.0
 13
779.5118767625522
 23
2012.821872016794
 33
0.0
  0
SOLID
  5
317
330
312
100
AcDbEntity
  8
1
 62
     2
100
AcDbTrace
 10
774.9040393469934
 20
1441.829988924759
 30
0.0
 11
784.119714178111
 21
1441.829988924759
 31
0.0
 12
779.5118767625522
 22
1406.829988924759
 32
0.0
 13
779.5118767625522
 23
1406.829988924759
 33
0.0
  0
MTEXT
  5
318
330
312
100
AcDbEntity
  8
1
 62
     7
100
AcDbMText
 10
769.5118767625522
 20
1667.825930470775
 30
0.0
 40
35.0
 41
0.0
 71
     7
 72
     1
  1
606
  7
CONVERTER_12
 11
0.0
 21
1.0
 31
0.0
 73
     1
 44
0.60024009603842
  0
ENDBLK
  5
31A
330
312
100
AcDbEntity
  8
0
100
AcDbBlockEnd
  0
BLOCK
  5
324
330
31D
100
AcDbEntity
  8
0
100
AcDbBlockBegin
  2
*D4
 70
     1
 10
0.0
 20
0.0
 30
0.0
  3
*D4
  1

  0
LINE
  5
31E
330
31D
100
AcDbEntity
  8
1
  6
Continuous
 62
     2
100
AcDbLine
 10
699.5118767625522
 20
2029.825930470774
 30
0.0
 11
699.5118767625522
 21
1389.825930470774
 31
0.0
  0
LINE
  5
31F
330
31D
100
AcDbEntity
  8
1
  6
Continuous
 62
     2
100
AcDbLine
 10
894.5118767625522
 20
2029.825930470774
 30
0.0
 11
689.5118767625522
 21
2029.825930470774
 31
0.0
  0
LINE
  5
320
330
31D
100
AcDbEntity
  8
1
  6
Continuous
 62
     2
100
AcDbLine
 10
894.5118767625522
 20
1389.825930470774
 30
0.0
 11
689.5118767625522
 21
1389.825930470774
 31
0.0
  0
SOLID
  5
321
330
31D
100
AcDbEntity
  8
1
 62
     2
100
AcDbTrace
 10
704.119714178111
 20
1994.825930470774
 30
0.0
 11
694.9040393469934
 21
1994.825930470774
 31
0.0
 12
699.5118767625522
 22
2029.825930470774
 32
0.0
 13
699.5118767625522
 23
2029.825930470774
 33
0.0
  0
SOLID
  5
322
330
31D
100
AcDbEntity
  8
1
 62
     2
100
AcDbTrace
 10
694.9040393469934
 20
1424.825930470774
 30
0.0
 11
704.119714178111
 21
1424.825930470774
 31
0.0
 12
699.5118767625522
 22
1389.825930470774
 32
0.0
 13
699.5118767625522
 23
1389.825930470774
 33
0.0
  0
MTEXT
  5
323
330
31D
100
AcDbEntity
  8
1
 62
     7
100
AcDbMText
 10
689.5118767625522
 20
1667.825930470775
 30
0.0
 40
35.0
 41
0.0
 71
     7
 72
     1
  1
640
  7
CONVERTER_12
 11
0.0
 21
1.0
 31
0.0
 73
     1
 44
0.60024009603842
  0
ENDBLK
  5
325
330
31D
100
AcDbEntity
  8
0
100
AcDbBlockEnd
  0
BLOCK
  5
32F
330
328
100
AcDbEntity
  8
0
100
AcDbBlockBegin
  2
*D5
 70
     1
 10
0.0
 20
0.0
 30
0.0
  3
*D5
  1

  0
LINE
  5
329
330
328
100
AcDbEntity
  8
1
  6
Continuous
 62
     2
100
AcDbLine
 10
879.5118767625524
 20
2209.825930470775
 30
0.0
 11
1519.511876762556
 21
2209.825930470775
 31
0.0
  0
LINE
  5
32A
330
328
100
AcDbEntity
  8
1
  6
Continuous
 62
     2
100
AcDbLine
 10
879.5118767625524
 20
2014.825930470775
 30
0.0
 11
879.5118767625524
 21
2219.825930470775
 31
0.0
  0
LINE
  5
32B
330
328
100
AcDbEntity
  8
1
  6
Continuous
 62
     2
100
AcDbLine
 10
1519.511876762556
 20
2014.825930470775
 30
0.0
 11
1519.511876762556
 21
2219.825930470775
 31
0.0
  0
SOLID
  5
32C
330
328
100
AcDbEntity
  8
1
 62
     2
100
AcDbTrace
 10
914.5118767625524
 20
2214.433767886334
 30
0.0
 11
914.5118767625524
 21
2205.218093055216
 31
0.0
 12
879.5118767625524
 22
2209.825930470775
 32
0.0
 13
879.5118767625524
 23
2209.825930470775
 33
0.0
  0
SOLID
  5
32D
330
328
100
AcDbEntity
  8
1
 62
     2
100
AcDbTrace
 10
1484.511876762556
 20
2205.218093055216
 30
0.0
 11
1484.511876762556
 21
2214.433767886334
 31
0.0
 12
1519.511876762556
 22
2209.825930470775
 32
0.0
 13
1519.511876762556
 23
2209.825930470775
 33
0.0
  0
MTEXT
  5
32E
330
328
100
AcDbEntity
  8
1
 62
     7
100
AcDbMText
 10
1157.511876762556
 20
2219.825930470775
 30
0.0
 40
35.0
 41
0.0
 71
     7
 72
     1
  1
640
  7
CONVERTER_12
 11
0.9999999999970619
 21
2.424068405545306E-6
 31
0.0
 73
     1
 44
0.60024009603842
  0
ENDBLK
  5
330
330
328
100
AcDbEntity
  8
0
100
AcDbBlockEnd
  0
BLOCK
  5
33A
330
333
100
AcDbEntity
  8
0
100
AcDbBlockBegin
  2
*D6
 70
     1
 10
0.0
 20
0.0
 30
0.0
  3
*D6
  1

  0
LINE
  5
334
330
333
100
AcDbEntity
  8
1
  6
Continuous
 62
     2
100
AcDbLine
 10
896.5159352165381
 20
2129.825930470775
 30
0.0
 11
1502.50781830857
 21
2129.825930470775
 31
0.0
  0
LINE
  5
335
330
333
100
AcDbEntity
  8
1
  6
Continuous
 62
     2
100
AcDbLine
 10
896.5159352165381
 20
2027.871872016794
 30
0.0
 11
896.5159352165381
 21
2139.825930470775
 31
0.0
  0
LINE
  5
336
330
333
100
AcDbEntity
  8
1
  6
Continuous
 62
     2
100
AcDbLine
 10
1502.50781830857
 20
2027.871872016796
 30
0.0
 11
1502.50781830857
 21
2139.825930470775
 31
0.0
  0
SOLID
  5
337
330
333
100
AcDbEntity
  8
1
 62
     2
100
AcDbTrace
 10
931.5159352165381
 20
2134.433767886334
 30
0.0
 11
931.5159352165381
 21
2125.218093055216
 31
0.0
 12
896.5159352165381
 22
2129.825930470775
 32
0.0
 13
896.5159352165381
 23
2129.825930470775
 33
0.0
  0
SOLID
  5
338
330
333
100
AcDbEntity
  8
1
 62
     2
100
AcDbTrace
 10
1467.50781830857
 20
2125.218093055216
 30
0.0
 11
1467.50781830857
 21
2134.433767886334
 31
0.0
 12
1502.50781830857
 22
2129.825930470775
 32
0.0
 13
1502.50781830857
 23
2129.825930470775
 33
0.0
  0
MTEXT
  5
339
330
333
100
AcDbEntity
  8
1
 62
     7
100
AcDbMText
 10
1157.511876762556
 20
2139.825930470775
 30
0.0
 40
35.0
 41
0.0
 71
     7
 72
     1
  1
606
  7
CONVERTER_12
 11
0.9999999999970619
 21
2.424068405545306E-6
 31
0.0
 73
     1
 44
0.60024009603842
  0
ENDBLK
  5
33B
330
333
100
AcDbEntity
  8
0
100
AcDbBlockEnd
  0
ENDSEC
  0
SECTION
  2
ENTITIES
  0
INSERT
  5
4C
330
1F
100
AcDbEntity
  8
1
100
AcDbBlockReference
  2
開示A4
 10
0.0
 20
0.0
 30
0.0
 41
10.0
 42
10.0
 43
10.0
  0
POINT
  5
A6
330
1F
100
AcDbEntity
  8
寸法線
 62
     7
100
AcDbPoint
 10
1062.199780441572
 20
1899.13802679176
 30
0.0
  0
POINT
  5
A7
330
1F
100
AcDbEntity
  8
寸法線
 62
     7
100
AcDbPoint
 10
1062.199780441572
 20
1897.13802679176
 30
0.0
  0
POINT
  5
A8
330
1F
100
AcDbEntity
  8
寸法線
 62
     7
100
AcDbPoint
 10
1044.699780441572
 20
1849.13802679176
 30
0.0
  0
POINT
  5
A9
330
1F
100
AcDbEntity
  8
寸法線
 62
     7
100
AcDbPoint
 10
1042.699780441572
 20
1847.13802679176
 30
0.0
  0
LINE
  5
AA
330
1F
100
AcDbEntity
  8
実線
  6
Continuous
 62
     7
100
AcDbLine
 10
894.5118767625522
 20
2029.825930470775
 30
0.0
 11
1504.511876762556
 21
2029.825930470775
 31
0.0
  0
LINE
  5
AB
330
1F
100
AcDbEntity
  8
1
  6
DASH_CENTER
 62
     2
100
AcDbLine
 10
896.5159352165379
 20
1391.629988924763
 30
0.0
 11
896.5159352165379
 21
1422.029988924757
 31
0.0
  0
LINE
  5
AC
330
1F
100
AcDbEntity
  8
1
  6
DASH_CENTER
 62
     2
100
AcDbLine
 10
881.3159352165408
 20
1406.82998892476
 30
0.0
 11
911.715935216535
 21
1406.82998892476
 31
0.0
  0
LINE
  5
AD
330
1F
100
AcDbEntity
  8
1
  6
DASH_CENTER
 62
     2
100
AcDbLine
 10
896.5159352165379
 20
1997.671872016798
 30
0.0
 11
896.5159352165379
 21
2027.871872016794
 31
0.0
  0
LINE
  5
AE
330
1F
100
AcDbEntity
  8
1
  6
DASH_CENTER
 62
     2
100
AcDbLine
 10
911.6659352165357
 20
2012.821872016795
 30
0.0
 11
881.4659352165386
 21
2012.821872016795
 31
0.0
  0
LINE
  5
AF
330
1F
100
AcDbEntity
  8
1
  6
DASH_CENTER
 62
     2
100
AcDbLine
 10
1502.50781830857
 20
1391.629988924756
 30
0.0
 11
1502.50781830857
 21
1422.029988924764
 31
0.0
  0
LINE
  5
B0
330
1F
100
AcDbEntity
  8
1
  6
DASH_CENTER
 62
     2
100
AcDbLine
 10
1487.307818308566
 20
1406.82998892476
 30
0.0
 11
1517.707818308575
 21
1406.82998892476
 31
0.0
  0
LINE
  5
B1
330
1F
100
AcDbEntity
  8
1
  6
DASH_CENTER
 62
     2
100
AcDbLine
 10
1502.50781830857
 20
1997.671872016791
 30
0.0
 11
1502.50781830857
 21
2027.871872016796
 31
0.0
  0
LINE
  5
B2
330
1F
100
AcDbEntity
  8
1
  6
DASH_CENTER
 62
     2
100
AcDbLine
 10
1487.307818308566
 20
2012.821872016795
 30
0.0
 11
1517.707818308575
 21
2012.821872016795
 31
0.0
  0
LINE
  5
B3
330
1F
100
AcDbEntity
  8
1
  6
DASH_CENTER
 62
     2
100
AcDbLine
 10
1199.511876762556
 20
1359.825930470775
 30
0.0
 11
1199.511876762556
 21
2059.825930470775
 31
0.0
  0
LINE
  5
B4
330
1F
100
AcDbEntity
  8
1
  6
DASH_CENTER
 62
     2
100
AcDbLine
 10
1199.511876762556
 20
999.6180482477774
 30
0.0
 11
1199.511876762556
 21
1119.618048247778
 31
0.0
  0
LINE
  5
B5
330
1F
100
AcDbEntity
  8
1
  6
DASH_CENTER
 62
     2
100
AcDbLine
 10
849.5118767625522
 20
1709.825930470775
 30
0.0
 11
1549.511876762556
 21
1709.825930470775
 31
0.0
  0
LINE
  5
B6
330
1F
100
AcDbEntity
  8
0
  6
Continuous
 62
     7
100
AcDbLine
 10
1519.511876762556
 20
1029.618048247777
 30
0.0
 11
879.5118767625522
 21
1029.618048247777
 31
0.0
  0
LINE
  5
B7
330
1F
100
AcDbEntity
  8
実線
  6
Continuous
 62
     7
100
AcDbLine
 10
1519.511876762556
 20
1029.618048247777
 30
0.0
 11
1514.502147523219
 21
1086.879515476021
 31
0.0
  0
LINE
  5
B8
330
1F
100
AcDbEntity
  8
実線
  6
Continuous
 62
     7
100
AcDbLine
 10
1445.882501998951
 20
1089.618048247778
 30
0.0
 11
1511.513563428946
 21
1089.618048247778
 31
0.0
  0
LINE
  5
B9
330
1F
100
AcDbEntity
  8
実線
  6
Continuous
 62
     7
100
AcDbLine
 10
1062.199780441568
 20
1468.5138341498
 30
0.0
 11
1062.199780441568
 21
1431.513834149795
 31
0.0
  0
LINE
  5
BA
330
1F
100
AcDbEntity
  8
実線
  6
Continuous
 62
     7
100
AcDbLine
 10
1062.199780441572
 20
1520.513834149795
 30
0.0
 11
1062.199780441572
 21
1470.5138341498
 31
0.0
  0
LINE
  5
BB
330
1F
100
AcDbEntity
  8
実線
  6
Continuous
 62
     7
100
AcDbLine
 10
1062.199780441572
 20
1559.513834149795
 30
0.0
 11
1062.199780441572
 21
1522.513834149795
 31
0.0
  0
LINE
  5
BC
330
1F
100
AcDbEntity
  8
実線
  6
Continuous
 62
     7
100
AcDbLine
 10
1042.699780441572
 20
1468.513834149795
 30
0.0
 11
1042.699780441572
 21
1418.513834149795
 31
0.0
  0
LINE
  5
BD
330
1F
100
AcDbEntity
  8
実線
  6
Continuous
 62
     7
100
AcDbLine
 10
1042.699780441572
 20
1520.513834149795
 30
0.0
 11
1042.699780441572
 21
1470.513834149795
 31
0.0
  0
LINE
  5
BE
330
1F
100
AcDbEntity
  8
実線
  6
Continuous
 62
     7
100
AcDbLine
 10
1042.699780441572
 20
1572.513834149795
 30
0.0
 11
1042.699780441572
 21
1522.513834149795
 31
0.0
  0
LINE
  5
BF
330
1F
100
AcDbEntity
  8
実線
  6
Continuous
 62
     7
100
AcDbLine
 10
1044.699780441572
 20
1468.513834149795
 30
0.0
 11
1044.699780441572
 21
1418.513834149795
 31
0.0
  0
LINE
  5
C0
330
1F
100
AcDbEntity
  8
実線
  6
Continuous
 62
     7
100
AcDbLine
 10
1044.699780441572
 20
1520.513834149795
 30
0.0
 11
1044.699780441572
 21
1470.513834149795
 31
0.0
  0
LINE
  5
C1
330
1F
100
AcDbEntity
  8
実線
  6
Continuous
 62
     7
100
AcDbLine
 10
1044.699780441568
 20
1572.513834149795
 30
0.0
 11
1044.699780441572
 21
1522.513834149795
 31
0.0
  0
LINE
  5
C2
330
1F
100
AcDbEntity
  8
実線
  6
Continuous
 62
     7
100
AcDbLine
 10
1023.199780441568
 20
1468.513834149795
 30
0.0
 11
1023.199780441568
 21
1418.513834149795
 31
0.0
  0
LINE
  5
C3
330
1F
100
AcDbEntity
  8
実線
  6
Continuous
 62
     7
100
AcDbLine
 10
1023.199780441576
 20
1520.513834149795
 30
0.0
 11
1023.199780441572
 21
1470.513834149795
 31
0.0
  0
LINE
  5
C4
330
1F
100
AcDbEntity
  8
実線
  6
Continuous
 62
     7
100
AcDbLine
 10
1023.199780441568
 20
1572.513834149795
 30
0.0
 11
1023.199780441568
 21
1522.5138341498
 31
0.0
  0
LINE
  5
C5
330
1F
100
AcDbEntity
  8
実線
  6
Continuous
 62
     7
100
AcDbLine
 10
1025.199780441572
 20
1468.513834149795
 30
0.0
 11
1025.199780441572
 21
1418.513834149795
 31
0.0
  0
LINE
  5
C6
330
1F
100
AcDbEntity
  8
実線
  6
Continuous
 62
     7
100
AcDbLine
 10
1025.199780441572
 20
1520.513834149795
 30
0.0
 11
1025.199780441572
 21
1470.513834149795
 31
0.0
  0
LINE
  5
C7
330
1F
100
AcDbEntity
  8
実線
  6
Continuous
 62
     7
100
AcDbLine
 10
1025.199780441572
 20
1572.513834149795
 30
0.0
 11
1025.199780441572
 21
1522.513834149795
 31
0.0
  0
LINE
  5
C8
330
1F
100
AcDbEntity
  8
実線
  6
Continuous
 62
     7
100
AcDbLine
 10
1003.699780441572
 20
1468.513834149795
 30
0.0
 11
1003.699780441568
 21
1418.513834149795
 31
0.0
  0
LINE
  5
C9
330
1F
100
AcDbEntity
  8
実線
  6
Continuous
 62
     7
100
AcDbLine
 10
1003.699780441568
 20
1520.513834149795
 30
0.0
 11
1003.699780441568
 21
1470.513834149795
 31
0.0
  0
LINE
  5
CA
330
1F
100
AcDbEntity
  8
実線
  6
Continuous
 62
     7
100
AcDbLine
 10
1003.699780441572
 20
1572.513834149795
 30
0.0
 11
1003.699780441572
 21
1522.513834149795
 31
0.0
  0
LINE
  5
CB
330
1F
100
AcDbEntity
  8
実線
  6
Continuous
 62
     7
100
AcDbLine
 10
1005.699780441568
 20
1520.513834149795
 30
0.0
 11
1005.699780441572
 21
1470.513834149795
 31
0.0
  0
LINE
  5
CC
330
1F
100
AcDbEntity
  8
実線
  6
Continuous
 62
     7
100
AcDbLine
 10
1005.699780441568
 20
1572.513834149795
 30
0.0
 11
1005.699780441568
 21
1522.513834149795
 31
0.0
  0
LINE
  5
CD
330
1F
100
AcDbEntity
  8
実線
  6
Continuous
 62
     7
100
AcDbLine
 10
984.1997804415682
 20
1468.513834149795
 30
0.0
 11
984.1997804415755
 21
1418.513834149795
 31
0.0
  0
LINE
  5
CE
330
1F
100
AcDbEntity
  8
実線
  6
Continuous
 62
     7
100
AcDbLine
 10
984.1997804415682
 20
1520.513834149795
 30
0.0
 11
984.1997804415755
 21
1470.513834149795
 31
0.0
  0
LINE
  5
CF
330
1F
100
AcDbEntity
  8
実線
  6
Continuous
 62
     7
100
AcDbLine
 10
984.1997804415719
 20
1572.513834149795
 30
0.0
 11
984.1997804415755
 21
1522.513834149795
 31
0.0
  0
LINE
  5
D0
330
1F
100
AcDbEntity
  8
実線
  6
Continuous
 62
     7
100
AcDbLine
 10
986.1997804415719
 20
1468.513834149795
 30
0.0
 11
986.1997804415682
 21
1418.513834149795
 31
0.0
  0
LINE
  5
D1
330
1F
100
AcDbEntity
  8
実線
  6
Continuous
 62
     7
100
AcDbLine
 10
986.1997804415719
 20
1520.513834149795
 30
0.0
 11
986.1997804415719
 21
1470.513834149795
 31
0.0
  0
LINE
  5
D2
330
1F
100
AcDbEntity
  8
実線
  6
Continuous
 62
     7
100
AcDbLine
 10
986.1997804415755
 20
1572.513834149795
 30
0.0
 11
986.1997804415719
 21
1522.513834149795
 31
0.0
  0
LINE
  5
D3
330
1F
100
AcDbEntity
  8
実線
  6
Continuous
 62
     7
100
AcDbLine
 10
964.6997804415719
 20
1468.513834149795
 30
0.0
 11
964.6997804415719
 21
1418.513834149795
 31
0.0
  0
LINE
  5
D4
330
1F
100
AcDbEntity
  8
実線
  6
Continuous
 62
     7
100
AcDbLine
 10
964.6997804415719
 20
1520.513834149795
 30
0.0
 11
964.6997804415719
 21
1470.513834149795
 31
0.0
  0
LINE
  5
D5
330
1F
100
AcDbEntity
  8
実線
  6
Continuous
 62
     7
100
AcDbLine
 10
964.6997804415755
 20
1572.513834149795
 30
0.0
 11
964.6997804415755
 21
1522.513834149795
 31
0.0
  0
LINE
  5
D6
330
1F
100
AcDbEntity
  8
実線
  6
Continuous
 62
     7
100
AcDbLine
 10
966.6997804415755
 20
1468.513834149795
 30
0.0
 11
966.6997804415682
 21
1418.513834149795
 31
0.0
  0
LINE
  5
D7
330
1F
100
AcDbEntity
  8
実線
  6
Continuous
 62
     7
100
AcDbLine
 10
966.6997804415755
 20
1520.513834149795
 30
0.0
 11
966.6997804415755
 21
1470.513834149795
 31
0.0
  0
LINE
  5
D8
330
1F
100
AcDbEntity
  8
実線
  6
Continuous
 62
     7
100
AcDbLine
 10
966.6997804415755
 20
1572.513834149795
 30
0.0
 11
966.6997804415755
 21
1522.513834149795
 31
0.0
  0
LINE
  5
D9
330
1F
100
AcDbEntity
  8
実線
  6
Continuous
 62
     7
100
AcDbLine
 10
947.1997804415719
 20
1468.513834149795
 30
0.0
 11
947.1997804415719
 21
1418.513834149795
 31
0.0
  0
LINE
  5
DA
330
1F
100
AcDbEntity
  8
実線
  6
Continuous
 62
     7
100
AcDbLine
 10
947.1997804415719
 20
1520.513834149795
 30
0.0
 11
947.1997804415719
 21
1470.513834149795
 31
0.0
  0
LINE
  5
DB
330
1F
100
AcDbEntity
  8
実線
  6
Continuous
 62
     7
100
AcDbLine
 10
947.1997804415755
 20
1572.513834149795
 30
0.0
 11
947.1997804415719
 21
1522.513834149795
 31
0.0
  0
LINE
  5
DC
330
1F
100
AcDbEntity
  8
実線
  6
Continuous
 62
     7
100
AcDbLine
 10
945.1997804415719
 20
1468.513834149795
 30
0.0
 11
945.1997804415719
 21
1418.513834149795
 31
0.0
  0
LINE
  5
DD
330
1F
100
AcDbEntity
  8
実線
  6
Continuous
 62
     7
100
AcDbLine
 10
945.1997804415719
 20
1520.513834149795
 30
0.0
 11
945.1997804415719
 21
1470.513834149795
 31
0.0
  0
LINE
  5
DE
330
1F
100
AcDbEntity
  8
実線
  6
Continuous
 62
     7
100
AcDbLine
 10
945.1997804415719
 20
1572.513834149795
 30
0.0
 11
945.1997804415719
 21
1522.513834149795
 31
0.0
  0
LINE
  5
DF
330
1F
100
AcDbEntity
  8
実線
  6
Continuous
 62
     7
100
AcDbLine
 10
927.6997804415719
 20
1468.513834149795
 30
0.0
 11
927.6997804415719
 21
1418.513834149795
 31
0.0
  0
LINE
  5
E0
330
1F
100
AcDbEntity
  8
実線
  6
Continuous
 62
     7
100
AcDbLine
 10
927.6997804415719
 20
1520.513834149795
 30
0.0
 11
927.6997804415719
 21
1470.513834149795
 31
0.0
  0
LINE
  5
E1
330
1F
100
AcDbEntity
  8
実線
  6
Continuous
 62
     7
100
AcDbLine
 10
927.6997804415719
 20
1572.513834149795
 30
0.0
 11
927.6997804415755
 21
1522.513834149795
 31
0.0
  0
LINE
  5
E2
330
1F
100
AcDbEntity
  8
実線
  6
Continuous
 62
     7
100
AcDbLine
 10
925.6997804415755
 20
1468.513834149795
 30
0.0
 11
925.6997804415755
 21
1418.513834149795
 31
0.0
  0
LINE
  5
E3
330
1F
100
AcDbEntity
  8
実線
  6
Continuous
 62
     7
100
AcDbLine
 10
925.6997804415755
 20
1520.513834149795
 30
0.0
 11
925.6997804415719
 21
1470.513834149795
 31
0.0
  0
LINE
  5
E4
330
1F
100
AcDbEntity
  8
実線
  6
Continuous
 62
     7
100
AcDbLine
 10
925.6997804415682
 20
1572.513834149795
 30
0.0
 11
925.6997804415755
 21
1522.513834149795
 31
0.0
  0
LINE
  5
E5
330
1F
100
AcDbEntity
  8
実線
  6
Continuous
 62
     7
100
AcDbLine
 10
908.1997804415755
 20
1468.513834149795
 30
0.0
 11
908.1997804415755
 21
1431.513834149795
 31
0.0
  0
LINE
  5
E6
330
1F
100
AcDbEntity
  8
実線
  6
Continuous
 62
     7
100
AcDbLine
 10
908.1997804415719
 20
1520.513834149795
 30
0.0
 11
908.1997804415755
 21
1470.513834149795
 31
0.0
  0
LINE
  5
E7
330
1F
100
AcDbEntity
  8
実線
  6
Continuous
 62
     7
100
AcDbLine
 10
908.1997804415719
 20
1559.513834149795
 30
0.0
 11
908.1997804415719
 21
1522.513834149795
 31
0.0
  0
LINE
  5
E8
330
1F
100
AcDbEntity
  8
実線
  6
Continuous
 62
     7
100
AcDbLine
 10
1044.699780441572
 20
1418.513834149795
 30
0.0
 11
1049.199780441568
 21
1418.513834149795
 31
0.0
  0
LINE
  5
E9
330
1F
100
AcDbEntity
  8
実線
  6
Continuous
 62
     7
100
AcDbLine
 10
1025.199780441572
 20
1418.513834149795
 30
0.0
 11
1042.699780441572
 21
1418.513834149795
 31
0.0
  0
LINE
  5
EA
330
1F
100
AcDbEntity
  8
実線
  6
Continuous
 62
     7
100
AcDbLine
 10
986.1997804415682
 20
1418.513834149795
 30
0.0
 11
1003.699780441568
 21
1418.513834149795
 31
0.0
  0
LINE
  5
EB
330
1F
100
AcDbEntity
  8
実線
  6
Continuous
 62
     7
100
AcDbLine
 10
966.6997804415682
 20
1418.513834149795
 30
0.0
 11
984.1997804415755
 21
1418.513834149795
 31
0.0
  0
LINE
  5
EC
330
1F
100
AcDbEntity
  8
実線
  6
Continuous
 62
     7
100
AcDbLine
 10
947.1997804415719
 20
1418.513834149795
 30
0.0
 11
964.6997804415719
 21
1418.513834149795
 31
0.0
  0
LINE
  5
ED
330
1F
100
AcDbEntity
  8
実線
  6
Continuous
 62
     7
100
AcDbLine
 10
927.6997804415719
 20
1418.513834149795
 30
0.0
 11
945.1997804415719
 21
1418.513834149795
 31
0.0
  0
LINE
  5
EE
330
1F
100
AcDbEntity
  8
実線
  6
Continuous
 62
     7
100
AcDbLine
 10
921.1997804415682
 20
1418.513834149795
 30
0.0
 11
925.6997804415755
 21
1418.513834149795
 31
0.0
  0
LINE
  5
EF
330
1F
100
AcDbEntity
  8
実線
  6
Continuous
 62
     7
100
AcDbLine
 10
1044.699780441572
 20
1470.513834149795
 30
0.0
 11
1062.199780441572
 21
1470.5138341498
 31
0.0
  0
LINE
  5
F0
330
1F
100
AcDbEntity
  8
実線
  6
Continuous
 62
     7
100
AcDbLine
 10
1025.199780441572
 20
1470.513834149795
 30
0.0
 11
1042.699780441572
 21
1470.513834149795
 31
0.0
  0
LINE
  5
F1
330
1F
100
AcDbEntity
  8
実線
  6
Continuous
 62
     7
100
AcDbLine
 10
1005.699780441572
 20
1470.513834149795
 30
0.0
 11
1023.199780441572
 21
1470.513834149795
 31
0.0
  0
LINE
  5
F2
330
1F
100
AcDbEntity
  8
実線
  6
Continuous
 62
     7
100
AcDbLine
 10
986.1997804415719
 20
1470.513834149795
 30
0.0
 11
1003.699780441568
 21
1470.513834149795
 31
0.0
  0
LINE
  5
F3
330
1F
100
AcDbEntity
  8
実線
  6
Continuous
 62
     7
100
AcDbLine
 10
966.6997804415755
 20
1470.513834149795
 30
0.0
 11
984.1997804415755
 21
1470.513834149795
 31
0.0
  0
LINE
  5
F4
330
1F
100
AcDbEntity
  8
実線
  6
Continuous
 62
     7
100
AcDbLine
 10
947.1997804415719
 20
1470.513834149795
 30
0.0
 11
964.6997804415719
 21
1470.513834149795
 31
0.0
  0
LINE
  5
F5
330
1F
100
AcDbEntity
  8
実線
  6
Continuous
 62
     7
100
AcDbLine
 10
927.6997804415719
 20
1470.513834149795
 30
0.0
 11
945.1997804415719
 21
1470.513834149795
 31
0.0
  0
LINE
  5
F6
330
1F
100
AcDbEntity
  8
実線
  6
Continuous
 62
     7
100
AcDbLine
 10
908.1997804415755
 20
1470.513834149795
 30
0.0
 11
925.6997804415719
 21
1470.513834149795
 31
0.0
  0
LINE
  5
F7
330
1F
100
AcDbEntity
  8
実線
  6
Continuous
 62
     7
100
AcDbLine
 10
1044.699780441572
 20
1468.513834149795
 30
0.0
 11
1062.199780441568
 21
1468.5138341498
 31
0.0
  0
LINE
  5
F8
330
1F
100
AcDbEntity
  8
実線
  6
Continuous
 62
     7
100
AcDbLine
 10
1025.199780441572
 20
1468.513834149795
 30
0.0
 11
1042.699780441572
 21
1468.513834149795
 31
0.0
  0
LINE
  5
F9
330
1F
100
AcDbEntity
  8
実線
  6
Continuous
 62
     7
100
AcDbLine
 10
1005.699780441572
 20
1468.513834149795
 30
0.0
 11
1023.199780441568
 21
1468.513834149795
 31
0.0
  0
LINE
  5
FA
330
1F
100
AcDbEntity
  8
実線
  6
Continuous
 62
     7
100
AcDbLine
 10
986.1997804415719
 20
1468.513834149795
 30
0.0
 11
1003.699780441572
 21
1468.513834149795
 31
0.0
  0
LINE
  5
FB
330
1F
100
AcDbEntity
  8
実線
  6
Continuous
 62
     7
100
AcDbLine
 10
966.6997804415755
 20
1468.513834149795
 30
0.0
 11
984.1997804415682
 21
1468.513834149795
 31
0.0
  0
LINE
  5
FC
330
1F
100
AcDbEntity
  8
実線
  6
Continuous
 62
     7
100
AcDbLine
 10
947.1997804415719
 20
1468.513834149795
 30
0.0
 11
964.6997804415719
 21
1468.513834149795
 31
0.0
  0
LINE
  5
FD
330
1F
100
AcDbEntity
  8
実線
  6
Continuous
 62
     7
100
AcDbLine
 10
927.6997804415719
 20
1468.513834149795
 30
0.0
 11
945.1997804415719
 21
1468.513834149795
 31
0.0
  0
LINE
  5
FE
330
1F
100
AcDbEntity
  8
実線
  6
Continuous
 62
     7
100
AcDbLine
 10
908.1997804415755
 20
1468.513834149795
 30
0.0
 11
925.6997804415755
 21
1468.513834149795
 31
0.0
  0
LINE
  5
FF
330
1F
100
AcDbEntity
  8
実線
  6
Continuous
 62
     7
100
AcDbLine
 10
1044.699780441572
 20
1522.513834149795
 30
0.0
 11
1062.199780441572
 21
1522.513834149795
 31
0.0
  0
LINE
  5
100
330
1F
100
AcDbEntity
  8
実線
  6
Continuous
 62
     7
100
AcDbLine
 10
1025.199780441572
 20
1522.513834149795
 30
0.0
 11
1042.699780441572
 21
1522.513834149795
 31
0.0
  0
LINE
  5
101
330
1F
100
AcDbEntity
  8
実線
  6
Continuous
 62
     7
100
AcDbLine
 10
1005.699780441568
 20
1522.513834149795
 30
0.0
 11
1023.199780441568
 21
1522.5138341498
 31
0.0
  0
LINE
  5
102
330
1F
100
AcDbEntity
  8
実線
  6
Continuous
 62
     7
100
AcDbLine
 10
986.1997804415719
 20
1522.513834149795
 30
0.0
 11
1003.699780441572
 21
1522.513834149795
 31
0.0
  0
LINE
  5
103
330
1F
100
AcDbEntity
  8
実線
  6
Continuous
 62
     7
100
AcDbLine
 10
966.6997804415755
 20
1522.513834149795
 30
0.0
 11
984.1997804415755
 21
1522.513834149795
 31
0.0
  0
LINE
  5
104
330
1F
100
AcDbEntity
  8
実線
  6
Continuous
 62
     7
100
AcDbLine
 10
947.1997804415719
 20
1522.513834149795
 30
0.0
 11
964.6997804415755
 21
1522.513834149795
 31
0.0
  0
LINE
  5
105
330
1F
100
AcDbEntity
  8
実線
  6
Continuous
 62
     7
100
AcDbLine
 10
927.6997804415755
 20
1522.513834149795
 30
0.0
 11
945.1997804415719
 21
1522.513834149795
 31
0.0
  0
LINE
  5
106
330
1F
100
AcDbEntity
  8
実線
  6
Continuous
 62
     7
100
AcDbLine
 10
908.1997804415719
 20
1522.513834149795
 30
0.0
 11
925.6997804415755
 21
1522.513834149795
 31
0.0
  0
LINE
  5
107
330
1F
100
AcDbEntity
  8
実線
  6
Continuous
 62
     7
100
AcDbLine
 10
1044.699780441572
 20
1520.513834149795
 30
0.0
 11
1062.199780441572
 21
1520.513834149795
 31
0.0
  0
LINE
  5
108
330
1F
100
AcDbEntity
  8
実線
  6
Continuous
 62
     7
100
AcDbLine
 10
1025.199780441572
 20
1520.513834149795
 30
0.0
 11
1042.699780441572
 21
1520.513834149795
 31
0.0
  0
LINE
  5
109
330
1F
100
AcDbEntity
  8
実線
  6
Continuous
 62
     7
100
AcDbLine
 10
1005.699780441568
 20
1520.513834149795
 30
0.0
 11
1023.199780441576
 21
1520.513834149795
 31
0.0
  0
LINE
  5
10A
330
1F
100
AcDbEntity
  8
実線
  6
Continuous
 62
     7
100
AcDbLine
 10
986.1997804415719
 20
1520.513834149795
 30
0.0
 11
1003.699780441568
 21
1520.513834149795
 31
0.0
  0
LINE
  5
10B
330
1F
100
AcDbEntity
  8
実線
  6
Continuous
 62
     7
100
AcDbLine
 10
966.6997804415755
 20
1520.513834149795
 30
0.0
 11
984.1997804415682
 21
1520.513834149795
 31
0.0
  0
LINE
  5
10C
330
1F
100
AcDbEntity
  8
実線
  6
Continuous
 62
     7
100
AcDbLine
 10
947.1997804415719
 20
1520.513834149795
 30
0.0
 11
964.6997804415719
 21
1520.513834149795
 31
0.0
  0
LINE
  5
10D
330
1F
100
AcDbEntity
  8
実線
  6
Continuous
 62
     7
100
AcDbLine
 10
927.6997804415719
 20
1520.513834149795
 30
0.0
 11
945.1997804415719
 21
1520.513834149795
 31
0.0
  0
LINE
  5
10E
330
1F
100
AcDbEntity
  8
実線
  6
Continuous
 62
     7
100
AcDbLine
 10
908.1997804415719
 20
1520.513834149795
 30
0.0
 11
925.6997804415755
 21
1520.513834149795
 31
0.0
  0
LINE
  5
10F
330
1F
100
AcDbEntity
  8
実線
  6
Continuous
 62
     7
100
AcDbLine
 10
1044.699780441568
 20
1572.513834149795
 30
0.0
 11
1049.199780441572
 21
1572.513834149795
 31
0.0
  0
LINE
  5
110
330
1F
100
AcDbEntity
  8
実線
  6
Continuous
 62
     7
100
AcDbLine
 10
1025.199780441572
 20
1572.513834149795
 30
0.0
 11
1042.699780441572
 21
1572.513834149795
 31
0.0
  0
LINE
  5
111
330
1F
100
AcDbEntity
  8
実線
  6
Continuous
 62
     7
100
AcDbLine
 10
1005.699780441568
 20
1572.513834149795
 30
0.0
 11
1023.199780441568
 21
1572.513834149795
 31
0.0
  0
LINE
  5
112
330
1F
100
AcDbEntity
  8
実線
  6
Continuous
 62
     7
100
AcDbLine
 10
986.1997804415755
 20
1572.513834149795
 30
0.0
 11
1003.699780441572
 21
1572.513834149795
 31
0.0
  0
LINE
  5
113
330
1F
100
AcDbEntity
  8
実線
  6
Continuous
 62
     7
100
AcDbLine
 10
966.6997804415755
 20
1572.513834149795
 30
0.0
 11
984.1997804415719
 21
1572.513834149795
 31
0.0
  0
LINE
  5
114
330
1F
100
AcDbEntity
  8
実線
  6
Continuous
 62
     7
100
AcDbLine
 10
947.1997804415755
 20
1572.513834149795
 30
0.0
 11
964.6997804415755
 21
1572.513834149795
 31
0.0
  0
LINE
  5
115
330
1F
100
AcDbEntity
  8
実線
  6
Continuous
 62
     7
100
AcDbLine
 10
927.6997804415719
 20
1572.513834149795
 30
0.0
 11
945.1997804415719
 21
1572.513834149795
 31
0.0
  0
LINE
  5
116
330
1F
100
AcDbEntity
  8
実線
  6
Continuous
 62
     7
100
AcDbLine
 10
921.1997804415682
 20
1572.513834149795
 30
0.0
 11
925.6997804415682
 21
1572.513834149795
 31
0.0
  0
LINE
  5
117
330
1F
100
AcDbEntity
  8
実線
  6
Continuous
 62
     7
100
AcDbLine
 10
1062.199780441572
 20
1897.13802679176
 30
0.0
 11
1062.199780441572
 21
1860.138026791755
 31
0.0
  0
LINE
  5
118
330
1F
100
AcDbEntity
  8
実線
  6
Continuous
 62
     7
100
AcDbLine
 10
1062.199780441572
 20
1949.13802679176
 30
0.0
 11
1062.199780441572
 21
1899.13802679176
 31
0.0
  0
LINE
  5
119
330
1F
100
AcDbEntity
  8
実線
  6
Continuous
 62
     7
100
AcDbLine
 10
1062.199780441572
 20
1988.138026791755
 30
0.0
 11
1062.199780441572
 21
1951.13802679176
 31
0.0
  0
LINE
  5
11A
330
1F
100
AcDbEntity
  8
実線
  6
Continuous
 62
     7
100
AcDbLine
 10
1042.699780441572
 20
1897.13802679176
 30
0.0
 11
1042.699780441572
 21
1847.13802679176
 31
0.0
  0
LINE
  5
11B
330
1F
100
AcDbEntity
  8
実線
  6
Continuous
 62
     7
100
AcDbLine
 10
1042.699780441576
 20
1949.13802679176
 30
0.0
 11
1042.699780441572
 21
1899.13802679176
 31
0.0
  0
LINE
  5
11C
330
1F
100
AcDbEntity
  8
実線
  6
Continuous
 62
     7
100
AcDbLine
 10
1042.699780441572
 20
2001.138026791755
 30
0.0
 11
1042.699780441572
 21
1951.138026791755
 31
0.0
  0
LINE
  5
11D
330
1F
100
AcDbEntity
  8
実線
  6
Continuous
 62
     7
100
AcDbLine
 10
1044.699780441572
 20
1897.13802679176
 30
0.0
 11
1044.699780441572
 21
1847.138026791755
 31
0.0
  0
LINE
  5
11E
330
1F
100
AcDbEntity
  8
実線
  6
Continuous
 62
     7
100
AcDbLine
 10
1044.699780441572
 20
1949.13802679176
 30
0.0
 11
1044.699780441572
 21
1899.13802679176
 31
0.0
  0
LINE
  5
11F
330
1F
100
AcDbEntity
  8
実線
  6
Continuous
 62
     7
100
AcDbLine
 10
1044.699780441568
 20
2001.138026791755
 30
0.0
 11
1044.699780441572
 21
1951.13802679176
 31
0.0
  0
LINE
  5
120
330
1F
100
AcDbEntity
  8
実線
  6
Continuous
 62
     7
100
AcDbLine
 10
1023.199780441572
 20
1897.13802679176
 30
0.0
 11
1023.199780441572
 21
1847.138026791755
 31
0.0
  0
LINE
  5
121
330
1F
100
AcDbEntity
  8
実線
  6
Continuous
 62
     7
100
AcDbLine
 10
1023.199780441576
 20
1949.13802679176
 30
0.0
 11
1023.199780441576
 21
1899.13802679176
 31
0.0
  0
LINE
  5
122
330
1F
100
AcDbEntity
  8
実線
  6
Continuous
 62
     7
100
AcDbLine
 10
1023.199780441572
 20
2001.138026791755
 30
0.0
 11
1023.199780441572
 21
1951.13802679176
 31
0.0
  0
LINE
  5
123
330
1F
100
AcDbEntity
  8
実線
  6
Continuous
 62
     7
100
AcDbLine
 10
1025.199780441572
 20
1897.138026791755
 30
0.0
 11
1025.199780441572
 21
1847.138026791755
 31
0.0
  0
LINE
  5
124
330
1F
100
AcDbEntity
  8
実線
  6
Continuous
 62
     7
100
AcDbLine
 10
1025.199780441572
 20
1949.13802679176
 30
0.0
 11
1025.199780441572
 21
1899.13802679176
 31
0.0
  0
LINE
  5
125
330
1F
100
AcDbEntity
  8
実線
  6
Continuous
 62
     7
100
AcDbLine
 10
1025.199780441576
 20
2001.138026791755
 30
0.0
 11
1025.199780441572
 21
1951.13802679176
 31
0.0
  0
LINE
  5
126
330
1F
100
AcDbEntity
  8
実線
  6
Continuous
 62
     7
100
AcDbLine
 10
1003.699780441576
 20
1897.13802679176
 30
0.0
 11
1003.699780441572
 21
1847.138026791755
 31
0.0
  0
LINE
  5
127
330
1F
100
AcDbEntity
  8
実線
  6
Continuous
 62
     7
100
AcDbLine
 10
1003.699780441568
 20
1949.138026791755
 30
0.0
 11
1003.699780441568
 21
1899.13802679176
 31
0.0
  0
LINE
  5
128
330
1F
100
AcDbEntity
  8
実線
  6
Continuous
 62
     7
100
AcDbLine
 10
1003.699780441576
 20
2001.138026791755
 30
0.0
 11
1003.699780441576
 21
1951.13802679176
 31
0.0
  0
LINE
  5
129
330
1F
100
AcDbEntity
  8
実線
  6
Continuous
 62
     7
100
AcDbLine
 10
1005.699780441576
 20
1897.13802679176
 30
0.0
 11
1005.699780441572
 21
1847.138026791755
 31
0.0
  0
LINE
  5
12A
330
1F
100
AcDbEntity
  8
実線
  6
Continuous
 62
     7
100
AcDbLine
 10
1005.699780441572
 20
1949.13802679176
 30
0.0
 11
1005.699780441576
 21
1899.13802679176
 31
0.0
  0
LINE
  5
12B
330
1F
100
AcDbEntity
  8
実線
  6
Continuous
 62
     7
100
AcDbLine
 10
1005.699780441568
 20
2001.138026791755
 30
0.0
 11
1005.699780441572
 21
1951.13802679176
 31
0.0
  0
LINE
  5
12C
330
1F
100
AcDbEntity
  8
実線
  6
Continuous
 62
     7
100
AcDbLine
 10
984.1997804415719
 20
1897.138026791755
 30
0.0
 11
984.1997804415755
 21
1847.138026791755
 31
0.0
  0
LINE
  5
12D
330
1F
100
AcDbEntity
  8
実線
  6
Continuous
 62
     7
100
AcDbLine
 10
984.1997804415719
 20
1949.13802679176
 30
0.0
 11
984.1997804415755
 21
1899.13802679176
 31
0.0
  0
LINE
  5
12E
330
1F
100
AcDbEntity
  8
実線
  6
Continuous
 62
     7
100
AcDbLine
 10
984.1997804415755
 20
2001.138026791755
 30
0.0
 11
984.1997804415755
 21
1951.138026791755
 31
0.0
  0
LINE
  5
12F
330
1F
100
AcDbEntity
  8
実線
  6
Continuous
 62
     7
100
AcDbLine
 10
986.1997804415755
 20
1897.13802679176
 30
0.0
 11
986.1997804415719
 21
1847.138026791755
 31
0.0
  0
LINE
  5
130
330
1F
100
AcDbEntity
  8
実線
  6
Continuous
 62
     7
100
AcDbLine
 10
986.1997804415755
 20
1949.138026791755
 30
0.0
 11
986.1997804415755
 21
1899.13802679176
 31
0.0
  0
LINE
  5
131
330
1F
100
AcDbEntity
  8
実線
  6
Continuous
 62
     7
100
AcDbLine
 10
986.1997804415755
 20
2001.138026791755
 30
0.0
 11
986.1997804415755
 21
1951.13802679176
 31
0.0
  0
LINE
  5
132
330
1F
100
AcDbEntity
  8
実線
  6
Continuous
 62
     7
100
AcDbLine
 10
964.6997804415755
 20
1897.13802679176
 30
0.0
 11
964.6997804415719
 21
1847.138026791755
 31
0.0
  0
LINE
  5
133
330
1F
100
AcDbEntity
  8
実線
  6
Continuous
 62
     7
100
AcDbLine
 10
964.6997804415719
 20
1949.13802679176
 30
0.0
 11
964.6997804415755
 21
1899.13802679176
 31
0.0
  0
LINE
  5
134
330
1F
100
AcDbEntity
  8
実線
  6
Continuous
 62
     7
100
AcDbLine
 10
964.6997804415755
 20
2001.138026791755
 30
0.0
 11
964.6997804415755
 21
1951.138026791755
 31
0.0
  0
LINE
  5
135
330
1F
100
AcDbEntity
  8
実線
  6
Continuous
 62
     7
100
AcDbLine
 10
966.6997804415755
 20
1897.13802679176
 30
0.0
 11
966.6997804415719
 21
1847.138026791755
 31
0.0
  0
LINE
  5
136
330
1F
100
AcDbEntity
  8
実線
  6
Continuous
 62
     7
100
AcDbLine
 10
966.6997804415755
 20
1949.13802679176
 30
0.0
 11
966.6997804415755
 21
1899.13802679176
 31
0.0
  0
LINE
  5
137
330
1F
100
AcDbEntity
  8
実線
  6
Continuous
 62
     7
100
AcDbLine
 10
966.6997804415755
 20
2001.138026791755
 30
0.0
 11
966.6997804415755
 21
1951.138026791755
 31
0.0
  0
LINE
  5
138
330
1F
100
AcDbEntity
  8
実線
  6
Continuous
 62
     7
100
AcDbLine
 10
947.1997804415719
 20
1897.13802679176
 30
0.0
 11
947.1997804415755
 21
1847.138026791755
 31
0.0
  0
LINE
  5
139
330
1F
100
AcDbEntity
  8
実線
  6
Continuous
 62
     7
100
AcDbLine
 10
947.1997804415719
 20
1949.13802679176
 30
0.0
 11
947.1997804415719
 21
1899.13802679176
 31
0.0
  0
LINE
  5
13A
330
1F
100
AcDbEntity
  8
実線
  6
Continuous
 62
     7
100
AcDbLine
 10
947.1997804415755
 20
2001.138026791755
 30
0.0
 11
947.1997804415719
 21
1951.138026791755
 31
0.0
  0
LINE
  5
13B
330
1F
100
AcDbEntity
  8
実線
  6
Continuous
 62
     7
100
AcDbLine
 10
945.1997804415719
 20
1897.13802679176
 30
0.0
 11
945.1997804415719
 21
1847.138026791755
 31
0.0
  0
LINE
  5
13C
330
1F
100
AcDbEntity
  8
実線
  6
Continuous
 62
     7
100
AcDbLine
 10
945.1997804415755
 20
1949.13802679176
 30
0.0
 11
945.1997804415719
 21
1899.13802679176
 31
0.0
  0
LINE
  5
13D
330
1F
100
AcDbEntity
  8
実線
  6
Continuous
 62
     7
100
AcDbLine
 10
945.1997804415719
 20
2001.138026791755
 30
0.0
 11
945.1997804415719
 21
1951.13802679176
 31
0.0
  0
LINE
  5
13E
330
1F
100
AcDbEntity
  8
実線
  6
Continuous
 62
     7
100
AcDbLine
 10
927.6997804415719
 20
1897.13802679176
 30
0.0
 11
927.6997804415755
 21
1847.138026791755
 31
0.0
  0
LINE
  5
13F
330
1F
100
AcDbEntity
  8
実線
  6
Continuous
 62
     7
100
AcDbLine
 10
927.6997804415755
 20
1949.13802679176
 30
0.0
 11
927.6997804415755
 21
1899.13802679176
 31
0.0
  0
LINE
  5
140
330
1F
100
AcDbEntity
  8
実線
  6
Continuous
 62
     7
100
AcDbLine
 10
927.6997804415719
 20
2001.138026791755
 30
0.0
 11
927.6997804415755
 21
1951.138026791755
 31
0.0
  0
LINE
  5
141
330
1F
100
AcDbEntity
  8
実線
  6
Continuous
 62
     7
100
AcDbLine
 10
925.6997804415755
 20
1897.13802679176
 30
0.0
 11
925.6997804415755
 21
1847.138026791755
 31
0.0
  0
LINE
  5
142
330
1F
100
AcDbEntity
  8
実線
  6
Continuous
 62
     7
100
AcDbLine
 10
925.6997804415755
 20
1949.138026791755
 30
0.0
 11
925.6997804415755
 21
1899.13802679176
 31
0.0
  0
LINE
  5
143
330
1F
100
AcDbEntity
  8
実線
  6
Continuous
 62
     7
100
AcDbLine
 10
925.6997804415682
 20
2001.13802679176
 30
0.0
 11
925.6997804415755
 21
1951.138026791755
 31
0.0
  0
LINE
  5
144
330
1F
100
AcDbEntity
  8
実線
  6
Continuous
 62
     7
100
AcDbLine
 10
908.1997804415755
 20
1897.13802679176
 30
0.0
 11
908.1997804415755
 21
1860.138026791755
 31
0.0
  0
LINE
  5
145
330
1F
100
AcDbEntity
  8
実線
  6
Continuous
 62
     7
100
AcDbLine
 10
908.1997804415755
 20
1949.138026791755
 30
0.0
 11
908.1997804415755
 21
1899.13802679176
 31
0.0
  0
LINE
  5
146
330
1F
100
AcDbEntity
  8
実線
  6
Continuous
 62
     7
100
AcDbLine
 10
908.1997804415719
 20
1988.138026791755
 30
0.0
 11
908.1997804415755
 21
1951.13802679176
 31
0.0
  0
LINE
  5
147
330
1F
100
AcDbEntity
  8
実線
  6
Continuous
 62
     7
100
AcDbLine
 10
1044.699780441572
 20
1847.138026791755
 30
0.0
 11
1049.199780441572
 21
1847.13802679176
 31
0.0
  0
LINE
  5
148
330
1F
100
AcDbEntity
  8
実線
  6
Continuous
 62
     7
100
AcDbLine
 10
1025.199780441572
 20
1847.138026791755
 30
0.0
 11
1042.699780441572
 21
1847.13802679176
 31
0.0
  0
LINE
  5
149
330
1F
100
AcDbEntity
  8
実線
  6
Continuous
 62
     7
100
AcDbLine
 10
1005.699780441572
 20
1847.138026791755
 30
0.0
 11
1023.199780441572
 21
1847.138026791755
 31
0.0
  0
LINE
  5
14A
330
1F
100
AcDbEntity
  8
実線
  6
Continuous
 62
     7
100
AcDbLine
 10
986.1997804415719
 20
1847.138026791755
 30
0.0
 11
1003.699780441572
 21
1847.138026791755
 31
0.0
  0
LINE
  5
14B
330
1F
100
AcDbEntity
  8
実線
  6
Continuous
 62
     7
100
AcDbLine
 10
966.6997804415719
 20
1847.138026791755
 30
0.0
 11
984.1997804415755
 21
1847.138026791755
 31
0.0
  0
LINE
  5
14C
330
1F
100
AcDbEntity
  8
実線
  6
Continuous
 62
     7
100
AcDbLine
 10
947.1997804415755
 20
1847.138026791755
 30
0.0
 11
964.6997804415719
 21
1847.138026791755
 31
0.0
  0
LINE
  5
14D
330
1F
100
AcDbEntity
  8
実線
  6
Continuous
 62
     7
100
AcDbLine
 10
927.6997804415755
 20
1847.138026791755
 30
0.0
 11
945.1997804415719
 21
1847.138026791755
 31
0.0
  0
LINE
  5
14E
330
1F
100
AcDbEntity
  8
実線
  6
Continuous
 62
     7
100
AcDbLine
 10
921.1997804415719
 20
1847.13802679176
 30
0.0
 11
925.6997804415755
 21
1847.138026791755
 31
0.0
  0
LINE
  5
14F
330
1F
100
AcDbEntity
  8
実線
  6
Continuous
 62
     7
100
AcDbLine
 10
1044.699780441572
 20
1899.13802679176
 30
0.0
 11
1062.199780441572
 21
1899.13802679176
 31
0.0
  0
LINE
  5
150
330
1F
100
AcDbEntity
  8
実線
  6
Continuous
 62
     7
100
AcDbLine
 10
1025.199780441572
 20
1899.13802679176
 30
0.0
 11
1042.699780441572
 21
1899.13802679176
 31
0.0
  0
LINE
  5
151
330
1F
100
AcDbEntity
  8
実線
  6
Continuous
 62
     7
100
AcDbLine
 10
1005.699780441576
 20
1899.13802679176
 30
0.0
 11
1023.199780441576
 21
1899.13802679176
 31
0.0
  0
LINE
  5
152
330
1F
100
AcDbEntity
  8
実線
  6
Continuous
 62
     7
100
AcDbLine
 10
986.1997804415755
 20
1899.13802679176
 30
0.0
 11
1003.699780441568
 21
1899.13802679176
 31
0.0
  0
LINE
  5
153
330
1F
100
AcDbEntity
  8
実線
  6
Continuous
 62
     7
100
AcDbLine
 10
966.6997804415755
 20
1899.13802679176
 30
0.0
 11
984.1997804415755
 21
1899.13802679176
 31
0.0
  0
LINE
  5
154
330
1F
100
AcDbEntity
  8
実線
  6
Continuous
 62
     7
100
AcDbLine
 10
947.1997804415719
 20
1899.13802679176
 30
0.0
 11
964.6997804415755
 21
1899.13802679176
 31
0.0
  0
LINE
  5
155
330
1F
100
AcDbEntity
  8
実線
  6
Continuous
 62
     7
100
AcDbLine
 10
927.6997804415755
 20
1899.13802679176
 30
0.0
 11
945.1997804415719
 21
1899.13802679176
 31
0.0
  0
LINE
  5
156
330
1F
100
AcDbEntity
  8
実線
  6
Continuous
 62
     7
100
AcDbLine
 10
908.1997804415755
 20
1899.13802679176
 30
0.0
 11
925.6997804415755
 21
1899.13802679176
 31
0.0
  0
LINE
  5
157
330
1F
100
AcDbEntity
  8
実線
  6
Continuous
 62
     7
100
AcDbLine
 10
1044.699780441572
 20
1897.13802679176
 30
0.0
 11
1062.199780441572
 21
1897.13802679176
 31
0.0
  0
LINE
  5
158
330
1F
100
AcDbEntity
  8
実線
  6
Continuous
 62
     7
100
AcDbLine
 10
1025.199780441572
 20
1897.138026791755
 30
0.0
 11
1042.699780441572
 21
1897.13802679176
 31
0.0
  0
LINE
  5
159
330
1F
100
AcDbEntity
  8
実線
  6
Continuous
 62
     7
100
AcDbLine
 10
1005.699780441576
 20
1897.13802679176
 30
0.0
 11
1023.199780441572
 21
1897.13802679176
 31
0.0
  0
LINE
  5
15A
330
1F
100
AcDbEntity
  8
実線
  6
Continuous
 62
     7
100
AcDbLine
 10
986.1997804415755
 20
1897.13802679176
 30
0.0
 11
1003.699780441576
 21
1897.13802679176
 31
0.0
  0
LINE
  5
15B
330
1F
100
AcDbEntity
  8
実線
  6
Continuous
 62
     7
100
AcDbLine
 10
966.6997804415755
 20
1897.13802679176
 30
0.0
 11
984.1997804415719
 21
1897.138026791755
 31
0.0
  0
LINE
  5
15C
330
1F
100
AcDbEntity
  8
実線
  6
Continuous
 62
     7
100
AcDbLine
 10
947.1997804415719
 20
1897.13802679176
 30
0.0
 11
964.6997804415755
 21
1897.13802679176
 31
0.0
  0
LINE
  5
15D
330
1F
100
AcDbEntity
  8
実線
  6
Continuous
 62
     7
100
AcDbLine
 10
927.6997804415719
 20
1897.13802679176
 30
0.0
 11
945.1997804415719
 21
1897.13802679176
 31
0.0
  0
LINE
  5
15E
330
1F
100
AcDbEntity
  8
実線
  6
Continuous
 62
     7
100
AcDbLine
 10
908.1997804415755
 20
1897.13802679176
 30
0.0
 11
925.6997804415755
 21
1897.13802679176
 31
0.0
  0
LINE
  5
15F
330
1F
100
AcDbEntity
  8
実線
  6
Continuous
 62
     7
100
AcDbLine
 10
1044.699780441572
 20
1951.13802679176
 30
0.0
 11
1062.199780441572
 21
1951.13802679176
 31
0.0
  0
LINE
  5
160
330
1F
100
AcDbEntity
  8
実線
  6
Continuous
 62
     7
100
AcDbLine
 10
1025.199780441572
 20
1951.13802679176
 30
0.0
 11
1042.699780441572
 21
1951.138026791755
 31
0.0
  0
LINE
  5
161
330
1F
100
AcDbEntity
  8
実線
  6
Continuous
 62
     7
100
AcDbLine
 10
1005.699780441572
 20
1951.13802679176
 30
0.0
 11
1023.199780441572
 21
1951.13802679176
 31
0.0
  0
LINE
  5
162
330
1F
100
AcDbEntity
  8
実線
  6
Continuous
 62
     7
100
AcDbLine
 10
986.1997804415755
 20
1951.13802679176
 30
0.0
 11
1003.699780441576
 21
1951.13802679176
 31
0.0
  0
LINE
  5
163
330
1F
100
AcDbEntity
  8
実線
  6
Continuous
 62
     7
100
AcDbLine
 10
966.6997804415755
 20
1951.138026791755
 30
0.0
 11
984.1997804415755
 21
1951.138026791755
 31
0.0
  0
LINE
  5
164
330
1F
100
AcDbEntity
  8
実線
  6
Continuous
 62
     7
100
AcDbLine
 10
947.1997804415719
 20
1951.138026791755
 30
0.0
 11
964.6997804415755
 21
1951.138026791755
 31
0.0
  0
LINE
  5
165
330
1F
100
AcDbEntity
  8
実線
  6
Continuous
 62
     7
100
AcDbLine
 10
927.6997804415755
 20
1951.138026791755
 30
0.0
 11
945.1997804415719
 21
1951.13802679176
 31
0.0
  0
LINE
  5
166
330
1F
100
AcDbEntity
  8
実線
  6
Continuous
 62
     7
100
AcDbLine
 10
908.1997804415755
 20
1951.13802679176
 30
0.0
 11
925.6997804415755
 21
1951.138026791755
 31
0.0
  0
LINE
  5
167
330
1F
100
AcDbEntity
  8
実線
  6
Continuous
 62
     7
100
AcDbLine
 10
1044.699780441572
 20
1949.13802679176
 30
0.0
 11
1062.199780441572
 21
1949.13802679176
 31
0.0
  0
LINE
  5
168
330
1F
100
AcDbEntity
  8
実線
  6
Continuous
 62
     7
100
AcDbLine
 10
1025.199780441572
 20
1949.13802679176
 30
0.0
 11
1042.699780441576
 21
1949.13802679176
 31
0.0
  0
LINE
  5
169
330
1F
100
AcDbEntity
  8
実線
  6
Continuous
 62
     7
100
AcDbLine
 10
1005.699780441572
 20
1949.13802679176
 30
0.0
 11
1023.199780441576
 21
1949.13802679176
 31
0.0
  0
LINE
  5
16A
330
1F
100
AcDbEntity
  8
実線
  6
Continuous
 62
     7
100
AcDbLine
 10
986.1997804415755
 20
1949.138026791755
 30
0.0
 11
1003.699780441568
 21
1949.138026791755
 31
0.0
  0
LINE
  5
16B
330
1F
100
AcDbEntity
  8
実線
  6
Continuous
 62
     7
100
AcDbLine
 10
966.6997804415755
 20
1949.13802679176
 30
0.0
 11
984.1997804415719
 21
1949.13802679176
 31
0.0
  0
LINE
  5
16C
330
1F
100
AcDbEntity
  8
実線
  6
Continuous
 62
     7
100
AcDbLine
 10
947.1997804415719
 20
1949.13802679176
 30
0.0
 11
964.6997804415719
 21
1949.13802679176
 31
0.0
  0
LINE
  5
16D
330
1F
100
AcDbEntity
  8
実線
  6
Continuous
 62
     7
100
AcDbLine
 10
927.6997804415755
 20
1949.13802679176
 30
0.0
 11
945.1997804415755
 21
1949.13802679176
 31
0.0
  0
LINE
  5
16E
330
1F
100
AcDbEntity
  8
実線
  6
Continuous
 62
     7
100
AcDbLine
 10
908.1997804415755
 20
1949.138026791755
 30
0.0
 11
925.6997804415755
 21
1949.138026791755
 31
0.0
  0
LINE
  5
16F
330
1F
100
AcDbEntity
  8
実線
  6
Continuous
 62
     7
100
AcDbLine
 10
1044.699780441568
 20
2001.138026791755
 30
0.0
 11
1049.199780441576
 21
2001.138026791755
 31
0.0
  0
LINE
  5
170
330
1F
100
AcDbEntity
  8
実線
  6
Continuous
 62
     7
100
AcDbLine
 10
1025.199780441576
 20
2001.138026791755
 30
0.0
 11
1042.699780441572
 21
2001.138026791755
 31
0.0
  0
LINE
  5
171
330
1F
100
AcDbEntity
  8
実線
  6
Continuous
 62
     7
100
AcDbLine
 10
1005.699780441568
 20
2001.138026791755
 30
0.0
 11
1023.199780441572
 21
2001.138026791755
 31
0.0
  0
LINE
  5
172
330
1F
100
AcDbEntity
  8
実線
  6
Continuous
 62
     7
100
AcDbLine
 10
986.1997804415755
 20
2001.138026791755
 30
0.0
 11
1003.699780441576
 21
2001.138026791755
 31
0.0
  0
LINE
  5
173
330
1F
100
AcDbEntity
  8
実線
  6
Continuous
 62
     7
100
AcDbLine
 10
966.6997804415755
 20
2001.138026791755
 30
0.0
 11
984.1997804415755
 21
2001.138026791755
 31
0.0
  0
LINE
  5
174
330
1F
100
AcDbEntity
  8
実線
  6
Continuous
 62
     7
100
AcDbLine
 10
947.1997804415755
 20
2001.138026791755
 30
0.0
 11
964.6997804415755
 21
2001.138026791755
 31
0.0
  0
LINE
  5
175
330
1F
100
AcDbEntity
  8
実線
  6
Continuous
 62
     7
100
AcDbLine
 10
927.6997804415719
 20
2001.138026791755
 30
0.0
 11
945.1997804415719
 21
2001.138026791755
 31
0.0
  0
LINE
  5
176
330
1F
100
AcDbEntity
  8
実線
  6
Continuous
 62
     7
100
AcDbLine
 10
921.1997804415682
 20
2001.138026791755
 30
0.0
 11
925.6997804415682
 21
2001.13802679176
 31
0.0
  0
LINE
  5
177
330
1F
100
AcDbEntity
  8
実線
  6
Continuous
 62
     7
100
AcDbLine
 10
1490.823973083536
 20
1897.13802679176
 30
0.0
 11
1490.823973083536
 21
1860.138026791755
 31
0.0
  0
LINE
  5
178
330
1F
100
AcDbEntity
  8
実線
  6
Continuous
 62
     7
100
AcDbLine
 10
1490.823973083536
 20
1949.13802679176
 30
0.0
 11
1490.823973083536
 21
1899.13802679176
 31
0.0
  0
LINE
  5
179
330
1F
100
AcDbEntity
  8
実線
  6
Continuous
 62
     7
100
AcDbLine
 10
1490.823973083536
 20
1988.138026791755
 30
0.0
 11
1490.823973083536
 21
1951.13802679176
 31
0.0
  0
LINE
  5
17A
330
1F
100
AcDbEntity
  8
実線
  6
Continuous
 62
     7
100
AcDbLine
 10
1471.323973083536
 20
1897.13802679176
 30
0.0
 11
1471.323973083536
 21
1847.13802679176
 31
0.0
  0
LINE
  5
17B
330
1F
100
AcDbEntity
  8
実線
  6
Continuous
 62
     7
100
AcDbLine
 10
1471.323973083536
 20
1949.13802679176
 30
0.0
 11
1471.323973083536
 21
1899.13802679176
 31
0.0
  0
LINE
  5
17C
330
1F
100
AcDbEntity
  8
実線
  6
Continuous
 62
     7
100
AcDbLine
 10
1471.323973083536
 20
2001.138026791755
 30
0.0
 11
1471.323973083536
 21
1951.138026791755
 31
0.0
  0
LINE
  5
17D
330
1F
100
AcDbEntity
  8
実線
  6
Continuous
 62
     7
100
AcDbLine
 10
1473.323973083536
 20
1897.13802679176
 30
0.0
 11
1473.323973083536
 21
1847.138026791755
 31
0.0
  0
LINE
  5
17E
330
1F
100
AcDbEntity
  8
実線
  6
Continuous
 62
     7
100
AcDbLine
 10
1473.323973083536
 20
1949.13802679176
 30
0.0
 11
1473.323973083536
 21
1899.13802679176
 31
0.0
  0
LINE
  5
17F
330
1F
100
AcDbEntity
  8
実線
  6
Continuous
 62
     7
100
AcDbLine
 10
1473.323973083529
 20
2001.138026791755
 30
0.0
 11
1473.323973083536
 21
1951.13802679176
 31
0.0
  0
LINE
  5
180
330
1F
100
AcDbEntity
  8
実線
  6
Continuous
 62
     7
100
AcDbLine
 10
1451.823973083536
 20
1897.13802679176
 30
0.0
 11
1451.823973083536
 21
1847.138026791755
 31
0.0
  0
LINE
  5
181
330
1F
100
AcDbEntity
  8
実線
  6
Continuous
 62
     7
100
AcDbLine
 10
1451.823973083536
 20
1949.13802679176
 30
0.0
 11
1451.823973083536
 21
1899.13802679176
 31
0.0
  0
LINE
  5
182
330
1F
100
AcDbEntity
  8
実線
  6
Continuous
 62
     7
100
AcDbLine
 10
1451.823973083536
 20
2001.138026791755
 30
0.0
 11
1451.823973083536
 21
1951.13802679176
 31
0.0
  0
LINE
  5
183
330
1F
100
AcDbEntity
  8
実線
  6
Continuous
 62
     7
100
AcDbLine
 10
1453.823973083536
 20
1897.138026791755
 30
0.0
 11
1453.823973083536
 21
1847.138026791755
 31
0.0
  0
LINE
  5
184
330
1F
100
AcDbEntity
  8
実線
  6
Continuous
 62
     7
100
AcDbLine
 10
1453.823973083536
 20
1949.13802679176
 30
0.0
 11
1453.823973083536
 21
1899.13802679176
 31
0.0
  0
LINE
  5
185
330
1F
100
AcDbEntity
  8
実線
  6
Continuous
 62
     7
100
AcDbLine
 10
1453.823973083536
 20
2001.138026791755
 30
0.0
 11
1453.823973083536
 21
1951.13802679176
 31
0.0
  0
LINE
  5
186
330
1F
100
AcDbEntity
  8
実線
  6
Continuous
 62
     7
100
AcDbLine
 10
1432.323973083536
 20
1897.13802679176
 30
0.0
 11
1432.323973083536
 21
1847.138026791755
 31
0.0
  0
LINE
  5
187
330
1F
100
AcDbEntity
  8
実線
  6
Continuous
 62
     7
100
AcDbLine
 10
1432.323973083533
 20
1949.138026791755
 30
0.0
 11
1432.323973083533
 21
1899.13802679176
 31
0.0
  0
LINE
  5
188
330
1F
100
AcDbEntity
  8
実線
  6
Continuous
 62
     7
100
AcDbLine
 10
1432.323973083536
 20
2001.138026791755
 30
0.0
 11
1432.323973083536
 21
1951.13802679176
 31
0.0
  0
LINE
  5
189
330
1F
100
AcDbEntity
  8
実線
  6
Continuous
 62
     7
100
AcDbLine
 10
1434.323973083536
 20
1897.13802679176
 30
0.0
 11
1434.323973083536
 21
1847.138026791755
 31
0.0
  0
LINE
  5
18A
330
1F
100
AcDbEntity
  8
実線
  6
Continuous
 62
     7
100
AcDbLine
 10
1434.323973083536
 20
1949.13802679176
 30
0.0
 11
1434.323973083536
 21
1899.13802679176
 31
0.0
  0
LINE
  5
18B
330
1F
100
AcDbEntity
  8
実線
  6
Continuous
 62
     7
100
AcDbLine
 10
1434.323973083536
 20
2001.138026791755
 30
0.0
 11
1434.323973083536
 21
1951.13802679176
 31
0.0
  0
LINE
  5
18C
330
1F
100
AcDbEntity
  8
実線
  6
Continuous
 62
     7
100
AcDbLine
 10
1412.823973083533
 20
1897.138026791755
 30
0.0
 11
1412.823973083536
 21
1847.138026791755
 31
0.0
  0
LINE
  5
18D
330
1F
100
AcDbEntity
  8
実線
  6
Continuous
 62
     7
100
AcDbLine
 10
1412.823973083533
 20
1949.13802679176
 30
0.0
 11
1412.823973083536
 21
1899.13802679176
 31
0.0
  0
LINE
  5
18E
330
1F
100
AcDbEntity
  8
実線
  6
Continuous
 62
     7
100
AcDbLine
 10
1412.823973083533
 20
2001.138026791755
 30
0.0
 11
1412.823973083536
 21
1951.138026791755
 31
0.0
  0
LINE
  5
18F
330
1F
100
AcDbEntity
  8
実線
  6
Continuous
 62
     7
100
AcDbLine
 10
1414.823973083536
 20
1897.13802679176
 30
0.0
 11
1414.823973083536
 21
1847.138026791755
 31
0.0
  0
LINE
  5
190
330
1F
100
AcDbEntity
  8
実線
  6
Continuous
 62
     7
100
AcDbLine
 10
1414.823973083536
 20
1949.138026791755
 30
0.0
 11
1414.823973083536
 21
1899.13802679176
 31
0.0
  0
LINE
  5
191
330
1F
100
AcDbEntity
  8
実線
  6
Continuous
 62
     7
100
AcDbLine
 10
1414.823973083536
 20
2001.138026791755
 30
0.0
 11
1414.823973083536
 21
1951.13802679176
 31
0.0
  0
LINE
  5
192
330
1F
100
AcDbEntity
  8
実線
  6
Continuous
 62
     7
100
AcDbLine
 10
1393.323973083536
 20
1897.13802679176
 30
0.0
 11
1393.323973083536
 21
1847.138026791755
 31
0.0
  0
LINE
  5
193
330
1F
100
AcDbEntity
  8
実線
  6
Continuous
 62
     7
100
AcDbLine
 10
1393.323973083536
 20
1949.13802679176
 30
0.0
 11
1393.323973083536
 21
1899.13802679176
 31
0.0
  0
LINE
  5
194
330
1F
100
AcDbEntity
  8
実線
  6
Continuous
 62
     7
100
AcDbLine
 10
1393.323973083536
 20
2001.138026791755
 30
0.0
 11
1393.323973083536
 21
1951.138026791755
 31
0.0
  0
LINE
  5
195
330
1F
100
AcDbEntity
  8
実線
  6
Continuous
 62
     7
100
AcDbLine
 10
1395.323973083536
 20
1897.13802679176
 30
0.0
 11
1395.323973083533
 21
1847.138026791755
 31
0.0
  0
LINE
  5
196
330
1F
100
AcDbEntity
  8
実線
  6
Continuous
 62
     7
100
AcDbLine
 10
1395.323973083536
 20
1949.13802679176
 30
0.0
 11
1395.323973083536
 21
1899.13802679176
 31
0.0
  0
LINE
  5
197
330
1F
100
AcDbEntity
  8
実線
  6
Continuous
 62
     7
100
AcDbLine
 10
1395.323973083536
 20
2001.138026791755
 30
0.0
 11
1395.323973083536
 21
1951.138026791755
 31
0.0
  0
LINE
  5
198
330
1F
100
AcDbEntity
  8
実線
  6
Continuous
 62
     7
100
AcDbLine
 10
1375.823973083536
 20
1897.13802679176
 30
0.0
 11
1375.823973083536
 21
1847.138026791755
 31
0.0
  0
LINE
  5
199
330
1F
100
AcDbEntity
  8
実線
  6
Continuous
 62
     7
100
AcDbLine
 10
1375.823973083536
 20
1949.13802679176
 30
0.0
 11
1375.823973083536
 21
1899.13802679176
 31
0.0
  0
LINE
  5
19A
330
1F
100
AcDbEntity
  8
実線
  6
Continuous
 62
     7
100
AcDbLine
 10
1375.823973083536
 20
2001.138026791755
 30
0.0
 11
1375.823973083536
 21
1951.138026791755
 31
0.0
  0
LINE
  5
19B
330
1F
100
AcDbEntity
  8
実線
  6
Continuous
 62
     7
100
AcDbLine
 10
1373.823973083536
 20
1897.13802679176
 30
0.0
 11
1373.823973083536
 21
1847.138026791755
 31
0.0
  0
LINE
  5
19C
330
1F
100
AcDbEntity
  8
実線
  6
Continuous
 62
     7
100
AcDbLine
 10
1373.823973083536
 20
1949.13802679176
 30
0.0
 11
1373.823973083536
 21
1899.13802679176
 31
0.0
  0
LINE
  5
19D
330
1F
100
AcDbEntity
  8
実線
  6
Continuous
 62
     7
100
AcDbLine
 10
1373.823973083536
 20
2001.138026791755
 30
0.0
 11
1373.823973083536
 21
1951.13802679176
 31
0.0
  0
LINE
  5
19E
330
1F
100
AcDbEntity
  8
実線
  6
Continuous
 62
     7
100
AcDbLine
 10
1356.323973083536
 20
1897.13802679176
 30
0.0
 11
1356.323973083536
 21
1847.138026791755
 31
0.0
  0
LINE
  5
19F
330
1F
100
AcDbEntity
  8
実線
  6
Continuous
 62
     7
100
AcDbLine
 10
1356.323973083536
 20
1949.13802679176
 30
0.0
 11
1356.323973083536
 21
1899.13802679176
 31
0.0
  0
LINE
  5
1A0
330
1F
100
AcDbEntity
  8
実線
  6
Continuous
 62
     7
100
AcDbLine
 10
1356.323973083536
 20
2001.138026791755
 30
0.0
 11
1356.323973083536
 21
1951.138026791755
 31
0.0
  0
LINE
  5
1A1
330
1F
100
AcDbEntity
  8
実線
  6
Continuous
 62
     7
100
AcDbLine
 10
1354.323973083536
 20
1897.13802679176
 30
0.0
 11
1354.323973083536
 21
1847.138026791755
 31
0.0
  0
LINE
  5
1A2
330
1F
100
AcDbEntity
  8
実線
  6
Continuous
 62
     7
100
AcDbLine
 10
1354.323973083536
 20
1949.138026791755
 30
0.0
 11
1354.323973083536
 21
1899.13802679176
 31
0.0
  0
LINE
  5
1A3
330
1F
100
AcDbEntity
  8
実線
  6
Continuous
 62
     7
100
AcDbLine
 10
1354.323973083536
 20
2001.13802679176
 30
0.0
 11
1354.323973083536
 21
1951.138026791755
 31
0.0
  0
LINE
  5
1A4
330
1F
100
AcDbEntity
  8
実線
  6
Continuous
 62
     7
100
AcDbLine
 10
1336.823973083536
 20
1897.13802679176
 30
0.0
 11
1336.823973083536
 21
1860.138026791755
 31
0.0
  0
LINE
  5
1A5
330
1F
100
AcDbEntity
  8
実線
  6
Continuous
 62
     7
100
AcDbLine
 10
1336.823973083536
 20
1949.138026791755
 30
0.0
 11
1336.823973083536
 21
1899.13802679176
 31
0.0
  0
LINE
  5
1A6
330
1F
100
AcDbEntity
  8
実線
  6
Continuous
 62
     7
100
AcDbLine
 10
1336.823973083536
 20
1988.138026791755
 30
0.0
 11
1336.823973083536
 21
1951.13802679176
 31
0.0
  0
LINE
  5
1A7
330
1F
100
AcDbEntity
  8
実線
  6
Continuous
 62
     7
100
AcDbLine
 10
1473.323973083536
 20
1847.138026791755
 30
0.0
 11
1477.823973083533
 21
1847.13802679176
 31
0.0
  0
LINE
  5
1A8
330
1F
100
AcDbEntity
  8
実線
  6
Continuous
 62
     7
100
AcDbLine
 10
1453.823973083536
 20
1847.138026791755
 30
0.0
 11
1471.323973083536
 21
1847.13802679176
 31
0.0
  0
LINE
  5
1A9
330
1F
100
AcDbEntity
  8
実線
  6
Continuous
 62
     7
100
AcDbLine
 10
1434.323973083536
 20
1847.138026791755
 30
0.0
 11
1451.823973083536
 21
1847.138026791755
 31
0.0
  0
LINE
  5
1AA
330
1F
100
AcDbEntity
  8
実線
  6
Continuous
 62
     7
100
AcDbLine
 10
1414.823973083536
 20
1847.138026791755
 30
0.0
 11
1432.323973083536
 21
1847.138026791755
 31
0.0
  0
LINE
  5
1AB
330
1F
100
AcDbEntity
  8
実線
  6
Continuous
 62
     7
100
AcDbLine
 10
1395.323973083533
 20
1847.138026791755
 30
0.0
 11
1412.823973083536
 21
1847.138026791755
 31
0.0
  0
LINE
  5
1AC
330
1F
100
AcDbEntity
  8
実線
  6
Continuous
 62
     7
100
AcDbLine
 10
1375.823973083536
 20
1847.138026791755
 30
0.0
 11
1393.323973083536
 21
1847.138026791755
 31
0.0
  0
LINE
  5
1AD
330
1F
100
AcDbEntity
  8
実線
  6
Continuous
 62
     7
100
AcDbLine
 10
1356.323973083536
 20
1847.138026791755
 30
0.0
 11
1373.823973083536
 21
1847.138026791755
 31
0.0
  0
LINE
  5
1AE
330
1F
100
AcDbEntity
  8
実線
  6
Continuous
 62
     7
100
AcDbLine
 10
1349.823973083536
 20
1847.13802679176
 30
0.0
 11
1354.323973083536
 21
1847.138026791755
 31
0.0
  0
LINE
  5
1AF
330
1F
100
AcDbEntity
  8
実線
  6
Continuous
 62
     7
100
AcDbLine
 10
1473.323973083536
 20
1899.13802679176
 30
0.0
 11
1490.823973083536
 21
1899.13802679176
 31
0.0
  0
LINE
  5
1B0
330
1F
100
AcDbEntity
  8
実線
  6
Continuous
 62
     7
100
AcDbLine
 10
1453.823973083536
 20
1899.13802679176
 30
0.0
 11
1471.323973083536
 21
1899.13802679176
 31
0.0
  0
LINE
  5
1B1
330
1F
100
AcDbEntity
  8
実線
  6
Continuous
 62
     7
100
AcDbLine
 10
1434.323973083536
 20
1899.13802679176
 30
0.0
 11
1451.823973083536
 21
1899.13802679176
 31
0.0
  0
LINE
  5
1B2
330
1F
100
AcDbEntity
  8
実線
  6
Continuous
 62
     7
100
AcDbLine
 10
1414.823973083536
 20
1899.13802679176
 30
0.0
 11
1432.323973083533
 21
1899.13802679176
 31
0.0
  0
LINE
  5
1B3
330
1F
100
AcDbEntity
  8
実線
  6
Continuous
 62
     7
100
AcDbLine
 10
1395.323973083536
 20
1899.13802679176
 30
0.0
 11
1412.823973083536
 21
1899.13802679176
 31
0.0
  0
LINE
  5
1B4
330
1F
100
AcDbEntity
  8
実線
  6
Continuous
 62
     7
100
AcDbLine
 10
1375.823973083536
 20
1899.13802679176
 30
0.0
 11
1393.323973083536
 21
1899.13802679176
 31
0.0
  0
LINE
  5
1B5
330
1F
100
AcDbEntity
  8
実線
  6
Continuous
 62
     7
100
AcDbLine
 10
1356.323973083536
 20
1899.13802679176
 30
0.0
 11
1373.823973083536
 21
1899.13802679176
 31
0.0
  0
LINE
  5
1B6
330
1F
100
AcDbEntity
  8
実線
  6
Continuous
 62
     7
100
AcDbLine
 10
1336.823973083536
 20
1899.13802679176
 30
0.0
 11
1354.323973083536
 21
1899.13802679176
 31
0.0
  0
LINE
  5
1B7
330
1F
100
AcDbEntity
  8
実線
  6
Continuous
 62
     7
100
AcDbLine
 10
1473.323973083536
 20
1897.13802679176
 30
0.0
 11
1490.823973083536
 21
1897.13802679176
 31
0.0
  0
LINE
  5
1B8
330
1F
100
AcDbEntity
  8
実線
  6
Continuous
 62
     7
100
AcDbLine
 10
1453.823973083536
 20
1897.138026791755
 30
0.0
 11
1471.323973083536
 21
1897.13802679176
 31
0.0
  0
LINE
  5
1B9
330
1F
100
AcDbEntity
  8
実線
  6
Continuous
 62
     7
100
AcDbLine
 10
1434.323973083536
 20
1897.13802679176
 30
0.0
 11
1451.823973083536
 21
1897.13802679176
 31
0.0
  0
LINE
  5
1BA
330
1F
100
AcDbEntity
  8
実線
  6
Continuous
 62
     7
100
AcDbLine
 10
1414.823973083536
 20
1897.13802679176
 30
0.0
 11
1432.323973083536
 21
1897.13802679176
 31
0.0
  0
LINE
  5
1BB
330
1F
100
AcDbEntity
  8
実線
  6
Continuous
 62
     7
100
AcDbLine
 10
1395.323973083536
 20
1897.13802679176
 30
0.0
 11
1412.823973083533
 21
1897.138026791755
 31
0.0
  0
LINE
  5
1BC
330
1F
100
AcDbEntity
  8
実線
  6
Continuous
 62
     7
100
AcDbLine
 10
1375.823973083536
 20
1897.13802679176
 30
0.0
 11
1393.323973083536
 21
1897.13802679176
 31
0.0
  0
LINE
  5
1BD
330
1F
100
AcDbEntity
  8
実線
  6
Continuous
 62
     7
100
AcDbLine
 10
1356.323973083536
 20
1897.13802679176
 30
0.0
 11
1373.823973083536
 21
1897.13802679176
 31
0.0
  0
LINE
  5
1BE
330
1F
100
AcDbEntity
  8
実線
  6
Continuous
 62
     7
100
AcDbLine
 10
1336.823973083536
 20
1897.13802679176
 30
0.0
 11
1354.323973083536
 21
1897.13802679176
 31
0.0
  0
LINE
  5
1BF
330
1F
100
AcDbEntity
  8
実線
  6
Continuous
 62
     7
100
AcDbLine
 10
1473.323973083536
 20
1951.13802679176
 30
0.0
 11
1490.823973083536
 21
1951.13802679176
 31
0.0
  0
LINE
  5
1C0
330
1F
100
AcDbEntity
  8
実線
  6
Continuous
 62
     7
100
AcDbLine
 10
1453.823973083536
 20
1951.13802679176
 30
0.0
 11
1471.323973083536
 21
1951.138026791755
 31
0.0
  0
LINE
  5
1C1
330
1F
100
AcDbEntity
  8
実線
  6
Continuous
 62
     7
100
AcDbLine
 10
1434.323973083536
 20
1951.13802679176
 30
0.0
 11
1451.823973083536
 21
1951.13802679176
 31
0.0
  0
LINE
  5
1C2
330
1F
100
AcDbEntity
  8
実線
  6
Continuous
 62
     7
100
AcDbLine
 10
1414.823973083536
 20
1951.13802679176
 30
0.0
 11
1432.323973083536
 21
1951.13802679176
 31
0.0
  0
LINE
  5
1C3
330
1F
100
AcDbEntity
  8
実線
  6
Continuous
 62
     7
100
AcDbLine
 10
1395.323973083536
 20
1951.138026791755
 30
0.0
 11
1412.823973083536
 21
1951.138026791755
 31
0.0
  0
LINE
  5
1C4
330
1F
100
AcDbEntity
  8
実線
  6
Continuous
 62
     7
100
AcDbLine
 10
1375.823973083536
 20
1951.138026791755
 30
0.0
 11
1393.323973083536
 21
1951.138026791755
 31
0.0
  0
LINE
  5
1C5
330
1F
100
AcDbEntity
  8
実線
  6
Continuous
 62
     7
100
AcDbLine
 10
1356.323973083536
 20
1951.138026791755
 30
0.0
 11
1373.823973083536
 21
1951.13802679176
 31
0.0
  0
LINE
  5
1C6
330
1F
100
AcDbEntity
  8
実線
  6
Continuous
 62
     7
100
AcDbLine
 10
1336.823973083536
 20
1951.13802679176
 30
0.0
 11
1354.323973083536
 21
1951.138026791755
 31
0.0
  0
LINE
  5
1C7
330
1F
100
AcDbEntity
  8
実線
  6
Continuous
 62
     7
100
AcDbLine
 10
1473.323973083536
 20
1949.13802679176
 30
0.0
 11
1490.823973083536
 21
1949.13802679176
 31
0.0
  0
LINE
  5
1C8
330
1F
100
AcDbEntity
  8
実線
  6
Continuous
 62
     7
100
AcDbLine
 10
1453.823973083536
 20
1949.13802679176
 30
0.0
 11
1471.323973083536
 21
1949.13802679176
 31
0.0
  0
LINE
  5
1C9
330
1F
100
AcDbEntity
  8
実線
  6
Continuous
 62
     7
100
AcDbLine
 10
1434.323973083536
 20
1949.13802679176
 30
0.0
 11
1451.823973083536
 21
1949.13802679176
 31
0.0
  0
LINE
  5
1CA
330
1F
100
AcDbEntity
  8
実線
  6
Continuous
 62
     7
100
AcDbLine
 10
1414.823973083536
 20
1949.138026791755
 30
0.0
 11
1432.323973083533
 21
1949.138026791755
 31
0.0
  0
LINE
  5
1CB
330
1F
100
AcDbEntity
  8
実線
  6
Continuous
 62
     7
100
AcDbLine
 10
1395.323973083536
 20
1949.13802679176
 30
0.0
 11
1412.823973083533
 21
1949.13802679176
 31
0.0
  0
LINE
  5
1CC
330
1F
100
AcDbEntity
  8
実線
  6
Continuous
 62
     7
100
AcDbLine
 10
1375.823973083536
 20
1949.13802679176
 30
0.0
 11
1393.323973083536
 21
1949.13802679176
 31
0.0
  0
LINE
  5
1CD
330
1F
100
AcDbEntity
  8
実線
  6
Continuous
 62
     7
100
AcDbLine
 10
1356.323973083536
 20
1949.13802679176
 30
0.0
 11
1373.823973083536
 21
1949.13802679176
 31
0.0
  0
LINE
  5
1CE
330
1F
100
AcDbEntity
  8
実線
  6
Continuous
 62
     7
100
AcDbLine
 10
1336.823973083536
 20
1949.138026791755
 30
0.0
 11
1354.323973083536
 21
1949.138026791755
 31
0.0
  0
LINE
  5
1CF
330
1F
100
AcDbEntity
  8
実線
  6
Continuous
 62
     7
100
AcDbLine
 10
1473.323973083529
 20
2001.138026791755
 30
0.0
 11
1477.823973083536
 21
2001.138026791755
 31
0.0
  0
LINE
  5
1D0
330
1F
100
AcDbEntity
  8
実線
  6
Continuous
 62
     7
100
AcDbLine
 10
1453.823973083536
 20
2001.138026791755
 30
0.0
 11
1471.323973083536
 21
2001.138026791755
 31
0.0
  0
LINE
  5
1D1
330
1F
100
AcDbEntity
  8
実線
  6
Continuous
 62
     7
100
AcDbLine
 10
1434.323973083536
 20
2001.138026791755
 30
0.0
 11
1451.823973083536
 21
2001.138026791755
 31
0.0
  0
LINE
  5
1D2
330
1F
100
AcDbEntity
  8
実線
  6
Continuous
 62
     7
100
AcDbLine
 10
1414.823973083536
 20
2001.138026791755
 30
0.0
 11
1432.323973083536
 21
2001.138026791755
 31
0.0
  0
LINE
  5
1D3
330
1F
100
AcDbEntity
  8
実線
  6
Continuous
 62
     7
100
AcDbLine
 10
1395.323973083536
 20
2001.138026791755
 30
0.0
 11
1412.823973083533
 21
2001.138026791755
 31
0.0
  0
LINE
  5
1D4
330
1F
100
AcDbEntity
  8
実線
  6
Continuous
 62
     7
100
AcDbLine
 10
1375.823973083536
 20
2001.138026791755
 30
0.0
 11
1393.323973083536
 21
2001.138026791755
 31
0.0
  0
LINE
  5
1D5
330
1F
100
AcDbEntity
  8
実線
  6
Continuous
 62
     7
100
AcDbLine
 10
1356.323973083536
 20
2001.138026791755
 30
0.0
 11
1373.823973083536
 21
2001.138026791755
 31
0.0
  0
LINE
  5
1D6
330
1F
100
AcDbEntity
  8
実線
  6
Continuous
 62
     7
100
AcDbLine
 10
1349.823973083533
 20
2001.138026791755
 30
0.0
 11
1354.323973083536
 21
2001.13802679176
 31
0.0
  0
LINE
  5
1D7
330
1F
100
AcDbEntity
  8
実線
  6
Continuous
 62
     7
100
AcDbLine
 10
1349.611876762554
 20
1574.725930470775
 30
0.0
 11
1349.611876762554
 21
1590.715930470775
 31
0.0
  0
LINE
  5
1D8
330
1F
100
AcDbEntity
  8
実線
  6
Continuous
 62
     7
100
AcDbLine
 10
1334.611876762554
 20
1559.725930470775
 30
0.0
 11
1318.621876762556
 21
1559.725930470775
 31
0.0
  0
LINE
  5
1D9
330
1F
100
AcDbEntity
  8
実線
  6
Continuous
 62
     7
100
AcDbLine
 10
1349.611876762554
 20
1844.925930470775
 30
0.0
 11
1349.611876762554
 21
1828.935930470775
 31
0.0
  0
LINE
  5
1DA
330
1F
100
AcDbEntity
  8
実線
  6
Continuous
 62
     7
100
AcDbLine
 10
1334.611876762554
 20
1859.925930470775
 30
0.0
 11
1318.621876762556
 21
1859.925930470775
 31
0.0
  0
LINE
  5
1DB
330
1F
100
AcDbEntity
  8
実線
  6
Continuous
 62
     7
100
AcDbLine
 10
1064.411876762554
 20
1859.925930470775
 30
0.0
 11
1080.401876762552
 21
1859.925930470775
 31
0.0
  0
LINE
  5
1DC
330
1F
100
AcDbEntity
  8
実線
  6
Continuous
 62
     7
100
AcDbLine
 10
1049.411876762554
 20
1844.925930470775
 30
0.0
 11
1049.411876762554
 21
1828.935930470775
 31
0.0
  0
LINE
  5
1DD
330
1F
100
AcDbEntity
  8
実線
  6
Continuous
 62
     7
100
AcDbLine
 10
1064.411876762554
 20
1559.725930470775
 30
0.0
 11
1080.401876762555
 21
1559.725930470775
 31
0.0
  0
LINE
  5
1DE
330
1F
100
AcDbEntity
  8
実線
  6
Continuous
 62
     7
100
AcDbLine
 10
1049.411876762554
 20
1574.725930470775
 30
0.0
 11
1049.412023147105
 21
1590.715930469245
 31
0.0
  0
LINE
  5
1DF
330
1F
100
AcDbEntity
  8
実線
  6
Continuous
 62
     7
100
AcDbLine
 10
1492.631876762555
 20
1825.943152712095
 30
0.0
 11
1485.631871912438
 21
1818.94314786198
 31
0.0
  0
LINE
  5
1E0
330
1F
100
AcDbEntity
  8
実線
  6
Continuous
 62
     7
100
AcDbLine
 10
1487.631876762555
 20
1839.965930470775
 30
0.0
 11
1476.556414916597
 21
1828.89046862482
 31
0.0
  0
LINE
  5
1E1
330
1F
100
AcDbEntity
  8
実線
  6
Continuous
 62
     7
100
AcDbLine
 10
1487.631876762555
 20
1844.92593047078
 30
0.0
 11
1487.631876762555
 21
1839.965930470775
 31
0.0
  0
LINE
  5
1E2
330
1F
100
AcDbEntity
  8
実線
  6
Continuous
 62
     7
100
AcDbLine
 10
1315.631876762551
 20
2002.945930470775
 30
0.0
 11
1308.631871767545
 21
1995.94592547577
 31
0.0
  0
LINE
  5
1E3
330
1F
100
AcDbEntity
  8
実線
  6
Continuous
 62
     7
100
AcDbLine
 10
1329.651876762552
 20
1997.945930470775
 30
0.0
 11
1318.621876762549
 21
1985.945930470775
 31
0.0
  0
LINE
  5
1E4
330
1F
100
AcDbEntity
  8
実線
  6
Continuous
 62
     7
100
AcDbLine
 10
1334.611876762551
 20
1997.945930470775
 30
0.0
 11
1329.651876762552
 21
1997.945930470775
 31
0.0
  0
LINE
  5
1E5
330
1F
100
AcDbEntity
  8
実線
  6
Continuous
 62
     7
100
AcDbLine
 10
1083.394654521233
 20
2002.94593047078
 30
0.0
 11
1090.39465937135
 21
1995.94592562066
 31
0.0
  0
LINE
  5
1E6
330
1F
100
AcDbEntity
  8
実線
  6
Continuous
 62
     7
100
AcDbLine
 10
1069.371876762553
 20
1997.945930470775
 30
0.0
 11
1080.447338608511
 21
1986.87046862482
 31
0.0
  0
LINE
  5
1E7
330
1F
100
AcDbEntity
  8
実線
  6
Continuous
 62
     7
100
AcDbLine
 10
1064.411876762554
 20
1997.94593047078
 30
0.0
 11
1069.371876762553
 21
1997.945930470775
 31
0.0
  0
LINE
  5
1E8
330
1F
100
AcDbEntity
  8
実線
  6
Continuous
 62
     7
100
AcDbLine
 10
906.3918767625532
 20
1825.945930470775
 30
0.0
 11
913.3918817575636
 21
1818.945925475765
 31
0.0
  0
LINE
  5
1E9
330
1F
100
AcDbEntity
  8
実線
  6
Continuous
 62
     7
100
AcDbLine
 10
911.3918767625532
 20
1839.965930470775
 30
0.0
 11
923.3918767625532
 21
1828.935930470775
 31
0.0
  0
LINE
  5
1EA
330
1F
100
AcDbEntity
  8
実線
  6
Continuous
 62
     7
100
AcDbLine
 10
911.3918767625532
 20
1844.925930470775
 30
0.0
 11
911.3918767625532
 21
1839.965930470775
 31
0.0
  0
LINE
  5
1EB
330
1F
100
AcDbEntity
  8
実線
  6
Continuous
 62
     7
100
AcDbLine
 10
1492.631876762555
 20
1593.70593047078
 30
0.0
 11
1485.631876762555
 21
1600.71593047078
 31
0.0
  0
LINE
  5
1EC
330
1F
100
AcDbEntity
  8
実線
  6
Continuous
 62
     7
100
AcDbLine
 10
1487.631876762555
 20
1579.68593047078
 30
0.0
 11
1476.55882264615
 21
1590.75898458718
 31
0.0
  0
LINE
  5
1ED
330
1F
100
AcDbEntity
  8
実線
  6
Continuous
 62
     7
100
AcDbLine
 10
1487.631876762555
 20
1574.725930470775
 30
0.0
 11
1487.631876762555
 21
1579.68593047078
 31
0.0
  0
LINE
  5
1EE
330
1F
100
AcDbEntity
  8
実線
  6
Continuous
 62
     7
100
AcDbLine
 10
1315.631152213426
 20
1416.705930470775
 30
0.0
 11
1308.631145132977
 21
1423.705937551225
 31
0.0
  0
LINE
  5
1EF
330
1F
100
AcDbEntity
  8
実線
  6
Continuous
 62
     7
100
AcDbLine
 10
1329.650679765359
 20
1421.70588710761
 30
0.0
 11
1318.576309472667
 21
1432.780257400305
 31
0.0
  0
LINE
  5
1F0
330
1F
100
AcDbEntity
  8
実線
  6
Continuous
 62
     7
100
AcDbLine
 10
1083.391876762553
 20
1416.705930470775
 30
0.0
 11
1090.391881757564
 21
1423.705935465785
 31
0.0
  0
LINE
  5
1F1
330
1F
100
AcDbEntity
  8
実線
  6
Continuous
 62
     7
100
AcDbLine
 10
1073.439285802217
 20
1425.733339510435
 30
0.0
 11
1080.448399410767
 21
1432.742453118985
 31
0.0
  0
LINE
  5
1F2
330
1F
100
AcDbEntity
  8
実線
  6
Continuous
 62
     7
100
AcDbLine
 10
1069.411876762554
 20
1421.705930470775
 30
0.0
 11
1073.439285802217
 21
1425.733339510435
 31
0.0
  0
LINE
  5
1F3
330
1F
100
AcDbEntity
  8
実線
  6
Continuous
 62
     7
100
AcDbLine
 10
1064.411876762554
 20
1421.705930470775
 30
0.0
 11
1069.411876762554
 21
1421.705930470775
 31
0.0
  0
LINE
  5
1F4
330
1F
100
AcDbEntity
  8
実線
  6
Continuous
 62
     7
100
AcDbLine
 10
906.3918767625532
 20
1593.708708229455
 30
0.0
 11
913.3918816126702
 21
1600.708713079575
 31
0.0
  0
LINE
  5
1F5
330
1F
100
AcDbEntity
  8
実線
  6
Continuous
 62
     7
100
AcDbLine
 10
911.3918767625569
 20
1579.685930470775
 30
0.0
 11
922.4673386085146
 21
1590.761392316735
 31
0.0
  0
LINE
  5
1F6
330
1F
100
AcDbEntity
  8
実線
  6
Continuous
 62
     7
100
AcDbLine
 10
911.3918767625569
 20
1574.725930470775
 30
0.0
 11
911.3918767625569
 21
1579.685930470775
 31
0.0
  0
LINE
  5
1F7
330
1F
100
AcDbEntity
  8
実線
  6
Continuous
 62
     7
100
AcDbLine
 10
1315.631152213426
 20
1416.705930470775
 30
0.0
 11
1303.325517553122
 21
1416.705930470775
 31
0.0
  0
LINE
  5
1F8
330
1F
100
AcDbEntity
  8
実線
  6
Continuous
 62
     7
100
AcDbLine
 10
1334.611876762554
 20
1421.705930470775
 30
0.0
 11
1329.650679765359
 21
1421.70588710761
 31
0.0
  0
LINE
  5
1F9
330
1F
100
AcDbEntity
  8
実線
  6
Continuous
 62
     7
100
AcDbLine
 10
1485.631876762555
 20
1818.9332988863
 30
0.0
 11
1485.631876762555
 21
1600.71593047078
 31
0.0
  0
LINE
  5
1FA
330
1F
100
AcDbEntity
  8
実線
  6
Continuous
 62
     7
100
AcDbLine
 10
1090.404508347036
 20
1995.945930470775
 30
0.0
 11
1308.621876762549
 21
1995.945930470775
 31
0.0
  0
LINE
  5
1FB
330
1F
100
AcDbEntity
  8
実線
  6
Continuous
 62
     7
100
AcDbLine
 10
913.3918767625532
 20
1600.718562055255
 30
0.0
 11
913.3918767625532
 21
1818.935930470775
 31
0.0
  0
LINE
  5
1FC
330
1F
100
AcDbEntity
  8
実線
  6
Continuous
 62
     7
100
AcDbLine
 10
1308.619245178076
 20
1423.705930470775
 30
0.0
 11
1090.401876762555
 21
1423.705930470775
 31
0.0
  0
LINE
  5
1FD
330
1F
100
AcDbEntity
  8
実線
  6
Continuous
 62
     7
100
AcDbLine
 10
1049.411876762554
 20
1579.685930470775
 30
0.0
 11
911.3918767625569
 21
1579.685930470775
 31
0.0
  0
LINE
  5
1FE
330
1F
100
AcDbEntity
  8
実線
  6
Continuous
 62
     7
100
AcDbLine
 10
1049.412023147105
 20
1590.715930469245
 30
0.0
 11
923.391667940085
 21
1590.718562057435
 31
0.0
  0
LINE
  5
1FF
330
1F
100
AcDbEntity
  8
実線
  6
Continuous
 62
     7
100
AcDbLine
 10
1049.411876762554
 20
1583.705930470775
 30
0.0
 11
916.3916679400813
 21
1583.708708231635
 31
0.0
  0
LINE
  5
200
330
1F
100
AcDbEntity
  8
実線
  6
Continuous
 62
     7
100
AcDbLine
 10
1080.401876762555
 20
1433.705930470775
 30
0.0
 11
1080.401876762555
 21
1559.725930470775
 31
0.0
  0
LINE
  5
201
330
1F
100
AcDbEntity
  8
実線
  6
Continuous
 62
     7
100
AcDbLine
 10
1073.391876762553
 20
1426.705930470775
 30
0.0
 11
1073.391876762553
 21
1559.725930470775
 31
0.0
  0
LINE
  5
202
330
1F
100
AcDbEntity
  8
実線
  6
Continuous
 62
     7
100
AcDbLine
 10
1069.371876762556
 20
1421.705930470775
 30
0.0
 11
1069.371876762553
 21
1559.725930470775
 31
0.0
  0
LINE
  5
203
330
1F
100
AcDbEntity
  8
実線
  6
Continuous
 62
     7
100
AcDbLine
 10
1064.411876762554
 20
1421.705930470775
 30
0.0
 11
1064.411876762554
 21
1559.725930470775
 31
0.0
  0
LINE
  5
204
330
1F
100
AcDbEntity
  8
実線
  6
Continuous
 62
     7
100
AcDbLine
 10
1049.411876762554
 20
1574.725930470775
 30
0.0
 11
911.3918767625569
 21
1574.725930470775
 31
0.0
  0
LINE
  5
205
330
1F
100
AcDbEntity
  8
実線
  6
Continuous
 62
     7
100
AcDbLine
 10
1069.371876762553
 20
1859.925930470775
 30
0.0
 11
1069.371876762553
 21
1997.945930470775
 31
0.0
  0
LINE
  5
206
330
1F
100
AcDbEntity
  8
実線
  6
Continuous
 62
     7
100
AcDbLine
 10
1080.401876761024
 20
1859.925784086225
 30
0.0
 11
1080.404508349212
 21
1985.94613929325
 31
0.0
  0
LINE
  5
207
330
1F
100
AcDbEntity
  8
実線
  6
Continuous
 62
     7
100
AcDbLine
 10
1073.391876762553
 20
1859.925930470775
 30
0.0
 11
1073.394654523413
 21
1992.94613929325
 31
0.0
  0
LINE
  5
208
330
1F
100
AcDbEntity
  8
実線
  6
Continuous
 62
     7
100
AcDbLine
 10
923.3918767625532
 20
1828.935930470775
 30
0.0
 11
1049.411876762554
 21
1828.935930470775
 31
0.0
  0
LINE
  5
209
330
1F
100
AcDbEntity
  8
実線
  6
Continuous
 62
     7
100
AcDbLine
 10
916.3918767625532
 20
1835.945930470775
 30
0.0
 11
1049.411876762554
 21
1835.945930470775
 31
0.0
  0
LINE
  5
20A
330
1F
100
AcDbEntity
  8
実線
  6
Continuous
 62
     7
100
AcDbLine
 10
911.3918767625532
 20
1839.965930470775
 30
0.0
 11
1049.411876762554
 21
1839.965930470775
 31
0.0
  0
LINE
  5
20B
330
1F
100
AcDbEntity
  8
実線
  6
Continuous
 62
     7
100
AcDbLine
 10
911.3918767625532
 20
1844.925930470775
 30
0.0
 11
1049.411876762554
 21
1844.925930470775
 31
0.0
  0
LINE
  5
20C
330
1F
100
AcDbEntity
  8
実線
  6
Continuous
 62
     7
100
AcDbLine
 10
1064.411876762554
 20
1859.925930470775
 30
0.0
 11
1064.411876762554
 21
1997.94593047078
 31
0.0
  0
LINE
  5
20D
330
1F
100
AcDbEntity
  8
実線
  6
Continuous
 62
     7
100
AcDbLine
 10
1349.611876762554
 20
1839.965930470775
 30
0.0
 11
1487.631876762555
 21
1839.965930470775
 31
0.0
  0
LINE
  5
20E
330
1F
100
AcDbEntity
  8
実線
  6
Continuous
 62
     7
100
AcDbLine
 10
1349.611730378
 20
1828.935930472305
 30
0.0
 11
1475.632085585027
 21
1828.933298884115
 31
0.0
  0
LINE
  5
20F
330
1F
100
AcDbEntity
  8
実線
  6
Continuous
 62
     7
100
AcDbLine
 10
1349.611876762554
 20
1835.945930470775
 30
0.0
 11
1482.632085585023
 21
1835.943152709915
 31
0.0
  0
LINE
  5
210
330
1F
100
AcDbEntity
  8
実線
  6
Continuous
 62
     7
100
AcDbLine
 10
1318.621876762549
 20
1985.945930470775
 30
0.0
 11
1318.621876762556
 21
1859.925930470775
 31
0.0
  0
LINE
  5
211
330
1F
100
AcDbEntity
  8
実線
  6
Continuous
 62
     7
100
AcDbLine
 10
1325.631876762551
 20
1992.945930470775
 30
0.0
 11
1325.631876762555
 21
1859.925930470775
 31
0.0
  0
LINE
  5
212
330
1F
100
AcDbEntity
  8
実線
  6
Continuous
 62
     7
100
AcDbLine
 10
1329.651876762552
 20
1997.945930470775
 30
0.0
 11
1329.651876762555
 21
1859.925930470775
 31
0.0
  0
LINE
  5
213
330
1F
100
AcDbEntity
  8
実線
  6
Continuous
 62
     7
100
AcDbLine
 10
1334.611876762551
 20
1997.945930470775
 30
0.0
 11
1334.611876762554
 21
1859.925930470775
 31
0.0
  0
LINE
  5
214
330
1F
100
AcDbEntity
  8
実線
  6
Continuous
 62
     7
100
AcDbLine
 10
1349.611876762554
 20
1844.925930470775
 30
0.0
 11
1487.631876762555
 21
1844.92593047078
 31
0.0
  0
LINE
  5
215
330
1F
100
AcDbEntity
  8
実線
  6
Continuous
 62
     7
100
AcDbLine
 10
1318.621876764081
 20
1559.72607685533
 30
0.0
 11
1318.619245175897
 21
1433.705721648305
 31
0.0
  0
LINE
  5
216
330
1F
100
AcDbEntity
  8
実線
  6
Continuous
 62
     7
100
AcDbLine
 10
1475.631876762555
 20
1590.71593047078
 30
0.0
 11
1349.611876762554
 21
1590.715930470775
 31
0.0
  0
LINE
  5
217
330
1F
100
AcDbEntity
  8
実線
  6
Continuous
 62
     7
100
AcDbLine
 10
1482.631876762555
 20
1583.70593047078
 30
0.0
 11
1349.611876762554
 21
1583.705930470775
 31
0.0
  0
LINE
  5
218
330
1F
100
AcDbEntity
  8
実線
  6
Continuous
 62
     7
100
AcDbLine
 10
1325.631152213277
 20
1426.7058760016
 30
0.0
 11
1325.631876762555
 21
1559.725930470775
 31
0.0
  0
LINE
  5
219
330
1F
100
AcDbEntity
  8
実線
  6
Continuous
 62
     7
100
AcDbLine
 10
1487.631876762555
 20
1579.68593047078
 30
0.0
 11
1349.611876762554
 21
1579.685930470775
 31
0.0
  0
LINE
  5
21A
330
1F
100
AcDbEntity
  8
実線
  6
Continuous
 62
     7
100
AcDbLine
 10
1329.650679765359
 20
1421.70588710761
 30
0.0
 11
1329.651876762555
 21
1559.725930470775
 31
0.0
  0
LINE
  5
21B
330
1F
100
AcDbEntity
  8
実線
  6
Continuous
 62
     7
100
AcDbLine
 10
1487.631876762555
 20
1574.725930470775
 30
0.0
 11
1349.611876762554
 21
1574.725930470775
 31
0.0
  0
LINE
  5
21C
330
1F
100
AcDbEntity
  8
実線
  6
Continuous
 62
     7
100
AcDbLine
 10
1334.611876762554
 20
1559.725930470775
 30
0.0
 11
1334.611876762554
 21
1421.705930470775
 31
0.0
  0
LINE
  5
21D
330
1F
100
AcDbEntity
  8
実線
  6
Continuous
 62
     7
100
AcDbLine
 10
1477.631876762551
 20
1412.835930470775
 30
0.0
 11
921.3918767625532
 21
1412.835930470775
 31
0.0
  0
LINE
  5
21E
330
1F
100
AcDbEntity
  8
実線
  6
Continuous
 62
     7
100
AcDbLine
 10
902.5218767625579
 20
1431.705930470775
 30
0.0
 11
902.5218767625506
 21
1987.945930470775
 31
0.0
  0
LINE
  5
21F
330
1F
100
AcDbEntity
  8
実線
  6
Continuous
 62
     7
100
AcDbLine
 10
1496.501876762554
 20
1987.945930470775
 30
0.0
 11
1496.50187676255
 21
1431.705930470775
 31
0.0
  0
LINE
  5
220
330
1F
100
AcDbEntity
  8
実線
  6
Continuous
 62
     7
100
AcDbLine
 10
921.3918767625532
 20
2006.815930470775
 30
0.0
 11
1477.631876762555
 21
2006.815930470775
 31
0.0
  0
LINE
  5
221
330
1F
100
AcDbEntity
  8
実線
  6
Continuous
 62
     7
100
AcDbLine
 10
1479.491876762552
 20
1409.845930470775
 30
0.0
 11
919.5318767625527
 21
1409.845930470775
 31
0.0
  0
LINE
  5
222
330
1F
100
AcDbEntity
  8
実線
  6
Continuous
 62
     7
100
AcDbLine
 10
899.5318767625527
 20
1429.845930470775
 30
0.0
 11
899.5318767625527
 21
1989.805930470775
 31
0.0
  0
LINE
  5
223
330
1F
100
AcDbEntity
  8
実線
  6
Continuous
 62
     7
100
AcDbLine
 10
1499.491876762555
 20
1987.945930470775
 30
0.0
 11
1499.491876762552
 21
1429.845930470775
 31
0.0
  0
LINE
  5
224
330
1F
100
AcDbEntity
  8
実線
  6
Continuous
 62
     7
100
AcDbLine
 10
919.5318767625527
 20
2009.805930470775
 30
0.0
 11
1477.631876762555
 21
2009.805930470775
 31
0.0
  0
LINE
  5
225
330
1F
100
AcDbEntity
  8
実線
  6
Continuous
 62
     7
100
AcDbLine
 10
1490.823973083536
 20
1468.5138341498
 30
0.0
 11
1490.823973083536
 21
1431.513834149795
 31
0.0
  0
LINE
  5
226
330
1F
100
AcDbEntity
  8
実線
  6
Continuous
 62
     7
100
AcDbLine
 10
1490.823973083536
 20
1520.513834149795
 30
0.0
 11
1490.823973083536
 21
1470.5138341498
 31
0.0
  0
LINE
  5
227
330
1F
100
AcDbEntity
  8
実線
  6
Continuous
 62
     7
100
AcDbLine
 10
1473.323973083536
 20
1418.513834149795
 30
0.0
 11
1477.823973083536
 21
1418.513834149795
 31
0.0
  0
LINE
  5
228
330
1F
100
AcDbEntity
  8
実線
  6
Continuous
 62
     7
100
AcDbLine
 10
1453.823973083536
 20
1418.513834149795
 30
0.0
 11
1471.323973083536
 21
1418.513834149795
 31
0.0
  0
LINE
  5
229
330
1F
100
AcDbEntity
  8
実線
  6
Continuous
 62
     7
100
AcDbLine
 10
1434.323973083536
 20
1418.513834149795
 30
0.0
 11
1451.823973083536
 21
1418.513834149795
 31
0.0
  0
LINE
  5
22A
330
1F
100
AcDbEntity
  8
実線
  6
Continuous
 62
     7
100
AcDbLine
 10
1414.823973083536
 20
1418.513834149795
 30
0.0
 11
1432.323973083536
 21
1418.513834149795
 31
0.0
  0
LINE
  5
22B
330
1F
100
AcDbEntity
  8
実線
  6
Continuous
 62
     7
100
AcDbLine
 10
1395.323973083536
 20
1418.513834149795
 30
0.0
 11
1412.823973083536
 21
1418.51383414979
 31
0.0
  0
LINE
  5
22C
330
1F
100
AcDbEntity
  8
実線
  6
Continuous
 62
     7
100
AcDbLine
 10
1375.823973083536
 20
1418.513834149795
 30
0.0
 11
1393.323973083536
 21
1418.513834149795
 31
0.0
  0
LINE
  5
22D
330
1F
100
AcDbEntity
  8
実線
  6
Continuous
 62
     7
100
AcDbLine
 10
1356.323973083536
 20
1418.513834149795
 30
0.0
 11
1373.823973083536
 21
1418.513834149795
 31
0.0
  0
LINE
  5
22E
330
1F
100
AcDbEntity
  8
実線
  6
Continuous
 62
     7
100
AcDbLine
 10
1336.823973083536
 20
1468.513834149795
 30
0.0
 11
1336.823973083536
 21
1431.513834149795
 31
0.0
  0
LINE
  5
22F
330
1F
100
AcDbEntity
  8
実線
  6
Continuous
 62
     7
100
AcDbLine
 10
1336.823973083536
 20
1520.513834149795
 30
0.0
 11
1336.823973083536
 21
1470.513834149795
 31
0.0
  0
LINE
  5
230
330
1F
100
AcDbEntity
  8
実線
  6
Continuous
 62
     7
100
AcDbLine
 10
1473.323973083536
 20
1572.513834149795
 30
0.0
 11
1477.823973083536
 21
1572.513834149795
 31
0.0
  0
LINE
  5
231
330
1F
100
AcDbEntity
  8
実線
  6
Continuous
 62
     7
100
AcDbLine
 10
1453.823973083536
 20
1572.513834149795
 30
0.0
 11
1471.323973083536
 21
1572.513834149795
 31
0.0
  0
LINE
  5
232
330
1F
100
AcDbEntity
  8
実線
  6
Continuous
 62
     7
100
AcDbLine
 10
1434.323973083536
 20
1572.513834149795
 30
0.0
 11
1451.823973083536
 21
1572.513834149795
 31
0.0
  0
LINE
  5
233
330
1F
100
AcDbEntity
  8
実線
  6
Continuous
 62
     7
100
AcDbLine
 10
1414.823973083536
 20
1572.513834149795
 30
0.0
 11
1432.323973083536
 21
1572.513834149795
 31
0.0
  0
LINE
  5
234
330
1F
100
AcDbEntity
  8
実線
  6
Continuous
 62
     7
100
AcDbLine
 10
1395.323973083536
 20
1572.513834149795
 30
0.0
 11
1412.823973083533
 21
1572.513834149795
 31
0.0
  0
LINE
  5
235
330
1F
100
AcDbEntity
  8
実線
  6
Continuous
 62
     7
100
AcDbLine
 10
1375.823973083536
 20
1572.513834149795
 30
0.0
 11
1393.323973083536
 21
1572.513834149795
 31
0.0
  0
LINE
  5
236
330
1F
100
AcDbEntity
  8
実線
  6
Continuous
 62
     7
100
AcDbLine
 10
1356.323973083536
 20
1572.513834149795
 30
0.0
 11
1373.823973083536
 21
1572.513834149795
 31
0.0
  0
LINE
  5
237
330
1F
100
AcDbEntity
  8
実線
  6
Continuous
 62
     7
100
AcDbLine
 10
1356.323973083536
 20
1468.513834149795
 30
0.0
 11
1373.823973083536
 21
1468.513834149795
 31
0.0
  0
LINE
  5
238
330
1F
100
AcDbEntity
  8
実線
  6
Continuous
 62
     7
100
AcDbLine
 10
1356.323973083536
 20
1470.513834149795
 30
0.0
 11
1373.823973083536
 21
1470.513834149795
 31
0.0
  0
LINE
  5
239
330
1F
100
AcDbEntity
  8
実線
  6
Continuous
 62
     7
100
AcDbLine
 10
1354.323973083536
 20
1468.513834149795
 30
0.0
 11
1354.323973083536
 21
1418.513834149795
 31
0.0
  0
LINE
  5
23A
330
1F
100
AcDbEntity
  8
実線
  6
Continuous
 62
     7
100
AcDbLine
 10
1356.323973083536
 20
1468.513834149795
 30
0.0
 11
1356.323973083536
 21
1418.513834149795
 31
0.0
  0
LINE
  5
23B
330
1F
100
AcDbEntity
  8
実線
  6
Continuous
 62
     7
100
AcDbLine
 10
1375.823973083536
 20
1468.513834149795
 30
0.0
 11
1393.323973083536
 21
1468.513834149795
 31
0.0
  0
LINE
  5
23C
330
1F
100
AcDbEntity
  8
実線
  6
Continuous
 62
     7
100
AcDbLine
 10
1375.823973083536
 20
1470.513834149795
 30
0.0
 11
1393.323973083536
 21
1470.513834149795
 31
0.0
  0
LINE
  5
23D
330
1F
100
AcDbEntity
  8
実線
  6
Continuous
 62
     7
100
AcDbLine
 10
1373.823973083536
 20
1468.513834149795
 30
0.0
 11
1373.823973083536
 21
1418.513834149795
 31
0.0
  0
LINE
  5
23E
330
1F
100
AcDbEntity
  8
実線
  6
Continuous
 62
     7
100
AcDbLine
 10
1375.823973083536
 20
1468.513834149795
 30
0.0
 11
1375.823973083536
 21
1418.513834149795
 31
0.0
  0
LINE
  5
23F
330
1F
100
AcDbEntity
  8
実線
  6
Continuous
 62
     7
100
AcDbLine
 10
1395.323973083536
 20
1468.513834149795
 30
0.0
 11
1412.823973083536
 21
1468.513834149795
 31
0.0
  0
LINE
  5
240
330
1F
100
AcDbEntity
  8
実線
  6
Continuous
 62
     7
100
AcDbLine
 10
1395.323973083536
 20
1470.513834149795
 30
0.0
 11
1412.823973083536
 21
1470.513834149795
 31
0.0
  0
LINE
  5
241
330
1F
100
AcDbEntity
  8
実線
  6
Continuous
 62
     7
100
AcDbLine
 10
1395.323973083536
 20
1468.513834149795
 30
0.0
 11
1395.323973083536
 21
1418.513834149795
 31
0.0
  0
LINE
  5
242
330
1F
100
AcDbEntity
  8
実線
  6
Continuous
 62
     7
100
AcDbLine
 10
1393.323973083536
 20
1468.513834149795
 30
0.0
 11
1393.323973083536
 21
1418.513834149795
 31
0.0
  0
LINE
  5
243
330
1F
100
AcDbEntity
  8
実線
  6
Continuous
 62
     7
100
AcDbLine
 10
1414.823973083536
 20
1468.513834149795
 30
0.0
 11
1432.323973083536
 21
1468.513834149795
 31
0.0
  0
LINE
  5
244
330
1F
100
AcDbEntity
  8
実線
  6
Continuous
 62
     7
100
AcDbLine
 10
1414.823973083536
 20
1470.513834149795
 30
0.0
 11
1432.323973083536
 21
1470.513834149795
 31
0.0
  0
LINE
  5
245
330
1F
100
AcDbEntity
  8
実線
  6
Continuous
 62
     7
100
AcDbLine
 10
1414.823973083536
 20
1468.513834149795
 30
0.0
 11
1414.823973083536
 21
1418.513834149795
 31
0.0
  0
LINE
  5
246
330
1F
100
AcDbEntity
  8
実線
  6
Continuous
 62
     7
100
AcDbLine
 10
1412.823973083536
 20
1468.513834149795
 30
0.0
 11
1412.823973083536
 21
1418.51383414979
 31
0.0
  0
LINE
  5
247
330
1F
100
AcDbEntity
  8
実線
  6
Continuous
 62
     7
100
AcDbLine
 10
1434.323973083536
 20
1468.513834149795
 30
0.0
 11
1451.823973083536
 21
1468.513834149795
 31
0.0
  0
LINE
  5
248
330
1F
100
AcDbEntity
  8
実線
  6
Continuous
 62
     7
100
AcDbLine
 10
1434.323973083536
 20
1470.513834149795
 30
0.0
 11
1451.823973083536
 21
1470.513834149795
 31
0.0
  0
LINE
  5
249
330
1F
100
AcDbEntity
  8
実線
  6
Continuous
 62
     7
100
AcDbLine
 10
1434.323973083536
 20
1468.513834149795
 30
0.0
 11
1434.323973083536
 21
1418.513834149795
 31
0.0
  0
LINE
  5
24A
330
1F
100
AcDbEntity
  8
実線
  6
Continuous
 62
     7
100
AcDbLine
 10
1432.323973083536
 20
1468.513834149795
 30
0.0
 11
1432.323973083536
 21
1418.513834149795
 31
0.0
  0
LINE
  5
24B
330
1F
100
AcDbEntity
  8
実線
  6
Continuous
 62
     7
100
AcDbLine
 10
1453.823973083536
 20
1468.513834149795
 30
0.0
 11
1471.323973083536
 21
1468.513834149795
 31
0.0
  0
LINE
  5
24C
330
1F
100
AcDbEntity
  8
実線
  6
Continuous
 62
     7
100
AcDbLine
 10
1453.823973083536
 20
1470.513834149795
 30
0.0
 11
1471.323973083536
 21
1470.513834149795
 31
0.0
  0
LINE
  5
24D
330
1F
100
AcDbEntity
  8
実線
  6
Continuous
 62
     7
100
AcDbLine
 10
1453.823973083536
 20
1468.513834149795
 30
0.0
 11
1453.823973083536
 21
1418.513834149795
 31
0.0
  0
LINE
  5
24E
330
1F
100
AcDbEntity
  8
実線
  6
Continuous
 62
     7
100
AcDbLine
 10
1451.823973083536
 20
1468.513834149795
 30
0.0
 11
1451.823973083536
 21
1418.513834149795
 31
0.0
  0
LINE
  5
24F
330
1F
100
AcDbEntity
  8
実線
  6
Continuous
 62
     7
100
AcDbLine
 10
1473.323973083536
 20
1468.513834149795
 30
0.0
 11
1490.823973083536
 21
1468.5138341498
 31
0.0
  0
LINE
  5
250
330
1F
100
AcDbEntity
  8
実線
  6
Continuous
 62
     7
100
AcDbLine
 10
1473.323973083536
 20
1470.513834149795
 30
0.0
 11
1490.823973083536
 21
1470.5138341498
 31
0.0
  0
LINE
  5
251
330
1F
100
AcDbEntity
  8
実線
  6
Continuous
 62
     7
100
AcDbLine
 10
1473.323973083536
 20
1468.513834149795
 30
0.0
 11
1473.323973083536
 21
1418.513834149795
 31
0.0
  0
LINE
  5
252
330
1F
100
AcDbEntity
  8
実線
  6
Continuous
 62
     7
100
AcDbLine
 10
1471.323973083536
 20
1468.513834149795
 30
0.0
 11
1471.323973083536
 21
1418.513834149795
 31
0.0
  0
LINE
  5
253
330
1F
100
AcDbEntity
  8
実線
  6
Continuous
 62
     7
100
AcDbLine
 10
1473.323973083536
 20
1520.513834149795
 30
0.0
 11
1490.823973083536
 21
1520.513834149795
 31
0.0
  0
LINE
  5
254
330
1F
100
AcDbEntity
  8
実線
  6
Continuous
 62
     7
100
AcDbLine
 10
1473.323973083536
 20
1522.513834149795
 30
0.0
 11
1490.823973083536
 21
1522.513834149795
 31
0.0
  0
LINE
  5
255
330
1F
100
AcDbEntity
  8
実線
  6
Continuous
 62
     7
100
AcDbLine
 10
1473.323973083536
 20
1520.513834149795
 30
0.0
 11
1473.323973083536
 21
1470.513834149795
 31
0.0
  0
LINE
  5
256
330
1F
100
AcDbEntity
  8
実線
  6
Continuous
 62
     7
100
AcDbLine
 10
1471.323973083536
 20
1520.513834149795
 30
0.0
 11
1471.323973083536
 21
1470.513834149795
 31
0.0
  0
LINE
  5
257
330
1F
100
AcDbEntity
  8
実線
  6
Continuous
 62
     7
100
AcDbLine
 10
1453.823973083536
 20
1520.513834149795
 30
0.0
 11
1471.323973083536
 21
1520.513834149795
 31
0.0
  0
LINE
  5
258
330
1F
100
AcDbEntity
  8
実線
  6
Continuous
 62
     7
100
AcDbLine
 10
1453.823973083536
 20
1522.513834149795
 30
0.0
 11
1471.323973083536
 21
1522.513834149795
 31
0.0
  0
LINE
  5
259
330
1F
100
AcDbEntity
  8
実線
  6
Continuous
 62
     7
100
AcDbLine
 10
1453.823973083536
 20
1520.513834149795
 30
0.0
 11
1453.823973083536
 21
1470.513834149795
 31
0.0
  0
LINE
  5
25A
330
1F
100
AcDbEntity
  8
実線
  6
Continuous
 62
     7
100
AcDbLine
 10
1451.823973083536
 20
1520.513834149795
 30
0.0
 11
1451.823973083536
 21
1470.513834149795
 31
0.0
  0
LINE
  5
25B
330
1F
100
AcDbEntity
  8
実線
  6
Continuous
 62
     7
100
AcDbLine
 10
1434.323973083536
 20
1520.513834149795
 30
0.0
 11
1451.823973083536
 21
1520.513834149795
 31
0.0
  0
LINE
  5
25C
330
1F
100
AcDbEntity
  8
実線
  6
Continuous
 62
     7
100
AcDbLine
 10
1434.323973083536
 20
1522.513834149795
 30
0.0
 11
1451.823973083536
 21
1522.513834149795
 31
0.0
  0
LINE
  5
25D
330
1F
100
AcDbEntity
  8
実線
  6
Continuous
 62
     7
100
AcDbLine
 10
1434.323973083536
 20
1520.513834149795
 30
0.0
 11
1434.323973083536
 21
1470.513834149795
 31
0.0
  0
LINE
  5
25E
330
1F
100
AcDbEntity
  8
実線
  6
Continuous
 62
     7
100
AcDbLine
 10
1432.323973083536
 20
1520.513834149795
 30
0.0
 11
1432.323973083536
 21
1470.513834149795
 31
0.0
  0
LINE
  5
25F
330
1F
100
AcDbEntity
  8
実線
  6
Continuous
 62
     7
100
AcDbLine
 10
1414.823973083536
 20
1520.513834149795
 30
0.0
 11
1432.323973083536
 21
1520.513834149795
 31
0.0
  0
LINE
  5
260
330
1F
100
AcDbEntity
  8
実線
  6
Continuous
 62
     7
100
AcDbLine
 10
1414.823973083536
 20
1522.513834149795
 30
0.0
 11
1432.323973083536
 21
1522.513834149795
 31
0.0
  0
LINE
  5
261
330
1F
100
AcDbEntity
  8
実線
  6
Continuous
 62
     7
100
AcDbLine
 10
1414.823973083536
 20
1520.513834149795
 30
0.0
 11
1414.823973083536
 21
1470.513834149795
 31
0.0
  0
LINE
  5
262
330
1F
100
AcDbEntity
  8
実線
  6
Continuous
 62
     7
100
AcDbLine
 10
1412.823973083533
 20
1520.513834149795
 30
0.0
 11
1412.823973083536
 21
1470.513834149795
 31
0.0
  0
LINE
  5
263
330
1F
100
AcDbEntity
  8
実線
  6
Continuous
 62
     7
100
AcDbLine
 10
1395.323973083536
 20
1520.513834149795
 30
0.0
 11
1412.823973083533
 21
1520.513834149795
 31
0.0
  0
LINE
  5
264
330
1F
100
AcDbEntity
  8
実線
  6
Continuous
 62
     7
100
AcDbLine
 10
1395.323973083536
 20
1522.513834149795
 30
0.0
 11
1412.823973083536
 21
1522.513834149795
 31
0.0
  0
LINE
  5
265
330
1F
100
AcDbEntity
  8
実線
  6
Continuous
 62
     7
100
AcDbLine
 10
1395.323973083536
 20
1520.513834149795
 30
0.0
 11
1395.323973083536
 21
1470.513834149795
 31
0.0
  0
LINE
  5
266
330
1F
100
AcDbEntity
  8
実線
  6
Continuous
 62
     7
100
AcDbLine
 10
1393.323973083536
 20
1520.513834149795
 30
0.0
 11
1393.323973083536
 21
1470.513834149795
 31
0.0
  0
LINE
  5
267
330
1F
100
AcDbEntity
  8
実線
  6
Continuous
 62
     7
100
AcDbLine
 10
1373.823973083536
 20
1520.513834149795
 30
0.0
 11
1373.823973083536
 21
1470.513834149795
 31
0.0
  0
LINE
  5
268
330
1F
100
AcDbEntity
  8
実線
  6
Continuous
 62
     7
100
AcDbLine
 10
1375.823973083536
 20
1520.513834149795
 30
0.0
 11
1375.823973083536
 21
1470.513834149795
 31
0.0
  0
LINE
  5
269
330
1F
100
AcDbEntity
  8
実線
  6
Continuous
 62
     7
100
AcDbLine
 10
1375.823973083536
 20
1520.513834149795
 30
0.0
 11
1393.323973083536
 21
1520.513834149795
 31
0.0
  0
LINE
  5
26A
330
1F
100
AcDbEntity
  8
実線
  6
Continuous
 62
     7
100
AcDbLine
 10
1375.823973083536
 20
1522.513834149795
 30
0.0
 11
1393.323973083536
 21
1522.513834149795
 31
0.0
  0
LINE
  5
26B
330
1F
100
AcDbEntity
  8
実線
  6
Continuous
 62
     7
100
AcDbLine
 10
1356.323973083536
 20
1520.513834149795
 30
0.0
 11
1373.823973083536
 21
1520.513834149795
 31
0.0
  0
LINE
  5
26C
330
1F
100
AcDbEntity
  8
実線
  6
Continuous
 62
     7
100
AcDbLine
 10
1356.323973083536
 20
1522.513834149795
 30
0.0
 11
1373.823973083536
 21
1522.513834149795
 31
0.0
  0
LINE
  5
26D
330
1F
100
AcDbEntity
  8
実線
  6
Continuous
 62
     7
100
AcDbLine
 10
1354.323973083536
 20
1520.513834149795
 30
0.0
 11
1354.323973083536
 21
1470.513834149795
 31
0.0
  0
LINE
  5
26E
330
1F
100
AcDbEntity
  8
実線
  6
Continuous
 62
     7
100
AcDbLine
 10
1356.323973083536
 20
1520.513834149795
 30
0.0
 11
1356.323973083536
 21
1470.513834149795
 31
0.0
  0
LINE
  5
26F
330
1F
100
AcDbEntity
  8
実線
  6
Continuous
 62
     7
100
AcDbLine
 10
1473.323973083536
 20
1572.513834149795
 30
0.0
 11
1473.323973083536
 21
1522.513834149795
 31
0.0
  0
LINE
  5
270
330
1F
100
AcDbEntity
  8
実線
  6
Continuous
 62
     7
100
AcDbLine
 10
1471.323973083536
 20
1572.513834149795
 30
0.0
 11
1471.323973083536
 21
1522.513834149795
 31
0.0
  0
LINE
  5
271
330
1F
100
AcDbEntity
  8
実線
  6
Continuous
 62
     7
100
AcDbLine
 10
1453.823973083536
 20
1572.513834149795
 30
0.0
 11
1453.823973083536
 21
1522.513834149795
 31
0.0
  0
LINE
  5
272
330
1F
100
AcDbEntity
  8
実線
  6
Continuous
 62
     7
100
AcDbLine
 10
1451.823973083536
 20
1572.513834149795
 30
0.0
 11
1451.823973083536
 21
1522.513834149795
 31
0.0
  0
LINE
  5
273
330
1F
100
AcDbEntity
  8
実線
  6
Continuous
 62
     7
100
AcDbLine
 10
1434.323973083536
 20
1572.513834149795
 30
0.0
 11
1434.323973083536
 21
1522.513834149795
 31
0.0
  0
LINE
  5
274
330
1F
100
AcDbEntity
  8
実線
  6
Continuous
 62
     7
100
AcDbLine
 10
1432.323973083536
 20
1572.513834149795
 30
0.0
 11
1432.323973083536
 21
1522.513834149795
 31
0.0
  0
LINE
  5
275
330
1F
100
AcDbEntity
  8
実線
  6
Continuous
 62
     7
100
AcDbLine
 10
1414.823973083536
 20
1572.513834149795
 30
0.0
 11
1414.823973083536
 21
1522.513834149795
 31
0.0
  0
LINE
  5
276
330
1F
100
AcDbEntity
  8
実線
  6
Continuous
 62
     7
100
AcDbLine
 10
1412.823973083533
 20
1572.513834149795
 30
0.0
 11
1412.823973083536
 21
1522.513834149795
 31
0.0
  0
LINE
  5
277
330
1F
100
AcDbEntity
  8
実線
  6
Continuous
 62
     7
100
AcDbLine
 10
1395.323973083536
 20
1572.513834149795
 30
0.0
 11
1395.323973083536
 21
1522.513834149795
 31
0.0
  0
LINE
  5
278
330
1F
100
AcDbEntity
  8
実線
  6
Continuous
 62
     7
100
AcDbLine
 10
1393.323973083536
 20
1572.513834149795
 30
0.0
 11
1393.323973083536
 21
1522.513834149795
 31
0.0
  0
LINE
  5
279
330
1F
100
AcDbEntity
  8
実線
  6
Continuous
 62
     7
100
AcDbLine
 10
1375.823973083536
 20
1572.513834149795
 30
0.0
 11
1375.823973083536
 21
1522.513834149795
 31
0.0
  0
LINE
  5
27A
330
1F
100
AcDbEntity
  8
実線
  6
Continuous
 62
     7
100
AcDbLine
 10
1373.823973083536
 20
1572.513834149795
 30
0.0
 11
1373.823973083536
 21
1522.513834149795
 31
0.0
  0
LINE
  5
27B
330
1F
100
AcDbEntity
  8
実線
  6
Continuous
 62
     7
100
AcDbLine
 10
1354.323973083536
 20
1572.513834149795
 30
0.0
 11
1354.323973083536
 21
1522.513834149795
 31
0.0
  0
LINE
  5
27C
330
1F
100
AcDbEntity
  8
実線
  6
Continuous
 62
     7
100
AcDbLine
 10
1356.323973083536
 20
1572.513834149795
 30
0.0
 11
1356.323973083536
 21
1522.513834149795
 31
0.0
  0
LINE
  5
27D
330
1F
100
AcDbEntity
  8
実線
  6
Continuous
 62
     7
100
AcDbLine
 10
1336.823973083536
 20
1468.513834149795
 30
0.0
 11
1354.323973083536
 21
1468.513834149795
 31
0.0
  0
LINE
  5
27E
330
1F
100
AcDbEntity
  8
実線
  6
Continuous
 62
     7
100
AcDbLine
 10
1336.823973083536
 20
1470.513834149795
 30
0.0
 11
1354.323973083536
 21
1470.513834149795
 31
0.0
  0
LINE
  5
27F
330
1F
100
AcDbEntity
  8
実線
  6
Continuous
 62
     7
100
AcDbLine
 10
1336.823973083536
 20
1520.513834149795
 30
0.0
 11
1354.323973083536
 21
1520.513834149795
 31
0.0
  0
LINE
  5
280
330
1F
100
AcDbEntity
  8
実線
  6
Continuous
 62
     7
100
AcDbLine
 10
1336.823973083536
 20
1522.513834149795
 30
0.0
 11
1354.323973083536
 21
1522.513834149795
 31
0.0
  0
LINE
  5
281
330
1F
100
AcDbEntity
  8
実線
  6
Continuous
 62
     7
100
AcDbLine
 10
1490.823973083536
 20
1559.513834149795
 30
0.0
 11
1490.823973083536
 21
1522.513834149795
 31
0.0
  0
LINE
  5
282
330
1F
100
AcDbEntity
  8
実線
  6
Continuous
 62
     7
100
AcDbLine
 10
1336.823973083536
 20
1559.513834149795
 30
0.0
 11
1336.823973083536
 21
1522.513834149795
 31
0.0
  0
LINE
  5
283
330
1F
100
AcDbEntity
  8
実線
  6
Continuous
 62
     7
100
AcDbLine
 10
1349.823973083536
 20
1418.513834149795
 30
0.0
 11
1354.323973083536
 21
1418.513834149795
 31
0.0
  0
LINE
  5
284
330
1F
100
AcDbEntity
  8
実線
  6
Continuous
 62
     7
100
AcDbLine
 10
1349.823973083533
 20
1572.513834149795
 30
0.0
 11
1354.323973083536
 21
1572.513834149795
 31
0.0
  0
LINE
  5
285
330
1F
100
AcDbEntity
  8
実線
  6
Continuous
 62
     7
100
AcDbLine
 10
894.5118767625522
 20
2024.815930470775
 30
0.0
 11
1504.511876762556
 21
2024.815930470775
 31
0.0
  0
LINE
  5
286
330
1F
100
AcDbEntity
  8
実線
  6
Continuous
 62
     7
100
AcDbLine
 10
884.5218767625543
 20
1404.825930470775
 30
0.0
 11
884.5218767625506
 21
2014.825930470775
 31
0.0
  0
LINE
  5
287
330
1F
100
AcDbEntity
  8
実線
  6
Continuous
 62
     7
100
AcDbLine
 10
1514.501876762554
 20
2014.825930470775
 30
0.0
 11
1514.501876762554
 21
1404.825930470775
 31
0.0
  0
LINE
  5
288
330
1F
100
AcDbEntity
  8
実線
  6
Continuous
 62
     7
100
AcDbLine
 10
1504.511876762556
 20
1394.835930470775
 30
0.0
 11
894.5118767625522
 21
1394.835930470775
 31
0.0
  0
LINE
  5
289
330
1F
100
AcDbEntity
  8
実線
  6
Continuous
 62
     7
100
AcDbLine
 10
1477.631876762555
 20
1416.705930470775
 30
0.0
 11
921.3918767625532
 21
1416.705930470775
 31
0.0
  0
LINE
  5
28A
330
1F
100
AcDbEntity
  8
実線
  6
Continuous
 62
     7
100
AcDbLine
 10
906.3918767625532
 20
1431.705930470775
 30
0.0
 11
906.3918767625532
 21
1987.945930470775
 31
0.0
  0
LINE
  5
28B
330
1F
100
AcDbEntity
  8
実線
  6
Continuous
 62
     7
100
AcDbLine
 10
1492.631876762555
 20
1987.945930470775
 30
0.0
 11
1492.631876762555
 21
1431.705930470775
 31
0.0
  0
LINE
  5
28C
330
1F
100
AcDbEntity
  8
実線
  6
Continuous
 62
     7
100
AcDbLine
 10
921.3918767625569
 20
2002.945930470775
 30
0.0
 11
1477.631876762555
 21
2002.945930470775
 31
0.0
  0
LINE
  5
28D
330
1F
100
AcDbEntity
  8
実線
  6
Continuous
 62
     7
100
AcDbLine
 10
1504.511876762556
 20
1397.825930470775
 30
0.0
 11
894.5118767625522
 21
1397.825930470775
 31
0.0
  0
LINE
  5
28E
330
1F
100
AcDbEntity
  8
実線
  6
Continuous
 62
     7
100
AcDbLine
 10
887.5118767625559
 20
1404.825930470775
 30
0.0
 11
887.5118767625522
 21
2014.825930470775
 31
0.0
  0
LINE
  5
28F
330
1F
100
AcDbEntity
  8
実線
  6
Continuous
 62
     7
100
AcDbLine
 10
1511.511876762556
 20
2014.825930470775
 30
0.0
 11
1511.511876762556
 21
1404.825930470775
 31
0.0
  0
LINE
  5
290
330
1F
100
AcDbEntity
  8
実線
  6
Continuous
 62
     7
100
AcDbLine
 10
894.5118767625522
 20
2021.825930470775
 30
0.0
 11
1504.511876762556
 21
2021.825930470775
 31
0.0
  0
LINE
  5
291
330
1F
100
AcDbEntity
  8
実線
  6
Continuous
 62
     7
100
AcDbLine
 10
887.5101900961622
 20
1089.618048247778
 30
0.0
 11
1445.882501998951
 21
1089.618048247778
 31
0.0
  0
LINE
  5
292
330
1F
100
AcDbEntity
  8
実線
  6
Continuous
 62
     7
100
AcDbLine
 10
879.5118767625522
 20
1029.618048247777
 30
0.0
 11
884.5216060018888
 21
1086.879515476021
 31
0.0
  0
LINE
  5
293
330
1F
100
AcDbEntity
  8
実線
  6
Continuous
 62
     7
100
AcDbLine
 10
879.5118767625522
 20
1404.825930470775
 30
0.0
 11
879.5118767625522
 21
2014.825930470775
 31
0.0
  0
LINE
  5
294
330
1F
100
AcDbEntity
  8
実線
  6
Continuous
 62
     7
100
AcDbLine
 10
1504.511876762556
 20
1389.825930470775
 30
0.0
 11
894.5118767625522
 21
1389.825930470775
 31
0.0
  0
LINE
  5
295
330
1F
100
AcDbEntity
  8
実線
  6
Continuous
 62
     7
100
AcDbLine
 10
1519.511876762556
 20
2014.825930470775
 30
0.0
 11
1519.511876762556
 21
1404.825930470775
 31
0.0
  0
ARC
  5
296
330
1F
100
AcDbEntity
  8
実線
  6
Continuous
 62
     7
100
AcDbCircle
 10
887.5101900961622
 20
1086.618048247778
 30
0.0
 40
3.0
100
AcDbArc
 50
90.0
 51
174.9999999999971
  0
ARC
  5
297
330
1F
100
AcDbEntity
  8
実線
  6
Continuous
 62
     7
100
AcDbCircle
 10
1477.631876762555
 20
1431.705930470775
 30
0.0
 40
18.86999999999989
100
AcDbArc
 50
269.9999999999876
 51
0.0
  0
ARC
  5
298
330
1F
100
AcDbEntity
  8
実線
  6
Continuous
 62
     7
100
AcDbCircle
 10
921.3918767625532
 20
1431.705930470775
 30
0.0
 40
18.86999999999534
100
AcDbArc
 50
180.0
 51
270.0
  0
ARC
  5
299
330
1F
100
AcDbEntity
  8
実線
  6
Continuous
 62
     7
100
AcDbCircle
 10
921.3918767625569
 20
1987.945930470775
 30
0.0
 40
18.86999999999989
100
AcDbArc
 50
90.00000000001106
 51
180.0
  0
ARC
  5
29A
330
1F
100
AcDbEntity
  8
実線
  6
Continuous
 62
     7
100
AcDbCircle
 10
1477.631876762555
 20
1431.705930470775
 30
0.0
 40
15.0
100
AcDbArc
 50
270.0
 51
0.0
  0
ARC
  5
29B
330
1F
100
AcDbEntity
  8
実線
  6
Continuous
 62
     7
100
AcDbCircle
 10
921.3918767625532
 20
1431.705930470775
 30
0.0
 40
15.0
100
AcDbArc
 50
180.0
 51
270.0
  0
ARC
  5
29C
330
1F
100
AcDbEntity
  8
実線
  6
Continuous
 62
     7
100
AcDbCircle
 10
921.3918767625569
 20
1987.945930470775
 30
0.0
 40
15.0
100
AcDbArc
 50
90.0
 51
180.0
  0
ARC
  5
29D
330
1F
100
AcDbEntity
  8
実線
  6
Continuous
 62
     7
100
AcDbCircle
 10
1477.631876762555
 20
1987.945930470775
 30
0.0
 40
21.8599999999999
100
AcDbArc
 50
0.0
 51
90.0
  0
ARC
  5
29E
330
1F
100
AcDbEntity
  8
実線
  6
Continuous
 62
     7
100
AcDbCircle
 10
1477.631876762555
 20
1987.945930470775
 30
0.0
 40
18.86999999999898
100
AcDbArc
 50
0.0
 51
90.0
  0
ARC
  5
29F
330
1F
100
AcDbEntity
  8
実線
  6
Continuous
 62
     7
100
AcDbCircle
 10
1477.631876762555
 20
1987.945930470775
 30
0.0
 40
15.0
100
AcDbArc
 50
0.0
 51
90.0
  0
ARC
  5
2A0
330
1F
100
AcDbEntity
  8
実線
  6
Continuous
 62
     7
100
AcDbCircle
 10
1049.199780441568
 20
1431.513834149795
 30
0.0
 40
13.0
100
AcDbArc
 50
270.0
 51
0.0
  0
ARC
  5
2A1
330
1F
100
AcDbEntity
  8
実線
  6
Continuous
 62
     7
100
AcDbCircle
 10
921.1997804415755
 20
1431.513834149795
 30
0.0
 40
13.0
100
AcDbArc
 50
180.0
 51
269.9999999999679
  0
ARC
  5
2A2
330
1F
100
AcDbEntity
  8
実線
  6
Continuous
 62
     7
100
AcDbCircle
 10
1049.199780441572
 20
1559.513834149795
 30
0.0
 40
13.0
100
AcDbArc
 50
0.0
 51
90.0
  0
ARC
  5
2A3
330
1F
100
AcDbEntity
  8
実線
  6
Continuous
 62
     7
100
AcDbCircle
 10
921.1997804415719
 20
1559.513834149795
 30
0.0
 40
13.0
100
AcDbArc
 50
90.00000000001604
 51
180.0
  0
ARC
  5
2A4
330
1F
100
AcDbEntity
  8
実線
  6
Continuous
 62
     7
100
AcDbCircle
 10
1049.199780441572
 20
1860.138026791755
 30
0.0
 40
12.999999999995
100
AcDbArc
 50
270.0
 51
0.0
  0
ARC
  5
2A5
330
1F
100
AcDbEntity
  8
実線
  6
Continuous
 62
     7
100
AcDbCircle
 10
921.1997804415755
 20
1860.138026791755
 30
0.0
 40
13.0
100
AcDbArc
 50
180.0
 51
269.999999999984
  0
ARC
  5
2A6
330
1F
100
AcDbEntity
  8
実線
  6
Continuous
 62
     7
100
AcDbCircle
 10
1049.199780441576
 20
1988.138026791755
 30
0.0
 40
12.99999999999613
100
AcDbArc
 50
0.0
 51
90.0
  0
ARC
  5
2A7
330
1F
100
AcDbEntity
  8
実線
  6
Continuous
 62
     7
100
AcDbCircle
 10
921.1997804415719
 20
1988.138026791755
 30
0.0
 40
13.0
100
AcDbArc
 50
90.00000000001604
 51
180.0
  0
ARC
  5
2A8
330
1F
100
AcDbEntity
  8
実線
  6
Continuous
 62
     7
100
AcDbCircle
 10
1477.823973083533
 20
1860.138026791755
 30
0.0
 40
12.999999999995
100
AcDbArc
 50
270.0
 51
0.0
  0
ARC
  5
2A9
330
1F
100
AcDbEntity
  8
実線
  6
Continuous
 62
     7
100
AcDbCircle
 10
1349.823973083536
 20
1860.138026791755
 30
0.0
 40
13.0
100
AcDbArc
 50
180.0
 51
270.0
  0
ARC
  5
2AA
330
1F
100
AcDbEntity
  8
実線
  6
Continuous
 62
     7
100
AcDbCircle
 10
1477.823973083536
 20
1988.138026791755
 30
0.0
 40
13.0
100
AcDbArc
 50
0.0
 51
90.0
  0
ARC
  5
2AB
330
1F
100
AcDbEntity
  8
実線
  6
Continuous
 62
     7
100
AcDbCircle
 10
1349.823973083536
 20
1988.138026791755
 30
0.0
 40
13.0
100
AcDbArc
 50
90.00000000001303
 51
180.0
  0
ARC
  5
2AC
330
1F
100
AcDbEntity
  8
実線
  6
Continuous
 62
     7
100
AcDbCircle
 10
1477.823973083536
 20
1431.513834149795
 30
0.0
 40
13.0
100
AcDbArc
 50
270.0
 51
0.0
  0
ARC
  5
2AD
330
1F
100
AcDbEntity
  8
実線
  6
Continuous
 62
     7
100
AcDbCircle
 10
1349.823973083536
 20
1431.513834149795
 30
0.0
 40
13.0
100
AcDbArc
 50
180.0
 51
270.0
  0
ARC
  5
2AE
330
1F
100
AcDbEntity
  8
実線
  6
Continuous
 62
     7
100
AcDbCircle
 10
1477.823973083536
 20
1559.513834149795
 30
0.0
 40
13.0
100
AcDbArc
 50
0.0
 51
90.0
  0
ARC
  5
2AF
330
1F
100
AcDbEntity
  8
実線
  6
Continuous
 62
     7
100
AcDbCircle
 10
1349.823973083536
 20
1559.513834149795
 30
0.0
 40
13.0
100
AcDbArc
 50
90.00000000001303
 51
180.0
  0
ARC
  5
2B0
330
1F
100
AcDbEntity
  8
実線
  6
Continuous
 62
     7
100
AcDbCircle
 10
916.3918767625532
 20
1825.945930470775
 30
0.0
 40
10.0
100
AcDbArc
 50
90.0
 51
180.0
  0
ARC
  5
2B1
330
1F
100
AcDbEntity
  8
実線
  6
Continuous
 62
     7
100
AcDbCircle
 10
1083.394654521233
 20
1992.94593047078
 30
0.0
 40
10.0
100
AcDbArc
 50
90.0
 51
179.9988035353796
  0
ARC
  5
2B2
330
1F
100
AcDbEntity
  8
実線
  6
Continuous
 62
     7
100
AcDbCircle
 10
1315.631876762551
 20
1992.945930470775
 30
0.0
 40
10.0
100
AcDbArc
 50
0.0
 51
90.0
  0
ARC
  5
2B3
330
1F
100
AcDbEntity
  8
実線
  6
Continuous
 62
     7
100
AcDbCircle
 10
1482.631876762555
 20
1825.943152712095
 30
0.0
 40
10.0
100
AcDbArc
 50
0.0
 51
89.9988035353913
  0
ARC
  5
2B4
330
1F
100
AcDbEntity
  8
実線
  6
Continuous
 62
     7
100
AcDbCircle
 10
916.3918767625532
 20
1593.708708229455
 30
0.0
 40
10.0
100
AcDbArc
 50
180.0
 51
269.9988035353692
  0
ARC
  5
2B5
330
1F
100
AcDbEntity
  8
実線
  6
Continuous
 62
     7
100
AcDbCircle
 10
1083.391876762553
 20
1426.705930470775
 30
0.0
 40
10.0
100
AcDbArc
 50
180.0
 51
270.0
  0
ARC
  5
2B6
330
1F
100
AcDbEntity
  8
実線
  6
Continuous
 62
     7
100
AcDbCircle
 10
1315.631152213426
 20
1426.705930470775
 30
0.0
 40
10.0
100
AcDbArc
 50
270.0
 51
359.999687914616
  0
ARC
  5
2B7
330
1F
100
AcDbEntity
  8
実線
  6
Continuous
 62
     7
100
AcDbCircle
 10
1482.631876762555
 20
1593.70593047078
 30
0.0
 40
10.0
100
AcDbArc
 50
270.0
 51
0.0
  0
ARC
  5
2B8
330
1F
100
AcDbEntity
  8
実線
  6
Continuous
 62
     7
100
AcDbCircle
 10
1487.631876762555
 20
1584.68593047078
 30
0.0
 40
5.0
100
AcDbArc
 50
270.0
 51
0.0
  0
ARC
  5
2B9
330
1F
100
AcDbEntity
  8
実線
  6
Continuous
 62
     7
100
AcDbCircle
 10
1487.631876762555
 20
1834.965930470775
 30
0.0
 40
5.0
100
AcDbArc
 50
0.0
 51
90.0
  0
ARC
  5
2BA
330
1F
100
AcDbEntity
  8
実線
  6
Continuous
 62
     7
100
AcDbCircle
 10
1324.651876762552
 20
1997.945930470775
 30
0.0
 40
5.0
100
AcDbArc
 50
0.0
 51
90.0
  0
ARC
  5
2BB
330
1F
100
AcDbEntity
  8
実線
  6
Continuous
 62
     7
100
AcDbCircle
 10
1074.371876762553
 20
1997.945930470775
 30
0.0
 40
5.0
100
AcDbArc
 50
90.0
 51
180.0
  0
ARC
  5
2BC
330
1F
100
AcDbEntity
  8
実線
  6
Continuous
 62
     7
100
AcDbCircle
 10
911.3918767625532
 20
1834.965930470775
 30
0.0
 40
5.0
100
AcDbArc
 50
90.0
 51
180.0
  0
ARC
  5
2BD
330
1F
100
AcDbEntity
  8
実線
  6
Continuous
 62
     7
100
AcDbCircle
 10
911.3918767625569
 20
1584.685930470775
 30
0.0
 40
5.0
100
AcDbArc
 50
180.0
 51
270.0
  0
ARC
  5
2BE
330
1F
100
AcDbEntity
  8
実線
  6
Continuous
 62
     7
100
AcDbCircle
 10
1074.371876762556
 20
1421.705930470775
 30
0.0
 40
5.0
100
AcDbArc
 50
180.0
 51
270.0
  0
ARC
  5
2BF
330
1F
100
AcDbEntity
  8
実線
  6
Continuous
 62
     7
100
AcDbCircle
 10
1324.650679765552
 20
1421.705930470775
 30
0.0
 40
5.0
100
AcDbArc
 50
270.0
 51
359.9995030947306
  0
ARC
  5
2C0
330
1F
100
AcDbEntity
  8
実線
  6
Continuous
 62
     7
100
AcDbCircle
 10
1487.631876762555
 20
1579.725930470775
 30
0.0
 40
5.0
100
AcDbArc
 50
270.0
 51
0.0
  0
ARC
  5
2C1
330
1F
100
AcDbEntity
  8
実線
  6
Continuous
 62
     7
100
AcDbCircle
 10
1329.611876762554
 20
1421.705930470775
 30
0.0
 40
5.0
100
AcDbArc
 50
270.0
 51
0.0
  0
ARC
  5
2C2
330
1F
100
AcDbEntity
  8
実線
  6
Continuous
 62
     7
100
AcDbCircle
 10
1069.411876762554
 20
1421.705930470775
 30
0.0
 40
5.0
100
AcDbArc
 50
180.0
 51
270.0
  0
ARC
  5
2C3
330
1F
100
AcDbEntity
  8
実線
  6
Continuous
 62
     7
100
AcDbCircle
 10
911.3918767625569
 20
1579.725930470775
 30
0.0
 40
5.0
100
AcDbArc
 50
180.0
 51
270.0
  0
ARC
  5
2C4
330
1F
100
AcDbEntity
  8
実線
  6
Continuous
 62
     7
100
AcDbCircle
 10
911.3918767625532
 20
1839.925930470775
 30
0.0
 40
5.0
100
AcDbArc
 50
90.0
 51
180.0
  0
ARC
  5
2C5
330
1F
100
AcDbEntity
  8
実線
  6
Continuous
 62
     7
100
AcDbCircle
 10
1069.411876762554
 20
1997.94593047078
 30
0.0
 40
5.0
100
AcDbArc
 50
90.0
 51
180.0
  0
ARC
  5
2C6
330
1F
100
AcDbEntity
  8
実線
  6
Continuous
 62
     7
100
AcDbCircle
 10
1329.611876762551
 20
1997.945930470775
 30
0.0
 40
5.0
100
AcDbArc
 50
0.0
 51
90.0
  0
ARC
  5
2C7
330
1F
100
AcDbEntity
  8
実線
  6
Continuous
 62
     7
100
AcDbCircle
 10
1487.631876762555
 20
1839.92593047078
 30
0.0
 40
5.0
100
AcDbArc
 50
0.0
 51
90.0
  0
ARC
  5
2C8
330
1F
100
AcDbEntity
  8
実線
  6
Continuous
 62
     7
100
AcDbCircle
 10
1308.619245178076
 20
1433.705930470775
 30
0.0
 40
10.0
100
AcDbArc
 50
270.0
 51
359.9988035353796
  0
ARC
  5
2C9
330
1F
100
AcDbEntity
  8
実線
  6
Continuous
 62
     7
100
AcDbCircle
 10
1090.401876762555
 20
1433.705930470775
 30
0.0
 40
10.0
100
AcDbArc
 50
180.0
 51
270.0
  0
ARC
  5
2CA
330
1F
100
AcDbEntity
  8
実線
  6
Continuous
 62
     7
100
AcDbCircle
 10
923.3918767625532
 20
1600.718562055255
 30
0.0
 40
10.0
100
AcDbArc
 50
180.0
 51
269.99880353539
  0
ARC
  5
2CB
330
1F
100
AcDbEntity
  8
実線
  6
Continuous
 62
     7
100
AcDbCircle
 10
923.3918767625532
 20
1818.935930470775
 30
0.0
 40
10.0
100
AcDbArc
 50
90.0
 51
180.0
  0
ARC
  5
2CC
330
1F
100
AcDbEntity
  8
実線
  6
Continuous
 62
     7
100
AcDbCircle
 10
1090.404508347036
 20
1985.945930470775
 30
0.0
 40
10.0
100
AcDbArc
 50
90.0
 51
179.9988035353509
  0
ARC
  5
2CD
330
1F
100
AcDbEntity
  8
実線
  6
Continuous
 62
     7
100
AcDbCircle
 10
1308.621876762549
 20
1985.945930470775
 30
0.0
 40
10.0
100
AcDbArc
 50
0.0
 51
90.0
  0
ARC
  5
2CE
330
1F
100
AcDbEntity
  8
実線
  6
Continuous
 62
     7
100
AcDbCircle
 10
1475.631876762555
 20
1600.71593047078
 30
0.0
 40
10.0
100
AcDbArc
 50
270.0
 51
0.0
  0
ARC
  5
2CF
330
1F
100
AcDbEntity
  8
実線
  6
Continuous
 62
     7
100
AcDbCircle
 10
1475.631876762555
 20
1818.9332988863
 30
0.0
 40
10.0
100
AcDbArc
 50
0.0
 51
89.99880353536916
  0
ARC
  5
2D0
330
1F
100
AcDbEntity
  8
実線
  6
Continuous
 62
     7
100
AcDbCircle
 10
1049.411876762554
 20
1559.725930470775
 30
0.0
 40
30.99000000000115
100
AcDbArc
 50
0.0
 51
90.0
  0
ARC
  5
2D1
330
1F
100
AcDbEntity
  8
実線
  6
Continuous
 62
     7
100
AcDbCircle
 10
1049.411876762554
 20
1559.725930470775
 30
0.0
 40
23.97999999999911
100
AcDbArc
 50
0.0
 51
90.0
  0
ARC
  5
2D2
330
1F
100
AcDbEntity
  8
実線
  6
Continuous
 62
     7
100
AcDbCircle
 10
1049.411876762554
 20
1559.725930470775
 30
0.0
 40
19.95999999999913
100
AcDbArc
 50
0.0
 51
90.0
  0
ARC
  5
2D3
330
1F
100
AcDbEntity
  8
実線
  6
Continuous
 62
     7
100
AcDbCircle
 10
1049.411876762554
 20
1559.725930470775
 30
0.0
 40
15.0
100
AcDbArc
 50
0.0
 51
90.0
  0
ARC
  5
2D4
330
1F
100
AcDbEntity
  8
実線
  6
Continuous
 62
     7
100
AcDbCircle
 10
1049.411876762554
 20
1859.925930470775
 30
0.0
 40
30.99000000000001
100
AcDbArc
 50
270.0
 51
0.0
  0
ARC
  5
2D5
330
1F
100
AcDbEntity
  8
実線
  6
Continuous
 62
     7
100
AcDbCircle
 10
1049.411876762554
 20
1859.925930470775
 30
0.0
 40
23.98000000000002
100
AcDbArc
 50
270.0
 51
0.0
  0
ARC
  5
2D6
330
1F
100
AcDbEntity
  8
実線
  6
Continuous
 62
     7
100
AcDbCircle
 10
1049.411876762554
 20
1859.925930470775
 30
0.0
 40
19.96000000000004
100
AcDbArc
 50
270.0
 51
0.0
  0
ARC
  5
2D7
330
1F
100
AcDbEntity
  8
実線
  6
Continuous
 62
     7
100
AcDbCircle
 10
1049.411876762554
 20
1859.925930470775
 30
0.0
 40
15.0
100
AcDbArc
 50
270.0
 51
0.0
  0
ARC
  5
2D8
330
1F
100
AcDbEntity
  8
実線
  6
Continuous
 62
     7
100
AcDbCircle
 10
1349.611876762554
 20
1859.925930470775
 30
0.0
 40
30.98999999999796
100
AcDbArc
 50
180.0
 51
270.0
  0
ARC
  5
2D9
330
1F
100
AcDbEntity
  8
実線
  6
Continuous
 62
     7
100
AcDbCircle
 10
1349.611876762554
 20
1859.925930470775
 30
0.0
 40
23.97999999999888
100
AcDbArc
 50
180.0
 51
270.0
  0
ARC
  5
2DA
330
1F
100
AcDbEntity
  8
実線
  6
Continuous
 62
     7
100
AcDbCircle
 10
1349.611876762554
 20
1859.925930470775
 30
0.0
 40
19.9599999999989
100
AcDbArc
 50
180.0
 51
270.0
  0
ARC
  5
2DB
330
1F
100
AcDbEntity
  8
実線
  6
Continuous
 62
     7
100
AcDbCircle
 10
1349.611876762554
 20
1859.925930470775
 30
0.0
 40
15.0
100
AcDbArc
 50
180.0
 51
270.0
  0
ARC
  5
2DC
330
1F
100
AcDbEntity
  8
実線
  6
Continuous
 62
     7
100
AcDbCircle
 10
1349.611876762554
 20
1559.725930470775
 30
0.0
 40
30.99000000000001
100
AcDbArc
 50
90.0
 51
180.0
  0
ARC
  5
2DD
330
1F
100
AcDbEntity
  8
実線
  6
Continuous
 62
     7
100
AcDbCircle
 10
1349.611876762554
 20
1559.725930470775
 30
0.0
 40
23.98000000000002
100
AcDbArc
 50
90.0
 51
180.0
  0
ARC
  5
2DE
330
1F
100
AcDbEntity
  8
実線
  6
Continuous
 62
     7
100
AcDbCircle
 10
1349.611876762554
 20
1559.725930470775
 30
0.0
 40
19.96000000000004
100
AcDbArc
 50
90.0
 51
180.0
  0
ARC
  5
2DF
330
1F
100
AcDbEntity
  8
実線
  6
Continuous
 62
     7
100
AcDbCircle
 10
1349.611876762554
 20
1559.725930470775
 30
0.0
 40
15.0
100
AcDbArc
 50
90.0
 51
180.0
  0
ARC
  5
2E0
330
1F
100
AcDbEntity
  8
実線
  6
Continuous
 62
     7
100
AcDbCircle
 10
919.5318767625527
 20
1989.805930470775
 30
0.0
 40
20.0
100
AcDbArc
 50
90.0
 51
180.0
  0
ARC
  5
2E1
330
1F
100
AcDbEntity
  8
実線
  6
Continuous
 62
     7
100
AcDbCircle
 10
919.5318767625527
 20
1429.845930470775
 30
0.0
 40
20.0
100
AcDbArc
 50
180.0
 51
270.0
  0
ARC
  5
2E2
330
1F
100
AcDbEntity
  8
実線
  6
Continuous
 62
     7
100
AcDbCircle
 10
1479.491876762552
 20
1429.845930470775
 30
0.0
 40
20.0
100
AcDbArc
 50
270.0
 51
0.0
  0
ARC
  5
2E3
330
1F
100
AcDbEntity
  8
実線
  6
Continuous
 62
     7
100
AcDbCircle
 10
1504.511876762556
 20
2014.825930470775
 30
0.0
 40
9.989999999997963
100
AcDbArc
 50
0.0
 51
90.0
  0
ARC
  5
2E4
330
1F
100
AcDbEntity
  8
実線
  6
Continuous
 62
     7
100
AcDbCircle
 10
894.5118767625522
 20
2014.825930470775
 30
0.0
 40
9.990000000000009
100
AcDbArc
 50
90.0
 51
180.0
  0
ARC
  5
2E5
330
1F
100
AcDbEntity
  8
実線
  6
Continuous
 62
     7
100
AcDbCircle
 10
894.5118767625522
 20
1404.825930470775
 30
0.0
 40
9.989999999997963
100
AcDbArc
 50
180.0
 51
270.0
  0
ARC
  5
2E6
330
1F
100
AcDbEntity
  8
実線
  6
Continuous
 62
     7
100
AcDbCircle
 10
1504.511876762556
 20
1404.825930470775
 30
0.0
 40
9.989999999999782
100
AcDbArc
 50
270.0
 51
0.0
  0
ARC
  5
2E7
330
1F
100
AcDbEntity
  8
実線
  6
Continuous
 62
     7
100
AcDbCircle
 10
1504.511876762556
 20
1404.825930470775
 30
0.0
 40
7.0
100
AcDbArc
 50
270.0
 51
0.0
  0
ARC
  5
2E8
330
1F
100
AcDbEntity
  8
実線
  6
Continuous
 62
     7
100
AcDbCircle
 10
894.5118767625522
 20
1404.825930470775
 30
0.0
 40
6.999999999996362
100
AcDbArc
 50
180.0
 51
270.0
  0
ARC
  5
2E9
330
1F
100
AcDbEntity
  8
実線
  6
Continuous
 62
     7
100
AcDbCircle
 10
894.5118767625522
 20
2014.825930470775
 30
0.0
 40
7.0
100
AcDbArc
 50
90.0
 51
180.0
  0
ARC
  5
2EA
330
1F
100
AcDbEntity
  8
実線
  6
Continuous
 62
     7
100
AcDbCircle
 10
1504.511876762556
 20
2014.825930470775
 30
0.0
 40
7.0
100
AcDbArc
 50
0.0
 51
90.0
  0
ARC
  5
2EB
330
1F
100
AcDbEntity
  8
実線
  6
Continuous
 62
     7
100
AcDbCircle
 10
1504.511876762556
 20
1404.825930470775
 30
0.0
 40
15.0
100
AcDbArc
 50
270.0
 51
0.0
  0
ARC
  5
2EC
330
1F
100
AcDbEntity
  8
実線
  6
Continuous
 62
     7
100
AcDbCircle
 10
894.5118767625522
 20
1404.825930470775
 30
0.0
 40
15.0
100
AcDbArc
 50
180.0
 51
270.0
  0
ARC
  5
2ED
330
1F
100
AcDbEntity
  8
実線
  6
Continuous
 62
     7
100
AcDbCircle
 10
894.5118767625522
 20
2014.825930470775
 30
0.0
 40
15.0
100
AcDbArc
 50
90.0
 51
180.0
  0
ARC
  5
2EE
330
1F
100
AcDbEntity
  8
実線
  6
Continuous
 62
     7
100
AcDbCircle
 10
1504.511876762556
 20
2014.825930470775
 30
0.0
 40
15.0
100
AcDbArc
 50
0.0
 51
90.0
  0
ARC
  5
2EF
330
1F
100
AcDbEntity
  8
実線
  6
Continuous
 62
     7
100
AcDbCircle
 10
1511.513563428946
 20
1086.618048247778
 30
0.0
 40
2.999999999997708
100
AcDbArc
 50
5.00000000000362
 51
90.0
  0
CIRCLE
  5
2F0
330
1F
100
AcDbEntity
  8
実線
  6
Continuous
 62
     7
100
AcDbCircle
 10
896.5159352165379
 20
1406.82998892476
 30
0.0
 40
2.5
  0
CIRCLE
  5
2F1
330
1F
100
AcDbEntity
  8
実線
  6
Continuous
 62
     7
100
AcDbCircle
 10
896.5159352165379
 20
1406.82998892476
 30
0.0
 40
5.0
  0
CIRCLE
  5
2F2
330
1F
100
AcDbEntity
  8
実線
  6
Continuous
 62
     7
100
AcDbCircle
 10
896.5159352165379
 20
1406.82998892476
 30
0.0
 40
7.5
  0
CIRCLE
  5
2F3
330
1F
100
AcDbEntity
  8
実線
  6
Continuous
 62
     7
100
AcDbCircle
 10
896.5159352165379
 20
1406.82998892476
 30
0.0
 40
7.599999999998545
  0
CIRCLE
  5
2F4
330
1F
100
AcDbEntity
  8
実線
  6
Continuous
 62
     7
100
AcDbCircle
 10
896.5159352165379
 20
2012.821872016795
 30
0.0
 40
2.5
  0
CIRCLE
  5
2F5
330
1F
100
AcDbEntity
  8
実線
  6
Continuous
 62
     7
100
AcDbCircle
 10
896.5159352165379
 20
2012.821872016795
 30
0.0
 40
5.0
  0
CIRCLE
  5
2F6
330
1F
100
AcDbEntity
  8
実線
  6
Continuous
 62
     7
100
AcDbCircle
 10
896.5159352165379
 20
2012.821872016795
 30
0.0
 40
7.5
  0
CIRCLE
  5
2F7
330
1F
100
AcDbEntity
  8
実線
  6
Continuous
 62
     7
100
AcDbCircle
 10
896.5159352165379
 20
2012.821872016795
 30
0.0
 40
7.599999999998545
  0
CIRCLE
  5
2F8
330
1F
100
AcDbEntity
  8
実線
  6
Continuous
 62
     7
100
AcDbCircle
 10
1502.50781830857
 20
2012.821872016795
 30
0.0
 40
2.5
  0
CIRCLE
  5
2F9
330
1F
100
AcDbEntity
  8
実線
  6
Continuous
 62
     7
100
AcDbCircle
 10
1502.50781830857
 20
2012.821872016795
 30
0.0
 40
5.0
  0
CIRCLE
  5
2FA
330
1F
100
AcDbEntity
  8
実線
  6
Continuous
 62
     7
100
AcDbCircle
 10
1502.50781830857
 20
2012.821872016795
 30
0.0
 40
7.5
  0
CIRCLE
  5
2FB
330
1F
100
AcDbEntity
  8
実線
  6
Continuous
 62
     7
100
AcDbCircle
 10
1502.50781830857
 20
2012.821872016795
 30
0.0
 40
7.600000000001955
  0
CIRCLE
  5
2FC
330
1F
100
AcDbEntity
  8
実線
  6
Continuous
 62
     7
100
AcDbCircle
 10
1502.50781830857
 20
1406.82998892476
 30
0.0
 40
2.5
  0
CIRCLE
  5
2FD
330
1F
100
AcDbEntity
  8
実線
  6
Continuous
 62
     7
100
AcDbCircle
 10
1502.50781830857
 20
1406.82998892476
 30
0.0
 40
5.0
  0
CIRCLE
  5
2FE
330
1F
100
AcDbEntity
  8
実線
  6
Continuous
 62
     7
100
AcDbCircle
 10
1502.50781830857
 20
1406.82998892476
 30
0.0
 40
7.5
  0
CIRCLE
  5
2FF
330
1F
100
AcDbEntity
  8
実線
  6
Continuous
 62
     7
100
AcDbCircle
 10
1502.50781830857
 20
1406.82998892476
 30
0.0
 40
7.600000000001955
  0
MTEXT
  5
301
330
1F
100
AcDbEntity
  8
1
 62
     7
100
AcDbMText
 10
852.5
 20
170.0
 30
0.0
 40
35.0
 41
0.0
 71
     5
 72
     1
  1
1
  7
CONVERTER_12
 73
     1
 44
0.7202881152461
  0
MTEXT
  5
302
330
1F
100
AcDbEntity
  8
1
 62
     7
100
AcDbMText
 10
937.5
 20
170.0
 30
0.0
 40
35.0
 41
0.0
 71
     5
 72
     1
  1
10
  7
CONVERTER_12
 73
     1
 44
0.7202881152461
  0
MTEXT
  5
303
330
1F
100
AcDbEntity
  8
1
 62
     7
100
AcDbMText
 10
570.0
 20
142.5
 30
0.0
 40
35.0
 41
0.0
 71
     5
 72
     1
  1
H541N-640
  7
CONVERTER_12
 73
     1
 44
0.7202881152461
  0
MTEXT
  5
304
330
1F
100
AcDbEntity
  8
1
 62
     7
100
AcDbMText
 10
570.0
 20
227.5000000000001
 30
0.0
 40
35.0
 41
0.0
 71
     5
 72
     1
  1
洗濯機パン
  7
CONVERTER_11
 73
     1
 44
0.54545454545455
  0
DIMENSION
  5
311
330
1F
100
AcDbEntity
  8
1
100
AcDbDimension
  2
*D2
 10
779.5118767625524
 20
1089.618048247778
 30
0.0
 11
752.0118767625524
 21
1059.618048247778
 31
0.0
 70
    32
  1
<>
 71
     5
 42
-1.0
 53
90.0
  3
ME10_DIM_10
100
AcDbAlignedDimension
 13
879.5118767625522
 23
1029.618048247777
 33
0.0
 14
887.5101900961622
 24
1089.618048247778
 34
0.0
 50
90.0
100
AcDbRotatedDimension
  0
DIMENSION
  5
31C
330
1F
100
AcDbEntity
  8
1
100
AcDbDimension
  2
*D3
 10
779.5118767625522
 20
2012.821872016794
 30
0.0
 11
752.0118767625522
 21
1709.825930470775
 31
0.0
 70
    32
  1
606
 71
     5
 42
-1.0
 53
90.0
  3
ME10_DIM_11
100
AcDbAlignedDimension
 13
881.3159352165408
 23
1406.82998892476
 33
0.0
 14
881.4659352165386
 24
2012.821872016795
 34
0.0
 50
90.0
100
AcDbRotatedDimension
  0
DIMENSION
  5
327
330
1F
100
AcDbEntity
  8
1
100
AcDbDimension
  2
*D4
 10
699.5118767625522
 20
2029.825930470774
 30
0.0
 11
672.0118767625522
 21
1709.825930470775
 31
0.0
 70
    32
  1
<>
 71
     5
 42
-1.0
 53
90.0
  3
ME10_DIM_12
100
AcDbAlignedDimension
 13
894.5118767625522
 23
1389.825930470775
 33
0.0
 14
894.5118767625522
 24
2029.825930470775
 34
0.0
 50
90.0
100
AcDbRotatedDimension
  0
DIMENSION
  5
332
330
1F
100
AcDbEntity
  8
1
100
AcDbDimension
  2
*D5
 10
879.5118767625524
 20
2209.825930470775
 30
0.0
 11
1199.511876762556
 21
2237.325930470775
 31
0.0
 70
    32
  1
<>
 71
     5
 42
-1.0
 53
0.00013888888889
  3
ME10_DIM_13
100
AcDbAlignedDimension
 13
1519.511876762556
 23
2014.825930470775
 33
0.0
 14
879.5118767625522
 24
2014.825930470775
 34
0.0
100
AcDbRotatedDimension
  0
DIMENSION
  5
33D
330
1F
100
AcDbEntity
  8
1
100
AcDbDimension
  2
*D6
 10
896.5159352165381
 20
2129.825930470775
 30
0.0
 11
1199.511876762556
 21
2157.325930470775
 31
0.0
 70
    32
  1
606
 71
     5
 42
-1.0
 53
0.00013888888889
  3
ME10_DIM_14
100
AcDbAlignedDimension
 13
1502.50781830857
 23
2027.871872016796
 33
0.0
 14
896.5159352165379
 24
2027.871872016794
 34
0.0
100
AcDbRotatedDimension
  0
ENDSEC
  0
SECTION
  2
OBJECTS
  0
DICTIONARY
  5
C
330
0
100
AcDbDictionary
281
     1
  3
ACAD_GROUP
350
D
  3
ACAD_LAYOUT
350
1A
  3
ACAD_MATERIAL
350
3B
  3
ACAD_MLEADERSTYLE
350
340
  3
ACAD_MLINESTYLE
350
17
  3
ACAD_PLOTSETTINGS
350
19
  3
ACAD_PLOTSTYLENAME
350
E
  3
ACAD_VISUALSTYLE
350
2A
  3
AcDbVariableDictionary
350
33E
  0
DICTIONARY
  5
D
102
{ACAD_REACTORS
330
C
102
}
330
C
100
AcDbDictionary
281
     1
  0
DICTIONARY
  5
1A
102
{ACAD_REACTORS
330
C
102
}
330
C
100
AcDbDictionary
281
     1
  3
Layout1
350
1E
  3
Layout2
350
26
  3
Model
350
22
  0
DICTIONARY
  5
3B
102
{ACAD_REACTORS
330
C
102
}
330
C
100
AcDbDictionary
281
     1
  3
ByBlock
350
3D
  3
ByLayer
350
3C
  3
Global
350
3E
  0
DICTIONARY
  5
340
102
{ACAD_REACTORS
330
C
102
}
330
C
100
AcDbDictionary
281
     1
  0
DICTIONARY
  5
17
102
{ACAD_REACTORS
330
C
102
}
330
C
100
AcDbDictionary
281
     1
  3
Standard
350
18
  0
DICTIONARY
  5
19
102
{ACAD_REACTORS
330
C
102
}
330
C
100
AcDbDictionary
281
     1
  0
ACDBDICTIONARYWDFLT
  5
E
102
{ACAD_REACTORS
330
C
102
}
330
C
100
AcDbDictionary
281
     1
  3
Normal
350
F
100
AcDbDictionaryWithDefault
340
F
  0
DICTIONARY
  5
2A
102
{ACAD_REACTORS
330
C
102
}
330
C
100
AcDbDictionary
281
     1
  3
2dWireframe
350
2F
  3
3D Hidden
350
31
  3
3dWireframe
350
30
  3
Basic
350
32
  3
Brighten
350
36
  3
ColorChange
350
3A
  3
Conceptual
350
34
  3
Dim
350
35
  3
Facepattern
350
39
  3
Flat
350
2B
  3
FlatWithEdges
350
2C
  3
Gouraud
350
2D
  3
GouraudWithEdges
350
2E
  3
Linepattern
350
38
  3
Realistic
350
33
  3
Thicken
350
37
  0
DICTIONARY
  5
33E
102
{ACAD_REACTORS
330
C
102
}
330
C
100
AcDbDictionary
281
     1
  3
DIMASSOC
350
341
  3
HIDETEXT
350
342
  0
LAYOUT
  5
1E
102
{ACAD_REACTORS
330
1A
102
}
330
1A
100
AcDbPlotSettings
  1

  2
none_device
  4

  6

 40
0.0
 41
0.0
 42
0.0
 43
0.0
 44
0.0
 45
0.0
 46
0.0
 47
0.0
 48
0.0
 49
0.0
140
0.0
141
0.0
142
1.0
143
1.0
 70
   688
 72
     0
 73
     0
 74
     5
  7

 75
    16
147
1.0
148
0.0
149
0.0
100
AcDbLayout
  1
Layout1
 70
     1
 71
     1
 10
0.0
 20
0.0
 11
12.0
 21
9.0
 12
0.0
 22
0.0
 32
0.0
 14
1.00000000000000E+20
 24
1.00000000000000E+20
 34
1.00000000000000E+20
 15
-1.00000000000000E+20
 25
-1.00000000000000E+20
 35
-1.00000000000000E+20
146
0.0
 13
0.0
 23
0.0
 33
0.0
 16
1.0
 26
0.0
 36
0.0
 17
0.0
 27
1.0
 37
0.0
 76
     0
330
1B
  0
LAYOUT
  5
26
102
{ACAD_REACTORS
330
1A
102
}
330
1A
100
AcDbPlotSettings
  1

  2
none_device
  4

  6

 40
0.0
 41
0.0
 42
0.0
 43
0.0
 44
0.0
 45
0.0
 46
0.0
 47
0.0
 48
0.0
 49
0.0
140
0.0
141
0.0
142
1.0
143
1.0
 70
   688
 72
     0
 73
     0
 74
     5
  7

 75
    16
147
1.0
148
0.0
149
0.0
100
AcDbLayout
  1
Layout2
 70
     1
 71
     2
 10
0.0
 20
0.0
 11
0.0
 21
0.0
 12
0.0
 22
0.0
 32
0.0
 14
0.0
 24
0.0
 34
0.0
 15
0.0
 25
0.0
 35
0.0
146
0.0
 13
0.0
 23
0.0
 33
0.0
 16
1.0
 26
0.0
 36
0.0
 17
0.0
 27
1.0
 37
0.0
 76
     0
330
23
  0
LAYOUT
  5
22
102
{ACAD_REACTORS
330
1A
102
}
330
1A
100
AcDbPlotSettings
  1

  2
none_device
  4

  6

 40
0.0
 41
0.0
 42
0.0
 43
0.0
 44
0.0
 45
0.0
 46
0.0
 47
0.0
 48
0.0
 49
0.0
140
0.0
141
0.0
142
1.0
143
1.0
 70
  1712
 72
     0
 73
     0
 74
     0
  7

 75
     0
147
1.0
148
0.0
149
0.0
100
AcDbLayout
  1
Model
 70
     1
 71
     0
 10
0.0
 20
0.0
 11
12.0
 21
9.0
 12
0.0
 22
0.0
 32
0.0
 14
0.0
 24
0.0
 34
0.0
 15
2100.0
 25
2970.0
 35
0.0
146
0.0
 13
0.0
 23
0.0
 33
0.0
 16
1.0
 26
0.0
 36
0.0
 17
0.0
 27
1.0
 37
0.0
 76
     0
330
1F
331
29
  0
MATERIAL
  5
3D
102
{ACAD_REACTORS
330
3B
102
}
102
{ACAD_XDICTIONARY
360
365
102
}
330
3B
100
AcDbMaterial
  1
ByBlock
  0
MATERIAL
  5
3C
102
{ACAD_REACTORS
330
3B
102
}
102
{ACAD_XDICTIONARY
360
363
102
}
330
3B
100
AcDbMaterial
  1
ByLayer
  0
MATERIAL
  5
3E
102
{ACAD_REACTORS
330
3B
102
}
102
{ACAD_XDICTIONARY
360
367
102
}
330
3B
100
AcDbMaterial
  1
Global
  0
MLINESTYLE
  5
18
102
{ACAD_REACTORS
330
17
102
}
330
17
100
AcDbMlineStyle
  2
Standard
 70
     0
  3

 62
   256
 51
90.0
 52
90.0
 71
     2
 49
0.5
 62
   256
  6
BYLAYER
 49
-0.5
 62
   256
  6
BYLAYER
  0
ACDBPLACEHOLDER
  5
F
102
{ACAD_REACTORS
330
E
102
}
330
E
  0
VISUALSTYLE
  5
2F
102
{ACAD_REACTORS
330
2A
102
}
102
{ACAD_XDICTIONARY
360
34B
102
}
330
2A
100
AcDbVisualStyle
  2
2dWireframe
 70
     4
 71
     0
 72
     2
 73
     0
 90
        0
 40
-0.6
 41
-30.0
 62
     5
 63
     7
 74
     1
 91
        4
 64
     7
 65
   257
 75
     1
175
     1
 42
1.0
 92
        0
 66
   257
 43
1.0
 76
     1
 77
     6
 78
     2
 67
     7
 79
     5
170
     0
171
     0
290
     0
174
     0
 93
        1
 44
0.0
173
     0
291
     0
 45
0.0
1001
ACAD
1000
AcDbSavedByObjectVersion
1070
     0
  0
VISUALSTYLE
  5
31
102
{ACAD_REACTORS
330
2A
102
}
102
{ACAD_XDICTIONARY
360
34F
102
}
330
2A
100
AcDbVisualStyle
  2
3D Hidden
 70
     6
 71
     1
 72
     2
 73
     2
 90
        0
 40
-0.6
 41
-30.0
 62
     5
 63
     7
 74
     2
 91
        2
 64
     7
 65
   257
 75
     2
175
     1
 42
40.0
 92
        0
 66
   257
 43
1.0
 76
     1
 77
     6
 78
     2
 67
     7
 79
     3
170
     0
171
     0
290
     0
174
     0
 93
        1
 44
0.0
173
     0
291
     0
 45
0.0
1001
ACAD
1000
AcDbSavedByObjectVersion
1070
     0
  0
VISUALSTYLE
  5
30
102
{ACAD_REACTORS
330
2A
102
}
102
{ACAD_XDICTIONARY
360
34D
102
}
330
2A
100
AcDbVisualStyle
  2
3dWireframe
 70
     5
 71
     0
 72
     2
 73
     0
 90
        0
 40
-0.6
 41
-30.0
 62
     5
 63
     7
 74
     1
 91
        4
 64
     7
 65
   257
 75
     1
175
     1
 42
1.0
 92
        0
 66
   257
 43
1.0
 76
     1
 77
     6
 78
     2
 67
     7
 79
     5
170
     0
171
     0
290
     0
174
     0
 93
        1
 44
0.0
173
     0
291
     0
 45
0.0
1001
ACAD
1000
AcDbSavedByObjectVersion
1070
     0
  0
VISUALSTYLE
  5
32
102
{ACAD_REACTORS
330
2A
102
}
102
{ACAD_XDICTIONARY
360
351
102
}
330
2A
100
AcDbVisualStyle
  2
Basic
 70
     7
 71
     1
 72
     0
 73
     1
 90
        0
 40
-0.6
 41
-30.0
 62
     5
 63
     7
 74
     0
 91
        4
 64
     7
 65
   257
 75
     1
175
     1
 42
1.0
 92
        8
 66
     7
 43
1.0
 76
     1
 77
     6
 78
     2
 67
     7
 79
     5
170
     0
171
     0
290
     0
174
     0
 93
        1
 44
0.0
173
     0
291
     1
 45
0.0
1001
ACAD
1000
AcDbSavedByObjectVersion
1070
     0
  0
VISUALSTYLE
  5
36
102
{ACAD_REACTORS
330
2A
102
}
102
{ACAD_XDICTIONARY
360
359
102
}
330
2A
100
AcDbVisualStyle
  2
Brighten
 70
    12
 71
     2
 72
     2
 73
     0
 90
        0
 40
-0.6
 41
-30.0
 62
     5
 63
     7
 74
     1
 91
        4
 64
     7
 65
   257
 75
     1
175
     1
 42
1.0
 92
        8
 66
     7
 43
1.0
 76
     1
 77
     6
 78
     2
 67
     7
 79
     5
170
     0
171
     0
290
     0
174
     0
 93
        1
 44
50.0
173
     0
291
     1
 45
0.0
1001
ACAD
1000
AcDbSavedByObjectVersion
1070
     0
  0
VISUALSTYLE
  5
3A
102
{ACAD_REACTORS
330
2A
102
}
102
{ACAD_XDICTIONARY
360
361
102
}
330
2A
100
AcDbVisualStyle
  2
ColorChange
 70
    16
 71
     2
 72
     2
 73
     3
 90
        0
 40
-0.6
 41
-30.0
 62
     5
 63
     8
 74
     1
 91
        4
 64
     7
 65
   257
 75
     1
175
     1
 42
1.0
 92
        8
 66
     8
 43
1.0
 76
     1
 77
     6
 78
     2
 67
     7
 79
     5
170
     0
171
     0
290
     0
174
     0
 93
        1
 44
0.0
173
     0
291
     1
 45
0.0
1001
ACAD
1000
AcDbSavedByObjectVersion
1070
     0
  0
VISUALSTYLE
  5
34
102
{ACAD_REACTORS
330
2A
102
}
102
{ACAD_XDICTIONARY
360
355
102
}
330
2A
100
AcDbVisualStyle
  2
Conceptual
 70
     9
 71
     3
 72
     2
 73
     0
 90
        0
 40
-0.6
 41
-30.0
 62
     5
 63
     7
 74
     2
 91
        2
 64
     7
 65
   257
 75
     1
175
     1
 42
40.0
 92
        8
 66
     7
 43
1.0
 76
     1
 77
     6
 78
     2
 67
     7
 79
     3
170
     0
171
     0
290
     0
174
     0
 93
        1
 44
0.0
173
     0
291
     0
 45
0.0
1001
ACAD
1000
AcDbSavedByObjectVersion
1070
     0
  0
VISUALSTYLE
  5
35
102
{ACAD_REACTORS
330
2A
102
}
102
{ACAD_XDICTIONARY
360
357
102
}
330
2A
100
AcDbVisualStyle
  2
Dim
 70
    11
 71
     2
 72
     2
 73
     0
 90
        0
 40
-0.6
 41
-30.0
 62
     5
 63
     7
 74
     1
 91
        4
 64
     7
 65
   257
 75
     1
175
     1
 42
1.0
 92
        8
 66
     7
 43
1.0
 76
     1
 77
     6
 78
     2
 67
     7
 79
     5
170
     0
171
     0
290
     0
174
     0
 93
        1
 44
-50.0
173
     0
291
     1
 45
0.0
1001
ACAD
1000
AcDbSavedByObjectVersion
1070
     0
  0
VISUALSTYLE
  5
39
102
{ACAD_REACTORS
330
2A
102
}
102
{ACAD_XDICTIONARY
360
35F
102
}
330
2A
100
AcDbVisualStyle
  2
Facepattern
 70
    15
 71
     2
 72
     2
 73
     0
 90
        0
 40
-0.6
 41
-30.0
 62
     5
 63
     7
 74
     1
 91
        4
 64
     7
 65
   257
 75
     1
175
     1
 42
1.0
 92
        8
 66
     7
 43
1.0
 76
     1
 77
     6
 78
     2
 67
     7
 79
     5
170
     0
171
     0
290
     0
174
     0
 93
        1
 44
0.0
173
     0
291
     1
 45
0.0
1001
ACAD
1000
AcDbSavedByObjectVersion
1070
     0
  0
VISUALSTYLE
  5
2B
102
{ACAD_REACTORS
330
2A
102
}
102
{ACAD_XDICTIONARY
360
343
102
}
330
2A
100
AcDbVisualStyle
  2
Flat
 70
     0
 71
     2
 72
     1
 73
     1
 90
        2
 40
-0.6
 41
30.0
 62
     5
 63
     7
 74
     0
 91
        4
 64
     7
 65
   257
 75
     1
175
     1
 42
1.0
 92
        8
 66
     7
 43
1.0
 76
     1
 77
     6
 78
     2
 67
     7
 79
     5
170
     0
171
     0
290
     0
174
     0
 93
       13
 44
0.0
173
     0
291
     1
 45
0.0
1001
ACAD
1000
AcDbSavedByObjectVersion
1070
     0
  0
VISUALSTYLE
  5
2C
102
{ACAD_REACTORS
330
2A
102
}
102
{ACAD_XDICTIONARY
360
345
102
}
330
2A
100
AcDbVisualStyle
  2
FlatWithEdges
 70
     1
 71
     2
 72
     1
 73
     1
 90
        2
 40
-0.6
 41
30.0
 62
     5
 63
     7
 74
     1
 91
        4
 64
     7
 65
   257
 75
     1
175
     1
 42
1.0
 92
        0
 66
   257
 43
1.0
 76
     1
 77
     6
 78
     2
 67
     7
 79
     5
170
     0
171
     0
290
     0
174
     0
 93
       13
 44
0.0
173
     0
291
     1
 45
0.0
1001
ACAD
1000
AcDbSavedByObjectVersion
1070
     0
  0
VISUALSTYLE
  5
2D
102
{ACAD_REACTORS
330
2A
102
}
102
{ACAD_XDICTIONARY
360
347
102
}
330
2A
100
AcDbVisualStyle
  2
Gouraud
 70
     2
 71
     2
 72
     2
 73
     1
 90
        2
 40
-0.6
 41
30.0
 62
     5
 63
     7
 74
     0
 91
        4
 64
     7
 65
   257
 75
     1
175
     1
 42
1.0
 92
        0
 66
     7
 43
1.0
 76
     1
 77
     6
 78
     2
 67
     7
 79
     5
170
     0
171
     0
290
     0
174
     0
 93
       13
 44
0.0
173
     0
291
     1
 45
0.0
1001
ACAD
1000
AcDbSavedByObjectVersion
1070
     0
  0
VISUALSTYLE
  5
2E
102
{ACAD_REACTORS
330
2A
102
}
102
{ACAD_XDICTIONARY
360
349
102
}
330
2A
100
AcDbVisualStyle
  2
GouraudWithEdges
 70
     3
 71
     2
 72
     2
 73
     1
 90
        2
 40
-0.6
 41
30.0
 62
     5
 63
     7
 74
     1
 91
        4
 64
     7
 65
   257
 75
     1
175
     1
 42
1.0
 92
        0
 66
   257
 43
1.0
 76
     1
 77
     6
 78
     2
 67
     7
 79
     5
170
     0
171
     0
290
     0
174
     0
 93
       13
 44
0.0
173
     0
291
     1
 45
0.0
1001
ACAD
1000
AcDbSavedByObjectVersion
1070
     0
  0
VISUALSTYLE
  5
38
102
{ACAD_REACTORS
330
2A
102
}
102
{ACAD_XDICTIONARY
360
35D
102
}
330
2A
100
AcDbVisualStyle
  2
Linepattern
 70
    14
 71
     2
 72
     2
 73
     0
 90
        0
 40
-0.6
 41
-30.0
 62
     5
 63
     7
 74
     1
 91
        4
 64
     7
 65
   257
 75
     7
175
     7
 42
1.0
 92
        8
 66
     7
 43
1.0
 76
     1
 77
     6
 78
     2
 67
     7
 79
     5
170
     0
171
     0
290
     0
174
     0
 93
        1
 44
0.0
173
     0
291
     1
 45
0.0
1001
ACAD
1000
AcDbSavedByObjectVersion
1070
     0
  0
VISUALSTYLE
  5
33
102
{ACAD_REACTORS
330
2A
102
}
102
{ACAD_XDICTIONARY
360
353
102
}
330
2A
100
AcDbVisualStyle
  2
Realistic
 70
     8
 71
     2
 72
     2
 73
     0
 90
        0
 40
-0.6
 41
-30.0
 62
     5
 63
     7
 74
     1
 91
        0
 64
     7
 65
   257
 75
     1
175
     1
 42
1.0
 92
        8
 66
     8
 43
1.0
 76
     1
 77
     6
 78
     2
 67
     7
 79
     5
170
     0
171
     0
290
     0
174
     0
 93
       13
 44
0.0
173
     0
291
     0
 45
0.0
1001
ACAD
1000
AcDbSavedByObjectVersion
1070
     0
  0
VISUALSTYLE
  5
37
102
{ACAD_REACTORS
330
2A
102
}
102
{ACAD_XDICTIONARY
360
35B
102
}
330
2A
100
AcDbVisualStyle
  2
Thicken
 70
    13
 71
     2
 72
     2
 73
     0
 90
        0
 40
-0.6
 41
-30.0
 62
     5
 63
     7
 74
     1
 91
        4
 64
     7
 65
   257
 75
     1
175
     1
 42
1.0
 92
       12
 66
     7
 43
1.0
 76
     1
 77
     6
 78
     2
 67
     7
 79
     5
170
     0
171
     0
290
     0
174
     0
 93
        1
 44
0.0
173
     0
291
     1
 45
0.0
1001
ACAD
1000
AcDbSavedByObjectVersion
1070
     0
  0
DICTIONARYVAR
  5
341
102
{ACAD_REACTORS
330
33E
102
}
330
33E
100
DictionaryVariables
280
     0
  1
2
  0
DICTIONARYVAR
  5
342
102
{ACAD_REACTORS
330
33E
102
}
330
33E
100
DictionaryVariables
280
     0
  1
1
  0
DICTIONARY
  5
365
330
3D
100
AcDbDictionary
280
     1
281
     1
  3
ACAD_XREC_ROUNDTRIP
360
366
  0
DICTIONARY
  5
363
330
3C
100
AcDbDictionary
280
     1
281
     1
  3
ACAD_XREC_ROUNDTRIP
360
364
  0
DICTIONARY
  5
367
330
3E
100
AcDbDictionary
280
     1
281
     1
  3
ACAD_XREC_ROUNDTRIP
360
368
  0
DICTIONARY
  5
34B
330
2F
100
AcDbDictionary
280
     1
281
     1
  3
ACAD_XREC_ROUNDTRIP
360
34C
  0
DICTIONARY
  5
34F
330
31
100
AcDbDictionary
280
     1
281
     1
  3
ACAD_XREC_ROUNDTRIP
360
350
  0
DICTIONARY
  5
34D
330
30
100
AcDbDictionary
280
     1
281
     1
  3
ACAD_XREC_ROUNDTRIP
360
34E
  0
DICTIONARY
  5
351
330
32
100
AcDbDictionary
280
     1
281
     1
  3
ACAD_XREC_ROUNDTRIP
360
352
  0
DICTIONARY
  5
359
330
36
100
AcDbDictionary
280
     1
281
     1
  3
ACAD_XREC_ROUNDTRIP
360
35A
  0
DICTIONARY
  5
361
330
3A
100
AcDbDictionary
280
     1
281
     1
  3
ACAD_XREC_ROUNDTRIP
360
362
  0
DICTIONARY
  5
355
330
34
100
AcDbDictionary
280
     1
281
     1
  3
ACAD_XREC_ROUNDTRIP
360
356
  0
DICTIONARY
  5
357
330
35
100
AcDbDictionary
280
     1
281
     1
  3
ACAD_XREC_ROUNDTRIP
360
358
  0
DICTIONARY
  5
35F
330
39
100
AcDbDictionary
280
     1
281
     1
  3
ACAD_XREC_ROUNDTRIP
360
360
  0
DICTIONARY
  5
343
330
2B
100
AcDbDictionary
280
     1
281
     1
  3
ACAD_XREC_ROUNDTRIP
360
344
  0
DICTIONARY
  5
345
330
2C
100
AcDbDictionary
280
     1
281
     1
  3
ACAD_XREC_ROUNDTRIP
360
346
  0
DICTIONARY
  5
347
330
2D
100
AcDbDictionary
280
     1
281
     1
  3
ACAD_XREC_ROUNDTRIP
360
348
  0
DICTIONARY
  5
349
330
2E
100
AcDbDictionary
280
     1
281
     1
  3
ACAD_XREC_ROUNDTRIP
360
34A
  0
DICTIONARY
  5
35D
330
38
100
AcDbDictionary
280
     1
281
     1
  3
ACAD_XREC_ROUNDTRIP
360
35E
  0
DICTIONARY
  5
353
330
33
100
AcDbDictionary
280
     1
281
     1
  3
ACAD_XREC_ROUNDTRIP
360
354
  0
DICTIONARY
  5
35B
330
37
100
AcDbDictionary
280
     1
281
     1
  3
ACAD_XREC_ROUNDTRIP
360
35C
  0
XRECORD
  5
366
102
{ACAD_REACTORS
330
365
102
}
330
365
100
AcDbXrecord
280
     1
102
MATERIAL
148
0.0
149
0.0
149
0.0
 93
        0
 94
      127
282
     0
 72
     1
 77
     1
171
     1
175
     1
179
     1
273
     0
  0
XRECORD
  5
364
102
{ACAD_REACTORS
330
363
102
}
330
363
100
AcDbXrecord
280
     1
102
MATERIAL
148
0.0
149
0.0
149
0.0
 93
        0
 94
      127
282
     0
 72
     1
 77
     1
171
     1
175
     1
179
     1
273
     0
  0
XRECORD
  5
368
102
{ACAD_REACTORS
330
367
102
}
330
367
100
AcDbXrecord
280
     1
102
MATERIAL
148
0.0
149
0.0
149
0.0
 93
        0
 94
      127
282
     0
 72
     1
 77
     1
171
     1
175
     1
179
     1
273
     0
  0
XRECORD
  5
34C
102
{ACAD_REACTORS
330
34B
102
}
330
34B
100
AcDbXrecord
280
     1
102
RTVSPropertyOp0
 70
     1
102
RTVSPropertyOp1
 70
     1
102
RTVSPropertyOp2
 70
     1
102
RTVSPropertyOp3
 70
     1
102
RTVSPropertyOp4
 70
     1
102
RTVSPropertyOp5
 70
     1
102
RTVSPropertyOp6
 70
     1
102
RTVSPropertyOp7
 70
     1
102
RTVSPropertyOp8
 70
     1
102
RTVSPropertyOp9
 70
     1
102
RTVSPropertyOp10
 70
     1
102
RTVSPropertyOp11
 70
     1
102
RTVSPropertyOp12
 70
     1
102
RTVSPropertyOp13
 70
     1
102
RTVSPropertyOp14
 70
     1
102
RTVSPropertyOp15
 70
     1
102
RTVSPropertyOp16
 70
     1
102
RTVSPropertyOp17
 70
     1
102
RTVSPropertyOp18
 70
     1
102
RTVSPropertyOp19
 70
     1
102
RTVSPropertyOp20
 70
     1
102
RTVSPropertyOp21
 70
     1
102
RTVSPropertyOp22
 70
     1
102
RTVSPropertyOp23
 70
     1
102
RTVSPropertyOp24
 70
     1
102
RTVSPropertyOp25
 70
     1
102
RTVSPropertyOp26
 70
     1
102
RTVSPropertyOp27
 70
     1
102
RTVSPropertyOp28
 70
     1
102
RTVSPropertyOp29
 70
     1
102
RTVSPropertyOp30
 70
     1
102
RTVSPropertyOp31
 70
     1
102
RTVSPropertyOp32
 70
     1
  0
XRECORD
  5
350
102
{ACAD_REACTORS
330
34F
102
}
330
34F
100
AcDbXrecord
280
     1
102
RTVSPropertyOp0
 70
     1
102
RTVSPropertyOp1
 70
     1
102
RTVSPropertyOp2
 70
     1
102
RTVSPropertyOp3
 70
     1
102
RTVSPropertyOp4
 70
     1
102
RTVSPropertyOp5
 70
     1
102
RTVSPropertyOp6
 70
     1
102
RTVSPropertyOp7
 70
     1
102
RTVSPropertyOp8
 70
     1
102
RTVSPropertyOp9
 70
     1
102
RTVSPropertyOp10
 70
     1
102
RTVSPropertyOp11
 70
     1
102
RTVSPropertyOp12
 70
     1
102
RTVSPropertyOp13
 70
     1
102
RTVSPropertyOp14
 70
     1
102
RTVSPropertyOp15
 70
     1
102
RTVSPropertyOp16
 70
     1
102
RTVSPropertyOp17
 70
     1
102
RTVSPropertyOp18
 70
     1
102
RTVSPropertyOp19
 70
     1
102
RTVSPropertyOp20
 70
     1
102
RTVSPropertyOp21
 70
     1
102
RTVSPropertyOp22
 70
     1
102
RTVSPropertyOp23
 70
     1
102
RTVSPropertyOp24
 70
     1
102
RTVSPropertyOp25
 70
     1
102
RTVSPropertyOp26
 70
     1
102
RTVSPropertyOp27
 70
     1
102
RTVSPropertyOp28
 70
     1
102
RTVSPropertyOp29
 70
     1
102
RTVSPropertyOp30
 70
     1
102
RTVSPropertyOp31
 70
     1
102
RTVSPropertyOp32
 70
     1
  0
XRECORD
  5
34E
102
{ACAD_REACTORS
330
34D
102
}
330
34D
100
AcDbXrecord
280
     1
102
RTVSPropertyOp0
 70
     1
102
RTVSPropertyOp1
 70
     1
102
RTVSPropertyOp2
 70
     1
102
RTVSPropertyOp3
 70
     1
102
RTVSPropertyOp4
 70
     1
102
RTVSPropertyOp5
 70
     1
102
RTVSPropertyOp6
 70
     1
102
RTVSPropertyOp7
 70
     1
102
RTVSPropertyOp8
 70
     1
102
RTVSPropertyOp9
 70
     1
102
RTVSPropertyOp10
 70
     1
102
RTVSPropertyOp11
 70
     1
102
RTVSPropertyOp12
 70
     1
102
RTVSPropertyOp13
 70
     1
102
RTVSPropertyOp14
 70
     1
102
RTVSPropertyOp15
 70
     1
102
RTVSPropertyOp16
 70
     1
102
RTVSPropertyOp17
 70
     1
102
RTVSPropertyOp18
 70
     1
102
RTVSPropertyOp19
 70
     1
102
RTVSPropertyOp20
 70
     1
102
RTVSPropertyOp21
 70
     1
102
RTVSPropertyOp22
 70
     1
102
RTVSPropertyOp23
 70
     1
102
RTVSPropertyOp24
 70
     1
102
RTVSPropertyOp25
 70
     1
102
RTVSPropertyOp26
 70
     1
102
RTVSPropertyOp27
 70
     1
102
RTVSPropertyOp28
 70
     1
102
RTVSPropertyOp29
 70
     1
102
RTVSPropertyOp30
 70
     1
102
RTVSPropertyOp31
 70
     1
102
RTVSPropertyOp32
 70
     1
  0
XRECORD
  5
352
102
{ACAD_REACTORS
330
351
102
}
330
351
100
AcDbXrecord
280
     1
102
RTVSPropertyOp0
 70
     1
102
RTVSPropertyOp1
 70
     1
102
RTVSPropertyOp2
 70
     1
102
RTVSPropertyOp3
 70
     1
102
RTVSPropertyOp4
 70
     1
102
RTVSPropertyOp5
 70
     1
102
RTVSPropertyOp6
 70
     1
102
RTVSPropertyOp7
 70
     1
102
RTVSPropertyOp8
 70
     1
102
RTVSPropertyOp9
 70
     1
102
RTVSPropertyOp10
 70
     1
102
RTVSPropertyOp11
 70
     1
102
RTVSPropertyOp12
 70
     1
102
RTVSPropertyOp13
 70
     1
102
RTVSPropertyOp14
 70
     1
102
RTVSPropertyOp15
 70
     1
102
RTVSPropertyOp16
 70
     1
102
RTVSPropertyOp17
 70
     1
102
RTVSPropertyOp18
 70
     1
102
RTVSPropertyOp19
 70
     1
102
RTVSPropertyOp20
 70
     1
102
RTVSPropertyOp21
 70
     1
102
RTVSPropertyOp22
 70
     1
102
RTVSPropertyOp23
 70
     1
102
RTVSPropertyOp24
 70
     1
102
RTVSPropertyOp25
 70
     1
102
RTVSPropertyOp26
 70
     1
102
RTVSPropertyOp27
 70
     1
102
RTVSPropertyOp28
 70
     1
102
RTVSPropertyOp29
 70
     1
102
RTVSPropertyOp30
 70
     1
102
RTVSPropertyOp31
 70
     1
102
RTVSPropertyOp32
 70
     1
  0
XRECORD
  5
35A
102
{ACAD_REACTORS
330
359
102
}
330
359
100
AcDbXrecord
280
     1
102
RTVSPropertyOp0
 70
     1
102
RTVSPropertyOp1
 70
     1
102
RTVSPropertyOp2
 70
     1
102
RTVSPropertyOp3
 70
     1
102
RTVSPropertyOp4
 70
     1
102
RTVSPropertyOp5
 70
     1
102
RTVSPropertyOp6
 70
     1
102
RTVSPropertyOp7
 70
     1
102
RTVSPropertyOp8
 70
     1
102
RTVSPropertyOp9
 70
     1
102
RTVSPropertyOp10
 70
     1
102
RTVSPropertyOp11
 70
     1
102
RTVSPropertyOp12
 70
     1
102
RTVSPropertyOp13
 70
     1
102
RTVSPropertyOp14
 70
     1
102
RTVSPropertyOp15
 70
     1
102
RTVSPropertyOp16
 70
     1
102
RTVSPropertyOp17
 70
     1
102
RTVSPropertyOp18
 70
     1
102
RTVSPropertyOp19
 70
     1
102
RTVSPropertyOp20
 70
     1
102
RTVSPropertyOp21
 70
     1
102
RTVSPropertyOp22
 70
     1
102
RTVSPropertyOp23
 70
     1
102
RTVSPropertyOp24
 70
     1
102
RTVSPropertyOp25
 70
     1
102
RTVSPropertyOp26
 70
     1
102
RTVSPropertyOp27
 70
     1
102
RTVSPropertyOp28
 70
     1
102
RTVSPropertyOp29
 70
     1
102
RTVSPropertyOp30
 70
     1
102
RTVSPropertyOp31
 70
     1
102
RTVSPropertyOp32
 70
     1
  0
XRECORD
  5
362
102
{ACAD_REACTORS
330
361
102
}
330
361
100
AcDbXrecord
280
     1
102
RTVSPropertyOp0
 70
     1
102
RTVSPropertyOp1
 70
     1
102
RTVSPropertyOp2
 70
     1
102
RTVSPropertyOp3
 70
     1
102
RTVSPropertyOp4
 70
     1
102
RTVSPropertyOp5
 70
     1
102
RTVSPropertyOp6
 70
     1
102
RTVSPropertyOp7
 70
     1
102
RTVSPropertyOp8
 70
     1
102
RTVSPropertyOp9
 70
     1
102
RTVSPropertyOp10
 70
     1
102
RTVSPropertyOp11
 70
     1
102
RTVSPropertyOp12
 70
     1
102
RTVSPropertyOp13
 70
     1
102
RTVSPropertyOp14
 70
     1
102
RTVSPropertyOp15
 70
     1
102
RTVSPropertyOp16
 70
     1
102
RTVSPropertyOp17
 70
     1
102
RTVSPropertyOp18
 70
     1
102
RTVSPropertyOp19
 70
     1
102
RTVSPropertyOp20
 70
     1
102
RTVSPropertyOp21
 70
     1
102
RTVSPropertyOp22
 70
     1
102
RTVSPropertyOp23
 70
     1
102
RTVSPropertyOp24
 70
     1
102
RTVSPropertyOp25
 70
     1
102
RTVSPropertyOp26
 70
     1
102
RTVSPropertyOp27
 70
     1
102
RTVSPropertyOp28
 70
     1
102
RTVSPropertyOp29
 70
     1
102
RTVSPropertyOp30
 70
     1
102
RTVSPropertyOp31
 70
     1
102
RTVSPropertyOp32
 70
     1
  0
XRECORD
  5
356
102
{ACAD_REACTORS
330
355
102
}
330
355
100
AcDbXrecord
280
     1
102
RTVSPropertyOp0
 70
     1
102
RTVSPropertyOp1
 70
     1
102
RTVSPropertyOp2
 70
     1
102
RTVSPropertyOp3
 70
     1
102
RTVSPropertyOp4
 70
     1
102
RTVSPropertyOp5
 70
     1
102
RTVSPropertyOp6
 70
     1
102
RTVSPropertyOp7
 70
     1
102
RTVSPropertyOp8
 70
     1
102
RTVSPropertyOp9
 70
     1
102
RTVSPropertyOp10
 70
     1
102
RTVSPropertyOp11
 70
     1
102
RTVSPropertyOp12
 70
     1
102
RTVSPropertyOp13
 70
     1
102
RTVSPropertyOp14
 70
     1
102
RTVSPropertyOp15
 70
     1
102
RTVSPropertyOp16
 70
     1
102
RTVSPropertyOp17
 70
     1
102
RTVSPropertyOp18
 70
     1
102
RTVSPropertyOp19
 70
     1
102
RTVSPropertyOp20
 70
     1
102
RTVSPropertyOp21
 70
     1
102
RTVSPropertyOp22
 70
     1
102
RTVSPropertyOp23
 70
     1
102
RTVSPropertyOp24
 70
     1
102
RTVSPropertyOp25
 70
     1
102
RTVSPropertyOp26
 70
     1
102
RTVSPropertyOp27
 70
     1
102
RTVSPropertyOp28
 70
     1
102
RTVSPropertyOp29
 70
     1
102
RTVSPropertyOp30
 70
     1
102
RTVSPropertyOp31
 70
     1
102
RTVSPropertyOp32
 70
     1
  0
XRECORD
  5
358
102
{ACAD_REACTORS
330
357
102
}
330
357
100
AcDbXrecord
280
     1
102
RTVSPropertyOp0
 70
     1
102
RTVSPropertyOp1
 70
     1
102
RTVSPropertyOp2
 70
     1
102
RTVSPropertyOp3
 70
     1
102
RTVSPropertyOp4
 70
     1
102
RTVSPropertyOp5
 70
     1
102
RTVSPropertyOp6
 70
     1
102
RTVSPropertyOp7
 70
     1
102
RTVSPropertyOp8
 70
     1
102
RTVSPropertyOp9
 70
     1
102
RTVSPropertyOp10
 70
     1
102
RTVSPropertyOp11
 70
     1
102
RTVSPropertyOp12
 70
     1
102
RTVSPropertyOp13
 70
     1
102
RTVSPropertyOp14
 70
     1
102
RTVSPropertyOp15
 70
     1
102
RTVSPropertyOp16
 70
     1
102
RTVSPropertyOp17
 70
     1
102
RTVSPropertyOp18
 70
     1
102
RTVSPropertyOp19
 70
     1
102
RTVSPropertyOp20
 70
     1
102
RTVSPropertyOp21
 70
     1
102
RTVSPropertyOp22
 70
     1
102
RTVSPropertyOp23
 70
     1
102
RTVSPropertyOp24
 70
     1
102
RTVSPropertyOp25
 70
     1
102
RTVSPropertyOp26
 70
     1
102
RTVSPropertyOp27
 70
     1
102
RTVSPropertyOp28
 70
     1
102
RTVSPropertyOp29
 70
     1
102
RTVSPropertyOp30
 70
     1
102
RTVSPropertyOp31
 70
     1
102
RTVSPropertyOp32
 70
     1
  0
XRECORD
  5
360
102
{ACAD_REACTORS
330
35F
102
}
330
35F
100
AcDbXrecord
280
     1
102
RTVSPropertyOp0
 70
     1
102
RTVSPropertyOp1
 70
     1
102
RTVSPropertyOp2
 70
     1
102
RTVSPropertyOp3
 70
     1
102
RTVSPropertyOp4
 70
     1
102
RTVSPropertyOp5
 70
     1
102
RTVSPropertyOp6
 70
     1
102
RTVSPropertyOp7
 70
     1
102
RTVSPropertyOp8
 70
     1
102
RTVSPropertyOp9
 70
     1
102
RTVSPropertyOp10
 70
     1
102
RTVSPropertyOp11
 70
     1
102
RTVSPropertyOp12
 70
     1
102
RTVSPropertyOp13
 70
     1
102
RTVSPropertyOp14
 70
     1
102
RTVSPropertyOp15
 70
     1
102
RTVSPropertyOp16
 70
     1
102
RTVSPropertyOp17
 70
     1
102
RTVSPropertyOp18
 70
     1
102
RTVSPropertyOp19
 70
     1
102
RTVSPropertyOp20
 70
     1
102
RTVSPropertyOp21
 70
     1
102
RTVSPropertyOp22
 70
     1
102
RTVSPropertyOp23
 70
     1
102
RTVSPropertyOp24
 70
     1
102
RTVSPropertyOp25
 70
     1
102
RTVSPropertyOp26
 70
     1
102
RTVSPropertyOp27
 70
     1
102
RTVSPropertyOp28
 70
     1
102
RTVSPropertyOp29
 70
     1
102
RTVSPropertyOp30
 70
     1
102
RTVSPropertyOp31
 70
     1
102
RTVSPropertyOp32
 70
     1
  0
XRECORD
  5
344
102
{ACAD_REACTORS
330
343
102
}
330
343
100
AcDbXrecord
280
     1
102
RTVSPropertyOp0
 70
     1
102
RTVSPropertyOp1
 70
     1
102
RTVSPropertyOp2
 70
     1
102
RTVSPropertyOp3
 70
     1
102
RTVSPropertyOp4
 70
     1
102
RTVSPropertyOp5
 70
     1
102
RTVSPropertyOp6
 70
     1
102
RTVSPropertyOp7
 70
     1
102
RTVSPropertyOp8
 70
     1
102
RTVSPropertyOp9
 70
     1
102
RTVSPropertyOp10
 70
     1
102
RTVSPropertyOp11
 70
     1
102
RTVSPropertyOp12
 70
     1
102
RTVSPropertyOp13
 70
     1
102
RTVSPropertyOp14
 70
     1
102
RTVSPropertyOp15
 70
     1
102
RTVSPropertyOp16
 70
     1
102
RTVSPropertyOp17
 70
     1
102
RTVSPropertyOp18
 70
     1
102
RTVSPropertyOp19
 70
     1
102
RTVSPropertyOp20
 70
     1
102
RTVSPropertyOp21
 70
     1
102
RTVSPropertyOp22
 70
     1
102
RTVSPropertyOp23
 70
     1
102
RTVSPropertyOp24
 70
     1
102
RTVSPropertyOp25
 70
     1
102
RTVSPropertyOp26
 70
     1
102
RTVSPropertyOp27
 70
     1
102
RTVSPropertyOp28
 70
     1
102
RTVSPropertyOp29
 70
     1
102
RTVSPropertyOp30
 70
     1
102
RTVSPropertyOp31
 70
     1
102
RTVSPropertyOp32
 70
     1
  0
XRECORD
  5
346
102
{ACAD_REACTORS
330
345
102
}
330
345
100
AcDbXrecord
280
     1
102
RTVSPropertyOp0
 70
     1
102
RTVSPropertyOp1
 70
     1
102
RTVSPropertyOp2
 70
     1
102
RTVSPropertyOp3
 70
     1
102
RTVSPropertyOp4
 70
     1
102
RTVSPropertyOp5
 70
     1
102
RTVSPropertyOp6
 70
     1
102
RTVSPropertyOp7
 70
     1
102
RTVSPropertyOp8
 70
     1
102
RTVSPropertyOp9
 70
     1
102
RTVSPropertyOp10
 70
     1
102
RTVSPropertyOp11
 70
     1
102
RTVSPropertyOp12
 70
     1
102
RTVSPropertyOp13
 70
     1
102
RTVSPropertyOp14
 70
     1
102
RTVSPropertyOp15
 70
     1
102
RTVSPropertyOp16
 70
     1
102
RTVSPropertyOp17
 70
     1
102
RTVSPropertyOp18
 70
     1
102
RTVSPropertyOp19
 70
     1
102
RTVSPropertyOp20
 70
     1
102
RTVSPropertyOp21
 70
     1
102
RTVSPropertyOp22
 70
     1
102
RTVSPropertyOp23
 70
     1
102
RTVSPropertyOp24
 70
     1
102
RTVSPropertyOp25
 70
     1
102
RTVSPropertyOp26
 70
     1
102
RTVSPropertyOp27
 70
     1
102
RTVSPropertyOp28
 70
     1
102
RTVSPropertyOp29
 70
     1
102
RTVSPropertyOp30
 70
     1
102
RTVSPropertyOp31
 70
     1
102
RTVSPropertyOp32
 70
     1
  0
XRECORD
  5
348
102
{ACAD_REACTORS
330
347
102
}
330
347
100
AcDbXrecord
280
     1
102
RTVSPropertyOp0
 70
     1
102
RTVSPropertyOp1
 70
     1
102
RTVSPropertyOp2
 70
     1
102
RTVSPropertyOp3
 70
     1
102
RTVSPropertyOp4
 70
     1
102
RTVSPropertyOp5
 70
     1
102
RTVSPropertyOp6
 70
     1
102
RTVSPropertyOp7
 70
     1
102
RTVSPropertyOp8
 70
     1
102
RTVSPropertyOp9
 70
     1
102
RTVSPropertyOp10
 70
     1
102
RTVSPropertyOp11
 70
     1
102
RTVSPropertyOp12
 70
     1
102
RTVSPropertyOp13
 70
     1
102
RTVSPropertyOp14
 70
     1
102
RTVSPropertyOp15
 70
     1
102
RTVSPropertyOp16
 70
     1
102
RTVSPropertyOp17
 70
     1
102
RTVSPropertyOp18
 70
     1
102
RTVSPropertyOp19
 70
     1
102
RTVSPropertyOp20
 70
     1
102
RTVSPropertyOp21
 70
     1
102
RTVSPropertyOp22
 70
     1
102
RTVSPropertyOp23
 70
     1
102
RTVSPropertyOp24
 70
     1
102
RTVSPropertyOp25
 70
     1
102
RTVSPropertyOp26
 70
     1
102
RTVSPropertyOp27
 70
     1
102
RTVSPropertyOp28
 70
     1
102
RTVSPropertyOp29
 70
     1
102
RTVSPropertyOp30
 70
     1
102
RTVSPropertyOp31
 70
     1
102
RTVSPropertyOp32
 70
     1
  0
XRECORD
  5
34A
102
{ACAD_REACTORS
330
349
102
}
330
349
100
AcDbXrecord
280
     1
102
RTVSPropertyOp0
 70
     1
102
RTVSPropertyOp1
 70
     1
102
RTVSPropertyOp2
 70
     1
102
RTVSPropertyOp3
 70
     1
102
RTVSPropertyOp4
 70
     1
102
RTVSPropertyOp5
 70
     1
102
RTVSPropertyOp6
 70
     1
102
RTVSPropertyOp7
 70
     1
102
RTVSPropertyOp8
 70
     1
102
RTVSPropertyOp9
 70
     1
102
RTVSPropertyOp10
 70
     1
102
RTVSPropertyOp11
 70
     1
102
RTVSPropertyOp12
 70
     1
102
RTVSPropertyOp13
 70
     1
102
RTVSPropertyOp14
 70
     1
102
RTVSPropertyOp15
 70
     1
102
RTVSPropertyOp16
 70
     1
102
RTVSPropertyOp17
 70
     1
102
RTVSPropertyOp18
 70
     1
102
RTVSPropertyOp19
 70
     1
102
RTVSPropertyOp20
 70
     1
102
RTVSPropertyOp21
 70
     1
102
RTVSPropertyOp22
 70
     1
102
RTVSPropertyOp23
 70
     1
102
RTVSPropertyOp24
 70
     1
102
RTVSPropertyOp25
 70
     1
102
RTVSPropertyOp26
 70
     1
102
RTVSPropertyOp27
 70
     1
102
RTVSPropertyOp28
 70
     1
102
RTVSPropertyOp29
 70
     1
102
RTVSPropertyOp30
 70
     1
102
RTVSPropertyOp31
 70
     1
102
RTVSPropertyOp32
 70
     1
  0
XRECORD
  5
35E
102
{ACAD_REACTORS
330
35D
102
}
330
35D
100
AcDbXrecord
280
     1
102
RTVSPropertyOp0
 70
     1
102
RTVSPropertyOp1
 70
     1
102
RTVSPropertyOp2
 70
     1
102
RTVSPropertyOp3
 70
     1
102
RTVSPropertyOp4
 70
     1
102
RTVSPropertyOp5
 70
     1
102
RTVSPropertyOp6
 70
     1
102
RTVSPropertyOp7
 70
     1
102
RTVSPropertyOp8
 70
     1
102
RTVSPropertyOp9
 70
     1
102
RTVSPropertyOp10
 70
     1
102
RTVSPropertyOp11
 70
     1
102
RTVSPropertyOp12
 70
     1
102
RTVSPropertyOp13
 70
     1
102
RTVSPropertyOp14
 70
     1
102
RTVSPropertyOp15
 70
     1
102
RTVSPropertyOp16
 70
     1
102
RTVSPropertyOp17
 70
     1
102
RTVSPropertyOp18
 70
     1
102
RTVSPropertyOp19
 70
     1
102
RTVSPropertyOp20
 70
     1
102
RTVSPropertyOp21
 70
     1
102
RTVSPropertyOp22
 70
     1
102
RTVSPropertyOp23
 70
     1
102
RTVSPropertyOp24
 70
     1
102
RTVSPropertyOp25
 70
     1
102
RTVSPropertyOp26
 70
     1
102
RTVSPropertyOp27
 70
     1
102
RTVSPropertyOp28
 70
     1
102
RTVSPropertyOp29
 70
     1
102
RTVSPropertyOp30
 70
     1
102
RTVSPropertyOp31
 70
     1
102
RTVSPropertyOp32
 70
     1
  0
XRECORD
  5
354
102
{ACAD_REACTORS
330
353
102
}
330
353
100
AcDbXrecord
280
     1
102
RTVSPropertyOp0
 70
     1
102
RTVSPropertyOp1
 70
     1
102
RTVSPropertyOp2
 70
     1
102
RTVSPropertyOp3
 70
     1
102
RTVSPropertyOp4
 70
     1
102
RTVSPropertyOp5
 70
     1
102
RTVSPropertyOp6
 70
     1
102
RTVSPropertyOp7
 70
     1
102
RTVSPropertyOp8
 70
     1
102
RTVSPropertyOp9
 70
     1
102
RTVSPropertyOp10
 70
     1
102
RTVSPropertyOp11
 70
     1
102
RTVSPropertyOp12
 70
     1
102
RTVSPropertyOp13
 70
     1
102
RTVSPropertyOp14
 70
     1
102
RTVSPropertyOp15
 70
     1
102
RTVSPropertyOp16
 70
     1
102
RTVSPropertyOp17
 70
     1
102
RTVSPropertyOp18
 70
     1
102
RTVSPropertyOp19
 70
     1
102
RTVSPropertyOp20
 70
     1
102
RTVSPropertyOp21
 70
     1
102
RTVSPropertyOp22
 70
     1
102
RTVSPropertyOp23
 70
     1
102
RTVSPropertyOp24
 70
     1
102
RTVSPropertyOp25
 70
     1
102
RTVSPropertyOp26
 70
     1
102
RTVSPropertyOp27
 70
     1
102
RTVSPropertyOp28
 70
     1
102
RTVSPropertyOp29
 70
     1
102
RTVSPropertyOp30
 70
     1
102
RTVSPropertyOp31
 70
     1
102
RTVSPropertyOp32
 70
     1
  0
XRECORD
  5
35C
102
{ACAD_REACTORS
330
35B
102
}
330
35B
100
AcDbXrecord
280
     1
102
RTVSPropertyOp0
 70
     1
102
RTVSPropertyOp1
 70
     1
102
RTVSPropertyOp2
 70
     1
102
RTVSPropertyOp3
 70
     1
102
RTVSPropertyOp4
 70
     1
102
RTVSPropertyOp5
 70
     1
102
RTVSPropertyOp6
 70
     1
102
RTVSPropertyOp7
 70
     1
102
RTVSPropertyOp8
 70
     1
102
RTVSPropertyOp9
 70
     1
102
RTVSPropertyOp10
 70
     1
102
RTVSPropertyOp11
 70
     1
102
RTVSPropertyOp12
 70
     1
102
RTVSPropertyOp13
 70
     1
102
RTVSPropertyOp14
 70
     1
102
RTVSPropertyOp15
 70
     1
102
RTVSPropertyOp16
 70
     1
102
RTVSPropertyOp17
 70
     1
102
RTVSPropertyOp18
 70
     1
102
RTVSPropertyOp19
 70
     1
102
RTVSPropertyOp20
 70
     1
102
RTVSPropertyOp21
 70
     1
102
RTVSPropertyOp22
 70
     1
102
RTVSPropertyOp23
 70
     1
102
RTVSPropertyOp24
 70
     1
102
RTVSPropertyOp25
 70
     1
102
RTVSPropertyOp26
 70
     1
102
RTVSPropertyOp27
 70
     1
102
RTVSPropertyOp28
 70
     1
102
RTVSPropertyOp29
 70
     1
102
RTVSPropertyOp30
 70
     1
102
RTVSPropertyOp31
 70
     1
102
RTVSPropertyOp32
 70
     1
  0
ENDSEC
  0
EOF
