  0
SECTION
  2
HEADER
  9
$ACADVER
  1
AC1015
  9
$ACADMAINTVER
 70
     6
  9
$DWGCODEPAGE
  3
ANSI_932
  9
$INSBASE
 10
0.0
 20
0.0
 30
0.0
  9
$EXTMIN
 10
0.0
 20
0.0
 30
0.0
  9
$EXTMAX
 10
2100.0
 20
2970.0
 30
0.0
  9
$LIMMIN
 10
0.0
 20
0.0
  9
$LIMMAX
 10
12.0
 20
9.0
  9
$ORTHOMODE
 70
     0
  9
$REGENMODE
 70
     1
  9
$FILLMODE
 70
     1
  9
$QTEXTMODE
 70
     0
  9
$MIRRTEXT
 70
     1
  9
$LTSCALE
 40
1.0
  9
$ATTMODE
 70
     1
  9
$TEXTSIZE
 40
0.2
  9
$TRACEWID
 40
0.05
  9
$TEXTSTYLE
  7
Standard
  9
$CLAYER
  8
0
  9
$CELTYPE
  6
ByLayer
  9
$CECOLOR
 62
   256
  9
$CELTSCALE
 40
1.0
  9
$DISPSILH
 70
     0
  9
$DIMSCALE
 40
1.0
  9
$DIMASZ
 40
0.18
  9
$DIMEXO
 40
0.0625
  9
$DIMDLI
 40
0.38
  9
$DIMRND
 40
0.0
  9
$DIMDLE
 40
0.0
  9
$DIMEXE
 40
0.18
  9
$DIMTP
 40
0.0
  9
$DIMTM
 40
0.0
  9
$DIMTXT
 40
0.18
  9
$DIMCEN
 40
0.09
  9
$DIMTSZ
 40
0.0
  9
$DIMTOL
 70
     0
  9
$DIMLIM
 70
     0
  9
$DIMTIH
 70
     1
  9
$DIMTOH
 70
     1
  9
$DIMSE1
 70
     0
  9
$DIMSE2
 70
     0
  9
$DIMTAD
 70
     0
  9
$DIMZIN
 70
     0
  9
$DIMBLK
  1

  9
$DIMASO
 70
     1
  9
$DIMSHO
 70
     1
  9
$DIMPOST
  1

  9
$DIMAPOST
  1

  9
$DIMALT
 70
     0
  9
$DIMALTD
 70
     2
  9
$DIMALTF
 40
25.4
  9
$DIMLFAC
 40
1.0
  9
$DIMTOFL
 70
     0
  9
$DIMTVP
 40
0.0
  9
$DIMTIX
 70
     0
  9
$DIMSOXD
 70
     0
  9
$DIMSAH
 70
     0
  9
$DIMBLK1
  1

  9
$DIMBLK2
  1

  9
$DIMSTYLE
  2
Standard
  9
$DIMCLRD
 70
     0
  9
$DIMCLRE
 70
     0
  9
$DIMCLRT
 70
     0
  9
$DIMTFAC
 40
1.0
  9
$DIMGAP
 40
0.09
  9
$DIMJUST
 70
     0
  9
$DIMSD1
 70
     0
  9
$DIMSD2
 70
     0
  9
$DIMTOLJ
 70
     1
  9
$DIMTZIN
 70
     0
  9
$DIMALTZ
 70
     0
  9
$DIMALTTZ
 70
     0
  9
$DIMUPT
 70
     0
  9
$DIMDEC
 70
     4
  9
$DIMTDEC
 70
     4
  9
$DIMALTU
 70
     2
  9
$DIMALTTD
 70
     2
  9
$DIMTXSTY
  7
Standard
  9
$DIMAUNIT
 70
     0
  9
$DIMADEC
 70
     0
  9
$DIMALTRND
 40
0.0
  9
$DIMAZIN
 70
     0
  9
$DIMDSEP
 70
    46
  9
$DIMATFIT
 70
     3
  9
$DIMFRAC
 70
     0
  9
$DIMLDRBLK
  1

  9
$DIMLUNIT
 70
     2
  9
$DIMLWD
 70
    -2
  9
$DIMLWE
 70
    -2
  9
$DIMTMOVE
 70
     0
  9
$LUNITS
 70
     2
  9
$LUPREC
 70
     4
  9
$SKETCHINC
 40
0.1
  9
$FILLETRAD
 40
0.5
  9
$AUNITS
 70
     0
  9
$AUPREC
 70
     0
  9
$MENU
  1
.
  9
$ELEVATION
 40
0.0
  9
$PELEVATION
 40
0.0
  9
$THICKNESS
 40
0.0
  9
$LIMCHECK
 70
     0
  9
$CHAMFERA
 40
0.5
  9
$CHAMFERB
 40
0.5
  9
$CHAMFERC
 40
1.0
  9
$CHAMFERD
 40
0.0
  9
$SKPOLY
 70
     0
  9
$TDCREATE
 40
2456493.689930127
  9
$TDUCREATE
 40
2456493.314930127
  9
$TDUPDATE
 40
2456493.689931933
  9
$TDUUPDATE
 40
2456493.314931933
  9
$TDINDWG
 40
0.0000000116
  9
$TDUSRTIMER
 40
0.0000000116
  9
$USRTIMER
 70
     1
  9
$ANGBASE
 50
0.0
  9
$ANGDIR
 70
     0
  9
$PDMODE
 70
     0
  9
$PDSIZE
 40
0.0
  9
$PLINEWID
 40
0.0
  9
$SPLFRAME
 70
     0
  9
$SPLINETYPE
 70
     6
  9
$SPLINESEGS
 70
     8
  9
$HANDSEED
  5
4CC
  9
$SURFTAB1
 70
     6
  9
$SURFTAB2
 70
     6
  9
$SURFTYPE
 70
     6
  9
$SURFU
 70
     6
  9
$SURFV
 70
     6
  9
$UCSBASE
  2

  9
$UCSNAME
  2

  9
$UCSORG
 10
0.0
 20
0.0
 30
0.0
  9
$UCSXDIR
 10
1.0
 20
0.0
 30
0.0
  9
$UCSYDIR
 10
0.0
 20
1.0
 30
0.0
  9
$UCSORTHOREF
  2

  9
$UCSORTHOVIEW
 70
     0
  9
$UCSORGTOP
 10
0.0
 20
0.0
 30
0.0
  9
$UCSORGBOTTOM
 10
0.0
 20
0.0
 30
0.0
  9
$UCSORGLEFT
 10
0.0
 20
0.0
 30
0.0
  9
$UCSORGRIGHT
 10
0.0
 20
0.0
 30
0.0
  9
$UCSORGFRONT
 10
0.0
 20
0.0
 30
0.0
  9
$UCSORGBACK
 10
0.0
 20
0.0
 30
0.0
  9
$PUCSBASE
  2

  9
$PUCSNAME
  2

  9
$PUCSORG
 10
0.0
 20
0.0
 30
0.0
  9
$PUCSXDIR
 10
1.0
 20
0.0
 30
0.0
  9
$PUCSYDIR
 10
0.0
 20
1.0
 30
0.0
  9
$PUCSORTHOREF
  2

  9
$PUCSORTHOVIEW
 70
     0
  9
$PUCSORGTOP
 10
0.0
 20
0.0
 30
0.0
  9
$PUCSORGBOTTOM
 10
0.0
 20
0.0
 30
0.0
  9
$PUCSORGLEFT
 10
0.0
 20
0.0
 30
0.0
  9
$PUCSORGRIGHT
 10
0.0
 20
0.0
 30
0.0
  9
$PUCSORGFRONT
 10
0.0
 20
0.0
 30
0.0
  9
$PUCSORGBACK
 10
0.0
 20
0.0
 30
0.0
  9
$USERI1
 70
     0
  9
$USERI2
 70
     0
  9
$USERI3
 70
     0
  9
$USERI4
 70
     0
  9
$USERI5
 70
     0
  9
$USERR1
 40
18.1
  9
$USERR2
 40
0.0
  9
$USERR3
 40
0.0
  9
$USERR4
 40
0.0
  9
$USERR5
 40
0.0
  9
$WORLDVIEW
 70
     1
  9
$SHADEDGE
 70
     3
  9
$SHADEDIF
 70
    70
  9
$TILEMODE
 70
     1
  9
$MAXACTVP
 70
    64
  9
$PINSBASE
 10
0.0
 20
0.0
 30
0.0
  9
$PLIMCHECK
 70
     0
  9
$PEXTMIN
 10
1.00000000000000E+20
 20
1.00000000000000E+20
 30
1.00000000000000E+20
  9
$PEXTMAX
 10
-1.00000000000000E+20
 20
-1.00000000000000E+20
 30
-1.00000000000000E+20
  9
$PLIMMIN
 10
0.0
 20
0.0
  9
$PLIMMAX
 10
12.0
 20
9.0
  9
$UNITMODE
 70
     0
  9
$VISRETAIN
 70
     1
  9
$PLINEGEN
 70
     0
  9
$PSLTSCALE
 70
     1
  9
$TREEDEPTH
 70
  3020
  9
$CMLSTYLE
  2
Standard
  9
$CMLJUST
 70
     0
  9
$CMLSCALE
 40
1.0
  9
$PROXYGRAPHICS
 70
     1
  9
$MEASUREMENT
 70
     1
  9
$CELWEIGHT
370
    -1
  9
$ENDCAPS
280
     0
  9
$JOINSTYLE
280
     0
  9
$LWDISPLAY
290
     0
  9
$INSUNITS
 70
     4
  9
$HYPERLINKBASE
  1

  9
$STYLESHEET
  1

  9
$XEDIT
290
     1
  9
$CEPSNTYPE
380
     0
  9
$PSTYLEMODE
290
     1
  9
$FINGERPRINTGUID
  2
{162AE2DC-E584-491E-9433-3C44F7E029E5}
  9
$VERSIONGUID
  2
{FAEB1C32-E019-11D5-929B-00C0DF256EC4}
  9
$EXTNAMES
290
     1
  9
$PSVPSCALE
 40
0.0
  9
$OLESTARTUP
290
     0
  0
ENDSEC
  0
SECTION
  2
CLASSES
  0
CLASS
  1
ACDBDICTIONARYWDFLT
  2
AcDbDictionaryWithDefault
  3
ObjectDBX Classes
 90
        0
280
     0
281
     0
  0
CLASS
  1
VISUALSTYLE
  2
AcDbVisualStyle
  3
ObjectDBX Classes
 90
     4095
280
     0
281
     0
  0
CLASS
  1
MATERIAL
  2
AcDbMaterial
  3
ObjectDBX Classes
 90
     1153
280
     0
281
     0
  0
CLASS
  1
DICTIONARYVAR
  2
AcDbDictionaryVar
  3
ObjectDBX Classes
 90
        0
280
     0
281
     0
  0
CLASS
  1
ACDBPLACEHOLDER
  2
AcDbPlaceHolder
  3
ObjectDBX Classes
 90
        0
280
     0
281
     0
  0
CLASS
  1
LAYOUT
  2
AcDbLayout
  3
ObjectDBX Classes
 90
        0
280
     0
281
     0
  0
ENDSEC
  0
SECTION
  2
TABLES
  0
TABLE
  2
VPORT
  5
8
330
0
100
AcDbSymbolTable
 70
     1
  0
VPORT
  5
29
330
8
100
AcDbSymbolTableRecord
100
AcDbViewportTableRecord
  2
*Active
 70
     0
 10
0.0
 20
0.0
 11
1.0
 21
1.0
 12
1050.0
 22
1485.0
 13
0.0
 23
0.0
 14
0.5
 24
0.5
 15
0.5
 25
0.5
 16
0.0
 26
0.0
 36
1.0
 17
0.0
 27
0.0
 37
0.0
 40
3267.0
 41
1.60267857142857
 42
50.0
 43
0.0
 44
0.0
 50
0.0
 51
0.0
 71
     0
 72
   100
 73
     1
 74
     3
 75
     0
 76
     0
 77
     0
 78
     0
281
     0
 65
     1
110
0.0
120
0.0
130
0.0
111
1.0
121
0.0
131
0.0
112
0.0
122
1.0
132
0.0
 79
     0
146
0.0
  0
ENDTAB
  0
TABLE
  2
LTYPE
  5
5
330
0
100
AcDbSymbolTable
 70
     8
  0
LTYPE
  5
14
330
5
100
AcDbSymbolTableRecord
100
AcDbLinetypeTableRecord
  2
ByBlock
 70
     0
  3

 72
    65
 73
     0
 40
0.0
  0
LTYPE
  5
15
330
5
100
AcDbSymbolTableRecord
100
AcDbLinetypeTableRecord
  2
ByLayer
 70
     0
  3

 72
    65
 73
     0
 40
0.0
  0
LTYPE
  5
16
330
5
100
AcDbSymbolTableRecord
100
AcDbLinetypeTableRecord
  2
Continuous
 70
     0
  3
Solid line
 72
    65
 73
     0
 40
0.0
  0
LTYPE
  5
3F
330
5
100
AcDbSymbolTableRecord
100
AcDbLinetypeTableRecord
  2
DASHED
 70
     0
  3
Dashed
 72
    65
 73
     2
 40
15.0
 49
7.0
 74
     0
 49
-8.0
 74
     0
  0
LTYPE
  5
40
330
5
100
AcDbSymbolTableRecord
100
AcDbLinetypeTableRecord
  2
DOTTED
 70
     0
  3
Dotted
 72
    65
 73
     2
 40
1.0
 49
0.0
 74
     0
 49
-1.0
 74
     0
  0
LTYPE
  5
41
330
5
100
AcDbSymbolTableRecord
100
AcDbLinetypeTableRecord
  2
DOT_CENTER
 70
     0
  3
Dot_Center
 72
    65
 73
     4
 40
14.0
 49
12.0
 74
     0
 49
-1.0
 74
     0
 49
0.0
 74
     0
 49
-1.0
 74
     0
  0
LTYPE
  5
42
330
5
100
AcDbSymbolTableRecord
100
AcDbLinetypeTableRecord
  2
LONG_DASHED
 70
     0
  3
Long_Dashed
 72
    65
 73
     2
 40
15.0
 49
10.0
 74
     0
 49
-5.0
 74
     0
  0
LTYPE
  5
43
330
5
100
AcDbSymbolTableRecord
100
AcDbLinetypeTableRecord
  2
DASH_CENTER
 70
     0
  3
Dash_Center
 72
    65
 73
     4
 40
14.0
 49
11.0
 74
     0
 49
-1.0
 74
     0
 49
1.0
 74
     0
 49
-1.0
 74
     0
  0
LTYPE
  5
44
330
5
100
AcDbSymbolTableRecord
100
AcDbLinetypeTableRecord
  2
PHANTOM
 70
     0
  3
Phantom
 72
    65
 73
     6
 40
13.0
 49
10.0
 74
     0
 49
-1.0
 74
     0
 49
0.0
 74
     0
 49
-1.0
 74
     0
 49
0.0
 74
     0
 49
-1.0
 74
     0
  0
LTYPE
  5
45
330
5
100
AcDbSymbolTableRecord
100
AcDbLinetypeTableRecord
  2
CENTER_DASH_DASH
 70
     0
  3
Center_Dash_Dash
 72
    65
 73
     6
 40
14.0
 49
9.0
 74
     0
 49
-1.0
 74
     0
 49
1.0
 74
     0
 49
-1.0
 74
     0
 49
1.0
 74
     0
 49
-1.0
 74
     0
  0
ENDTAB
  0
TABLE
  2
LAYER
  5
2
330
0
100
AcDbSymbolTable
 70
     2
  0
LAYER
  5
10
330
2
100
AcDbSymbolTableRecord
100
AcDbLayerTableRecord
  2
0
 70
     0
 62
     7
  6
Continuous
370
    -3
390
F
  0
LAYER
  5
46
330
2
100
AcDbSymbolTableRecord
100
AcDbLayerTableRecord
  2
1
 70
     0
 62
     7
  6
Continuous
370
    -3
390
F
  0
ENDTAB
  0
TABLE
  2
STYLE
  5
3
330
0
100
AcDbSymbolTable
 70
     3
  0
STYLE
  5
11
330
3
100
AcDbSymbolTableRecord
100
AcDbTextStyleTableRecord
  2
Standard
 70
     0
 40
0.0
 41
1.0
 50
0.0
 71
     0
 42
0.2
  3
txt
  4

  0
STYLE
  5
A2
330
3
100
AcDbSymbolTableRecord
100
AcDbTextStyleTableRecord
  2
CONVERTER_11
 70
     0
 40
0.0
 41
0.89
 50
0.0
 71
     0
 42
0.2
  3
MS Mincho.ttf
  4

1001
ACAD
1000
MS Mincho
1071
    32785
  0
STYLE
  5
404
330
3
100
AcDbSymbolTableRecord
100
AcDbTextStyleTableRecord
  2
CONVERTER_12
 70
     0
 40
0.0
 41
0.9
 50
0.0
 71
     0
 42
0.2
  3
txt.shx
  4

  0
ENDTAB
  0
TABLE
  2
VIEW
  5
6
330
0
100
AcDbSymbolTable
 70
     0
  0
ENDTAB
  0
TABLE
  2
UCS
  5
7
330
0
100
AcDbSymbolTable
 70
     0
  0
ENDTAB
  0
TABLE
  2
APPID
  5
9
330
0
100
AcDbSymbolTable
 70
     1
  0
APPID
  5
12
330
9
100
AcDbSymbolTableRecord
100
AcDbRegAppTableRecord
  2
ACAD
 70
     0
  0
ENDTAB
  0
TABLE
  2
DIMSTYLE
  5
A
330
0
100
AcDbSymbolTable
 70
    12
100
AcDbDimStyleTable
  0
DIMSTYLE
105
27
330
A
100
AcDbSymbolTableRecord
100
AcDbDimStyleTableRecord
  2
Standard
 70
     0
178
     0
340
11
  0
DIMSTYLE
105
41B
102
{ACAD_REACTORS
330
41C
102
}
330
A
100
AcDbSymbolTableRecord
100
AcDbDimStyleTableRecord
  2
ME10_DIM_10
 70
     0
 41
35.0
 42
0.0
 44
10.0
 77
     1
 78
     8
140
35.0
147
10.0
172
     1
173
     1
174
     1
175
     1
176
     2
177
     2
271
     2
178
     7
271
     2
340
404
  0
DIMSTYLE
105
426
102
{ACAD_REACTORS
330
427
102
}
330
A
100
AcDbSymbolTableRecord
100
AcDbDimStyleTableRecord
  2
ME10_DIM_11
 70
     0
 41
35.0
 42
0.0
 44
10.0
 73
     0
 74
     0
 77
     1
 78
     8
140
35.0
147
10.0
172
     1
173
     1
174
     1
175
     1
176
     2
177
     2
271
     2
178
     7
271
     2
340
404
  0
DIMSTYLE
105
433
102
{ACAD_REACTORS
330
434
102
}
330
A
100
AcDbSymbolTableRecord
100
AcDbDimStyleTableRecord
  2
ME10_DIM_12
 70
     0
 41
35.0
 42
0.0
 44
10.0
 73
     0
 74
     0
 77
     1
 78
     8
140
35.0
147
10.0
172
     1
173
     1
174
     1
175
     1
176
     2
177
     2
271
     2
178
     7
271
     2
340
404
  0
DIMSTYLE
105
43E
102
{ACAD_REACTORS
330
43F
102
}
330
A
100
AcDbSymbolTableRecord
100
AcDbDimStyleTableRecord
  2
ME10_DIM_13
 70
     0
 41
35.0
 42
0.0
 44
10.0
 73
     0
 74
     0
 77
     1
 78
     8
140
35.0
147
10.0
172
     1
173
     1
174
     1
175
     1
176
     2
177
     2
271
     2
178
     7
271
     2
340
404
  0
DIMSTYLE
105
449
102
{ACAD_REACTORS
330
44A
102
}
330
A
100
AcDbSymbolTableRecord
100
AcDbDimStyleTableRecord
  2
ME10_DIM_14
 70
     0
 41
35.0
 42
0.0
 44
10.0
 73
     0
 74
     0
 77
     1
 78
     8
140
35.0
147
10.0
172
     1
173
     1
174
     1
175
     1
176
     2
177
     2
271
     2
178
     7
271
     2
340
404
  0
DIMSTYLE
105
454
102
{ACAD_REACTORS
330
455
102
}
330
A
100
AcDbSymbolTableRecord
100
AcDbDimStyleTableRecord
  2
ME10_DIM_15
 70
     0
 41
35.0
 42
0.0
 44
10.0
 73
     0
 74
     0
 77
     1
 78
     8
140
35.0
147
10.0
172
     1
173
     1
174
     1
175
     1
176
     2
177
     2
271
     2
178
     7
271
     2
340
404
  0
DIMSTYLE
105
45F
102
{ACAD_REACTORS
330
460
102
}
330
A
100
AcDbSymbolTableRecord
100
AcDbDimStyleTableRecord
  2
ME10_DIM_16
 70
     0
 41
35.0
 42
0.0
 44
10.0
 73
     0
 74
     0
 77
     1
 78
     8
140
35.0
147
10.0
172
     1
173
     1
174
     1
175
     1
176
     2
177
     2
271
     2
178
     7
271
     2
340
404
  0
DIMSTYLE
105
46A
102
{ACAD_REACTORS
330
46B
102
}
330
A
100
AcDbSymbolTableRecord
100
AcDbDimStyleTableRecord
  2
ME10_DIM_17
 70
     0
 41
35.0
 42
0.0
 44
10.0
 73
     0
 74
     0
 77
     1
 78
     8
140
35.0
147
10.0
172
     1
173
     1
174
     1
175
     1
176
     2
177
     2
271
     2
178
     7
271
     2
340
A2
  0
DIMSTYLE
105
475
102
{ACAD_REACTORS
330
476
102
}
330
A
100
AcDbSymbolTableRecord
100
AcDbDimStyleTableRecord
  2
ME10_DIM_18
 70
     0
 41
35.0
 42
0.0
 44
10.0
 73
     0
 74
     0
 77
     1
 78
     8
140
35.0
147
10.0
172
     1
173
     1
174
     1
175
     1
176
     2
177
     2
271
     2
178
     7
271
     2
340
A2
  0
DIMSTYLE
105
480
102
{ACAD_REACTORS
330
481
102
}
330
A
100
AcDbSymbolTableRecord
100
AcDbDimStyleTableRecord
  2
ME10_DIM_19
 70
     0
 41
35.0
 42
0.0
 44
10.0
 73
     0
 74
     0
 77
     1
 78
     8
140
35.0
147
10.0
172
     1
173
     1
174
     1
175
     1
176
     2
177
     2
271
     2
178
     7
271
     2
340
404
  0
DIMSTYLE
105
48C
102
{ACAD_REACTORS
330
48D
102
}
330
A
100
AcDbSymbolTableRecord
100
AcDbDimStyleTableRecord
  2
ME10_DIM_20
 70
     0
  3
{\Fgdt;n}<>
 41
35.0
 42
0.0
 44
10.0
 77
     1
 78
     8
140
35.0
147
10.0
172
     1
173
     1
174
     1
175
     1
176
     2
177
     2
271
     2
178
     7
271
     2
340
404
  0
ENDTAB
  0
TABLE
  2
BLOCK_RECORD
  5
1
330
0
100
AcDbSymbolTable
 70
    18
  0
BLOCK_RECORD
  5
1F
330
1
100
AcDbSymbolTableRecord
100
AcDbBlockTableRecord
  2
*Model_Space
340
22
  0
BLOCK_RECORD
  5
1B
330
1
100
AcDbSymbolTableRecord
100
AcDbBlockTableRecord
  2
*Paper_Space
340
1E
  0
BLOCK_RECORD
  5
23
330
1
100
AcDbSymbolTableRecord
100
AcDbBlockTableRecord
  2
*Paper_Space0
340
26
  0
BLOCK_RECORD
  5
47
330
1
100
AcDbSymbolTableRecord
100
AcDbBlockTableRecord
  2
開示A4
340
0
102
{BLKREFS
331
54
102
}
  0
BLOCK_RECORD
  5
4A
330
1
100
AcDbSymbolTableRecord
100
AcDbBlockTableRecord
  2
88-366
340
0
102
{BLKREFS
331
4E
102
}
  0
BLOCK_RECORD
  5
4D
330
1
100
AcDbSymbolTableRecord
100
AcDbBlockTableRecord
  2
V275TUV-13-P5__1
340
0
102
{BLKREFS
331
55
102
}
  0
BLOCK_RECORD
  5
51
330
1
100
AcDbSymbolTableRecord
100
AcDbBlockTableRecord
  2
V275TUV-13-P5__2
340
0
102
{BLKREFS
331
56
102
}
  0
BLOCK_RECORD
  5
410
330
1
100
AcDbSymbolTableRecord
100
AcDbBlockTableRecord
  2
*D5
340
0
  0
BLOCK_RECORD
  5
41D
330
1
100
AcDbSymbolTableRecord
100
AcDbBlockTableRecord
  2
*D6
340
0
  0
BLOCK_RECORD
  5
428
330
1
100
AcDbSymbolTableRecord
100
AcDbBlockTableRecord
  2
*D7
340
0
  0
BLOCK_RECORD
  5
435
330
1
100
AcDbSymbolTableRecord
100
AcDbBlockTableRecord
  2
*D8
340
0
  0
BLOCK_RECORD
  5
440
330
1
100
AcDbSymbolTableRecord
100
AcDbBlockTableRecord
  2
*D9
340
0
  0
BLOCK_RECORD
  5
44B
330
1
100
AcDbSymbolTableRecord
100
AcDbBlockTableRecord
  2
*D10
340
0
  0
BLOCK_RECORD
  5
456
330
1
100
AcDbSymbolTableRecord
100
AcDbBlockTableRecord
  2
*D11
340
0
  0
BLOCK_RECORD
  5
461
330
1
100
AcDbSymbolTableRecord
100
AcDbBlockTableRecord
  2
*D12
340
0
  0
BLOCK_RECORD
  5
46C
330
1
100
AcDbSymbolTableRecord
100
AcDbBlockTableRecord
  2
*D13
340
0
  0
BLOCK_RECORD
  5
477
330
1
100
AcDbSymbolTableRecord
100
AcDbBlockTableRecord
  2
*D14
340
0
  0
BLOCK_RECORD
  5
482
330
1
100
AcDbSymbolTableRecord
100
AcDbBlockTableRecord
  2
*D15
340
0
  0
BLOCK_RECORD
  5
48E
330
1
100
AcDbSymbolTableRecord
100
AcDbBlockTableRecord
  2
*D16
340
0
102
{BLKREFS
331
495
102
}
  0
BLOCK_RECORD
  5
496
330
1
100
AcDbSymbolTableRecord
100
AcDbBlockTableRecord
  2
*D17
340
0
102
{BLKREFS
331
49D
102
}
  0
ENDTAB
  0
ENDSEC
  0
SECTION
  2
BLOCKS
  0
BLOCK
  5
20
330
1F
100
AcDbEntity
  8
0
100
AcDbBlockBegin
  2
*Model_Space
 70
     0
 10
0.0
 20
0.0
 30
0.0
  3
*Model_Space
  1

  0
ENDBLK
  5
21
330
1F
100
AcDbEntity
  8
0
100
AcDbBlockEnd
  0
BLOCK
  5
1C
330
1B
100
AcDbEntity
 67
     1
  8
0
100
AcDbBlockBegin
  2
*Paper_Space
 70
     0
 10
0.0
 20
0.0
 30
0.0
  3
*Paper_Space
  1

  0
ENDBLK
  5
1D
330
1B
100
AcDbEntity
 67
     1
  8
0
100
AcDbBlockEnd
  0
BLOCK
  5
24
330
23
100
AcDbEntity
  8
0
100
AcDbBlockBegin
  2
*Paper_Space0
 70
     0
 10
0.0
 20
0.0
 30
0.0
  3
*Paper_Space0
  1

  0
ENDBLK
  5
25
330
23
100
AcDbEntity
  8
0
100
AcDbBlockEnd
  0
BLOCK
  5
48
330
47
100
AcDbEntity
  8
0
100
AcDbBlockBegin
  2
開示A4
 70
     0
 10
0.0
 20
0.0
 30
0.0
  3
開示A4
  1

  0
POINT
  5
57
330
47
100
AcDbEntity
  8
1
 62
     4
100
AcDbPoint
 10
93.75
 20
17.0
 30
0.0
  0
POINT
  5
58
330
47
100
AcDbEntity
  8
1
 62
     4
100
AcDbPoint
 10
85.25
 20
17.0
 30
0.0
  0
POINT
  5
59
330
47
100
AcDbEntity
  8
1
 62
     4
100
AcDbPoint
 10
106.5
 20
19.00000000000001
 30
0.0
  0
POINT
  5
5A
330
47
100
AcDbEntity
  8
1
 62
     4
100
AcDbPoint
 10
106.5
 20
12.5
 30
0.0
  0
POINT
  5
5B
330
47
100
AcDbEntity
  8
1
 62
     4
100
AcDbPoint
 10
112.25
 20
12.5
 30
0.0
  0
POINT
  5
5C
330
47
100
AcDbEntity
  8
1
 62
     4
100
AcDbPoint
 10
100.75
 20
12.5
 30
0.0
  0
POINT
  5
5D
330
47
100
AcDbEntity
  8
1
 62
     4
100
AcDbPoint
 10
123.5
 20
19.00000000000001
 30
0.0
  0
POINT
  5
5E
330
47
100
AcDbEntity
  8
1
 62
     4
100
AcDbPoint
 10
123.5
 20
12.5
 30
0.0
  0
POINT
  5
5F
330
47
100
AcDbEntity
  8
1
 62
     4
100
AcDbPoint
 10
129.25
 20
12.5
 30
0.0
  0
POINT
  5
60
330
47
100
AcDbEntity
  8
1
 62
     4
100
AcDbPoint
 10
117.75
 20
12.5
 30
0.0
  0
POINT
  5
61
330
47
100
AcDbEntity
  8
1
 62
     4
100
AcDbPoint
 10
140.5
 20
19.00000000000001
 30
0.0
  0
POINT
  5
62
330
47
100
AcDbEntity
  8
1
 62
     4
100
AcDbPoint
 10
140.5
 20
12.5
 30
0.0
  0
POINT
  5
63
330
47
100
AcDbEntity
  8
1
 62
     4
100
AcDbPoint
 10
146.25
 20
12.5
 30
0.0
  0
POINT
  5
64
330
47
100
AcDbEntity
  8
1
 62
     4
100
AcDbPoint
 10
134.75
 20
12.5
 30
0.0
  0
POINT
  5
65
330
47
100
AcDbEntity
  8
1
 62
     4
100
AcDbPoint
 10
151.75
 20
12.5
 30
0.0
  0
POINT
  5
66
330
47
100
AcDbEntity
  8
1
 62
     4
100
AcDbPoint
 10
163.25
 20
12.5
 30
0.0
  0
POINT
  5
67
330
47
100
AcDbEntity
  8
1
 62
     4
100
AcDbPoint
 10
157.5
 20
12.5
 30
0.0
  0
POINT
  5
68
330
47
100
AcDbEntity
  8
1
 62
     4
100
AcDbPoint
 10
57.0
 20
14.25
 30
0.0
  0
POINT
  5
69
330
47
100
AcDbEntity
  8
1
 62
     4
100
AcDbPoint
 10
57.0
 20
22.75000000000001
 30
0.0
  0
POINT
  5
6A
330
47
100
AcDbEntity
  8
1
 62
     4
100
AcDbPoint
 10
47.5
 20
282.0000000000003
 30
0.0
  0
POINT
  5
6B
330
47
100
AcDbEntity
  8
1
 62
     4
100
AcDbPoint
 10
157.5
 20
19.00000000000001
 30
0.0
  0
POINT
  5
6C
330
47
100
AcDbEntity
  8
1
 62
     4
100
AcDbPoint
 10
57.0
 20
16.25
 30
0.0
  0
POINT
  5
6D
330
47
100
AcDbEntity
  8
1
 62
     4
100
AcDbPoint
 10
57.0
 20
24.75000000000001
 30
0.0
  0
POINT
  5
6E
330
47
100
AcDbEntity
  8
1
 62
     4
100
AcDbPoint
 10
57.0
 20
20.75000000000001
 30
0.0
  0
POINT
  5
6F
330
47
100
AcDbEntity
  8
1
 62
     4
100
AcDbPoint
 10
57.0
 20
12.25
 30
0.0
  0
POINT
  5
70
330
47
100
AcDbEntity
  8
1
 62
     4
100
AcDbPoint
 10
34.0
 20
34.00000000000001
 30
0.0
  0
LINE
  5
71
330
47
100
AcDbEntity
  8
1
  6
Continuous
 62
     7
100
AcDbLine
 10
105.0
 20
10.0
 30
0.0
 11
200.0
 21
10.0
 31
0.0
  0
LINE
  5
72
330
47
100
AcDbEntity
  8
1
  6
Continuous
 62
     2
100
AcDbLine
 10
105.0
 20
10.0
 30
0.0
 11
105.0
 21
5.0
 31
0.0
  0
LINE
  5
73
330
47
100
AcDbEntity
  8
1
  6
Continuous
 62
     7
100
AcDbLine
 10
200.0
 20
148.5
 30
0.0
 11
200.0
 21
287.0000000000003
 31
0.0
  0
LINE
  5
74
330
47
100
AcDbEntity
  8
1
  6
Continuous
 62
     2
100
AcDbLine
 10
200.0
 20
148.5
 30
0.0
 11
205.0
 21
148.5
 31
0.0
  0
LINE
  5
75
330
47
100
AcDbEntity
  8
1
  6
Continuous
 62
     7
100
AcDbLine
 10
25.0
 20
148.5
 30
0.0
 11
25.0
 21
287.0000000000003
 31
0.0
  0
LINE
  5
76
330
47
100
AcDbEntity
  8
1
  6
Continuous
 62
     2
100
AcDbLine
 10
25.0
 20
148.5
 30
0.0
 11
20.0
 21
148.5
 31
0.0
  0
LINE
  5
77
330
47
100
AcDbEntity
  8
1
  6
Continuous
 62
     7
100
AcDbLine
 10
105.0
 20
287.0000000000003
 30
0.0
 11
25.0
 21
287.0000000000003
 31
0.0
  0
LINE
  5
78
330
47
100
AcDbEntity
  8
1
  6
Continuous
 62
     2
100
AcDbLine
 10
105.0
 20
287.0000000000003
 30
0.0
 11
105.0
 21
292.0000000000003
 31
0.0
  0
LINE
  5
79
330
47
100
AcDbEntity
  8
1
  6
Continuous
 62
     2
100
AcDbLine
 10
166.0
 20
20.00000000000001
 30
0.0
 11
200.0
 21
20.00000000000001
 31
0.0
  0
LINE
  5
7A
330
47
100
AcDbEntity
  8
1
  6
Continuous
 62
     2
100
AcDbLine
 10
98.0
 20
27.00000000000001
 30
0.0
 11
98.0
 21
9.99999999999999
 31
0.0
  0
LINE
  5
7B
330
47
100
AcDbEntity
  8
1
  6
Continuous
 62
     2
100
AcDbLine
 10
115.0
 20
27.00000000000001
 30
0.0
 11
115.0
 21
9.99999999999999
 31
0.0
  0
LINE
  5
7C
330
47
100
AcDbEntity
  8
1
  6
Continuous
 62
     2
100
AcDbLine
 10
149.0
 20
27.00000000000001
 30
0.0
 11
149.0
 21
10.0
 31
0.0
  0
LINE
  5
7D
330
47
100
AcDbEntity
  8
1
  6
Continuous
 62
     2
100
AcDbLine
 10
132.0
 20
27.00000000000001
 30
0.0
 11
132.0
 21
9.99999999999999
 31
0.0
  0
LINE
  5
7E
330
47
100
AcDbEntity
  8
1
  6
Continuous
 62
     2
100
AcDbLine
 10
166.0
 20
27.00000000000001
 30
0.0
 11
166.0
 21
10.0
 31
0.0
  0
LINE
  5
7F
330
47
100
AcDbEntity
  8
1
  6
Continuous
 62
     2
100
AcDbLine
 10
55.0
 20
277.0000000000003
 30
0.0
 11
25.0
 21
277.0000000000003
 31
0.0
  0
LINE
  5
80
330
47
100
AcDbEntity
  8
1
  6
Continuous
 62
     7
100
AcDbLine
 10
25.0
 20
10.0
 30
0.0
 11
25.0
 21
148.5
 31
0.0
  0
LINE
  5
81
330
47
100
AcDbEntity
  8
1
  6
Continuous
 62
     2
100
AcDbLine
 10
40.0
 20
287.0000000000003
 30
0.0
 11
40.0
 21
277.0000000000003
 31
0.0
  0
LINE
  5
82
330
47
100
AcDbEntity
  8
1
  6
Continuous
 62
     2
100
AcDbLine
 10
55.0
 20
287.0000000000003
 30
0.0
 11
55.0
 21
277.0000000000003
 31
0.0
  0
LINE
  5
83
330
47
100
AcDbEntity
  8
1
  6
Continuous
 62
     2
100
AcDbLine
 10
33.0
 20
41.00000000000001
 30
0.0
 11
33.0
 21
27.0
 31
0.0
  0
LINE
  5
84
330
47
100
AcDbEntity
  8
1
  6
Continuous
 62
     7
100
AcDbLine
 10
200.0
 20
27.00000000000001
 30
0.0
 11
25.0
 21
27.00000000000001
 31
0.0
  0
LINE
  5
85
330
47
100
AcDbEntity
  8
1
  6
Continuous
 62
     7
100
AcDbLine
 10
25.0
 20
41.0
 30
0.0
 11
200.0
 21
41.0
 31
0.0
  0
LINE
  5
86
330
47
100
AcDbEntity
  8
1
  6
PHANTOM
 62
     4
100
AcDbLine
 10
0.0
 20
0.0
 30
0.0
 11
210.0
 21
0.0
 31
0.0
  0
LINE
  5
87
330
47
100
AcDbEntity
  8
1
  6
PHANTOM
 62
     4
100
AcDbLine
 10
210.0
 20
0.0
 30
0.0
 11
210.0
 21
297.0
 31
0.0
  0
LINE
  5
88
330
47
100
AcDbEntity
  8
1
  6
PHANTOM
 62
     4
100
AcDbLine
 10
210.0
 20
297.0
 30
0.0
 11
0.0
 21
297.0
 31
0.0
  0
LINE
  5
89
330
47
100
AcDbEntity
  8
1
  6
PHANTOM
 62
     4
100
AcDbLine
 10
0.0
 20
297.0
 30
0.0
 11
0.0
 21
0.0
 31
0.0
  0
LINE
  5
8A
330
47
100
AcDbEntity
  8
1
  6
Continuous
 62
     7
100
AcDbLine
 10
25.0
 20
10.0
 30
0.0
 11
105.0
 21
10.0
 31
0.0
  0
LINE
  5
8B
330
47
100
AcDbEntity
  8
1
  6
Continuous
 62
     7
100
AcDbLine
 10
200.0
 20
10.0
 30
0.0
 11
200.0
 21
148.5
 31
0.0
  0
LINE
  5
8C
330
47
100
AcDbEntity
  8
1
  6
Continuous
 62
     7
100
AcDbLine
 10
200.0
 20
287.0000000000003
 30
0.0
 11
105.0
 21
287.0000000000003
 31
0.0
  0
LINE
  5
8D
330
47
100
AcDbEntity
  8
1
  6
Continuous
 62
     2
100
AcDbLine
 10
25.0
 20
18.50000000000001
 30
0.0
 11
81.0
 21
18.50000000000001
 31
0.0
  0
LINE
  5
8E
330
47
100
AcDbEntity
  8
1
  6
Continuous
 62
     2
100
AcDbLine
 10
33.0
 20
27.0
 30
0.0
 11
33.0
 21
10.0
 31
0.0
  0
LINE
  5
8F
330
47
100
AcDbEntity
  8
1
  6
Continuous
 62
     7
100
AcDbLine
 10
191.0
 20
24.70000000000001
 30
0.0
 11
191.0
 21
22.30000000000001
 31
0.0
  0
LINE
  5
90
330
47
100
AcDbEntity
  8
1
  6
Continuous
 62
     7
100
AcDbLine
 10
191.0
 20
24.70000000000001
 30
0.0
 11
196.0
 21
25.50000000000001
 31
0.0
  0
LINE
  5
91
330
47
100
AcDbEntity
  8
1
  6
Continuous
 62
     7
100
AcDbLine
 10
196.0
 20
25.50000000000001
 30
0.0
 11
196.0
 21
21.50000000000001
 31
0.0
  0
LINE
  5
92
330
47
100
AcDbEntity
  8
1
  6
Continuous
 62
     7
100
AcDbLine
 10
196.0
 20
21.50000000000001
 30
0.0
 11
191.0
 21
22.30000000000001
 31
0.0
  0
LINE
  5
93
330
47
100
AcDbEntity
  8
1
  6
DOT_CENTER
 62
     2
100
AcDbLine
 10
184.0
 20
23.50000000000001
 30
0.0
 11
197.0
 21
23.50000000000001
 31
0.0
  0
LINE
  5
94
330
47
100
AcDbEntity
  8
1
  6
DOT_CENTER
 62
     2
100
AcDbLine
 10
187.0
 20
26.50000000000001
 30
0.0
 11
187.0
 21
20.50000000000001
 31
0.0
  0
LINE
  5
95
330
47
100
AcDbEntity
  8
1
  6
Continuous
 62
     2
100
AcDbLine
 10
81.0
 20
27.00000000000001
 30
0.0
 11
81.0
 21
10.0
 31
0.0
  0
CIRCLE
  5
96
330
47
100
AcDbEntity
  8
1
  6
Continuous
 62
     7
100
AcDbCircle
 10
103.5
 20
12.5
 30
0.0
 40
0.2999999999999972
  0
CIRCLE
  5
97
330
47
100
AcDbEntity
  8
1
  6
Continuous
 62
     7
100
AcDbCircle
 10
109.5
 20
12.5
 30
0.0
 40
0.2999999999999972
  0
CIRCLE
  5
98
330
47
100
AcDbEntity
  8
1
  6
Continuous
 62
     7
100
AcDbCircle
 10
120.5
 20
12.5
 30
0.0
 40
0.2999999999999972
  0
CIRCLE
  5
99
330
47
100
AcDbEntity
  8
1
  6
Continuous
 62
     7
100
AcDbCircle
 10
126.5
 20
12.5
 30
0.0
 40
0.2999999999999972
  0
CIRCLE
  5
9A
330
47
100
AcDbEntity
  8
1
  6
Continuous
 62
     7
100
AcDbCircle
 10
137.5
 20
12.5
 30
0.0
 40
0.3000000000000114
  0
CIRCLE
  5
9B
330
47
100
AcDbEntity
  8
1
  6
Continuous
 62
     7
100
AcDbCircle
 10
143.5
 20
12.5
 30
0.0
 40
0.3000000000000114
  0
CIRCLE
  5
9C
330
47
100
AcDbEntity
  8
1
  6
Continuous
 62
     7
100
AcDbCircle
 10
160.5
 20
12.5
 30
0.0
 40
0.3000000000000114
  0
CIRCLE
  5
9D
330
47
100
AcDbEntity
  8
1
  6
Continuous
 62
     7
100
AcDbCircle
 10
154.5
 20
12.5
 30
0.0
 40
0.3000000000000114
  0
CIRCLE
  5
9E
330
47
100
AcDbEntity
  8
1
  6
Continuous
 62
     7
100
AcDbCircle
 10
187.0
 20
23.50000000000001
 30
0.0
 40
1.200000000000102
  0
CIRCLE
  5
9F
330
47
100
AcDbEntity
  8
1
  6
Continuous
 62
     7
100
AcDbCircle
 10
187.0
 20
23.50000000000001
 30
0.0
 40
2.0
  0
CIRCLE
  5
A0
330
47
100
AcDbEntity
  8
1
  6
DOT_CENTER
 62
     7
100
AcDbCircle
 10
89.5
 20
16.0
 30
0.0
 40
0.1000000000000227
  0
CIRCLE
  5
A1
330
47
100
AcDbEntity
  8
1
  6
DOT_CENTER
 62
     7
100
AcDbCircle
 10
89.5
 20
18.0
 30
0.0
 40
0.1000000000000227
  0
MTEXT
  5
A3
330
47
100
AcDbEntity
  8
1
 62
     7
100
AcDbMText
 10
188.5
 20
15.0
 30
0.0
 40
3.0
 41
0.0
 71
     5
 72
     1
  1
三栄水栓製作所
  7
CONVERTER_11
 73
     1
 44
1.0
  0
MTEXT
  5
A4
330
47
100
AcDbEntity
  8
1
 62
     7
100
AcDbMText
 10
171.5
 20
15.0
 30
0.0
 40
2.5
 41
0.0
 71
     5
 72
     1
  1
株式会社
  7
CONVERTER_11
 73
     1
 44
1.0
  0
MTEXT
  5
A5
330
47
100
AcDbEntity
  8
1
 62
     2
100
AcDbMText
 10
32.5
 20
282.0000000000003
 30
0.0
 40
5.0
 41
0.0
 71
     5
 72
     1
  1
図番
  7
CONVERTER_11
 73
     1
 44
0.45454545454545
  0
MTEXT
  5
A6
330
47
100
AcDbEntity
  8
1
 62
     2
100
AcDbMText
 10
29.0
 20
34.00000000000001
 30
0.0
 40
3.5
 41
0.0
 71
     5
 72
     1
  1
備考
  7
CONVERTER_11
 73
     1
 44
0.45454545454545
  0
MTEXT
  5
A7
330
47
100
AcDbEntity
  8
1
 62
     2
100
AcDbMText
 10
29.0
 20
22.75
 30
0.0
 40
3.5
 41
0.0
 71
     5
 72
     1
  1
品名
  7
CONVERTER_11
 73
     1
 44
0.72727272727273
  0
MTEXT
  5
A8
330
47
100
AcDbEntity
  8
1
 62
     2
100
AcDbMText
 10
29.0
 20
14.25
 30
0.0
 40
3.5
 41
0.0
 71
     5
 72
     1
  1
品番
  7
CONVERTER_11
 73
     1
 44
0.72727272727273
  0
MTEXT
  5
A9
330
47
100
AcDbEntity
  8
1
 62
     2
100
AcDbMText
 10
101.5
 20
25.00000000000001
 30
0.0
 40
3.0
 41
0.0
 71
     5
 72
     1
  1
承認
  7
CONVERTER_11
 73
     1
 44
0.59090909090909
  0
MTEXT
  5
AA
330
47
100
AcDbEntity
  8
1
 62
     2
100
AcDbMText
 10
175.0
 20
23.50000000000001
 30
0.0
 40
3.5
 41
0.0
 71
     5
 72
     1
  1
第三角法
  7
CONVERTER_11
 73
     1
 44
0.54545454545455
  0
MTEXT
  5
AB
330
47
100
AcDbEntity
  8
1
 62
     2
100
AcDbMText
 10
118.5
 20
25.00000000000001
 30
0.0
 40
3.0
 41
0.0
 71
     5
 72
     1
  1
検図
  7
CONVERTER_11
 73
     1
 44
0.59090909090909
  0
MTEXT
  5
AC
330
47
100
AcDbEntity
  8
1
 62
     2
100
AcDbMText
 10
152.5
 20
25.00000000000001
 30
0.0
 40
3.0
 41
0.0
 71
     5
 72
     1
  1
設計
  7
CONVERTER_11
 73
     1
 44
0.59090909090909
  0
MTEXT
  5
AD
330
47
100
AcDbEntity
  8
1
 62
     2
100
AcDbMText
 10
135.5
 20
25.00000000000001
 30
0.0
 40
3.0
 41
0.0
 71
     5
 72
     1
  1
製図
  7
CONVERTER_11
 73
     1
 44
0.59090909090909
  0
MTEXT
  5
AE
330
47
100
AcDbEntity
  8
1
 62
     2
100
AcDbMText
 10
89.5
 20
24.00000000000001
 30
0.0
 40
3.5
 41
0.0
 71
     5
 72
     1
  1
尺度
  7
CONVERTER_11
 73
     1
 44
0.54545454545455
  0
MTEXT
  5
AF
330
47
100
AcDbEntity
  8
1
 62
   250
100
AcDbMText
 10
25.0
 20
5.0
 30
0.0
 40
3.5
 41
0.0
 71
     4
 72
     1
  1
備考欄の文字列 原点位置=4
  7
CONVERTER_11
 73
     1
 44
0.54545454545455
  0
ENDBLK
  5
49
330
47
100
AcDbEntity
  8
0
100
AcDbBlockEnd
  0
BLOCK
  5
4B
330
4A
100
AcDbEntity
  8
0
100
AcDbBlockBegin
  2
88-366
 70
     0
 10
10117.18684801084
 20
3555.073400073438
 30
0.0
  3
88-366
  1

  0
LINE
  5
B0
330
4A
100
AcDbEntity
  8
1
  6
DASH_CENTER
 62
     2
100
AcDbLine
 10
1735.384121746342
 20
1462.502037653585
 30
0.0
 11
1844.884121746342
 21
1462.502037653585
 31
0.0
  0
LINE
  5
B1
330
4A
100
AcDbEntity
  8
1
  6
DASH_CENTER
 62
     2
100
AcDbLine
 10
1866.87572542461
 20
1462.502037653585
 30
0.0
 11
1720.905719424611
 21
1462.502037653585
 31
0.0
  0
ENDBLK
  5
4C
330
4A
100
AcDbEntity
  8
0
100
AcDbBlockEnd
  0
BLOCK
  5
4F
330
4D
100
AcDbEntity
  8
0
100
AcDbBlockBegin
  2
V275TUV-13-P5__1
 70
     0
 10
9375.85506488729
 20
8343.109607246208
 30
0.0
  3
V275TUV-13-P5__1
  1

  0
INSERT
  5
4E
330
4D
100
AcDbEntity
  8
0
100
AcDbBlockReference
  2
88-366
 10
10117.18684801084
 20
3555.073400073437
 30
0.0
 41
1.0
 42
1.0
 43
1.0
  0
ENDBLK
  5
50
330
4D
100
AcDbEntity
  8
0
100
AcDbBlockEnd
  0
BLOCK
  5
52
330
51
100
AcDbEntity
  8
0
100
AcDbBlockBegin
  2
V275TUV-13-P5__2
 70
     0
 10
-282.0627728576769
 20
4480.240153629817
 30
0.0
  3
V275TUV-13-P5__2
  1

  0
LINE
  5
B2
330
51
100
AcDbEntity
  8
0
  6
Continuous
 62
     7
100
AcDbLine
 10
1469.378378213652
 20
1455.002037653584
 30
0.0
 11
1467.378378213652
 21
1455.002037653584
 31
0.0
  0
LINE
  5
B3
330
51
100
AcDbEntity
  8
0
  6
Continuous
 62
     7
100
AcDbLine
 10
1466.378378213652
 20
1456.002037653584
 30
0.0
 11
1466.378378213652
 21
1464.352037653584
 31
0.0
  0
LINE
  5
B4
330
51
100
AcDbEntity
  8
0
  6
Continuous
 62
     7
100
AcDbLine
 10
1470.378378213652
 20
1456.002037653584
 30
0.0
 11
1470.378378213652
 21
1464.352037653584
 31
0.0
  0
LINE
  5
B5
330
51
100
AcDbEntity
  8
0
  6
Continuous
 62
     7
100
AcDbLine
 10
1466.378378213652
 20
1456.002037653584
 30
0.0
 11
1470.378378213652
 21
1456.002037653584
 31
0.0
  0
LINE
  5
B6
330
51
100
AcDbEntity
  8
0
  6
Continuous
 62
     7
100
AcDbLine
 10
1466.378378213652
 20
1461.002037653584
 30
0.0
 11
1470.378378213652
 21
1461.002037653584
 31
0.0
  0
LINE
  5
B7
330
51
100
AcDbEntity
  8
0
  6
Continuous
 62
     7
100
AcDbLine
 10
1469.378378213652
 20
1455.002037653584
 30
0.0
 11
1470.378378213652
 21
1456.002037653584
 31
0.0
  0
LINE
  5
B8
330
51
100
AcDbEntity
  8
0
  6
Continuous
 62
     7
100
AcDbLine
 10
1467.378378213652
 20
1455.002037653584
 30
0.0
 11
1466.378378213652
 21
1456.002037653584
 31
0.0
  0
LINE
  5
B9
330
51
100
AcDbEntity
  8
0
  6
Continuous
 62
     7
100
AcDbLine
 10
1470.378378213652
 20
1464.352037653584
 30
0.0
 11
1470.178378213655
 21
1464.552037653584
 31
0.0
  0
LINE
  5
BA
330
51
100
AcDbEntity
  8
0
  6
Continuous
 62
     7
100
AcDbLine
 10
1466.378378213652
 20
1464.352037653584
 30
0.0
 11
1466.578378213653
 21
1464.552037653584
 31
0.0
  0
LINE
  5
BB
330
51
100
AcDbEntity
  8
0
  6
Continuous
 62
     7
100
AcDbLine
 10
1467.878378213652
 20
1466.520664620181
 30
0.0
 11
1467.878378213652
 21
1461.002037653584
 31
0.0
  0
LINE
  5
BC
330
51
100
AcDbEntity
  8
0
  6
Continuous
 62
     7
100
AcDbLine
 10
1468.878378213652
 20
1466.520664620181
 30
0.0
 11
1468.878378213652
 21
1461.002037653584
 31
0.0
  0
LINE
  5
BD
330
51
100
AcDbEntity
  8
0
  6
Continuous
 62
     7
100
AcDbLine
 10
1467.878378213652
 20
1465.252037653584
 30
0.0
 11
1468.878378213652
 21
1465.252037653584
 31
0.0
  0
LINE
  5
BE
330
51
100
AcDbEntity
  8
0
  6
Continuous
 62
     7
100
AcDbLine
 10
1467.878378213652
 20
1461.959976670779
 30
0.0
 11
1468.878378213652
 21
1461.959976670779
 31
0.0
  0
LINE
  5
BF
330
51
100
AcDbEntity
  8
0
  6
Continuous
 62
     7
100
AcDbLine
 10
1466.578378213653
 20
1464.552037653584
 30
0.0
 11
1467.578378213653
 21
1464.552037653584
 31
0.0
  0
LINE
  5
C0
330
51
100
AcDbEntity
  8
0
  6
Continuous
 62
     7
100
AcDbLine
 10
1469.178378213652
 20
1464.552037653584
 30
0.0
 11
1470.178378213655
 21
1464.552037653584
 31
0.0
  0
LINE
  5
C1
330
51
100
AcDbEntity
  8
0
  6
PHANTOM
 62
     7
100
AcDbLine
 10
1470.378378213652
 20
1463.052037653584
 30
0.0
 11
1472.34700518025
 21
1463.052037653584
 31
0.0
  0
LINE
  5
C2
330
51
100
AcDbEntity
  8
0
  6
PHANTOM
 62
     7
100
AcDbLine
 10
1471.078378213653
 20
1462.052037653584
 30
0.0
 11
1472.34700518025
 21
1462.052037653584
 31
0.0
  0
LINE
  5
C3
330
51
100
AcDbEntity
  8
0
  6
Continuous
 62
     7
100
AcDbLine
 10
1471.078378213653
 20
1463.052037653584
 30
0.0
 11
1471.078378213653
 21
1459.426835168291
 31
0.0
  0
LINE
  5
C4
330
51
100
AcDbEntity
  8
0
  6
Continuous
 62
     7
100
AcDbLine
 10
1470.378378213652
 20
1459.426835168291
 30
0.0
 11
1471.078378213653
 21
1459.426835168291
 31
0.0
  0
LINE
  5
C5
330
51
100
AcDbEntity
  8
0
  6
Continuous
 62
     7
100
AcDbLine
 10
1471.078378213653
 20
1460.157570619541
 30
0.0
 11
1470.378378213652
 21
1460.157570619541
 31
0.0
  0
LINE
  5
C6
330
51
100
AcDbEntity
  8
0
  6
PHANTOM
 62
     7
100
AcDbLine
 10
1466.378378213652
 20
1463.052037653584
 30
0.0
 11
1464.409751247058
 21
1463.052037653584
 31
0.0
  0
LINE
  5
C7
330
51
100
AcDbEntity
  8
0
  6
PHANTOM
 62
     4
100
AcDbLine
 10
1465.678378213652
 20
1462.052037653584
 30
0.0
 11
1464.409751247058
 21
1462.052037653584
 31
0.0
  0
LINE
  5
C8
330
51
100
AcDbEntity
  8
0
  6
Continuous
 62
     7
100
AcDbLine
 10
1465.678378213652
 20
1463.052037653584
 30
0.0
 11
1465.678378213652
 21
1459.426835168291
 31
0.0
  0
LINE
  5
C9
330
51
100
AcDbEntity
  8
0
  6
Continuous
 62
     7
100
AcDbLine
 10
1466.378378213652
 20
1459.426835168291
 30
0.0
 11
1465.678378213652
 21
1459.426835168291
 31
0.0
  0
LINE
  5
CA
330
51
100
AcDbEntity
  8
0
  6
Continuous
 62
     7
100
AcDbLine
 10
1465.678378213652
 20
1460.157570619541
 30
0.0
 11
1466.378378213652
 21
1460.157570619541
 31
0.0
  0
LINE
  5
CB
330
51
100
AcDbEntity
  8
0
  6
PHANTOM
 62
     4
100
AcDbLine
 10
1475.338083667189
 20
1463.302037653584
 30
0.0
 11
1474.280920039004
 21
1463.302037653584
 31
0.0
  0
LINE
  5
CC
330
51
100
AcDbEntity
  8
0
  6
PHANTOM
 62
     4
100
AcDbLine
 10
1475.338083667189
 20
1461.802037653584
 30
0.0
 11
1474.280920039004
 21
1461.802037653584
 31
0.0
  0
LINE
  5
CD
330
51
100
AcDbEntity
  8
0
  6
PHANTOM
 62
     4
100
AcDbLine
 10
1461.418672760115
 20
1463.302037653584
 30
0.0
 11
1462.458707614711
 21
1463.302037653584
 31
0.0
  0
LINE
  5
CE
330
51
100
AcDbEntity
  8
0
  6
PHANTOM
 62
     4
100
AcDbLine
 10
1461.418672760115
 20
1461.802037653584
 30
0.0
 11
1462.475836388305
 21
1461.802037653584
 31
0.0
  0
LINE
  5
CF
330
51
100
AcDbEntity
  8
1
  6
Continuous
 62
     7
100
AcDbLine
 10
1451.878378213661
 20
897.5020376535838
 30
0.0
 11
1451.878378213651
 21
897.5020376535917
 31
0.0
  0
LINE
  5
D0
330
51
100
AcDbEntity
  8
1
  6
Continuous
 62
     7
100
AcDbLine
 10
1451.878378213651
 20
903.5020376535838
 30
0.0
 11
1451.878378213651
 21
902.5020376535838
 31
0.0
  0
LINE
  5
D1
330
51
100
AcDbEntity
  8
1
  6
Continuous
 62
     7
100
AcDbLine
 10
1482.378378213656
 20
908.5020376535847
 30
0.0
 11
1454.378378213656
 21
908.5020376535847
 31
0.0
  0
LINE
  5
D2
330
51
100
AcDbEntity
  8
1
  6
Continuous
 62
     7
100
AcDbLine
 10
1482.378378213656
 20
908.5020376535847
 30
0.0
 11
1482.378378213656
 21
907.5020376535838
 31
0.0
  0
LINE
  5
D3
330
51
100
AcDbEntity
  8
1
  6
Continuous
 62
     7
100
AcDbLine
 10
1454.378378213656
 20
908.5020376535847
 30
0.0
 11
1454.378378213656
 21
907.5020376535838
 31
0.0
  0
LINE
  5
D4
330
51
100
AcDbEntity
  8
1
  6
Continuous
 62
     7
100
AcDbLine
 10
1491.729501656473
 20
890.2587089436688
 30
0.0
 11
1482.048167074022
 21
887.5657084764766
 31
0.0
  0
LINE
  5
D5
330
51
100
AcDbEntity
  8
0
  6
Continuous
 62
     7
100
AcDbLine
 10
1492.378378213656
 20
892.5020376535838
 30
0.0
 11
1492.378378213656
 21
891.1950381207778
 31
0.0
  0
LINE
  5
D6
330
51
100
AcDbEntity
  8
1
  6
Continuous
 62
     7
100
AcDbLine
 10
1482.048167074022
 20
887.5657084764766
 30
0.0
 11
1481.878378213656
 21
887.5020376535838
 31
0.0
  0
LINE
  5
D7
330
51
100
AcDbEntity
  8
1
  6
Continuous
 62
     7
100
AcDbLine
 10
1481.878378213656
 20
887.5020376535838
 30
0.0
 11
1481.697043631205
 21
887.5020376535838
 31
0.0
  0
LINE
  5
D8
330
51
100
AcDbEntity
  8
0
  6
Continuous
 62
     7
100
AcDbLine
 10
1476.771679213657
 20
890.5020376535838
 30
0.0
 11
1476.771679213657
 21
892.5020376535838
 31
0.0
  0
LINE
  5
D9
330
51
100
AcDbEntity
  8
0
  6
Continuous
 62
     7
100
AcDbLine
 10
1468.378378213656
 20
891.5020376535838
 30
0.0
 11
1476.771679213657
 21
890.5020376535838
 31
0.0
  0
LINE
  5
DA
330
51
100
AcDbEntity
  8
0
  6
Continuous
 62
     7
100
AcDbLine
 10
1468.378378213656
 20
891.5020376535838
 30
0.0
 11
1476.771679213657
 21
892.5020376535838
 31
0.0
  0
LINE
  5
DB
330
51
100
AcDbEntity
  8
0
  6
Continuous
 62
     7
100
AcDbLine
 10
1481.697043631205
 20
887.5020376535838
 30
0.0
 11
1479.107517598767
 21
887.5020376535838
 31
0.0
  0
LINE
  5
DC
330
51
100
AcDbEntity
  8
1
  6
Continuous
 62
     7
100
AcDbLine
 10
1477.147753213657
 20
871.5020376535838
 30
0.0
 11
1468.378378213656
 21
871.5020376535838
 31
0.0
  0
LINE
  5
DD
330
51
100
AcDbEntity
  8
1
  6
Continuous
 62
     7
100
AcDbLine
 10
1468.378378213656
 20
873.0020376535838
 30
0.0
 11
1477.485753213655
 21
873.0020376535838
 31
0.0
  0
LINE
  5
DE
330
51
100
AcDbEntity
  8
1
  6
Continuous
 62
     7
100
AcDbLine
 10
1479.100878213657
 20
887.5020376535838
 30
0.0
 11
1479.034384014608
 21
885.0042232840287
 31
0.0
  0
LINE
  5
DF
330
51
100
AcDbEntity
  8
1
  6
Continuous
 62
     7
100
AcDbLine
 10
1477.872384014606
 20
885.0042232840287
 30
0.0
 11
1479.100878213657
 21
887.5020376535838
 31
0.0
  0
LINE
  5
E0
330
51
100
AcDbEntity
  8
1
  6
Continuous
 62
     7
100
AcDbLine
 10
1468.378378213656
 20
885.0042232840287
 30
0.0
 11
1477.872384014606
 21
885.0042232840287
 31
0.0
  0
LINE
  5
E1
330
51
100
AcDbEntity
  8
1
  6
Continuous
 62
     7
100
AcDbLine
 10
1477.448269342687
 20
871.8025537826168
 30
0.0
 11
1477.147753213657
 21
871.5020376535838
 31
0.0
  0
LINE
  5
E2
330
51
100
AcDbEntity
  8
1
  6
Continuous
 62
     7
100
AcDbLine
 10
1477.485753213655
 20
873.0020376535838
 30
0.0
 11
1477.448269342687
 21
871.8025537826168
 31
0.0
  0
LINE
  5
E3
330
51
100
AcDbEntity
  8
1
  6
Continuous
 62
     7
100
AcDbLine
 10
1478.647753213657
 20
873.0020376535838
 30
0.0
 11
1477.448269342687
 21
871.8025537826168
 31
0.0
  0
LINE
  5
E4
330
51
100
AcDbEntity
  8
1
  6
Continuous
 62
     7
100
AcDbLine
 10
1477.485753213655
 20
873.0020376535838
 30
0.0
 11
1478.647753213657
 21
873.0020376535838
 31
0.0
  0
LINE
  5
E5
330
51
100
AcDbEntity
  8
1
  6
Continuous
 62
     7
100
AcDbLine
 10
1477.872384014606
 20
885.0042232840287
 30
0.0
 11
1477.485753213655
 21
873.0020376535838
 31
0.0
  0
LINE
  5
E6
330
51
100
AcDbEntity
  8
1
  6
Continuous
 62
     7
100
AcDbLine
 10
1479.034384014608
 20
885.0042232840287
 30
0.0
 11
1477.872384014606
 21
885.0042232840287
 31
0.0
  0
LINE
  5
E7
330
51
100
AcDbEntity
  8
1
  6
Continuous
 62
     7
100
AcDbLine
 10
1477.142479828792
 20
887.5020376535838
 30
0.0
 11
1479.073298508789
 21
887.5020376535838
 31
0.0
  0
LINE
  5
E8
330
51
100
AcDbEntity
  8
1
  6
Continuous
 62
     7
100
AcDbLine
 10
1477.142479828792
 20
887.5020376535838
 30
0.0
 11
1479.073298508789
 21
887.5020376535838
 31
0.0
  0
LINE
  5
E9
330
51
100
AcDbEntity
  8
1
  6
Continuous
 62
     7
100
AcDbLine
 10
1474.250174983379
 20
887.5020376535838
 30
0.0
 11
1477.142479828792
 21
887.5020376535838
 31
0.0
  0
LINE
  5
EA
330
51
100
AcDbEntity
  8
1
  6
Continuous
 62
     7
100
AcDbLine
 10
1474.250174983379
 20
887.5020376535838
 30
0.0
 11
1477.142479828792
 21
887.5020376535838
 31
0.0
  0
LINE
  5
EB
330
51
100
AcDbEntity
  8
1
  6
Continuous
 62
     7
100
AcDbLine
 10
1468.378378213656
 20
887.5020376535838
 30
0.0
 11
1474.250174983379
 21
887.5020376535838
 31
0.0
  0
LINE
  5
EC
330
51
100
AcDbEntity
  8
1
  6
Continuous
 62
     7
100
AcDbLine
 10
1479.034384014608
 20
885.0042232840287
 30
0.0
 11
1478.647753213657
 21
873.0020376535838
 31
0.0
  0
LINE
  5
ED
330
51
100
AcDbEntity
  8
0
  6
Continuous
 62
     7
100
AcDbLine
 10
1444.657441078764
 20
890.5020376535838
 30
0.0
 11
1492.378378213656
 21
890.5020376535838
 31
0.0
  0
LINE
  5
EE
330
51
100
AcDbEntity
  8
1
  6
Continuous
 62
     7
100
AcDbLine
 10
1454.708589321366
 20
887.5657084764766
 30
0.0
 11
1445.02725477084
 21
890.2587089436688
 31
0.0
  0
LINE
  5
EF
330
51
100
AcDbEntity
  8
0
  6
Continuous
 62
     7
100
AcDbLine
 10
1444.378378213656
 20
892.5020376535838
 30
0.0
 11
1451.378377791467
 21
892.5020376535838
 31
0.0
  0
LINE
  5
F0
330
51
100
AcDbEntity
  8
0
  6
Continuous
 62
     7
100
AcDbLine
 10
1444.378378213656
 20
891.1950381207778
 30
0.0
 11
1444.378378213656
 21
892.5020376535838
 31
0.0
  0
LINE
  5
F1
330
51
100
AcDbEntity
  8
1
  6
Continuous
 62
     7
100
AcDbLine
 10
1454.878378181733
 20
887.5020376535838
 30
0.0
 11
1454.708589321366
 21
887.5657084764766
 31
0.0
  0
LINE
  5
F2
330
51
100
AcDbEntity
  8
1
  6
Continuous
 62
     7
100
AcDbLine
 10
1455.059712764182
 20
887.5020376535838
 30
0.0
 11
1454.878378181733
 21
887.5020376535838
 31
0.0
  0
LINE
  5
F3
330
51
100
AcDbEntity
  8
0
  6
Continuous
 62
     7
100
AcDbLine
 10
1459.985077213656
 20
892.5020376535838
 30
0.0
 11
1459.985077213656
 21
890.5020376535838
 31
0.0
  0
LINE
  5
F4
330
51
100
AcDbEntity
  8
0
  6
Continuous
 62
     7
100
AcDbLine
 10
1459.985077213656
 20
890.5020376535838
 30
0.0
 11
1468.378378213656
 21
891.5020376535838
 31
0.0
  0
LINE
  5
F5
330
51
100
AcDbEntity
  8
0
  6
Continuous
 62
     7
100
AcDbLine
 10
1459.985077213656
 20
892.5020376535838
 30
0.0
 11
1468.378378213656
 21
891.5020376535838
 31
0.0
  0
LINE
  5
F6
330
51
100
AcDbEntity
  8
0
  6
Continuous
 62
     7
100
AcDbLine
 10
1457.649238828545
 20
887.5020376535838
 30
0.0
 11
1455.059712764182
 21
887.5020376535838
 31
0.0
  0
LINE
  5
F7
330
51
100
AcDbEntity
  8
1
  6
Continuous
 62
     7
100
AcDbLine
 10
1468.378378213656
 20
871.5020376535838
 30
0.0
 11
1459.609003213656
 21
871.5020376535838
 31
0.0
  0
LINE
  5
F8
330
51
100
AcDbEntity
  8
1
  6
Continuous
 62
     7
100
AcDbLine
 10
1459.271003213656
 20
873.0020376535838
 30
0.0
 11
1468.378378213656
 21
873.0020376535838
 31
0.0
  0
LINE
  5
F9
330
51
100
AcDbEntity
  8
1
  6
Continuous
 62
     7
100
AcDbLine
 10
1457.722372412705
 20
885.0042232840287
 30
0.0
 11
1457.655878213656
 21
887.5020376535838
 31
0.0
  0
LINE
  5
FA
330
51
100
AcDbEntity
  8
1
  6
Continuous
 62
     7
100
AcDbLine
 10
1457.655878213656
 20
887.5020376535838
 30
0.0
 11
1458.884372412706
 21
885.0042232840287
 31
0.0
  0
LINE
  5
FB
330
51
100
AcDbEntity
  8
1
  6
Continuous
 62
     7
100
AcDbLine
 10
1458.884372412706
 20
885.0042232840287
 30
0.0
 11
1468.378378213656
 21
885.0042232840287
 31
0.0
  0
LINE
  5
FC
330
51
100
AcDbEntity
  8
1
  6
Continuous
 62
     7
100
AcDbLine
 10
1459.609003213656
 20
871.5020376535838
 30
0.0
 11
1459.308487084624
 21
871.8025537826168
 31
0.0
  0
LINE
  5
FD
330
51
100
AcDbEntity
  8
1
  6
Continuous
 62
     7
100
AcDbLine
 10
1459.308487084624
 20
871.8025537826168
 30
0.0
 11
1459.271003213656
 21
873.0020376535838
 31
0.0
  0
LINE
  5
FE
330
51
100
AcDbEntity
  8
1
  6
Continuous
 62
     7
100
AcDbLine
 10
1459.308487084624
 20
871.8025537826168
 30
0.0
 11
1458.109003213656
 21
873.0020376535838
 31
0.0
  0
LINE
  5
FF
330
51
100
AcDbEntity
  8
1
  6
Continuous
 62
     7
100
AcDbLine
 10
1458.109003213656
 20
873.0020376535838
 30
0.0
 11
1459.271003213656
 21
873.0020376535838
 31
0.0
  0
LINE
  5
100
330
51
100
AcDbEntity
  8
1
  6
Continuous
 62
     7
100
AcDbLine
 10
1459.271003213656
 20
873.0020376535838
 30
0.0
 11
1458.884372412706
 21
885.0042232840287
 31
0.0
  0
LINE
  5
101
330
51
100
AcDbEntity
  8
1
  6
Continuous
 62
     7
100
AcDbLine
 10
1458.884372412706
 20
885.0042232840287
 30
0.0
 11
1457.722372412705
 21
885.0042232840287
 31
0.0
  0
LINE
  5
102
330
51
100
AcDbEntity
  8
1
  6
Continuous
 62
     7
100
AcDbLine
 10
1468.378378213656
 20
887.7072492317968
 30
0.0
 11
1468.378378213656
 21
887.5020376535838
 31
0.0
  0
LINE
  5
103
330
51
100
AcDbEntity
  8
1
  6
Continuous
 62
     7
100
AcDbLine
 10
1457.683457918523
 20
887.5020376535838
 30
0.0
 11
1459.614276598519
 21
887.5020376535838
 31
0.0
  0
LINE
  5
104
330
51
100
AcDbEntity
  8
1
  6
Continuous
 62
     7
100
AcDbLine
 10
1468.378378213656
 20
887.7072492317968
 30
0.0
 11
1468.378378213656
 21
887.5020376535838
 31
0.0
  0
LINE
  5
105
330
51
100
AcDbEntity
  8
1
  6
Continuous
 62
     7
100
AcDbLine
 10
1457.683457918523
 20
887.5020376535838
 30
0.0
 11
1459.614276598519
 21
887.5020376535838
 31
0.0
  0
LINE
  5
106
330
51
100
AcDbEntity
  8
1
  6
Continuous
 62
     7
100
AcDbLine
 10
1459.614276598519
 20
887.5020376535838
 30
0.0
 11
1462.506581443932
 21
887.5020376535838
 31
0.0
  0
LINE
  5
107
330
51
100
AcDbEntity
  8
1
  6
Continuous
 62
     7
100
AcDbLine
 10
1459.614276598519
 20
887.5020376535838
 30
0.0
 11
1462.506581443932
 21
887.5020376535838
 31
0.0
  0
LINE
  5
108
330
51
100
AcDbEntity
  8
1
  6
Continuous
 62
     7
100
AcDbLine
 10
1462.506581443932
 20
887.5020376535838
 30
0.0
 11
1468.378378213656
 21
887.5020376535838
 31
0.0
  0
LINE
  5
109
330
51
100
AcDbEntity
  8
1
  6
Continuous
 62
     7
100
AcDbLine
 10
1458.109003213656
 20
873.0020376535838
 30
0.0
 11
1457.722372412705
 21
885.0042232840287
 31
0.0
  0
LINE
  5
10A
330
51
100
AcDbEntity
  8
0
  6
Continuous
 62
     7
100
AcDbLine
 10
1481.568378213656
 20
893.5020376535838
 30
0.0
 11
1481.568378213656
 21
903.5020376535847
 31
0.0
  0
LINE
  5
10B
330
51
100
AcDbEntity
  8
1
  6
Continuous
 62
     7
100
AcDbLine
 10
1455.188378213656
 20
909.3120376535858
 30
0.0
 11
1454.378378213656
 21
908.5020376535847
 31
0.0
  0
LINE
  5
10C
330
51
100
AcDbEntity
  8
1
  6
Continuous
 62
     7
100
AcDbLine
 10
1455.378378213656
 20
909.5020376535847
 30
0.0
 11
1455.188378213656
 21
909.3120376535858
 31
0.0
  0
LINE
  5
10D
330
51
100
AcDbEntity
  8
1
  6
Continuous
 62
     7
100
AcDbLine
 10
1481.568378213656
 20
909.3120376535858
 30
0.0
 11
1481.378378213656
 21
909.5020376535847
 31
0.0
  0
LINE
  5
10E
330
51
100
AcDbEntity
  8
1
  6
Continuous
 62
     7
100
AcDbLine
 10
1457.900878213656
 20
914.6438956552947
 30
0.0
 11
1457.900878213656
 21
912.6640376535847
 31
0.0
  0
LINE
  5
10F
330
51
100
AcDbEntity
  8
1
  6
Continuous
 62
     7
100
AcDbLine
 10
1458.214351554661
 20
909.5020376535847
 30
0.0
 11
1459.128378213656
 21
909.5020376535847
 31
0.0
  0
LINE
  5
110
330
51
100
AcDbEntity
  8
1
  6
Continuous
 62
     7
100
AcDbLine
 10
1459.078378213657
 20
911.5020376535847
 30
0.0
 11
1459.062878213657
 21
911.5020376535847
 31
0.0
  0
LINE
  5
111
330
51
100
AcDbEntity
  8
1
  6
Continuous
 62
     7
100
AcDbLine
 10
1457.920878213656
 20
909.5020376535847
 30
0.0
 11
1459.062878213657
 21
909.5020376535847
 31
0.0
  0
LINE
  5
112
330
51
100
AcDbEntity
  8
1
  6
Continuous
 62
     7
100
AcDbLine
 10
1459.062878213657
 20
909.5020376535847
 30
0.0
 11
1459.128378213656
 21
909.5020376535847
 31
0.0
  0
LINE
  5
113
330
51
100
AcDbEntity
  8
1
  6
Continuous
 62
     7
100
AcDbLine
 10
1459.062878213657
 20
911.5020376535847
 30
0.0
 11
1459.128378213656
 21
911.5020376535847
 31
0.0
  0
LINE
  5
114
330
51
100
AcDbEntity
  8
1
  6
Continuous
 62
     7
100
AcDbLine
 10
1459.062878213657
 20
911.5020376535847
 30
0.0
 11
1459.062878213657
 21
912.6640376535847
 31
0.0
  0
LINE
  5
115
330
51
100
AcDbEntity
  8
0
  6
Continuous
 62
     7
100
AcDbLine
 10
1459.062878213657
 20
911.5020376535847
 30
0.0
 11
1457.900878213656
 21
912.6640376535847
 31
0.0
  0
LINE
  5
116
330
51
100
AcDbEntity
  8
1
  6
Continuous
 62
     7
100
AcDbLine
 10
1457.900878213656
 20
912.6640376535847
 30
0.0
 11
1468.378378213656
 21
912.6640376535847
 31
0.0
  0
LINE
  5
117
330
51
100
AcDbEntity
  8
1
  6
Continuous
 62
     7
100
AcDbLine
 10
1459.062878213657
 20
912.6640376535847
 30
0.0
 11
1459.062878213657
 21
914.6438956552947
 31
0.0
  0
LINE
  5
118
330
51
100
AcDbEntity
  8
1
  6
Continuous
 62
     7
100
AcDbLine
 10
1459.128378213656
 20
909.5020376535847
 30
0.0
 11
1459.128378213656
 21
911.5020376535847
 31
0.0
  0
LINE
  5
119
330
51
100
AcDbEntity
  8
1
  6
Continuous
 62
     7
100
AcDbLine
 10
1459.128378213656
 20
909.5020376535847
 30
0.0
 11
1468.378378213656
 21
909.5020376535847
 31
0.0
  0
LINE
  5
11A
330
51
100
AcDbEntity
  8
1
  6
Continuous
 62
     7
100
AcDbLine
 10
1459.128378213656
 20
909.5020376535847
 30
0.0
 11
1468.378378213656
 21
909.5020376535847
 31
0.0
  0
LINE
  5
11B
330
51
100
AcDbEntity
  8
1
  6
Continuous
 62
     7
100
AcDbLine
 10
1459.128378213656
 20
911.5020376535847
 30
0.0
 11
1468.378378213656
 21
911.5020376535847
 31
0.0
  0
LINE
  5
11C
330
51
100
AcDbEntity
  8
0
  6
Continuous
 62
     7
100
AcDbLine
 10
1459.128378213656
 20
909.5020376535847
 30
0.0
 11
1468.378378213656
 21
909.5020376535847
 31
0.0
  0
LINE
  5
11D
330
51
100
AcDbEntity
  8
0
  6
Continuous
 62
     7
100
AcDbLine
 10
1455.378378213656
 20
909.5020376535847
 30
0.0
 11
1459.128378213656
 21
909.5020376535847
 31
0.0
  0
LINE
  5
11E
330
51
100
AcDbEntity
  8
1
  6
Continuous
 62
     7
100
AcDbLine
 10
1477.628378213656
 20
909.5020376535847
 30
0.0
 11
1478.542404872652
 21
909.5020376535847
 31
0.0
  0
LINE
  5
11F
330
51
100
AcDbEntity
  8
1
  6
Continuous
 62
     7
100
AcDbLine
 10
1477.693878213656
 20
911.5020376535847
 30
0.0
 11
1477.678378213658
 21
911.5020376535847
 31
0.0
  0
LINE
  5
120
330
51
100
AcDbEntity
  8
1
  6
Continuous
 62
     7
100
AcDbLine
 10
1477.693878213656
 20
909.5020376535847
 30
0.0
 11
1478.835878213656
 21
909.5020376535847
 31
0.0
  0
LINE
  5
121
330
51
100
AcDbEntity
  8
1
  6
Continuous
 62
     7
100
AcDbLine
 10
1477.628378213656
 20
909.5020376535847
 30
0.0
 11
1477.693878213656
 21
909.5020376535847
 31
0.0
  0
LINE
  5
122
330
51
100
AcDbEntity
  8
1
  6
Continuous
 62
     7
100
AcDbLine
 10
1477.628378213656
 20
911.5020376535847
 30
0.0
 11
1477.693878213656
 21
911.5020376535847
 31
0.0
  0
LINE
  5
123
330
51
100
AcDbEntity
  8
1
  6
Continuous
 62
     7
100
AcDbLine
 10
1477.693878213656
 20
912.6640376535847
 30
0.0
 11
1477.693878213656
 21
911.5020376535847
 31
0.0
  0
LINE
  5
124
330
51
100
AcDbEntity
  8
1
  6
Continuous
 62
     7
100
AcDbLine
 10
1478.855878213658
 20
912.6640376535847
 30
0.0
 11
1478.855878213658
 21
914.6438956552947
 31
0.0
  0
LINE
  5
125
330
51
100
AcDbEntity
  8
0
  6
Continuous
 62
     7
100
AcDbLine
 10
1478.855878213658
 20
912.6640376535847
 30
0.0
 11
1477.693878213656
 21
911.5020376535847
 31
0.0
  0
LINE
  5
126
330
51
100
AcDbEntity
  8
1
  6
Continuous
 62
     7
100
AcDbLine
 10
1468.378378213656
 20
912.6640376535847
 30
0.0
 11
1478.855878213658
 21
912.6640376535847
 31
0.0
  0
LINE
  5
127
330
51
100
AcDbEntity
  8
1
  6
Continuous
 62
     7
100
AcDbLine
 10
1477.693878213656
 20
914.6438956552947
 30
0.0
 11
1477.693878213656
 21
912.6640376535847
 31
0.0
  0
LINE
  5
128
330
51
100
AcDbEntity
  8
1
  6
Continuous
 62
     7
100
AcDbLine
 10
1477.628378213656
 20
911.5020376535847
 30
0.0
 11
1477.628378213656
 21
909.5020376535847
 31
0.0
  0
LINE
  5
129
330
51
100
AcDbEntity
  8
1
  6
Continuous
 62
     7
100
AcDbLine
 10
1468.378378213656
 20
909.5020376535847
 30
0.0
 11
1477.628378213656
 21
909.5020376535847
 31
0.0
  0
LINE
  5
12A
330
51
100
AcDbEntity
  8
1
  6
Continuous
 62
     7
100
AcDbLine
 10
1468.378378213656
 20
909.5020376535847
 30
0.0
 11
1477.628378213656
 21
909.5020376535847
 31
0.0
  0
LINE
  5
12B
330
51
100
AcDbEntity
  8
1
  6
Continuous
 62
     7
100
AcDbLine
 10
1468.378378213656
 20
911.5020376535847
 30
0.0
 11
1477.628378213656
 21
911.5020376535847
 31
0.0
  0
LINE
  5
12C
330
51
100
AcDbEntity
  8
0
  6
Continuous
 62
     7
100
AcDbLine
 10
1468.378378213656
 20
909.5020376535847
 30
0.0
 11
1477.628378213656
 21
909.5020376535847
 31
0.0
  0
LINE
  5
12D
330
51
100
AcDbEntity
  8
0
  6
Continuous
 62
     7
100
AcDbLine
 10
1477.628378213656
 20
909.5020376535847
 30
0.0
 11
1481.378378213656
 21
909.5020376535847
 31
0.0
  0
LINE
  5
12E
330
51
100
AcDbEntity
  8
1
  6
Continuous
 62
     7
100
AcDbLine
 10
1482.378378213656
 20
908.5020376535847
 30
0.0
 11
1481.568378213656
 21
909.3120376535858
 31
0.0
  0
LINE
  5
12F
330
51
100
AcDbEntity
  8
1
  6
Continuous
 62
     7
100
AcDbLine
 10
1451.878378213651
 20
897.5020376535917
 30
0.0
 11
1451.878378213651
 21
943.5020376535838
 31
0.0
  0
LINE
  5
130
330
51
100
AcDbEntity
  8
1
  6
Continuous
 62
     7
100
AcDbLine
 10
1484.878378213651
 20
897.5020376535917
 30
0.0
 11
1484.87837821365
 21
943.5020376535838
 31
0.0
  0
LINE
  5
131
330
51
100
AcDbEntity
  8
1
  6
Continuous
 62
     7
100
AcDbLine
 10
1500.282501417354
 20
897.5020376535917
 30
0.0
 11
1484.878378213651
 21
897.5020376535917
 31
0.0
  0
LINE
  5
132
330
51
100
AcDbEntity
  8
1
  6
Continuous
 62
     7
100
AcDbLine
 10
1435.981851133443
 20
898.0888617424248
 30
0.0
 11
1453.707679647431
 21
998.6170307314728
 31
0.0
  0
LINE
  5
133
330
51
100
AcDbEntity
  8
1
  6
Continuous
 62
     7
100
AcDbLine
 10
1483.049076779872
 20
998.6170307314728
 30
0.0
 11
1500.77490529386
 21
898.0888617424248
 31
0.0
  0
LINE
  5
134
330
51
100
AcDbEntity
  8
0
  6
Continuous
 62
     7
100
AcDbLine
 10
1466.378378213656
 20
1021.529378864539
 30
0.0
 11
1466.378378213656
 21
1032.19938486454
 31
0.0
  0
LINE
  5
135
330
51
100
AcDbEntity
  8
0
  6
Continuous
 62
     7
100
AcDbLine
 10
1466.578378213657
 20
1021.529378864539
 30
0.0
 11
1466.578378213657
 21
1032.39938486454
 31
0.0
  0
LINE
  5
136
330
51
100
AcDbEntity
  8
0
  6
Continuous
 62
     7
100
AcDbLine
 10
1467.878378213656
 20
1021.529378864539
 30
0.0
 11
1467.878378213656
 21
1032.39938486454
 31
0.0
  0
LINE
  5
137
330
51
100
AcDbEntity
  8
0
  6
Continuous
 62
     7
100
AcDbLine
 10
1468.878378213656
 20
1021.529378864539
 30
0.0
 11
1468.878378213656
 21
1032.39938486454
 31
0.0
  0
LINE
  5
138
330
51
100
AcDbEntity
  8
0
  6
Continuous
 62
     7
100
AcDbLine
 10
1470.178378213658
 20
1021.529378864539
 30
0.0
 11
1470.178378213658
 21
1032.39938486454
 31
0.0
  0
LINE
  5
139
330
51
100
AcDbEntity
  8
0
  6
Continuous
 62
     7
100
AcDbLine
 10
1470.378378213656
 20
1021.529378864539
 30
0.0
 11
1470.378378213656
 21
1032.19938486454
 31
0.0
  0
LINE
  5
13A
330
51
100
AcDbEntity
  8
0
  6
Continuous
 62
     7
100
AcDbLine
 10
1471.078378213657
 20
1031.106036740814
 30
0.0
 11
1471.078378213657
 21
1021.529378864539
 31
0.0
  0
LINE
  5
13B
330
51
100
AcDbEntity
  8
0
  6
Continuous
 62
     7
100
AcDbLine
 10
1466.578378213657
 20
1032.39938486454
 30
0.0
 11
1470.178378213658
 21
1032.39938486454
 31
0.0
  0
LINE
  5
13C
330
51
100
AcDbEntity
  8
0
  6
Continuous
 62
     7
100
AcDbLine
 10
1470.178378213658
 20
1032.39938486454
 30
0.0
 11
1470.378378213656
 21
1032.19938486454
 31
0.0
  0
LINE
  5
13D
330
51
100
AcDbEntity
  8
0
  6
Continuous
 62
     7
100
AcDbLine
 10
1466.378378213656
 20
1032.19938486454
 30
0.0
 11
1466.578378213657
 21
1032.39938486454
 31
0.0
  0
LINE
  5
13E
330
51
100
AcDbEntity
  8
0
  6
Continuous
 62
     7
100
AcDbLine
 10
1467.878378213656
 20
1028.875488601256
 30
0.0
 11
1468.878378213656
 21
1028.875488601256
 31
0.0
  0
LINE
  5
13F
330
51
100
AcDbEntity
  8
0
  6
Continuous
 62
     7
100
AcDbLine
 10
1468.878378213656
 20
1028.613345895219
 30
0.0
 11
1470.378378213656
 21
1028.613345895219
 31
0.0
  0
LINE
  5
140
330
51
100
AcDbEntity
  8
0
  6
Continuous
 62
     7
100
AcDbLine
 10
1466.378378213656
 20
1028.613345895219
 30
0.0
 11
1467.878378213656
 21
1028.613345895219
 31
0.0
  0
LINE
  5
141
330
51
100
AcDbEntity
  8
0
  6
Continuous
 62
     7
100
AcDbLine
 10
1465.678378213658
 20
1031.106036740814
 30
0.0
 11
1465.678378213658
 21
1021.529378864539
 31
0.0
  0
LINE
  5
142
330
51
100
AcDbEntity
  8
0
  6
Continuous
 62
     7
100
AcDbLine
 10
1466.378378213656
 20
1031.106036740814
 30
0.0
 11
1465.678378213658
 21
1031.106036740814
 31
0.0
  0
LINE
  5
143
330
51
100
AcDbEntity
  8
0
  6
Continuous
 62
     7
100
AcDbLine
 10
1466.378378213656
 20
1028.007734000149
 30
0.0
 11
1465.678378213658
 21
1028.007734000149
 31
0.0
  0
LINE
  5
144
330
51
100
AcDbEntity
  8
0
  6
Continuous
 62
     7
100
AcDbLine
 10
1470.378378213656
 20
1031.106036740814
 30
0.0
 11
1471.078378213657
 21
1031.106036740814
 31
0.0
  0
LINE
  5
145
330
51
100
AcDbEntity
  8
0
  6
Continuous
 62
     7
100
AcDbLine
 10
1470.378378213656
 20
1028.007734000149
 30
0.0
 11
1471.078378213657
 21
1028.007734000149
 31
0.0
  0
LINE
  5
146
330
51
100
AcDbEntity
  8
1
  6
Continuous
 62
     7
100
AcDbLine
 10
1468.378378213661
 20
999.0302066426398
 30
0.0
 11
1489.878378213659
 21
999.0302066426298
 31
0.0
  0
LINE
  5
147
330
51
100
AcDbEntity
  8
1
  6
Continuous
 62
     7
100
AcDbLine
 10
1488.878378213658
 20
1001.53020664263
 30
0.0
 11
1468.378378213656
 21
1001.53020664263
 31
0.0
  0
LINE
  5
148
330
51
100
AcDbEntity
  8
1
  6
Continuous
 62
     7
100
AcDbLine
 10
1490.378378213656
 20
999.5302066426277
 30
0.0
 11
1490.378378213666
 21
1000.030206642643
 31
0.0
  0
LINE
  5
149
330
51
100
AcDbEntity
  8
1
  6
Continuous
 62
     7
100
AcDbLine
 10
1446.878378213654
 20
999.0302066426298
 30
0.0
 11
1468.378378213651
 21
999.0302066426398
 31
0.0
  0
LINE
  5
14A
330
51
100
AcDbEntity
  8
1
  6
Continuous
 62
     7
100
AcDbLine
 10
1468.378378213656
 20
1001.53020664263
 30
0.0
 11
1447.878378213654
 21
1001.53020664263
 31
0.0
  0
LINE
  5
14B
330
51
100
AcDbEntity
  8
1
  6
Continuous
 62
     7
100
AcDbLine
 10
1446.378378213646
 20
1000.030206642643
 30
0.0
 11
1446.378378213656
 21
999.5302066426277
 31
0.0
  0
LINE
  5
14C
330
51
100
AcDbEntity
  8
1
  6
Continuous
 62
     7
100
AcDbLine
 10
1475.878378213656
 20
927.6438956552938
 30
0.0
 11
1475.878378213656
 21
929.9373776873338
 31
0.0
  0
LINE
  5
14D
330
51
100
AcDbEntity
  8
1
  6
Continuous
 62
     7
100
AcDbLine
 10
1477.264322170265
 20
956.2020376535847
 30
0.0
 11
1479.878378213661
 21
956.2020376535847
 31
0.0
  0
LINE
  5
14E
330
51
100
AcDbEntity
  8
1
  6
Continuous
 62
     7
100
AcDbLine
 10
1480.878378213656
 20
952.6671890434957
 30
0.0
 11
1480.878378213656
 21
955.2020376535847
 31
0.0
  0
LINE
  5
14F
330
51
100
AcDbEntity
  8
1
  6
Continuous
 62
     7
100
AcDbLine
 10
1477.264322170265
 20
930.8020376535837
 30
0.0
 11
1479.378378213656
 21
930.8020376535837
 31
0.0
  0
LINE
  5
150
330
51
100
AcDbEntity
  8
1
  6
Continuous
 62
     7
100
AcDbLine
 10
1460.878378213656
 20
929.9373776873338
 30
0.0
 11
1460.878378213656
 21
927.6438956552938
 31
0.0
  0
LINE
  5
151
330
51
100
AcDbEntity
  8
1
  6
Continuous
 62
     7
100
AcDbLine
 10
1455.878378213656
 20
952.6671890434957
 30
0.0
 11
1455.878378213656
 21
955.2020376535847
 31
0.0
  0
LINE
  5
152
330
51
100
AcDbEntity
  8
1
  6
Continuous
 62
     7
100
AcDbLine
 10
1455.878378213656
 20
931.8020376535837
 30
0.0
 11
1455.878378213656
 21
934.3368862636728
 31
0.0
  0
LINE
  5
153
330
51
100
AcDbEntity
  8
1
  6
Continuous
 62
     7
100
AcDbLine
 10
1480.878378213656
 20
931.8020376535837
 30
0.0
 11
1480.878378213656
 21
934.3368862636728
 31
0.0
  0
LINE
  5
154
330
51
100
AcDbEntity
  8
1
  6
Continuous
 62
     7
100
AcDbLine
 10
1456.878378213656
 20
930.8020376535837
 30
0.0
 11
1459.492434257047
 21
930.8020376535837
 31
0.0
  0
LINE
  5
155
330
51
100
AcDbEntity
  8
1
  6
Continuous
 62
     7
100
AcDbLine
 10
1456.878378213656
 20
956.2020376535847
 30
0.0
 11
1459.492434257047
 21
956.2020376535847
 31
0.0
  0
LINE
  5
156
330
51
100
AcDbEntity
  8
1
  6
Continuous
 62
     7
100
AcDbLine
 10
1468.378378213656
 20
1021.529378864539
 30
0.0
 11
1475.128378213656
 21
1021.529378864539
 31
0.0
  0
LINE
  5
157
330
51
100
AcDbEntity
  8
0
  6
Continuous
 62
     7
100
AcDbLine
 10
1476.778378213656
 20
1009.940904887316
 30
0.0
 11
1476.778378213656
 21
1010.029378864539
 31
0.0
  0
LINE
  5
158
330
51
100
AcDbEntity
  8
0
  6
Continuous
 62
     7
100
AcDbLine
 10
1476.712912772455
 20
1010.088892901995
 30
0.0
 11
1476.778378213656
 21
1010.029378864539
 31
0.0
  0
LINE
  5
159
330
51
100
AcDbEntity
  8
0
  6
Continuous
 62
     7
100
AcDbLine
 10
1476.778378213655
 20
1001.527547853583
 30
0.0
 11
1476.778378213655
 21
1003.132295188298
 31
0.0
  0
LINE
  5
15A
330
51
100
AcDbEntity
  8
1
  6
Continuous
 62
     7
100
AcDbLine
 10
1475.778378213655
 20
1001.527547853583
 30
0.0
 11
1476.778378213655
 21
1001.527547853583
 31
0.0
  0
LINE
  5
15B
330
51
100
AcDbEntity
  8
1
  6
Continuous
 62
     7
100
AcDbLine
 10
1475.778378213655
 20
999.0302066426368
 30
0.0
 11
1475.778378213655
 21
1001.527547853583
 31
0.0
  0
LINE
  5
15C
330
51
100
AcDbEntity
  8
0
  6
Continuous
 62
     7
100
AcDbLine
 10
1476.16996864531
 20
1004.568775633875
 30
0.0
 11
1475.178378213655
 21
1005.529378864539
 31
0.0
  0
LINE
  5
15D
330
51
100
AcDbEntity
  8
0
  6
Continuous
 62
     7
100
AcDbLine
 10
1475.178378213655
 20
1007.529378864539
 30
0.0
 11
1475.178378213655
 21
1005.529378864539
 31
0.0
  0
LINE
  5
15E
330
51
100
AcDbEntity
  8
0
  6
Continuous
 62
     7
100
AcDbLine
 10
1476.778378213656
 20
1009.079378864541
 30
0.0
 11
1475.178378213655
 21
1007.529378864539
 31
0.0
  0
LINE
  5
15F
330
51
100
AcDbEntity
  8
0
  6
Continuous
 62
     7
100
AcDbLine
 10
1476.778378213656
 20
1009.079378864541
 30
0.0
 11
1476.778378213656
 21
1009.940904887316
 31
0.0
  0
LINE
  5
160
330
51
100
AcDbEntity
  8
0
  6
Continuous
 62
     7
100
AcDbLine
 10
1476.228378213655
 20
1021.22937886454
 30
0.0
 11
1476.228378213655
 21
1010.529378864539
 31
0.0
  0
LINE
  5
161
330
51
100
AcDbEntity
  8
0
  6
Continuous
 62
     7
100
AcDbLine
 10
1476.228378213655
 20
1010.529378864539
 30
0.0
 11
1476.712912772455
 21
1010.088892901995
 31
0.0
  0
LINE
  5
162
330
51
100
AcDbEntity
  8
0
  6
Continuous
 62
     7
100
AcDbLine
 10
1475.928378213655
 20
1021.529378864539
 30
0.0
 11
1475.128378213656
 21
1021.529378864539
 31
0.0
  0
LINE
  5
163
330
51
100
AcDbEntity
  8
0
  6
Continuous
 62
     7
100
AcDbLine
 10
1475.928378213655
 20
1021.529378864539
 30
0.0
 11
1476.228378213655
 21
1021.22937886454
 31
0.0
  0
LINE
  5
164
330
51
100
AcDbEntity
  8
1
  6
Continuous
 62
     7
100
AcDbLine
 10
1479.378378213656
 20
999.0302066426368
 30
0.0
 11
1475.778378213655
 21
999.0302066426368
 31
0.0
  0
LINE
  5
165
330
51
100
AcDbEntity
  8
1
  6
Continuous
 62
     7
100
AcDbLine
 10
1468.378378213656
 20
999.0302066426368
 30
0.0
 11
1475.778378213655
 21
999.0302066426368
 31
0.0
  0
LINE
  5
166
330
51
100
AcDbEntity
  8
1
  6
Continuous
 62
     7
100
AcDbLine
 10
1468.378378213656
 20
1001.527547853583
 30
0.0
 11
1475.778378213655
 21
1001.527547853583
 31
0.0
  0
LINE
  5
167
330
51
100
AcDbEntity
  8
1
  6
Continuous
 62
     7
100
AcDbLine
 10
1468.378378213656
 20
1005.529378864539
 30
0.0
 11
1475.178378213655
 21
1005.529378864539
 31
0.0
  0
LINE
  5
168
330
51
100
AcDbEntity
  8
1
  6
Continuous
 62
     7
100
AcDbLine
 10
1468.378378213656
 20
1007.529378864539
 30
0.0
 11
1475.178378213655
 21
1007.529378864539
 31
0.0
  0
LINE
  5
169
330
51
100
AcDbEntity
  8
1
  6
Continuous
 62
     7
100
AcDbLine
 10
1468.378378213656
 20
1010.529378864539
 30
0.0
 11
1476.228378213655
 21
1010.529378864539
 31
0.0
  0
LINE
  5
16A
330
51
100
AcDbEntity
  8
1
  6
Continuous
 62
     7
100
AcDbLine
 10
1468.378378213656
 20
1009.079378864541
 30
0.0
 11
1476.778378213656
 21
1009.079378864541
 31
0.0
  0
LINE
  5
16B
330
51
100
AcDbEntity
  8
1
  6
Continuous
 62
     7
100
AcDbLine
 10
1468.378378213656
 20
1009.940904887316
 30
0.0
 11
1476.778378213656
 21
1009.940904887316
 31
0.0
  0
LINE
  5
16C
330
51
100
AcDbEntity
  8
1
  6
Continuous
 62
     7
100
AcDbLine
 10
1461.628378213656
 20
1021.529378864539
 30
0.0
 11
1468.378378213656
 21
1021.529378864539
 31
0.0
  0
LINE
  5
16D
330
51
100
AcDbEntity
  8
0
  6
Continuous
 62
     7
100
AcDbLine
 10
1459.978378213657
 20
1010.029378864539
 30
0.0
 11
1459.978378213657
 21
1009.940904887316
 31
0.0
  0
LINE
  5
16E
330
51
100
AcDbEntity
  8
0
  6
Continuous
 62
     7
100
AcDbLine
 10
1459.978378213657
 20
1010.029378864539
 30
0.0
 11
1460.043843654859
 21
1010.088892901995
 31
0.0
  0
LINE
  5
16F
330
51
100
AcDbEntity
  8
0
  6
Continuous
 62
     7
100
AcDbLine
 10
1459.978378213657
 20
1003.132295188298
 30
0.0
 11
1459.978378213657
 21
1001.527547853583
 31
0.0
  0
LINE
  5
170
330
51
100
AcDbEntity
  8
1
  6
Continuous
 62
     7
100
AcDbLine
 10
1459.978378213657
 20
1001.527547853583
 30
0.0
 11
1460.978378213657
 21
1001.527547853583
 31
0.0
  0
LINE
  5
171
330
51
100
AcDbEntity
  8
1
  6
Continuous
 62
     7
100
AcDbLine
 10
1460.978378213657
 20
1001.527547853583
 30
0.0
 11
1460.978378213657
 21
999.0302066426368
 31
0.0
  0
LINE
  5
172
330
51
100
AcDbEntity
  8
0
  6
Continuous
 62
     7
100
AcDbLine
 10
1461.578378213657
 20
1005.529378864539
 30
0.0
 11
1460.586787782002
 21
1004.568775633875
 31
0.0
  0
LINE
  5
173
330
51
100
AcDbEntity
  8
0
  6
Continuous
 62
     7
100
AcDbLine
 10
1461.578378213657
 20
1005.529378864539
 30
0.0
 11
1461.578378213657
 21
1007.529378864539
 31
0.0
  0
LINE
  5
174
330
51
100
AcDbEntity
  8
0
  6
Continuous
 62
     7
100
AcDbLine
 10
1461.578378213657
 20
1007.529378864539
 30
0.0
 11
1459.978378213657
 21
1009.079378864541
 31
0.0
  0
LINE
  5
175
330
51
100
AcDbEntity
  8
0
  6
Continuous
 62
     7
100
AcDbLine
 10
1459.978378213657
 20
1009.940904887316
 30
0.0
 11
1459.978378213657
 21
1009.079378864541
 31
0.0
  0
LINE
  5
176
330
51
100
AcDbEntity
  8
0
  6
Continuous
 62
     7
100
AcDbLine
 10
1460.528378213657
 20
1010.529378864539
 30
0.0
 11
1460.528378213657
 21
1021.22937886454
 31
0.0
  0
LINE
  5
177
330
51
100
AcDbEntity
  8
0
  6
Continuous
 62
     7
100
AcDbLine
 10
1460.043843654859
 20
1010.088892901995
 30
0.0
 11
1460.528378213657
 21
1010.529378864539
 31
0.0
  0
LINE
  5
178
330
51
100
AcDbEntity
  8
0
  6
Continuous
 62
     7
100
AcDbLine
 10
1461.628378213656
 20
1021.529378864539
 30
0.0
 11
1460.828378213657
 21
1021.529378864539
 31
0.0
  0
LINE
  5
179
330
51
100
AcDbEntity
  8
0
  6
Continuous
 62
     7
100
AcDbLine
 10
1460.528378213657
 20
1021.22937886454
 30
0.0
 11
1460.828378213657
 21
1021.529378864539
 31
0.0
  0
LINE
  5
17A
330
51
100
AcDbEntity
  8
1
  6
Continuous
 62
     7
100
AcDbLine
 10
1460.978378213657
 20
999.0302066426368
 30
0.0
 11
1457.378378213656
 21
999.0302066426368
 31
0.0
  0
LINE
  5
17B
330
51
100
AcDbEntity
  8
1
  6
Continuous
 62
     7
100
AcDbLine
 10
1460.978378213657
 20
999.0302066426368
 30
0.0
 11
1468.378378213656
 21
999.0302066426368
 31
0.0
  0
LINE
  5
17C
330
51
100
AcDbEntity
  8
1
  6
Continuous
 62
     7
100
AcDbLine
 10
1460.978378213657
 20
1001.527547853583
 30
0.0
 11
1468.378378213656
 21
1001.527547853583
 31
0.0
  0
LINE
  5
17D
330
51
100
AcDbEntity
  8
1
  6
Continuous
 62
     7
100
AcDbLine
 10
1461.578378213657
 20
1005.529378864539
 30
0.0
 11
1468.378378213656
 21
1005.529378864539
 31
0.0
  0
LINE
  5
17E
330
51
100
AcDbEntity
  8
1
  6
Continuous
 62
     7
100
AcDbLine
 10
1461.578378213657
 20
1007.529378864539
 30
0.0
 11
1468.378378213656
 21
1007.529378864539
 31
0.0
  0
LINE
  5
17F
330
51
100
AcDbEntity
  8
1
  6
Continuous
 62
     7
100
AcDbLine
 10
1460.528378213657
 20
1010.529378864539
 30
0.0
 11
1468.378378213656
 21
1010.529378864539
 31
0.0
  0
LINE
  5
180
330
51
100
AcDbEntity
  8
1
  6
Continuous
 62
     7
100
AcDbLine
 10
1459.978378213657
 20
1009.079378864541
 30
0.0
 11
1468.378378213656
 21
1009.079378864541
 31
0.0
  0
LINE
  5
181
330
51
100
AcDbEntity
  8
1
  6
Continuous
 62
     7
100
AcDbLine
 10
1459.978378213657
 20
1009.940904887316
 30
0.0
 11
1468.378378213656
 21
1009.940904887316
 31
0.0
  0
LINE
  5
182
330
51
100
AcDbEntity
  8
1
  6
Continuous
 62
     7
100
AcDbLine
 10
1472.378378213656
 20
974.5020376535876
 30
0.0
 11
1472.378378213646
 21
960.510725138857
 31
0.0
  0
LINE
  5
183
330
51
100
AcDbEntity
  8
1
  6
Continuous
 62
     7
100
AcDbLine
 10
1464.378378213656
 20
974.5020376535876
 30
0.0
 11
1464.378378213656
 21
960.510725138857
 31
0.0
  0
LINE
  5
184
330
51
100
AcDbEntity
  8
1
  6
Continuous
 62
     7
100
AcDbLine
 10
1470.048251194734
 20
915.6525593616298
 30
0.0
 11
1470.048251194734
 21
923.8672716051083
 31
0.0
  0
LINE
  5
185
330
51
100
AcDbEntity
  8
1
  6
Continuous
 62
     7
100
AcDbLine
 10
1478.708505232578
 20
926.6438956552938
 30
0.0
 11
1478.708505232578
 21
915.6525593616298
 31
0.0
  0
LINE
  5
186
330
51
100
AcDbEntity
  8
1
  6
Continuous
 62
     7
100
AcDbLine
 10
1480.378378213656
 20
914.6438956552938
 30
0.0
 11
1480.378378213656
 21
927.6438956552938
 31
0.0
  0
LINE
  5
187
330
51
100
AcDbEntity
  8
1
  6
Continuous
 62
     7
100
AcDbLine
 10
1480.378378213656
 20
927.6438956552938
 30
0.0
 11
1472.375861960633
 21
927.6438956552938
 31
0.0
  0
LINE
  5
188
330
51
100
AcDbEntity
  8
1
  6
Continuous
 62
     7
100
AcDbLine
 10
1468.378378213656
 20
914.6438956552938
 30
0.0
 11
1480.369714507323
 21
914.6438956552938
 31
0.0
  0
LINE
  5
189
330
51
100
AcDbEntity
  8
1
  6
Continuous
 62
     7
100
AcDbLine
 10
1466.708505232578
 20
923.8672716051076
 30
0.0
 11
1466.708505232578
 21
915.6525593616298
 31
0.0
  0
LINE
  5
18A
330
51
100
AcDbEntity
  8
1
  6
Continuous
 62
     7
100
AcDbLine
 10
1458.048251194734
 20
915.6525593616298
 30
0.0
 11
1458.048251194734
 21
926.6438956552938
 31
0.0
  0
LINE
  5
18B
330
51
100
AcDbEntity
  8
1
  6
Continuous
 62
     7
100
AcDbLine
 10
1456.378378213656
 20
927.6438956552938
 30
0.0
 11
1456.378378213656
 21
914.6438956552938
 31
0.0
  0
LINE
  5
18C
330
51
100
AcDbEntity
  8
1
  6
Continuous
 62
     7
100
AcDbLine
 10
1464.380894466678
 20
927.6438956552938
 30
0.0
 11
1456.378378213656
 21
927.6438956552938
 31
0.0
  0
LINE
  5
18D
330
51
100
AcDbEntity
  8
1
  6
Continuous
 62
     7
100
AcDbLine
 10
1456.387041919991
 20
914.6438956552938
 30
0.0
 11
1468.378378213656
 21
914.6438956552938
 31
0.0
  0
LINE
  5
18E
330
51
100
AcDbEntity
  8
1
  6
Continuous
 62
     7
100
AcDbLine
 10
1454.200083523937
 20
999.0302066426398
 30
0.0
 11
1482.556672903365
 21
999.0302066426398
 31
0.0
  0
LINE
  5
18F
330
51
100
AcDbEntity
  8
0
  6
Continuous
 62
     7
100
AcDbLine
 10
1447.328378213657
 20
892.5020376535838
 30
0.0
 11
1447.328378213657
 21
893.5020376535838
 31
0.0
  0
LINE
  5
190
330
51
100
AcDbEntity
  8
0
  6
Continuous
 62
     7
100
AcDbLine
 10
1489.428378213658
 20
893.5020376535838
 30
0.0
 11
1489.428378213658
 21
892.5020376535838
 31
0.0
  0
LINE
  5
191
330
51
100
AcDbEntity
  8
0
  6
Continuous
 62
     7
100
AcDbLine
 10
1459.985077213656
 20
892.5020376535838
 30
0.0
 11
1468.378378213656
 21
892.5020376535838
 31
0.0
  0
LINE
  5
192
330
51
100
AcDbEntity
  8
0
  6
Continuous
 62
     7
100
AcDbLine
 10
1476.771679213657
 20
892.5020376535838
 30
0.0
 11
1481.568378213656
 21
892.5020376535838
 31
0.0
  0
LINE
  5
193
330
51
100
AcDbEntity
  8
0
  6
Continuous
 62
     7
100
AcDbLine
 10
1468.378378213656
 20
892.5020376535838
 30
0.0
 11
1476.771679213657
 21
892.5020376535838
 31
0.0
  0
LINE
  5
194
330
51
100
AcDbEntity
  8
1
  6
Continuous
 62
     7
100
AcDbLine
 10
1482.378378213656
 20
903.5020376535847
 30
0.0
 11
1482.378378213656
 21
893.5020376535838
 31
0.0
  0
LINE
  5
195
330
51
100
AcDbEntity
  8
1
  6
Continuous
 62
     7
100
AcDbLine
 10
1447.328378213657
 20
893.5020376535838
 30
0.0
 11
1454.378378213656
 21
893.5020376535838
 31
0.0
  0
LINE
  5
196
330
51
100
AcDbEntity
  8
1
  6
Continuous
 62
     7
100
AcDbLine
 10
1454.378378213656
 20
903.5020376535847
 30
0.0
 11
1454.378378213656
 21
893.5020376535838
 31
0.0
  0
LINE
  5
197
330
51
100
AcDbEntity
  8
1
  6
Continuous
 62
     7
100
AcDbLine
 10
1454.378378213656
 20
903.5020376535847
 30
0.0
 11
1453.878378213656
 21
903.5020376535847
 31
0.0
  0
LINE
  5
198
330
51
100
AcDbEntity
  8
0
  6
Continuous
 62
     7
100
AcDbLine
 10
1481.568378213656
 20
892.5020376535838
 30
0.0
 11
1482.378378213656
 21
892.5020376535838
 31
0.0
  0
LINE
  5
199
330
51
100
AcDbEntity
  8
1
  6
Continuous
 62
     7
100
AcDbLine
 10
1451.878378213651
 20
897.5020376535917
 30
0.0
 11
1436.878378213651
 21
897.5020376535917
 31
0.0
  0
LINE
  5
19A
330
51
100
AcDbEntity
  8
1
  6
Continuous
 62
     7
100
AcDbLine
 10
1451.878378213651
 20
897.5020376535917
 30
0.0
 11
1451.878378213661
 21
902.5020376535838
 31
0.0
  0
LINE
  5
19B
330
51
100
AcDbEntity
  8
0
  6
Continuous
 62
     7
100
AcDbLine
 10
1451.878378213651
 20
907.5020376535838
 30
0.0
 11
1455.188378213656
 21
907.5020376535838
 31
0.0
  0
LINE
  5
19C
330
51
100
AcDbEntity
  8
1
  6
Continuous
 62
     7
100
AcDbLine
 10
1453.878378213656
 20
903.5020376535847
 30
0.0
 11
1451.878378213651
 21
903.5020376535838
 31
0.0
  0
LINE
  5
19D
330
51
100
AcDbEntity
  8
0
  6
Continuous
 62
     7
100
AcDbLine
 10
1481.568378213656
 20
907.5020376535838
 30
0.0
 11
1484.878378213651
 21
907.5020376535838
 31
0.0
  0
LINE
  5
19E
330
51
100
AcDbEntity
  8
1
  6
Continuous
 62
     7
100
AcDbLine
 10
1484.878378213651
 20
897.5020376535838
 30
0.0
 11
1484.878378213651
 21
903.5020376535847
 31
0.0
  0
LINE
  5
19F
330
51
100
AcDbEntity
  8
1
  6
Continuous
 62
     7
100
AcDbLine
 10
1451.878378213651
 20
903.5020376535838
 30
0.0
 11
1451.878378213651
 21
904.0020376535838
 31
0.0
  0
LINE
  5
1A0
330
51
100
AcDbEntity
  8
0
  6
Continuous
 62
     7
100
AcDbLine
 10
1481.568378213656
 20
907.5020376535838
 30
0.0
 11
1481.568378213656
 21
909.3120376535858
 31
0.0
  0
LINE
  5
1A1
330
51
100
AcDbEntity
  8
1
  6
Continuous
 62
     7
100
AcDbLine
 10
1451.878378213651
 20
904.0020376535838
 30
0.0
 11
1451.878378213651
 21
907.5020376535838
 31
0.0
  0
LINE
  5
1A2
330
51
100
AcDbEntity
  8
1
  6
Continuous
 62
     7
100
AcDbLine
 10
1451.878378213651
 20
904.0020376535838
 30
0.0
 11
1484.878378213651
 21
904.0020376535838
 31
0.0
  0
LINE
  5
1A3
330
51
100
AcDbEntity
  8
1
  6
Continuous
 62
     7
100
AcDbLine
 10
1484.878378213651
 20
904.0020376535838
 30
0.0
 11
1484.878378213651
 21
907.5020376535838
 31
0.0
  0
LINE
  5
1A4
330
51
100
AcDbEntity
  8
1
  6
Continuous
 62
     7
100
AcDbLine
 10
1484.878378213651
 20
903.5020376535847
 30
0.0
 11
1484.878378213651
 21
904.0020376535838
 31
0.0
  0
LINE
  5
1A5
330
51
100
AcDbEntity
  8
0
  6
Continuous
 62
     7
100
AcDbLine
 10
1481.568378213656
 20
903.5020376535847
 30
0.0
 11
1484.878378213651
 21
903.5020376535847
 31
0.0
  0
LINE
  5
1A6
330
51
100
AcDbEntity
  8
0
  6
Continuous
 62
     7
100
AcDbLine
 10
1455.188378213656
 20
909.3120376535858
 30
0.0
 11
1455.188378213656
 21
907.5020376535838
 31
0.0
  0
LINE
  5
1A7
330
51
100
AcDbEntity
  8
0
  6
Continuous
 62
     7
100
AcDbLine
 10
1455.188378213656
 20
907.5020376535838
 30
0.0
 11
1481.568378213656
 21
907.5020376535838
 31
0.0
  0
LINE
  5
1A8
330
51
100
AcDbEntity
  8
0
  6
Continuous
 62
     7
100
AcDbLine
 10
1454.378378213656
 20
893.5020376535838
 30
0.0
 11
1455.188378213656
 21
893.5020376535838
 31
0.0
  0
LINE
  5
1A9
330
51
100
AcDbEntity
  8
0
  6
Continuous
 62
     7
100
AcDbLine
 10
1482.378378213656
 20
892.5020376535838
 30
0.0
 11
1492.378378213656
 21
892.5020376535838
 31
0.0
  0
LINE
  5
1AA
330
51
100
AcDbEntity
  8
0
  6
Continuous
 62
     7
100
AcDbLine
 10
1451.378377791467
 20
892.5020376535838
 30
0.0
 11
1455.188378213656
 21
892.5020376535838
 31
0.0
  0
LINE
  5
1AB
330
51
100
AcDbEntity
  8
0
  6
Continuous
 62
     7
100
AcDbLine
 10
1453.878378213656
 20
903.5020376535847
 30
0.0
 11
1455.188378213656
 21
903.5020376535847
 31
0.0
  0
LINE
  5
1AC
330
51
100
AcDbEntity
  8
0
  6
Continuous
 62
     7
100
AcDbLine
 10
1455.188378213656
 20
892.5020376535838
 30
0.0
 11
1459.985077213656
 21
892.5020376535838
 31
0.0
  0
LINE
  5
1AD
330
51
100
AcDbEntity
  8
0
  6
Continuous
 62
     7
100
AcDbLine
 10
1455.188378213656
 20
903.5020376535847
 30
0.0
 11
1481.568378213656
 21
903.5020376535847
 31
0.0
  0
LINE
  5
1AE
330
51
100
AcDbEntity
  8
0
  6
Continuous
 62
     7
100
AcDbLine
 10
1455.188378213656
 20
903.5020376535847
 30
0.0
 11
1455.188378213656
 21
893.5020376535838
 31
0.0
  0
LINE
  5
1AF
330
51
100
AcDbEntity
  8
0
  6
Continuous
 62
     7
100
AcDbLine
 10
1455.188378213656
 20
893.5020376535838
 30
0.0
 11
1481.568378213656
 21
893.5020376535838
 31
0.0
  0
LINE
  5
1B0
330
51
100
AcDbEntity
  8
0
  6
Continuous
 62
     7
100
AcDbLine
 10
1481.568378213656
 20
893.5020376535838
 30
0.0
 11
1482.378378213656
 21
893.5020376535838
 31
0.0
  0
LINE
  5
1B1
330
51
100
AcDbEntity
  8
0
  6
Continuous
 62
     7
100
AcDbLine
 10
1482.378378213656
 20
893.5020376535838
 30
0.0
 11
1489.428378213658
 21
893.5020376535838
 31
0.0
  0
LINE
  5
1B2
330
51
100
AcDbEntity
  8
1
  6
DASH_CENTER
 62
     2
100
AcDbLine
 10
1701.1905867529
 20
1462.502037653585
 30
0.0
 11
1872.375725424612
 21
1462.502037653585
 31
0.0
  0
LINE
  5
1B3
330
51
100
AcDbEntity
  8
1
  6
Continuous
 62
     7
100
AcDbLine
 10
1847.619054134528
 20
1485.853161096402
 30
0.0
 11
1850.31205460172
 21
1476.171826513951
 31
0.0
  0
LINE
  5
1B4
330
51
100
AcDbEntity
  8
1
  6
Continuous
 62
     7
100
AcDbLine
 10
1850.31205460172
 20
1476.171826513951
 30
0.0
 11
1850.375725424612
 21
1476.002037653585
 31
0.0
  0
LINE
  5
1B5
330
51
100
AcDbEntity
  8
1
  6
Continuous
 62
     7
100
AcDbLine
 10
1850.375725424612
 20
1476.002037653585
 30
0.0
 11
1850.375725424612
 21
1475.820703071134
 31
0.0
  0
LINE
  5
1B6
330
51
100
AcDbEntity
  8
0
  6
Continuous
 62
     7
100
AcDbLine
 10
1850.375725424612
 20
1475.820703071134
 30
0.0
 11
1850.375725424612
 21
1473.231177038696
 31
0.0
  0
LINE
  5
1B7
330
51
100
AcDbEntity
  8
1
  6
Continuous
 62
     7
100
AcDbLine
 10
1866.375725424612
 20
1471.271412653585
 30
0.0
 11
1866.375725424612
 21
1462.502037653585
 31
0.0
  0
LINE
  5
1B8
330
51
100
AcDbEntity
  8
1
  6
Continuous
 62
     7
100
AcDbLine
 10
1864.875725424612
 20
1462.502037653585
 30
0.0
 11
1864.875725424612
 21
1471.609412653584
 31
0.0
  0
LINE
  5
1B9
330
51
100
AcDbEntity
  8
1
  6
Continuous
 62
     7
100
AcDbLine
 10
1850.375725424612
 20
1473.224537653585
 30
0.0
 11
1852.873539794168
 21
1473.158043454536
 31
0.0
  0
LINE
  5
1BA
330
51
100
AcDbEntity
  8
1
  6
Continuous
 62
     7
100
AcDbLine
 10
1852.873539794168
 20
1471.996043454535
 30
0.0
 11
1850.375725424612
 21
1473.224537653585
 31
0.0
  0
LINE
  5
1BB
330
51
100
AcDbEntity
  8
1
  6
Continuous
 62
     7
100
AcDbLine
 10
1852.873539794168
 20
1462.502037653585
 30
0.0
 11
1852.873539794168
 21
1471.996043454535
 31
0.0
  0
LINE
  5
1BC
330
51
100
AcDbEntity
  8
1
  6
Continuous
 62
     7
100
AcDbLine
 10
1866.075209295579
 20
1471.571928782616
 30
0.0
 11
1866.375725424612
 21
1471.271412653585
 31
0.0
  0
LINE
  5
1BD
330
51
100
AcDbEntity
  8
1
  6
Continuous
 62
     7
100
AcDbLine
 10
1864.875725424612
 20
1471.609412653584
 30
0.0
 11
1866.075209295579
 21
1471.571928782616
 31
0.0
  0
LINE
  5
1BE
330
51
100
AcDbEntity
  8
1
  6
Continuous
 62
     7
100
AcDbLine
 10
1864.875725424612
 20
1472.771412653585
 30
0.0
 11
1866.075209295579
 21
1471.571928782616
 31
0.0
  0
LINE
  5
1BF
330
51
100
AcDbEntity
  8
1
  6
Continuous
 62
     7
100
AcDbLine
 10
1864.875725424612
 20
1471.609412653584
 30
0.0
 11
1864.875725424612
 21
1472.771412653585
 31
0.0
  0
LINE
  5
1C0
330
51
100
AcDbEntity
  8
1
  6
Continuous
 62
     7
100
AcDbLine
 10
1852.873539794168
 20
1471.996043454535
 30
0.0
 11
1864.875725424612
 21
1471.609412653584
 31
0.0
  0
LINE
  5
1C1
330
51
100
AcDbEntity
  8
1
  6
Continuous
 62
     7
100
AcDbLine
 10
1852.873539794168
 20
1473.158043454536
 30
0.0
 11
1852.873539794168
 21
1471.996043454535
 31
0.0
  0
LINE
  5
1C2
330
51
100
AcDbEntity
  8
1
  6
Continuous
 62
     7
100
AcDbLine
 10
1850.375725424612
 20
1471.266139268721
 30
0.0
 11
1850.375725424612
 21
1473.196957948718
 31
0.0
  0
LINE
  5
1C3
330
51
100
AcDbEntity
  8
1
  6
Continuous
 62
     7
100
AcDbLine
 10
1850.375725424612
 20
1471.266139268721
 30
0.0
 11
1850.375725424612
 21
1473.196957948718
 31
0.0
  0
LINE
  5
1C4
330
51
100
AcDbEntity
  8
1
  6
Continuous
 62
     7
100
AcDbLine
 10
1850.375725424612
 20
1468.373834423308
 30
0.0
 11
1850.375725424612
 21
1471.266139268721
 31
0.0
  0
LINE
  5
1C5
330
51
100
AcDbEntity
  8
1
  6
Continuous
 62
     7
100
AcDbLine
 10
1850.375725424612
 20
1468.373834423308
 30
0.0
 11
1850.375725424612
 21
1471.266139268721
 31
0.0
  0
LINE
  5
1C6
330
51
100
AcDbEntity
  8
1
  6
Continuous
 62
     7
100
AcDbLine
 10
1850.375725424612
 20
1462.502037653585
 30
0.0
 11
1850.375725424612
 21
1468.373834423308
 31
0.0
  0
LINE
  5
1C7
330
51
100
AcDbEntity
  8
1
  6
Continuous
 62
     7
100
AcDbLine
 10
1852.873539794168
 20
1473.158043454536
 30
0.0
 11
1864.875725424612
 21
1472.771412653585
 31
0.0
  0
LINE
  5
1C8
330
51
100
AcDbEntity
  8
1
  6
Continuous
 62
     7
100
AcDbLine
 10
1850.31205460172
 20
1448.832248761295
 30
0.0
 11
1847.619054134528
 21
1439.150914210769
 31
0.0
  0
LINE
  5
1C9
330
51
100
AcDbEntity
  8
1
  6
Continuous
 62
     7
100
AcDbLine
 10
1850.375725424612
 20
1449.002037621662
 30
0.0
 11
1850.31205460172
 21
1448.832248761295
 31
0.0
  0
LINE
  5
1CA
330
51
100
AcDbEntity
  8
1
  6
Continuous
 62
     7
100
AcDbLine
 10
1850.375725424612
 20
1449.183372204111
 30
0.0
 11
1850.375725424612
 21
1449.002037621662
 31
0.0
  0
LINE
  5
1CB
330
51
100
AcDbEntity
  8
0
  6
Continuous
 62
     7
100
AcDbLine
 10
1850.375725424612
 20
1451.772898268474
 30
0.0
 11
1850.375725424612
 21
1449.183372204111
 31
0.0
  0
LINE
  5
1CC
330
51
100
AcDbEntity
  8
1
  6
Continuous
 62
     7
100
AcDbLine
 10
1866.375725424612
 20
1462.502037653585
 30
0.0
 11
1866.375725424612
 21
1453.732662653585
 31
0.0
  0
LINE
  5
1CD
330
51
100
AcDbEntity
  8
1
  6
Continuous
 62
     7
100
AcDbLine
 10
1864.875725424612
 20
1453.394662653585
 30
0.0
 11
1864.875725424612
 21
1462.502037653585
 31
0.0
  0
LINE
  5
1CE
330
51
100
AcDbEntity
  8
1
  6
Continuous
 62
     7
100
AcDbLine
 10
1852.873539794168
 20
1451.846031852634
 30
0.0
 11
1850.375725424612
 21
1451.779537653585
 31
0.0
  0
LINE
  5
1CF
330
51
100
AcDbEntity
  8
1
  6
Continuous
 62
     7
100
AcDbLine
 10
1850.375725424612
 20
1451.779537653585
 30
0.0
 11
1852.873539794168
 21
1453.008031852634
 31
0.0
  0
LINE
  5
1D0
330
51
100
AcDbEntity
  8
1
  6
Continuous
 62
     7
100
AcDbLine
 10
1852.873539794168
 20
1453.008031852634
 30
0.0
 11
1852.873539794168
 21
1462.502037653585
 31
0.0
  0
LINE
  5
1D1
330
51
100
AcDbEntity
  8
1
  6
Continuous
 62
     7
100
AcDbLine
 10
1866.375725424612
 20
1453.732662653585
 30
0.0
 11
1866.075209295579
 21
1453.432146524553
 31
0.0
  0
LINE
  5
1D2
330
51
100
AcDbEntity
  8
1
  6
Continuous
 62
     7
100
AcDbLine
 10
1866.075209295579
 20
1453.432146524553
 30
0.0
 11
1864.875725424612
 21
1453.394662653585
 31
0.0
  0
LINE
  5
1D3
330
51
100
AcDbEntity
  8
1
  6
Continuous
 62
     7
100
AcDbLine
 10
1866.075209295579
 20
1453.432146524553
 30
0.0
 11
1864.875725424612
 21
1452.232662653585
 31
0.0
  0
LINE
  5
1D4
330
51
100
AcDbEntity
  8
1
  6
Continuous
 62
     7
100
AcDbLine
 10
1864.875725424612
 20
1452.232662653585
 30
0.0
 11
1864.875725424612
 21
1453.394662653585
 31
0.0
  0
LINE
  5
1D5
330
51
100
AcDbEntity
  8
1
  6
Continuous
 62
     7
100
AcDbLine
 10
1864.875725424612
 20
1453.394662653585
 30
0.0
 11
1852.873539794168
 21
1453.008031852634
 31
0.0
  0
LINE
  5
1D6
330
51
100
AcDbEntity
  8
1
  6
Continuous
 62
     7
100
AcDbLine
 10
1852.873539794168
 20
1453.008031852634
 30
0.0
 11
1852.873539794168
 21
1451.846031852634
 31
0.0
  0
LINE
  5
1D7
330
51
100
AcDbEntity
  8
1
  6
Continuous
 62
     7
100
AcDbLine
 10
1850.170513846399
 20
1462.502037653585
 30
0.0
 11
1850.375725424612
 21
1462.502037653585
 31
0.0
  0
LINE
  5
1D8
330
51
100
AcDbEntity
  8
1
  6
Continuous
 62
     7
100
AcDbLine
 10
1850.375725424612
 20
1451.807117358452
 30
0.0
 11
1850.375725424612
 21
1453.737936038448
 31
0.0
  0
LINE
  5
1D9
330
51
100
AcDbEntity
  8
1
  6
Continuous
 62
     7
100
AcDbLine
 10
1850.170513846399
 20
1462.502037653585
 30
0.0
 11
1850.375725424612
 21
1462.502037653585
 31
0.0
  0
LINE
  5
1DA
330
51
100
AcDbEntity
  8
1
  6
Continuous
 62
     7
100
AcDbLine
 10
1850.375725424612
 20
1451.807117358452
 30
0.0
 11
1850.375725424612
 21
1453.737936038448
 31
0.0
  0
LINE
  5
1DB
330
51
100
AcDbEntity
  8
1
  6
Continuous
 62
     7
100
AcDbLine
 10
1850.375725424612
 20
1453.737936038448
 30
0.0
 11
1850.375725424612
 21
1456.630240883861
 31
0.0
  0
LINE
  5
1DC
330
51
100
AcDbEntity
  8
1
  6
Continuous
 62
     7
100
AcDbLine
 10
1850.375725424612
 20
1453.737936038448
 30
0.0
 11
1850.375725424612
 21
1456.630240883861
 31
0.0
  0
LINE
  5
1DD
330
51
100
AcDbEntity
  8
1
  6
Continuous
 62
     7
100
AcDbLine
 10
1850.375725424612
 20
1456.630240883861
 30
0.0
 11
1850.375725424612
 21
1462.502037653585
 31
0.0
  0
LINE
  5
1DE
330
51
100
AcDbEntity
  8
1
  6
Continuous
 62
     7
100
AcDbLine
 10
1864.875725424612
 20
1452.232662653585
 30
0.0
 11
1852.873539794168
 21
1451.846031852634
 31
0.0
  0
LINE
  5
1DF
330
51
100
AcDbEntity
  8
1
  6
Continuous
 62
     7
100
AcDbLine
 10
1739.260732346723
 20
1477.1727362198
 30
0.0
 11
1783.378378213657
 21
1484.951867511481
 31
0.0
  0
LINE
  5
1E0
330
51
100
AcDbEntity
  8
0
  6
Continuous
 62
     7
100
AcDbLine
 10
1716.348384213657
 20
1460.502037653585
 30
0.0
 11
1705.678378213657
 21
1460.502037653585
 31
0.0
  0
LINE
  5
1E1
330
51
100
AcDbEntity
  8
0
  6
Continuous
 62
     7
100
AcDbLine
 10
1716.348384213657
 20
1460.702037653586
 30
0.0
 11
1705.478378213656
 21
1460.702037653586
 31
0.0
  0
LINE
  5
1E2
330
51
100
AcDbEntity
  8
0
  6
Continuous
 62
     7
100
AcDbLine
 10
1716.348384213657
 20
1462.002037653585
 30
0.0
 11
1705.478378213656
 21
1462.002037653585
 31
0.0
  0
LINE
  5
1E3
330
51
100
AcDbEntity
  8
0
  6
Continuous
 62
     7
100
AcDbLine
 10
1716.348384213657
 20
1463.002037653585
 30
0.0
 11
1705.478378213656
 21
1463.002037653585
 31
0.0
  0
LINE
  5
1E4
330
51
100
AcDbEntity
  8
0
  6
Continuous
 62
     7
100
AcDbLine
 10
1716.348384213657
 20
1464.302037653587
 30
0.0
 11
1705.478378213656
 21
1464.302037653587
 31
0.0
  0
LINE
  5
1E5
330
51
100
AcDbEntity
  8
0
  6
Continuous
 62
     7
100
AcDbLine
 10
1716.348384213657
 20
1464.502037653585
 30
0.0
 11
1705.678378213657
 21
1464.502037653585
 31
0.0
  0
LINE
  5
1E6
330
51
100
AcDbEntity
  8
0
  6
Continuous
 62
     7
100
AcDbLine
 10
1706.771726337382
 20
1465.202037653586
 30
0.0
 11
1716.348384213657
 21
1465.202037653586
 31
0.0
  0
LINE
  5
1E7
330
51
100
AcDbEntity
  8
0
  6
Continuous
 62
     7
100
AcDbLine
 10
1705.478378213656
 20
1460.702037653586
 30
0.0
 11
1705.478378213656
 21
1464.302037653587
 31
0.0
  0
LINE
  5
1E8
330
51
100
AcDbEntity
  8
0
  6
Continuous
 62
     7
100
AcDbLine
 10
1705.478378213656
 20
1464.302037653587
 30
0.0
 11
1705.678378213657
 21
1464.502037653585
 31
0.0
  0
LINE
  5
1E9
330
51
100
AcDbEntity
  8
0
  6
Continuous
 62
     7
100
AcDbLine
 10
1705.678378213657
 20
1460.502037653585
 30
0.0
 11
1705.478378213656
 21
1460.702037653586
 31
0.0
  0
LINE
  5
1EA
330
51
100
AcDbEntity
  8
0
  6
Continuous
 62
     7
100
AcDbLine
 10
1709.00227447694
 20
1462.002037653585
 30
0.0
 11
1709.00227447694
 21
1463.002037653585
 31
0.0
  0
LINE
  5
1EB
330
51
100
AcDbEntity
  8
0
  6
Continuous
 62
     7
100
AcDbLine
 10
1709.264417182977
 20
1463.002037653585
 30
0.0
 11
1709.264417182977
 21
1464.502037653585
 31
0.0
  0
LINE
  5
1EC
330
51
100
AcDbEntity
  8
0
  6
Continuous
 62
     7
100
AcDbLine
 10
1709.264417182977
 20
1460.502037653585
 30
0.0
 11
1709.264417182977
 21
1462.002037653585
 31
0.0
  0
LINE
  5
1ED
330
51
100
AcDbEntity
  8
0
  6
Continuous
 62
     7
100
AcDbLine
 10
1706.771726337382
 20
1459.802037653587
 30
0.0
 11
1716.348384213657
 21
1459.802037653587
 31
0.0
  0
LINE
  5
1EE
330
51
100
AcDbEntity
  8
0
  6
Continuous
 62
     7
100
AcDbLine
 10
1706.771726337382
 20
1460.502037653585
 30
0.0
 11
1706.771726337382
 21
1459.802037653587
 31
0.0
  0
LINE
  5
1EF
330
51
100
AcDbEntity
  8
0
  6
Continuous
 62
     7
100
AcDbLine
 10
1709.870029078048
 20
1460.502037653585
 30
0.0
 11
1709.870029078048
 21
1459.802037653587
 31
0.0
  0
LINE
  5
1F0
330
51
100
AcDbEntity
  8
0
  6
Continuous
 62
     7
100
AcDbLine
 10
1706.771726337382
 20
1464.502037653585
 30
0.0
 11
1706.771726337382
 21
1465.202037653586
 31
0.0
  0
LINE
  5
1F1
330
51
100
AcDbEntity
  8
0
  6
Continuous
 62
     7
100
AcDbLine
 10
1709.870029078048
 20
1464.502037653585
 30
0.0
 11
1709.870029078048
 21
1465.202037653586
 31
0.0
  0
LINE
  5
1F2
330
51
100
AcDbEntity
  8
1
  6
Continuous
 62
     7
100
AcDbLine
 10
1738.847556435557
 20
1462.50203765359
 30
0.0
 11
1738.847556435567
 21
1484.002037653588
 31
0.0
  0
LINE
  5
1F3
330
51
100
AcDbEntity
  8
1
  6
Continuous
 62
     7
100
AcDbLine
 10
1736.347556435567
 20
1483.002037653587
 30
0.0
 11
1736.347556435567
 21
1462.502037653585
 31
0.0
  0
LINE
  5
1F4
330
51
100
AcDbEntity
  8
1
  6
Continuous
 62
     7
100
AcDbLine
 10
1738.347556435568
 20
1484.502037653585
 30
0.0
 11
1737.847556435553
 21
1484.502037653595
 31
0.0
  0
LINE
  5
1F5
330
51
100
AcDbEntity
  8
1
  6
Continuous
 62
     7
100
AcDbLine
 10
1738.847556435567
 20
1441.002037653583
 30
0.0
 11
1738.847556435557
 21
1462.50203765358
 31
0.0
  0
LINE
  5
1F6
330
51
100
AcDbEntity
  8
1
  6
Continuous
 62
     7
100
AcDbLine
 10
1736.347556435567
 20
1462.502037653585
 30
0.0
 11
1736.347556435567
 21
1442.002037653583
 31
0.0
  0
LINE
  5
1F7
330
51
100
AcDbEntity
  8
1
  6
Continuous
 62
     7
100
AcDbLine
 10
1737.847556435553
 20
1440.502037653575
 30
0.0
 11
1738.347556435568
 21
1440.502037653585
 31
0.0
  0
LINE
  5
1F8
330
51
100
AcDbEntity
  8
1
  6
Continuous
 62
     7
100
AcDbLine
 10
1716.348384213657
 20
1462.502037653585
 30
0.0
 11
1716.348384213657
 21
1469.252037653585
 31
0.0
  0
LINE
  5
1F9
330
51
100
AcDbEntity
  8
0
  6
Continuous
 62
     7
100
AcDbLine
 10
1727.936858190881
 20
1470.902037653585
 30
0.0
 11
1727.848384213657
 21
1470.902037653585
 31
0.0
  0
LINE
  5
1FA
330
51
100
AcDbEntity
  8
0
  6
Continuous
 62
     7
100
AcDbLine
 10
1727.788870176202
 20
1470.836572212384
 30
0.0
 11
1727.848384213657
 21
1470.902037653585
 31
0.0
  0
LINE
  5
1FB
330
51
100
AcDbEntity
  8
0
  6
Continuous
 62
     7
100
AcDbLine
 10
1736.350215224614
 20
1470.902037653584
 30
0.0
 11
1734.745467889898
 21
1470.902037653584
 31
0.0
  0
LINE
  5
1FC
330
51
100
AcDbEntity
  8
1
  6
Continuous
 62
     7
100
AcDbLine
 10
1736.350215224614
 20
1469.902037653584
 30
0.0
 11
1736.350215224614
 21
1470.902037653584
 31
0.0
  0
LINE
  5
1FD
330
51
100
AcDbEntity
  8
1
  6
Continuous
 62
     7
100
AcDbLine
 10
1738.847556435559
 20
1469.902037653584
 30
0.0
 11
1736.350215224614
 21
1469.902037653584
 31
0.0
  0
LINE
  5
1FE
330
51
100
AcDbEntity
  8
0
  6
Continuous
 62
     7
100
AcDbLine
 10
1733.308987444322
 20
1470.293628085239
 30
0.0
 11
1732.348384213657
 21
1469.302037653584
 31
0.0
  0
LINE
  5
1FF
330
51
100
AcDbEntity
  8
0
  6
Continuous
 62
     7
100
AcDbLine
 10
1730.348384213657
 20
1469.302037653584
 30
0.0
 11
1732.348384213657
 21
1469.302037653584
 31
0.0
  0
LINE
  5
200
330
51
100
AcDbEntity
  8
0
  6
Continuous
 62
     7
100
AcDbLine
 10
1728.798384213655
 20
1470.902037653585
 30
0.0
 11
1730.348384213657
 21
1469.302037653584
 31
0.0
  0
LINE
  5
201
330
51
100
AcDbEntity
  8
0
  6
Continuous
 62
     7
100
AcDbLine
 10
1728.798384213655
 20
1470.902037653585
 30
0.0
 11
1727.936858190881
 21
1470.902037653585
 31
0.0
  0
LINE
  5
202
330
51
100
AcDbEntity
  8
0
  6
Continuous
 62
     7
100
AcDbLine
 10
1716.648384213657
 20
1470.352037653584
 30
0.0
 11
1727.348384213657
 21
1470.352037653584
 31
0.0
  0
LINE
  5
203
330
51
100
AcDbEntity
  8
0
  6
Continuous
 62
     7
100
AcDbLine
 10
1727.348384213657
 20
1470.352037653584
 30
0.0
 11
1727.788870176202
 21
1470.836572212384
 31
0.0
  0
LINE
  5
204
330
51
100
AcDbEntity
  8
0
  6
Continuous
 62
     7
100
AcDbLine
 10
1716.348384213657
 20
1470.052037653584
 30
0.0
 11
1716.348384213657
 21
1469.252037653585
 31
0.0
  0
LINE
  5
205
330
51
100
AcDbEntity
  8
0
  6
Continuous
 62
     7
100
AcDbLine
 10
1716.348384213657
 20
1470.052037653584
 30
0.0
 11
1716.648384213657
 21
1470.352037653584
 31
0.0
  0
LINE
  5
206
330
51
100
AcDbEntity
  8
1
  6
Continuous
 62
     7
100
AcDbLine
 10
1738.847556435559
 20
1473.502037653585
 30
0.0
 11
1738.847556435559
 21
1469.902037653584
 31
0.0
  0
LINE
  5
207
330
51
100
AcDbEntity
  8
1
  6
Continuous
 62
     7
100
AcDbLine
 10
1738.847556435559
 20
1462.502037653585
 30
0.0
 11
1738.847556435559
 21
1469.902037653584
 31
0.0
  0
LINE
  5
208
330
51
100
AcDbEntity
  8
1
  6
Continuous
 62
     7
100
AcDbLine
 10
1736.350215224614
 20
1462.502037653585
 30
0.0
 11
1736.350215224614
 21
1469.902037653584
 31
0.0
  0
LINE
  5
209
330
51
100
AcDbEntity
  8
1
  6
Continuous
 62
     7
100
AcDbLine
 10
1732.348384213657
 20
1462.502037653585
 30
0.0
 11
1732.348384213657
 21
1469.302037653584
 31
0.0
  0
LINE
  5
20A
330
51
100
AcDbEntity
  8
1
  6
Continuous
 62
     7
100
AcDbLine
 10
1730.348384213657
 20
1462.502037653585
 30
0.0
 11
1730.348384213657
 21
1469.302037653584
 31
0.0
  0
LINE
  5
20B
330
51
100
AcDbEntity
  8
1
  6
Continuous
 62
     7
100
AcDbLine
 10
1727.348384213657
 20
1462.502037653585
 30
0.0
 11
1727.348384213657
 21
1470.352037653584
 31
0.0
  0
LINE
  5
20C
330
51
100
AcDbEntity
  8
1
  6
Continuous
 62
     7
100
AcDbLine
 10
1728.798384213655
 20
1462.502037653585
 30
0.0
 11
1728.798384213655
 21
1470.902037653585
 31
0.0
  0
LINE
  5
20D
330
51
100
AcDbEntity
  8
1
  6
Continuous
 62
     7
100
AcDbLine
 10
1727.936858190881
 20
1462.502037653585
 30
0.0
 11
1727.936858190881
 21
1470.902037653585
 31
0.0
  0
LINE
  5
20E
330
51
100
AcDbEntity
  8
1
  6
Continuous
 62
     7
100
AcDbLine
 10
1716.348384213657
 20
1455.752037653585
 30
0.0
 11
1716.348384213657
 21
1462.502037653585
 31
0.0
  0
LINE
  5
20F
330
51
100
AcDbEntity
  8
0
  6
Continuous
 62
     7
100
AcDbLine
 10
1727.848384213657
 20
1454.102037653586
 30
0.0
 11
1727.936858190881
 21
1454.102037653586
 31
0.0
  0
LINE
  5
210
330
51
100
AcDbEntity
  8
0
  6
Continuous
 62
     7
100
AcDbLine
 10
1727.848384213657
 20
1454.102037653586
 30
0.0
 11
1727.788870176202
 21
1454.167503094787
 31
0.0
  0
LINE
  5
211
330
51
100
AcDbEntity
  8
0
  6
Continuous
 62
     7
100
AcDbLine
 10
1734.745467889898
 20
1454.102037653586
 30
0.0
 11
1736.350215224614
 21
1454.102037653586
 31
0.0
  0
LINE
  5
212
330
51
100
AcDbEntity
  8
1
  6
Continuous
 62
     7
100
AcDbLine
 10
1736.350215224614
 20
1454.102037653586
 30
0.0
 11
1736.350215224614
 21
1455.102037653586
 31
0.0
  0
LINE
  5
213
330
51
100
AcDbEntity
  8
1
  6
Continuous
 62
     7
100
AcDbLine
 10
1736.350215224614
 20
1455.102037653586
 30
0.0
 11
1738.847556435559
 21
1455.102037653586
 31
0.0
  0
LINE
  5
214
330
51
100
AcDbEntity
  8
0
  6
Continuous
 62
     7
100
AcDbLine
 10
1732.348384213657
 20
1455.702037653586
 30
0.0
 11
1733.308987444322
 21
1454.710447221931
 31
0.0
  0
LINE
  5
215
330
51
100
AcDbEntity
  8
0
  6
Continuous
 62
     7
100
AcDbLine
 10
1732.348384213657
 20
1455.702037653586
 30
0.0
 11
1730.348384213657
 21
1455.702037653586
 31
0.0
  0
LINE
  5
216
330
51
100
AcDbEntity
  8
0
  6
Continuous
 62
     7
100
AcDbLine
 10
1730.348384213657
 20
1455.702037653586
 30
0.0
 11
1728.798384213655
 21
1454.102037653586
 31
0.0
  0
LINE
  5
217
330
51
100
AcDbEntity
  8
0
  6
Continuous
 62
     7
100
AcDbLine
 10
1727.936858190881
 20
1454.102037653586
 30
0.0
 11
1728.798384213655
 21
1454.102037653586
 31
0.0
  0
LINE
  5
218
330
51
100
AcDbEntity
  8
0
  6
Continuous
 62
     7
100
AcDbLine
 10
1727.348384213657
 20
1454.652037653586
 30
0.0
 11
1716.648384213657
 21
1454.652037653586
 31
0.0
  0
LINE
  5
219
330
51
100
AcDbEntity
  8
0
  6
Continuous
 62
     7
100
AcDbLine
 10
1727.788870176202
 20
1454.167503094787
 30
0.0
 11
1727.348384213657
 21
1454.652037653586
 31
0.0
  0
LINE
  5
21A
330
51
100
AcDbEntity
  8
0
  6
Continuous
 62
     7
100
AcDbLine
 10
1716.348384213657
 20
1455.752037653585
 30
0.0
 11
1716.348384213657
 21
1454.952037653586
 31
0.0
  0
LINE
  5
21B
330
51
100
AcDbEntity
  8
0
  6
Continuous
 62
     7
100
AcDbLine
 10
1716.648384213657
 20
1454.652037653586
 30
0.0
 11
1716.348384213657
 21
1454.952037653586
 31
0.0
  0
LINE
  5
21C
330
51
100
AcDbEntity
  8
1
  6
Continuous
 62
     7
100
AcDbLine
 10
1738.847556435559
 20
1455.102037653586
 30
0.0
 11
1738.847556435559
 21
1451.502037653585
 31
0.0
  0
LINE
  5
21D
330
51
100
AcDbEntity
  8
1
  6
Continuous
 62
     7
100
AcDbLine
 10
1738.847556435559
 20
1455.102037653586
 30
0.0
 11
1738.847556435559
 21
1462.502037653585
 31
0.0
  0
LINE
  5
21E
330
51
100
AcDbEntity
  8
1
  6
Continuous
 62
     7
100
AcDbLine
 10
1736.350215224614
 20
1455.102037653586
 30
0.0
 11
1736.350215224614
 21
1462.502037653585
 31
0.0
  0
LINE
  5
21F
330
51
100
AcDbEntity
  8
1
  6
Continuous
 62
     7
100
AcDbLine
 10
1732.348384213657
 20
1455.702037653586
 30
0.0
 11
1732.348384213657
 21
1462.502037653585
 31
0.0
  0
LINE
  5
220
330
51
100
AcDbEntity
  8
1
  6
Continuous
 62
     7
100
AcDbLine
 10
1730.348384213657
 20
1455.702037653586
 30
0.0
 11
1730.348384213657
 21
1462.502037653585
 31
0.0
  0
LINE
  5
221
330
51
100
AcDbEntity
  8
1
  6
Continuous
 62
     7
100
AcDbLine
 10
1727.348384213657
 20
1454.652037653586
 30
0.0
 11
1727.348384213657
 21
1462.502037653585
 31
0.0
  0
LINE
  5
222
330
51
100
AcDbEntity
  8
1
  6
Continuous
 62
     7
100
AcDbLine
 10
1728.798384213655
 20
1454.102037653586
 30
0.0
 11
1728.798384213655
 21
1462.502037653585
 31
0.0
  0
LINE
  5
223
330
51
100
AcDbEntity
  8
1
  6
Continuous
 62
     7
100
AcDbLine
 10
1727.936858190881
 20
1454.102037653586
 30
0.0
 11
1727.936858190881
 21
1462.502037653585
 31
0.0
  0
LINE
  5
224
330
51
100
AcDbEntity
  8
1
  6
Continuous
 62
     7
100
AcDbLine
 10
1738.847556435557
 20
1448.323742963866
 30
0.0
 11
1738.847556435557
 21
1476.680332343294
 31
0.0
  0
LINE
  5
225
330
51
100
AcDbEntity
  8
1
  6
Continuous
 62
     7
100
AcDbLine
 10
1778.875725424612
 20
1440.84614696715
 30
0.0
 11
1776.770159704966
 21
1441.217415013178
 31
0.0
  0
LINE
  5
226
330
51
100
AcDbEntity
  8
1
  6
Continuous
 62
     7
100
AcDbLine
 10
1472.378378213646
 20
960.510725138857
 30
0.0
 11
1472.378378213655
 21
959.0020376535838
 31
0.0
  0
LINE
  5
227
330
51
100
AcDbEntity
  8
1
  6
Continuous
 62
     7
100
AcDbLine
 10
1464.378378213656
 20
960.510725138857
 30
0.0
 11
1464.378378213656
 21
959.0020376535838
 31
0.0
  0
LINE
  5
228
330
51
100
AcDbEntity
  8
1
  6
Continuous
 62
     7
100
AcDbLine
 10
1451.878378213651
 20
1434.617619738018
 30
0.0
 11
1451.878378213651
 21
1447.95040544272
 31
0.0
  0
LINE
  5
229
330
51
100
AcDbEntity
  8
1
  6
Continuous
 62
     7
100
AcDbLine
 10
1484.878378213651
 20
1434.620715457342
 30
0.0
 11
1484.878378213651
 21
1447.950405442708
 31
0.0
  0
LINE
  5
22A
330
51
100
AcDbEntity
  8
1
  6
Continuous
 62
     7
100
AcDbLine
 10
1483.857505673245
 20
1428.486078971904
 30
0.0
 11
1483.857505673245
 21
1439.502037653574
 31
0.0
  0
LINE
  5
22B
330
51
100
AcDbEntity
  8
1
  6
Continuous
 62
     7
100
AcDbLine
 10
1453.262993081999
 20
1439.502037653574
 30
0.0
 11
1457.128378213656
 21
1439.502037653574
 31
0.0
  0
LINE
  5
22C
330
51
100
AcDbEntity
  8
1
  6
Continuous
 62
     7
100
AcDbLine
 10
1453.262993081999
 20
1439.502037653574
 30
0.0
 11
1453.262993081999
 21
1425.5168841566
 31
0.0
  0
LINE
  5
22D
330
51
100
AcDbEntity
  8
1
  6
Continuous
 62
     7
100
AcDbLine
 10
1479.628378213656
 20
1439.502037653574
 30
0.0
 11
1479.628378213656
 21
1443.596020093018
 31
0.0
  0
LINE
  5
22E
330
51
100
AcDbEntity
  8
1
  6
Continuous
 62
     7
100
AcDbLine
 10
1479.628378213656
 20
1439.502037653574
 30
0.0
 11
1483.857505673245
 21
1439.502037653574
 31
0.0
  0
LINE
  5
22F
330
51
100
AcDbEntity
  8
1
  6
Continuous
 62
     7
100
AcDbLine
 10
1457.128378213656
 20
1439.502037653574
 30
0.0
 11
1457.128378213656
 21
1443.596020093018
 31
0.0
  0
LINE
  5
230
330
51
100
AcDbEntity
  8
1
  6
Continuous
 62
     7
100
AcDbLine
 10
1457.128378213656
 20
1439.502037653574
 30
0.0
 11
1479.628378213656
 21
1439.502037653574
 31
0.0
  0
LINE
  5
231
330
51
100
AcDbEntity
  8
1
  6
Continuous
 62
     7
100
AcDbLine
 10
1776.770159704966
 20
1441.217415013178
 30
0.0
 11
1775.395195043667
 21
1441.459858380486
 31
0.0
  0
LINE
  5
232
330
51
100
AcDbEntity
  8
1
  6
Continuous
 62
     7
100
AcDbLine
 10
1775.395195043667
 20
1441.459858380486
 30
0.0
 11
1739.260732346723
 21
1447.83133908736
 31
0.0
  0
LINE
  5
233
330
51
100
AcDbEntity
  8
1
  6
Continuous
 62
     7
100
AcDbLine
 10
1778.875725424612
 20
1441.504949244546
 30
0.0
 11
1778.875725424612
 21
1440.84614696715
 31
0.0
  0
LINE
  5
234
330
51
100
AcDbEntity
  8
1
  6
Continuous
 62
     7
100
AcDbLine
 10
1778.875725424612
 20
1441.504949244546
 30
0.0
 11
1781.531536495656
 21
1441.504949244546
 31
0.0
  0
LINE
  5
235
330
51
100
AcDbEntity
  8
1
  6
Continuous
 62
     7
100
AcDbLine
 10
1778.875725424612
 20
1440.84614696715
 30
0.0
 11
1778.875725424612
 21
1429.004949244546
 31
0.0
  0
LINE
  5
236
330
51
100
AcDbEntity
  8
1
  6
Continuous
 62
     7
100
AcDbLine
 10
1781.531536495656
 20
1441.504949244546
 30
0.0
 11
1781.531536495656
 21
1446.225587829585
 31
0.0
  0
LINE
  5
237
330
51
100
AcDbEntity
  8
1
  6
Continuous
 62
     7
100
AcDbLine
 10
1781.531536495656
 20
1441.504949244546
 30
0.0
 11
1783.12572542461
 21
1441.504949244546
 31
0.0
  0
LINE
  5
238
330
51
100
AcDbEntity
  8
1
  6
Continuous
 62
     7
100
AcDbLine
 10
1781.531536495656
 20
1446.225587829585
 30
0.0
 11
1781.531536495656
 21
1448.2554496207
 31
0.0
  0
ARC
  5
239
330
51
100
AcDbEntity
  8
1
  6
Continuous
 62
     7
100
AcDbCircle
 10
1468.378378213656
 20
1417.226756754707
 30
0.0
 40
3.724719101121991
100
AcDbArc
 50
270.0
 51
355.6661706336312
  0
ARC
  5
23A
330
51
100
AcDbEntity
  8
1
  6
Continuous
 62
     7
100
AcDbCircle
 10
1564.378378213656
 20
1424.502037653585
 30
0.0
 40
100.0000000000004
100
AcDbArc
 50
174.8558363519435
 51
184.333829366374
  0
ARC
  5
23B
330
51
100
AcDbEntity
  8
1
  6
Continuous
 62
     7
100
AcDbCircle
 10
1468.378378213656
 20
1417.226756754707
 30
0.0
 40
3.724719101123704
100
AcDbArc
 50
184.3338293663685
 51
270.0
  0
ARC
  5
23C
330
51
100
AcDbEntity
  8
0
  6
Continuous
 62
     7
100
AcDbCircle
 10
1469.178378213652
 20
1464.852037653584
 30
0.0
 40
0.299999999999955
100
AcDbArc
 50
180.0000030704637
 51
269.9999984650503
  0
ARC
  5
23D
330
51
100
AcDbEntity
  8
0
  6
Continuous
 62
     7
100
AcDbCircle
 10
1467.578378213653
 20
1464.852037653584
 30
0.0
 40
0.2999999999999546
100
AcDbArc
 50
269.9999984644858
 51
0.0
  0
ARC
  5
23E
330
51
100
AcDbEntity
  8
0
  6
Continuous
 62
     7
100
AcDbCircle
 10
1468.378378213652
 20
1462.552037653584
 30
0.0
 40
4.000000000000869
100
AcDbArc
 50
299.9999989765401
 51
308.6201853280437
  0
ARC
  5
23F
330
51
100
AcDbEntity
  8
0
  6
PHANTOM
 62
     4
100
AcDbCircle
 10
1468.378378213652
 20
1462.552037653584
 30
0.0
 40
3.200000000000331
100
AcDbArc
 50
327.5382544790269
 51
351.0107005015027
  0
ARC
  5
240
330
51
100
AcDbEntity
  8
0
  6
PHANTOM
 62
     4
100
AcDbCircle
 10
1468.378378213652
 20
1462.552037653584
 30
0.0
 40
3.200000000002275
100
AcDbArc
 50
8.98929949849727
 51
81.01070203670284
  0
ARC
  5
241
330
51
100
AcDbEntity
  8
0
  6
PHANTOM
 62
     7
100
AcDbCircle
 10
1468.378378213652
 20
1462.552037653584
 30
0.0
 40
3.19999999999933
100
AcDbArc
 50
98.98930103369531
 51
171.0107035719635
  0
ARC
  5
242
330
51
100
AcDbEntity
  8
0
  6
PHANTOM
 62
     4
100
AcDbCircle
 10
1468.378378213652
 20
1462.552037653584
 30
0.0
 40
3.200000000000428
100
AcDbArc
 50
188.9892964280324
 51
212.4617424505453
  0
ARC
  5
243
330
51
100
AcDbEntity
  8
0
  6
PHANTOM
 62
     4
100
AcDbCircle
 10
1468.378378213652
 20
1462.552037653584
 30
0.0
 40
4.000000000002108
100
AcDbArc
 50
312.4541493933765
 51
227.5458475362038
  0
ARC
  5
244
330
51
100
AcDbEntity
  8
0
  6
Continuous
 62
     7
100
AcDbCircle
 10
1468.378378213652
 20
1462.552037653584
 30
0.0
 40
3.999999999998262
100
AcDbArc
 50
231.3798116015359
 51
239.9999979530279
  0
ARC
  5
245
330
51
100
AcDbEntity
  8
0
  6
PHANTOM
 62
     4
100
AcDbCircle
 10
1468.378378213652
 20
1462.552037653584
 30
0.0
 40
7.000000000001244
100
AcDbArc
 50
284.7323669662549
 51
353.8493601720585
  0
ARC
  5
246
330
51
100
AcDbEntity
  8
0
  6
PHANTOM
 62
     4
100
AcDbCircle
 10
1468.378378213652
 20
1462.552037653584
 30
0.0
 40
6.999999999999502
100
AcDbArc
 50
353.8493601720585
 51
6.15063982794148
  0
ARC
  5
247
330
51
100
AcDbEntity
  8
0
  6
PHANTOM
 62
     4
100
AcDbCircle
 10
1468.378378213652
 20
1462.552037653584
 30
0.0
 40
6.999999999999502
100
AcDbArc
 50
6.15063982794148
 51
173.8493601720585
  0
ARC
  5
248
330
51
100
AcDbEntity
  8
0
  6
PHANTOM
 62
     4
100
AcDbCircle
 10
1468.378378213652
 20
1462.552037653584
 30
0.0
 40
6.999999999999502
100
AcDbArc
 50
173.8493601720585
 51
186.1506398279415
  0
ARC
  5
249
330
51
100
AcDbEntity
  8
0
  6
PHANTOM
 62
     4
100
AcDbCircle
 10
1468.378378213652
 20
1462.552037653584
 30
0.0
 40
6.499999999999617
100
AcDbArc
 50
6.62580956482337
 51
173.3741904351766
  0
ARC
  5
24A
330
51
100
AcDbEntity
  8
0
  6
PHANTOM
 62
     4
100
AcDbCircle
 10
1468.378378213652
 20
1462.552037653584
 30
0.0
 40
6.500000000000532
100
AcDbArc
 50
287.9202131393907
 51
353.3741904351766
  0
ARC
  5
24B
330
51
100
AcDbEntity
  8
0
  6
PHANTOM
 62
     4
100
AcDbCircle
 10
1468.378378213652
 20
1462.552037653584
 30
0.0
 40
6.999999999999502
100
AcDbArc
 50
186.1506398279415
 51
255.2676330337751
  0
ARC
  5
24C
330
51
100
AcDbEntity
  8
0
  6
PHANTOM
 62
     4
100
AcDbCircle
 10
1468.378378213652
 20
1462.552037653584
 30
0.0
 40
6.499999999999617
100
AcDbArc
 50
186.6258095648234
 51
252.0797868606061
  0
ARC
  5
24D
330
51
100
AcDbEntity
  8
0
  6
PHANTOM
 62
     4
100
AcDbCircle
 10
1468.378378213652
 20
1462.552037653584
 30
0.0
 40
4.40000000000191
100
AcDbArc
 50
0.0
 51
242.9643082105875
  0
ARC
  5
24E
330
51
100
AcDbEntity
  8
0
  6
PHANTOM
 62
     7
100
AcDbCircle
 10
1468.378378213652
 20
1462.552037653584
 30
0.0
 40
4.399999999999971
100
AcDbArc
 50
297.0356917894125
 51
0.0
  0
ARC
  5
24F
330
51
100
AcDbEntity
  8
0
  6
PHANTOM
 62
     4
100
AcDbCircle
 10
1468.378378213652
 20
1462.552037653584
 30
0.0
 40
5.90000000000191
100
AcDbArc
 50
0.0
 51
250.1850718514925
  0
ARC
  5
250
330
51
100
AcDbEntity
  8
0
  6
PHANTOM
 62
     4
100
AcDbCircle
 10
1468.378378213652
 20
1462.552037653584
 30
0.0
 40
5.899999999999841
100
AcDbArc
 50
289.8149281485075
 51
0.0
  0
ARC
  5
251
330
51
100
AcDbEntity
  8
0
  6
Continuous
 62
     7
100
AcDbCircle
 10
1468.378378001973
 20
1462.552037653584
 30
0.0
 40
7.899999999999864
100
AcDbArc
 50
270.0
 51
90.0
  0
ARC
  5
252
330
51
100
AcDbEntity
  8
0
  6
Continuous
 62
     7
100
AcDbCircle
 10
1468.378378001973
 20
1462.552037653584
 30
0.0
 40
7.900000000000091
100
AcDbArc
 50
90.0
 51
270.0
  0
ARC
  5
253
330
51
100
AcDbEntity
  8
1
  6
Continuous
 62
     7
100
AcDbCircle
 10
1468.378378213651
 20
944.4734662250207
 30
0.0
 40
16.52857142857119
100
AcDbArc
 50
104.0049183247315
 51
183.3693686358216
  0
ARC
  5
254
330
51
100
AcDbEntity
  8
1
  6
Continuous
 62
     7
100
AcDbCircle
 10
1476.578378213657
 20
1009.940904887316
 30
0.0
 40
0.1999999999989086
100
AcDbArc
 50
0.0
 51
47.72631099415165
  0
ARC
  5
255
330
51
100
AcDbEntity
  8
1
  6
Continuous
 62
     7
100
AcDbCircle
 10
1460.178378213656
 20
1009.940904887316
 30
0.0
 40
0.1999999999982981
100
AcDbArc
 50
132.2736890056556
 51
180.0
  0
ARC
  5
256
330
51
100
AcDbEntity
  8
0
  6
Continuous
 62
     7
100
AcDbCircle
 10
1468.378378213656
 20
943.9837367729187
 30
0.0
 40
10.00000000000084
100
AcDbArc
 50
225.572995999199
 51
314.427004000801
  0
ARC
  5
257
330
51
100
AcDbEntity
  8
0
  6
Continuous
 62
     7
100
AcDbCircle
 10
1468.378378213656
 20
943.9837367729187
 30
0.0
 40
9.999999999999382
100
AcDbArc
 50
45.57299599919083
 51
134.4270040008092
  0
ARC
  5
258
330
51
100
AcDbEntity
  8
1
  6
Continuous
 62
     7
100
AcDbCircle
 10
1468.378378213656
 20
943.5020376535838
 30
0.0
 40
15.50000000000034
100
AcDbArc
 50
104.8445623677699
 51
255.4897575355019
  0
ARC
  5
259
330
51
100
AcDbEntity
  8
1
  6
Continuous
 62
     7
100
AcDbCircle
 10
1468.378378213655
 20
927.5020376535717
 30
0.0
 40
3.99999999999979
100
AcDbArc
 50
359.0990358692308
 51
0.0
  0
ARC
  5
25A
330
51
100
AcDbEntity
  8
1
  6
Continuous
 62
     7
100
AcDbCircle
 10
1468.378378213656
 20
943.5020376535838
 30
0.0
 40
15.49999999999917
100
AcDbArc
 50
284.5102424632954
 51
75.19981789236499
  0
ARC
  5
25B
330
51
100
AcDbEntity
  8
1
  6
Continuous
 62
     7
100
AcDbCircle
 10
1468.378378213655
 20
974.5020376535876
 30
0.0
 40
3.999999999999091
100
AcDbArc
 50
90.0
 51
180.0
  0
ARC
  5
25C
330
51
100
AcDbEntity
  8
1
  6
Continuous
 62
     7
100
AcDbCircle
 10
1468.378378213655
 20
974.5020376535876
 30
0.0
 40
4.000000000001137
100
AcDbArc
 50
0.0
 51
90.0
  0
ARC
  5
25D
330
51
100
AcDbEntity
  8
1
  6
Continuous
 62
     7
100
AcDbCircle
 10
1474.378378213656
 20
924.4427029031067
 30
0.0
 40
9.79880724781179
100
AcDbArc
 50
243.7746061724965
 51
296.2253938275023
  0
ARC
  5
25E
330
51
100
AcDbEntity
  8
1
  6
Continuous
 62
     7
100
AcDbCircle
 10
1474.378378213656
 20
917.7688956552938
 30
0.0
 40
9.87499999999991
100
AcDbArc
 50
63.99217611435545
 51
101.6879719963486
  0
ARC
  5
25F
330
51
100
AcDbEntity
  8
1
  6
Continuous
 62
     7
100
AcDbCircle
 10
1462.378378213656
 20
924.4427029031067
 30
0.0
 40
9.79880724781179
100
AcDbArc
 50
243.7746061724965
 51
296.2253938275023
  0
ARC
  5
260
330
51
100
AcDbEntity
  8
1
  6
Continuous
 62
     7
100
AcDbCircle
 10
1462.378378213656
 20
917.7688956552938
 30
0.0
 40
9.874999999999861
100
AcDbArc
 50
78.31202800366461
 51
116.0078238856457
  0
ARC
  5
261
330
51
100
AcDbEntity
  8
1
  6
Continuous
 62
     7
100
AcDbCircle
 10
1727.936858190881
 20
1470.702037653586
 30
0.0
 40
0.1999999999989086
100
AcDbArc
 50
90.0
 51
137.7263109941516
  0
ARC
  5
262
330
51
100
AcDbEntity
  8
1
  6
Continuous
 62
     7
100
AcDbCircle
 10
1727.936858190881
 20
1454.302037653585
 30
0.0
 40
0.1999999999990628
100
AcDbArc
 50
222.2736890058965
 51
270.0
  0
ARC
  5
263
330
51
100
AcDbEntity
  8
1
  6
Continuous
 62
     7
100
AcDbCircle
 10
1468.88352050181
 20
1429.002037653585
 30
0.0
 40
15.49999999999989
100
AcDbArc
 50
345.0305208649749
 51
346.8934249479053
  0
ARC
  5
264
330
51
100
AcDbEntity
  8
1
  6
Continuous
 62
     7
100
AcDbCircle
 10
1468.378378213651
 20
944.4734662250207
 30
0.0
 40
16.52857142857079
100
AcDbArc
 50
356.6306313641783
 51
75.99508167526848
  0
ARC
  5
265
330
51
100
AcDbEntity
  8
1
  6
Continuous
 62
     7
100
AcDbCircle
 10
1468.378378213655
 20
927.5020376535717
 30
0.0
 40
4.000000000000012
100
AcDbArc
 50
294.6748501044119
 51
359.0990358692308
  0
ARC
  5
266
330
51
100
AcDbEntity
  8
1
  6
Continuous
 62
     7
100
AcDbCircle
 10
1468.378378213655
 20
927.5020376535717
 30
0.0
 40
3.999999999999778
100
AcDbArc
 50
245.3251498956189
 51
294.6748501044119
  0
ARC
  5
267
330
51
100
AcDbEntity
  8
1
  6
Continuous
 62
     7
100
AcDbCircle
 10
1468.378378213655
 20
927.5020376535717
 30
0.0
 40
3.999999999999787
100
AcDbArc
 50
180.900964130766
 51
245.3251498956189
  0
ARC
  5
268
330
51
100
AcDbEntity
  8
1
  6
Continuous
 62
     7
100
AcDbCircle
 10
1468.378378213655
 20
927.5020376535717
 30
0.0
 40
3.999999999998863
100
AcDbArc
 50
180.0
 51
180.900964130766
  0
ARC
  5
269
330
51
100
AcDbEntity
  8
1
  6
Continuous
 62
     7
100
AcDbCircle
 10
1468.378378213656
 20
1462.502037653584
 30
0.0
 40
22.00000000000954
100
AcDbArc
 50
221.4096221092794
 51
230.8201835208702
  0
ARC
  5
26A
330
51
100
AcDbEntity
  8
1
  6
Continuous
 62
     7
100
AcDbCircle
 10
1468.378378213656
 20
1462.502037653584
 30
0.0
 40
22.00000000000972
100
AcDbArc
 50
300.7547036330163
 51
313.2854652168205
  0
ARC
  5
26B
330
51
100
AcDbEntity
  8
1
  6
Continuous
 62
     7
100
AcDbCircle
 10
1468.378378213656
 20
1462.502037653584
 30
0.0
 40
22.00000000000972
100
AcDbArc
 50
239.2452963669838
 51
262.2481725666235
  0
ARC
  5
26C
330
51
100
AcDbEntity
  8
1
  6
Continuous
 62
     7
100
AcDbCircle
 10
1468.375762530631
 20
1462.502037653584
 30
0.0
 40
32.39914276322907
100
AcDbArc
 50
0.0
 51
239.3899757246673
  0
ARC
  5
26D
330
51
100
AcDbEntity
  8
1
  6
Continuous
 62
     7
100
AcDbCircle
 10
1468.375762530631
 20
1462.502037653584
 30
0.0
 40
32.39914276322947
100
AcDbArc
 50
300.6207740723835
 51
0.0
  0
ARC
  5
26E
330
51
100
AcDbEntity
  8
1
  6
Continuous
 62
     7
100
AcDbCircle
 10
1468.378378213656
 20
1462.502037653584
 30
0.0
 40
22.00000000001019
100
AcDbArc
 50
313.2854652168205
 51
318.5903778906799
  0
ARC
  5
26F
330
51
100
AcDbEntity
  8
1
  6
Continuous
 62
     7
100
AcDbCircle
 10
1468.378378213656
 20
1462.502037653584
 30
0.0
 40
22.00000000001001
100
AcDbArc
 50
318.5903778906799
 51
221.4096221092794
  0
ARC
  5
270
330
51
100
AcDbEntity
  8
1
  6
Continuous
 62
     7
100
AcDbCircle
 10
1468.366095581236
 20
1429.002037653585
 30
0.0
 40
15.50000000000028
100
AcDbArc
 50
192.9939762084934
 51
358.0924053492822
  0
ARC
  5
271
330
51
100
AcDbEntity
  8
1
  6
Continuous
 62
     7
100
AcDbCircle
 10
1468.378378213656
 20
1462.502037653584
 30
0.0
 40
22.00000000000967
100
AcDbArc
 50
262.2481725666235
 51
282.6492126316324
  0
ARC
  5
272
330
51
100
AcDbEntity
  8
1
  6
Continuous
 62
     7
100
AcDbCircle
 10
1372.378378213656
 20
1424.502037653585
 30
0.0
 40
100.0
100
AcDbArc
 50
355.666170633626
 51
5.14416364805247
  0
ARC
  5
273
330
51
100
AcDbEntity
  8
1
  6
Continuous
 62
     7
100
AcDbCircle
 10
1468.378378213656
 20
1432.502059074509
 30
0.0
 40
3.724719101121991
100
AcDbArc
 50
90.0
 51
164.9657209613521
  0
ARC
  5
274
330
51
100
AcDbEntity
  8
1
  6
Continuous
 62
     7
100
AcDbCircle
 10
1468.378378213656
 20
1432.502059074509
 30
0.0
 40
3.72471910112177
100
AcDbArc
 50
15.03427903854407
 51
90.0
  0
ARC
  5
275
330
51
100
AcDbEntity
  8
1
  6
Continuous
 62
     7
100
AcDbCircle
 10
1468.378378213656
 20
1462.502037653584
 30
0.0
 40
22.00000000000962
100
AcDbArc
 50
282.6492126316324
 51
300.7547036330163
  0
ARC
  5
276
330
51
100
AcDbEntity
  8
1
  6
Continuous
 62
     7
100
AcDbCircle
 10
1468.378378213656
 20
1462.502037653584
 30
0.0
 40
22.00000000000992
100
AcDbArc
 50
230.8201835208702
 51
239.2452963669838
  0
ARC
  5
277
330
51
100
AcDbEntity
  8
1
  6
Continuous
 62
     7
100
AcDbCircle
 10
1784.779218156088
 20
1438.370489877772
 30
0.0
 40
8.50000000000508
100
AcDbArc
 50
112.4625944033454
 51
160.4315746158117
  0
ARC
  5
278
330
51
100
AcDbEntity
  8
1
  6
Continuous
 62
     7
100
AcDbCircle
 10
1785.50796971365
 20
1438.496456914674
 30
0.0
 40
10.53802447204577
100
AcDbArc
 50
112.1691015970697
 51
163.6675450187796
  0
ARC
  5
279
330
51
100
AcDbEntity
  8
1
  6
Continuous
 62
     7
100
AcDbCircle
 10
1777.875725424612
 20
1436.20915008765
 30
0.0
 40
0.9999999999993837
100
AcDbArc
 50
275.6447775523342
 51
0.0
  0
ARC
  5
27A
330
51
100
AcDbEntity
  8
1
  6
Continuous
 62
     7
100
AcDbCircle
 10
1766.18726388615
 20
1424.504949244546
 30
0.0
 40
6.811538461538698
100
AcDbArc
 50
112.8901275578534
 51
247.1098724421466
  0
ARC
  5
27B
330
51
100
AcDbEntity
  8
1
  6
Continuous
 62
     7
100
AcDbCircle
 10
1785.375725424612
 20
1385.396758541856
 30
0.0
 40
50.36409174372046
100
AcDbArc
 50
98.45094727005514
 51
115.696297275527
  0
ARC
  5
27C
330
51
100
AcDbEntity
  8
1
  6
Continuous
 62
     7
100
AcDbCircle
 10
1794.375725424612
 20
1429.004949244546
 30
0.0
 40
15.5
100
AcDbArc
 50
180.0
 51
224.8052415769022
  0
ARC
  5
27D
330
51
100
AcDbEntity
  8
1
  6
Continuous
 62
     7
100
AcDbCircle
 10
1786.875725424612
 20
1473.504949244546
 30
0.0
 40
60.00000000000041
100
AcDbArc
 50
247.1098724421563
 51
266.6583853402336
  0
ARC
  5
27E
330
51
100
AcDbEntity
  8
1
  6
Continuous
 62
     7
100
AcDbCircle
 10
1785.50796971365
 20
1438.496456914674
 30
0.0
 40
10.53802447204542
100
AcDbArc
 50
101.6589930042488
 51
112.1691015970697
  0
CIRCLE
  5
27F
330
51
100
AcDbEntity
  8
1
  6
PHANTOM
 62
     4
100
AcDbCircle
 10
1468.378378213656
 20
1462.502037653584
 30
0.0
 40
7.849999999999
  0
SPLINE
  5
280
330
51
100
AcDbEntity
  8
1
  6
Continuous
 62
     7
100
AcDbSpline
210
0.0
220
0.0
230
1.0
 70
     8
 71
     3
 72
    39
 73
    35
 74
    33
 42
0.000000001
 43
0.0000000001
 44
0.00000001
 40
0.0
 40
0.0
 40
0.0
 40
0.0
 40
0.8141162163101713
 40
1.628044431876364
 40
2.441115332044822
 40
3.254737856949814
 40
4.070360154067844
 40
4.884586775076905
 40
5.720631077571444
 40
6.557054732643977
 40
7.416022354240559
 40
8.280509950827884
 40
9.173609232681098
 40
10.04242608334727
 40
10.88855169715434
 40
11.8282140285555
 40
13.05005333969758
 40
13.89836720935062
 40
14.74668107900362
 40
15.96852039014653
 40
16.90818272154807
 40
17.75430833535551
 40
18.62312518602132
 40
19.5162244678742
 40
20.38071206446161
 40
21.23967968605804
 40
22.0761033411303
 40
22.91214764362515
 40
23.72637426463427
 40
24.5419965617522
 40
25.35561908665708
 40
26.16868998682565
 40
26.98261820239181
 40
27.79673441870202
 40
27.79673441870202
 40
27.79673441870202
 40
27.79673441870202
 10
1472.378378213655
 20
959.0020376535838
 30
0.0
 10
1472.356988904802
 20
958.7315099308241
 30
0.0
 10
1472.3142152177
 20
958.1905169579237
 30
0.0
 10
1472.252801063843
 20
957.3791275472831
 30
0.0
 10
1472.196851896764
 20
956.5675115004185
 30
0.0
 10
1472.147044447638
 20
955.7549011996864
 30
0.0
 10
1472.104165307873
 20
954.9416091318509
 30
0.0
 10
1472.020862728241
 20
954.122842980499
 30
0.0
 10
1471.84854002795
 20
953.3105999660276
 30
0.0
 10
1471.612812255148
 20
952.5000394049433
 30
0.0
 10
1471.34052519223
 20
951.6911572786498
 30
0.0
 10
1471.031711154376
 20
950.8752048981514
 30
0.0
 10
1470.697924602157
 20
950.0661203127723
 30
0.0
 10
1470.350123385634
 20
949.2680614270732
 30
0.0
 10
1469.991548567674
 20
948.4639455042422
 30
0.0
 10
1469.549874807052
 20
947.5412136989438
 30
0.0
 10
1469.187310455093
 20
946.7020346945679
 30
0.0
 10
1468.378378213656
 20
945.7348119251891
 30
0.0
 10
1467.569445972219
 20
946.7020346945677
 30
0.0
 10
1467.20688162026
 20
947.5412136989437
 30
0.0
 10
1466.765207859636
 20
948.4639455042422
 30
0.0
 10
1466.406633041675
 20
949.2680614270726
 30
0.0
 10
1466.058831825152
 20
950.0661203127727
 30
0.0
 10
1465.725045272935
 20
950.8752048981518
 30
0.0
 10
1465.416231235081
 20
951.6911572786495
 30
0.0
 10
1465.143944172162
 20
952.5000394049437
 30
0.0
 10
1464.908216399362
 20
953.3105999660274
 30
0.0
 10
1464.735893699069
 20
954.1228429804987
 30
0.0
 10
1464.652591119439
 20
954.9416091318512
 30
0.0
 10
1464.609711979673
 20
955.7549011996864
 30
0.0
 10
1464.559904530547
 20
956.5675115004186
 30
0.0
 10
1464.503955363469
 20
957.379127547283
 30
0.0
 10
1464.442541209612
 20
958.1905169579239
 30
0.0
 10
1464.399767522508
 20
958.731509930824
 30
0.0
 10
1464.378378213656
 20
959.0020376535838
 30
0.0
 11
1472.378378213655
 21
959.0020376535838
 31
0.0
 11
1472.314664129067
 21
958.1904184435438
 31
0.0
 11
1472.253689173882
 21
957.3787773930208
 31
0.0
 11
1472.197892982307
 21
956.5676232315475
 31
0.0
 11
1472.148241226583
 21
955.7555171324568
 31
0.0
 11
1472.097514967365
 21
954.9414737808595
 31
0.0
 11
1472.00733190331
 21
954.1322568718938
 31
0.0
 11
1471.838610330621
 21
953.3134143305824
 31
0.0
 11
1471.609445183698
 21
952.5089966113287
 31
0.0
 11
1471.336122311237
 21
951.6946748180064
 31
0.0
 11
1471.031233214244
 21
950.8857363507668
 31
0.0
 11
1470.692000846066
 21
950.059571882808
 31
0.0
 11
1470.346340582567
 21
949.2624760902017
 31
0.0
 11
1469.999462668893
 21
948.4907220700642
 31
0.0
 11
1469.602093294363
 21
947.6392158296378
 31
0.0
 11
1469.029299245074
 21
946.5599576215236
 31
0.0
 11
1468.378378213656
 21
946.0159555690748
 31
0.0
 11
1467.727457182238
 21
946.5599576215233
 31
0.0
 11
1467.154663132948
 21
947.6392158296378
 31
0.0
 11
1466.757293758416
 21
948.4907220700641
 31
0.0
 11
1466.410415844742
 21
949.2624760902017
 31
0.0
 11
1466.064755581244
 21
950.0595718828079
 31
0.0
 11
1465.725523213067
 21
950.8857363507668
 31
0.0
 11
1465.420634116073
 21
951.6946748180064
 31
0.0
 11
1465.147311243613
 21
952.5089966113287
 31
0.0
 11
1464.918146096691
 21
953.3134143305822
 31
0.0
 11
1464.749424524001
 21
954.1322568718938
 31
0.0
 11
1464.659241459946
 21
954.9414737808596
 31
0.0
 11
1464.608515200728
 21
955.7555171324568
 31
0.0
 11
1464.558863445004
 21
956.5676232315474
 31
0.0
 11
1464.503067253429
 21
957.3787773930208
 31
0.0
 11
1464.442092298244
 21
958.1904184435438
 31
0.0
 11
1464.378378213656
 21
959.0020376535838
 31
0.0
  0
SPLINE
  5
281
330
51
100
AcDbEntity
  8
1
  6
Continuous
 62
     7
100
AcDbSpline
210
0.0
220
0.0
230
1.0
 70
     8
 71
     3
 72
    45
 73
    41
 74
    39
 42
0.000000001
 43
0.0000000001
 44
0.00000001
 40
0.0
 40
0.0
 40
0.0
 40
0.0
 40
0.2515580314314623
 40
0.5003570898830415
 40
1.027744574207323
 40
1.565299680670393
 40
2.103968647699347
 40
2.638455515995596
 40
3.158849502391706
 40
3.68054498379784
 40
4.2082859169666
 40
4.735602070195202
 40
5.271600670234546
 40
5.808858192381662
 40
6.363074890228472
 40
6.912072912138657
 40
7.485196153476275
 40
8.0814102760736
 40
8.717965288540414
 40
9.33083142523284
 40
9.87173238539009
 40
10.41263334554846
 40
11.02549948224164
 40
11.66205449470974
 40
12.25826861730645
 40
12.83139185864355
 40
13.38038988055366
 40
13.93460657840052
 40
14.47186410054781
 40
15.00786270058766
 40
15.53517885381586
 40
16.0629197869845
 40
16.58461526839058
 40
17.10500925478691
 40
17.63949612308278
 40
18.17816509011192
 40
18.71572019657465
 40
19.24310768089883
 40
19.49190673935053
 40
19.74346477078185
 40
19.74346477078185
 40
19.74346477078185
 40
19.74346477078185
 10
1472.378378213655
 20
927.5020376535717
 30
0.0
 10
1472.382575026365
 20
927.58577114989
 30
0.0
 10
1472.39092261576
 20
927.752319792073
 30
0.0
 10
1472.382549461966
 20
928.0958769461747
 30
0.0
 10
1472.265743287243
 20
928.523308510036
 30
0.0
 10
1472.055053218537
 20
929.013877858803
 30
0.0
 10
1471.861980688993
 20
929.5152536175162
 30
0.0
 10
1471.699997708745
 20
930.0216239897927
 30
0.0
 10
1471.578533578945
 20
930.5331560212433
 30
0.0
 10
1471.464222895215
 20
931.0438078680015
 30
0.0
 10
1471.324512979125
 20
931.5507092420645
 30
0.0
 10
1471.166586043827
 20
932.0570298434232
 30
0.0
 10
1470.998647398265
 20
932.5634781825238
 30
0.0
 10
1470.812938570267
 20
933.0733110023384
 30
0.0
 10
1470.605297461887
 20
933.5793595020623
 30
0.0
 10
1470.374574377066
 20
934.0883085303719
 30
0.0
 10
1470.119358960084
 20
934.6016059687577
 30
0.0
 10
1469.796783783772
 20
935.1114366579657
 30
0.0
 10
1469.39974862815
 20
935.5848764946779
 30
0.0
 10
1468.940645644039
 20
935.9707991971741
 30
0.0
 10
1468.378378213656
 20
936.1687202364378
 30
0.0
 10
1467.816110783272
 20
935.970799197175
 30
0.0
 10
1467.35700779916
 20
935.5848764946791
 30
0.0
 10
1466.959972643537
 20
935.1114366579661
 30
0.0
 10
1466.637397467226
 20
934.6016059687578
 30
0.0
 10
1466.382182050245
 20
934.0883085303717
 30
0.0
 10
1466.151458965425
 20
933.5793595020622
 30
0.0
 10
1465.943817857044
 20
933.0733110023383
 30
0.0
 10
1465.758109029044
 20
932.563478182524
 30
0.0
 10
1465.590170383482
 20
932.0570298434236
 30
0.0
 10
1465.432243448186
 20
931.5507092420645
 30
0.0
 10
1465.292533532095
 20
931.0438078680013
 30
0.0
 10
1465.178222848367
 20
930.5331560212431
 30
0.0
 10
1465.056758718565
 20
930.0216239897929
 30
0.0
 10
1464.894775738318
 20
929.5152536175162
 30
0.0
 10
1464.701703208774
 20
929.0138778588032
 30
0.0
 10
1464.491013140068
 20
928.5233085100365
 30
0.0
 10
1464.374206965347
 20
928.0958769461741
 30
0.0
 10
1464.365833811551
 20
927.7523197920733
 30
0.0
 10
1464.374181400947
 20
927.5857711498895
 30
0.0
 10
1464.378378213656
 20
927.5020376535717
 30
0.0
 11
1472.378378213655
 21
927.5020376535717
 31
0.0
 11
1472.387828286066
 21
927.75341813036
 31
0.0
 11
1472.378378213656
 21
928.0020376535838
 31
0.0
 11
1472.255554187219
 21
928.5149234236279
 31
0.0
 11
1472.058291815876
 21
929.0149764696007
 31
0.0
 11
1471.866405439748
 21
929.5183092377308
 31
0.0
 11
1471.705228860331
 21
930.0279152856187
 31
0.0
 11
1471.579731998929
 21
930.5329503738917
 31
0.0
 11
1471.460568331547
 21
931.0408541016347
 31
0.0
 11
1471.321663167974
 21
931.5499865483512
 31
0.0
 11
1471.165966451265
 21
932.0537929176517
 31
0.0
 11
1470.996320913309
 21
932.562236513806
 31
0.0
 11
1470.811577258467
 21
933.0667317336688
 31
0.0
 11
1470.601557263525
 21
933.5796135423618
 31
0.0
 11
1470.374969935251
 21
934.0796705496848
 31
0.0
 11
1470.114333661356
 21
934.5901007431362
 31
0.0
 11
1469.793465519847
 21
935.0926093657017
 31
0.0
 11
1469.381253754654
 21
935.5776699234696
 31
0.0
 11
1468.897661185216
 21
935.9541578099299
 31
0.0
 11
1468.378378213656
 21
936.1055481817198
 31
0.0
 11
1467.859095242095
 21
935.9541578099306
 31
0.0
 11
1467.375502672656
 21
935.5776699234705
 31
0.0
 11
1466.963290907462
 21
935.0926093657017
 31
0.0
 11
1466.642422765954
 21
934.5901007431362
 31
0.0
 11
1466.38178649206
 21
934.0796705496848
 31
0.0
 11
1466.155199163787
 21
933.5796135423616
 31
0.0
 11
1465.945179168844
 21
933.0667317336688
 31
0.0
 11
1465.760435514001
 21
932.5622365138063
 31
0.0
 11
1465.590789976044
 21
932.0537929176517
 31
0.0
 11
1465.435093259337
 21
931.5499865483512
 31
0.0
 11
1465.296188095764
 21
931.0408541016347
 31
0.0
 11
1465.177024428382
 21
930.5329503738917
 31
0.0
 11
1465.051527566979
 21
930.0279152856187
 31
0.0
 11
1464.890350987563
 21
929.5183092377309
 31
0.0
 11
1464.698464611435
 21
929.0149764696007
 31
0.0
 11
1464.501202240093
 21
928.5149234236279
 31
0.0
 11
1464.378378213656
 21
928.0020376535838
 31
0.0
 11
1464.368928141246
 21
927.7534181303599
 31
0.0
 11
1464.378378213656
 21
927.5020376535717
 31
0.0
  0
ARC
  5
282
330
51
100
AcDbEntity
  8
1
  6
Continuous
 62
     7
100
AcDbCircle
 10
1491.378378213656
 20
891.1950381207778
 30
0.0
 40
0.9999999999993353
100
AcDbArc
 50
316.1319063238744
 51
0.0
  0
ARC
  5
283
330
51
100
AcDbEntity
  8
1
  6
Continuous
 62
     7
100
AcDbCircle
 10
1491.378378213656
 20
891.1950381207778
 30
0.0
 40
1.000000000000605
100
AcDbArc
 50
290.5560452947495
 51
316.1319063238744
  0
ARC
  5
284
330
51
100
AcDbEntity
  8
1
  6
Continuous
 62
     7
100
AcDbCircle
 10
1481.697043631205
 20
888.5020376535838
 30
0.0
 40
1.0
100
AcDbArc
 50
270.0
 51
290.5560452947983
  0
ARC
  5
285
330
51
100
AcDbEntity
  8
1
  6
Continuous
 62
     7
100
AcDbCircle
 10
1445.378378213656
 20
891.1950381207778
 30
0.0
 40
1.0
100
AcDbArc
 50
180.0
 51
223.8680936761526
  0
ARC
  5
286
330
51
100
AcDbEntity
  8
1
  6
Continuous
 62
     7
100
AcDbCircle
 10
1445.378378213656
 20
891.1950381207778
 30
0.0
 40
0.9999999999988436
100
AcDbArc
 50
223.8680936761526
 51
249.4439547052993
  0
ARC
  5
287
330
51
100
AcDbEntity
  8
1
  6
Continuous
 62
     7
100
AcDbCircle
 10
1455.059712764183
 20
888.5020376535838
 30
0.0
 40
0.9999999999989015
100
AcDbArc
 50
249.4439547052139
 51
269.9999999999479
  0
ARC
  5
288
330
51
100
AcDbEntity
  8
1
  6
Continuous
 62
     7
100
AcDbCircle
 10
1482.556672903365
 20
998.5302066426398
 30
0.0
 40
0.5000000000006551
100
AcDbArc
 50
9.999999999939
 51
90.0
  0
ARC
  5
289
330
51
100
AcDbEntity
  8
1
  6
Continuous
 62
     7
100
AcDbCircle
 10
1454.200083523937
 20
998.5302066426398
 30
0.0
 40
0.5
100
AcDbArc
 50
90.0
 51
170.0000000000474
  0
ARC
  5
28A
330
51
100
AcDbEntity
  8
1
  6
Continuous
 62
     7
100
AcDbCircle
 10
1500.282501417354
 20
898.0020376535917
 30
0.0
 40
0.5
100
AcDbArc
 50
270.0
 51
9.9999999999571
  0
ARC
  5
28B
330
51
100
AcDbEntity
  8
1
  6
Continuous
 62
     7
100
AcDbCircle
 10
1436.474255009948
 20
898.0020376535917
 30
0.0
 40
0.4999999999988638
100
AcDbArc
 50
170.0000000000248
 51
270.0
  0
ARC
  5
28C
330
51
100
AcDbEntity
  8
1
  6
Continuous
 62
     7
100
AcDbCircle
 10
1488.878378213668
 20
1000.030206642643
 30
0.0
 40
1.499999999998181
100
AcDbArc
 50
0.0
 51
30.00000000004715
  0
ARC
  5
28D
330
51
100
AcDbEntity
  8
1
  6
Continuous
 62
     7
100
AcDbCircle
 10
1489.878378213658
 20
999.5302066426277
 30
0.0
 40
0.4999999999979536
100
AcDbArc
 50
270.0000000001302
 51
0.0
  0
ARC
  5
28E
330
51
100
AcDbEntity
  8
1
  6
Continuous
 62
     7
100
AcDbCircle
 10
1488.878378213668
 20
1000.030206642643
 30
0.0
 40
1.49999999999195
100
AcDbArc
 50
30.00000000004715
 51
90.00000000038216
  0
ARC
  5
28F
330
51
100
AcDbEntity
  8
1
  6
Continuous
 62
     7
100
AcDbCircle
 10
1447.878378213646
 20
1000.030206642643
 30
0.0
 40
1.499999999992935
100
AcDbArc
 50
149.9999999999746
 51
180.0
  0
ARC
  5
290
330
51
100
AcDbEntity
  8
1
  6
Continuous
 62
     7
100
AcDbCircle
 10
1446.878378213655
 20
999.5302066426277
 30
0.0
 40
0.4999999999988631
100
AcDbArc
 50
180.0
 51
269.9999999998957
  0
ARC
  5
291
330
51
100
AcDbEntity
  8
1
  6
Continuous
 62
     7
100
AcDbCircle
 10
1447.878378213646
 20
1000.030206642643
 30
0.0
 40
1.49999999998704
100
AcDbArc
 50
89.99999999969603
 51
149.9999999999746
  0
ARC
  5
292
330
51
100
AcDbEntity
  8
1
  6
Continuous
 62
     7
100
AcDbCircle
 10
1479.628378213656
 20
954.9520376535847
 30
0.0
 40
1.274754878398196
100
AcDbArc
 50
11.30993247402021
 51
78.69006752575933
  0
ARC
  5
293
330
51
100
AcDbEntity
  8
1
  6
Continuous
 62
     7
100
AcDbCircle
 10
1456.878378213656
 20
955.2020376535847
 30
0.0
 40
1.0
100
AcDbArc
 50
90.0
 51
180.0
  0
ARC
  5
294
330
51
100
AcDbEntity
  8
1
  6
Continuous
 62
     7
100
AcDbCircle
 10
1456.878378213656
 20
931.8020376535837
 30
0.0
 40
1.0
100
AcDbArc
 50
180.0
 51
270.0
  0
ARC
  5
295
330
51
100
AcDbEntity
  8
1
  6
Continuous
 62
     7
100
AcDbCircle
 10
1479.628378213656
 20
932.0520376535837
 30
0.0
 40
1.274754878398196
100
AcDbArc
 50
258.6900675259798
 51
348.6900675259798
  0
ARC
  5
296
330
51
100
AcDbEntity
  8
1
  6
Continuous
 62
     7
100
AcDbCircle
 10
1474.778378213655
 20
1003.132295188298
 30
0.0
 40
2.0
100
AcDbArc
 50
0.0
 51
45.90938044915193
  0
ARC
  5
297
330
51
100
AcDbEntity
  8
1
  6
Continuous
 62
     7
100
AcDbCircle
 10
1461.978378213657
 20
1003.132295188298
 30
0.0
 40
1.999999999999707
100
AcDbArc
 50
134.0906195508481
 51
180.0
  0
ARC
  5
298
330
51
100
AcDbEntity
  8
1
  6
Continuous
 62
     7
100
AcDbCircle
 10
1849.375725424612
 20
1475.820703071134
 30
0.0
 40
1.0
100
AcDbArc
 50
0.0
 51
20.55604529476784
  0
ARC
  5
299
330
51
100
AcDbEntity
  8
1
  6
Continuous
 62
     7
100
AcDbCircle
 10
1849.375725424612
 20
1449.183372204112
 30
0.0
 40
0.9999999999997531
100
AcDbArc
 50
339.4439547052321
 51
359.9999999999479
  0
ARC
  5
29A
330
51
100
AcDbEntity
  8
1
  6
Continuous
 62
     7
100
AcDbCircle
 10
1739.347556435557
 20
1476.680332343294
 30
0.0
 40
0.5000000000001413
100
AcDbArc
 50
100.0000000000552
 51
180.0
  0
ARC
  5
29B
330
51
100
AcDbEntity
  8
1
  6
Continuous
 62
     7
100
AcDbCircle
 10
1739.347556435557
 20
1448.323742963866
 30
0.0
 40
0.5
100
AcDbArc
 50
180.0
 51
259.9999999999403
  0
ARC
  5
29C
330
51
100
AcDbEntity
  8
1
  6
Continuous
 62
     7
100
AcDbCircle
 10
1737.847556435553
 20
1483.002037653596
 30
0.0
 40
1.499999999998863
100
AcDbArc
 50
90.0
 51
119.9999999999997
  0
ARC
  5
29D
330
51
100
AcDbEntity
  8
1
  6
Continuous
 62
     7
100
AcDbCircle
 10
1738.347556435568
 20
1484.002037653587
 30
0.0
 40
0.4999999999988631
100
AcDbArc
 50
0.00000000013028
 51
90.0
  0
ARC
  5
29E
330
51
100
AcDbEntity
  8
1
  6
Continuous
 62
     7
100
AcDbCircle
 10
1737.847556435553
 20
1483.002037653596
 30
0.0
 40
1.499999999992283
100
AcDbArc
 50
119.9999999999997
 51
180.0000000003474
  0
ARC
  5
29F
330
51
100
AcDbEntity
  8
1
  6
Continuous
 62
     7
100
AcDbCircle
 10
1737.847556435553
 20
1442.002037653575
 30
0.0
 40
1.499999999992283
100
AcDbArc
 50
240.0000000000003
 51
270.0
  0
ARC
  5
2A0
330
51
100
AcDbEntity
  8
1
  6
Continuous
 62
     7
100
AcDbCircle
 10
1738.347556435568
 20
1441.002037653584
 30
0.0
 40
0.4999999999990905
100
AcDbArc
 50
270.0
 51
359.9999999998957
  0
ARC
  5
2A1
330
51
100
AcDbEntity
  8
1
  6
Continuous
 62
     7
100
AcDbCircle
 10
1737.847556435553
 20
1442.002037653575
 30
0.0
 40
1.49999999998613
100
AcDbArc
 50
179.9999999996873
 51
240.0000000000003
  0
ARC
  5
2A2
330
51
100
AcDbEntity
  8
1
  6
Continuous
 62
     7
100
AcDbCircle
 10
1734.745467889898
 20
1468.902037653584
 30
0.0
 40
2.0
100
AcDbArc
 50
90.0
 51
135.9093804491338
  0
ARC
  5
2A3
330
51
100
AcDbEntity
  8
1
  6
Continuous
 62
     7
100
AcDbCircle
 10
1734.745467889898
 20
1456.102037653586
 30
0.0
 40
1.999999999999054
100
AcDbArc
 50
224.0906195508662
 51
270.0
  0
ENDBLK
  5
53
330
51
100
AcDbEntity
  8
0
100
AcDbBlockEnd
  0
BLOCK
  5
419
330
410
100
AcDbEntity
  8
0
100
AcDbBlockBegin
  2
*D5
 70
     1
 10
0.0
 20
0.0
 30
0.0
  3
*D5
  1

  0
LINE
  5
411
330
410
100
AcDbEntity
  8
1
  6
Continuous
 62
     2
100
AcDbLine
 10
1713.378378213657
 20
2192.502037653584
 30
0.0
 11
1783.378378213657
 21
2192.502037653584
 31
0.0
  0
LINE
  5
412
330
410
100
AcDbEntity
  8
1
  6
Continuous
 62
     2
100
AcDbLine
 10
1783.378378213657
 20
2192.502037653584
 30
0.0
 11
1854.878378213657
 21
2192.502037653584
 31
0.0
  0
LINE
  5
413
330
410
100
AcDbEntity
  8
1
  6
Continuous
 62
     2
100
AcDbLine
 10
1854.878378213657
 20
2192.502037653584
 30
0.0
 11
1924.878378213657
 21
2192.502037653584
 31
0.0
  0
LINE
  5
414
330
410
100
AcDbEntity
  8
1
  6
Continuous
 62
     2
100
AcDbLine
 10
1783.378378213657
 20
2005.852720176898
 30
0.0
 11
1783.378378213657
 21
2202.502037653584
 31
0.0
  0
LINE
  5
415
330
410
100
AcDbEntity
  8
1
  6
Continuous
 62
     2
100
AcDbLine
 10
1854.878378213657
 20
1768.502037653584
 30
0.0
 11
1854.878378213657
 21
2202.502037653584
 31
0.0
  0
SOLID
  5
416
330
410
100
AcDbEntity
  8
1
 62
     2
100
AcDbTrace
 10
1748.378378213657
 20
2187.894200238025
 30
0.0
 11
1748.378378213657
 21
2197.109875069143
 31
0.0
 12
1783.378378213657
 22
2192.502037653584
 32
0.0
 13
1783.378378213657
 23
2192.502037653584
 33
0.0
  0
SOLID
  5
417
330
410
100
AcDbEntity
  8
1
 62
     2
100
AcDbTrace
 10
1889.878378213657
 20
2197.109875069143
 30
0.0
 11
1889.878378213657
 21
2187.894200238025
 31
0.0
 12
1854.878378213657
 22
2192.502037653584
 32
0.0
 13
1854.878378213657
 23
2192.502037653584
 33
0.0
  0
MTEXT
  5
418
330
410
100
AcDbEntity
  8
1
 62
     7
100
AcDbMText
 10
1792.878378213657
 20
2202.502037653584
 30
0.0
 40
35.0
 41
0.0
 71
     7
 72
     1
  1
72
  7
CONVERTER_12
 11
0.9999999999970619
 21
2.424068405545306E-6
 31
0.0
 73
     1
 44
0.60024009603842
  0
ENDBLK
  5
41A
330
410
100
AcDbEntity
  8
0
100
AcDbBlockEnd
  0
BLOCK
  5
424
330
41D
100
AcDbEntity
  8
0
100
AcDbBlockBegin
  2
*D6
 70
     1
 10
0.0
 20
0.0
 30
0.0
  3
*D6
  1

  0
LINE
  5
41E
330
41D
100
AcDbEntity
  8
1
  6
Continuous
 62
     2
100
AcDbLine
 10
1435.378378213656
 20
2352.502037653584
 30
0.0
 11
1558.378378213656
 21
2352.502037653584
 31
0.0
  0
LINE
  5
41F
330
41D
100
AcDbEntity
  8
1
  6
Continuous
 62
     2
100
AcDbLine
 10
1435.378378213656
 20
1792.502037653584
 30
0.0
 11
1435.378378213656
 21
2362.502037653584
 31
0.0
  0
LINE
  5
420
330
41D
100
AcDbEntity
  8
1
  6
Continuous
 62
     2
100
AcDbLine
 10
1558.378378213656
 20
1997.502037653584
 30
0.0
 11
1558.378378213656
 21
2362.502037653584
 31
0.0
  0
SOLID
  5
421
330
41D
100
AcDbEntity
  8
1
 62
     2
100
AcDbTrace
 10
1470.378378213656
 20
2357.109875069143
 30
0.0
 11
1470.378378213656
 21
2347.894200238025
 31
0.0
 12
1435.378378213656
 22
2352.502037653584
 32
0.0
 13
1435.378378213656
 23
2352.502037653584
 33
0.0
  0
SOLID
  5
422
330
41D
100
AcDbEntity
  8
1
 62
     2
100
AcDbTrace
 10
1523.378378213656
 20
2347.894200238025
 30
0.0
 11
1523.378378213656
 21
2357.109875069143
 31
0.0
 12
1558.378378213656
 22
2352.502037653584
 32
0.0
 13
1558.378378213656
 23
2352.502037653584
 33
0.0
  0
MTEXT
  5
423
330
41D
100
AcDbEntity
  8
1
 62
     7
100
AcDbMText
 10
1460.128378213656
 20
2362.502037653584
 30
0.0
 40
35.0
 41
0.0
 71
     7
 72
     1
  1
123
  7
CONVERTER_12
 11
0.9999999999970619
 21
2.424068405545306E-6
 31
0.0
 73
     1
 44
0.60024009603842
  0
ENDBLK
  5
425
330
41D
100
AcDbEntity
  8
0
100
AcDbBlockEnd
  0
BLOCK
  5
431
330
428
100
AcDbEntity
  8
0
100
AcDbBlockBegin
  2
*D7
 70
     1
 10
0.0
 20
0.0
 30
0.0
  3
*D7
  1

  0
LINE
  5
429
330
428
100
AcDbEntity
  8
1
  6
Continuous
 62
     2
100
AcDbLine
 10
1916.878378213657
 20
2112.502037653584
 30
0.0
 11
1846.878378213657
 21
2112.502037653584
 31
0.0
  0
LINE
  5
42A
330
428
100
AcDbEntity
  8
1
  6
Continuous
 62
     2
100
AcDbLine
 10
1846.878378213657
 20
2112.502037653584
 30
0.0
 11
1783.378378213657
 21
2112.502037653584
 31
0.0
  0
LINE
  5
42B
330
428
100
AcDbEntity
  8
1
  6
Continuous
 62
     2
100
AcDbLine
 10
1783.378378213657
 20
2112.502037653584
 30
0.0
 11
1713.378378213657
 21
2112.502037653584
 31
0.0
  0
LINE
  5
42C
330
428
100
AcDbEntity
  8
1
  6
Continuous
 62
     2
100
AcDbLine
 10
1846.878378213657
 20
2012.502037653584
 30
0.0
 11
1846.878378213657
 21
2122.502037653584
 31
0.0
  0
LINE
  5
42D
330
428
100
AcDbEntity
  8
1
  6
Continuous
 62
     2
100
AcDbLine
 10
1783.378378213657
 20
2005.852720176898
 30
0.0
 11
1783.378378213657
 21
2122.502037653584
 31
0.0
  0
SOLID
  5
42E
330
428
100
AcDbEntity
  8
1
 62
     2
100
AcDbTrace
 10
1881.878378213657
 20
2117.109875069143
 30
0.0
 11
1881.878378213657
 21
2107.894200238025
 31
0.0
 12
1846.878378213657
 22
2112.502037653584
 32
0.0
 13
1846.878378213657
 23
2112.502037653584
 33
0.0
  0
SOLID
  5
42F
330
428
100
AcDbEntity
  8
1
 62
     2
100
AcDbTrace
 10
1748.378378213657
 20
2107.894200238025
 30
0.0
 11
1748.378378213657
 21
2117.109875069143
 31
0.0
 12
1783.378378213657
 22
2112.502037653584
 32
0.0
 13
1783.378378213657
 23
2112.502037653584
 33
0.0
  0
MTEXT
  5
430
330
428
100
AcDbEntity
  8
1
 62
     7
100
AcDbMText
 10
1788.878378213657
 20
2122.502037653584
 30
0.0
 40
35.0
 41
0.0
 71
     7
 72
     1
  1
63
  7
CONVERTER_12
 11
0.9999999999970619
 21
2.424068405545306E-6
 31
0.0
 73
     1
 44
0.60024009603842
  0
ENDBLK
  5
432
330
428
100
AcDbEntity
  8
0
100
AcDbBlockEnd
  0
BLOCK
  5
43C
330
435
100
AcDbEntity
  8
0
100
AcDbBlockBegin
  2
*D8
 70
     1
 10
0.0
 20
0.0
 30
0.0
  3
*D8
  1

  0
LINE
  5
436
330
435
100
AcDbEntity
  8
1
  6
Continuous
 62
     2
100
AcDbLine
 10
1067.378378213656
 20
1272.502037653584
 30
0.0
 11
758.3783782136563
 21
1272.502037653584
 31
0.0
  0
LINE
  5
437
330
435
100
AcDbEntity
  8
1
  6
Continuous
 62
     2
100
AcDbLine
 10
758.3783782136561
 20
1387.502037653584
 30
0.0
 11
758.3783782136561
 21
1262.502037653584
 31
0.0
  0
LINE
  5
438
330
435
100
AcDbEntity
  8
1
  6
Continuous
 62
     2
100
AcDbLine
 10
1067.378378213656
 20
1342.502037653584
 30
0.0
 11
1067.378378213656
 21
1262.502037653584
 31
0.0
  0
SOLID
  5
439
330
435
100
AcDbEntity
  8
1
 62
     2
100
AcDbTrace
 10
1032.378378213656
 20
1267.894200238025
 30
0.0
 11
1032.378378213656
 21
1277.109875069143
 31
0.0
 12
1067.378378213656
 22
1272.502037653584
 32
0.0
 13
1067.378378213656
 23
1272.502037653584
 33
0.0
  0
SOLID
  5
43A
330
435
100
AcDbEntity
  8
1
 62
     2
100
AcDbTrace
 10
793.3783782136563
 20
1277.109875069143
 30
0.0
 11
793.3783782136563
 21
1267.894200238025
 31
0.0
 12
758.3783782136563
 22
1272.502037653584
 32
0.0
 13
758.3783782136563
 23
1272.502037653584
 33
0.0
  0
MTEXT
  5
43B
330
435
100
AcDbEntity
  8
1
 62
     7
100
AcDbMText
 10
870.8783782136561
 20
1282.502037653584
 30
0.0
 40
35.0
 41
0.0
 71
     7
 72
     1
  1
309
  7
CONVERTER_12
 11
0.9999999999970619
 21
2.424068405545306E-6
 31
0.0
 73
     1
 44
0.60024009603842
  0
ENDBLK
  5
43D
330
435
100
AcDbEntity
  8
0
100
AcDbBlockEnd
  0
BLOCK
  5
447
330
440
100
AcDbEntity
  8
0
100
AcDbBlockBegin
  2
*D9
 70
     1
 10
0.0
 20
0.0
 30
0.0
  3
*D9
  1

  0
LINE
  5
441
330
440
100
AcDbEntity
  8
1
  6
Continuous
 62
     2
100
AcDbLine
 10
758.3783782136561
 20
2272.502037653584
 30
0.0
 11
1558.378378213656
 21
2272.502037653584
 31
0.0
  0
LINE
  5
442
330
440
100
AcDbEntity
  8
1
  6
Continuous
 62
     2
100
AcDbLine
 10
758.3783782136561
 20
1997.502037653584
 30
0.0
 11
758.3783782136561
 21
2282.502037653584
 31
0.0
  0
LINE
  5
443
330
440
100
AcDbEntity
  8
1
  6
Continuous
 62
     2
100
AcDbLine
 10
1558.378378213656
 20
1997.502037653584
 30
0.0
 11
1558.378378213656
 21
2282.502037653584
 31
0.0
  0
SOLID
  5
444
330
440
100
AcDbEntity
  8
1
 62
     2
100
AcDbTrace
 10
793.3783782136561
 20
2277.109875069143
 30
0.0
 11
793.3783782136561
 21
2267.894200238025
 31
0.0
 12
758.3783782136561
 22
2272.502037653584
 32
0.0
 13
758.3783782136561
 23
2272.502037653584
 33
0.0
  0
SOLID
  5
445
330
440
100
AcDbEntity
  8
1
 62
     2
100
AcDbTrace
 10
1523.378378213656
 20
2267.894200238025
 30
0.0
 11
1523.378378213656
 21
2277.109875069143
 31
0.0
 12
1558.378378213656
 22
2272.502037653584
 32
0.0
 13
1558.378378213656
 23
2272.502037653584
 33
0.0
  0
MTEXT
  5
446
330
440
100
AcDbEntity
  8
1
 62
     7
100
AcDbMText
 10
1116.378378213656
 20
2282.502037653584
 30
0.0
 40
35.0
 41
0.0
 71
     7
 72
     1
  1
800
  7
CONVERTER_12
 11
0.9999999999970619
 21
2.424068405545306E-6
 31
0.0
 73
     1
 44
0.60024009603842
  0
ENDBLK
  5
448
330
440
100
AcDbEntity
  8
0
100
AcDbBlockEnd
  0
BLOCK
  5
452
330
44B
100
AcDbEntity
  8
0
100
AcDbBlockBegin
  2
*D10
 70
     1
 10
0.0
 20
0.0
 30
0.0
  3
*D10
  1

  0
LINE
  5
44C
330
44B
100
AcDbEntity
  8
1
  6
Continuous
 62
     2
100
AcDbLine
 10
498.3783782136561
 20
1372.502037653584
 30
0.0
 11
498.3783782136561
 21
2012.502037653584
 31
0.0
  0
LINE
  5
44D
330
44B
100
AcDbEntity
  8
1
  6
Continuous
 62
     2
100
AcDbLine
 10
773.3783782136561
 20
1372.502037653584
 30
0.0
 11
488.3783782136561
 21
1372.502037653584
 31
0.0
  0
LINE
  5
44E
330
44B
100
AcDbEntity
  8
1
  6
Continuous
 62
     2
100
AcDbLine
 10
773.3783782136561
 20
2012.502037653584
 30
0.0
 11
488.3783782136561
 21
2012.502037653584
 31
0.0
  0
SOLID
  5
44F
330
44B
100
AcDbEntity
  8
1
 62
     2
100
AcDbTrace
 10
493.7705407980973
 20
1407.502037653584
 30
0.0
 11
502.9862156292149
 21
1407.502037653584
 31
0.0
 12
498.3783782136561
 22
1372.502037653584
 32
0.0
 13
498.3783782136561
 23
1372.502037653584
 33
0.0
  0
SOLID
  5
450
330
44B
100
AcDbEntity
  8
1
 62
     2
100
AcDbTrace
 10
502.9862156292149
 20
1977.502037653584
 30
0.0
 11
493.7705407980973
 21
1977.502037653584
 31
0.0
 12
498.3783782136561
 22
2012.502037653584
 32
0.0
 13
498.3783782136561
 23
2012.502037653584
 33
0.0
  0
MTEXT
  5
451
330
44B
100
AcDbEntity
  8
1
 62
     7
100
AcDbMText
 10
488.3783782136561
 20
1650.502037653584
 30
0.0
 40
35.0
 41
0.0
 71
     7
 72
     1
  1
640
  7
CONVERTER_12
 11
0.0
 21
1.0
 31
0.0
 73
     1
 44
0.60024009603842
  0
ENDBLK
  5
453
330
44B
100
AcDbEntity
  8
0
100
AcDbBlockEnd
  0
BLOCK
  5
45D
330
456
100
AcDbEntity
  8
0
100
AcDbBlockBegin
  2
*D11
 70
     1
 10
0.0
 20
0.0
 30
0.0
  3
*D11
  1

  0
LINE
  5
457
330
456
100
AcDbEntity
  8
1
  6
Continuous
 62
     2
100
AcDbLine
 10
779.378378213656
 20
2192.502037653584
 30
0.0
 11
1537.378378213656
 21
2192.502037653584
 31
0.0
  0
LINE
  5
458
330
456
100
AcDbEntity
  8
1
  6
Continuous
 62
     2
100
AcDbLine
 10
779.378378213656
 20
2015.902037653584
 30
0.0
 11
779.378378213656
 21
2202.502037653584
 31
0.0
  0
LINE
  5
459
330
456
100
AcDbEntity
  8
1
  6
Continuous
 62
     2
100
AcDbLine
 10
1537.378378213656
 20
2015.902037653584
 30
0.0
 11
1537.378378213656
 21
2202.502037653584
 31
0.0
  0
SOLID
  5
45A
330
456
100
AcDbEntity
  8
1
 62
     2
100
AcDbTrace
 10
814.378378213656
 20
2197.109875069143
 30
0.0
 11
814.378378213656
 21
2187.894200238025
 31
0.0
 12
779.378378213656
 22
2192.502037653584
 32
0.0
 13
779.378378213656
 23
2192.502037653584
 33
0.0
  0
SOLID
  5
45B
330
456
100
AcDbEntity
  8
1
 62
     2
100
AcDbTrace
 10
1502.378378213656
 20
2187.894200238025
 30
0.0
 11
1502.378378213656
 21
2197.109875069143
 31
0.0
 12
1537.378378213656
 22
2192.502037653584
 32
0.0
 13
1537.378378213656
 23
2192.502037653584
 33
0.0
  0
MTEXT
  5
45C
330
456
100
AcDbEntity
  8
1
 62
     7
100
AcDbMText
 10
1116.378378213656
 20
2202.502037653584
 30
0.0
 40
35.0
 41
0.0
 71
     7
 72
     1
  1
758
  7
CONVERTER_12
 11
0.9999999999970619
 21
2.424068405545306E-6
 31
0.0
 73
     1
 44
0.60024009603842
  0
ENDBLK
  5
45E
330
456
100
AcDbEntity
  8
0
100
AcDbBlockEnd
  0
BLOCK
  5
468
330
461
100
AcDbEntity
  8
0
100
AcDbBlockBegin
  2
*D12
 70
     1
 10
0.0
 20
0.0
 30
0.0
  3
*D12
  1

  0
LINE
  5
462
330
461
100
AcDbEntity
  8
1
  6
Continuous
 62
     2
100
AcDbLine
 10
658.3783782136561
 20
1592.502037653584
 30
0.0
 11
658.3783782136561
 21
1792.502037653584
 31
0.0
  0
LINE
  5
463
330
461
100
AcDbEntity
  8
1
  6
Continuous
 62
     2
100
AcDbLine
 10
952.3783782136561
 20
1792.502037653584
 30
0.0
 11
648.3783782136561
 21
1792.502037653584
 31
0.0
  0
LINE
  5
464
330
461
100
AcDbEntity
  8
1
  6
Continuous
 62
     2
100
AcDbLine
 10
952.3783782136561
 20
1592.502037653584
 30
0.0
 11
648.3783782136561
 21
1592.502037653584
 31
0.0
  0
SOLID
  5
465
330
461
100
AcDbEntity
  8
1
 62
     2
100
AcDbTrace
 10
653.7705407980973
 20
1627.502037653584
 30
0.0
 11
662.9862156292149
 21
1627.502037653584
 31
0.0
 12
658.3783782136561
 22
1592.502037653584
 32
0.0
 13
658.3783782136561
 23
1592.502037653584
 33
0.0
  0
SOLID
  5
466
330
461
100
AcDbEntity
  8
1
 62
     2
100
AcDbTrace
 10
662.9862156292149
 20
1757.502037653584
 30
0.0
 11
653.7705407980973
 21
1757.502037653584
 31
0.0
 12
658.3783782136561
 22
1792.502037653584
 32
0.0
 13
658.3783782136561
 23
1792.502037653584
 33
0.0
  0
MTEXT
  5
467
330
461
100
AcDbEntity
  8
1
 62
     7
100
AcDbMText
 10
648.3783782136561
 20
1572.109804243768
 30
0.0
 40
35.0
 41
0.0
 71
     7
 72
     1
  1
200(開口部)
  7
CONVERTER_11
 11
0.0
 21
1.0
 31
0.0
 73
     1
 44
0.45454545454545
  0
ENDBLK
  5
469
330
461
100
AcDbEntity
  8
0
100
AcDbBlockEnd
  0
BLOCK
  5
473
330
46C
100
AcDbEntity
  8
0
100
AcDbBlockBegin
  2
*D13
 70
     1
 10
0.0
 20
0.0
 30
0.0
  3
*D13
  1

  0
LINE
  5
46D
330
46C
100
AcDbEntity
  8
1
  6
Continuous
 62
     2
100
AcDbLine
 10
942.3783782136562
 20
2112.502037653584
 30
0.0
 11
1192.378378213656
 21
2112.502037653584
 31
0.0
  0
LINE
  5
46E
330
46C
100
AcDbEntity
  8
1
  6
Continuous
 62
     2
100
AcDbLine
 10
942.3783782136562
 20
1782.502037653584
 30
0.0
 11
942.3783782136562
 21
2122.502037653584
 31
0.0
  0
LINE
  5
46F
330
46C
100
AcDbEntity
  8
1
  6
Continuous
 62
     2
100
AcDbLine
 10
1192.378378213656
 20
1782.502037653584
 30
0.0
 11
1192.378378213656
 21
2122.502037653584
 31
0.0
  0
SOLID
  5
470
330
46C
100
AcDbEntity
  8
1
 62
     2
100
AcDbTrace
 10
977.3783782136562
 20
2117.109875069143
 30
0.0
 11
977.3783782136562
 21
2107.894200238025
 31
0.0
 12
942.3783782136562
 22
2112.502037653584
 32
0.0
 13
942.3783782136562
 23
2112.502037653584
 33
0.0
  0
SOLID
  5
471
330
46C
100
AcDbEntity
  8
1
 62
     2
100
AcDbTrace
 10
1157.378378213656
 20
2107.894200238025
 30
0.0
 11
1157.378378213656
 21
2117.109875069143
 31
0.0
 12
1192.378378213656
 22
2112.502037653584
 32
0.0
 13
1192.378378213656
 23
2112.502037653584
 33
0.0
  0
MTEXT
  5
472
330
46C
100
AcDbEntity
  8
1
 62
     7
100
AcDbMText
 10
965.0068110735799
 20
2122.502037653584
 30
0.0
 40
35.0
 41
0.0
 71
     7
 72
     1
  1
250(開口部)
  7
CONVERTER_11
 11
0.9999999999970619
 21
2.424068405545306E-6
 31
0.0
 73
     1
 44
0.45454545454545
  0
ENDBLK
  5
474
330
46C
100
AcDbEntity
  8
0
100
AcDbBlockEnd
  0
BLOCK
  5
47E
330
477
100
AcDbEntity
  8
0
100
AcDbBlockBegin
  2
*D14
 70
     1
 10
0.0
 20
0.0
 30
0.0
  3
*D14
  1

  0
LINE
  5
478
330
477
100
AcDbEntity
  8
1
  6
Continuous
 62
     2
100
AcDbLine
 10
578.3783782136561
 20
1393.502037653585
 30
0.0
 11
578.3783782136561
 21
1991.502037653584
 31
0.0
  0
LINE
  5
479
330
477
100
AcDbEntity
  8
1
  6
Continuous
 62
     2
100
AcDbLine
 10
754.978378213656
 20
1393.502037653585
 30
0.0
 11
568.3783782136561
 21
1393.502037653585
 31
0.0
  0
LINE
  5
47A
330
477
100
AcDbEntity
  8
1
  6
Continuous
 62
     2
100
AcDbLine
 10
754.978378213656
 20
1991.502037653584
 30
0.0
 11
568.3783782136561
 21
1991.502037653584
 31
0.0
  0
SOLID
  5
47B
330
477
100
AcDbEntity
  8
1
 62
     2
100
AcDbTrace
 10
573.7705407980973
 20
1428.502037653585
 30
0.0
 11
582.9862156292149
 21
1428.502037653585
 31
0.0
 12
578.3783782136561
 22
1393.502037653585
 32
0.0
 13
578.3783782136561
 23
1393.502037653585
 33
0.0
  0
SOLID
  5
47C
330
477
100
AcDbEntity
  8
1
 62
     2
100
AcDbTrace
 10
582.9862156292149
 20
1956.502037653584
 30
0.0
 11
573.7705407980973
 21
1956.502037653584
 31
0.0
 12
578.3783782136561
 22
1991.502037653584
 32
0.0
 13
578.3783782136561
 23
1991.502037653584
 33
0.0
  0
MTEXT
  5
47D
330
477
100
AcDbEntity
  8
1
 62
     7
100
AcDbMText
 10
568.3783782136561
 20
1650.502037653584
 30
0.0
 40
35.0
 41
0.0
 71
     7
 72
     1
  1
598
  7
CONVERTER_12
 11
0.0
 21
1.0
 31
0.0
 73
     1
 44
0.60024009603842
  0
ENDBLK
  5
47F
330
477
100
AcDbEntity
  8
0
100
AcDbBlockEnd
  0
BLOCK
  5
48A
330
482
100
AcDbEntity
  8
0
100
AcDbBlockBegin
  2
*D15
 70
     1
 10
0.0
 20
0.0
 30
0.0
  3
*D15
  1

  0
LINE
  5
483
330
482
100
AcDbEntity
  8
1
  6
Continuous
 62
     2
100
AcDbLine
 10
1224.01458205496
 20
830.797260285284
 30
0.0
 11
1359.378378213656
 21
830.797260285284
 31
0.0
  0
LINE
  5
484
330
482
100
AcDbEntity
  8
1
  6
Continuous
 62
     2
100
AcDbLine
 10
1359.378378213656
 20
830.797260285284
 30
0.0
 11
1511.378378213656
 21
830.797260285284
 31
0.0
  0
LINE
  5
485
330
482
100
AcDbEntity
  8
1
  6
Continuous
 62
     2
100
AcDbLine
 10
1359.378378213656
 20
881.5020376535838
 30
0.0
 11
1359.378378213656
 21
820.797260285284
 31
0.0
  0
LINE
  5
486
330
482
100
AcDbEntity
  8
1
  6
Continuous
 62
     2
100
AcDbLine
 10
1511.378378213656
 20
885.0020376535839
 30
0.0
 11
1511.378378213656
 21
820.797260285284
 31
0.0
  0
SOLID
  5
487
330
482
100
AcDbEntity
  8
1
 62
     2
100
AcDbTrace
 10
1394.378378213656
 20
835.4050977008428
 30
0.0
 11
1394.378378213656
 21
826.1894228697251
 31
0.0
 12
1359.378378213656
 22
830.797260285284
 32
0.0
 13
1359.378378213656
 23
830.797260285284
 33
0.0
  0
SOLID
  5
488
330
482
100
AcDbEntity
  8
1
 62
     2
100
AcDbTrace
 10
1476.378378213656
 20
826.1894228697251
 30
0.0
 11
1476.378378213656
 21
835.4050977008428
 31
0.0
 12
1511.378378213656
 22
830.797260285284
 32
0.0
 13
1511.378378213656
 23
830.797260285284
 33
0.0
  0
MTEXT
  5
489
330
482
100
AcDbEntity
  8
1
 62
     7
100
AcDbMText
 10
1237.314582055044
 20
840.7971907145208
 30
0.0
 40
35.0
 41
0.0
 71
     7
 72
     1
  1
\C7;{\Fgdt;n}\C7;152
  7
CONVERTER_12
 11
0.9999999999970619
 21
2.424068405545306E-6
 31
0.0
 73
     1
 44
0.60024009603842
  0
ENDBLK
  5
48B
330
482
100
AcDbEntity
  8
0
100
AcDbBlockEnd
  0
BLOCK
  5
493
330
48E
100
AcDbEntity
  8
0
100
AcDbBlockBegin
  2
*D16
 70
     1
 10
0.0
 20
0.0
 30
0.0
  3
*D16
  1

  0
LINE
  5
48F
330
48E
100
AcDbEntity
  8
1
  6
Continuous
 62
     2
100
AcDbLine
 10
1394.325890427985
 20
1573.906324212468
 30
0.0
 11
1517.026445217748
 21
1928.373510485934
 31
0.0
  0
SOLID
  5
490
330
48E
100
AcDbEntity
  8
1
 62
     2
100
AcDbTrace
 10
1466.352074748585
 20
1796.067776624589
 30
0.0
 11
1475.060756273985
 21
1793.053223808325
 31
0.0
 12
1459.257514535202
 22
1761.485998459971
 32
0.0
 13
1459.257514535202
 23
1761.485998459971
 33
0.0
  0
SOLID
  5
491
330
48E
100
AcDbEntity
  8
1
 62
     2
100
AcDbTrace
 10
1404.404681678727
 20
1588.936298682579
 30
0.0
 11
1395.696000153326
 21
1591.950851498844
 31
0.0
 12
1411.49924189211
 22
1623.518076847198
 32
0.0
 13
1411.49924189211
 23
1623.518076847198
 33
0.0
  0
MTEXT
  5
492
330
48E
100
AcDbEntity
  8
1
 62
     7
100
AcDbMText
 10
1474.145796722873
 20
1835.067079921588
 30
0.0
 40
35.0
 41
0.0
 71
     7
 72
     1
  1
\C7;{\Fgdt;n}\C7;146
  7
CONVERTER_12
 11
0.3271114564595324
 21
0.944985764471044
 31
0.0
 73
     1
 44
0.60024009603842
  0
ENDBLK
  5
494
330
48E
100
AcDbEntity
  8
0
100
AcDbBlockEnd
  0
BLOCK
  5
49B
330
496
100
AcDbEntity
  8
0
100
AcDbBlockBegin
  2
*D17
 70
     1
 10
0.0
 20
0.0
 30
0.0
  3
*D17
  1

  0
LINE
  5
497
330
496
100
AcDbEntity
  8
1
  6
Continuous
 62
     2
100
AcDbLine
 10
1341.904055236537
 20
1629.901710625931
 30
0.0
 11
1688.202677365376
 21
1861.82002042527
 31
0.0
  0
SOLID
  5
498
330
496
100
AcDbEntity
  8
1
 62
     2
100
AcDbTrace
 10
1511.748232024522
 20
1749.193109213005
 30
0.0
 11
1516.876269875263
 21
1741.535962851973
 31
0.0
 12
1485.23135046812
 22
1725.888878734999
 32
0.0
 13
1485.23135046812
 23
1725.888878734999
 33
0.0
  0
SOLID
  5
499
330
496
100
AcDbEntity
  8
1
 62
     2
100
AcDbTrace
 10
1359.008524402791
 20
1635.810966094164
 30
0.0
 11
1353.88048655205
 21
1643.468112455196
 31
0.0
 12
1385.525405959193
 22
1659.115196572169
 32
0.0
 13
1385.525405959193
 23
1659.115196572169
 33
0.0
  0
MTEXT
  5
49A
330
496
100
AcDbEntity
  8
1
 62
     7
100
AcDbMText
 10
1597.721974445036
 20
1813.25992982567
 30
0.0
 40
35.0
 41
0.0
 71
     7
 72
     1
  1
\C7;{\Fgdt;n}\C7;120
  7
CONVERTER_12
 11
0.8308828709077292
 21
0.5564473513569185
 31
0.0
 73
     1
 44
0.60024009603842
  0
ENDBLK
  5
49C
330
496
100
AcDbEntity
  8
0
100
AcDbBlockEnd
  0
ENDSEC
  0
SECTION
  2
ENTITIES
  0
INSERT
  5
54
330
1F
100
AcDbEntity
  8
1
100
AcDbBlockReference
  2
開示A4
 10
0.0
 20
0.0
 30
0.0
 41
10.0
 42
10.0
 43
10.0
  0
INSERT
  5
55
330
1F
100
AcDbEntity
  8
0
100
AcDbBlockReference
  2
V275TUV-13-P5__1
 10
9375.855064887288
 20
8343.109607246206
 30
0.0
 41
1.0
 42
1.0
 43
1.0
  0
INSERT
  5
56
330
1F
100
AcDbEntity
  8
0
100
AcDbBlockReference
  2
V275TUV-13-P5__2
 10
-282.0627728576769
 20
4480.240153629816
 30
0.0
 41
1.0
 42
1.0
 43
1.0
  0
LINE
  5
2A4
330
1F
100
AcDbEntity
  8
1
  6
Continuous
 62
     7
100
AcDbLine
 10
1287.300457670072
 20
1479.593568681128
 30
0.0
 11
1287.300457670072
 21
1439.593568681128
 31
0.0
  0
LINE
  5
2A5
330
1F
100
AcDbEntity
  8
1
  6
Continuous
 62
     2
100
AcDbLine
 10
990.0
 20
651.2223423139828
 30
0.0
 11
1328.0
 21
651.2223423139828
 31
0.0
  0
LINE
  5
2A6
330
1F
100
AcDbEntity
  8
1
  6
DASH_CENTER
 62
     2
100
AcDbLine
 10
1287.300457670072
 20
1652.502037653584
 30
0.0
 11
1287.300457670072
 21
1479.593568681128
 31
0.0
  0
LINE
  5
2A7
330
1F
100
AcDbEntity
  8
1
  6
DASH_CENTER
 62
     2
100
AcDbLine
 10
1327.300457670072
 20
1439.593568681128
 30
0.0
 11
1588.378378213656
 21
1439.593568681128
 31
0.0
  0
LINE
  5
2A8
330
1F
100
AcDbEntity
  8
1
  6
Continuous
 62
     7
100
AcDbLine
 10
1588.378378213656
 20
1439.593568681128
 30
0.0
 11
1628.378378213656
 21
1439.593568681128
 31
0.0
  0
LINE
  5
2A9
330
1F
100
AcDbEntity
  8
1
  6
Continuous
 62
     7
100
AcDbLine
 10
1287.300457670072
 20
1439.593568681128
 30
0.0
 11
1327.300457670072
 21
1439.593568681128
 31
0.0
  0
LINE
  5
2AA
330
1F
100
AcDbEntity
  8
1
  6
Continuous
 62
     7
100
AcDbLine
 10
1287.300457670072
 20
1692.502037653584
 30
0.0
 11
1287.300457670072
 21
1652.502037653584
 31
0.0
  0
LINE
  5
2AB
330
1F
100
AcDbEntity
  8
1
  6
DASH_CENTER
 62
     2
100
AcDbLine
 10
1287.300457670072
 20
1692.502037653584
 30
0.0
 11
1362.378378213656
 21
1692.502037653584
 31
0.0
  0
LINE
  5
2AC
330
1F
100
AcDbEntity
  8
1
  6
DASH_CENTER
 62
     2
100
AcDbLine
 10
1247.300457670072
 20
1692.502037653584
 30
0.0
 11
1287.300457670072
 21
1692.502037653584
 31
0.0
  0
LINE
  5
2AD
330
1F
100
AcDbEntity
  8
1
  6
Continuous
 62
     7
100
AcDbLine
 10
1247.300457670072
 20
1692.502037653584
 30
0.0
 11
1287.300457670072
 21
1692.502037653584
 31
0.0
  0
LINE
  5
2AE
330
1F
100
AcDbEntity
  8
1
  6
Continuous
 62
     7
100
AcDbLine
 10
722.3783782136561
 20
1692.502037653584
 30
0.0
 11
682.3783782136561
 21
1692.502037653584
 31
0.0
  0
LINE
  5
2AF
330
1F
100
AcDbEntity
  8
1
  6
Continuous
 62
     7
100
AcDbLine
 10
904.3783782136561
 20
1682.502037653584
 30
0.0
 11
904.3783782136561
 21
1578.502037653584
 31
0.0
  0
LINE
  5
2B0
330
1F
100
AcDbEntity
  8
1
  6
Continuous
 62
     7
100
AcDbLine
 10
1230.378378213656
 20
1682.502037653584
 30
0.0
 11
1230.378378213656
 21
1578.502037653584
 31
0.0
  0
LINE
  5
2B1
330
1F
100
AcDbEntity
  8
1
  6
Continuous
 62
     7
100
AcDbLine
 10
1230.378378213656
 20
1682.502037653584
 30
0.0
 11
1317.378378213656
 21
1682.502037653584
 31
0.0
  0
LINE
  5
2B2
330
1F
100
AcDbEntity
  8
1
  6
Continuous
 62
     7
100
AcDbLine
 10
1230.378378213656
 20
1702.502037653584
 30
0.0
 11
1317.378378213656
 21
1702.502037653584
 31
0.0
  0
LINE
  5
2B3
102
{ACAD_REACTORS
330
49E
102
}
330
1F
100
AcDbEntity
  8
1
  6
Continuous
 62
     7
100
AcDbLine
 10
1482.878378213656
 20
902.5020376535847
 30
0.0
 11
1484.87837821365
 21
902.5020376535847
 31
0.0
  0
LINE
  5
2B4
330
1F
100
AcDbEntity
  8
1
  6
Continuous
 62
     7
100
AcDbLine
 10
1482.878378213656
 20
894.0020376535838
 30
0.0
 11
1453.878378213656
 21
894.0020376535838
 31
0.0
  0
LINE
  5
2B5
102
{ACAD_REACTORS
330
49E
102
}
330
1F
100
AcDbEntity
  8
1
  6
Continuous
 62
     7
100
AcDbLine
 10
1482.878378213656
 20
894.0020376535838
 30
0.0
 11
1482.878378213656
 21
902.5020376535847
 31
0.0
  0
LINE
  5
2B6
102
{ACAD_REACTORS
330
49F
102
}
330
1F
100
AcDbEntity
  8
1
  6
Continuous
 62
     7
100
AcDbLine
 10
1453.878378213656
 20
894.0020376535838
 30
0.0
 11
1226.878378213657
 21
894.0020376535838
 31
0.0
  0
LINE
  5
2B7
102
{ACAD_REACTORS
330
49F
102
}
330
1F
100
AcDbEntity
  8
1
  6
Continuous
 62
     7
100
AcDbLine
 10
1453.878378213656
 20
902.5020376535847
 30
0.0
 11
1453.878378213656
 21
894.0020376535838
 31
0.0
  0
LINE
  5
2B8
330
1F
100
AcDbEntity
  8
0
  6
Continuous
 62
     7
100
AcDbLine
 10
1478.841033410874
 20
883.0020376535839
 30
0.0
 11
1509.378378213656
 21
883.0020376535839
 31
0.0
  0
LINE
  5
2B9
330
1F
100
AcDbEntity
  8
1
  6
Continuous
 62
     7
100
AcDbLine
 10
1499.732252839047
 20
904.0020376535838
 30
0.0
 11
1528.957021194099
 21
904.0020376535838
 31
0.0
  0
LINE
  5
2BA
330
1F
100
AcDbEntity
  8
1
  6
Continuous
 62
     7
100
AcDbLine
 10
1490.827740313269
 20
954.5020376535838
 30
0.0
 11
1533.031309077394
 21
954.5020376535838
 31
0.0
  0
LINE
  5
2BB
102
{ACAD_REACTORS
330
49E
102
}
330
1F
100
AcDbEntity
  8
1
  6
Continuous
 62
     7
100
AcDbLine
 10
1484.87837821365
 20
897.5020376535917
 30
0.0
 11
1523.815380804624
 21
897.5020376535838
 31
0.0
  0
LINE
  5
2BC
102
{ACAD_REACTORS
330
49E
102
}
330
1F
100
AcDbEntity
  8
1
  6
Continuous
 62
     7
100
AcDbLine
 10
1484.87837821365
 20
902.5020376535847
 30
0.0
 11
1484.87837821365
 21
897.5020376535917
 31
0.0
  0
LINE
  5
2BD
102
{ACAD_REACTORS
330
49F
102
}
330
1F
100
AcDbEntity
  8
1
  6
Continuous
 62
     7
100
AcDbLine
 10
1451.878378213661
 20
902.5020376535847
 30
0.0
 11
1453.878378213656
 21
902.5020376535847
 31
0.0
  0
LINE
  5
2BE
102
{ACAD_REACTORS
330
49F
102
}
330
1F
100
AcDbEntity
  8
1
  6
Continuous
 62
     7
100
AcDbLine
 10
1451.878378213661
 20
897.5020376535838
 30
0.0
 11
1451.878378213661
 21
902.5020376535847
 31
0.0
  0
LINE
  5
2BF
330
1F
100
AcDbEntity
  8
1
  6
DASH_CENTER
 62
     2
100
AcDbLine
 10
1468.378378213656
 20
1039.502037653584
 30
0.0
 11
1468.378378213656
 21
852.0020376535838
 31
0.0
  0
LINE
  5
2C0
330
1F
100
AcDbEntity
  8
0
  6
Continuous
 62
     2
100
AcDbLine
 10
1520.721881097911
 20
1375.502037653585
 30
0.0
 11
1531.437357922238
 21
1386.217514477909
 31
0.0
  0
LINE
  5
2C1
330
1F
100
AcDbEntity
  8
0
  6
Continuous
 62
     2
100
AcDbLine
 10
1518.034875329403
 20
1375.502037653585
 30
0.0
 11
1530.093855037983
 21
1387.561017362164
 31
0.0
  0
LINE
  5
2C2
330
1F
100
AcDbEntity
  8
0
  6
Continuous
 62
     2
100
AcDbLine
 10
1551.656731373581
 20
1380.567187377914
 30
0.0
 11
1544.662901389331
 21
1387.561017362165
 31
0.0
  0
LINE
  5
2C3
330
1F
100
AcDbEntity
  8
0
  6
Continuous
 62
     2
100
AcDbLine
 10
1550.313228489328
 20
1379.223684493659
 30
0.0
 11
1543.319398505076
 21
1386.21751447791
 31
0.0
  0
LINE
  5
2C4
330
1F
100
AcDbEntity
  8
0
  6
Continuous
 62
     2
100
AcDbLine
 10
1543.319398505076
 20
1400.786560829259
 30
0.0
 11
1555.378378213656
 21
1412.845540537839
 31
0.0
  0
LINE
  5
2C5
330
1F
100
AcDbEntity
  8
0
  6
Continuous
 62
     2
100
AcDbLine
 10
1544.662901389332
 20
1399.443057945004
 30
0.0
 11
1555.378378213656
 21
1410.15853476933
 31
0.0
  0
LINE
  5
2C6
330
1F
100
AcDbEntity
  8
0
  6
Continuous
 62
     7
100
AcDbLine
 10
1361.378378213656
 20
883.0020376535839
 30
0.0
 11
1457.915723016437
 21
883.0020376535839
 31
0.0
  0
LINE
  5
2C7
330
1F
100
AcDbEntity
  8
0
  6
Continuous
 62
     7
100
AcDbLine
 10
1359.378378213656
 20
894.0020376535838
 30
0.0
 11
1359.378378213656
 21
891.0020376535838
 31
0.0
  0
LINE
  5
2C8
330
1F
100
AcDbEntity
  8
0
  6
Continuous
 62
     7
100
AcDbLine
 10
1511.378378213656
 20
881.5020376535838
 30
0.0
 11
1511.378378213656
 21
894.0020376535838
 31
0.0
  0
LINE
  5
2C9
102
{ACAD_REACTORS
330
49E
102
}
330
1F
100
AcDbEntity
  8
0
  6
Continuous
 62
     7
100
AcDbLine
 10
1558.378378213656
 20
891.0020376535838
 30
0.0
 11
1555.378378213657
 21
891.0020376535838
 31
0.0
  0
LINE
  5
2CA
330
1F
100
AcDbEntity
  8
0
  6
Continuous
 62
     7
100
AcDbLine
 10
1558.378378213656
 20
891.0020376535838
 30
0.0
 11
1558.129460602785
 21
894.0020376535838
 31
0.0
  0
LINE
  5
2CB
102
{ACAD_REACTORS
330
4A0
102
}
330
1F
100
AcDbEntity
  8
0
  6
Continuous
 62
     7
100
AcDbLine
 10
763.5313090773941
 20
953.1060910273318
 30
0.0
 11
758.3783782136561
 21
891.0020376535838
 31
0.0
  0
LINE
  5
2CC
330
1F
100
AcDbEntity
  8
0
  6
Continuous
 62
     7
100
AcDbLine
 10
1854.878378213657
 20
1632.502037653584
 30
0.0
 11
1854.878378213657
 21
1752.502037653584
 31
0.0
  0
LINE
  5
2CD
330
1F
100
AcDbEntity
  8
0
  6
Continuous
 62
     7
100
AcDbLine
 10
1854.878378213657
 20
1632.502037653584
 30
0.0
 11
1854.878378213657
 21
1616.502037653584
 31
0.0
  0
LINE
  5
2CE
330
1F
100
AcDbEntity
  8
0
  6
Continuous
 62
     7
100
AcDbLine
 10
1854.878378213657
 20
1768.502037653584
 30
0.0
 11
1854.878378213657
 21
1752.502037653584
 31
0.0
  0
LINE
  5
2CF
330
1F
100
AcDbEntity
  8
0
  6
Continuous
 62
     7
100
AcDbLine
 10
1846.878378213657
 20
2012.502037653584
 30
0.0
 11
1846.878378213657
 21
1965.502037653584
 31
0.0
  0
LINE
  5
2D0
330
1F
100
AcDbEntity
  8
0
  6
Continuous
 62
     7
100
AcDbLine
 10
1846.878378213657
 20
1972.502037653584
 30
0.0
 11
1846.878378213657
 21
1965.502037653584
 31
0.0
  0
LINE
  5
2D1
330
1F
100
AcDbEntity
  8
0
  6
Continuous
 62
     7
100
AcDbLine
 10
1854.878378213657
 20
1768.502037653584
 30
0.0
 11
1846.878378213657
 21
1768.502037653584
 31
0.0
  0
LINE
  5
2D2
330
1F
100
AcDbEntity
  8
0
  6
Continuous
 62
     7
100
AcDbLine
 10
1846.878378213657
 20
2012.502037653584
 30
0.0
 11
1784.774324839909
 21
2007.349106789847
 31
0.0
  0
LINE
  5
2D3
330
1F
100
AcDbEntity
  8
0
  6
Continuous
 62
     7
100
AcDbLine
 10
1846.878378213657
 20
1616.502037653584
 30
0.0
 11
1854.878378213657
 21
1616.502037653584
 31
0.0
  0
LINE
  5
2D4
330
1F
100
AcDbEntity
  8
0
  6
Continuous
 62
     7
100
AcDbLine
 10
1784.774324839909
 20
1377.654968517322
 30
0.0
 11
1846.878378213657
 21
1372.502037653584
 31
0.0
  0
LINE
  5
2D5
330
1F
100
AcDbEntity
  8
0
  6
Continuous
 62
     7
100
AcDbLine
 10
1846.878378213657
 20
1965.502037653584
 30
0.0
 11
1846.878378213657
 21
1372.502037653584
 31
0.0
  0
LINE
  5
2D6
330
1F
100
AcDbEntity
  8
0
  6
Continuous
 62
     7
100
AcDbLine
 10
1783.378378213657
 20
2005.852720176898
 30
0.0
 11
1783.378378213657
 21
1379.15135513027
 31
0.0
  0
LINE
  5
2D7
330
1F
100
AcDbEntity
  8
1
  6
Continuous
 62
     7
100
AcDbLine
 10
1327.378378213656
 20
1884.502037653584
 30
0.0
 11
1357.037775714059
 21
1884.502037653584
 31
0.0
  0
LINE
  5
2D8
330
1F
100
AcDbEntity
  8
1
  6
Continuous
 62
     7
100
AcDbLine
 10
1317.378378213656
 20
1884.502037653584
 30
0.0
 11
1317.378378213656
 21
1702.502037653584
 31
0.0
  0
LINE
  5
2D9
330
1F
100
AcDbEntity
  8
1
  6
Continuous
 62
     7
100
AcDbLine
 10
1327.378378213656
 20
1884.502037653584
 30
0.0
 11
1327.378378213656
 21
1702.502037653584
 31
0.0
  0
LINE
  5
2DA
330
1F
100
AcDbEntity
  8
1
  6
Continuous
 62
     7
100
AcDbLine
 10
788.8783782136561
 20
1884.502037653584
 30
0.0
 11
1317.378378213656
 21
1884.502037653584
 31
0.0
  0
LINE
  5
2DB
330
1F
100
AcDbEntity
  8
1
  6
Continuous
 62
     7
100
AcDbLine
 10
788.8783782136561
 20
1894.502037653584
 30
0.0
 11
1357.037775714059
 21
1894.502037653584
 31
0.0
  0
LINE
  5
2DC
330
1F
100
AcDbEntity
  8
1
  6
Continuous
 62
     7
100
AcDbLine
 10
1327.378378213656
 20
1702.502037653584
 30
0.0
 11
1363.066553454493
 21
1702.502037653584
 31
0.0
  0
LINE
  5
2DD
330
1F
100
AcDbEntity
  8
1
  6
Continuous
 62
     7
100
AcDbLine
 10
1327.378378213656
 20
1682.502037653584
 30
0.0
 11
1363.066553454493
 21
1682.502037653584
 31
0.0
  0
LINE
  5
2DE
330
1F
100
AcDbEntity
  8
1
  6
Continuous
 62
     7
100
AcDbLine
 10
788.8783782136561
 20
1682.502037653584
 30
0.0
 11
904.3783782136561
 21
1682.502037653584
 31
0.0
  0
LINE
  5
2DF
330
1F
100
AcDbEntity
  8
1
  6
Continuous
 62
     7
100
AcDbLine
 10
788.8783782136561
 20
1702.502037653584
 30
0.0
 11
904.3783782136561
 21
1702.502037653584
 31
0.0
  0
LINE
  5
2E0
330
1F
100
AcDbEntity
  8
1
  6
Continuous
 62
     7
100
AcDbLine
 10
1317.378378213656
 20
1682.502037653584
 30
0.0
 11
1317.378378213656
 21
1500.502037653584
 31
0.0
  0
LINE
  5
2E1
330
1F
100
AcDbEntity
  8
1
  6
Continuous
 62
     7
100
AcDbLine
 10
1327.378378213656
 20
1682.502037653584
 30
0.0
 11
1327.378378213656
 21
1500.502037653584
 31
0.0
  0
LINE
  5
2E2
330
1F
100
AcDbEntity
  8
1
  6
Continuous
 62
     7
100
AcDbLine
 10
1357.037775714059
 20
1500.502037653584
 30
0.0
 11
1327.378378213656
 21
1500.502037653584
 31
0.0
  0
LINE
  5
2E3
330
1F
100
AcDbEntity
  8
1
  6
Continuous
 62
     7
100
AcDbLine
 10
1357.037775714059
 20
1490.502037653584
 30
0.0
 11
788.8783782136561
 21
1490.502037653584
 31
0.0
  0
LINE
  5
2E4
330
1F
100
AcDbEntity
  8
1
  6
Continuous
 62
     7
100
AcDbLine
 10
1317.378378213656
 20
1500.502037653584
 30
0.0
 11
788.8783782136561
 21
1500.502037653584
 31
0.0
  0
LINE
  5
2E5
330
1F
100
AcDbEntity
  8
1
  6
Continuous
 62
     7
100
AcDbLine
 10
1555.378378213656
 20
1974.845540537838
 30
0.0
 11
1555.378378213656
 21
1972.158534769329
 31
0.0
  0
LINE
  5
2E6
330
1F
100
AcDbEntity
  8
1
  6
Continuous
 62
     7
100
AcDbLine
 10
1555.378378213656
 20
1994.502037653584
 30
0.0
 11
1555.378378213656
 21
1974.845540537838
 31
0.0
  0
LINE
  5
2E7
330
1F
100
AcDbEntity
  8
1
  6
Continuous
 62
     7
100
AcDbLine
 10
1518.034875329403
 20
2009.502037653584
 30
0.0
 11
1520.721881097911
 21
2009.502037653584
 31
0.0
  0
LINE
  5
2E8
330
1F
100
AcDbEntity
  8
1
  6
Continuous
 62
     7
100
AcDbLine
 10
1520.721881097911
 20
2009.502037653584
 30
0.0
 11
1540.378378213656
 21
2009.502037653584
 31
0.0
  0
LINE
  5
2E9
330
1F
100
AcDbEntity
  8
0
  6
Continuous
 62
     2
100
AcDbLine
 10
1530.093855037983
 20
1997.443057945005
 30
0.0
 11
1518.034875329403
 21
2009.502037653584
 31
0.0
  0
LINE
  5
2EA
330
1F
100
AcDbEntity
  8
0
  6
Continuous
 62
     2
100
AcDbLine
 10
1531.437357922238
 20
1998.786560829258
 30
0.0
 11
1520.721881097911
 21
2009.502037653584
 31
0.0
  0
LINE
  5
2EB
330
1F
100
AcDbEntity
  8
0
  6
Continuous
 62
     2
100
AcDbLine
 10
1543.319398505076
 20
1998.786560829258
 30
0.0
 11
1550.291934986221
 21
2005.759097310402
 31
0.0
  0
LINE
  5
2EC
330
1F
100
AcDbEntity
  8
0
  6
Continuous
 62
     2
100
AcDbLine
 10
1544.662901389331
 20
1997.443057945003
 30
0.0
 11
1551.635437870474
 21
2004.415594426147
 31
0.0
  0
LINE
  5
2ED
330
1F
100
AcDbEntity
  8
0
  6
Continuous
 62
     2
100
AcDbLine
 10
1555.378378213656
 20
1972.158534769329
 30
0.0
 11
1543.319398505076
 21
1984.21751447791
 31
0.0
  0
LINE
  5
2EE
330
1F
100
AcDbEntity
  8
0
  6
Continuous
 62
     2
100
AcDbLine
 10
1555.378378213656
 20
1974.845540537838
 30
0.0
 11
1544.662901389332
 21
1985.561017362165
 31
0.0
  0
LINE
  5
2EF
330
1F
100
AcDbEntity
  8
0
  6
Continuous
 62
     2
100
AcDbLine
 10
1525.67630217349
 20
1978.456458729163
 30
0.0
 11
1531.437357922236
 21
1984.21751447791
 31
0.0
  0
LINE
  5
2F0
330
1F
100
AcDbEntity
  8
0
  6
Continuous
 62
     2
100
AcDbLine
 10
1524.332799289234
 20
1979.79996161342
 30
0.0
 11
1530.093855037983
 21
1985.561017362164
 31
0.0
  0
LINE
  5
2F1
330
1F
100
AcDbEntity
  8
1
  6
Continuous
 62
     7
100
AcDbLine
 10
1317.378378213656
 20
1982.002037653584
 30
0.0
 11
1507.878378213656
 21
1982.002037653584
 31
0.0
  0
LINE
  5
2F2
330
1F
100
AcDbEntity
  8
1
  6
Continuous
 62
     7
100
AcDbLine
 10
1528.378378213656
 20
1894.502037653584
 30
0.0
 11
1528.378378213656
 21
1884.502037653584
 31
0.0
  0
LINE
  5
2F3
330
1F
100
AcDbEntity
  8
1
  6
Continuous
 62
     7
100
AcDbLine
 10
1527.878378213656
 20
1962.002037653584
 30
0.0
 11
1527.878378213656
 21
1894.502037653584
 31
0.0
  0
LINE
  5
2F4
330
1F
100
AcDbEntity
  8
1
  6
Continuous
 62
     7
100
AcDbLine
 10
1527.878378213656
 20
1702.502037653584
 30
0.0
 11
1527.878378213656
 21
1682.502037653584
 31
0.0
  0
LINE
  5
2F5
330
1F
100
AcDbEntity
  8
1
  6
Continuous
 62
     7
100
AcDbLine
 10
1527.878378213656
 20
1884.502037653584
 30
0.0
 11
1527.878378213656
 21
1702.502037653584
 31
0.0
  0
LINE
  5
2F6
330
1F
100
AcDbEntity
  8
1
  6
Continuous
 62
     7
100
AcDbLine
 10
1558.378378213656
 20
1997.502037653584
 30
0.0
 11
1558.378378213656
 21
1387.502037653584
 31
0.0
  0
LINE
  5
2F7
330
1F
100
AcDbEntity
  8
1
  6
Continuous
 62
     7
100
AcDbLine
 10
1555.378378213656
 20
1972.158534769329
 30
0.0
 11
1555.378378213656
 21
1390.502037653584
 31
0.0
  0
LINE
  5
2F8
330
1F
100
AcDbEntity
  8
1
  6
Continuous
 62
     7
100
AcDbLine
 10
1527.878378213656
 20
1682.502037653584
 30
0.0
 11
1527.878378213656
 21
1423.002037653584
 31
0.0
  0
LINE
  5
2F9
330
1F
100
AcDbEntity
  8
1
  6
Continuous
 62
     7
100
AcDbLine
 10
1530.878378213656
 20
1965.002037653584
 30
0.0
 11
1530.878378213656
 21
1420.002037653584
 31
0.0
  0
LINE
  5
2FA
330
1F
100
AcDbEntity
  8
0
  6
Continuous
 62
     2
100
AcDbLine
 10
1531.437357922236
 20
1400.786560829259
 30
0.0
 11
1525.67630217349
 21
1406.547616578005
 31
0.0
  0
LINE
  5
2FB
330
1F
100
AcDbEntity
  8
0
  6
Continuous
 62
     2
100
AcDbLine
 10
1530.093855037983
 20
1399.443057945005
 30
0.0
 11
1524.332799289234
 21
1405.204113693749
 31
0.0
  0
LINE
  5
2FC
330
1F
100
AcDbEntity
  8
1
  6
Continuous
 62
     7
100
AcDbLine
 10
1317.378378213656
 20
1403.002037653584
 30
0.0
 11
1508.378378213656
 21
1403.002037653584
 31
0.0
  0
LINE
  5
2FD
330
1F
100
AcDbEntity
  8
1
  6
Continuous
 62
     7
100
AcDbLine
 10
805.8783782136579
 20
1400.002037653584
 30
0.0
 11
1511.378378213656
 21
1400.002037653584
 31
0.0
  0
LINE
  5
2FE
330
1F
100
AcDbEntity
  8
1
  6
Continuous
 62
     7
100
AcDbLine
 10
808.8783782136561
 20
1403.002037653584
 30
0.0
 11
1317.378378213656
 21
1403.002037653584
 31
0.0
  0
LINE
  5
2FF
330
1F
100
AcDbEntity
  8
1
  6
Continuous
 62
     7
100
AcDbLine
 10
773.3783782136561
 20
1372.502037653584
 30
0.0
 11
1543.378378213656
 21
1372.502037653584
 31
0.0
  0
LINE
  5
300
330
1F
100
AcDbEntity
  8
1
  6
Continuous
 62
     7
100
AcDbLine
 10
776.3783782136561
 20
1375.502037653584
 30
0.0
 11
1540.378378213656
 21
1375.502037653584
 31
0.0
  0
LINE
  5
301
330
1F
100
AcDbEntity
  8
0
  6
Continuous
 62
     2
100
AcDbLine
 10
761.3783782136561
 20
1410.15853476933
 30
0.0
 11
772.093855037981
 21
1399.443057945004
 31
0.0
  0
LINE
  5
302
330
1F
100
AcDbEntity
  8
0
  6
Continuous
 62
     2
100
AcDbLine
 10
761.3783782136561
 20
1412.845540537839
 30
0.0
 11
773.4373579222349
 21
1400.786560829259
 31
0.0
  0
LINE
  5
303
330
1F
100
AcDbEntity
  8
0
  6
Continuous
 62
     2
100
AcDbLine
 10
785.3193985050759
 20
1386.217514477909
 30
0.0
 11
796.0348753294011
 21
1375.502037653585
 31
0.0
  0
LINE
  5
304
330
1F
100
AcDbEntity
  8
0
  6
Continuous
 62
     2
100
AcDbLine
 10
786.662901389331
 20
1387.561017362164
 30
0.0
 11
798.7218810979109
 21
1375.502037653585
 31
0.0
  0
LINE
  5
305
330
1F
100
AcDbEntity
  8
0
  6
Continuous
 62
     2
100
AcDbLine
 10
791.0804542538219
 20
1406.547616578007
 30
0.0
 11
785.3193985050759
 21
1400.786560829259
 31
0.0
  0
LINE
  5
306
330
1F
100
AcDbEntity
  8
0
  6
Continuous
 62
     2
100
AcDbLine
 10
792.4239571380799
 20
1405.204113693748
 30
0.0
 11
786.662901389331
 21
1399.443057945005
 31
0.0
  0
LINE
  5
307
330
1F
100
AcDbEntity
  8
0
  6
Continuous
 62
     2
100
AcDbLine
 10
773.4373579222361
 20
1386.21751447791
 30
0.0
 11
766.4435279379859
 21
1379.223684493659
 31
0.0
  0
LINE
  5
308
330
1F
100
AcDbEntity
  8
0
  6
Continuous
 62
     2
100
AcDbLine
 10
772.0938550379831
 20
1387.561017362165
 30
0.0
 11
765.1000250537311
 21
1380.567187377914
 31
0.0
  0
LINE
  5
309
330
1F
100
AcDbEntity
  8
1
  6
Continuous
 62
     7
100
AcDbLine
 10
788.8783782136561
 20
1894.502037653584
 30
0.0
 11
788.8783782136561
 21
1884.502037653584
 31
0.0
  0
LINE
  5
30A
330
1F
100
AcDbEntity
  8
1
  6
Continuous
 62
     7
100
AcDbLine
 10
788.8783782136561
 20
1702.502037653584
 30
0.0
 11
788.8783782136561
 21
1682.502037653584
 31
0.0
  0
LINE
  5
30B
330
1F
100
AcDbEntity
  8
1
  6
Continuous
 62
     7
100
AcDbLine
 10
788.8783782136561
 20
1884.502037653584
 30
0.0
 11
788.8783782136561
 21
1702.502037653584
 31
0.0
  0
LINE
  5
30C
330
1F
100
AcDbEntity
  8
1
  6
Continuous
 62
     7
100
AcDbLine
 10
788.8783782136561
 20
1500.502037653584
 30
0.0
 11
788.8783782136561
 21
1490.502037653584
 31
0.0
  0
LINE
  5
30D
330
1F
100
AcDbEntity
  8
1
  6
Continuous
 62
     7
100
AcDbLine
 10
788.8783782136561
 20
1682.502037653584
 30
0.0
 11
788.8783782136561
 21
1500.502037653584
 31
0.0
  0
LINE
  5
30E
330
1F
100
AcDbEntity
  8
1
  6
Continuous
 62
     7
100
AcDbLine
 10
788.8783782136561
 20
1490.502037653584
 30
0.0
 11
788.8783782136561
 21
1423.002037653584
 31
0.0
  0
LINE
  5
30F
330
1F
100
AcDbEntity
  8
1
  6
Continuous
 62
     7
100
AcDbLine
 10
788.8783782136561
 20
1962.002037653584
 30
0.0
 11
788.8783782136561
 21
1894.502037653584
 31
0.0
  0
LINE
  5
310
330
1F
100
AcDbEntity
  8
1
  6
Continuous
 62
     7
100
AcDbLine
 10
808.8783782136561
 20
1982.002037653584
 30
0.0
 11
1317.378378213656
 21
1982.002037653584
 31
0.0
  0
LINE
  5
311
330
1F
100
AcDbEntity
  8
1
  6
Continuous
 62
     7
100
AcDbLine
 10
805.8783782136579
 20
1985.002037653584
 30
0.0
 11
1510.878378213656
 21
1985.002037653584
 31
0.0
  0
LINE
  5
312
330
1F
100
AcDbEntity
  8
1
  6
Continuous
 62
     7
100
AcDbLine
 10
785.8783782136579
 20
1965.002037653584
 30
0.0
 11
785.8783782136579
 21
1420.002037653584
 31
0.0
  0
LINE
  5
313
330
1F
100
AcDbEntity
  8
1
  6
Continuous
 62
     7
100
AcDbLine
 10
758.3783782136561
 20
1997.502037653584
 30
0.0
 11
758.3783782136561
 21
1387.502037653584
 31
0.0
  0
LINE
  5
314
330
1F
100
AcDbEntity
  8
1
  6
Continuous
 62
     7
100
AcDbLine
 10
761.3783782136561
 20
1994.502037653584
 30
0.0
 11
761.3783782136561
 21
1390.502037653584
 31
0.0
  0
LINE
  5
315
330
1F
100
AcDbEntity
  8
0
  6
Continuous
 62
     2
100
AcDbLine
 10
766.4648214410929
 20
2005.759097310402
 30
0.0
 11
773.4373579222361
 21
1998.786560829258
 31
0.0
  0
LINE
  5
316
330
1F
100
AcDbEntity
  8
0
  6
Continuous
 62
     2
100
AcDbLine
 10
765.1213185568381
 20
2004.415594426147
 30
0.0
 11
772.0938550379831
 21
1997.443057945003
 31
0.0
  0
LINE
  5
317
330
1F
100
AcDbEntity
  8
0
  6
Continuous
 62
     2
100
AcDbLine
 10
772.093855037981
 20
1985.561017362165
 30
0.0
 11
761.3783782136561
 21
1974.845540537838
 31
0.0
  0
LINE
  5
318
330
1F
100
AcDbEntity
  8
0
  6
Continuous
 62
     2
100
AcDbLine
 10
773.4373579222349
 20
1984.21751447791
 30
0.0
 11
761.3783782136561
 21
1972.158534769329
 31
0.0
  0
LINE
  5
319
330
1F
100
AcDbEntity
  8
0
  6
Continuous
 62
     2
100
AcDbLine
 10
785.3193985050759
 20
1984.21751447791
 30
0.0
 11
791.0804542538201
 21
1978.45645872916
 31
0.0
  0
LINE
  5
31A
330
1F
100
AcDbEntity
  8
0
  6
Continuous
 62
     2
100
AcDbLine
 10
786.662901389331
 20
1985.561017362164
 30
0.0
 11
792.4239571380799
 21
1979.79996161342
 31
0.0
  0
LINE
  5
31B
330
1F
100
AcDbEntity
  8
0
  6
Continuous
 62
     2
100
AcDbLine
 10
796.0348753294011
 20
2009.502037653584
 30
0.0
 11
785.3193985050759
 21
1998.786560829258
 31
0.0
  0
LINE
  5
31C
330
1F
100
AcDbEntity
  8
0
  6
Continuous
 62
     2
100
AcDbLine
 10
798.7218810979109
 20
2009.502037653584
 30
0.0
 11
786.662901389331
 21
1997.443057945005
 31
0.0
  0
LINE
  5
31D
330
1F
100
AcDbEntity
  8
1
  6
Continuous
 62
     7
100
AcDbLine
 10
773.3783782136561
 20
2012.502037653584
 30
0.0
 11
1543.378378213656
 21
2012.502037653584
 31
0.0
  0
LINE
  5
31E
330
1F
100
AcDbEntity
  8
1
  6
Continuous
 62
     7
100
AcDbLine
 10
776.3783782136561
 20
2009.502037653584
 30
0.0
 11
1518.034875329403
 21
2009.502037653584
 31
0.0
  0
LINE
  5
31F
330
1F
100
AcDbEntity
  8
1
  6
DASH_CENTER
 62
     2
100
AcDbLine
 10
779.3783782136561
 20
1369.102037653584
 30
0.0
 11
779.3783782136561
 21
1417.902037653585
 31
0.0
  0
LINE
  5
320
330
1F
100
AcDbEntity
  8
1
  6
DASH_CENTER
 62
     2
100
AcDbLine
 10
1435.378378213656
 20
1792.502037653584
 30
0.0
 11
1435.378378213656
 21
1592.502037653584
 31
0.0
  0
LINE
  5
321
330
1F
100
AcDbEntity
  8
1
  6
DASH_CENTER
 62
     2
100
AcDbLine
 10
1158.378378213656
 20
2042.502037653584
 30
0.0
 11
1158.378378213656
 21
1342.502037653584
 31
0.0
  0
LINE
  5
322
330
1F
100
AcDbEntity
  8
1
  6
DASH_CENTER
 62
     2
100
AcDbLine
 10
779.3783782136561
 20
2015.902037653583
 30
0.0
 11
779.3783782136561
 21
1967.102037653584
 31
0.0
  0
LINE
  5
323
330
1F
100
AcDbEntity
  8
1
  6
DASH_CENTER
 62
     2
100
AcDbLine
 10
1158.378378213656
 20
984.5020376535838
 30
0.0
 11
1158.378378213656
 21
849.0020376535838
 31
0.0
  0
LINE
  5
324
330
1F
100
AcDbEntity
  8
1
  6
DASH_CENTER
 62
     2
100
AcDbLine
 10
754.978378213656
 20
1991.502037653584
 30
0.0
 11
803.7783782136571
 21
1991.502037653584
 31
0.0
  0
LINE
  5
325
330
1F
100
AcDbEntity
  8
1
  6
DASH_CENTER
 62
     2
100
AcDbLine
 10
1512.978378213657
 20
1991.502037653584
 30
0.0
 11
1561.778378213657
 21
1991.502037653584
 31
0.0
  0
LINE
  5
326
330
1F
100
AcDbEntity
  8
1
  6
DASH_CENTER
 62
     2
100
AcDbLine
 10
1537.378378213656
 20
2015.902037653583
 30
0.0
 11
1537.378378213656
 21
1967.102037653584
 31
0.0
  0
LINE
  5
327
330
1F
100
AcDbEntity
  8
1
  6
DASH_CENTER
 62
     2
100
AcDbLine
 10
1512.978378213657
 20
1393.502037653585
 30
0.0
 11
1561.778378213657
 21
1393.502037653585
 31
0.0
  0
LINE
  5
328
330
1F
100
AcDbEntity
  8
1
  6
DASH_CENTER
 62
     2
100
AcDbLine
 10
1537.378378213656
 20
1417.902037653585
 30
0.0
 11
1537.378378213656
 21
1369.102037653584
 31
0.0
  0
LINE
  5
329
330
1F
100
AcDbEntity
  8
1
  6
DASH_CENTER
 62
     2
100
AcDbLine
 10
754.978378213656
 20
1393.502037653585
 30
0.0
 11
803.7783782136571
 21
1393.502037653585
 31
0.0
  0
LINE
  5
32A
330
1F
100
AcDbEntity
  8
1
  6
DASH_CENTER
 62
     2
100
AcDbLine
 10
1753.378378213657
 20
1692.502037653584
 30
0.0
 11
1884.878378213657
 21
1692.502037653584
 31
0.0
  0
LINE
  5
32B
330
1F
100
AcDbEntity
  8
1
  6
DASH_CENTER
 62
     2
100
AcDbLine
 10
722.3783782136561
 20
1692.502037653584
 30
0.0
 11
1247.300457670072
 21
1692.502037653584
 31
0.0
  0
LINE
  5
32C
330
1F
100
AcDbEntity
  8
1
  6
DASH_CENTER
 62
     2
100
AcDbLine
 10
1067.378378213656
 20
2042.502037653584
 30
0.0
 11
1067.378378213656
 21
1342.502037653584
 31
0.0
  0
LINE
  5
32D
330
1F
100
AcDbEntity
  8
1
  6
Continuous
 62
     7
100
AcDbLine
 10
942.3783782136561
 20
1782.502037653584
 30
0.0
 11
942.3783782136561
 21
1602.502037653584
 31
0.0
  0
LINE
  5
32E
330
1F
100
AcDbEntity
  8
1
  6
Continuous
 62
     7
100
AcDbLine
 10
952.3783782136561
 20
1592.502037653584
 30
0.0
 11
1182.378378213656
 21
1592.502037653584
 31
0.0
  0
LINE
  5
32F
330
1F
100
AcDbEntity
  8
1
  6
Continuous
 62
     7
100
AcDbLine
 10
1192.378378213656
 20
1602.502037653584
 30
0.0
 11
1192.378378213656
 21
1782.502037653584
 31
0.0
  0
LINE
  5
330
330
1F
100
AcDbEntity
  8
1
  6
Continuous
 62
     7
100
AcDbLine
 10
1182.378378213656
 20
1792.502037653584
 30
0.0
 11
952.3783782136561
 21
1792.502037653584
 31
0.0
  0
LINE
  5
331
330
1F
100
AcDbEntity
  8
1
  6
PHANTOM
 62
     4
100
AcDbLine
 10
932.3783782136561
 20
1782.502037653584
 30
0.0
 11
932.3783782136561
 21
1602.502037653584
 31
0.0
  0
LINE
  5
332
330
1F
100
AcDbEntity
  8
1
  6
PHANTOM
 62
     4
100
AcDbLine
 10
952.3783782136561
 20
1582.502037653584
 30
0.0
 11
1182.378378213656
 21
1582.502037653584
 31
0.0
  0
LINE
  5
333
330
1F
100
AcDbEntity
  8
1
  6
PHANTOM
 62
     4
100
AcDbLine
 10
1182.378378213656
 20
1802.502037653584
 30
0.0
 11
952.3783782136561
 21
1802.502037653584
 31
0.0
  0
LINE
  5
334
330
1F
100
AcDbEntity
  8
1
  6
PHANTOM
 62
     4
100
AcDbLine
 10
1202.378378213656
 20
1602.502037653584
 30
0.0
 11
1202.378378213656
 21
1782.502037653584
 31
0.0
  0
LINE
  5
335
330
1F
100
AcDbEntity
  8
1
  6
Continuous
 62
     7
100
AcDbLine
 10
904.3783782136561
 20
1806.502037653585
 30
0.0
 11
904.3783782136561
 21
1702.502037653584
 31
0.0
  0
LINE
  5
336
330
1F
100
AcDbEntity
  8
1
  6
Continuous
 62
     7
100
AcDbLine
 10
928.3783782136561
 20
1554.502037653584
 30
0.0
 11
1206.378378213656
 21
1554.502037653584
 31
0.0
  0
LINE
  5
337
330
1F
100
AcDbEntity
  8
1
  6
Continuous
 62
     7
100
AcDbLine
 10
928.3783782136561
 20
1830.502037653585
 30
0.0
 11
1206.378378213656
 21
1830.502037653585
 31
0.0
  0
LINE
  5
338
330
1F
100
AcDbEntity
  8
1
  6
Continuous
 62
     7
100
AcDbLine
 10
1230.378378213656
 20
1806.502037653585
 30
0.0
 11
1230.378378213656
 21
1702.502037653584
 31
0.0
  0
LINE
  5
339
330
1F
100
AcDbEntity
  8
1
  6
Continuous
 62
     7
100
AcDbLine
 10
926.3783782136561
 20
1820.502037653585
 30
0.0
 11
1208.378378213656
 21
1820.502037653585
 31
0.0
  0
LINE
  5
33A
330
1F
100
AcDbEntity
  8
1
  6
Continuous
 62
     7
100
AcDbLine
 10
1220.378378213656
 20
1808.502037653585
 30
0.0
 11
1220.378378213656
 21
1576.502037653584
 31
0.0
  0
LINE
  5
33B
330
1F
100
AcDbEntity
  8
1
  6
Continuous
 62
     7
100
AcDbLine
 10
914.3783782136561
 20
1576.502037653584
 30
0.0
 11
914.3783782136561
 21
1808.502037653585
 31
0.0
  0
LINE
  5
33C
330
1F
100
AcDbEntity
  8
1
  6
Continuous
 62
     7
100
AcDbLine
 10
1208.378378213656
 20
1564.502037653584
 30
0.0
 11
926.3783782136561
 21
1564.502037653584
 31
0.0
  0
LINE
  5
33D
330
1F
100
AcDbEntity
  8
1
  6
Continuous
 62
     7
100
AcDbLine
 10
939.3783782136561
 20
1783.002037653585
 30
0.0
 11
939.3783782136561
 21
1602.002037653584
 31
0.0
  0
LINE
  5
33E
330
1F
100
AcDbEntity
  8
1
  6
Continuous
 62
     7
100
AcDbLine
 10
951.8783782136561
 20
1589.502037653584
 30
0.0
 11
1182.878378213656
 21
1589.502037653584
 31
0.0
  0
LINE
  5
33F
330
1F
100
AcDbEntity
  8
1
  6
Continuous
 62
     7
100
AcDbLine
 10
1195.378378213656
 20
1602.002037653584
 30
0.0
 11
1195.378378213656
 21
1783.002037653585
 31
0.0
  0
LINE
  5
340
330
1F
100
AcDbEntity
  8
1
  6
Continuous
 62
     7
100
AcDbLine
 10
1182.878378213656
 20
1795.502037653585
 30
0.0
 11
951.8783782136561
 21
1795.502037653585
 31
0.0
  0
LINE
  5
341
102
{ACAD_REACTORS
330
4A0
102
}
330
1F
100
AcDbEntity
  8
0
  6
Continuous
 62
     7
100
AcDbLine
 10
766.398216699559
 20
951.5020376535838
 30
0.0
 11
761.3783782136561
 21
891.0020376535838
 31
0.0
  0
LINE
  5
342
102
{ACAD_REACTORS
330
4A0
102
}
330
1F
100
AcDbEntity
  8
0
  6
Continuous
 62
     7
100
AcDbLine
 10
780.8585397277541
 20
951.5020376535838
 30
0.0
 11
766.398216699559
 21
951.5020376535838
 31
0.0
  0
LINE
  5
343
102
{ACAD_REACTORS
330
4A0
102
}
330
1F
100
AcDbEntity
  8
0
  6
Continuous
 62
     7
100
AcDbLine
 10
785.2489022469031
 20
898.5885956863797
 30
0.0
 11
780.8585397277541
 21
951.5020376535838
 31
0.0
  0
LINE
  5
344
102
{ACAD_REACTORS
330
4A0
102
}
330
1F
100
AcDbEntity
  8
1
  6
Continuous
 62
     7
100
AcDbLine
 10
792.9413756226891
 20
897.5020376535838
 30
0.0
 11
904.378378213655
 21
897.5020376535838
 31
0.0
  0
LINE
  5
345
102
{ACAD_REACTORS
330
4A0
102
}
330
1F
100
AcDbEntity
  8
1
  6
Continuous
 62
     7
100
AcDbLine
 10
904.378378213655
 20
897.5020376535838
 30
0.0
 11
904.378378213655
 21
904.0020376535838
 31
0.0
  0
LINE
  5
346
102
{ACAD_REACTORS
330
4A0
102
}
330
1F
100
AcDbEntity
  8
1
  6
Continuous
 62
     7
100
AcDbLine
 10
904.378378213655
 20
904.0020376535838
 30
0.0
 11
914.378378213655
 21
904.0020376535838
 31
0.0
  0
LINE
  5
347
102
{ACAD_REACTORS
330
4A0
102
}
330
1F
100
AcDbEntity
  8
1
  6
Continuous
 62
     7
100
AcDbLine
 10
914.378378213655
 20
904.0020376535838
 30
0.0
 11
914.378378213655
 21
896.0020376535838
 31
0.0
  0
LINE
  5
348
102
{ACAD_REACTORS
330
4A0
102
}
330
1F
100
AcDbEntity
  8
1
  6
Continuous
 62
     7
100
AcDbLine
 10
914.378378213655
 20
896.0020376535838
 30
0.0
 11
932.3783782136561
 21
896.0020376535838
 31
0.0
  0
LINE
  5
349
102
{ACAD_REACTORS
330
4A0
102
}
330
1F
100
AcDbEntity
  8
1
  6
Continuous
 62
     7
100
AcDbLine
 10
932.3783782136561
 20
896.0020376535838
 30
0.0
 11
932.3783782136561
 21
904.0020376535838
 31
0.0
  0
LINE
  5
34A
102
{ACAD_REACTORS
330
4A0
102
}
330
1F
100
AcDbEntity
  8
1
  6
Continuous
 62
     7
100
AcDbLine
 10
932.3783782136561
 20
904.0020376535838
 30
0.0
 11
942.3783782136561
 21
904.0020376535838
 31
0.0
  0
LINE
  5
34B
102
{ACAD_REACTORS
330
4A0
102
}
330
1F
100
AcDbEntity
  8
1
  6
Continuous
 62
     7
100
AcDbLine
 10
942.3783782136561
 20
904.0020376535838
 30
0.0
 11
942.3783782136561
 21
894.0020376535838
 31
0.0
  0
LINE
  5
34C
102
{ACAD_REACTORS
330
49F
102
}
330
1F
100
AcDbEntity
  8
1
  6
Continuous
 62
     7
100
AcDbLine
 10
1230.378378213657
 20
904.0020376535838
 30
0.0
 11
1230.378378213657
 21
897.5020376535838
 31
0.0
  0
LINE
  5
34D
102
{ACAD_REACTORS
330
49F
102
}
330
1F
100
AcDbEntity
  8
1
  6
Continuous
 62
     7
100
AcDbLine
 10
1220.378378213657
 20
904.0020376535838
 30
0.0
 11
1230.378378213657
 21
904.0020376535838
 31
0.0
  0
LINE
  5
34E
102
{ACAD_REACTORS
330
49F
102
}
330
1F
100
AcDbEntity
  8
1
  6
Continuous
 62
     7
100
AcDbLine
 10
1220.378378213657
 20
896.0020376535838
 30
0.0
 11
1220.378378213657
 21
904.0020376535838
 31
0.0
  0
LINE
  5
34F
102
{ACAD_REACTORS
330
49F
102
}
330
1F
100
AcDbEntity
  8
1
  6
Continuous
 62
     7
100
AcDbLine
 10
1202.378378213657
 20
896.0020376535838
 30
0.0
 11
1220.378378213657
 21
896.0020376535838
 31
0.0
  0
LINE
  5
350
102
{ACAD_REACTORS
330
49F
102
}
330
1F
100
AcDbEntity
  8
1
  6
Continuous
 62
     7
100
AcDbLine
 10
1202.378378213657
 20
904.0020376535838
 30
0.0
 11
1202.378378213657
 21
896.0020376535838
 31
0.0
  0
LINE
  5
351
102
{ACAD_REACTORS
330
49F
102
}
330
1F
100
AcDbEntity
  8
1
  6
Continuous
 62
     7
100
AcDbLine
 10
1192.378378213656
 20
904.0020376535838
 30
0.0
 11
1202.378378213657
 21
904.0020376535838
 31
0.0
  0
LINE
  5
352
102
{ACAD_REACTORS
330
49F
102
}
330
1F
100
AcDbEntity
  8
1
  6
Continuous
 62
     7
100
AcDbLine
 10
1192.378378213656
 20
894.0020376535838
 30
0.0
 11
1192.378378213656
 21
904.0020376535838
 31
0.0
  0
LINE
  5
353
330
1F
100
AcDbEntity
  8
0
  6
Continuous
 62
     7
100
AcDbLine
 10
1558.129460602785
 20
894.0020376535838
 30
0.0
 11
1553.22544734992
 21
953.1060910273318
 31
0.0
  0
LINE
  5
354
102
{ACAD_REACTORS
330
49E
102
}
330
1F
100
AcDbEntity
  8
0
  6
Continuous
 62
     7
100
AcDbLine
 10
1558.378378213656
 20
891.0020376535838
 30
0.0
 11
1553.22544734992
 21
953.1060910273318
 31
0.0
  0
LINE
  5
355
102
{ACAD_REACTORS
330
49E
102
}
330
1F
100
AcDbEntity
  8
0
  6
Continuous
 62
     7
100
AcDbLine
 10
1555.378378213657
 20
891.0020376535838
 30
0.0
 11
1550.358539727754
 21
951.5020376535838
 31
0.0
  0
LINE
  5
356
102
{ACAD_REACTORS
330
49E
102
}
330
1F
100
AcDbEntity
  8
0
  6
Continuous
 62
     7
100
AcDbLine
 10
1550.358539727754
 20
951.5020376535838
 30
0.0
 11
1535.898216699559
 21
951.5020376535838
 31
0.0
  0
LINE
  5
357
102
{ACAD_REACTORS
330
49E
102
}
330
1F
100
AcDbEntity
  8
0
  6
Continuous
 62
     7
100
AcDbLine
 10
1535.898216699559
 20
951.5020376535838
 30
0.0
 11
1531.50785418041
 21
898.5885956863797
 31
0.0
  0
LINE
  5
358
330
1F
100
AcDbEntity
  8
0
  6
Continuous
 62
     7
100
AcDbLine
 10
1528.078468233073
 20
891.0020376535838
 30
0.0
 11
1511.378378213656
 21
891.0020376535838
 31
0.0
  0
LINE
  5
359
330
1F
100
AcDbEntity
  8
1
  6
Continuous
 62
     7
100
AcDbLine
 10
1554.378378213657
 20
891.0020376535838
 30
0.0
 11
1550.254394524319
 21
905.8408175791367
 31
0.0
  0
LINE
  5
35A
330
1F
100
AcDbEntity
  8
1
  6
Continuous
 62
     7
100
AcDbLine
 10
1536.002361902994
 20
905.8408175791367
 30
0.0
 11
1532.895881894634
 21
894.6631853042168
 31
0.0
  0
LINE
  5
35B
330
1F
100
AcDbEntity
  8
0
  6
Continuous
 62
     7
100
AcDbLine
 10
1554.378378213657
 20
891.0020376535838
 30
0.0
 11
1531.878378213656
 21
891.0020376535838
 31
0.0
  0
LINE
  5
35C
330
1F
100
AcDbEntity
  8
1
  6
Continuous
 62
     7
100
AcDbLine
 10
1531.878378213656
 20
891.0020376535838
 30
0.0
 11
1528.078468233073
 21
891.0020376535838
 31
0.0
  0
LINE
  5
35D
102
{ACAD_REACTORS
330
49F
102
}
330
1F
100
AcDbEntity
  8
1
  6
Continuous
 62
     7
100
AcDbLine
 10
1223.878378213656
 20
894.0020376535838
 30
0.0
 11
1223.878378213656
 21
900.5020376535838
 31
0.0
  0
LINE
  5
35E
102
{ACAD_REACTORS
330
49F
102
}
330
1F
100
AcDbEntity
  8
1
  6
Continuous
 62
     7
100
AcDbLine
 10
1223.878378213656
 20
900.5020376535838
 30
0.0
 11
1226.878378213657
 21
900.5020376535838
 31
0.0
  0
LINE
  5
35F
102
{ACAD_REACTORS
330
49F
102
}
330
1F
100
AcDbEntity
  8
1
  6
Continuous
 62
     7
100
AcDbLine
 10
1226.878378213657
 20
900.5020376535838
 30
0.0
 11
1226.878378213657
 21
894.0020376535838
 31
0.0
  0
LINE
  5
360
102
{ACAD_REACTORS
330
49F
102
}
330
1F
100
AcDbEntity
  8
1
  6
Continuous
 62
     7
100
AcDbLine
 10
1198.878378213657
 20
900.5020376535838
 30
0.0
 11
1198.878378213657
 21
894.0020376535838
 31
0.0
  0
LINE
  5
361
102
{ACAD_REACTORS
330
49F
102
}
330
1F
100
AcDbEntity
  8
1
  6
Continuous
 62
     7
100
AcDbLine
 10
1195.878378213656
 20
900.5020376535838
 30
0.0
 11
1198.878378213657
 21
900.5020376535838
 31
0.0
  0
LINE
  5
362
102
{ACAD_REACTORS
330
49F
102
}
330
1F
100
AcDbEntity
  8
1
  6
Continuous
 62
     7
100
AcDbLine
 10
1195.878378213656
 20
894.0020376535838
 30
0.0
 11
1195.878378213656
 21
900.5020376535838
 31
0.0
  0
LINE
  5
363
102
{ACAD_REACTORS
330
49F
102
}
330
1F
100
AcDbEntity
  8
1
  6
Continuous
 62
     7
100
AcDbLine
 10
1198.878378213657
 20
894.0020376535838
 30
0.0
 11
1223.878378213656
 21
894.0020376535838
 31
0.0
  0
LINE
  5
364
102
{ACAD_REACTORS
330
4A0
102
}
330
1F
100
AcDbEntity
  8
1
  6
Continuous
 62
     7
100
AcDbLine
 10
935.878378213655
 20
900.5020376535838
 30
0.0
 11
938.878378213657
 21
900.5020376535838
 31
0.0
  0
LINE
  5
365
102
{ACAD_REACTORS
330
4A0
102
}
330
1F
100
AcDbEntity
  8
1
  6
Continuous
 62
     7
100
AcDbLine
 10
938.878378213657
 20
900.5020376535838
 30
0.0
 11
938.878378213657
 21
894.0020376535838
 31
0.0
  0
LINE
  5
366
102
{ACAD_REACTORS
330
4A0
102
}
330
1F
100
AcDbEntity
  8
1
  6
Continuous
 62
     7
100
AcDbLine
 10
935.878378213655
 20
894.0020376535838
 30
0.0
 11
935.878378213655
 21
900.5020376535838
 31
0.0
  0
LINE
  5
367
102
{ACAD_REACTORS
330
4A0
102
}
330
1F
100
AcDbEntity
  8
1
  6
Continuous
 62
     7
100
AcDbLine
 10
910.878378213657
 20
894.0020376535838
 30
0.0
 11
935.878378213655
 21
894.0020376535838
 31
0.0
  0
LINE
  5
368
102
{ACAD_REACTORS
330
4A0
102
}
330
1F
100
AcDbEntity
  8
1
  6
Continuous
 62
     7
100
AcDbLine
 10
910.878378213657
 20
900.5020376535838
 30
0.0
 11
910.878378213657
 21
894.0020376535838
 31
0.0
  0
LINE
  5
369
330
1F
100
AcDbEntity
  8
1
  6
Continuous
 62
     7
100
AcDbLine
 10
910.878378213657
 20
894.0020376535838
 30
0.0
 11
935.878378213655
 21
894.0020376535838
 31
0.0
  0
LINE
  5
36A
102
{ACAD_REACTORS
330
4A0
102
}
330
1F
100
AcDbEntity
  8
1
  6
Continuous
 62
     7
100
AcDbLine
 10
907.878378213655
 20
894.0020376535838
 30
0.0
 11
907.878378213655
 21
900.5020376535838
 31
0.0
  0
LINE
  5
36B
102
{ACAD_REACTORS
330
4A0
102
}
330
1F
100
AcDbEntity
  8
1
  6
Continuous
 62
     7
100
AcDbLine
 10
907.878378213655
 20
900.5020376535838
 30
0.0
 11
910.878378213657
 21
900.5020376535838
 31
0.0
  0
LINE
  5
36C
330
1F
100
AcDbEntity
  8
1
  6
Continuous
 62
     7
100
AcDbLine
 10
907.878378213655
 20
894.0020376535838
 30
0.0
 11
907.878378213655
 21
900.5020376535838
 31
0.0
  0
LINE
  5
36D
102
{ACAD_REACTORS
330
4A0
102
}
330
1F
100
AcDbEntity
  8
1
  6
Continuous
 62
     7
100
AcDbLine
 10
938.878378213657
 20
894.0020376535838
 30
0.0
 11
942.3783782136561
 21
894.0020376535838
 31
0.0
  0
LINE
  5
36E
102
{ACAD_REACTORS
330
4A0
102
}
330
1F
100
AcDbEntity
  8
1
  6
Continuous
 62
     7
100
AcDbLine
 10
907.878378213655
 20
894.0020376535838
 30
0.0
 11
790.231779502039
 21
894.0020376535838
 31
0.0
  0
LINE
  5
36F
102
{ACAD_REACTORS
330
4A0
102
}
330
1F
100
AcDbEntity
  8
1
  6
Continuous
 62
     7
100
AcDbLine
 10
761.3783782136561
 20
891.0020376535838
 30
0.0
 11
758.3783782136561
 21
891.0020376535838
 31
0.0
  0
LINE
  5
370
102
{ACAD_REACTORS
330
4A0
102
}
330
1F
100
AcDbEntity
  8
0
  6
Continuous
 62
     7
100
AcDbLine
 10
787.9584983675529
 20
902.0885956863797
 30
0.0
 11
787.799735233214
 21
904.0020376535838
 31
0.0
  0
LINE
  5
371
102
{ACAD_REACTORS
330
49E
102
}
330
1F
100
AcDbEntity
  8
0
  6
Continuous
 62
     7
100
AcDbLine
 10
1533.031309077394
 20
953.1060910273318
 30
0.0
 11
1528.957021194099
 21
904.0020376535838
 31
0.0
  0
LINE
  5
372
102
{ACAD_REACTORS
330
49E
102
}
330
1F
100
AcDbEntity
  8
1
  6
Continuous
 62
     7
100
AcDbLine
 10
1534.527695690343
 20
954.5020376535838
 30
0.0
 11
1551.729060736971
 21
954.5020376535838
 31
0.0
  0
LINE
  5
373
102
{ACAD_REACTORS
330
4A0
102
}
330
1F
100
AcDbEntity
  8
1
  6
Continuous
 62
     7
100
AcDbLine
 10
765.0276956903431
 20
954.5020376535838
 30
0.0
 11
782.22906073697
 21
954.5020376535838
 31
0.0
  0
LINE
  5
374
330
1F
100
AcDbEntity
  8
1
  6
Continuous
 62
     7
100
AcDbLine
 10
1359.378378213656
 20
891.0020376535838
 30
0.0
 11
761.3783782136561
 21
891.0020376535838
 31
0.0
  0
LINE
  5
375
330
1F
100
AcDbEntity
  8
1
  6
Continuous
 62
     7
100
AcDbLine
 10
782.22906073697
 20
954.5020376535838
 30
0.0
 11
1445.929016114032
 21
954.5020376535838
 31
0.0
  0
LINE
  5
376
102
{ACAD_REACTORS
330
49F
102
}
330
1F
100
AcDbEntity
  8
1
  6
Continuous
 62
     7
100
AcDbLine
 10
1230.378378213657
 20
897.5020376535838
 30
0.0
 11
1451.878378213661
 21
897.5020376535838
 31
0.0
  0
LINE
  5
377
102
{ACAD_REACTORS
330
49E
102
}
330
1F
100
AcDbEntity
  8
1
  6
Continuous
 62
     7
100
AcDbLine
 10
1526.524976925274
 20
894.0020376535838
 30
0.0
 11
1482.878378213656
 21
894.0020376535838
 31
0.0
  0
LINE
  5
378
330
1F
100
AcDbEntity
  8
0
  6
Continuous
 62
     7
100
AcDbLine
 10
1359.378378213656
 20
891.0020376535838
 30
0.0
 11
1359.378378213656
 21
881.5020376535838
 31
0.0
  0
LINE
  5
379
330
1F
100
AcDbEntity
  8
1
  6
Continuous
 62
     7
100
AcDbLine
 10
942.3783782136561
 20
894.0020376535838
 30
0.0
 11
1192.378378213656
 21
894.0020376535838
 31
0.0
  0
LINE
  5
37A
102
{ACAD_REACTORS
330
49F
102
}
330
1F
100
AcDbEntity
  8
1
  6
Continuous
 62
     7
100
AcDbLine
 10
1192.378378213656
 20
894.0020376535838
 30
0.0
 11
1195.878378213656
 21
894.0020376535838
 31
0.0
  0
LINE
  5
37B
330
1F
100
AcDbEntity
  8
1
  6
Continuous
 62
     7
100
AcDbLine
 10
1230.378378213657
 20
904.0020376535838
 30
0.0
 11
1437.024503588255
 21
904.0020376535838
 31
0.0
  0
LINE
  5
37C
102
{ACAD_REACTORS
330
49E
102
}
330
1F
100
AcDbEntity
  8
0
  6
Continuous
 62
     7
100
AcDbLine
 10
1528.957021194099
 20
904.0020376535838
 30
0.0
 11
1528.79825805976
 21
902.0885956863797
 31
0.0
  0
LINE
  5
37D
330
1F
100
AcDbEntity
  8
1
  6
Continuous
 62
     7
100
AcDbLine
 10
1220.378378213657
 20
904.0020376535838
 30
0.0
 11
1202.378378213657
 21
904.0020376535838
 31
0.0
  0
LINE
  5
37E
330
1F
100
AcDbEntity
  8
1
  6
Continuous
 62
     7
100
AcDbLine
 10
1192.378378213656
 20
904.0020376535838
 30
0.0
 11
942.3783782136561
 21
904.0020376535838
 31
0.0
  0
LINE
  5
37F
330
1F
100
AcDbEntity
  8
1
  6
Continuous
 62
     7
100
AcDbLine
 10
932.3783782136561
 20
904.0020376535838
 30
0.0
 11
914.378378213655
 21
904.0020376535838
 31
0.0
  0
LINE
  5
380
330
1F
100
AcDbEntity
  8
1
  6
Continuous
 62
     7
100
AcDbLine
 10
904.378378213655
 20
904.0020376535838
 30
0.0
 11
787.799735233214
 21
904.0020376535838
 31
0.0
  0
LINE
  5
381
102
{ACAD_REACTORS
330
4A0
102
}
330
1F
100
AcDbEntity
  8
0
  6
Continuous
 62
     7
100
AcDbLine
 10
787.799735233214
 20
904.0020376535838
 30
0.0
 11
783.725447349919
 21
953.1060910273318
 31
0.0
  0
LINE
  5
382
330
1F
100
AcDbEntity
  8
1
  6
Continuous
 62
     7
100
AcDbLine
 10
783.860874532679
 20
894.6631853042168
 30
0.0
 11
780.754394524319
 21
905.8408175791367
 31
0.0
  0
LINE
  5
383
330
1F
100
AcDbEntity
  8
1
  6
Continuous
 62
     7
100
AcDbLine
 10
766.5023619029939
 20
905.8408175791367
 30
0.0
 11
762.3783782136561
 21
891.0020376535838
 31
0.0
  0
LINE
  5
384
330
1F
100
AcDbEntity
  8
1
  6
DASH_CENTER
 62
     2
100
AcDbLine
 10
1067.378378213656
 20
931.0020376535838
 30
0.0
 11
1067.378378213656
 21
852.0020376535838
 31
0.0
  0
LINE
  5
385
330
1F
100
AcDbEntity
  8
1
  6
DASH_CENTER
 62
     2
100
AcDbLine
 10
1362.378378213656
 20
1692.502037653584
 30
0.0
 11
1589.378378213656
 21
1692.502037653584
 31
0.0
  0
LINE
  5
386
330
1F
100
AcDbEntity
  8
1
  6
DASH_CENTER
 62
     2
100
AcDbLine
 10
1435.976619767402
 20
1462.502037653584
 30
0.0
 11
1502.976619767402
 21
1462.502037653584
 31
0.0
  0
LINE
  5
387
330
1F
100
AcDbEntity
  8
1
  6
DASH_CENTER
 62
     2
100
AcDbLine
 10
1468.378378213656
 20
1499.337807302146
 30
0.0
 11
1468.378378213656
 21
1426.337807302146
 31
0.0
  0
LINE
  5
388
330
1F
100
AcDbEntity
  8
1
  6
Continuous
 62
     2
100
AcDbLine
 10
1548.795641291301
 20
1046.700821353325
 30
0.0
 11
1620.295641291301
 21
1046.700821353325
 31
0.0
  0
LINE
  5
389
330
1F
100
AcDbEntity
  8
1
  6
Continuous
 62
     2
100
AcDbLine
 10
1587.186141289115
 20
951.4051402066259
 30
0.0
 11
1663.186141289115
 21
951.4051402066259
 31
0.0
  0
LINE
  5
38A
330
1F
100
AcDbEntity
  8
1
  6
Continuous
 62
     2
100
AcDbLine
 10
1500.33438996835
 20
711.839902515324
 30
0.0
 11
1915.33438996835
 21
711.839902515324
 31
0.0
  0
ARC
  5
38B
330
1F
100
AcDbEntity
  8
1
  6
Continuous
 62
     2
100
AcDbCircle
 10
1511.378378213656
 20
1006.502037653584
 30
0.0
 40
38.00000000000296
100
AcDbArc
 50
0.0
 51
74.99999999999946
  0
ARC
  5
38C
330
1F
100
AcDbEntity
  8
1
  6
DASH_CENTER
 62
     2
100
AcDbCircle
 10
1435.378378213656
 20
1889.502037653584
 30
0.0
 40
78.49999999999916
100
AcDbArc
 50
176.3481151896237
 51
183.6518848103763
  0
ARC
  5
38D
330
1F
100
AcDbEntity
  8
1
  6
Continuous
 62
     2
100
AcDbCircle
 10
1537.378378213656
 20
1991.502037653584
 30
0.0
 40
9.400000000001
100
AcDbArc
 50
0.0
 51
219.199566192619
  0
ARC
  5
38E
330
1F
100
AcDbEntity
  8
1
  6
Continuous
 62
     2
100
AcDbCircle
 10
1537.378378213656
 20
1991.502037653584
 30
0.0
 40
9.399999999999759
100
AcDbArc
 50
230.8004338073845
 51
0.0
  0
ARC
  5
38F
330
1F
100
AcDbEntity
  8
1
  6
Continuous
 62
     2
100
AcDbCircle
 10
1537.378378213656
 20
1991.502037653584
 30
0.0
 40
9.399999999999054
100
AcDbArc
 50
219.199566192619
 51
230.8004338073845
  0
ARC
  5
390
330
1F
100
AcDbEntity
  8
1
  6
Continuous
 62
     2
100
AcDbCircle
 10
779.3783782136561
 20
1393.502037653585
 30
0.0
 40
9.400000000000652
100
AcDbArc
 50
129.19956619262
 51
180.0
  0
ARC
  5
391
330
1F
100
AcDbEntity
  8
1
  6
Continuous
 62
     2
100
AcDbCircle
 10
779.3783782136561
 20
1393.502037653585
 30
0.0
 40
9.400000000000091
100
AcDbArc
 50
180.0
 51
129.19956619262
  0
ARC
  5
392
330
1F
100
AcDbEntity
  8
1
  6
DASH_CENTER
 62
     2
100
AcDbCircle
 10
1435.378378213656
 20
1495.502037653584
 30
0.0
 40
78.49999999999916
100
AcDbArc
 50
176.3481151896237
 51
183.6518848103763
  0
ARC
  5
393
330
1F
100
AcDbEntity
  8
1
  6
Continuous
 62
     7
100
AcDbCircle
 10
1435.378378213656
 20
1692.502037653584
 30
0.0
 40
73.0
100
AcDbArc
 50
90.0
 51
180.0
  0
ARC
  5
394
330
1F
100
AcDbEntity
  8
1
  6
Continuous
 62
     7
100
AcDbCircle
 10
1435.378378213656
 20
1692.502037653584
 30
0.0
 40
73.0
100
AcDbArc
 50
180.0
 51
90.0
  0
CIRCLE
  5
395
330
1F
100
AcDbEntity
  8
1
  6
Continuous
 62
     2
100
AcDbCircle
 10
1537.378378213656
 20
1991.502037653584
 30
0.0
 40
2.5
  0
CIRCLE
  5
396
330
1F
100
AcDbEntity
  8
1
  6
Continuous
 62
     2
100
AcDbCircle
 10
1537.378378213656
 20
1991.502037653584
 30
0.0
 40
6.0
  0
CIRCLE
  5
397
330
1F
100
AcDbEntity
  8
1
  6
Continuous
 62
     2
100
AcDbCircle
 10
1537.378378213656
 20
1991.502037653584
 30
0.0
 40
7.5
  0
CIRCLE
  5
398
330
1F
100
AcDbEntity
  8
1
  6
Continuous
 62
     2
100
AcDbCircle
 10
1537.378378213656
 20
1991.502037653584
 30
0.0
 40
7.600000000000819
  0
CIRCLE
  5
399
330
1F
100
AcDbEntity
  8
1
  6
Continuous
 62
     2
100
AcDbCircle
 10
1537.378378213656
 20
1393.502037653585
 30
0.0
 40
2.5
  0
CIRCLE
  5
39A
330
1F
100
AcDbEntity
  8
1
  6
Continuous
 62
     2
100
AcDbCircle
 10
1537.378378213656
 20
1393.502037653585
 30
0.0
 40
6.0
  0
CIRCLE
  5
39B
330
1F
100
AcDbEntity
  8
1
  6
Continuous
 62
     2
100
AcDbCircle
 10
1537.378378213656
 20
1393.502037653585
 30
0.0
 40
7.5
  0
CIRCLE
  5
39C
330
1F
100
AcDbEntity
  8
1
  6
Continuous
 62
     2
100
AcDbCircle
 10
1537.378378213656
 20
1393.502037653585
 30
0.0
 40
7.600000000000819
  0
CIRCLE
  5
39D
330
1F
100
AcDbEntity
  8
1
  6
Continuous
 62
     2
100
AcDbCircle
 10
1537.378378213656
 20
1393.502037653585
 30
0.0
 40
9.400000000001
  0
CIRCLE
  5
39E
330
1F
100
AcDbEntity
  8
1
  6
Continuous
 62
     2
100
AcDbCircle
 10
779.3783782136561
 20
1393.502037653585
 30
0.0
 40
2.5
  0
CIRCLE
  5
39F
330
1F
100
AcDbEntity
  8
1
  6
Continuous
 62
     2
100
AcDbCircle
 10
779.3783782136561
 20
1393.502037653585
 30
0.0
 40
6.0
  0
CIRCLE
  5
3A0
330
1F
100
AcDbEntity
  8
1
  6
Continuous
 62
     2
100
AcDbCircle
 10
779.3783782136561
 20
1393.502037653585
 30
0.0
 40
7.5
  0
CIRCLE
  5
3A1
330
1F
100
AcDbEntity
  8
1
  6
Continuous
 62
     2
100
AcDbCircle
 10
779.3783782136561
 20
1393.502037653585
 30
0.0
 40
7.599999999999
  0
CIRCLE
  5
3A2
330
1F
100
AcDbEntity
  8
1
  6
Continuous
 62
     2
100
AcDbCircle
 10
779.3783782136561
 20
1991.502037653584
 30
0.0
 40
2.5
  0
CIRCLE
  5
3A3
330
1F
100
AcDbEntity
  8
1
  6
Continuous
 62
     2
100
AcDbCircle
 10
779.3783782136561
 20
1991.502037653584
 30
0.0
 40
6.0
  0
CIRCLE
  5
3A4
330
1F
100
AcDbEntity
  8
1
  6
Continuous
 62
     2
100
AcDbCircle
 10
779.3783782136561
 20
1991.502037653584
 30
0.0
 40
7.5
  0
CIRCLE
  5
3A5
330
1F
100
AcDbEntity
  8
1
  6
Continuous
 62
     2
100
AcDbCircle
 10
779.3783782136561
 20
1991.502037653584
 30
0.0
 40
7.599999999999
  0
CIRCLE
  5
3A6
330
1F
100
AcDbEntity
  8
1
  6
Continuous
 62
     2
100
AcDbCircle
 10
779.3783782136561
 20
1991.502037653584
 30
0.0
 40
9.400000000000091
  0
CIRCLE
  5
3A7
330
1F
100
AcDbEntity
  8
1
  6
Continuous
 62
     7
100
AcDbCircle
 10
1435.378378213656
 20
1692.502037653584
 30
0.0
 40
60.0
  0
CIRCLE
  5
3A8
330
1F
100
AcDbEntity
  8
1
  6
Continuous
 62
     7
100
AcDbCircle
 10
957.3783782136561
 20
1808.002037653585
 30
0.0
 40
2.5
  0
CIRCLE
  5
3A9
330
1F
100
AcDbEntity
  8
1
  6
Continuous
 62
     7
100
AcDbCircle
 10
1177.378378213656
 20
1808.002037653585
 30
0.0
 40
2.5
  0
CIRCLE
  5
3AA
330
1F
100
AcDbEntity
  8
1
  6
Continuous
 62
     7
100
AcDbCircle
 10
1207.878378213656
 20
1692.502037653584
 30
0.0
 40
2.500000000001137
  0
CIRCLE
  5
3AB
330
1F
100
AcDbEntity
  8
1
  6
Continuous
 62
     7
100
AcDbCircle
 10
926.878378213657
 20
1692.502037653584
 30
0.0
 40
2.5
  0
CIRCLE
  5
3AC
330
1F
100
AcDbEntity
  8
1
  6
Continuous
 62
     7
100
AcDbCircle
 10
1177.378378213656
 20
1577.002037653583
 30
0.0
 40
2.5
  0
CIRCLE
  5
3AD
330
1F
100
AcDbEntity
  8
1
  6
Continuous
 62
     7
100
AcDbCircle
 10
957.3783782136561
 20
1577.002037653583
 30
0.0
 40
2.5
  0
CIRCLE
  5
3AE
330
1F
100
AcDbEntity
  8
1
  6
PHANTOM
 62
     4
100
AcDbCircle
 10
1468.378378213656
 20
1462.502037653585
 30
0.0
 40
14.5
  0
CIRCLE
  5
3AF
330
1F
100
AcDbEntity
  8
1
  6
PHANTOM
 62
     4
100
AcDbCircle
 10
1468.378378213656
 20
1462.502037653585
 30
0.0
 40
26.0
  0
SPLINE
  5
3B0
330
1F
100
AcDbEntity
  8
1
  6
Continuous
 62
     2
100
AcDbSpline
210
0.0
220
0.0
230
1.0
 70
     8
 71
     3
 72
    16
 73
    12
 74
    10
 42
0.000000001
 43
0.0000000001
 44
0.00000001
 40
0.0
 40
0.0
 40
0.0
 40
0.0
 40
30.42975148277015
 40
58.85564482307917
 40
85.07684998763901
 40
102.7839442843566
 40
119.7052267698442
 40
134.7146527082522
 40
152.2684274992693
 40
182.3285604253134
 40
212.0663963757679
 40
212.0663963757679
 40
212.0663963757679
 40
212.0663963757679
 10
1629.34626907962
 20
817.7172112009991
 30
0.0
 10
1631.240159441028
 20
829.0067433661618
 30
0.0
 10
1634.903223819683
 20
850.8423701125068
 30
0.0
 10
1605.926816575981
 20
863.7720850934118
 30
0.0
 10
1584.609009199197
 20
879.4762975120061
 30
0.0
 10
1586.06896783761
 20
900.6789930955032
 30
0.0
 10
1586.692101566129
 20
918.5272849632668
 30
0.0
 10
1571.4243219149
 20
928.7231990887414
 30
0.0
 10
1551.079153296203
 20
932.485090038319
 30
0.0
 10
1524.65171447774
 20
932.0978841456256
 30
0.0
 10
1505.996652075386
 20
924.7452909996882
 30
0.0
 10
1496.719394073964
 20
921.0888087930812
 30
0.0
 11
1629.34626907962
 21
817.7172112009991
 31
0.0
 11
1628.690271751962
 21
848.1398909365125
 31
0.0
 11
1605.855496260686
 21
865.069286693664
 31
0.0
 11
1587.08748896697
 21
883.3808541452659
 31
0.0
 11
1585.984245085558
 21
901.0535461124528
 31
0.0
 11
1583.836813573691
 21
917.838013314039
 31
0.0
 11
1572.096267676047
 21
927.189080049274
 31
0.0
 11
1555.03370357084
 21
931.3126604871043
 31
0.0
 11
1524.990167424613
 21
930.3138974833339
 31
0.0
 11
1496.719394073964
 21
921.0888087930812
 31
0.0
  0
LWPOLYLINE
  5
3B1
330
1F
100
AcDbEntity
  8
1
  6
Continuous
 62
     7
 60
     1
100
AcDbPolyline
 90
        2
 70
     0
 43
0.0
 10
1783.378378213657
 20
1396.833403234189
 10
1783.378378213657
 20
1379.15135513027
  0
LWPOLYLINE
  5
3B2
330
1F
100
AcDbEntity
  8
1
  6
Continuous
 62
     7
 60
     1
100
AcDbPolyline
 90
        4
 70
     0
 43
0.0
 10
1846.878378213657
 20
1005.772258274044
 10
1846.878378213657
 20
1416.502037653584
 10
1858.878378213657
 20
1416.502037653584
 10
1858.878378213657
 20
1412.502037653584
  0
LWPOLYLINE
  5
3B3
330
1F
100
AcDbEntity
  8
1
  6
Continuous
 62
     7
 60
     1
100
AcDbPolyline
 90
        2
 70
     0
 43
0.0
 10
1783.378378213657
 20
1988.170672072979
 10
1783.378378213657
 20
2005.852720176898
  0
LWPOLYLINE
  5
3B4
330
1F
100
AcDbEntity
  8
1
  6
Continuous
 62
     7
 60
     1
100
AcDbPolyline
 90
        3
 70
     0
 43
0.0
 10
1846.878378213657
 20
1768.502037653584
 10
1854.878378213657
 20
1768.502037653584
 10
1854.878378213657
 20
1752.502037653584
  0
ARC
  5
3B5
330
1F
100
AcDbEntity
  8
1
  6
Continuous
 62
     7
100
AcDbCircle
 10
1361.378378213656
 20
885.0020376535839
 30
0.0
 40
2.0
100
AcDbArc
 50
180.0
 51
270.0
  0
ARC
  5
3B6
330
1F
100
AcDbEntity
  8
1
  6
Continuous
 62
     7
100
AcDbCircle
 10
1509.378378213656
 20
885.0020376535839
 30
0.0
 40
2.0
100
AcDbArc
 50
270.0
 51
0.0
  0
ARC
  5
3B7
330
1F
100
AcDbEntity
  8
1
  6
Continuous
 62
     7
100
AcDbCircle
 10
805.8783782136579
 20
1420.002037653584
 30
0.0
 40
20.0000000000003
100
AcDbArc
 50
218.5924993888762
 51
222.2774260166209
  0
ARC
  5
3B8
330
1F
100
AcDbEntity
  8
1
  6
Continuous
 62
     7
100
AcDbCircle
 10
805.8783782136579
 20
1420.002037653584
 30
0.0
 40
20.00000000000092
100
AcDbArc
 50
222.2774260166209
 51
227.7225739833736
  0
ARC
  5
3B9
330
1F
100
AcDbEntity
  8
1
  6
Continuous
 62
     7
100
AcDbCircle
 10
805.8783782136579
 20
1420.002037653584
 30
0.0
 40
20.00000000000122
100
AcDbArc
 50
213.0768794669339
 51
218.5924993888762
  0
ARC
  5
3BA
330
1F
100
AcDbEntity
  8
1
  6
Continuous
 62
     7
100
AcDbCircle
 10
776.3783782136561
 20
1994.502037653584
 30
0.0
 40
14.99999999999977
100
AcDbArc
 50
131.3688370333059
 51
138.6311629666947
  0
ARC
  5
3BB
330
1F
100
AcDbEntity
  8
0
  6
Continuous
 62
     7
100
AcDbCircle
 10
1551.729060736971
 20
953.0020376535838
 30
0.0
 40
1.500000000000422
100
AcDbArc
 50
3.97774064570822
 51
90.0
  0
ARC
  5
3BC
102
{ACAD_REACTORS
330
4A0
102
}
330
1F
100
AcDbEntity
  8
0
  6
Continuous
 62
     7
100
AcDbCircle
 10
765.0276956903431
 20
953.0020376535838
 30
0.0
 40
1.5
100
AcDbArc
 50
90.0
 51
176.0222593542918
  0
ARC
  5
3BD
330
1F
100
AcDbEntity
  8
0
  6
Continuous
 62
     7
100
AcDbCircle
 10
1784.878378213657
 20
2005.852720176898
 30
0.0
 40
1.500000000000422
100
AcDbArc
 50
93.97774064570822
 51
180.0
  0
ARC
  5
3BE
330
1F
100
AcDbEntity
  8
0
  6
Continuous
 62
     7
100
AcDbCircle
 10
1784.878378213657
 20
1379.15135513027
 30
0.0
 40
1.5
100
AcDbArc
 50
180.0
 51
266.0222593542894
  0
ARC
  5
3BF
330
1F
100
AcDbEntity
  8
1
  6
Continuous
 62
     7
100
AcDbCircle
 10
1540.378378213656
 20
1994.502037653584
 30
0.0
 40
14.99999999999962
100
AcDbArc
 50
41.36883703330526
 51
48.63116296668953
  0
ARC
  5
3C0
330
1F
100
AcDbEntity
  8
1
  6
Continuous
 62
     7
100
AcDbCircle
 10
1540.378378213656
 20
1994.502037653584
 30
0.0
 40
15.0
100
AcDbArc
 50
0.0
 51
41.36883703330526
  0
ARC
  5
3C1
330
1F
100
AcDbEntity
  8
1
  6
Continuous
 62
     7
100
AcDbCircle
 10
1543.378378213656
 20
1997.502037653584
 30
0.0
 40
15.0
100
AcDbArc
 50
0.0
 51
90.0
  0
ARC
  5
3C2
330
1F
100
AcDbEntity
  8
1
  6
Continuous
 62
     7
100
AcDbCircle
 10
1540.378378213656
 20
1994.502037653584
 30
0.0
 40
15.00000000000082
100
AcDbArc
 50
48.63116296668953
 51
90.0
  0
ARC
  5
3C3
330
1F
100
AcDbEntity
  8
1
  6
Continuous
 62
     7
100
AcDbCircle
 10
1510.878378213656
 20
1965.002037653584
 30
0.0
 40
20.00000000000025
100
AcDbArc
 50
42.2774260166227
 51
47.72257398338365
  0
ARC
  5
3C4
330
1F
100
AcDbEntity
  8
1
  6
Continuous
 62
     7
100
AcDbCircle
 10
1510.878378213656
 20
1965.002037653584
 30
0.0
 40
20.0
100
AcDbArc
 50
0.0
 51
42.2774260166227
  0
ARC
  5
3C5
330
1F
100
AcDbEntity
  8
1
  6
Continuous
 62
     7
100
AcDbCircle
 10
1510.878378213656
 20
1965.002037653584
 30
0.0
 40
20.000000000001
100
AcDbArc
 50
47.72257398338365
 51
90.0
  0
ARC
  5
3C6
330
1F
100
AcDbEntity
  8
1
  6
Continuous
 62
     7
100
AcDbCircle
 10
1507.878378213656
 20
1962.002037653584
 30
0.0
 40
20.0
100
AcDbArc
 50
0.0
 51
90.0
  0
ARC
  5
3C7
330
1F
100
AcDbEntity
  8
1
  6
Continuous
 62
     7
100
AcDbCircle
 10
1510.878378213656
 20
1420.002037653584
 30
0.0
 40
19.99999999999985
100
AcDbArc
 50
325.8898424792655
 51
0.0
  0
ARC
  5
3C8
330
1F
100
AcDbEntity
  8
1
  6
Continuous
 62
     7
100
AcDbCircle
 10
1510.878378213656
 20
1420.002037653584
 30
0.0
 40
20.00000000000019
100
AcDbArc
 50
312.2774260166264
 51
317.7225739833773
  0
ARC
  5
3C9
330
1F
100
AcDbEntity
  8
1
  6
Continuous
 62
     7
100
AcDbCircle
 10
1510.878378213656
 20
1420.002037653584
 30
0.0
 40
19.99999999999986
100
AcDbArc
 50
320.3892404922282
 51
325.8898424792655
  0
ARC
  5
3CA
330
1F
100
AcDbEntity
  8
1
  6
Continuous
 62
     7
100
AcDbCircle
 10
1510.878378213656
 20
1420.002037653584
 30
0.0
 40
20.00000000000025
100
AcDbArc
 50
317.7225739833773
 51
320.3892404922282
  0
ARC
  5
3CB
330
1F
100
AcDbEntity
  8
1
  6
Continuous
 62
     7
100
AcDbCircle
 10
1543.378378213656
 20
1387.502037653584
 30
0.0
 40
15.0
100
AcDbArc
 50
270.0
 51
0.0
  0
ARC
  5
3CC
330
1F
100
AcDbEntity
  8
1
  6
Continuous
 62
     7
100
AcDbCircle
 10
1540.378378213656
 20
1390.502037653584
 30
0.0
 40
15.0
100
AcDbArc
 50
270.0
 51
0.0
  0
ARC
  5
3CD
330
1F
100
AcDbEntity
  8
1
  6
Continuous
 62
     7
100
AcDbCircle
 10
1510.878378213656
 20
1420.002037653584
 30
0.0
 40
20.0
100
AcDbArc
 50
270.0
 51
312.2774260166264
  0
ARC
  5
3CE
330
1F
100
AcDbEntity
  8
1
  6
Continuous
 62
     7
100
AcDbCircle
 10
1507.878378213656
 20
1423.002037653584
 30
0.0
 40
20.0
100
AcDbArc
 50
270.0
 51
0.0
  0
ARC
  5
3CF
330
1F
100
AcDbEntity
  8
1
  6
Continuous
 62
     7
100
AcDbCircle
 10
773.3783782136561
 20
1387.502037653584
 30
0.0
 40
15.0
100
AcDbArc
 50
180.0
 51
270.0
  0
ARC
  5
3D0
330
1F
100
AcDbEntity
  8
1
  6
Continuous
 62
     7
100
AcDbCircle
 10
776.3783782136561
 20
1390.502037653584
 30
0.0
 40
15.0
100
AcDbArc
 50
180.0
 51
270.0
  0
ARC
  5
3D1
330
1F
100
AcDbEntity
  8
1
  6
Continuous
 62
     7
100
AcDbCircle
 10
805.8783782136579
 20
1420.002037653584
 30
0.0
 40
20.00000000000019
100
AcDbArc
 50
227.7225739833736
 51
270.0
  0
ARC
  5
3D2
330
1F
100
AcDbEntity
  8
1
  6
Continuous
 62
     7
100
AcDbCircle
 10
805.8783782136579
 20
1420.002037653584
 30
0.0
 40
20.0
100
AcDbArc
 50
180.0
 51
213.0768794669339
  0
ARC
  5
3D3
330
1F
100
AcDbEntity
  8
1
  6
Continuous
 62
     7
100
AcDbCircle
 10
808.8783782136561
 20
1423.002037653584
 30
0.0
 40
20.0
100
AcDbArc
 50
180.0
 51
270.0
  0
ARC
  5
3D4
330
1F
100
AcDbEntity
  8
1
  6
Continuous
 62
     7
100
AcDbCircle
 10
808.8783782136561
 20
1962.002037653584
 30
0.0
 40
20.0
100
AcDbArc
 50
90.0
 51
180.0
  0
ARC
  5
3D5
330
1F
100
AcDbEntity
  8
1
  6
Continuous
 62
     7
100
AcDbCircle
 10
805.8783782136579
 20
1965.002037653584
 30
0.0
 40
20.00000000000115
100
AcDbArc
 50
132.2774260166168
 51
137.722573983391
  0
ARC
  5
3D6
330
1F
100
AcDbEntity
  8
1
  6
Continuous
 62
     7
100
AcDbCircle
 10
805.8783782136579
 20
1965.002037653584
 30
0.0
 40
20.0
100
AcDbArc
 50
90.0
 51
132.2774260166168
  0
ARC
  5
3D7
330
1F
100
AcDbEntity
  8
1
  6
Continuous
 62
     7
100
AcDbCircle
 10
805.8783782136579
 20
1965.002037653584
 30
0.0
 40
20.00000000000112
100
AcDbArc
 50
137.722573983391
 51
180.0
  0
ARC
  5
3D8
330
1F
100
AcDbEntity
  8
1
  6
Continuous
 62
     7
100
AcDbCircle
 10
776.3783782136561
 20
1994.502037653584
 30
0.0
 40
15.0
100
AcDbArc
 50
90.0
 51
131.3688370333059
  0
ARC
  5
3D9
330
1F
100
AcDbEntity
  8
1
  6
Continuous
 62
     7
100
AcDbCircle
 10
773.3783782136561
 20
1997.502037653584
 30
0.0
 40
15.0
100
AcDbArc
 50
90.0
 51
180.0
  0
ARC
  5
3DA
330
1F
100
AcDbEntity
  8
1
  6
Continuous
 62
     7
100
AcDbCircle
 10
776.3783782136561
 20
1994.502037653584
 30
0.0
 40
14.99999999999962
100
AcDbArc
 50
138.6311629666947
 51
180.0
  0
ARC
  5
3DB
330
1F
100
AcDbEntity
  8
1
  6
Continuous
 62
     7
100
AcDbCircle
 10
952.3783782136561
 20
1782.502037653584
 30
0.0
 40
10.0
100
AcDbArc
 50
90.0
 51
180.0
  0
ARC
  5
3DC
330
1F
100
AcDbEntity
  8
1
  6
Continuous
 62
     7
100
AcDbCircle
 10
952.3783782136561
 20
1602.502037653584
 30
0.0
 40
10.0
100
AcDbArc
 50
180.0
 51
270.0
  0
ARC
  5
3DD
330
1F
100
AcDbEntity
  8
1
  6
Continuous
 62
     7
100
AcDbCircle
 10
1182.378378213656
 20
1602.502037653584
 30
0.0
 40
10.0
100
AcDbArc
 50
270.0
 51
0.0
  0
ARC
  5
3DE
330
1F
100
AcDbEntity
  8
1
  6
Continuous
 62
     7
100
AcDbCircle
 10
1182.378378213656
 20
1782.502037653584
 30
0.0
 40
10.0
100
AcDbArc
 50
0.0
 51
90.0
  0
ARC
  5
3DF
330
1F
100
AcDbEntity
  8
1
  6
PHANTOM
 62
     4
100
AcDbCircle
 10
952.3783782136561
 20
1782.502037653584
 30
0.0
 40
20.0
100
AcDbArc
 50
90.0
 51
180.0
  0
ARC
  5
3E0
330
1F
100
AcDbEntity
  8
1
  6
PHANTOM
 62
     4
100
AcDbCircle
 10
1182.378378213656
 20
1782.502037653584
 30
0.0
 40
20.0
100
AcDbArc
 50
0.0
 51
90.0
  0
ARC
  5
3E1
330
1F
100
AcDbEntity
  8
1
  6
PHANTOM
 62
     4
100
AcDbCircle
 10
1182.378378213656
 20
1602.502037653584
 30
0.0
 40
20.0
100
AcDbArc
 50
270.0
 51
0.0
  0
ARC
  5
3E2
330
1F
100
AcDbEntity
  8
1
  6
PHANTOM
 62
     4
100
AcDbCircle
 10
952.3783782136561
 20
1602.502037653584
 30
0.0
 40
20.0
100
AcDbArc
 50
180.0
 51
270.0
  0
ARC
  5
3E3
330
1F
100
AcDbEntity
  8
1
  6
Continuous
 62
     7
100
AcDbCircle
 10
926.3783782136561
 20
1808.502037653585
 30
0.0
 40
12.0
100
AcDbArc
 50
90.0
 51
180.0
  0
ARC
  5
3E4
330
1F
100
AcDbEntity
  8
1
  6
Continuous
 62
     7
100
AcDbCircle
 10
926.3783782136561
 20
1576.502037653584
 30
0.0
 40
12.0
100
AcDbArc
 50
180.0
 51
270.0
  0
ARC
  5
3E5
330
1F
100
AcDbEntity
  8
1
  6
Continuous
 62
     7
100
AcDbCircle
 10
1208.378378213656
 20
1576.502037653584
 30
0.0
 40
12.0
100
AcDbArc
 50
270.0
 51
0.0
  0
ARC
  5
3E6
330
1F
100
AcDbEntity
  8
1
  6
Continuous
 62
     7
100
AcDbCircle
 10
1208.378378213656
 20
1808.502037653585
 30
0.0
 40
12.0
100
AcDbArc
 50
0.0
 51
90.0
  0
ARC
  5
3E7
330
1F
100
AcDbEntity
  8
1
  6
Continuous
 62
     7
100
AcDbCircle
 10
928.3783782136561
 20
1806.502037653585
 30
0.0
 40
24.0
100
AcDbArc
 50
90.0
 51
180.0
  0
ARC
  5
3E8
330
1F
100
AcDbEntity
  8
1
  6
Continuous
 62
     7
100
AcDbCircle
 10
1206.378378213656
 20
1806.502037653585
 30
0.0
 40
24.0
100
AcDbArc
 50
0.0
 51
90.0
  0
ARC
  5
3E9
330
1F
100
AcDbEntity
  8
1
  6
Continuous
 62
     7
100
AcDbCircle
 10
1206.378378213656
 20
1578.502037653584
 30
0.0
 40
24.0
100
AcDbArc
 50
270.0
 51
0.0
  0
ARC
  5
3EA
330
1F
100
AcDbEntity
  8
1
  6
Continuous
 62
     7
100
AcDbCircle
 10
928.3783782136561
 20
1578.502037653584
 30
0.0
 40
24.0
100
AcDbArc
 50
180.0
 51
270.0
  0
ARC
  5
3EB
330
1F
100
AcDbEntity
  8
1
  6
Continuous
 62
     7
100
AcDbCircle
 10
951.8783782136561
 20
1783.002037653585
 30
0.0
 40
12.5
100
AcDbArc
 50
90.0
 51
180.0
  0
ARC
  5
3EC
330
1F
100
AcDbEntity
  8
1
  6
Continuous
 62
     7
100
AcDbCircle
 10
1182.878378213656
 20
1783.002037653585
 30
0.0
 40
12.5
100
AcDbArc
 50
0.0
 51
90.0
  0
ARC
  5
3ED
330
1F
100
AcDbEntity
  8
1
  6
Continuous
 62
     7
100
AcDbCircle
 10
1182.878378213656
 20
1602.002037653584
 30
0.0
 40
12.5
100
AcDbArc
 50
270.0
 51
0.0
  0
ARC
  5
3EE
330
1F
100
AcDbEntity
  8
1
  6
Continuous
 62
     7
100
AcDbCircle
 10
951.8783782136561
 20
1602.002037653584
 30
0.0
 40
12.5
100
AcDbArc
 50
180.0
 51
270.0
  0
ARC
  5
3EF
102
{ACAD_REACTORS
330
4A0
102
}
330
1F
100
AcDbEntity
  8
0
  6
Continuous
 62
     7
100
AcDbCircle
 10
782.22906073697
 20
953.0020376535838
 30
0.0
 40
1.500000000000422
100
AcDbArc
 50
3.97774064570822
 51
90.0
  0
ARC
  5
3F0
102
{ACAD_REACTORS
330
4A0
102
}
330
1F
100
AcDbEntity
  8
1
  6
Continuous
 62
     7
100
AcDbCircle
 10
792.9413756226891
 20
902.5020376535838
 30
0.0
 40
4.999999999999873
100
AcDbArc
 50
184.7431115352419
 51
270.0
  0
ARC
  5
3F1
102
{ACAD_REACTORS
330
4A0
102
}
330
1F
100
AcDbEntity
  8
1
  6
Continuous
 62
     7
100
AcDbCircle
 10
790.231779502039
 20
899.0020376535838
 30
0.0
 40
4.999999999999647
100
AcDbArc
 50
184.7431115352422
 51
270.0
  0
ARC
  5
3F2
102
{ACAD_REACTORS
330
49E
102
}
330
1F
100
AcDbEntity
  8
0
  6
Continuous
 62
     7
100
AcDbCircle
 10
1551.729060736971
 20
953.0020376535838
 30
0.0
 40
1.500000000000422
100
AcDbArc
 50
3.97774064570822
 51
90.0
  0
ARC
  5
3F3
102
{ACAD_REACTORS
330
49E
102
}
330
1F
100
AcDbEntity
  8
0
  6
Continuous
 62
     7
100
AcDbCircle
 10
1534.527695690343
 20
953.0020376535838
 30
0.0
 40
1.5
100
AcDbArc
 50
90.0
 51
176.0222593542918
  0
ARC
  5
3F4
102
{ACAD_REACTORS
330
49E
102
}
330
1F
100
AcDbEntity
  8
1
  6
Continuous
 62
     7
100
AcDbCircle
 10
1523.815380804624
 20
902.5020376535838
 30
0.0
 40
5.0
100
AcDbArc
 50
270.0
 51
355.2568884647579
  0
ARC
  5
3F5
102
{ACAD_REACTORS
330
49E
102
}
330
1F
100
AcDbEntity
  8
1
  6
Continuous
 62
     7
100
AcDbCircle
 10
1526.524976925274
 20
899.0020376535838
 30
0.0
 40
5.0
100
AcDbArc
 50
270.0
 51
355.256888464758
  0
ARC
  5
3F6
330
1F
100
AcDbEntity
  8
1
  6
Continuous
 62
     7
100
AcDbCircle
 10
1543.128378213657
 20
903.5020376535838
 30
0.0
 40
7.499999999999294
100
AcDbArc
 50
18.16999106852085
 51
90.0
  0
ARC
  5
3F7
330
1F
100
AcDbEntity
  8
1
  6
Continuous
 62
     7
100
AcDbCircle
 10
1543.128378213657
 20
903.5020376535838
 30
0.0
 40
7.5
100
AcDbArc
 50
90.0
 51
161.8300089314819
  0
ARC
  5
3F8
330
1F
100
AcDbEntity
  8
1
  6
Continuous
 62
     7
100
AcDbCircle
 10
1528.078468233073
 20
896.0020376535838
 30
0.0
 40
5.0
100
AcDbArc
 50
270.0
 51
344.4683602102654
  0
ARC
  5
3F9
330
1F
100
AcDbEntity
  8
1
  6
Continuous
 62
     7
100
AcDbCircle
 10
773.6283782136561
 20
903.5020376535838
 30
0.0
 40
7.5
100
AcDbArc
 50
90.0
 51
161.8300089314797
  0
ARC
  5
3FA
330
1F
100
AcDbEntity
  8
1
  6
Continuous
 62
     7
100
AcDbCircle
 10
773.6283782136561
 20
903.5020376535838
 30
0.0
 40
7.500000000000158
100
AcDbArc
 50
18.16999106851868
 51
90.0
  0
ARC
  5
3FB
330
1F
100
AcDbEntity
  8
1
  6
Continuous
 62
     7
100
AcDbCircle
 10
788.6782881942399
 20
896.0020376535838
 30
0.0
 40
4.999999999999992
100
AcDbArc
 50
195.5316397897345
 51
270.0
  0
SOLID
  5
3FC
330
1F
100
AcDbEntity
  8
1
 62
     2
100
AcDbTrace
 10
1544.352561912882
 20
1006.77956191213
 30
0.0
 11
1553.568236744
 21
1006.77956191213
 31
0.0
 12
1548.960399328441
 22
971.7795619121296
 32
0.0
 13
1548.960399328441
 23
971.7795619121296
 33
0.0
  0
LEADER
  5
3FD
330
1F
100
AcDbEntity
  8
1
  6
Continuous
 62
     2
100
AcDbLeader
  3
Standard
 71
     0
 76
     2
 10
1548.960399328441
 20
971.7795619121296
 30
0.0
 10
1548.960399328441
 20
995.0539256673903
 30
0.0
  0
SOLID
  5
3FE
330
1F
100
AcDbEntity
  8
1
 62
     2
100
AcDbTrace
 10
1521.702101558702
 20
1048.294940256898
 30
0.0
 11
1521.702101558702
 21
1039.07926542578
 31
0.0
 12
1486.702101558702
 22
1043.687102841339
 32
0.0
 13
1486.702101558702
 23
1043.687102841339
 33
0.0
  0
LEADER
  5
3FF
330
1F
100
AcDbEntity
  8
1
  6
Continuous
 62
     2
100
AcDbLeader
  3
Standard
 71
     0
 76
     2
 10
1486.702101558702
 20
1043.687102841339
 30
0.0
 10
1509.976465313963
 20
1043.687102841339
 30
0.0
  0
SOLID
  5
400
330
1F
100
AcDbEntity
  8
1
 62
     2
100
AcDbTrace
 10
1449.649097786747
 20
840.8028472926595
 30
0.0
 11
1441.061771027383
 21
844.1474671097383
 31
0.0
 12
1458.057889272604
 22
875.0887684760785
 32
0.0
 13
1458.057889272604
 23
875.0887684760785
 33
0.0
  0
LEADER
  5
401
330
1F
100
AcDbEntity
  8
1
  6
Continuous
 62
     2
100
AcDbLeader
  3
Standard
 71
     0
 76
     3
 10
1458.057889272604
 20
875.0887684760785
 30
0.0
 10
1406.02809703018
 20
741.5020376535838
 30
0.0
 10
1284.551626582087
 20
741.5020376535838
 30
0.0
  0
MTEXT
  5
402
330
1F
100
AcDbEntity
  8
1
 62
     7
100
AcDbMText
 10
1583.20314725815
 20
1076.700821353325
 30
0.0
 40
35.0
 41
0.0
 71
     5
 72
     1
  1
吐水
  7
CONVERTER_11
 73
     1
 44
0.54545454545455
  0
MTEXT
  5
403
330
1F
100
AcDbEntity
  8
1
 62
     7
100
AcDbMText
 10
1622.267141788044
 20
981.4051402066259
 30
0.0
 40
35.0
 41
0.0
 71
     5
 72
     1
  1
止水
  7
CONVERTER_11
 73
     1
 44
0.54545454545455
  0
MTEXT
  5
405
330
1F
100
AcDbEntity
  8
1
 62
     7
100
AcDbMText
 10
1158.378378213656
 20
686.2223423139828
 30
0.0
 40
50.0
 41
0.0
 71
     5
 72
     1
  1
A-B-D-E
  7
CONVERTER_12
 73
     1
 44
0.7202881152461
  0
MTEXT
  5
406
330
1F
100
AcDbEntity
  8
1
 62
     7
100
AcDbMText
 10
1669.291553188333
 20
1439.593568681128
 30
0.0
 40
50.0
 41
0.0
 71
     5
 72
     1
  1
E
  7
CONVERTER_12
 73
     1
 44
0.7202881152461
  0
MTEXT
  5
407
330
1F
100
AcDbEntity
  8
1
 62
     7
100
AcDbMText
 10
1256.667813432562
 20
1448.381022279928
 30
0.0
 40
50.0
 41
0.0
 71
     5
 72
     1
  1
D
  7
CONVERTER_12
 73
     1
 44
0.7202881152461
  0
MTEXT
  5
408
330
1F
100
AcDbEntity
  8
1
 62
     7
100
AcDbMText
 10
1276.687043914831
 20
1737.502037653584
 30
0.0
 40
50.0
 41
0.0
 71
     5
 72
     1
  1
B
  7
CONVERTER_12
 73
     1
 44
0.7202881152461
  0
MTEXT
  5
409
330
1F
100
AcDbEntity
  8
1
 62
     7
100
AcDbMText
 10
702.3783782136552
 20
1737.502037653584
 30
0.0
 40
50.0
 41
0.0
 71
     5
 72
     1
  1
A
  7
CONVERTER_12
 73
     1
 44
0.7202881152461
  0
MTEXT
  5
40A
330
1F
100
AcDbEntity
  8
1
 62
     7
100
AcDbMText
 10
930.982430735773
 20
168.296394144299
 30
0.0
 40
35.0
 41
0.0
 71
     5
 72
     1
  1
10
  7
CONVERTER_12
 73
     1
 44
0.7202881152461
  0
MTEXT
  5
40B
330
1F
100
AcDbEntity
  8
1
 62
     7
100
AcDbMText
 10
850.943647806588
 20
168.3162444771192
 30
0.0
 40
35.0
 41
0.0
 71
     5
 72
     1
  1
1
  7
CONVERTER_12
 73
     1
 44
0.7202881152461
  0
MTEXT
  5
40C
330
1F
100
AcDbEntity
  8
1
 62
     7
100
AcDbMText
 10
567.4909926315811
 20
142.8986067756899
 30
0.0
 40
35.0
 41
0.0
 71
     5
 72
     1
  1
H5420S-800
  7
CONVERTER_12
 73
     1
 44
0.7202881152461
  0
MTEXT
  5
40D
330
1F
100
AcDbEntity
  8
1
 62
     7
100
AcDbMText
 10
566.72896006251
 20
225.3986067756901
 30
0.0
 40
35.0
 41
0.0
 71
     5
 72
     1
  1
洗濯機パン
  7
CONVERTER_11
 73
     1
 44
0.54545454545455
  0
MTEXT
  5
40E
330
1F
100
AcDbEntity
  8
1
 62
     7
100
AcDbMText
 10
1343.660267314434
 20
771.5020376535838
 30
0.0
 40
35.0
 41
0.0
 71
     5
 72
     1
  1
R1/2
  7
CONVERTER_12
 73
     1
 44
0.7202881152461
  0
MTEXT
  5
40F
330
1F
100
AcDbEntity
  8
1
 62
     7
100
AcDbMText
 10
1704.596489112878
 20
767.5020376535838
 30
0.0
 40
35.0
 41
0.0
 71
     5
 72
     1
  1
洗濯機用バルブ\PV275UTV-13-P5
  7
CONVERTER_11
 73
     1
 44
0.59090909090909
  0
DIMENSION
  5
41C
330
1F
100
AcDbEntity
  8
1
100
AcDbDimension
  2
*D5
 10
1783.378378213657
 20
2192.502037653584
 30
0.0
 11
1819.128378213657
 21
2220.002037653584
 31
0.0
 70
    32
  1
72
 71
     5
 42
-1.0
 53
0.00013888888889
  3
ME10_DIM_10
100
AcDbAlignedDimension
 13
1854.878378213657
 23
1768.502037653584
 33
0.0
 14
1783.378378213657
 24
2005.852720176898
 34
0.0
100
AcDbRotatedDimension
  0
DIMENSION
  5
427
330
1F
100
AcDbEntity
  8
1
100
AcDbDimension
  2
*D6
 10
1435.378378213656
 20
2352.502037653584
 30
0.0
 11
1496.878378213656
 21
2380.002037653584
 31
0.0
 70
    32
  1
<>
 71
     5
 42
-1.0
 53
0.00013888888889
  3
ME10_DIM_11
100
AcDbAlignedDimension
 13
1558.378378213656
 23
1997.502037653584
 33
0.0
 14
1435.378378213656
 24
1792.502037653584
 34
0.0
100
AcDbRotatedDimension
  0
DIMENSION
  5
434
330
1F
100
AcDbEntity
  8
1
100
AcDbDimension
  2
*D7
 10
1846.878378213657
 20
2112.502037653584
 30
0.0
 11
1815.128378213657
 21
2140.002037653584
 31
0.0
 70
    32
  1
63
 71
     5
 42
-1.0
 53
0.00013888888889
  3
ME10_DIM_12
100
AcDbAlignedDimension
 13
1783.378378213657
 23
2005.852720176898
 33
0.0
 14
1846.878378213657
 24
2012.502037653584
 34
0.0
100
AcDbRotatedDimension
  0
DIMENSION
  5
43F
330
1F
100
AcDbEntity
  8
1
100
AcDbDimension
  2
*D8
 10
1067.378378213656
 20
1272.502037653584
 30
0.0
 11
912.8783782136561
 21
1300.002037653584
 31
0.0
 70
    32
  1
<>
 71
     5
 42
-1.0
 53
0.00013888888889
  3
ME10_DIM_13
100
AcDbAlignedDimension
 13
758.3783782136561
 23
1387.502037653584
 33
0.0
 14
1067.378378213656
 24
1342.502037653584
 34
0.0
100
AcDbRotatedDimension
  0
DIMENSION
  5
44A
330
1F
100
AcDbEntity
  8
1
100
AcDbDimension
  2
*D9
 10
758.3783782136561
 20
2272.502037653584
 30
0.0
 11
1158.378378213656
 21
2300.002037653584
 31
0.0
 70
    32
  1
<>
 71
     5
 42
-1.0
 53
0.00013888888889
  3
ME10_DIM_14
100
AcDbAlignedDimension
 13
1558.378378213656
 23
1997.502037653584
 33
0.0
 14
758.3783782136561
 24
1997.502037653584
 34
0.0
100
AcDbRotatedDimension
  0
DIMENSION
  5
455
330
1F
100
AcDbEntity
  8
1
100
AcDbDimension
  2
*D10
 10
498.3783782136561
 20
1372.502037653584
 30
0.0
 11
470.8783782136561
 21
1692.502037653584
 31
0.0
 70
    32
  1
<>
 71
     5
 42
-1.0
 53
90.0
  3
ME10_DIM_15
100
AcDbAlignedDimension
 13
773.3783782136561
 23
2012.502037653584
 33
0.0
 14
773.3783782136561
 24
1372.502037653584
 34
0.0
 50
90.0
100
AcDbRotatedDimension
  0
DIMENSION
  5
460
330
1F
100
AcDbEntity
  8
1
100
AcDbDimension
  2
*D11
 10
779.378378213656
 20
2192.502037653584
 30
0.0
 11
1158.378378213656
 21
2220.002037653584
 31
0.0
 70
    33
  1
<>
 71
     5
 42
-1.0
 53
0.00013888888889
  3
ME10_DIM_16
100
AcDbAlignedDimension
 13
1537.378378213656
 23
2015.902037653583
 33
0.0
 14
779.3783782136561
 24
2015.902037653583
 34
0.0
  0
DIMENSION
  5
46B
330
1F
100
AcDbEntity
  8
1
100
AcDbDimension
  2
*D12
 10
658.3783782136561
 20
1592.502037653584
 30
0.0
 11
630.8783782136561
 21
1682.359804243768
 31
0.0
 70
    32
  1
200(開口部)
 71
     5
 42
-1.0
 53
90.0
  3
ME10_DIM_17
100
AcDbAlignedDimension
 13
952.3783782136561
 23
1792.502037653584
 33
0.0
 14
952.3783782136561
 24
1592.502037653584
 34
0.0
 50
90.0
100
AcDbRotatedDimension
  0
DIMENSION
  5
476
330
1F
100
AcDbEntity
  8
1
100
AcDbDimension
  2
*D13
 10
942.3783782136562
 20
2112.502037653584
 30
0.0
 11
1075.25681107358
 21
2140.002037653584
 31
0.0
 70
    32
  1
250(開口部)
 71
     5
 42
-1.0
 53
0.00013888888889
  3
ME10_DIM_18
100
AcDbAlignedDimension
 13
1192.378378213656
 23
1782.502037653584
 33
0.0
 14
942.3783782136561
 24
1782.502037653584
 34
0.0
100
AcDbRotatedDimension
  0
DIMENSION
  5
481
330
1F
100
AcDbEntity
  8
1
100
AcDbDimension
  2
*D14
 10
578.3783782136561
 20
1393.502037653585
 30
0.0
 11
550.8783782136561
 21
1692.502037653584
 31
0.0
 70
    33
  1
<>
 71
     5
 42
-1.0
 53
90.0
  3
ME10_DIM_19
100
AcDbAlignedDimension
 13
754.978378213656
 23
1991.502037653584
 33
0.0
 14
754.978378213656
 24
1393.502037653585
 34
0.0
  0
DIMENSION
  5
48D
330
1F
100
AcDbEntity
  8
1
100
AcDbDimension
  2
*D15
 10
1359.378378213656
 20
830.797260285284
 30
0.0
 11
1281.76458205496
 21
858.297260285284
 31
0.0
 70
    32
  1
<>
 71
     5
 42
-1.0
 53
0.00013888888889
  3
ME10_DIM_20
100
AcDbAlignedDimension
 13
1511.378378213656
 23
885.0020376535839
 33
0.0
 14
1359.378378213656
 24
881.5020376535838
 34
0.0
100
AcDbRotatedDimension
  0
INSERT
  5
495
330
1F
100
AcDbEntity
  8
1
100
AcDbBlockReference
  2
*D16
 10
0.0
 20
0.0
 30
0.0
  0
INSERT
  5
49D
330
1F
100
AcDbEntity
  8
1
100
AcDbBlockReference
  2
*D17
 10
0.0
 20
0.0
 30
0.0
  0
HATCH
  5
49E
330
1F
100
AcDbEntity
  8
1
  6
Continuous
 62
     2
100
AcDbHatch
 10
0.0
 20
0.0
 30
0.0
210
0.0
220
0.0
230
1.0
  2
_USER
 70
     0
 71
     1
 91
        1
 92
        1
 93
       17
 72
     1
 10
1528.79825805976
 20
902.0885956863797
 11
1528.957021194099
 21
904.0020376535838
 72
     1
 10
1528.957021194099
 20
904.0020376535838
 11
1533.031309077394
 21
953.1060910273318
 72
     2
 10
1534.527695690343
 20
953.0020376535838
 40
1.5
 50
183.9777406457083
 51
270.0
 73
     0
 72
     1
 10
1534.527695690343
 20
954.5020376535838
 11
1551.729060736971
 21
954.5020376535838
 72
     2
 10
1551.729060736971
 20
953.0020376535838
 40
1.500000000000422
 50
270.0
 51
356.0222593542917
 73
     0
 72
     1
 10
1553.22544734992
 20
953.1060910273318
 11
1558.378378213656
 21
891.0020376535838
 72
     1
 10
1558.378378213656
 20
891.0020376535838
 11
1555.378378213657
 21
891.0020376535838
 72
     1
 10
1555.378378213657
 20
891.0020376535838
 11
1550.358539727754
 21
951.5020376535838
 72
     1
 10
1550.358539727754
 20
951.5020376535838
 11
1535.898216699559
 21
951.5020376535838
 72
     1
 10
1535.898216699559
 20
951.5020376535838
 11
1531.50785418041
 21
898.5885956863797
 72
     2
 10
1526.524976925274
 20
899.0020376535838
 40
5.0
 50
4.743111535241931
 51
90.0
 73
     0
 72
     1
 10
1526.524976925274
 20
894.0020376535838
 11
1482.878378213656
 21
894.0020376535838
 72
     1
 10
1482.878378213656
 20
894.0020376535838
 11
1482.878378213656
 21
902.5020376535847
 72
     1
 10
1482.878378213656
 20
902.5020376535847
 11
1484.87837821365
 21
902.5020376535847
 72
     1
 10
1484.87837821365
 20
902.5020376535847
 11
1484.87837821365
 21
897.5020376535917
 72
     1
 10
1484.87837821365
 20
897.5020376535917
 11
1523.815380804624
 21
897.5020376535838
 72
     2
 10
1523.815380804624
 20
902.5020376535838
 40
5.0
 50
270.0
 51
355.2568884647579
 73
     1
 97
       17
330
2BB
330
2BC
330
2B3
330
2B5
330
377
330
3F5
330
357
330
356
330
355
330
2C9
330
354
330
3F2
330
372
330
3F3
330
371
330
37C
330
3F4
 75
     1
 76
     0
 52
45.0
 41
2.0
 77
     0
 78
     1
 53
45.0
 43
0.0
 44
0.0
 45
-1.414213562373095
 46
1.414213562373095
 79
     0
 98
        1
 10
0.0
 20
0.0
  0
HATCH
  5
49F
330
1F
100
AcDbEntity
  8
1
  6
Continuous
 62
     2
100
AcDbHatch
 10
0.0
 20
0.0
 30
0.0
210
0.0
220
0.0
230
1.0
  2
_USER
 70
     0
 71
     1
 91
        1
 92
        1
 93
       20
 72
     1
 10
1451.878378213661
 20
902.5020376535847
 11
1453.878378213656
 21
902.5020376535847
 72
     1
 10
1453.878378213656
 20
902.5020376535847
 11
1453.878378213656
 21
894.0020376535838
 72
     1
 10
1453.878378213656
 20
894.0020376535838
 11
1226.878378213657
 21
894.0020376535838
 72
     1
 10
1226.878378213657
 20
894.0020376535838
 11
1226.878378213657
 21
900.5020376535838
 72
     1
 10
1226.878378213657
 20
900.5020376535838
 11
1223.878378213656
 21
900.5020376535838
 72
     1
 10
1223.878378213656
 20
900.5020376535838
 11
1223.878378213656
 21
894.0020376535838
 72
     1
 10
1223.878378213656
 20
894.0020376535838
 11
1198.878378213657
 21
894.0020376535838
 72
     1
 10
1198.878378213657
 20
894.0020376535838
 11
1198.878378213657
 21
900.5020376535838
 72
     1
 10
1198.878378213657
 20
900.5020376535838
 11
1195.878378213656
 21
900.5020376535838
 72
     1
 10
1195.878378213656
 20
900.5020376535838
 11
1195.878378213656
 21
894.0020376535838
 72
     1
 10
1195.878378213656
 20
894.0020376535838
 11
1192.378378213656
 21
894.0020376535838
 72
     1
 10
1192.378378213656
 20
894.0020376535838
 11
1192.378378213656
 21
904.0020376535838
 72
     1
 10
1192.378378213656
 20
904.0020376535838
 11
1202.378378213657
 21
904.0020376535838
 72
     1
 10
1202.378378213657
 20
904.0020376535838
 11
1202.378378213657
 21
896.0020376535838
 72
     1
 10
1202.378378213657
 20
896.0020376535838
 11
1220.378378213657
 21
896.0020376535838
 72
     1
 10
1220.378378213657
 20
896.0020376535838
 11
1220.378378213657
 21
904.0020376535838
 72
     1
 10
1220.378378213657
 20
904.0020376535838
 11
1230.378378213657
 21
904.0020376535838
 72
     1
 10
1230.378378213657
 20
904.0020376535838
 11
1230.378378213657
 21
897.5020376535838
 72
     1
 10
1230.378378213657
 20
897.5020376535838
 11
1451.878378213661
 21
897.5020376535838
 72
     1
 10
1451.878378213661
 20
897.5020376535838
 11
1451.878378213661
 21
902.5020376535847
 97
       20
330
376
330
34C
330
34D
330
34E
330
34F
330
350
330
351
330
352
330
37A
330
362
330
361
330
360
330
363
330
35D
330
35E
330
35F
330
2B6
330
2B7
330
2BD
330
2BE
 75
     1
 76
     0
 52
45.0
 41
2.0
 77
     0
 78
     1
 53
45.0
 43
0.0
 44
0.0
 45
-1.414213562373095
 46
1.414213562373095
 79
     0
 98
        1
 10
0.0
 20
0.0
  0
HATCH
  5
4A0
330
1F
100
AcDbEntity
  8
1
  6
Continuous
 62
     2
100
AcDbHatch
 10
0.0
 20
0.0
 30
0.0
210
0.0
220
0.0
230
1.0
  2
_USER
 70
     0
 71
     1
 91
        1
 92
        1
 93
       29
 72
     1
 10
942.3783782136561
 20
904.0020376535838
 11
942.3783782136561
 21
894.0020376535838
 72
     1
 10
942.3783782136561
 20
894.0020376535838
 11
938.878378213657
 21
894.0020376535838
 72
     1
 10
938.878378213657
 20
894.0020376535838
 11
938.878378213657
 21
900.5020376535838
 72
     1
 10
938.878378213657
 20
900.5020376535838
 11
935.878378213655
 21
900.5020376535838
 72
     1
 10
935.878378213655
 20
900.5020376535838
 11
935.878378213655
 21
894.0020376535838
 72
     1
 10
935.878378213655
 20
894.0020376535838
 11
910.878378213657
 21
894.0020376535838
 72
     1
 10
910.878378213657
 20
894.0020376535838
 11
910.878378213657
 21
900.5020376535838
 72
     1
 10
910.878378213657
 20
900.5020376535838
 11
907.878378213655
 21
900.5020376535838
 72
     1
 10
907.878378213655
 20
900.5020376535838
 11
907.878378213655
 21
894.0020376535838
 72
     1
 10
907.878378213655
 20
894.0020376535838
 11
790.231779502039
 21
894.0020376535838
 72
     2
 10
790.231779502039
 20
899.0020376535838
 40
4.999999999999647
 50
90.0
 51
175.2568884647578
 73
     0
 72
     1
 10
785.2489022469031
 20
898.5885956863797
 11
780.8585397277541
 21
951.5020376535838
 72
     1
 10
780.8585397277541
 20
951.5020376535838
 11
766.398216699559
 21
951.5020376535838
 72
     1
 10
766.398216699559
 20
951.5020376535838
 11
761.3783782136561
 21
891.0020376535838
 72
     1
 10
761.3783782136561
 20
891.0020376535838
 11
758.3783782136561
 21
891.0020376535838
 72
     1
 10
758.3783782136561
 20
891.0020376535838
 11
763.5313090773941
 21
953.1060910273318
 72
     2
 10
765.0276956903431
 20
953.0020376535838
 40
1.5
 50
183.9777406457083
 51
270.0
 73
     0
 72
     1
 10
765.0276956903431
 20
954.5020376535838
 11
782.22906073697
 21
954.5020376535838
 72
     2
 10
782.22906073697
 20
953.0020376535838
 40
1.500000000000422
 50
270.0
 51
356.0222593542917
 73
     0
 72
     1
 10
783.725447349919
 20
953.1060910273318
 11
787.799735233214
 21
904.0020376535838
 72
     1
 10
787.799735233214
 20
904.0020376535838
 11
787.9584983675529
 21
902.0885956863797
 72
     2
 10
792.9413756226891
 20
902.5020376535838
 40
4.999999999999873
 50
184.7431115352419
 51
270.0
 73
     1
 72
     1
 10
792.9413756226891
 20
897.5020376535838
 11
904.378378213655
 21
897.5020376535838
 72
     1
 10
904.378378213655
 20
897.5020376535838
 11
904.378378213655
 21
904.0020376535838
 72
     1
 10
904.378378213655
 20
904.0020376535838
 11
914.378378213655
 21
904.0020376535838
 72
     1
 10
914.378378213655
 20
904.0020376535838
 11
914.378378213655
 21
896.0020376535838
 72
     1
 10
914.378378213655
 20
896.0020376535838
 11
932.3783782136561
 21
896.0020376535838
 72
     1
 10
932.3783782136561
 20
896.0020376535838
 11
932.3783782136561
 21
904.0020376535838
 72
     1
 10
932.3783782136561
 20
904.0020376535838
 11
942.3783782136561
 21
904.0020376535838
 97
       29
330
34B
330
36D
330
365
330
364
330
366
330
367
330
368
330
36B
330
36A
330
36E
330
3F1
330
343
330
342
330
341
330
36F
330
2CB
330
3BC
330
373
330
3EF
330
381
330
370
330
3F0
330
344
330
345
330
346
330
347
330
348
330
349
330
34A
 75
     1
 76
     0
 52
45.0
 41
2.0
 77
     0
 78
     1
 53
45.0
 43
0.0
 44
0.0
 45
-1.414213562373095
 46
1.414213562373095
 79
     0
 98
        1
 10
0.0
 20
0.0
  0
ENDSEC
  0
SECTION
  2
OBJECTS
  0
DICTIONARY
  5
C
330
0
100
AcDbDictionary
281
     1
  3
ACAD_GROUP
350
D
  3
ACAD_LAYOUT
350
1A
  3
ACAD_MATERIAL
350
3B
  3
ACAD_MLEADERSTYLE
350
4A3
  3
ACAD_MLINESTYLE
350
17
  3
ACAD_PLOTSETTINGS
350
19
  3
ACAD_PLOTSTYLENAME
350
E
  3
ACAD_VISUALSTYLE
350
2A
  3
AcDbVariableDictionary
350
4A1
  0
DICTIONARY
  5
D
102
{ACAD_REACTORS
330
C
102
}
330
C
100
AcDbDictionary
281
     1
  0
DICTIONARY
  5
1A
102
{ACAD_REACTORS
330
C
102
}
330
C
100
AcDbDictionary
281
     1
  3
Layout1
350
1E
  3
Layout2
350
26
  3
Model
350
22
  0
DICTIONARY
  5
3B
102
{ACAD_REACTORS
330
C
102
}
330
C
100
AcDbDictionary
281
     1
  3
ByBlock
350
3D
  3
ByLayer
350
3C
  3
Global
350
3E
  0
DICTIONARY
  5
4A3
102
{ACAD_REACTORS
330
C
102
}
330
C
100
AcDbDictionary
281
     1
  0
DICTIONARY
  5
17
102
{ACAD_REACTORS
330
C
102
}
330
C
100
AcDbDictionary
281
     1
  3
Standard
350
18
  0
DICTIONARY
  5
19
102
{ACAD_REACTORS
330
C
102
}
330
C
100
AcDbDictionary
281
     1
  0
ACDBDICTIONARYWDFLT
  5
E
102
{ACAD_REACTORS
330
C
102
}
330
C
100
AcDbDictionary
281
     1
  3
Normal
350
F
100
AcDbDictionaryWithDefault
340
F
  0
DICTIONARY
  5
2A
102
{ACAD_REACTORS
330
C
102
}
330
C
100
AcDbDictionary
281
     1
  3
2dWireframe
350
2F
  3
3D Hidden
350
31
  3
3dWireframe
350
30
  3
Basic
350
32
  3
Brighten
350
36
  3
ColorChange
350
3A
  3
Conceptual
350
34
  3
Dim
350
35
  3
Facepattern
350
39
  3
Flat
350
2B
  3
FlatWithEdges
350
2C
  3
Gouraud
350
2D
  3
GouraudWithEdges
350
2E
  3
Linepattern
350
38
  3
Realistic
350
33
  3
Thicken
350
37
  0
DICTIONARY
  5
4A1
102
{ACAD_REACTORS
330
C
102
}
330
C
100
AcDbDictionary
281
     1
  3
DIMASSOC
350
4A4
  3
HIDETEXT
350
4A5
  0
LAYOUT
  5
1E
102
{ACAD_REACTORS
330
1A
102
}
330
1A
100
AcDbPlotSettings
  1

  2
none_device
  4

  6

 40
0.0
 41
0.0
 42
0.0
 43
0.0
 44
0.0
 45
0.0
 46
0.0
 47
0.0
 48
0.0
 49
0.0
140
0.0
141
0.0
142
1.0
143
1.0
 70
   688
 72
     0
 73
     0
 74
     5
  7

 75
    16
147
1.0
148
0.0
149
0.0
100
AcDbLayout
  1
Layout1
 70
     1
 71
     1
 10
0.0
 20
0.0
 11
12.0
 21
9.0
 12
0.0
 22
0.0
 32
0.0
 14
1.00000000000000E+20
 24
1.00000000000000E+20
 34
1.00000000000000E+20
 15
-1.00000000000000E+20
 25
-1.00000000000000E+20
 35
-1.00000000000000E+20
146
0.0
 13
0.0
 23
0.0
 33
0.0
 16
1.0
 26
0.0
 36
0.0
 17
0.0
 27
1.0
 37
0.0
 76
     0
330
1B
  0
LAYOUT
  5
26
102
{ACAD_REACTORS
330
1A
102
}
330
1A
100
AcDbPlotSettings
  1

  2
none_device
  4

  6

 40
0.0
 41
0.0
 42
0.0
 43
0.0
 44
0.0
 45
0.0
 46
0.0
 47
0.0
 48
0.0
 49
0.0
140
0.0
141
0.0
142
1.0
143
1.0
 70
   688
 72
     0
 73
     0
 74
     5
  7

 75
    16
147
1.0
148
0.0
149
0.0
100
AcDbLayout
  1
Layout2
 70
     1
 71
     2
 10
0.0
 20
0.0
 11
0.0
 21
0.0
 12
0.0
 22
0.0
 32
0.0
 14
0.0
 24
0.0
 34
0.0
 15
0.0
 25
0.0
 35
0.0
146
0.0
 13
0.0
 23
0.0
 33
0.0
 16
1.0
 26
0.0
 36
0.0
 17
0.0
 27
1.0
 37
0.0
 76
     0
330
23
  0
LAYOUT
  5
22
102
{ACAD_REACTORS
330
1A
102
}
330
1A
100
AcDbPlotSettings
  1

  2
none_device
  4

  6

 40
0.0
 41
0.0
 42
0.0
 43
0.0
 44
0.0
 45
0.0
 46
0.0
 47
0.0
 48
0.0
 49
0.0
140
0.0
141
0.0
142
1.0
143
1.0
 70
  1712
 72
     0
 73
     0
 74
     0
  7

 75
     0
147
1.0
148
0.0
149
0.0
100
AcDbLayout
  1
Model
 70
     1
 71
     0
 10
0.0
 20
0.0
 11
12.0
 21
9.0
 12
0.0
 22
0.0
 32
0.0
 14
0.0
 24
0.0
 34
0.0
 15
2100.0
 25
2970.0
 35
0.0
146
0.0
 13
0.0
 23
0.0
 33
0.0
 16
1.0
 26
0.0
 36
0.0
 17
0.0
 27
1.0
 37
0.0
 76
     0
330
1F
331
29
  0
MATERIAL
  5
3D
102
{ACAD_REACTORS
330
3B
102
}
102
{ACAD_XDICTIONARY
360
4C8
102
}
330
3B
100
AcDbMaterial
  1
ByBlock
  0
MATERIAL
  5
3C
102
{ACAD_REACTORS
330
3B
102
}
102
{ACAD_XDICTIONARY
360
4C6
102
}
330
3B
100
AcDbMaterial
  1
ByLayer
  0
MATERIAL
  5
3E
102
{ACAD_REACTORS
330
3B
102
}
102
{ACAD_XDICTIONARY
360
4CA
102
}
330
3B
100
AcDbMaterial
  1
Global
  0
MLINESTYLE
  5
18
102
{ACAD_REACTORS
330
17
102
}
330
17
100
AcDbMlineStyle
  2
Standard
 70
     0
  3

 62
   256
 51
90.0
 52
90.0
 71
     2
 49
0.5
 62
   256
  6
BYLAYER
 49
-0.5
 62
   256
  6
BYLAYER
  0
ACDBPLACEHOLDER
  5
F
102
{ACAD_REACTORS
330
E
102
}
330
E
  0
VISUALSTYLE
  5
2F
102
{ACAD_REACTORS
330
2A
102
}
102
{ACAD_XDICTIONARY
360
4AE
102
}
330
2A
100
AcDbVisualStyle
  2
2dWireframe
 70
     4
 71
     0
 72
     2
 73
     0
 90
        0
 40
-0.6
 41
-30.0
 62
     5
 63
     7
 74
     1
 91
        4
 64
     7
 65
   257
 75
     1
175
     1
 42
1.0
 92
        0
 66
   257
 43
1.0
 76
     1
 77
     6
 78
     2
 67
     7
 79
     5
170
     0
171
     0
290
     0
174
     0
 93
        1
 44
0.0
173
     0
291
     0
 45
0.0
1001
ACAD
1000
AcDbSavedByObjectVersion
1070
     0
  0
VISUALSTYLE
  5
31
102
{ACAD_REACTORS
330
2A
102
}
102
{ACAD_XDICTIONARY
360
4B2
102
}
330
2A
100
AcDbVisualStyle
  2
3D Hidden
 70
     6
 71
     1
 72
     2
 73
     2
 90
        0
 40
-0.6
 41
-30.0
 62
     5
 63
     7
 74
     2
 91
        2
 64
     7
 65
   257
 75
     2
175
     1
 42
40.0
 92
        0
 66
   257
 43
1.0
 76
     1
 77
     6
 78
     2
 67
     7
 79
     3
170
     0
171
     0
290
     0
174
     0
 93
        1
 44
0.0
173
     0
291
     0
 45
0.0
1001
ACAD
1000
AcDbSavedByObjectVersion
1070
     0
  0
VISUALSTYLE
  5
30
102
{ACAD_REACTORS
330
2A
102
}
102
{ACAD_XDICTIONARY
360
4B0
102
}
330
2A
100
AcDbVisualStyle
  2
3dWireframe
 70
     5
 71
     0
 72
     2
 73
     0
 90
        0
 40
-0.6
 41
-30.0
 62
     5
 63
     7
 74
     1
 91
        4
 64
     7
 65
   257
 75
     1
175
     1
 42
1.0
 92
        0
 66
   257
 43
1.0
 76
     1
 77
     6
 78
     2
 67
     7
 79
     5
170
     0
171
     0
290
     0
174
     0
 93
        1
 44
0.0
173
     0
291
     0
 45
0.0
1001
ACAD
1000
AcDbSavedByObjectVersion
1070
     0
  0
VISUALSTYLE
  5
32
102
{ACAD_REACTORS
330
2A
102
}
102
{ACAD_XDICTIONARY
360
4B4
102
}
330
2A
100
AcDbVisualStyle
  2
Basic
 70
     7
 71
     1
 72
     0
 73
     1
 90
        0
 40
-0.6
 41
-30.0
 62
     5
 63
     7
 74
     0
 91
        4
 64
     7
 65
   257
 75
     1
175
     1
 42
1.0
 92
        8
 66
     7
 43
1.0
 76
     1
 77
     6
 78
     2
 67
     7
 79
     5
170
     0
171
     0
290
     0
174
     0
 93
        1
 44
0.0
173
     0
291
     1
 45
0.0
1001
ACAD
1000
AcDbSavedByObjectVersion
1070
     0
  0
VISUALSTYLE
  5
36
102
{ACAD_REACTORS
330
2A
102
}
102
{ACAD_XDICTIONARY
360
4BC
102
}
330
2A
100
AcDbVisualStyle
  2
Brighten
 70
    12
 71
     2
 72
     2
 73
     0
 90
        0
 40
-0.6
 41
-30.0
 62
     5
 63
     7
 74
     1
 91
        4
 64
     7
 65
   257
 75
     1
175
     1
 42
1.0
 92
        8
 66
     7
 43
1.0
 76
     1
 77
     6
 78
     2
 67
     7
 79
     5
170
     0
171
     0
290
     0
174
     0
 93
        1
 44
50.0
173
     0
291
     1
 45
0.0
1001
ACAD
1000
AcDbSavedByObjectVersion
1070
     0
  0
VISUALSTYLE
  5
3A
102
{ACAD_REACTORS
330
2A
102
}
102
{ACAD_XDICTIONARY
360
4C4
102
}
330
2A
100
AcDbVisualStyle
  2
ColorChange
 70
    16
 71
     2
 72
     2
 73
     3
 90
        0
 40
-0.6
 41
-30.0
 62
     5
 63
     8
 74
     1
 91
        4
 64
     7
 65
   257
 75
     1
175
     1
 42
1.0
 92
        8
 66
     8
 43
1.0
 76
     1
 77
     6
 78
     2
 67
     7
 79
     5
170
     0
171
     0
290
     0
174
     0
 93
        1
 44
0.0
173
     0
291
     1
 45
0.0
1001
ACAD
1000
AcDbSavedByObjectVersion
1070
     0
  0
VISUALSTYLE
  5
34
102
{ACAD_REACTORS
330
2A
102
}
102
{ACAD_XDICTIONARY
360
4B8
102
}
330
2A
100
AcDbVisualStyle
  2
Conceptual
 70
     9
 71
     3
 72
     2
 73
     0
 90
        0
 40
-0.6
 41
-30.0
 62
     5
 63
     7
 74
     2
 91
        2
 64
     7
 65
   257
 75
     1
175
     1
 42
40.0
 92
        8
 66
     7
 43
1.0
 76
     1
 77
     6
 78
     2
 67
     7
 79
     3
170
     0
171
     0
290
     0
174
     0
 93
        1
 44
0.0
173
     0
291
     0
 45
0.0
1001
ACAD
1000
AcDbSavedByObjectVersion
1070
     0
  0
VISUALSTYLE
  5
35
102
{ACAD_REACTORS
330
2A
102
}
102
{ACAD_XDICTIONARY
360
4BA
102
}
330
2A
100
AcDbVisualStyle
  2
Dim
 70
    11
 71
     2
 72
     2
 73
     0
 90
        0
 40
-0.6
 41
-30.0
 62
     5
 63
     7
 74
     1
 91
        4
 64
     7
 65
   257
 75
     1
175
     1
 42
1.0
 92
        8
 66
     7
 43
1.0
 76
     1
 77
     6
 78
     2
 67
     7
 79
     5
170
     0
171
     0
290
     0
174
     0
 93
        1
 44
-50.0
173
     0
291
     1
 45
0.0
1001
ACAD
1000
AcDbSavedByObjectVersion
1070
     0
  0
VISUALSTYLE
  5
39
102
{ACAD_REACTORS
330
2A
102
}
102
{ACAD_XDICTIONARY
360
4C2
102
}
330
2A
100
AcDbVisualStyle
  2
Facepattern
 70
    15
 71
     2
 72
     2
 73
     0
 90
        0
 40
-0.6
 41
-30.0
 62
     5
 63
     7
 74
     1
 91
        4
 64
     7
 65
   257
 75
     1
175
     1
 42
1.0
 92
        8
 66
     7
 43
1.0
 76
     1
 77
     6
 78
     2
 67
     7
 79
     5
170
     0
171
     0
290
     0
174
     0
 93
        1
 44
0.0
173
     0
291
     1
 45
0.0
1001
ACAD
1000
AcDbSavedByObjectVersion
1070
     0
  0
VISUALSTYLE
  5
2B
102
{ACAD_REACTORS
330
2A
102
}
102
{ACAD_XDICTIONARY
360
4A6
102
}
330
2A
100
AcDbVisualStyle
  2
Flat
 70
     0
 71
     2
 72
     1
 73
     1
 90
        2
 40
-0.6
 41
30.0
 62
     5
 63
     7
 74
     0
 91
        4
 64
     7
 65
   257
 75
     1
175
     1
 42
1.0
 92
        8
 66
     7
 43
1.0
 76
     1
 77
     6
 78
     2
 67
     7
 79
     5
170
     0
171
     0
290
     0
174
     0
 93
       13
 44
0.0
173
     0
291
     1
 45
0.0
1001
ACAD
1000
AcDbSavedByObjectVersion
1070
     0
  0
VISUALSTYLE
  5
2C
102
{ACAD_REACTORS
330
2A
102
}
102
{ACAD_XDICTIONARY
360
4A8
102
}
330
2A
100
AcDbVisualStyle
  2
FlatWithEdges
 70
     1
 71
     2
 72
     1
 73
     1
 90
        2
 40
-0.6
 41
30.0
 62
     5
 63
     7
 74
     1
 91
        4
 64
     7
 65
   257
 75
     1
175
     1
 42
1.0
 92
        0
 66
   257
 43
1.0
 76
     1
 77
     6
 78
     2
 67
     7
 79
     5
170
     0
171
     0
290
     0
174
     0
 93
       13
 44
0.0
173
     0
291
     1
 45
0.0
1001
ACAD
1000
AcDbSavedByObjectVersion
1070
     0
  0
VISUALSTYLE
  5
2D
102
{ACAD_REACTORS
330
2A
102
}
102
{ACAD_XDICTIONARY
360
4AA
102
}
330
2A
100
AcDbVisualStyle
  2
Gouraud
 70
     2
 71
     2
 72
     2
 73
     1
 90
        2
 40
-0.6
 41
30.0
 62
     5
 63
     7
 74
     0
 91
        4
 64
     7
 65
   257
 75
     1
175
     1
 42
1.0
 92
        0
 66
     7
 43
1.0
 76
     1
 77
     6
 78
     2
 67
     7
 79
     5
170
     0
171
     0
290
     0
174
     0
 93
       13
 44
0.0
173
     0
291
     1
 45
0.0
1001
ACAD
1000
AcDbSavedByObjectVersion
1070
     0
  0
VISUALSTYLE
  5
2E
102
{ACAD_REACTORS
330
2A
102
}
102
{ACAD_XDICTIONARY
360
4AC
102
}
330
2A
100
AcDbVisualStyle
  2
GouraudWithEdges
 70
     3
 71
     2
 72
     2
 73
     1
 90
        2
 40
-0.6
 41
30.0
 62
     5
 63
     7
 74
     1
 91
        4
 64
     7
 65
   257
 75
     1
175
     1
 42
1.0
 92
        0
 66
   257
 43
1.0
 76
     1
 77
     6
 78
     2
 67
     7
 79
     5
170
     0
171
     0
290
     0
174
     0
 93
       13
 44
0.0
173
     0
291
     1
 45
0.0
1001
ACAD
1000
AcDbSavedByObjectVersion
1070
     0
  0
VISUALSTYLE
  5
38
102
{ACAD_REACTORS
330
2A
102
}
102
{ACAD_XDICTIONARY
360
4C0
102
}
330
2A
100
AcDbVisualStyle
  2
Linepattern
 70
    14
 71
     2
 72
     2
 73
     0
 90
        0
 40
-0.6
 41
-30.0
 62
     5
 63
     7
 74
     1
 91
        4
 64
     7
 65
   257
 75
     7
175
     7
 42
1.0
 92
        8
 66
     7
 43
1.0
 76
     1
 77
     6
 78
     2
 67
     7
 79
     5
170
     0
171
     0
290
     0
174
     0
 93
        1
 44
0.0
173
     0
291
     1
 45
0.0
1001
ACAD
1000
AcDbSavedByObjectVersion
1070
     0
  0
VISUALSTYLE
  5
33
102
{ACAD_REACTORS
330
2A
102
}
102
{ACAD_XDICTIONARY
360
4B6
102
}
330
2A
100
AcDbVisualStyle
  2
Realistic
 70
     8
 71
     2
 72
     2
 73
     0
 90
        0
 40
-0.6
 41
-30.0
 62
     5
 63
     7
 74
     1
 91
        0
 64
     7
 65
   257
 75
     1
175
     1
 42
1.0
 92
        8
 66
     8
 43
1.0
 76
     1
 77
     6
 78
     2
 67
     7
 79
     5
170
     0
171
     0
290
     0
174
     0
 93
       13
 44
0.0
173
     0
291
     0
 45
0.0
1001
ACAD
1000
AcDbSavedByObjectVersion
1070
     0
  0
VISUALSTYLE
  5
37
102
{ACAD_REACTORS
330
2A
102
}
102
{ACAD_XDICTIONARY
360
4BE
102
}
330
2A
100
AcDbVisualStyle
  2
Thicken
 70
    13
 71
     2
 72
     2
 73
     0
 90
        0
 40
-0.6
 41
-30.0
 62
     5
 63
     7
 74
     1
 91
        4
 64
     7
 65
   257
 75
     1
175
     1
 42
1.0
 92
       12
 66
     7
 43
1.0
 76
     1
 77
     6
 78
     2
 67
     7
 79
     5
170
     0
171
     0
290
     0
174
     0
 93
        1
 44
0.0
173
     0
291
     1
 45
0.0
1001
ACAD
1000
AcDbSavedByObjectVersion
1070
     0
  0
DICTIONARYVAR
  5
4A4
102
{ACAD_REACTORS
330
4A1
102
}
330
4A1
100
DictionaryVariables
280
     0
  1
2
  0
DICTIONARYVAR
  5
4A5
102
{ACAD_REACTORS
330
4A1
102
}
330
4A1
100
DictionaryVariables
280
     0
  1
1
  0
DICTIONARY
  5
4C8
330
3D
100
AcDbDictionary
280
     1
281
     1
  3
ACAD_XREC_ROUNDTRIP
360
4C9
  0
DICTIONARY
  5
4C6
330
3C
100
AcDbDictionary
280
     1
281
     1
  3
ACAD_XREC_ROUNDTRIP
360
4C7
  0
DICTIONARY
  5
4CA
330
3E
100
AcDbDictionary
280
     1
281
     1
  3
ACAD_XREC_ROUNDTRIP
360
4CB
  0
DICTIONARY
  5
4AE
330
2F
100
AcDbDictionary
280
     1
281
     1
  3
ACAD_XREC_ROUNDTRIP
360
4AF
  0
DICTIONARY
  5
4B2
330
31
100
AcDbDictionary
280
     1
281
     1
  3
ACAD_XREC_ROUNDTRIP
360
4B3
  0
DICTIONARY
  5
4B0
330
30
100
AcDbDictionary
280
     1
281
     1
  3
ACAD_XREC_ROUNDTRIP
360
4B1
  0
DICTIONARY
  5
4B4
330
32
100
AcDbDictionary
280
     1
281
     1
  3
ACAD_XREC_ROUNDTRIP
360
4B5
  0
DICTIONARY
  5
4BC
330
36
100
AcDbDictionary
280
     1
281
     1
  3
ACAD_XREC_ROUNDTRIP
360
4BD
  0
DICTIONARY
  5
4C4
330
3A
100
AcDbDictionary
280
     1
281
     1
  3
ACAD_XREC_ROUNDTRIP
360
4C5
  0
DICTIONARY
  5
4B8
330
34
100
AcDbDictionary
280
     1
281
     1
  3
ACAD_XREC_ROUNDTRIP
360
4B9
  0
DICTIONARY
  5
4BA
330
35
100
AcDbDictionary
280
     1
281
     1
  3
ACAD_XREC_ROUNDTRIP
360
4BB
  0
DICTIONARY
  5
4C2
330
39
100
AcDbDictionary
280
     1
281
     1
  3
ACAD_XREC_ROUNDTRIP
360
4C3
  0
DICTIONARY
  5
4A6
330
2B
100
AcDbDictionary
280
     1
281
     1
  3
ACAD_XREC_ROUNDTRIP
360
4A7
  0
DICTIONARY
  5
4A8
330
2C
100
AcDbDictionary
280
     1
281
     1
  3
ACAD_XREC_ROUNDTRIP
360
4A9
  0
DICTIONARY
  5
4AA
330
2D
100
AcDbDictionary
280
     1
281
     1
  3
ACAD_XREC_ROUNDTRIP
360
4AB
  0
DICTIONARY
  5
4AC
330
2E
100
AcDbDictionary
280
     1
281
     1
  3
ACAD_XREC_ROUNDTRIP
360
4AD
  0
DICTIONARY
  5
4C0
330
38
100
AcDbDictionary
280
     1
281
     1
  3
ACAD_XREC_ROUNDTRIP
360
4C1
  0
DICTIONARY
  5
4B6
330
33
100
AcDbDictionary
280
     1
281
     1
  3
ACAD_XREC_ROUNDTRIP
360
4B7
  0
DICTIONARY
  5
4BE
330
37
100
AcDbDictionary
280
     1
281
     1
  3
ACAD_XREC_ROUNDTRIP
360
4BF
  0
XRECORD
  5
4C9
102
{ACAD_REACTORS
330
4C8
102
}
330
4C8
100
AcDbXrecord
280
     1
102
MATERIAL
148
0.0
149
0.0
149
0.0
 93
        0
 94
      127
282
     0
 72
     1
 77
     1
171
     1
175
     1
179
     1
273
     0
  0
XRECORD
  5
4C7
102
{ACAD_REACTORS
330
4C6
102
}
330
4C6
100
AcDbXrecord
280
     1
102
MATERIAL
148
0.0
149
0.0
149
0.0
 93
        0
 94
      127
282
     0
 72
     1
 77
     1
171
     1
175
     1
179
     1
273
     0
  0
XRECORD
  5
4CB
102
{ACAD_REACTORS
330
4CA
102
}
330
4CA
100
AcDbXrecord
280
     1
102
MATERIAL
148
0.0
149
0.0
149
0.0
 93
        0
 94
      127
282
     0
 72
     1
 77
     1
171
     1
175
     1
179
     1
273
     0
  0
XRECORD
  5
4AF
102
{ACAD_REACTORS
330
4AE
102
}
330
4AE
100
AcDbXrecord
280
     1
102
RTVSPropertyOp0
 70
     1
102
RTVSPropertyOp1
 70
     1
102
RTVSPropertyOp2
 70
     1
102
RTVSPropertyOp3
 70
     1
102
RTVSPropertyOp4
 70
     1
102
RTVSPropertyOp5
 70
     1
102
RTVSPropertyOp6
 70
     1
102
RTVSPropertyOp7
 70
     1
102
RTVSPropertyOp8
 70
     1
102
RTVSPropertyOp9
 70
     1
102
RTVSPropertyOp10
 70
     1
102
RTVSPropertyOp11
 70
     1
102
RTVSPropertyOp12
 70
     1
102
RTVSPropertyOp13
 70
     1
102
RTVSPropertyOp14
 70
     1
102
RTVSPropertyOp15
 70
     1
102
RTVSPropertyOp16
 70
     1
102
RTVSPropertyOp17
 70
     1
102
RTVSPropertyOp18
 70
     1
102
RTVSPropertyOp19
 70
     1
102
RTVSPropertyOp20
 70
     1
102
RTVSPropertyOp21
 70
     1
102
RTVSPropertyOp22
 70
     1
102
RTVSPropertyOp23
 70
     1
102
RTVSPropertyOp24
 70
     1
102
RTVSPropertyOp25
 70
     1
102
RTVSPropertyOp26
 70
     1
102
RTVSPropertyOp27
 70
     1
102
RTVSPropertyOp28
 70
     1
102
RTVSPropertyOp29
 70
     1
102
RTVSPropertyOp30
 70
     1
102
RTVSPropertyOp31
 70
     1
102
RTVSPropertyOp32
 70
     1
  0
XRECORD
  5
4B3
102
{ACAD_REACTORS
330
4B2
102
}
330
4B2
100
AcDbXrecord
280
     1
102
RTVSPropertyOp0
 70
     1
102
RTVSPropertyOp1
 70
     1
102
RTVSPropertyOp2
 70
     1
102
RTVSPropertyOp3
 70
     1
102
RTVSPropertyOp4
 70
     1
102
RTVSPropertyOp5
 70
     1
102
RTVSPropertyOp6
 70
     1
102
RTVSPropertyOp7
 70
     1
102
RTVSPropertyOp8
 70
     1
102
RTVSPropertyOp9
 70
     1
102
RTVSPropertyOp10
 70
     1
102
RTVSPropertyOp11
 70
     1
102
RTVSPropertyOp12
 70
     1
102
RTVSPropertyOp13
 70
     1
102
RTVSPropertyOp14
 70
     1
102
RTVSPropertyOp15
 70
     1
102
RTVSPropertyOp16
 70
     1
102
RTVSPropertyOp17
 70
     1
102
RTVSPropertyOp18
 70
     1
102
RTVSPropertyOp19
 70
     1
102
RTVSPropertyOp20
 70
     1
102
RTVSPropertyOp21
 70
     1
102
RTVSPropertyOp22
 70
     1
102
RTVSPropertyOp23
 70
     1
102
RTVSPropertyOp24
 70
     1
102
RTVSPropertyOp25
 70
     1
102
RTVSPropertyOp26
 70
     1
102
RTVSPropertyOp27
 70
     1
102
RTVSPropertyOp28
 70
     1
102
RTVSPropertyOp29
 70
     1
102
RTVSPropertyOp30
 70
     1
102
RTVSPropertyOp31
 70
     1
102
RTVSPropertyOp32
 70
     1
  0
XRECORD
  5
4B1
102
{ACAD_REACTORS
330
4B0
102
}
330
4B0
100
AcDbXrecord
280
     1
102
RTVSPropertyOp0
 70
     1
102
RTVSPropertyOp1
 70
     1
102
RTVSPropertyOp2
 70
     1
102
RTVSPropertyOp3
 70
     1
102
RTVSPropertyOp4
 70
     1
102
RTVSPropertyOp5
 70
     1
102
RTVSPropertyOp6
 70
     1
102
RTVSPropertyOp7
 70
     1
102
RTVSPropertyOp8
 70
     1
102
RTVSPropertyOp9
 70
     1
102
RTVSPropertyOp10
 70
     1
102
RTVSPropertyOp11
 70
     1
102
RTVSPropertyOp12
 70
     1
102
RTVSPropertyOp13
 70
     1
102
RTVSPropertyOp14
 70
     1
102
RTVSPropertyOp15
 70
     1
102
RTVSPropertyOp16
 70
     1
102
RTVSPropertyOp17
 70
     1
102
RTVSPropertyOp18
 70
     1
102
RTVSPropertyOp19
 70
     1
102
RTVSPropertyOp20
 70
     1
102
RTVSPropertyOp21
 70
     1
102
RTVSPropertyOp22
 70
     1
102
RTVSPropertyOp23
 70
     1
102
RTVSPropertyOp24
 70
     1
102
RTVSPropertyOp25
 70
     1
102
RTVSPropertyOp26
 70
     1
102
RTVSPropertyOp27
 70
     1
102
RTVSPropertyOp28
 70
     1
102
RTVSPropertyOp29
 70
     1
102
RTVSPropertyOp30
 70
     1
102
RTVSPropertyOp31
 70
     1
102
RTVSPropertyOp32
 70
     1
  0
XRECORD
  5
4B5
102
{ACAD_REACTORS
330
4B4
102
}
330
4B4
100
AcDbXrecord
280
     1
102
RTVSPropertyOp0
 70
     1
102
RTVSPropertyOp1
 70
     1
102
RTVSPropertyOp2
 70
     1
102
RTVSPropertyOp3
 70
     1
102
RTVSPropertyOp4
 70
     1
102
RTVSPropertyOp5
 70
     1
102
RTVSPropertyOp6
 70
     1
102
RTVSPropertyOp7
 70
     1
102
RTVSPropertyOp8
 70
     1
102
RTVSPropertyOp9
 70
     1
102
RTVSPropertyOp10
 70
     1
102
RTVSPropertyOp11
 70
     1
102
RTVSPropertyOp12
 70
     1
102
RTVSPropertyOp13
 70
     1
102
RTVSPropertyOp14
 70
     1
102
RTVSPropertyOp15
 70
     1
102
RTVSPropertyOp16
 70
     1
102
RTVSPropertyOp17
 70
     1
102
RTVSPropertyOp18
 70
     1
102
RTVSPropertyOp19
 70
     1
102
RTVSPropertyOp20
 70
     1
102
RTVSPropertyOp21
 70
     1
102
RTVSPropertyOp22
 70
     1
102
RTVSPropertyOp23
 70
     1
102
RTVSPropertyOp24
 70
     1
102
RTVSPropertyOp25
 70
     1
102
RTVSPropertyOp26
 70
     1
102
RTVSPropertyOp27
 70
     1
102
RTVSPropertyOp28
 70
     1
102
RTVSPropertyOp29
 70
     1
102
RTVSPropertyOp30
 70
     1
102
RTVSPropertyOp31
 70
     1
102
RTVSPropertyOp32
 70
     1
  0
XRECORD
  5
4BD
102
{ACAD_REACTORS
330
4BC
102
}
330
4BC
100
AcDbXrecord
280
     1
102
RTVSPropertyOp0
 70
     1
102
RTVSPropertyOp1
 70
     1
102
RTVSPropertyOp2
 70
     1
102
RTVSPropertyOp3
 70
     1
102
RTVSPropertyOp4
 70
     1
102
RTVSPropertyOp5
 70
     1
102
RTVSPropertyOp6
 70
     1
102
RTVSPropertyOp7
 70
     1
102
RTVSPropertyOp8
 70
     1
102
RTVSPropertyOp9
 70
     1
102
RTVSPropertyOp10
 70
     1
102
RTVSPropertyOp11
 70
     1
102
RTVSPropertyOp12
 70
     1
102
RTVSPropertyOp13
 70
     1
102
RTVSPropertyOp14
 70
     1
102
RTVSPropertyOp15
 70
     1
102
RTVSPropertyOp16
 70
     1
102
RTVSPropertyOp17
 70
     1
102
RTVSPropertyOp18
 70
     1
102
RTVSPropertyOp19
 70
     1
102
RTVSPropertyOp20
 70
     1
102
RTVSPropertyOp21
 70
     1
102
RTVSPropertyOp22
 70
     1
102
RTVSPropertyOp23
 70
     1
102
RTVSPropertyOp24
 70
     1
102
RTVSPropertyOp25
 70
     1
102
RTVSPropertyOp26
 70
     1
102
RTVSPropertyOp27
 70
     1
102
RTVSPropertyOp28
 70
     1
102
RTVSPropertyOp29
 70
     1
102
RTVSPropertyOp30
 70
     1
102
RTVSPropertyOp31
 70
     1
102
RTVSPropertyOp32
 70
     1
  0
XRECORD
  5
4C5
102
{ACAD_REACTORS
330
4C4
102
}
330
4C4
100
AcDbXrecord
280
     1
102
RTVSPropertyOp0
 70
     1
102
RTVSPropertyOp1
 70
     1
102
RTVSPropertyOp2
 70
     1
102
RTVSPropertyOp3
 70
     1
102
RTVSPropertyOp4
 70
     1
102
RTVSPropertyOp5
 70
     1
102
RTVSPropertyOp6
 70
     1
102
RTVSPropertyOp7
 70
     1
102
RTVSPropertyOp8
 70
     1
102
RTVSPropertyOp9
 70
     1
102
RTVSPropertyOp10
 70
     1
102
RTVSPropertyOp11
 70
     1
102
RTVSPropertyOp12
 70
     1
102
RTVSPropertyOp13
 70
     1
102
RTVSPropertyOp14
 70
     1
102
RTVSPropertyOp15
 70
     1
102
RTVSPropertyOp16
 70
     1
102
RTVSPropertyOp17
 70
     1
102
RTVSPropertyOp18
 70
     1
102
RTVSPropertyOp19
 70
     1
102
RTVSPropertyOp20
 70
     1
102
RTVSPropertyOp21
 70
     1
102
RTVSPropertyOp22
 70
     1
102
RTVSPropertyOp23
 70
     1
102
RTVSPropertyOp24
 70
     1
102
RTVSPropertyOp25
 70
     1
102
RTVSPropertyOp26
 70
     1
102
RTVSPropertyOp27
 70
     1
102
RTVSPropertyOp28
 70
     1
102
RTVSPropertyOp29
 70
     1
102
RTVSPropertyOp30
 70
     1
102
RTVSPropertyOp31
 70
     1
102
RTVSPropertyOp32
 70
     1
  0
XRECORD
  5
4B9
102
{ACAD_REACTORS
330
4B8
102
}
330
4B8
100
AcDbXrecord
280
     1
102
RTVSPropertyOp0
 70
     1
102
RTVSPropertyOp1
 70
     1
102
RTVSPropertyOp2
 70
     1
102
RTVSPropertyOp3
 70
     1
102
RTVSPropertyOp4
 70
     1
102
RTVSPropertyOp5
 70
     1
102
RTVSPropertyOp6
 70
     1
102
RTVSPropertyOp7
 70
     1
102
RTVSPropertyOp8
 70
     1
102
RTVSPropertyOp9
 70
     1
102
RTVSPropertyOp10
 70
     1
102
RTVSPropertyOp11
 70
     1
102
RTVSPropertyOp12
 70
     1
102
RTVSPropertyOp13
 70
     1
102
RTVSPropertyOp14
 70
     1
102
RTVSPropertyOp15
 70
     1
102
RTVSPropertyOp16
 70
     1
102
RTVSPropertyOp17
 70
     1
102
RTVSPropertyOp18
 70
     1
102
RTVSPropertyOp19
 70
     1
102
RTVSPropertyOp20
 70
     1
102
RTVSPropertyOp21
 70
     1
102
RTVSPropertyOp22
 70
     1
102
RTVSPropertyOp23
 70
     1
102
RTVSPropertyOp24
 70
     1
102
RTVSPropertyOp25
 70
     1
102
RTVSPropertyOp26
 70
     1
102
RTVSPropertyOp27
 70
     1
102
RTVSPropertyOp28
 70
     1
102
RTVSPropertyOp29
 70
     1
102
RTVSPropertyOp30
 70
     1
102
RTVSPropertyOp31
 70
     1
102
RTVSPropertyOp32
 70
     1
  0
XRECORD
  5
4BB
102
{ACAD_REACTORS
330
4BA
102
}
330
4BA
100
AcDbXrecord
280
     1
102
RTVSPropertyOp0
 70
     1
102
RTVSPropertyOp1
 70
     1
102
RTVSPropertyOp2
 70
     1
102
RTVSPropertyOp3
 70
     1
102
RTVSPropertyOp4
 70
     1
102
RTVSPropertyOp5
 70
     1
102
RTVSPropertyOp6
 70
     1
102
RTVSPropertyOp7
 70
     1
102
RTVSPropertyOp8
 70
     1
102
RTVSPropertyOp9
 70
     1
102
RTVSPropertyOp10
 70
     1
102
RTVSPropertyOp11
 70
     1
102
RTVSPropertyOp12
 70
     1
102
RTVSPropertyOp13
 70
     1
102
RTVSPropertyOp14
 70
     1
102
RTVSPropertyOp15
 70
     1
102
RTVSPropertyOp16
 70
     1
102
RTVSPropertyOp17
 70
     1
102
RTVSPropertyOp18
 70
     1
102
RTVSPropertyOp19
 70
     1
102
RTVSPropertyOp20
 70
     1
102
RTVSPropertyOp21
 70
     1
102
RTVSPropertyOp22
 70
     1
102
RTVSPropertyOp23
 70
     1
102
RTVSPropertyOp24
 70
     1
102
RTVSPropertyOp25
 70
     1
102
RTVSPropertyOp26
 70
     1
102
RTVSPropertyOp27
 70
     1
102
RTVSPropertyOp28
 70
     1
102
RTVSPropertyOp29
 70
     1
102
RTVSPropertyOp30
 70
     1
102
RTVSPropertyOp31
 70
     1
102
RTVSPropertyOp32
 70
     1
  0
XRECORD
  5
4C3
102
{ACAD_REACTORS
330
4C2
102
}
330
4C2
100
AcDbXrecord
280
     1
102
RTVSPropertyOp0
 70
     1
102
RTVSPropertyOp1
 70
     1
102
RTVSPropertyOp2
 70
     1
102
RTVSPropertyOp3
 70
     1
102
RTVSPropertyOp4
 70
     1
102
RTVSPropertyOp5
 70
     1
102
RTVSPropertyOp6
 70
     1
102
RTVSPropertyOp7
 70
     1
102
RTVSPropertyOp8
 70
     1
102
RTVSPropertyOp9
 70
     1
102
RTVSPropertyOp10
 70
     1
102
RTVSPropertyOp11
 70
     1
102
RTVSPropertyOp12
 70
     1
102
RTVSPropertyOp13
 70
     1
102
RTVSPropertyOp14
 70
     1
102
RTVSPropertyOp15
 70
     1
102
RTVSPropertyOp16
 70
     1
102
RTVSPropertyOp17
 70
     1
102
RTVSPropertyOp18
 70
     1
102
RTVSPropertyOp19
 70
     1
102
RTVSPropertyOp20
 70
     1
102
RTVSPropertyOp21
 70
     1
102
RTVSPropertyOp22
 70
     1
102
RTVSPropertyOp23
 70
     1
102
RTVSPropertyOp24
 70
     1
102
RTVSPropertyOp25
 70
     1
102
RTVSPropertyOp26
 70
     1
102
RTVSPropertyOp27
 70
     1
102
RTVSPropertyOp28
 70
     1
102
RTVSPropertyOp29
 70
     1
102
RTVSPropertyOp30
 70
     1
102
RTVSPropertyOp31
 70
     1
102
RTVSPropertyOp32
 70
     1
  0
XRECORD
  5
4A7
102
{ACAD_REACTORS
330
4A6
102
}
330
4A6
100
AcDbXrecord
280
     1
102
RTVSPropertyOp0
 70
     1
102
RTVSPropertyOp1
 70
     1
102
RTVSPropertyOp2
 70
     1
102
RTVSPropertyOp3
 70
     1
102
RTVSPropertyOp4
 70
     1
102
RTVSPropertyOp5
 70
     1
102
RTVSPropertyOp6
 70
     1
102
RTVSPropertyOp7
 70
     1
102
RTVSPropertyOp8
 70
     1
102
RTVSPropertyOp9
 70
     1
102
RTVSPropertyOp10
 70
     1
102
RTVSPropertyOp11
 70
     1
102
RTVSPropertyOp12
 70
     1
102
RTVSPropertyOp13
 70
     1
102
RTVSPropertyOp14
 70
     1
102
RTVSPropertyOp15
 70
     1
102
RTVSPropertyOp16
 70
     1
102
RTVSPropertyOp17
 70
     1
102
RTVSPropertyOp18
 70
     1
102
RTVSPropertyOp19
 70
     1
102
RTVSPropertyOp20
 70
     1
102
RTVSPropertyOp21
 70
     1
102
RTVSPropertyOp22
 70
     1
102
RTVSPropertyOp23
 70
     1
102
RTVSPropertyOp24
 70
     1
102
RTVSPropertyOp25
 70
     1
102
RTVSPropertyOp26
 70
     1
102
RTVSPropertyOp27
 70
     1
102
RTVSPropertyOp28
 70
     1
102
RTVSPropertyOp29
 70
     1
102
RTVSPropertyOp30
 70
     1
102
RTVSPropertyOp31
 70
     1
102
RTVSPropertyOp32
 70
     1
  0
XRECORD
  5
4A9
102
{ACAD_REACTORS
330
4A8
102
}
330
4A8
100
AcDbXrecord
280
     1
102
RTVSPropertyOp0
 70
     1
102
RTVSPropertyOp1
 70
     1
102
RTVSPropertyOp2
 70
     1
102
RTVSPropertyOp3
 70
     1
102
RTVSPropertyOp4
 70
     1
102
RTVSPropertyOp5
 70
     1
102
RTVSPropertyOp6
 70
     1
102
RTVSPropertyOp7
 70
     1
102
RTVSPropertyOp8
 70
     1
102
RTVSPropertyOp9
 70
     1
102
RTVSPropertyOp10
 70
     1
102
RTVSPropertyOp11
 70
     1
102
RTVSPropertyOp12
 70
     1
102
RTVSPropertyOp13
 70
     1
102
RTVSPropertyOp14
 70
     1
102
RTVSPropertyOp15
 70
     1
102
RTVSPropertyOp16
 70
     1
102
RTVSPropertyOp17
 70
     1
102
RTVSPropertyOp18
 70
     1
102
RTVSPropertyOp19
 70
     1
102
RTVSPropertyOp20
 70
     1
102
RTVSPropertyOp21
 70
     1
102
RTVSPropertyOp22
 70
     1
102
RTVSPropertyOp23
 70
     1
102
RTVSPropertyOp24
 70
     1
102
RTVSPropertyOp25
 70
     1
102
RTVSPropertyOp26
 70
     1
102
RTVSPropertyOp27
 70
     1
102
RTVSPropertyOp28
 70
     1
102
RTVSPropertyOp29
 70
     1
102
RTVSPropertyOp30
 70
     1
102
RTVSPropertyOp31
 70
     1
102
RTVSPropertyOp32
 70
     1
  0
XRECORD
  5
4AB
102
{ACAD_REACTORS
330
4AA
102
}
330
4AA
100
AcDbXrecord
280
     1
102
RTVSPropertyOp0
 70
     1
102
RTVSPropertyOp1
 70
     1
102
RTVSPropertyOp2
 70
     1
102
RTVSPropertyOp3
 70
     1
102
RTVSPropertyOp4
 70
     1
102
RTVSPropertyOp5
 70
     1
102
RTVSPropertyOp6
 70
     1
102
RTVSPropertyOp7
 70
     1
102
RTVSPropertyOp8
 70
     1
102
RTVSPropertyOp9
 70
     1
102
RTVSPropertyOp10
 70
     1
102
RTVSPropertyOp11
 70
     1
102
RTVSPropertyOp12
 70
     1
102
RTVSPropertyOp13
 70
     1
102
RTVSPropertyOp14
 70
     1
102
RTVSPropertyOp15
 70
     1
102
RTVSPropertyOp16
 70
     1
102
RTVSPropertyOp17
 70
     1
102
RTVSPropertyOp18
 70
     1
102
RTVSPropertyOp19
 70
     1
102
RTVSPropertyOp20
 70
     1
102
RTVSPropertyOp21
 70
     1
102
RTVSPropertyOp22
 70
     1
102
RTVSPropertyOp23
 70
     1
102
RTVSPropertyOp24
 70
     1
102
RTVSPropertyOp25
 70
     1
102
RTVSPropertyOp26
 70
     1
102
RTVSPropertyOp27
 70
     1
102
RTVSPropertyOp28
 70
     1
102
RTVSPropertyOp29
 70
     1
102
RTVSPropertyOp30
 70
     1
102
RTVSPropertyOp31
 70
     1
102
RTVSPropertyOp32
 70
     1
  0
XRECORD
  5
4AD
102
{ACAD_REACTORS
330
4AC
102
}
330
4AC
100
AcDbXrecord
280
     1
102
RTVSPropertyOp0
 70
     1
102
RTVSPropertyOp1
 70
     1
102
RTVSPropertyOp2
 70
     1
102
RTVSPropertyOp3
 70
     1
102
RTVSPropertyOp4
 70
     1
102
RTVSPropertyOp5
 70
     1
102
RTVSPropertyOp6
 70
     1
102
RTVSPropertyOp7
 70
     1
102
RTVSPropertyOp8
 70
     1
102
RTVSPropertyOp9
 70
     1
102
RTVSPropertyOp10
 70
     1
102
RTVSPropertyOp11
 70
     1
102
RTVSPropertyOp12
 70
     1
102
RTVSPropertyOp13
 70
     1
102
RTVSPropertyOp14
 70
     1
102
RTVSPropertyOp15
 70
     1
102
RTVSPropertyOp16
 70
     1
102
RTVSPropertyOp17
 70
     1
102
RTVSPropertyOp18
 70
     1
102
RTVSPropertyOp19
 70
     1
102
RTVSPropertyOp20
 70
     1
102
RTVSPropertyOp21
 70
     1
102
RTVSPropertyOp22
 70
     1
102
RTVSPropertyOp23
 70
     1
102
RTVSPropertyOp24
 70
     1
102
RTVSPropertyOp25
 70
     1
102
RTVSPropertyOp26
 70
     1
102
RTVSPropertyOp27
 70
     1
102
RTVSPropertyOp28
 70
     1
102
RTVSPropertyOp29
 70
     1
102
RTVSPropertyOp30
 70
     1
102
RTVSPropertyOp31
 70
     1
102
RTVSPropertyOp32
 70
     1
  0
XRECORD
  5
4C1
102
{ACAD_REACTORS
330
4C0
102
}
330
4C0
100
AcDbXrecord
280
     1
102
RTVSPropertyOp0
 70
     1
102
RTVSPropertyOp1
 70
     1
102
RTVSPropertyOp2
 70
     1
102
RTVSPropertyOp3
 70
     1
102
RTVSPropertyOp4
 70
     1
102
RTVSPropertyOp5
 70
     1
102
RTVSPropertyOp6
 70
     1
102
RTVSPropertyOp7
 70
     1
102
RTVSPropertyOp8
 70
     1
102
RTVSPropertyOp9
 70
     1
102
RTVSPropertyOp10
 70
     1
102
RTVSPropertyOp11
 70
     1
102
RTVSPropertyOp12
 70
     1
102
RTVSPropertyOp13
 70
     1
102
RTVSPropertyOp14
 70
     1
102
RTVSPropertyOp15
 70
     1
102
RTVSPropertyOp16
 70
     1
102
RTVSPropertyOp17
 70
     1
102
RTVSPropertyOp18
 70
     1
102
RTVSPropertyOp19
 70
     1
102
RTVSPropertyOp20
 70
     1
102
RTVSPropertyOp21
 70
     1
102
RTVSPropertyOp22
 70
     1
102
RTVSPropertyOp23
 70
     1
102
RTVSPropertyOp24
 70
     1
102
RTVSPropertyOp25
 70
     1
102
RTVSPropertyOp26
 70
     1
102
RTVSPropertyOp27
 70
     1
102
RTVSPropertyOp28
 70
     1
102
RTVSPropertyOp29
 70
     1
102
RTVSPropertyOp30
 70
     1
102
RTVSPropertyOp31
 70
     1
102
RTVSPropertyOp32
 70
     1
  0
XRECORD
  5
4B7
102
{ACAD_REACTORS
330
4B6
102
}
330
4B6
100
AcDbXrecord
280
     1
102
RTVSPropertyOp0
 70
     1
102
RTVSPropertyOp1
 70
     1
102
RTVSPropertyOp2
 70
     1
102
RTVSPropertyOp3
 70
     1
102
RTVSPropertyOp4
 70
     1
102
RTVSPropertyOp5
 70
     1
102
RTVSPropertyOp6
 70
     1
102
RTVSPropertyOp7
 70
     1
102
RTVSPropertyOp8
 70
     1
102
RTVSPropertyOp9
 70
     1
102
RTVSPropertyOp10
 70
     1
102
RTVSPropertyOp11
 70
     1
102
RTVSPropertyOp12
 70
     1
102
RTVSPropertyOp13
 70
     1
102
RTVSPropertyOp14
 70
     1
102
RTVSPropertyOp15
 70
     1
102
RTVSPropertyOp16
 70
     1
102
RTVSPropertyOp17
 70
     1
102
RTVSPropertyOp18
 70
     1
102
RTVSPropertyOp19
 70
     1
102
RTVSPropertyOp20
 70
     1
102
RTVSPropertyOp21
 70
     1
102
RTVSPropertyOp22
 70
     1
102
RTVSPropertyOp23
 70
     1
102
RTVSPropertyOp24
 70
     1
102
RTVSPropertyOp25
 70
     1
102
RTVSPropertyOp26
 70
     1
102
RTVSPropertyOp27
 70
     1
102
RTVSPropertyOp28
 70
     1
102
RTVSPropertyOp29
 70
     1
102
RTVSPropertyOp30
 70
     1
102
RTVSPropertyOp31
 70
     1
102
RTVSPropertyOp32
 70
     1
  0
XRECORD
  5
4BF
102
{ACAD_REACTORS
330
4BE
102
}
330
4BE
100
AcDbXrecord
280
     1
102
RTVSPropertyOp0
 70
     1
102
RTVSPropertyOp1
 70
     1
102
RTVSPropertyOp2
 70
     1
102
RTVSPropertyOp3
 70
     1
102
RTVSPropertyOp4
 70
     1
102
RTVSPropertyOp5
 70
     1
102
RTVSPropertyOp6
 70
     1
102
RTVSPropertyOp7
 70
     1
102
RTVSPropertyOp8
 70
     1
102
RTVSPropertyOp9
 70
     1
102
RTVSPropertyOp10
 70
     1
102
RTVSPropertyOp11
 70
     1
102
RTVSPropertyOp12
 70
     1
102
RTVSPropertyOp13
 70
     1
102
RTVSPropertyOp14
 70
     1
102
RTVSPropertyOp15
 70
     1
102
RTVSPropertyOp16
 70
     1
102
RTVSPropertyOp17
 70
     1
102
RTVSPropertyOp18
 70
     1
102
RTVSPropertyOp19
 70
     1
102
RTVSPropertyOp20
 70
     1
102
RTVSPropertyOp21
 70
     1
102
RTVSPropertyOp22
 70
     1
102
RTVSPropertyOp23
 70
     1
102
RTVSPropertyOp24
 70
     1
102
RTVSPropertyOp25
 70
     1
102
RTVSPropertyOp26
 70
     1
102
RTVSPropertyOp27
 70
     1
102
RTVSPropertyOp28
 70
     1
102
RTVSPropertyOp29
 70
     1
102
RTVSPropertyOp30
 70
     1
102
RTVSPropertyOp31
 70
     1
102
RTVSPropertyOp32
 70
     1
  0
ENDSEC
  0
EOF
