  0
SECTION
  2
HEADER
  9
$ACADVER
  1
AC1015
  9
$ACADMAINTVER
 70
     6
  9
$DWGCODEPAGE
  3
ANSI_932
  9
$INSBASE
 10
0.0
 20
0.0
 30
0.0
  9
$EXTMIN
 10
0.0
 20
0.0
 30
0.0
  9
$EXTMAX
 10
630.00063000063
 20
891.0008910008911
 30
0.0
  9
$LIMMIN
 10
0.0
 20
0.0
  9
$LIMMAX
 10
12.0
 20
9.0
  9
$ORTHOMODE
 70
     0
  9
$REGENMODE
 70
     1
  9
$FILLMODE
 70
     1
  9
$QTEXTMODE
 70
     0
  9
$MIRRTEXT
 70
     1
  9
$LTSCALE
 40
1.0
  9
$ATTMODE
 70
     1
  9
$TEXTSIZE
 40
0.2
  9
$TRACEWID
 40
0.05
  9
$TEXTSTYLE
  7
Standard
  9
$CLAYER
  8
0
  9
$CELTYPE
  6
ByLayer
  9
$CECOLOR
 62
   256
  9
$CELTSCALE
 40
1.0
  9
$DISPSILH
 70
     0
  9
$DIMSCALE
 40
1.0
  9
$DIMASZ
 40
0.18
  9
$DIMEXO
 40
0.0625
  9
$DIMDLI
 40
0.38
  9
$DIMRND
 40
0.0
  9
$DIMDLE
 40
0.0
  9
$DIMEXE
 40
0.18
  9
$DIMTP
 40
0.0
  9
$DIMTM
 40
0.0
  9
$DIMTXT
 40
0.18
  9
$DIMCEN
 40
0.09
  9
$DIMTSZ
 40
0.0
  9
$DIMTOL
 70
     0
  9
$DIMLIM
 70
     0
  9
$DIMTIH
 70
     1
  9
$DIMTOH
 70
     1
  9
$DIMSE1
 70
     0
  9
$DIMSE2
 70
     0
  9
$DIMTAD
 70
     0
  9
$DIMZIN
 70
     0
  9
$DIMBLK
  1

  9
$DIMASO
 70
     1
  9
$DIMSHO
 70
     1
  9
$DIMPOST
  1

  9
$DIMAPOST
  1

  9
$DIMALT
 70
     0
  9
$DIMALTD
 70
     2
  9
$DIMALTF
 40
25.4
  9
$DIMLFAC
 40
1.0
  9
$DIMTOFL
 70
     0
  9
$DIMTVP
 40
0.0
  9
$DIMTIX
 70
     0
  9
$DIMSOXD
 70
     0
  9
$DIMSAH
 70
     0
  9
$DIMBLK1
  1

  9
$DIMBLK2
  1

  9
$DIMSTYLE
  2
Standard
  9
$DIMCLRD
 70
     0
  9
$DIMCLRE
 70
     0
  9
$DIMCLRT
 70
     0
  9
$DIMTFAC
 40
1.0
  9
$DIMGAP
 40
0.09
  9
$DIMJUST
 70
     0
  9
$DIMSD1
 70
     0
  9
$DIMSD2
 70
     0
  9
$DIMTOLJ
 70
     1
  9
$DIMTZIN
 70
     0
  9
$DIMALTZ
 70
     0
  9
$DIMALTTZ
 70
     0
  9
$DIMUPT
 70
     0
  9
$DIMDEC
 70
     4
  9
$DIMTDEC
 70
     4
  9
$DIMALTU
 70
     2
  9
$DIMALTTD
 70
     2
  9
$DIMTXSTY
  7
Standard
  9
$DIMAUNIT
 70
     0
  9
$DIMADEC
 70
     0
  9
$DIMALTRND
 40
0.0
  9
$DIMAZIN
 70
     0
  9
$DIMDSEP
 70
    46
  9
$DIMATFIT
 70
     3
  9
$DIMFRAC
 70
     0
  9
$DIMLDRBLK
  1

  9
$DIMLUNIT
 70
     2
  9
$DIMLWD
 70
    -2
  9
$DIMLWE
 70
    -2
  9
$DIMTMOVE
 70
     0
  9
$LUNITS
 70
     2
  9
$LUPREC
 70
     4
  9
$SKETCHINC
 40
0.1
  9
$FILLETRAD
 40
0.5
  9
$AUNITS
 70
     0
  9
$AUPREC
 70
     0
  9
$MENU
  1
.
  9
$ELEVATION
 40
0.0
  9
$PELEVATION
 40
0.0
  9
$THICKNESS
 40
0.0
  9
$LIMCHECK
 70
     0
  9
$CHAMFERA
 40
0.5
  9
$CHAMFERB
 40
0.5
  9
$CHAMFERC
 40
1.0
  9
$CHAMFERD
 40
0.0
  9
$SKPOLY
 70
     0
  9
$TDCREATE
 40
2456496.576476886
  9
$TDUCREATE
 40
2456496.201476886
  9
$TDUPDATE
 40
2456496.576477975
  9
$TDUUPDATE
 40
2456496.201477975
  9
$TDINDWG
 40
0.0000000116
  9
$TDUSRTIMER
 40
0.0000000116
  9
$USRTIMER
 70
     1
  9
$ANGBASE
 50
0.0
  9
$ANGDIR
 70
     0
  9
$PDMODE
 70
     0
  9
$PDSIZE
 40
0.0
  9
$PLINEWID
 40
0.0
  9
$SPLFRAME
 70
     0
  9
$SPLINETYPE
 70
     6
  9
$SPLINESEGS
 70
     8
  9
$HANDSEED
  5
1FC
  9
$SURFTAB1
 70
     6
  9
$SURFTAB2
 70
     6
  9
$SURFTYPE
 70
     6
  9
$SURFU
 70
     6
  9
$SURFV
 70
     6
  9
$UCSBASE
  2

  9
$UCSNAME
  2

  9
$UCSORG
 10
0.0
 20
0.0
 30
0.0
  9
$UCSXDIR
 10
1.0
 20
0.0
 30
0.0
  9
$UCSYDIR
 10
0.0
 20
1.0
 30
0.0
  9
$UCSORTHOREF
  2

  9
$UCSORTHOVIEW
 70
     0
  9
$UCSORGTOP
 10
0.0
 20
0.0
 30
0.0
  9
$UCSORGBOTTOM
 10
0.0
 20
0.0
 30
0.0
  9
$UCSORGLEFT
 10
0.0
 20
0.0
 30
0.0
  9
$UCSORGRIGHT
 10
0.0
 20
0.0
 30
0.0
  9
$UCSORGFRONT
 10
0.0
 20
0.0
 30
0.0
  9
$UCSORGBACK
 10
0.0
 20
0.0
 30
0.0
  9
$PUCSBASE
  2

  9
$PUCSNAME
  2

  9
$PUCSORG
 10
0.0
 20
0.0
 30
0.0
  9
$PUCSXDIR
 10
1.0
 20
0.0
 30
0.0
  9
$PUCSYDIR
 10
0.0
 20
1.0
 30
0.0
  9
$PUCSORTHOREF
  2

  9
$PUCSORTHOVIEW
 70
     0
  9
$PUCSORGTOP
 10
0.0
 20
0.0
 30
0.0
  9
$PUCSORGBOTTOM
 10
0.0
 20
0.0
 30
0.0
  9
$PUCSORGLEFT
 10
0.0
 20
0.0
 30
0.0
  9
$PUCSORGRIGHT
 10
0.0
 20
0.0
 30
0.0
  9
$PUCSORGFRONT
 10
0.0
 20
0.0
 30
0.0
  9
$PUCSORGBACK
 10
0.0
 20
0.0
 30
0.0
  9
$USERI1
 70
     0
  9
$USERI2
 70
     0
  9
$USERI3
 70
     0
  9
$USERI4
 70
     0
  9
$USERI5
 70
     0
  9
$USERR1
 40
18.1
  9
$USERR2
 40
0.0
  9
$USERR3
 40
0.0
  9
$USERR4
 40
0.0
  9
$USERR5
 40
0.0
  9
$WORLDVIEW
 70
     1
  9
$SHADEDGE
 70
     3
  9
$SHADEDIF
 70
    70
  9
$TILEMODE
 70
     1
  9
$MAXACTVP
 70
    64
  9
$PINSBASE
 10
0.0
 20
0.0
 30
0.0
  9
$PLIMCHECK
 70
     0
  9
$PEXTMIN
 10
1.00000000000000E+20
 20
1.00000000000000E+20
 30
1.00000000000000E+20
  9
$PEXTMAX
 10
-1.00000000000000E+20
 20
-1.00000000000000E+20
 30
-1.00000000000000E+20
  9
$PLIMMIN
 10
0.0
 20
0.0
  9
$PLIMMAX
 10
12.0
 20
9.0
  9
$UNITMODE
 70
     0
  9
$VISRETAIN
 70
     1
  9
$PLINEGEN
 70
     0
  9
$PSLTSCALE
 70
     1
  9
$TREEDEPTH
 70
  3020
  9
$CMLSTYLE
  2
Standard
  9
$CMLJUST
 70
     0
  9
$CMLSCALE
 40
1.0
  9
$PROXYGRAPHICS
 70
     1
  9
$MEASUREMENT
 70
     1
  9
$CELWEIGHT
370
    -1
  9
$ENDCAPS
280
     0
  9
$JOINSTYLE
280
     0
  9
$LWDISPLAY
290
     0
  9
$INSUNITS
 70
     4
  9
$HYPERLINKBASE
  1

  9
$STYLESHEET
  1

  9
$XEDIT
290
     1
  9
$CEPSNTYPE
380
     0
  9
$PSTYLEMODE
290
     1
  9
$FINGERPRINTGUID
  2
{16E8C681-9DCC-48C7-A344-D7776CDA69F0}
  9
$VERSIONGUID
  2
{FAEB1C32-E019-11D5-929B-00C0DF256EC4}
  9
$EXTNAMES
290
     1
  9
$PSVPSCALE
 40
0.0
  9
$OLESTARTUP
290
     0
  0
ENDSEC
  0
SECTION
  2
CLASSES
  0
CLASS
  1
ACDBDICTIONARYWDFLT
  2
AcDbDictionaryWithDefault
  3
ObjectDBX Classes
 90
        0
280
     0
281
     0
  0
CLASS
  1
VISUALSTYLE
  2
AcDbVisualStyle
  3
ObjectDBX Classes
 90
     4095
280
     0
281
     0
  0
CLASS
  1
MATERIAL
  2
AcDbMaterial
  3
ObjectDBX Classes
 90
     1153
280
     0
281
     0
  0
CLASS
  1
DICTIONARYVAR
  2
AcDbDictionaryVar
  3
ObjectDBX Classes
 90
        0
280
     0
281
     0
  0
CLASS
  1
ACDBPLACEHOLDER
  2
AcDbPlaceHolder
  3
ObjectDBX Classes
 90
        0
280
     0
281
     0
  0
CLASS
  1
LAYOUT
  2
AcDbLayout
  3
ObjectDBX Classes
 90
        0
280
     0
281
     0
  0
ENDSEC
  0
SECTION
  2
TABLES
  0
TABLE
  2
VPORT
  5
8
330
0
100
AcDbSymbolTable
 70
     1
  0
VPORT
  5
29
330
8
100
AcDbSymbolTableRecord
100
AcDbViewportTableRecord
  2
*Active
 70
     0
 10
0.0
 20
0.0
 11
1.0
 21
1.0
 12
315.000315000315
 22
445.5004455004456
 13
0.0
 23
0.0
 14
0.5
 24
0.5
 15
0.5
 25
0.5
 16
0.0
 26
0.0
 36
1.0
 17
0.0
 27
0.0
 37
0.0
 40
980.1009801009803
 41
1.60267857142857
 42
50.0
 43
0.0
 44
0.0
 50
0.0
 51
0.0
 71
     0
 72
   100
 73
     1
 74
     3
 75
     0
 76
     0
 77
     0
 78
     0
281
     0
 65
     1
110
0.0
120
0.0
130
0.0
111
1.0
121
0.0
131
0.0
112
0.0
122
1.0
132
0.0
 79
     0
146
0.0
  0
ENDTAB
  0
TABLE
  2
LTYPE
  5
5
330
0
100
AcDbSymbolTable
 70
     8
  0
LTYPE
  5
14
330
5
100
AcDbSymbolTableRecord
100
AcDbLinetypeTableRecord
  2
ByBlock
 70
     0
  3

 72
    65
 73
     0
 40
0.0
  0
LTYPE
  5
15
330
5
100
AcDbSymbolTableRecord
100
AcDbLinetypeTableRecord
  2
ByLayer
 70
     0
  3

 72
    65
 73
     0
 40
0.0
  0
LTYPE
  5
16
330
5
100
AcDbSymbolTableRecord
100
AcDbLinetypeTableRecord
  2
Continuous
 70
     0
  3
Solid line
 72
    65
 73
     0
 40
0.0
  0
LTYPE
  5
3F
330
5
100
AcDbSymbolTableRecord
100
AcDbLinetypeTableRecord
  2
DASHED
 70
     0
  3
Dashed
 72
    65
 73
     2
 40
15.0
 49
7.0
 74
     0
 49
-8.0
 74
     0
  0
LTYPE
  5
40
330
5
100
AcDbSymbolTableRecord
100
AcDbLinetypeTableRecord
  2
DOTTED
 70
     0
  3
Dotted
 72
    65
 73
     2
 40
1.0
 49
0.0
 74
     0
 49
-1.0
 74
     0
  0
LTYPE
  5
41
330
5
100
AcDbSymbolTableRecord
100
AcDbLinetypeTableRecord
  2
DOT_CENTER
 70
     0
  3
Dot_Center
 72
    65
 73
     4
 40
14.0
 49
12.0
 74
     0
 49
-1.0
 74
     0
 49
0.0
 74
     0
 49
-1.0
 74
     0
  0
LTYPE
  5
42
330
5
100
AcDbSymbolTableRecord
100
AcDbLinetypeTableRecord
  2
LONG_DASHED
 70
     0
  3
Long_Dashed
 72
    65
 73
     2
 40
15.0
 49
10.0
 74
     0
 49
-5.0
 74
     0
  0
LTYPE
  5
43
330
5
100
AcDbSymbolTableRecord
100
AcDbLinetypeTableRecord
  2
DASH_CENTER
 70
     0
  3
Dash_Center
 72
    65
 73
     4
 40
14.0
 49
11.0
 74
     0
 49
-1.0
 74
     0
 49
1.0
 74
     0
 49
-1.0
 74
     0
  0
LTYPE
  5
44
330
5
100
AcDbSymbolTableRecord
100
AcDbLinetypeTableRecord
  2
PHANTOM
 70
     0
  3
Phantom
 72
    65
 73
     6
 40
13.0
 49
10.0
 74
     0
 49
-1.0
 74
     0
 49
0.0
 74
     0
 49
-1.0
 74
     0
 49
0.0
 74
     0
 49
-1.0
 74
     0
  0
LTYPE
  5
45
330
5
100
AcDbSymbolTableRecord
100
AcDbLinetypeTableRecord
  2
CENTER_DASH_DASH
 70
     0
  3
Center_Dash_Dash
 72
    65
 73
     6
 40
14.0
 49
9.0
 74
     0
 49
-1.0
 74
     0
 49
1.0
 74
     0
 49
-1.0
 74
     0
 49
1.0
 74
     0
 49
-1.0
 74
     0
  0
ENDTAB
  0
TABLE
  2
LAYER
  5
2
330
0
100
AcDbSymbolTable
 70
     6
  0
LAYER
  5
10
330
2
100
AcDbSymbolTableRecord
100
AcDbLayerTableRecord
  2
0
 70
     0
 62
     7
  6
Continuous
370
    -3
390
F
  0
LAYER
  5
46
330
2
100
AcDbSymbolTableRecord
100
AcDbLayerTableRecord
  2
1
 70
     0
 62
     7
  6
Continuous
370
    -3
390
F
  0
LAYER
  5
47
330
2
100
AcDbSymbolTableRecord
100
AcDbLayerTableRecord
  2
_0-0_
 70
     0
 62
     7
  6
Continuous
370
    -3
390
F
  0
LAYER
  5
48
330
2
100
AcDbSymbolTableRecord
100
AcDbLayerTableRecord
  2
_0-1_
 70
     0
 62
     7
  6
Continuous
370
    -3
390
F
  0
LAYER
  5
49
330
2
100
AcDbSymbolTableRecord
100
AcDbLayerTableRecord
  2
_0-A_
 70
     0
 62
     7
  6
Continuous
370
    -3
390
F
  0
LAYER
  5
4A
330
2
100
AcDbSymbolTableRecord
100
AcDbLayerTableRecord
  2
_1-0_
 70
     0
 62
     7
  6
Continuous
370
    -3
390
F
  0
ENDTAB
  0
TABLE
  2
STYLE
  5
3
330
0
100
AcDbSymbolTable
 70
     3
  0
STYLE
  5
11
330
3
100
AcDbSymbolTableRecord
100
AcDbTextStyleTableRecord
  2
Standard
 70
     0
 40
0.0
 41
1.0
 50
0.0
 71
     0
 42
0.2
  3
txt
  4

  0
STYLE
  5
A8
330
3
100
AcDbSymbolTableRecord
100
AcDbTextStyleTableRecord
  2
CONVERTER_11
 70
     0
 40
0.0
 41
0.89
 50
0.0
 71
     0
 42
0.2
  3
MS Mincho.ttf
  4

1001
ACAD
1000
MS Mincho
1071
    32785
  0
STYLE
  5
14B
330
3
100
AcDbSymbolTableRecord
100
AcDbTextStyleTableRecord
  2
CONVERTER_12
 70
     0
 40
0.0
 41
0.9
 50
0.0
 71
     0
 42
0.2
  3
txt.shx
  4

  0
ENDTAB
  0
TABLE
  2
VIEW
  5
6
330
0
100
AcDbSymbolTable
 70
     0
  0
ENDTAB
  0
TABLE
  2
UCS
  5
7
330
0
100
AcDbSymbolTable
 70
     0
  0
ENDTAB
  0
TABLE
  2
APPID
  5
9
330
0
100
AcDbSymbolTable
 70
     1
  0
APPID
  5
12
330
9
100
AcDbSymbolTableRecord
100
AcDbRegAppTableRecord
  2
ACAD
 70
     0
  0
ENDTAB
  0
TABLE
  2
DIMSTYLE
  5
A
330
0
100
AcDbSymbolTable
 70
    10
100
AcDbDimStyleTable
  0
DIMSTYLE
105
27
330
A
100
AcDbSymbolTableRecord
100
AcDbDimStyleTableRecord
  2
Standard
 70
     0
178
     0
340
11
  0
DIMSTYLE
105
15A
102
{ACAD_REACTORS
330
15B
102
}
330
A
100
AcDbSymbolTableRecord
100
AcDbDimStyleTableRecord
  2
ME10_DIM_10
 70
     0
 41
10.5000105000105
 42
0.0
 44
3.000003000003
 73
     0
 74
     0
 77
     1
 78
     8
140
10.5000105000105
147
3.000003000003
172
     1
173
     1
174
     1
175
     1
176
     2
177
     2
271
     2
178
     7
271
     2
340
14B
  0
DIMSTYLE
105
165
102
{ACAD_REACTORS
330
166
102
}
330
A
100
AcDbSymbolTableRecord
100
AcDbDimStyleTableRecord
  2
ME10_DIM_11
 70
     0
 41
10.5000105000105
 42
0.0
 44
3.000003000003
 73
     0
 74
     0
 77
     1
 78
     8
140
10.5000105000105
147
3.000003000003
172
     1
173
     1
174
     1
175
     1
176
     2
177
     2
271
     2
178
     7
271
     2
340
14B
  0
DIMSTYLE
105
172
102
{ACAD_REACTORS
330
173
102
}
330
A
100
AcDbSymbolTableRecord
100
AcDbDimStyleTableRecord
  2
ME10_DIM_12
 70
     0
 41
10.5000105000105
 42
0.0
 44
3.000003000003
 73
     0
 74
     0
 77
     1
 78
     8
140
10.5000105000105
147
3.000003000003
172
     1
173
     1
174
     1
175
     1
176
     2
177
     2
271
     2
178
     7
271
     2
340
14B
  0
DIMSTYLE
105
17D
102
{ACAD_REACTORS
330
17E
102
}
330
A
100
AcDbSymbolTableRecord
100
AcDbDimStyleTableRecord
  2
ME10_DIM_13
 70
     0
 41
10.5000105000105
 42
0.0
 44
3.000003000003
 73
     0
 74
     0
 77
     1
 78
     8
140
10.5000105000105
147
3.000003000003
172
     1
173
     1
174
     1
175
     1
176
     2
177
     2
271
     2
178
     7
271
     2
340
14B
  0
DIMSTYLE
105
188
102
{ACAD_REACTORS
330
189
102
}
330
A
100
AcDbSymbolTableRecord
100
AcDbDimStyleTableRecord
  2
ME10_DIM_14
 70
     0
 41
10.5000105000105
 42
0.0
 44
3.000003000003
 73
     0
 74
     0
 77
     1
 78
     8
140
10.5000105000105
147
3.000003000003
172
     1
173
     1
174
     1
175
     1
176
     2
177
     2
271
     2
178
     7
271
     2
340
14B
  0
DIMSTYLE
105
193
102
{ACAD_REACTORS
330
194
102
}
330
A
100
AcDbSymbolTableRecord
100
AcDbDimStyleTableRecord
  2
ME10_DIM_15
 70
     0
 41
10.5000105000105
 42
0.0
 44
3.000003000003
 73
     0
 74
     0
 77
     1
 78
     8
140
10.5000105000105
147
3.000003000003
172
     1
173
     1
174
     1
175
     1
176
     2
177
     2
271
     2
178
     7
271
     2
340
14B
  0
DIMSTYLE
105
19E
102
{ACAD_REACTORS
330
19F
102
}
330
A
100
AcDbSymbolTableRecord
100
AcDbDimStyleTableRecord
  2
ME10_DIM_16
 70
     0
 41
10.5000105000105
 42
0.0
 44
3.000003000003
 73
     0
 74
     0
 77
     1
 78
     8
140
10.5000105000105
147
3.000003000003
172
     1
173
     1
174
     1
175
     1
176
     2
177
     2
271
     2
178
     7
271
     2
340
14B
  0
DIMSTYLE
105
1A9
102
{ACAD_REACTORS
330
1AA
102
}
330
A
100
AcDbSymbolTableRecord
100
AcDbDimStyleTableRecord
  2
ME10_DIM_17
 70
     0
 41
10.5000105000105
 42
0.0
 44
3.000003000003
 73
     0
 74
     0
 77
     1
 78
     8
140
10.5000105000105
147
3.000003000003
172
     1
173
     1
174
     1
175
     1
176
     2
177
     2
271
     2
178
     7
271
     2
340
14B
  0
DIMSTYLE
105
1B4
102
{ACAD_REACTORS
330
1B5
102
}
330
A
100
AcDbSymbolTableRecord
100
AcDbDimStyleTableRecord
  2
ME10_DIM_18
 70
     0
 41
10.5000105000105
 42
0.0
 44
3.000003000003
 73
     0
 74
     0
 77
     1
 78
     8
140
10.5000105000105
147
3.000003000003
172
     1
173
     1
174
     1
175
     1
176
     2
177
     2
271
     2
178
     7
271
     2
340
14B
  0
ENDTAB
  0
TABLE
  2
BLOCK_RECORD
  5
1
330
0
100
AcDbSymbolTable
 70
    17
  0
BLOCK_RECORD
  5
1F
330
1
100
AcDbSymbolTableRecord
100
AcDbBlockTableRecord
  2
*Model_Space
340
22
  0
BLOCK_RECORD
  5
1B
330
1
100
AcDbSymbolTableRecord
100
AcDbBlockTableRecord
  2
*Paper_Space
340
1E
  0
BLOCK_RECORD
  5
23
330
1
100
AcDbSymbolTableRecord
100
AcDbBlockTableRecord
  2
*Paper_Space0
340
26
  0
BLOCK_RECORD
  5
4B
330
1
100
AcDbSymbolTableRecord
100
AcDbBlockTableRecord
  2
H543-340-H1__1
340
0
102
{BLKREFS
331
4F
102
}
  0
BLOCK_RECORD
  5
4E
330
1
100
AcDbSymbolTableRecord
100
AcDbBlockTableRecord
  2
H543-340
340
0
102
{BLKREFS
331
58
102
}
  0
BLOCK_RECORD
  5
52
330
1
100
AcDbSymbolTableRecord
100
AcDbBlockTableRecord
  2
開示A4
340
0
102
{BLKREFS
331
59
102
}
  0
BLOCK_RECORD
  5
55
330
1
100
AcDbSymbolTableRecord
100
AcDbBlockTableRecord
  2
H543-340-H1__2
340
0
102
{BLKREFS
331
5A
102
}
  0
BLOCK_RECORD
  5
151
330
1
100
AcDbSymbolTableRecord
100
AcDbBlockTableRecord
  2
*D5
340
0
  0
BLOCK_RECORD
  5
15C
330
1
100
AcDbSymbolTableRecord
100
AcDbBlockTableRecord
  2
*D6
340
0
  0
BLOCK_RECORD
  5
167
330
1
100
AcDbSymbolTableRecord
100
AcDbBlockTableRecord
  2
*D7
340
0
  0
BLOCK_RECORD
  5
174
330
1
100
AcDbSymbolTableRecord
100
AcDbBlockTableRecord
  2
*D8
340
0
  0
BLOCK_RECORD
  5
17F
330
1
100
AcDbSymbolTableRecord
100
AcDbBlockTableRecord
  2
*D9
340
0
  0
BLOCK_RECORD
  5
18A
330
1
100
AcDbSymbolTableRecord
100
AcDbBlockTableRecord
  2
*D10
340
0
  0
BLOCK_RECORD
  5
195
330
1
100
AcDbSymbolTableRecord
100
AcDbBlockTableRecord
  2
*D11
340
0
  0
BLOCK_RECORD
  5
1A0
330
1
100
AcDbSymbolTableRecord
100
AcDbBlockTableRecord
  2
*D12
340
0
  0
BLOCK_RECORD
  5
1AB
330
1
100
AcDbSymbolTableRecord
100
AcDbBlockTableRecord
  2
*D13
340
0
  0
BLOCK_RECORD
  5
1B6
330
1
100
AcDbSymbolTableRecord
100
AcDbBlockTableRecord
  2
*D14
340
0
102
{BLKREFS
331
1BD
102
}
  0
BLOCK_RECORD
  5
1BE
330
1
100
AcDbSymbolTableRecord
100
AcDbBlockTableRecord
  2
*D15
340
0
102
{BLKREFS
331
1C4
102
}
  0
BLOCK_RECORD
  5
1C5
330
1
100
AcDbSymbolTableRecord
100
AcDbBlockTableRecord
  2
*D16
340
0
102
{BLKREFS
331
1CC
102
}
  0
ENDTAB
  0
ENDSEC
  0
SECTION
  2
BLOCKS
  0
BLOCK
  5
20
330
1F
100
AcDbEntity
  8
0
100
AcDbBlockBegin
  2
*Model_Space
 70
     0
 10
0.0
 20
0.0
 30
0.0
  3
*Model_Space
  1

  0
ENDBLK
  5
21
330
1F
100
AcDbEntity
  8
0
100
AcDbBlockEnd
  0
BLOCK
  5
1C
330
1B
100
AcDbEntity
 67
     1
  8
0
100
AcDbBlockBegin
  2
*Paper_Space
 70
     0
 10
0.0
 20
0.0
 30
0.0
  3
*Paper_Space
  1

  0
ENDBLK
  5
1D
330
1B
100
AcDbEntity
 67
     1
  8
0
100
AcDbBlockEnd
  0
BLOCK
  5
24
330
23
100
AcDbEntity
  8
0
100
AcDbBlockBegin
  2
*Paper_Space0
 70
     0
 10
0.0
 20
0.0
 30
0.0
  3
*Paper_Space0
  1

  0
ENDBLK
  5
25
330
23
100
AcDbEntity
  8
0
100
AcDbBlockEnd
  0
BLOCK
  5
4C
330
4B
100
AcDbEntity
  8
0
100
AcDbBlockBegin
  2
H543-340-H1__1
 70
     0
 10
264.1301998193161
 20
625.2593166005909
 30
0.0
  3
H543-340-H1__1
  1

  0
LINE
  5
5B
330
4B
100
AcDbEntity
  8
_0-1_
  6
Continuous
 62
     7
100
AcDbLine
 10
378.23587
 20
254.2728164813231
 30
0.0
 11
247.31921
 21
254.2728164813231
 31
0.0
  0
LINE
  5
5C
330
4B
100
AcDbEntity
  8
_0-A_
  6
Continuous
 62
     7
100
AcDbLine
 10
249.31634
 20
254.2728164813231
 30
0.0
 11
366.31634
 21
254.2728164813231
 31
0.0
  0
ENDBLK
  5
4D
330
4B
100
AcDbEntity
  8
0
100
AcDbBlockEnd
  0
BLOCK
  5
50
330
4E
100
AcDbEntity
  8
0
100
AcDbBlockBegin
  2
H543-340
 70
     0
 10
64.263510051475
 20
1114.16027423636
 30
0.0
  3
H543-340
  1

  0
INSERT
  5
4F
330
4E
100
AcDbEntity
  8
0
100
AcDbBlockReference
  2
H543-340-H1__1
 10
264.1301998193161
 20
625.2593166005909
 30
0.0
  0
ENDBLK
  5
51
330
4E
100
AcDbEntity
  8
0
100
AcDbBlockEnd
  0
BLOCK
  5
53
330
52
100
AcDbEntity
  8
0
100
AcDbBlockBegin
  2
開示A4
 70
     0
 10
0.0
 20
0.0
 30
0.0
  3
開示A4
  1

  0
POINT
  5
5D
330
52
100
AcDbEntity
  8
1
 62
     4
100
AcDbPoint
 10
34.0
 20
34.00000000000001
 30
0.0
  0
POINT
  5
5E
330
52
100
AcDbEntity
  8
1
 62
     4
100
AcDbPoint
 10
57.0
 20
12.25
 30
0.0
  0
POINT
  5
5F
330
52
100
AcDbEntity
  8
1
 62
     4
100
AcDbPoint
 10
57.0
 20
20.75000000000001
 30
0.0
  0
POINT
  5
60
330
52
100
AcDbEntity
  8
1
 62
     4
100
AcDbPoint
 10
57.0
 20
24.75000000000001
 30
0.0
  0
POINT
  5
61
330
52
100
AcDbEntity
  8
1
 62
     4
100
AcDbPoint
 10
57.0
 20
16.25
 30
0.0
  0
POINT
  5
62
330
52
100
AcDbEntity
  8
1
 62
     4
100
AcDbPoint
 10
157.5
 20
19.00000000000001
 30
0.0
  0
POINT
  5
63
330
52
100
AcDbEntity
  8
1
 62
     4
100
AcDbPoint
 10
47.5
 20
282.0000000000003
 30
0.0
  0
POINT
  5
64
330
52
100
AcDbEntity
  8
1
 62
     4
100
AcDbPoint
 10
57.0
 20
22.75000000000001
 30
0.0
  0
POINT
  5
65
330
52
100
AcDbEntity
  8
1
 62
     4
100
AcDbPoint
 10
57.0
 20
14.25
 30
0.0
  0
POINT
  5
66
330
52
100
AcDbEntity
  8
1
 62
     4
100
AcDbPoint
 10
157.5
 20
12.5
 30
0.0
  0
POINT
  5
67
330
52
100
AcDbEntity
  8
1
 62
     4
100
AcDbPoint
 10
163.25
 20
12.5
 30
0.0
  0
POINT
  5
68
330
52
100
AcDbEntity
  8
1
 62
     4
100
AcDbPoint
 10
151.75
 20
12.5
 30
0.0
  0
POINT
  5
69
330
52
100
AcDbEntity
  8
1
 62
     4
100
AcDbPoint
 10
134.75
 20
12.5
 30
0.0
  0
POINT
  5
6A
330
52
100
AcDbEntity
  8
1
 62
     4
100
AcDbPoint
 10
146.25
 20
12.5
 30
0.0
  0
POINT
  5
6B
330
52
100
AcDbEntity
  8
1
 62
     4
100
AcDbPoint
 10
140.5
 20
12.5
 30
0.0
  0
POINT
  5
6C
330
52
100
AcDbEntity
  8
1
 62
     4
100
AcDbPoint
 10
140.5
 20
19.00000000000001
 30
0.0
  0
POINT
  5
6D
330
52
100
AcDbEntity
  8
1
 62
     4
100
AcDbPoint
 10
117.75
 20
12.5
 30
0.0
  0
POINT
  5
6E
330
52
100
AcDbEntity
  8
1
 62
     4
100
AcDbPoint
 10
129.25
 20
12.5
 30
0.0
  0
POINT
  5
6F
330
52
100
AcDbEntity
  8
1
 62
     4
100
AcDbPoint
 10
123.5
 20
12.5
 30
0.0
  0
POINT
  5
70
330
52
100
AcDbEntity
  8
1
 62
     4
100
AcDbPoint
 10
123.5
 20
19.00000000000001
 30
0.0
  0
POINT
  5
71
330
52
100
AcDbEntity
  8
1
 62
     4
100
AcDbPoint
 10
100.75
 20
12.5
 30
0.0
  0
POINT
  5
72
330
52
100
AcDbEntity
  8
1
 62
     4
100
AcDbPoint
 10
112.25
 20
12.5
 30
0.0
  0
POINT
  5
73
330
52
100
AcDbEntity
  8
1
 62
     4
100
AcDbPoint
 10
106.5
 20
12.5
 30
0.0
  0
POINT
  5
74
330
52
100
AcDbEntity
  8
1
 62
     4
100
AcDbPoint
 10
106.5
 20
19.00000000000001
 30
0.0
  0
POINT
  5
75
330
52
100
AcDbEntity
  8
1
 62
     4
100
AcDbPoint
 10
85.25
 20
17.0
 30
0.0
  0
POINT
  5
76
330
52
100
AcDbEntity
  8
1
 62
     4
100
AcDbPoint
 10
93.75
 20
17.0
 30
0.0
  0
LINE
  5
77
330
52
100
AcDbEntity
  8
1
  6
Continuous
 62
     2
100
AcDbLine
 10
81.0
 20
27.00000000000001
 30
0.0
 11
81.0
 21
10.0
 31
0.0
  0
LINE
  5
78
330
52
100
AcDbEntity
  8
1
  6
DOT_CENTER
 62
     2
100
AcDbLine
 10
187.0
 20
26.50000000000001
 30
0.0
 11
187.0
 21
20.50000000000001
 31
0.0
  0
LINE
  5
79
330
52
100
AcDbEntity
  8
1
  6
DOT_CENTER
 62
     2
100
AcDbLine
 10
184.0
 20
23.50000000000001
 30
0.0
 11
197.0
 21
23.50000000000001
 31
0.0
  0
LINE
  5
7A
330
52
100
AcDbEntity
  8
1
  6
Continuous
 62
     7
100
AcDbLine
 10
196.0
 20
21.50000000000001
 30
0.0
 11
191.0
 21
22.30000000000001
 31
0.0
  0
LINE
  5
7B
330
52
100
AcDbEntity
  8
1
  6
Continuous
 62
     7
100
AcDbLine
 10
196.0
 20
25.50000000000001
 30
0.0
 11
196.0
 21
21.50000000000001
 31
0.0
  0
LINE
  5
7C
330
52
100
AcDbEntity
  8
1
  6
Continuous
 62
     7
100
AcDbLine
 10
191.0
 20
24.70000000000001
 30
0.0
 11
196.0
 21
25.50000000000001
 31
0.0
  0
LINE
  5
7D
330
52
100
AcDbEntity
  8
1
  6
Continuous
 62
     7
100
AcDbLine
 10
191.0
 20
24.70000000000001
 30
0.0
 11
191.0
 21
22.30000000000001
 31
0.0
  0
LINE
  5
7E
330
52
100
AcDbEntity
  8
1
  6
Continuous
 62
     2
100
AcDbLine
 10
33.0
 20
27.0
 30
0.0
 11
33.0
 21
10.0
 31
0.0
  0
LINE
  5
7F
330
52
100
AcDbEntity
  8
1
  6
Continuous
 62
     2
100
AcDbLine
 10
25.0
 20
18.50000000000001
 30
0.0
 11
81.0
 21
18.50000000000001
 31
0.0
  0
LINE
  5
80
330
52
100
AcDbEntity
  8
1
  6
Continuous
 62
     7
100
AcDbLine
 10
200.0
 20
287.0000000000003
 30
0.0
 11
105.0
 21
287.0000000000003
 31
0.0
  0
LINE
  5
81
330
52
100
AcDbEntity
  8
1
  6
Continuous
 62
     7
100
AcDbLine
 10
200.0
 20
10.0
 30
0.0
 11
200.0
 21
148.5
 31
0.0
  0
LINE
  5
82
330
52
100
AcDbEntity
  8
1
  6
Continuous
 62
     7
100
AcDbLine
 10
25.0
 20
10.0
 30
0.0
 11
105.0
 21
10.0
 31
0.0
  0
LINE
  5
83
330
52
100
AcDbEntity
  8
1
  6
PHANTOM
 62
     4
100
AcDbLine
 10
0.0
 20
297.0
 30
0.0
 11
0.0
 21
0.0
 31
0.0
  0
LINE
  5
84
330
52
100
AcDbEntity
  8
1
  6
PHANTOM
 62
     4
100
AcDbLine
 10
210.0
 20
297.0
 30
0.0
 11
0.0
 21
297.0
 31
0.0
  0
LINE
  5
85
330
52
100
AcDbEntity
  8
1
  6
PHANTOM
 62
     4
100
AcDbLine
 10
210.0
 20
0.0
 30
0.0
 11
210.0
 21
297.0
 31
0.0
  0
LINE
  5
86
330
52
100
AcDbEntity
  8
1
  6
PHANTOM
 62
     4
100
AcDbLine
 10
0.0
 20
0.0
 30
0.0
 11
210.0
 21
0.0
 31
0.0
  0
LINE
  5
87
330
52
100
AcDbEntity
  8
1
  6
Continuous
 62
     7
100
AcDbLine
 10
25.0
 20
41.0
 30
0.0
 11
200.0
 21
41.0
 31
0.0
  0
LINE
  5
88
330
52
100
AcDbEntity
  8
1
  6
Continuous
 62
     7
100
AcDbLine
 10
200.0
 20
27.00000000000001
 30
0.0
 11
25.0
 21
27.00000000000001
 31
0.0
  0
LINE
  5
89
330
52
100
AcDbEntity
  8
1
  6
Continuous
 62
     2
100
AcDbLine
 10
33.0
 20
41.00000000000001
 30
0.0
 11
33.0
 21
27.0
 31
0.0
  0
LINE
  5
8A
330
52
100
AcDbEntity
  8
1
  6
Continuous
 62
     2
100
AcDbLine
 10
55.0
 20
287.0000000000003
 30
0.0
 11
55.0
 21
277.0000000000003
 31
0.0
  0
LINE
  5
8B
330
52
100
AcDbEntity
  8
1
  6
Continuous
 62
     2
100
AcDbLine
 10
40.0
 20
287.0000000000003
 30
0.0
 11
40.0
 21
277.0000000000003
 31
0.0
  0
LINE
  5
8C
330
52
100
AcDbEntity
  8
1
  6
Continuous
 62
     7
100
AcDbLine
 10
25.0
 20
10.0
 30
0.0
 11
25.0
 21
148.5
 31
0.0
  0
LINE
  5
8D
330
52
100
AcDbEntity
  8
1
  6
Continuous
 62
     2
100
AcDbLine
 10
55.0
 20
277.0000000000003
 30
0.0
 11
25.0
 21
277.0000000000003
 31
0.0
  0
LINE
  5
8E
330
52
100
AcDbEntity
  8
1
  6
Continuous
 62
     2
100
AcDbLine
 10
166.0
 20
27.00000000000001
 30
0.0
 11
166.0
 21
10.0
 31
0.0
  0
LINE
  5
8F
330
52
100
AcDbEntity
  8
1
  6
Continuous
 62
     2
100
AcDbLine
 10
132.0
 20
27.00000000000001
 30
0.0
 11
132.0
 21
9.99999999999999
 31
0.0
  0
LINE
  5
90
330
52
100
AcDbEntity
  8
1
  6
Continuous
 62
     2
100
AcDbLine
 10
149.0
 20
27.00000000000001
 30
0.0
 11
149.0
 21
10.0
 31
0.0
  0
LINE
  5
91
330
52
100
AcDbEntity
  8
1
  6
Continuous
 62
     2
100
AcDbLine
 10
115.0
 20
27.00000000000001
 30
0.0
 11
115.0
 21
9.99999999999999
 31
0.0
  0
LINE
  5
92
330
52
100
AcDbEntity
  8
1
  6
Continuous
 62
     2
100
AcDbLine
 10
98.0
 20
27.00000000000001
 30
0.0
 11
98.0
 21
9.99999999999999
 31
0.0
  0
LINE
  5
93
330
52
100
AcDbEntity
  8
1
  6
Continuous
 62
     2
100
AcDbLine
 10
166.0
 20
20.00000000000001
 30
0.0
 11
200.0
 21
20.00000000000001
 31
0.0
  0
LINE
  5
94
330
52
100
AcDbEntity
  8
1
  6
Continuous
 62
     2
100
AcDbLine
 10
105.0
 20
287.0000000000003
 30
0.0
 11
105.0
 21
292.0000000000003
 31
0.0
  0
LINE
  5
95
330
52
100
AcDbEntity
  8
1
  6
Continuous
 62
     7
100
AcDbLine
 10
105.0
 20
287.0000000000003
 30
0.0
 11
25.0
 21
287.0000000000003
 31
0.0
  0
LINE
  5
96
330
52
100
AcDbEntity
  8
1
  6
Continuous
 62
     2
100
AcDbLine
 10
25.0
 20
148.5
 30
0.0
 11
20.0
 21
148.5
 31
0.0
  0
LINE
  5
97
330
52
100
AcDbEntity
  8
1
  6
Continuous
 62
     7
100
AcDbLine
 10
25.0
 20
148.5
 30
0.0
 11
25.0
 21
287.0000000000003
 31
0.0
  0
LINE
  5
98
330
52
100
AcDbEntity
  8
1
  6
Continuous
 62
     2
100
AcDbLine
 10
200.0
 20
148.5
 30
0.0
 11
205.0
 21
148.5
 31
0.0
  0
LINE
  5
99
330
52
100
AcDbEntity
  8
1
  6
Continuous
 62
     7
100
AcDbLine
 10
200.0
 20
148.5
 30
0.0
 11
200.0
 21
287.0000000000003
 31
0.0
  0
LINE
  5
9A
330
52
100
AcDbEntity
  8
1
  6
Continuous
 62
     2
100
AcDbLine
 10
105.0
 20
10.0
 30
0.0
 11
105.0
 21
5.0
 31
0.0
  0
LINE
  5
9B
330
52
100
AcDbEntity
  8
1
  6
Continuous
 62
     7
100
AcDbLine
 10
105.0
 20
10.0
 30
0.0
 11
200.0
 21
10.0
 31
0.0
  0
CIRCLE
  5
9C
330
52
100
AcDbEntity
  8
1
  6
DOT_CENTER
 62
     7
100
AcDbCircle
 10
89.5
 20
18.0
 30
0.0
 40
0.1000000000000227
  0
CIRCLE
  5
9D
330
52
100
AcDbEntity
  8
1
  6
DOT_CENTER
 62
     7
100
AcDbCircle
 10
89.5
 20
16.0
 30
0.0
 40
0.1000000000000227
  0
CIRCLE
  5
9E
330
52
100
AcDbEntity
  8
1
  6
Continuous
 62
     7
100
AcDbCircle
 10
187.0
 20
23.50000000000001
 30
0.0
 40
2.0
  0
CIRCLE
  5
9F
330
52
100
AcDbEntity
  8
1
  6
Continuous
 62
     7
100
AcDbCircle
 10
187.0
 20
23.50000000000001
 30
0.0
 40
1.200000000000102
  0
CIRCLE
  5
A0
330
52
100
AcDbEntity
  8
1
  6
Continuous
 62
     7
100
AcDbCircle
 10
154.5
 20
12.5
 30
0.0
 40
0.3000000000000114
  0
CIRCLE
  5
A1
330
52
100
AcDbEntity
  8
1
  6
Continuous
 62
     7
100
AcDbCircle
 10
160.5
 20
12.5
 30
0.0
 40
0.3000000000000114
  0
CIRCLE
  5
A2
330
52
100
AcDbEntity
  8
1
  6
Continuous
 62
     7
100
AcDbCircle
 10
143.5
 20
12.5
 30
0.0
 40
0.3000000000000114
  0
CIRCLE
  5
A3
330
52
100
AcDbEntity
  8
1
  6
Continuous
 62
     7
100
AcDbCircle
 10
137.5
 20
12.5
 30
0.0
 40
0.3000000000000114
  0
CIRCLE
  5
A4
330
52
100
AcDbEntity
  8
1
  6
Continuous
 62
     7
100
AcDbCircle
 10
126.5
 20
12.5
 30
0.0
 40
0.2999999999999972
  0
CIRCLE
  5
A5
330
52
100
AcDbEntity
  8
1
  6
Continuous
 62
     7
100
AcDbCircle
 10
120.5
 20
12.5
 30
0.0
 40
0.2999999999999972
  0
CIRCLE
  5
A6
330
52
100
AcDbEntity
  8
1
  6
Continuous
 62
     7
100
AcDbCircle
 10
109.5
 20
12.5
 30
0.0
 40
0.2999999999999972
  0
CIRCLE
  5
A7
330
52
100
AcDbEntity
  8
1
  6
Continuous
 62
     7
100
AcDbCircle
 10
103.5
 20
12.5
 30
0.0
 40
0.2999999999999972
  0
MTEXT
  5
A9
330
52
100
AcDbEntity
  8
1
 62
   250
100
AcDbMText
 10
25.0
 20
5.0
 30
0.0
 40
3.5
 41
0.0
 71
     4
 72
     1
  1
備考欄の文字列 原点位置=4
  7
CONVERTER_11
 73
     1
 44
0.54545454545455
  0
MTEXT
  5
AA
330
52
100
AcDbEntity
  8
1
 62
     2
100
AcDbMText
 10
89.5
 20
24.00000000000001
 30
0.0
 40
3.5
 41
0.0
 71
     5
 72
     1
  1
尺度
  7
CONVERTER_11
 73
     1
 44
0.54545454545455
  0
MTEXT
  5
AB
330
52
100
AcDbEntity
  8
1
 62
     2
100
AcDbMText
 10
135.5
 20
25.00000000000001
 30
0.0
 40
3.0
 41
0.0
 71
     5
 72
     1
  1
製図
  7
CONVERTER_11
 73
     1
 44
0.59090909090909
  0
MTEXT
  5
AC
330
52
100
AcDbEntity
  8
1
 62
     2
100
AcDbMText
 10
152.5
 20
25.00000000000001
 30
0.0
 40
3.0
 41
0.0
 71
     5
 72
     1
  1
設計
  7
CONVERTER_11
 73
     1
 44
0.59090909090909
  0
MTEXT
  5
AD
330
52
100
AcDbEntity
  8
1
 62
     2
100
AcDbMText
 10
118.5
 20
25.00000000000001
 30
0.0
 40
3.0
 41
0.0
 71
     5
 72
     1
  1
検図
  7
CONVERTER_11
 73
     1
 44
0.59090909090909
  0
MTEXT
  5
AE
330
52
100
AcDbEntity
  8
1
 62
     2
100
AcDbMText
 10
175.0
 20
23.50000000000001
 30
0.0
 40
3.5
 41
0.0
 71
     5
 72
     1
  1
第三角法
  7
CONVERTER_11
 73
     1
 44
0.54545454545455
  0
MTEXT
  5
AF
330
52
100
AcDbEntity
  8
1
 62
     2
100
AcDbMText
 10
101.5
 20
25.00000000000001
 30
0.0
 40
3.0
 41
0.0
 71
     5
 72
     1
  1
承認
  7
CONVERTER_11
 73
     1
 44
0.59090909090909
  0
MTEXT
  5
B0
330
52
100
AcDbEntity
  8
1
 62
     2
100
AcDbMText
 10
29.0
 20
14.25
 30
0.0
 40
3.5
 41
0.0
 71
     5
 72
     1
  1
品番
  7
CONVERTER_11
 73
     1
 44
0.72727272727273
  0
MTEXT
  5
B1
330
52
100
AcDbEntity
  8
1
 62
     2
100
AcDbMText
 10
29.0
 20
22.75
 30
0.0
 40
3.5
 41
0.0
 71
     5
 72
     1
  1
品名
  7
CONVERTER_11
 73
     1
 44
0.72727272727273
  0
MTEXT
  5
B2
330
52
100
AcDbEntity
  8
1
 62
     2
100
AcDbMText
 10
29.0
 20
34.00000000000001
 30
0.0
 40
3.5
 41
0.0
 71
     5
 72
     1
  1
備考
  7
CONVERTER_11
 73
     1
 44
0.45454545454545
  0
MTEXT
  5
B3
330
52
100
AcDbEntity
  8
1
 62
     2
100
AcDbMText
 10
32.5
 20
282.0000000000003
 30
0.0
 40
5.0
 41
0.0
 71
     5
 72
     1
  1
図番
  7
CONVERTER_11
 73
     1
 44
0.45454545454545
  0
MTEXT
  5
B4
330
52
100
AcDbEntity
  8
1
 62
     7
100
AcDbMText
 10
171.5
 20
15.0
 30
0.0
 40
2.5
 41
0.0
 71
     5
 72
     1
  1
株式会社
  7
CONVERTER_11
 73
     1
 44
1.0
  0
MTEXT
  5
B5
330
52
100
AcDbEntity
  8
1
 62
     7
100
AcDbMText
 10
188.5
 20
15.0
 30
0.0
 40
3.0
 41
0.0
 71
     5
 72
     1
  1
三栄水栓製作所
  7
CONVERTER_11
 73
     1
 44
1.0
  0
ENDBLK
  5
54
330
52
100
AcDbEntity
  8
0
100
AcDbBlockEnd
  0
BLOCK
  5
56
330
55
100
AcDbEntity
  8
0
100
AcDbBlockBegin
  2
H543-340-H1__2
 70
     0
 10
322.866689767841
 20
800.0990423642311
 30
0.0
  3
H543-340-H1__2
  1

  0
LINE
  5
B6
330
55
100
AcDbEntity
  8
_0-1_
  6
Continuous
 62
     7
100
AcDbLine
 10
253.6644832340881
 20
257.7728164813232
 30
0.0
 11
247.31921
 21
257.7728164813231
 31
0.0
  0
LINE
  5
B7
330
55
100
AcDbEntity
  8
_0-1_
  6
Continuous
 62
     7
100
AcDbLine
 10
247.31921
 20
254.2728164813231
 30
0.0
 11
236.40254
 21
254.2728164813231
 31
0.0
  0
LINE
  5
B8
330
55
100
AcDbEntity
  8
_0-1_
  6
Continuous
 62
     7
100
AcDbLine
 10
247.31921
 20
257.7728164813231
 30
0.0
 11
238.01346
 21
257.7728164813231
 31
0.0
  0
LINE
  5
B9
330
55
100
AcDbEntity
  8
_0-1_
  6
Continuous
 62
     7
100
AcDbLine
 10
234.31921
 20
269.7728164813231
 30
0.0
 11
252.8833717642472
 21
269.7728164813232
 31
0.0
  0
LINE
  5
BA
330
55
100
AcDbEntity
  8
1
  6
PHANTOM
 62
     4
100
AcDbLine
 10
234.73701
 20
267.2660064813233
 30
0.0
 11
234.31921
 21
269.7728164813231
 31
0.0
  0
LINE
  5
BB
330
55
100
AcDbEntity
  8
1
  6
PHANTOM
 62
     4
100
AcDbLine
 10
157.52738
 20
306.9971864813232
 30
0.0
 11
157.31921
 21
309.7728164813231
 31
0.0
  0
LINE
  5
BC
330
55
100
AcDbEntity
  8
_0-A_
  6
Continuous
 62
     7
100
AcDbLine
 10
157.31921
 20
309.7728164813231
 30
0.0
 11
249.983356940275
 21
309.7728164813232
 31
0.0
  0
LINE
  5
BD
330
55
100
AcDbEntity
  8
_0-A_
  6
Continuous
 62
     7
100
AcDbLine
 10
152.68016
 20
306.7728164813231
 30
0.0
 11
152.31921
 21
306.7728164813231
 31
0.0
  0
LINE
  5
BE
330
55
100
AcDbEntity
  8
_0-1_
  6
Continuous
 62
     7
100
AcDbLine
 10
231.77783
 20
269.7728164813231
 30
0.0
 11
234.31921
 21
269.7728164813231
 31
0.0
  0
LINE
  5
BF
330
55
100
AcDbEntity
  8
_0-1_
  6
Continuous
 62
     7
100
AcDbLine
 10
154.53578
 20
309.7728164813231
 30
0.0
 11
157.31921
 21
309.7728164813231
 31
0.0
  0
LINE
  5
C0
330
55
100
AcDbEntity
  8
_0-1_
  6
Continuous
 62
     7
100
AcDbLine
 10
233.44336
 20
256.7796164813232
 30
0.0
 11
232.05636
 21
265.1016064813231
 31
0.0
  0
LINE
  5
C1
330
55
100
AcDbEntity
  8
_0-1_
  6
Continuous
 62
     7
100
AcDbLine
 10
247.31921
 20
257.7728164813231
 30
0.0
 11
247.31921
 21
254.2728164813231
 31
0.0
  0
LINE
  5
C2
330
55
100
AcDbEntity
  8
_0-1_
  6
Continuous
 62
     7
100
AcDbLine
 10
156.6337
 20
278.8005464813231
 30
0.0
 11
154.67456
 21
304.9223964813231
 31
0.0
  0
LINE
  5
C3
330
55
100
AcDbEntity
  8
_0-1_
  6
Continuous
 62
     7
100
AcDbLine
 10
169.59729
 20
266.7728164813231
 30
0.0
 11
230.08357
 21
266.7728164813231
 31
0.0
  0
LINE
  5
C4
330
55
100
AcDbEntity
  8
_0-1_
  6
Continuous
 62
     7
100
AcDbLine
 10
137.31921
 20
307.7728164813231
 30
0.0
 11
137.31921
 21
306.7728164813231
 31
0.0
  0
LINE
  5
C5
330
55
100
AcDbEntity
  8
_0-1_
  6
Continuous
 62
     7
100
AcDbLine
 10
152.68016
 20
306.7728164813231
 30
0.0
 11
137.31921
 21
306.7728164813231
 31
0.0
  0
LINE
  5
C6
330
55
100
AcDbEntity
  8
_0-1_
  6
Continuous
 62
     7
100
AcDbLine
 10
157.31921
 20
309.7728164813231
 30
0.0
 11
139.31921
 21
309.7728164813231
 31
0.0
  0
LINE
  5
C7
330
55
100
AcDbEntity
  8
_0-1_
  6
Continuous
 62
     7
100
AcDbLine
 10
159.6253
 20
279.0249164813233
 30
0.0
 11
157.52738
 21
306.9971864813232
 31
0.0
  0
LINE
  5
C8
330
55
100
AcDbEntity
  8
_0-1_
  6
Continuous
 62
     7
100
AcDbLine
 10
169.59729
 20
269.7728164813231
 30
0.0
 11
234.31921
 21
269.7728164813231
 31
0.0
  0
LINE
  5
C9
330
55
100
AcDbEntity
  8
_0-1_
  6
Continuous
 62
     7
100
AcDbLine
 10
236.04067
 20
259.4440164813231
 30
0.0
 11
234.73701
 21
267.2660064813233
 31
0.0
  0
LINE
  5
CA
330
55
100
AcDbEntity
  8
_0-1_
  6
Continuous
 62
     7
100
AcDbLine
 10
249.983356940275
 20
309.7728164813232
 30
0.0
 11
457.3192099999999
 21
309.7728164813232
 31
0.0
  0
LINE
  5
CB
330
55
100
AcDbEntity
  8
_0-1_
  6
Continuous
 62
     7
100
AcDbLine
 10
255.0332068946892
 20
266.7728164813233
 30
0.0
 11
384.5548399999999
 21
266.7728164813232
 31
0.0
  0
LINE
  5
CC
330
55
100
AcDbEntity
  8
_0-1_
  6
Continuous
 62
     7
100
AcDbLine
 10
575.2135
 20
637.0295000000001
 30
0.0
 11
575.2135
 21
481.5856700000002
 31
0.0
  0
LINE
  5
CD
330
55
100
AcDbEntity
  8
_0-1_
  6
Continuous
 62
     7
100
AcDbLine
 10
447.3192099999999
 20
659.3075900000001
 30
0.0
 11
167.31921
 21
659.3075900000001
 31
0.0
  0
LINE
  5
CE
330
55
100
AcDbEntity
  8
_0-A_
  6
DASHED
 62
     2
100
AcDbLine
 10
462.3192099999999
 20
654.3075900000001
 30
0.0
 11
152.31921
 21
654.3075900000001
 31
0.0
  0
LINE
  5
CF
330
55
100
AcDbEntity
  8
_0-1_
  6
Continuous
 62
     7
100
AcDbLine
 10
437.3192099999999
 20
649.3075900000001
 30
0.0
 11
177.31921
 21
649.3075900000001
 31
0.0
  0
LINE
  5
D0
330
55
100
AcDbEntity
  8
_0-A_
  6
DASHED
 62
     2
100
AcDbLine
 10
152.31921
 20
654.3075900000001
 30
0.0
 11
152.31921
 21
464.3075900000001
 31
0.0
  0
LINE
  5
D1
330
55
100
AcDbEntity
  8
_0-1_
  6
Continuous
 62
     7
100
AcDbLine
 10
157.31921
 20
489.3075900000001
 30
0.0
 11
157.31921
 21
629.3075900000001
 31
0.0
  0
LINE
  5
D2
330
55
100
AcDbEntity
  8
_0-1_
  6
Continuous
 62
     7
100
AcDbLine
 10
137.31921
 20
629.3075900000001
 30
0.0
 11
137.31921
 21
489.3075900000001
 31
0.0
  0
LINE
  5
D3
330
55
100
AcDbEntity
  8
_0-A_
  6
DASHED
 62
     2
100
AcDbLine
 10
152.31921
 20
464.3075900000001
 30
0.0
 11
462.3192099999999
 21
464.3075900000001
 31
0.0
  0
LINE
  5
D4
330
55
100
AcDbEntity
  8
_0-1_
  6
Continuous
 62
     7
100
AcDbLine
 10
437.3192099999999
 20
469.3075900000001
 30
0.0
 11
177.31921
 21
469.3075900000001
 31
0.0
  0
LINE
  5
D5
330
55
100
AcDbEntity
  8
_0-1_
  6
Continuous
 62
     7
100
AcDbLine
 10
447.3192099999999
 20
459.3075900000001
 30
0.0
 11
167.31921
 21
459.3075900000001
 31
0.0
  0
LINE
  5
D6
330
55
100
AcDbEntity
  8
_0-1_
  6
Continuous
 62
     7
100
AcDbLine
 10
457.3192099999999
 20
629.3075900000001
 30
0.0
 11
457.3192099999999
 21
489.3075900000001
 31
0.0
  0
LINE
  5
D7
330
55
100
AcDbEntity
  8
_0-1_
  6
Continuous
 62
     7
100
AcDbLine
 10
477.3192099999999
 20
489.3075900000001
 30
0.0
 11
477.3192099999999
 21
629.3075900000001
 31
0.0
  0
LINE
  5
D8
330
55
100
AcDbEntity
  8
_0-A_
  6
DASHED
 62
     2
100
AcDbLine
 10
462.3192099999999
 20
464.3075900000001
 30
0.0
 11
462.3192099999999
 21
654.3075900000001
 31
0.0
  0
LINE
  5
D9
330
55
100
AcDbEntity
  8
_0-1_
  6
Continuous
 62
     7
100
AcDbLine
 10
461.9582499999999
 20
306.7728164813232
 30
0.0
 11
248.5268254896922
 21
306.7728164813233
 31
0.0
  0
LINE
  5
DA
330
55
100
AcDbEntity
  8
_0-1_
  6
Continuous
 62
     7
100
AcDbLine
 10
457.3192099999999
 20
309.7728164813232
 30
0.0
 11
475.3192099999999
 21
309.7728164813232
 31
0.0
  0
LINE
  5
DB
330
55
100
AcDbEntity
  8
_0-1_
  6
Continuous
 62
     7
100
AcDbLine
 10
384.5548399999999
 20
266.7728164813232
 30
0.0
 11
445.0411199999999
 21
266.7728164813232
 31
0.0
  0
LINE
  5
DC
330
55
100
AcDbEntity
  8
_0-1_
  6
Continuous
 62
     7
100
AcDbLine
 10
477.3192099999999
 20
307.7728164813232
 30
0.0
 11
477.3192099999999
 21
306.7728164813232
 31
0.0
  0
LINE
  5
DD
330
55
100
AcDbEntity
  8
_0-1_
  6
Continuous
 62
     7
100
AcDbLine
 10
458.0047099999999
 20
278.8005464813232
 30
0.0
 11
459.9638499999999
 21
304.9223964813232
 31
0.0
  0
LINE
  5
DE
330
55
100
AcDbEntity
  8
_0-1_
  6
Continuous
 62
     7
100
AcDbLine
 10
382.5820599999999
 20
265.1016064813231
 30
0.0
 11
381.1950599999999
 21
256.7796164813232
 31
0.0
  0
LINE
  5
DF
330
55
100
AcDbEntity
  8
_0-1_
  6
Continuous
 62
     7
100
AcDbLine
 10
461.9582499999999
 20
306.7728164813232
 30
0.0
 11
477.3192099999999
 21
306.7728164813232
 31
0.0
  0
LINE
  5
E0
330
55
100
AcDbEntity
  8
_0-1_
  6
Continuous
 62
     7
100
AcDbLine
 10
575.2135
 20
637.0295000000001
 30
0.0
 11
575.2135
 21
636.5432200000001
 31
0.0
  0
LINE
  5
E1
330
55
100
AcDbEntity
  8
_0-1_
  6
Continuous
 62
     7
100
AcDbLine
 10
575.2135
 20
481.5856700000002
 30
0.0
 11
575.2135
 21
482.0719500000001
 31
0.0
  0
LINE
  5
E2
330
55
100
AcDbEntity
  8
_0-1_
  6
Continuous
 62
     7
100
AcDbLine
 10
576.8847
 20
484.0447400000001
 30
0.0
 11
585.2067
 21
485.4317400000001
 31
0.0
  0
LINE
  5
E3
330
55
100
AcDbEntity
  8
_0-1_
  6
Continuous
 62
     7
100
AcDbLine
 10
576.8847
 20
634.5704400000002
 30
0.0
 11
585.2067
 21
633.1834400000001
 31
0.0
  0
LINE
  5
E4
330
55
100
AcDbEntity
  8
_0-1_
  6
Continuous
 62
     7
100
AcDbLine
 10
587.7135
 20
630.2242600000002
 30
0.0
 11
587.7135
 21
488.3909200000001
 31
0.0
  0
LINE
  5
E5
330
55
100
AcDbEntity
  8
_0-1_
  6
Continuous
 62
     7
100
AcDbLine
 10
585.2067
 20
485.4317400000001
 30
0.0
 11
576.8847
 21
484.0447400000001
 31
0.0
  0
LINE
  5
E6
330
55
100
AcDbEntity
  8
_0-1_
  6
Continuous
 62
     7
100
AcDbLine
 10
563.1907915382849
 20
649.9927133843885
 30
0.0
 11
563.180748203906
 21
649.9934666349475
 31
0.0
  0
LINE
  5
E7
330
55
100
AcDbEntity
  8
_0-1_
  6
Continuous
 62
     7
100
AcDbLine
 10
535.2135000000001
 20
653.9466300000001
 30
0.0
 11
535.2135000000001
 21
659.3075900000001
 31
0.0
  0
LINE
  5
E8
330
55
100
AcDbEntity
  8
_0-1_
  6
Continuous
 62
     7
100
AcDbLine
 10
534.2135000000001
 20
659.3075900000001
 30
0.0
 11
535.2135000000001
 21
659.3075900000001
 31
0.0
  0
LINE
  5
E9
330
55
100
AcDbEntity
  8
_0-1_
  6
Continuous
 62
     7
100
AcDbLine
 10
563.1857700000002
 20
468.6220800000001
 30
0.0
 11
537.0639200000002
 21
466.6629400000002
 31
0.0
  0
LINE
  5
EA
330
55
100
AcDbEntity
  8
_0-1_
  6
Continuous
 62
     7
100
AcDbLine
 10
532.2135000000001
 20
461.3075900000001
 30
0.0
 11
532.2135000000001
 21
469.3075900000001
 31
0.0
  0
LINE
  5
EB
330
55
100
AcDbEntity
  8
_0-1_
  6
Continuous
 62
     7
100
AcDbLine
 10
534.2135000000001
 20
459.3075900000001
 30
0.0
 11
535.2135000000001
 21
459.3075900000001
 31
0.0
  0
LINE
  5
EC
330
55
100
AcDbEntity
  8
_0-1_
  6
Continuous
 62
     7
100
AcDbLine
 10
535.2135000000001
 20
653.9466300000001
 30
0.0
 11
535.2135000000001
 21
459.3075900000001
 31
0.0
  0
LINE
  5
ED
330
55
100
AcDbEntity
  8
_0-1_
  6
Continuous
 62
     7
100
AcDbLine
 10
532.2135000000001
 20
657.3075900000001
 30
0.0
 11
532.2135000000001
 21
469.3075900000001
 31
0.0
  0
LINE
  5
EE
330
55
100
AcDbEntity
  8
_0-1_
  6
Continuous
 62
     7
100
AcDbLine
 10
563.180748203906
 20
649.9934666349475
 30
0.0
 11
537.0639200000002
 21
651.9522300000001
 31
0.0
  0
ARC
  5
EF
330
55
100
AcDbEntity
  8
_0-1_
  6
Continuous
 62
     7
100
AcDbCircle
 10
231.77783
 20
266.7728164813231
 30
0.0
 40
3.000000000000012
100
AcDbArc
 50
9.46232999998637
 51
9.49372036254089
  0
LINE
  5
F0
330
55
100
AcDbEntity
  8
_0-1_
  6
Continuous
 62
     7
100
AcDbLine
 10
234.7367410546662
 20
267.267635004192
 30
0.0
 11
234.7367410546651
 21
267.2676350041986
 31
0.0
  0
ARC
  5
F1
330
55
100
AcDbEntity
  8
_0-1_
  6
Continuous
 62
     7
100
AcDbCircle
 10
231.77783
 20
266.7728164813231
 30
0.0
 40
3.000000000000396
100
AcDbArc
 50
9.46232219998963
 51
90.0
  0
ARC
  5
F2
330
55
100
AcDbEntity
  8
_0-1_
  6
Continuous
 62
     7
100
AcDbCircle
 10
230.08357
 20
264.7728164813231
 30
0.0
 40
1.9999999999996
100
AcDbArc
 50
9.46232219999445
 51
90.0
  0
ARC
  5
F3
330
55
100
AcDbEntity
  8
_0-1_
  6
Continuous
 62
     7
100
AcDbCircle
 10
238.01346
 20
259.7728164813231
 30
0.0
 40
1.999999999999779
100
AcDbArc
 50
189.4623200000073
 51
270.0
  0
ARC
  5
F4
330
55
100
AcDbEntity
  8
_0-1_
  6
Continuous
 62
     7
100
AcDbCircle
 10
236.40254
 20
257.2728164813231
 30
0.0
 40
3.000000000000042
100
AcDbArc
 50
189.4623199999973
 51
270.0
  0
ARC
  5
F5
330
55
100
AcDbEntity
  8
_0-1_
  6
Continuous
 62
     7
100
AcDbCircle
 10
139.31921
 20
307.7728164813231
 30
0.0
 40
2.0
100
AcDbArc
 50
90.0
 51
180.0
  0
ARC
  5
F6
330
55
100
AcDbEntity
  8
_0-1_
  6
Continuous
 62
     7
100
AcDbCircle
 10
152.68016
 20
304.7728164813231
 30
0.0
 40
1.999999999999847
100
AcDbArc
 50
4.28915329999635
 51
90.0
  0
ARC
  5
F7
330
55
100
AcDbEntity
  8
_0-1_
  6
Continuous
 62
     7
100
AcDbCircle
 10
154.53578
 20
306.7728164813231
 30
0.0
 40
2.999999999999779
100
AcDbArc
 50
4.28915329999851
 51
90.0
  0
ARC
  5
F8
330
55
100
AcDbEntity
  8
_0-1_
  6
Continuous
 62
     7
100
AcDbCircle
 10
169.59729
 20
279.7728164813231
 30
0.0
 40
10.00000000000034
100
AcDbArc
 50
184.2891499999995
 51
270.0
  0
ARC
  5
F9
330
55
100
AcDbEntity
  8
_0-1_
  6
Continuous
 62
     7
100
AcDbCircle
 10
169.59729
 20
279.7728164813231
 30
0.0
 40
13.00000000000038
100
AcDbArc
 50
184.2891500000018
 51
270.0
  0
ARC
  5
FA
330
55
100
AcDbEntity
  8
_0-1_
  6
Continuous
 62
     7
100
AcDbCircle
 10
177.31921
 20
629.3075900000001
 30
0.0
 40
20.0
100
AcDbArc
 50
90.0
 51
180.0
  0
ARC
  5
FB
330
55
100
AcDbEntity
  8
_0-1_
  6
Continuous
 62
     7
100
AcDbCircle
 10
167.31921
 20
629.3075900000001
 30
0.0
 40
30.0
100
AcDbArc
 50
90.0
 51
180.0
  0
ARC
  5
FC
330
55
100
AcDbEntity
  8
_0-1_
  6
Continuous
 62
     7
100
AcDbCircle
 10
177.31921
 20
489.3075900000001
 30
0.0
 40
20.0
100
AcDbArc
 50
180.0
 51
270.0
  0
ARC
  5
FD
330
55
100
AcDbEntity
  8
_0-1_
  6
Continuous
 62
     7
100
AcDbCircle
 10
167.31921
 20
489.3075900000001
 30
0.0
 40
30.0
100
AcDbArc
 50
180.0
 51
270.0
  0
ARC
  5
FE
330
55
100
AcDbEntity
  8
_0-1_
  6
Continuous
 62
     7
100
AcDbCircle
 10
447.3192099999999
 20
489.3075900000001
 30
0.0
 40
30.0
100
AcDbArc
 50
270.0
 51
0.0
  0
ARC
  5
FF
330
55
100
AcDbEntity
  8
_0-1_
  6
Continuous
 62
     7
100
AcDbCircle
 10
437.3192099999999
 20
489.3075900000001
 30
0.0
 40
20.0
100
AcDbArc
 50
270.0
 51
0.0
  0
ARC
  5
100
330
55
100
AcDbEntity
  8
_0-1_
  6
Continuous
 62
     7
100
AcDbCircle
 10
447.3192099999999
 20
629.3075900000001
 30
0.0
 40
30.0
100
AcDbArc
 50
0.0
 51
90.0
  0
ARC
  5
101
330
55
100
AcDbEntity
  8
_0-1_
  6
Continuous
 62
     7
100
AcDbCircle
 10
437.3192099999999
 20
629.3075900000001
 30
0.0
 40
20.0
100
AcDbArc
 50
0.0
 51
90.0
  0
ARC
  5
102
330
55
100
AcDbEntity
  8
_0-1_
  6
Continuous
 62
     7
100
AcDbCircle
 10
445.0411199999999
 20
279.7728164813232
 30
0.0
 40
13.0
100
AcDbArc
 50
270.0
 51
355.7108399999993
  0
ARC
  5
103
330
55
100
AcDbEntity
  8
_0-1_
  6
Continuous
 62
     7
100
AcDbCircle
 10
461.9582499999999
 20
304.7728164813232
 30
0.0
 40
2.0
100
AcDbArc
 50
90.0
 51
175.710840000011
  0
ARC
  5
104
330
55
100
AcDbEntity
  8
_0-1_
  6
Continuous
 62
     7
100
AcDbCircle
 10
475.3192099999999
 20
307.7728164813232
 30
0.0
 40
2.0
100
AcDbArc
 50
0.0
 51
90.0
  0
ARC
  5
105
330
55
100
AcDbEntity
  8
_0-1_
  6
Continuous
 62
     7
100
AcDbCircle
 10
384.5548399999999
 20
264.7728164813232
 30
0.0
 40
2.0
100
AcDbArc
 50
90.0
 51
170.5376700000085
  0
ARC
  5
106
330
55
100
AcDbEntity
  8
_0-1_
  6
Continuous
 62
     7
100
AcDbCircle
 10
378.2358699999999
 20
257.2728164813232
 30
0.0
 40
3.000000000000197
100
AcDbArc
 50
313.9831400809406
 51
350.5376699999968
  0
ARC
  5
107
330
55
100
AcDbEntity
  8
_0-1_
  6
Continuous
 62
     7
100
AcDbCircle
 10
577.2135
 20
482.0719500000001
 30
0.0
 40
2.00000000000002
100
AcDbArc
 50
99.4623219999967
 51
180.0
  0
ARC
  5
108
330
55
100
AcDbEntity
  8
_0-1_
  6
Continuous
 62
     7
100
AcDbCircle
 10
584.7135
 20
488.3909200000001
 30
0.0
 40
3.000000000000071
100
AcDbArc
 50
279.4623199999973
 51
0.0
  0
ARC
  5
109
330
55
100
AcDbEntity
  8
_0-1_
  6
Continuous
 62
     7
100
AcDbCircle
 10
562.2135000000001
 20
481.5856700000002
 30
0.0
 40
13.00000000000042
100
AcDbArc
 50
274.2891499999975
 51
0.0
  0
ARC
  5
10A
330
55
100
AcDbEntity
  8
_0-1_
  6
Continuous
 62
     7
100
AcDbCircle
 10
577.2135
 20
636.5432200000001
 30
0.0
 40
2.0
100
AcDbArc
 50
180.0
 51
260.5376700000071
  0
ARC
  5
10B
330
55
100
AcDbEntity
  8
_0-1_
  6
Continuous
 62
     7
100
AcDbCircle
 10
584.7135
 20
630.2242600000002
 30
0.0
 40
3.0
100
AcDbArc
 50
0.0
 51
80.53767699999052
  0
ARC
  5
10C
330
55
100
AcDbEntity
  8
_0-1_
  6
Continuous
 62
     7
100
AcDbCircle
 10
584.7135
 20
488.3909200000001
 30
0.0
 40
3.000000000000071
100
AcDbArc
 50
279.4623199999973
 51
0.0
  0
ARC
  5
10D
330
55
100
AcDbEntity
  8
_0-1_
  6
Continuous
 62
     7
100
AcDbCircle
 10
577.2135
 20
482.0719500000001
 30
0.0
 40
2.00000000000002
100
AcDbArc
 50
99.4623219999967
 51
180.0
  0
ARC
  5
10E
330
55
100
AcDbEntity
  8
_0-1_
  6
Continuous
 62
     7
100
AcDbCircle
 10
562.2135000000001
 20
637.0295000000001
 30
0.0
 40
12.99999999999958
100
AcDbArc
 50
85.68864945056174
 51
85.73303843871537
  0
ARC
  5
10F
330
55
100
AcDbEntity
  8
_0-1_
  6
Continuous
 62
     7
100
AcDbCircle
 10
534.2135000000001
 20
657.3075900000001
 30
0.0
 40
2.0
100
AcDbArc
 50
90.0
 51
180.0
  0
ARC
  5
110
330
55
100
AcDbEntity
  8
_0-1_
  6
Continuous
 62
     7
100
AcDbCircle
 10
537.2135000000001
 20
653.9466300000001
 30
0.0
 40
2.0
100
AcDbArc
 50
180.0
 51
265.7108400000046
  0
ARC
  5
111
330
55
100
AcDbEntity
  8
_0-1_
  6
Continuous
 62
     7
100
AcDbCircle
 10
537.2135000000001
 20
464.6685500000001
 30
0.0
 40
1.999999999999722
100
AcDbArc
 50
94.28915300001782
 51
180.0
  0
ARC
  5
112
330
55
100
AcDbEntity
  8
_0-1_
  6
Continuous
 62
     7
100
AcDbCircle
 10
534.2135000000001
 20
461.3075900000001
 30
0.0
 40
2.0
100
AcDbArc
 50
180.0
 51
270.0
  0
ARC
  5
113
330
55
100
AcDbEntity
  8
_0-1_
  6
Continuous
 62
     7
100
AcDbCircle
 10
562.2135000000001
 20
637.0295000000001
 30
0.0
 40
12.99999999999989
100
AcDbArc
 50
0.0
 51
85.68864945056174
  0
ARC
  5
114
330
55
100
AcDbEntity
  8
_0-1_
  6
Continuous
 62
     7
100
AcDbCircle
 10
378.2358699999999
 20
257.2728164813232
 30
0.0
 40
3.000000000000028
100
AcDbArc
 50
270.0
 51
313.9831400809406
  0
CIRCLE
  5
115
330
55
100
AcDbEntity
  8
_1-0_
  6
Continuous
 62
     7
100
AcDbCircle
 10
307.3192099999999
 20
559.3075900000001
 30
0.0
 40
60.0
  0
CIRCLE
  5
116
330
55
100
AcDbEntity
  8
_1-0_
  6
Continuous
 62
     7
100
AcDbCircle
 10
307.3192099999999
 20
559.3075900000001
 30
0.0
 40
73.0
  0
CIRCLE
  5
117
330
55
100
AcDbEntity
  8
_0-1_
  6
Continuous
 62
     7
100
AcDbCircle
 10
307.3192099999999
 20
559.3075900000001
 30
0.0
 40
73.0
  0
CIRCLE
  5
118
330
55
100
AcDbEntity
  8
_0-1_
  6
Continuous
 62
     7
100
AcDbCircle
 10
147.31921
 20
629.3075900000001
 30
0.0
 40
2.099999999999994
  0
CIRCLE
  5
119
330
55
100
AcDbEntity
  8
_0-1_
  6
Continuous
 62
     7
100
AcDbCircle
 10
147.31921
 20
629.3075900000001
 30
0.0
 40
3.599999999999994
  0
CIRCLE
  5
11A
330
55
100
AcDbEntity
  8
_0-1_
  6
Continuous
 62
     7
100
AcDbCircle
 10
147.31921
 20
489.3075900000001
 30
0.0
 40
2.099999999999994
  0
CIRCLE
  5
11B
330
55
100
AcDbEntity
  8
_0-1_
  6
Continuous
 62
     7
100
AcDbCircle
 10
147.31921
 20
489.3075900000001
 30
0.0
 40
3.599999999999994
  0
CIRCLE
  5
11C
330
55
100
AcDbEntity
  8
_0-1_
  6
Continuous
 62
     7
100
AcDbCircle
 10
467.3192099999999
 20
489.3075900000001
 30
0.0
 40
2.100000000000023
  0
CIRCLE
  5
11D
330
55
100
AcDbEntity
  8
_0-1_
  6
Continuous
 62
     7
100
AcDbCircle
 10
467.3192099999999
 20
489.3075900000001
 30
0.0
 40
3.600000000000023
  0
CIRCLE
  5
11E
330
55
100
AcDbEntity
  8
_0-1_
  6
Continuous
 62
     7
100
AcDbCircle
 10
467.3192099999999
 20
629.3075900000001
 30
0.0
 40
2.100000000000023
  0
CIRCLE
  5
11F
330
55
100
AcDbEntity
  8
_0-1_
  6
Continuous
 62
     7
100
AcDbCircle
 10
467.3192099999999
 20
629.3075900000001
 30
0.0
 40
3.600000000000023
  0
SPLINE
  5
120
330
55
100
AcDbEntity
  8
1
  6
Continuous
 62
     2
100
AcDbSpline
210
0.0
220
0.0
230
1.0
 70
     8
 71
     3
 72
    33
 73
    29
 74
    27
 42
0.000000001
 43
0.0000000001
 44
0.00000001
 40
0.0
 40
0.0
 40
0.0
 40
0.0
 40
4.453552667075172
 40
8.930941690300674
 40
10.98418469746305
 40
13.05075968141135
 40
14.81666075167425
 40
16.58098604290103
 40
18.71635944467777
 40
20.85803453336383
 40
22.95350862989763
 40
25.04052541368725
 40
27.18956404800268
 40
29.29206439571713
 40
31.20777371266833
 40
33.18585736410066
 40
34.9132918761786
 40
36.59247780277921
 40
38.82923812183856
 40
41.13393510106628
 40
43.47170044346748
 40
45.82790951893379
 40
48.04817044160983
 40
50.17827181378059
 40
51.78498946261185
 40
53.44361972375535
 40
57.4203627774808
 40
61.40165617672706
 40
61.40165617672706
 40
61.40165617672706
 40
61.40165617672706
 10
249.983356940275
 20
309.7728164813232
 30
0.0
 10
249.3128899830455
 20
308.454937654255
 30
0.0
 10
247.9683675986515
 20
305.81212642844
 30
0.0
 10
246.760455179629
 20
302.2443239698728
 30
0.0
 10
247.0404862706805
 20
299.3560424186649
 30
0.0
 10
247.6418721783376
 20
297.4756289539305
 30
0.0
 10
248.5250074409613
 20
295.8254674181206
 30
0.0
 10
249.5664440220368
 20
294.2496835037018
 30
0.0
 10
250.7014391872877
 20
292.5862169030553
 30
0.0
 10
251.9040762639473
 20
290.8354179120885
 30
0.0
 10
253.0864487664028
 20
289.0895780591938
 30
0.0
 10
253.9553789308184
 20
287.1375085659989
 30
0.0
 10
254.1567518959409
 20
284.999771502175
 30
0.0
 10
253.676587382386
 20
282.9376540111253
 30
0.0
 10
252.4200574254708
 20
281.3433815847304
 30
0.0
 10
251.118001102623
 20
280.0013340872081
 30
0.0
 10
250.1145236219105
 20
278.4971234071463
 30
0.0
 10
249.49097629599
 20
276.6819466900972
 30
0.0
 10
249.7497955716418
 20
274.5549998216318
 30
0.0
 10
250.7185910241402
 20
272.4535795826607
 30
0.0
 10
252.1480630240613
 20
270.5974510579104
 30
0.0
 10
253.6789765326546
 20
268.8753194745515
 30
0.0
 10
254.9909558400328
 20
267.0603499902731
 30
0.0
 10
255.7218696675862
 20
265.1493638557739
 30
0.0
 10
255.5806492576144
 20
263.3242535442724
 30
0.0
 10
254.9336553404721
 20
260.9971008074044
 30
0.0
 10
253.7335496644727
 20
258.0191320995921
 30
0.0
 10
252.8398680904847
 20
255.522064287378
 30
0.0
 10
252.3927717968231
 20
254.2728164813232
 30
0.0
 11
249.983356940275
 21
309.7728164813232
 31
0.0
 11
248.0620735129767
 21
305.7550059576948
 31
0.0
 11
246.931431455314
 21
301.4227246843569
 31
0.0
 11
247.1112785572535
 21
299.3773733985246
 31
0.0
 11
247.7345697408301
 21
297.407033256777
 31
0.0
 11
248.5482448577252
 21
295.8397619369827
 31
0.0
 11
249.5014739689649
 21
294.3551077718159
 31
0.0
 11
250.7011635371936
 21
292.5885958129709
 31
0.0
 11
251.910888825513
 21
290.821299315546
 31
0.0
 11
253.0358285898605
 21
289.0533846641808
 31
0.0
 11
253.838420710751
 21
287.126863202172
 31
0.0
 11
254.0391449703225
 21
284.9872191136453
 31
0.0
 11
253.5171653965451
 21
282.950544117489
 31
0.0
 11
252.4123165467588
 21
281.3855357439601
 31
0.0
 11
251.1077505399972
 21
279.8986186325291
 31
0.0
 11
250.1719863140264
 21
278.4465940758058
 31
0.0
 11
249.662101626068
 21
276.846693147568
 31
0.0
 11
249.8562776383764
 21
274.6183771008689
 31
0.0
 11
250.786495225791
 21
272.5097464057819
 31
0.0
 11
252.164281716628
 21
270.6211354925927
 31
0.0
 11
253.6777930536481
 21
268.8153102924081
 31
0.0
 11
254.9259545021639
 21
266.9791045334108
 31
0.0
 11
255.605324938887
 21
264.960246521931
 31
0.0
 11
255.5320713792989
 21
263.3551996312588
 31
0.0
 11
255.123441967577
 21
261.747693379867
 31
0.0
 11
253.7589482155011
 21
258.0123698173171
 31
0.0
 11
252.3927717968231
 21
254.2728164813232
 31
0.0
  0
HATCH
  5
126
330
55
100
AcDbEntity
  8
1
  6
Continuous
 62
     2
100
AcDbHatch
 10
0.0
 20
0.0
 30
0.0
210
0.0
220
0.0
230
1.0
  2
CUSTOM0
 70
     0
 71
     0
 91
        1
 92
        1
 93
       34
 72
     1
 10
247.31921
 20
257.7728164813231
 11
238.01346
 21
257.7728164813231
 72
     2
 10
238.01346
 20
259.7728164813231
 40
1.999999999999779
 50
90.0
 51
170.5376799999927
 73
     0
 72
     1
 10
236.040672139665
 20
259.4440185827381
 11
234.7367410546651
 21
267.2676350041986
 72
     1
 10
234.7367410546651
 20
267.2676350041986
 11
234.1695102352317
 21
268.5838564180453
 72
     1
 10
234.1695102352317
 20
268.5838564180453
 11
233.2107071185003
 21
269.4085067444759
 72
     1
 10
233.2107071185003
 20
269.4085067444759
 11
232.0575431361905
 21
269.7597481111806
 72
     1
 10
232.0575431361905
 20
269.7597481111806
 11
169.59729
 21
269.7728164813231
 72
     2
 10
169.59729
 20
279.7728164813231
 40
10.00000000000034
 50
90.0
 51
175.7108500000005
 73
     0
 72
     1
 10
159.625296857663
 20
279.0249175782682
 11
157.5560017124901
 21
306.6155636026453
 72
     1
 10
157.5560017124901
 20
306.6155636026453
 11
157.1183252633717
 21
308.2994008919067
 72
     1
 10
157.1183252633717
 20
308.2994008919067
 11
156.1725223750958
 21
309.28699117644
 72
     1
 10
156.1725223750958
 20
309.28699117644
 11
155.164756024448
 21
309.7061403912707
 72
     1
 10
155.164756024448
 20
309.7061403912707
 11
154.53578
 21
309.7728164813231
 72
     1
 10
154.53578
 20
309.7728164813231
 11
139.31921
 21
309.7728164813231
 72
     2
 10
139.31921
 20
307.7728164813231
 40
2.0
 50
90.0
 51
180.0
 73
     1
 72
     1
 10
137.31921
 20
307.7728164813231
 11
137.31921
 21
306.7728164813231
 72
     1
 10
137.31921
 20
306.7728164813231
 11
152.68016
 21
306.7728164813231
 72
     1
 10
152.68016
 20
306.7728164813231
 11
152.31921
 21
306.7728164813231
 72
     1
 10
152.31921
 20
306.7728164813231
 11
153.101683598383
 21
306.7278913791228
 72
     1
 10
153.101683598383
 20
306.7278913791228
 11
153.7097123463049
 21
306.4874657067387
 72
     1
 10
153.7097123463049
 20
306.4874657067387
 11
154.2666916392957
 21
305.9905674236401
 72
     1
 10
154.2666916392957
 20
305.9905674236401
 11
154.5939080111596
 21
305.3538229785181
 72
     1
 10
154.5939080111596
 20
305.3538229785181
 11
154.6909563022755
 21
304.7037792571352
 72
     1
 10
154.6909563022755
 20
304.7037792571352
 11
156.633698914962
 21
278.8005479073512
 72
     2
 10
169.59729
 20
279.7728164813231
 40
13.00000000000038
 50
184.2891500000018
 51
270.0
 73
     1
 72
     1
 10
169.59729
 20
266.7728164813231
 11
230.08357
 21
266.7728164813231
 72
     2
 10
230.08357
 20
264.7728164813231
 40
1.9999999999996
 50
270.0
 51
350.5376778000056
 73
     0
 72
     1
 10
232.05635784771
 20
265.1016144556572
 11
233.3976919536494
 21
257.0536244301692
 72
     1
 10
233.3976919536494
 20
257.0536244301692
 11
234.0088567344192
 21
255.464424813548
 72
     1
 10
234.0088567344192
 20
255.464424813548
 11
234.9733137179748
 21
254.6351447362478
 72
     1
 10
234.9733137179748
 20
254.6351447362478
 11
236.0860323635409
 21
254.2895593827709
 72
     1
 10
236.0860323635409
 20
254.2895593827709
 11
236.623285106722
 21
254.2728164813231
 72
     1
 10
236.623285106722
 20
254.2728164813231
 11
247.31921
 21
254.2728164813231
 72
     1
 10
247.31921
 20
254.2728164813231
 11
247.31921
 21
257.7728164813231
 97
        0
 75
     1
 76
     2
 52
45.0
 41
4.0
 77
     0
 78
     2
 53
45.0
 43
0.0
 44
0.0
 45
-5.65685424949238
 46
0.0000000000000004
 79
     0
 53
45.0
 43
1.414213562373095
 44
-1.414213562373095
 45
-5.65685424949238
 46
0.0000000000000004
 79
     2
 49
48.0
 49
-12.0
 98
        1
 10
0.0
 20
0.0
  0
ENDBLK
  5
57
330
55
100
AcDbEntity
  8
0
100
AcDbBlockEnd
  0
BLOCK
  5
158
330
151
100
AcDbEntity
  8
0
100
AcDbBlockBegin
  2
*D5
 70
     1
 10
0.0
 20
0.0
 30
0.0
  3
*D5
  1

  0
LINE
  5
152
330
151
100
AcDbEntity
  8
1
  6
Continuous
 62
     2
100
AcDbLine
 10
97.31920999999998
 20
309.7728164813231
 30
0.0
 11
97.31920999999998
 21
254.2728164813231
 31
0.0
  0
LINE
  5
153
330
151
100
AcDbEntity
  8
1
  6
Continuous
 62
     2
100
AcDbLine
 10
139.31921
 20
309.7728164813231
 30
0.0
 11
94.31920699999698
 21
309.7728164813231
 31
0.0
  0
LINE
  5
154
330
151
100
AcDbEntity
  8
1
  6
Continuous
 62
     2
100
AcDbLine
 10
236.4025399999999
 20
254.2728164813231
 30
0.0
 11
94.31920699999698
 21
254.2728164813231
 31
0.0
  0
SOLID
  5
155
330
151
100
AcDbEntity
  8
1
 62
     2
100
AcDbTrace
 10
98.70156260702025
 20
299.2728059813126
 30
0.0
 11
95.93685739297972
 21
299.2728059813126
 31
0.0
 12
97.31920999999998
 22
309.7728164813231
 32
0.0
 13
97.31920999999998
 23
309.7728164813231
 33
0.0
  0
SOLID
  5
156
330
151
100
AcDbEntity
  8
1
 62
     2
100
AcDbTrace
 10
95.93685739297972
 20
264.7728269813336
 30
0.0
 11
98.70156260702025
 21
264.7728269813336
 31
0.0
 12
97.31920999999998
 22
254.2728164813231
 32
0.0
 13
97.31920999999998
 23
254.2728164813231
 33
0.0
  0
MTEXT
  5
157
330
151
100
AcDbEntity
  8
1
 62
     7
100
AcDbMText
 10
94.31920699999698
 20
274.1478086063152
 30
0.0
 40
10.5000105000105
 41
0.0
 71
     7
 72
     1
  1
56
  7
CONVERTER_12
 11
0.0
 21
1.0
 31
0.0
 73
     1
 44
0.60024009603842
  0
ENDBLK
  5
159
330
151
100
AcDbEntity
  8
0
100
AcDbBlockEnd
  0
BLOCK
  5
163
330
15C
100
AcDbEntity
  8
0
100
AcDbBlockBegin
  2
*D6
 70
     1
 10
0.0
 20
0.0
 30
0.0
  3
*D6
  1

  0
LINE
  5
15D
330
15C
100
AcDbEntity
  8
1
  6
Continuous
 62
     2
100
AcDbLine
 10
117.31921
 20
309.7728164813231
 30
0.0
 11
117.31921
 21
269.7728164813231
 31
0.0
  0
LINE
  5
15E
330
15C
100
AcDbEntity
  8
1
  6
Continuous
 62
     2
100
AcDbLine
 10
139.31921
 20
309.7728164813231
 30
0.0
 11
114.319206999997
 21
309.7728164813231
 31
0.0
  0
LINE
  5
15F
330
15C
100
AcDbEntity
  8
1
  6
Continuous
 62
     2
100
AcDbLine
 10
169.59729
 20
269.7728164813231
 30
0.0
 11
114.319206999997
 21
269.7728164813231
 31
0.0
  0
SOLID
  5
160
330
15C
100
AcDbEntity
  8
1
 62
     2
100
AcDbTrace
 10
118.7015626070202
 20
299.2728059813126
 30
0.0
 11
115.9368573929797
 21
299.2728059813126
 31
0.0
 12
117.31921
 22
309.7728164813231
 32
0.0
 13
117.31921
 23
309.7728164813231
 33
0.0
  0
SOLID
  5
161
330
15C
100
AcDbEntity
  8
1
 62
     2
100
AcDbTrace
 10
115.9368573929797
 20
280.2728269813336
 30
0.0
 11
118.7015626070202
 21
280.2728269813336
 31
0.0
 12
117.31921
 22
269.7728164813231
 32
0.0
 13
117.31921
 23
269.7728164813231
 33
0.0
  0
MTEXT
  5
162
330
15C
100
AcDbEntity
  8
1
 62
     7
100
AcDbMText
 10
114.319206999997
 20
281.8978086063152
 30
0.0
 40
10.5000105000105
 41
0.0
 71
     7
 72
     1
  1
40
  7
CONVERTER_12
 11
0.0
 21
1.0
 31
0.0
 73
     1
 44
0.60024009603842
  0
ENDBLK
  5
164
330
15C
100
AcDbEntity
  8
0
100
AcDbBlockEnd
  0
BLOCK
  5
170
330
167
100
AcDbEntity
  8
0
100
AcDbBlockBegin
  2
*D7
 70
     1
 10
0.0
 20
0.0
 30
0.0
  3
*D7
  1

  0
LINE
  5
168
330
167
100
AcDbEntity
  8
1
  6
Continuous
 62
     2
100
AcDbLine
 10
117.31921
 20
269.7728164813231
 30
0.0
 11
117.31921
 21
290.7728374813441
 31
0.0
  0
LINE
  5
169
330
167
100
AcDbEntity
  8
1
  6
Continuous
 62
     2
100
AcDbLine
 10
117.31921
 20
257.7728164813231
 30
0.0
 11
117.31921
 21
269.7728164813231
 31
0.0
  0
LINE
  5
16A
330
167
100
AcDbEntity
  8
1
  6
Continuous
 62
     2
100
AcDbLine
 10
117.31921
 20
236.7727954813021
 30
0.0
 11
117.31921
 21
257.7728164813231
 31
0.0
  0
LINE
  5
16B
330
167
100
AcDbEntity
  8
1
  6
Continuous
 62
     2
100
AcDbLine
 10
238.01346
 20
257.7728164813231
 30
0.0
 11
114.319206999997
 21
257.7728164813231
 31
0.0
  0
LINE
  5
16C
330
167
100
AcDbEntity
  8
1
  6
Continuous
 62
     2
100
AcDbLine
 10
169.59729
 20
269.7728164813231
 30
0.0
 11
114.319206999997
 21
269.7728164813231
 31
0.0
  0
SOLID
  5
16D
330
167
100
AcDbEntity
  8
1
 62
     2
100
AcDbTrace
 10
118.7015626070202
 20
247.2728059813126
 30
0.0
 11
115.9368573929797
 21
247.2728059813126
 31
0.0
 12
117.31921
 22
257.7728164813231
 32
0.0
 13
117.31921
 23
257.7728164813231
 33
0.0
  0
SOLID
  5
16E
330
167
100
AcDbEntity
  8
1
 62
     2
100
AcDbTrace
 10
115.9368573929797
 20
280.2728269813336
 30
0.0
 11
118.7015626070202
 21
280.2728269813336
 31
0.0
 12
117.31921
 22
269.7728164813231
 32
0.0
 13
117.31921
 23
269.7728164813231
 33
0.0
  0
MTEXT
  5
16F
330
167
100
AcDbEntity
  8
1
 62
     7
100
AcDbMText
 10
114.319206999997
 20
257.4728101813168
 30
0.0
 40
10.5000105000105
 41
0.0
 71
     7
 72
     1
  1
12
  7
CONVERTER_12
 11
0.0
 21
1.0
 31
0.0
 73
     1
 44
0.60024009603842
  0
ENDBLK
  5
171
330
167
100
AcDbEntity
  8
0
100
AcDbBlockEnd
  0
BLOCK
  5
17B
330
174
100
AcDbEntity
  8
0
100
AcDbBlockBegin
  2
*D8
 70
     1
 10
0.0
 20
0.0
 30
0.0
  3
*D8
  1

  0
LINE
  5
175
330
174
100
AcDbEntity
  8
1
  6
Continuous
 62
     2
100
AcDbLine
 10
457.3192099999999
 20
679.3075900000001
 30
0.0
 11
157.3192099999999
 21
679.3075900000001
 31
0.0
  0
LINE
  5
176
330
174
100
AcDbEntity
  8
1
  6
Continuous
 62
     2
100
AcDbLine
 10
157.3192099999999
 20
629.3075900000001
 30
0.0
 11
157.3192099999999
 21
682.3075930000031
 31
0.0
  0
LINE
  5
177
330
174
100
AcDbEntity
  8
1
  6
Continuous
 62
     2
100
AcDbLine
 10
457.3192099999999
 20
629.3075900000001
 30
0.0
 11
457.3192099999999
 21
682.3075930000031
 31
0.0
  0
SOLID
  5
178
330
174
100
AcDbEntity
  8
1
 62
     2
100
AcDbTrace
 10
446.8191994999894
 20
677.9252373929799
 30
0.0
 11
446.8191994999894
 21
680.6899426070204
 31
0.0
 12
457.3192099999999
 22
679.3075900000001
 32
0.0
 13
457.3192099999999
 23
679.3075900000001
 33
0.0
  0
SOLID
  5
179
330
174
100
AcDbEntity
  8
1
 62
     2
100
AcDbTrace
 10
167.8192205000104
 20
680.6899426070204
 30
0.0
 11
167.8192205000104
 21
677.9252373929799
 31
0.0
 12
157.3192099999999
 22
679.3075900000001
 32
0.0
 13
157.3192099999999
 23
679.3075900000001
 33
0.0
  0
MTEXT
  5
17A
330
174
100
AcDbEntity
  8
1
 62
     7
100
AcDbMText
 10
294.7191973999873
 20
682.3075930000031
 30
0.0
 40
10.5000105000105
 41
0.0
 71
     7
 72
     1
  1
300
  7
CONVERTER_12
 11
0.9999999999970619
 21
2.424068405545306E-6
 31
0.0
 73
     1
 44
0.60024009603842
  0
ENDBLK
  5
17C
330
174
100
AcDbEntity
  8
0
100
AcDbBlockEnd
  0
BLOCK
  5
186
330
17F
100
AcDbEntity
  8
0
100
AcDbBlockBegin
  2
*D9
 70
     1
 10
0.0
 20
0.0
 30
0.0
  3
*D9
  1

  0
LINE
  5
180
330
17F
100
AcDbEntity
  8
1
  6
Continuous
 62
     2
100
AcDbLine
 10
137.3192099999999
 20
699.3075900000002
 30
0.0
 11
477.3192099999999
 21
699.3075900000002
 31
0.0
  0
LINE
  5
181
330
17F
100
AcDbEntity
  8
1
  6
Continuous
 62
     2
100
AcDbLine
 10
477.3192099999999
 20
629.3075900000001
 30
0.0
 11
477.3192099999999
 21
702.3075930000032
 31
0.0
  0
LINE
  5
182
330
17F
100
AcDbEntity
  8
1
  6
Continuous
 62
     2
100
AcDbLine
 10
137.3192099999999
 20
629.3075900000001
 30
0.0
 11
137.3192099999999
 21
702.3075930000032
 31
0.0
  0
SOLID
  5
183
330
17F
100
AcDbEntity
  8
1
 62
     2
100
AcDbTrace
 10
147.8192205000104
 20
700.6899426070205
 30
0.0
 11
147.8192205000104
 21
697.92523739298
 31
0.0
 12
137.3192099999999
 22
699.3075900000002
 32
0.0
 13
137.3192099999999
 23
699.3075900000002
 33
0.0
  0
SOLID
  5
184
330
17F
100
AcDbEntity
  8
1
 62
     2
100
AcDbTrace
 10
466.8191994999894
 20
697.92523739298
 30
0.0
 11
466.8191994999894
 21
700.6899426070205
 31
0.0
 12
477.3192099999999
 22
699.3075900000002
 32
0.0
 13
477.3192099999999
 23
699.3075900000002
 33
0.0
  0
MTEXT
  5
185
330
17F
100
AcDbEntity
  8
1
 62
     7
100
AcDbMText
 10
294.7191973999873
 20
702.3075930000032
 30
0.0
 40
10.5000105000105
 41
0.0
 71
     7
 72
     1
  1
340
  7
CONVERTER_12
 11
0.9999999999970619
 21
2.424068405545306E-6
 31
0.0
 73
     1
 44
0.60024009603842
  0
ENDBLK
  5
187
330
17F
100
AcDbEntity
  8
0
100
AcDbBlockEnd
  0
BLOCK
  5
191
330
18A
100
AcDbEntity
  8
0
100
AcDbBlockBegin
  2
*D10
 70
     1
 10
0.0
 20
0.0
 30
0.0
  3
*D10
  1

  0
LINE
  5
18B
330
18A
100
AcDbEntity
  8
1
  6
Continuous
 62
     2
100
AcDbLine
 10
117.31921
 20
649.3075900000001
 30
0.0
 11
117.31921
 21
469.3075900000001
 31
0.0
  0
LINE
  5
18C
330
18A
100
AcDbEntity
  8
1
  6
Continuous
 62
     2
100
AcDbLine
 10
177.3192099999999
 20
469.3075900000001
 30
0.0
 11
114.319206999997
 21
469.3075900000001
 31
0.0
  0
LINE
  5
18D
330
18A
100
AcDbEntity
  8
1
  6
Continuous
 62
     2
100
AcDbLine
 10
177.3192099999999
 20
649.3075900000001
 30
0.0
 11
114.319206999997
 21
649.3075900000001
 31
0.0
  0
SOLID
  5
18E
330
18A
100
AcDbEntity
  8
1
 62
     2
100
AcDbTrace
 10
118.7015626070202
 20
638.8075794999896
 30
0.0
 11
115.9368573929797
 21
638.8075794999896
 31
0.0
 12
117.31921
 22
649.3075900000001
 32
0.0
 13
117.31921
 23
649.3075900000001
 33
0.0
  0
SOLID
  5
18F
330
18A
100
AcDbEntity
  8
1
 62
     2
100
AcDbTrace
 10
115.9368573929797
 20
479.8076005000106
 30
0.0
 11
118.7015626070202
 21
479.8076005000106
 31
0.0
 12
117.31921
 22
469.3075900000001
 32
0.0
 13
117.31921
 23
469.3075900000001
 33
0.0
  0
MTEXT
  5
190
330
18A
100
AcDbEntity
  8
1
 62
     7
100
AcDbMText
 10
114.319206999997
 20
548.2825789749891
 30
0.0
 40
10.5000105000105
 41
0.0
 71
     7
 72
     1
  1
180
  7
CONVERTER_12
 11
0.0
 21
1.0
 31
0.0
 73
     1
 44
0.60024009603842
  0
ENDBLK
  5
192
330
18A
100
AcDbEntity
  8
0
100
AcDbBlockEnd
  0
BLOCK
  5
19C
330
195
100
AcDbEntity
  8
0
100
AcDbBlockBegin
  2
*D11
 70
     1
 10
0.0
 20
0.0
 30
0.0
  3
*D11
  1

  0
LINE
  5
196
330
195
100
AcDbEntity
  8
1
  6
Continuous
 62
     2
100
AcDbLine
 10
97.31920999999998
 20
659.3075900000001
 30
0.0
 11
97.31920999999998
 21
459.3075900000001
 31
0.0
  0
LINE
  5
197
330
195
100
AcDbEntity
  8
1
  6
Continuous
 62
     2
100
AcDbLine
 10
167.3192099999999
 20
459.3075900000001
 30
0.0
 11
94.31920699999698
 21
459.3075900000001
 31
0.0
  0
LINE
  5
198
330
195
100
AcDbEntity
  8
1
  6
Continuous
 62
     2
100
AcDbLine
 10
167.3192099999999
 20
659.3075900000001
 30
0.0
 11
94.31920699999698
 21
659.3075900000001
 31
0.0
  0
SOLID
  5
199
330
195
100
AcDbEntity
  8
1
 62
     2
100
AcDbTrace
 10
98.70156260702025
 20
648.8075794999896
 30
0.0
 11
95.93685739297972
 21
648.8075794999896
 31
0.0
 12
97.31920999999998
 22
659.3075900000001
 32
0.0
 13
97.31920999999998
 23
659.3075900000001
 33
0.0
  0
SOLID
  5
19A
330
195
100
AcDbEntity
  8
1
 62
     2
100
AcDbTrace
 10
95.93685739297972
 20
469.8076005000106
 30
0.0
 11
98.70156260702025
 21
469.8076005000106
 31
0.0
 12
97.31920999999998
 22
459.3075900000001
 32
0.0
 13
97.31920999999998
 23
459.3075900000001
 33
0.0
  0
MTEXT
  5
19B
330
195
100
AcDbEntity
  8
1
 62
     7
100
AcDbMText
 10
94.31920699999698
 20
546.7075773999875
 30
0.0
 40
10.5000105000105
 41
0.0
 71
     7
 72
     1
  1
200
  7
CONVERTER_12
 11
0.0
 21
1.0
 31
0.0
 73
     1
 44
0.60024009603842
  0
ENDBLK
  5
19D
330
195
100
AcDbEntity
  8
0
100
AcDbBlockEnd
  0
BLOCK
  5
1A7
330
1A0
100
AcDbEntity
  8
0
100
AcDbBlockBegin
  2
*D12
 70
     1
 10
0.0
 20
0.0
 30
0.0
  3
*D12
  1

  0
LINE
  5
1A1
330
1A0
100
AcDbEntity
  8
1
  6
Continuous
 62
     2
100
AcDbLine
 10
497.3192099999999
 20
629.3075900000001
 30
0.0
 11
497.3192099999999
 21
489.3075900000001
 31
0.0
  0
LINE
  5
1A2
330
1A0
100
AcDbEntity
  8
1
  6
Continuous
 62
     2
100
AcDbLine
 10
473.9192099999999
 20
489.3075900000001
 30
0.0
 11
500.3192130000029
 21
489.3075900000001
 31
0.0
  0
LINE
  5
1A3
330
1A0
100
AcDbEntity
  8
1
  6
Continuous
 62
     2
100
AcDbLine
 10
475.3192099999999
 20
629.3075900000001
 30
0.0
 11
500.3192130000029
 21
629.3075900000001
 31
0.0
  0
SOLID
  5
1A4
330
1A0
100
AcDbEntity
  8
1
 62
     2
100
AcDbTrace
 10
498.7015626070202
 20
618.8075794999896
 30
0.0
 11
495.9368573929797
 21
618.8075794999896
 31
0.0
 12
497.3192099999999
 22
629.3075900000001
 32
0.0
 13
497.3192099999999
 23
629.3075900000001
 33
0.0
  0
SOLID
  5
1A5
330
1A0
100
AcDbEntity
  8
1
 62
     2
100
AcDbTrace
 10
495.9368573929797
 20
499.8076005000106
 30
0.0
 11
498.7015626070202
 21
499.8076005000106
 31
0.0
 12
497.3192099999999
 22
489.3075900000001
 32
0.0
 13
497.3192099999999
 23
489.3075900000001
 33
0.0
  0
MTEXT
  5
1A6
330
1A0
100
AcDbEntity
  8
1
 62
     7
100
AcDbMText
 10
494.3192069999969
 20
544.28652605291
 30
0.0
 40
10.5000105000105
 41
0.0
 71
     7
 72
     1
  1
140
  7
CONVERTER_12
 11
0.0
 21
1.0
 31
0.0
 73
     1
 44
0.60024009603842
  0
ENDBLK
  5
1A8
330
1A0
100
AcDbEntity
  8
0
100
AcDbBlockEnd
  0
BLOCK
  5
1B2
330
1AB
100
AcDbEntity
  8
0
100
AcDbBlockBegin
  2
*D13
 70
     1
 10
0.0
 20
0.0
 30
0.0
  3
*D13
  1

  0
LINE
  5
1AC
330
1AB
100
AcDbEntity
  8
1
  6
Continuous
 62
     2
100
AcDbLine
 10
147.3192099999999
 20
417.4471847909471
 30
0.0
 11
467.3192099999999
 21
417.4471847909471
 31
0.0
  0
LINE
  5
1AD
330
1AB
100
AcDbEntity
  8
1
  6
Continuous
 62
     2
100
AcDbLine
 10
467.3192099999999
 20
481.3075900000001
 30
0.0
 11
467.3192099999999
 21
414.4471817909441
 31
0.0
  0
LINE
  5
1AE
330
1AB
100
AcDbEntity
  8
1
  6
Continuous
 62
     2
100
AcDbLine
 10
147.3192099999999
 20
482.7075900000001
 30
0.0
 11
147.3192099999999
 21
414.4471817909441
 31
0.0
  0
SOLID
  5
1AF
330
1AB
100
AcDbEntity
  8
1
 62
     2
100
AcDbTrace
 10
157.8192205000104
 20
418.8295373979673
 30
0.0
 11
157.8192205000104
 21
416.0648321839268
 31
0.0
 12
147.3192099999999
 22
417.4471847909471
 32
0.0
 13
147.3192099999999
 23
417.4471847909471
 33
0.0
  0
SOLID
  5
1B0
330
1AB
100
AcDbEntity
  8
1
 62
     2
100
AcDbTrace
 10
456.8191994999894
 20
416.0648321839268
 30
0.0
 11
456.8191994999894
 21
418.8295373979673
 31
0.0
 12
467.3192099999999
 22
417.4471847909471
 32
0.0
 13
467.3192099999999
 23
417.4471847909471
 33
0.0
  0
MTEXT
  5
1B1
330
1AB
100
AcDbEntity
  8
1
 62
     7
100
AcDbMText
 10
294.7191973999873
 20
420.4471877909501
 30
0.0
 40
10.5000105000105
 41
0.0
 71
     7
 72
     1
  1
320
  7
CONVERTER_12
 11
0.9999999999970619
 21
2.424068405545306E-6
 31
0.0
 73
     1
 44
0.60024009603842
  0
ENDBLK
  5
1B3
330
1AB
100
AcDbEntity
  8
0
100
AcDbBlockEnd
  0
BLOCK
  5
1BB
330
1B6
100
AcDbEntity
  8
0
100
AcDbBlockBegin
  2
*D14
 70
     1
 10
0.0
 20
0.0
 30
0.0
  3
*D14
  1

  0
LINE
  5
1B7
330
1B6
100
AcDbEntity
  8
1
  6
Continuous
 62
     2
100
AcDbLine
 10
277.3192099999999
 20
507.3460657729338
 30
0.0
 11
337.3192099999999
 21
611.2691142270664
 31
0.0
  0
SOLID
  5
1B8
330
1B6
100
AcDbEntity
  8
1
 62
     2
100
AcDbTrace
 10
333.2663572246618
 20
601.4846620905439
 30
0.0
 11
330.8720522753274
 21
602.8670146975642
 31
0.0
 12
337.3192099999999
 22
611.2691142270664
 32
0.0
 13
337.3192099999999
 23
611.2691142270664
 33
0.0
  0
SOLID
  5
1B9
330
1B6
100
AcDbEntity
  8
1
 62
     2
100
AcDbTrace
 10
281.3720627753381
 20
517.1305179094563
 30
0.0
 11
283.7663677246725
 21
515.7481653024361
 31
0.0
 12
277.3192099999999
 22
507.3460657729338
 32
0.0
 13
277.3192099999999
 23
507.3460657729338
 33
0.0
  0
MTEXT
  5
1BA
330
1B6
100
AcDbEntity
  8
1
 62
     7
100
AcDbMText
 10
318.3223411267143
 20
584.365578153818
 30
0.0
 40
10.5000105000105
 41
0.0
 71
     7
 72
     1
  1
\C7;{\Fgdt;n}\C7;120
  7
CONVERTER_12
 11
0.4999999999999999
 21
0.8660254037844387
 31
0.0
 73
     1
 44
0.60024009603842
  0
ENDBLK
  5
1BC
330
1B6
100
AcDbEntity
  8
0
100
AcDbBlockEnd
  0
BLOCK
  5
1C2
330
1BE
100
AcDbEntity
  8
0
100
AcDbBlockBegin
  2
*D15
 70
     1
 10
0.0
 20
0.0
 30
0.0
  3
*D15
  1

  0
LINE
  5
1BF
330
1BE
100
AcDbEntity
  8
1
  6
Continuous
 62
     2
100
AcDbLine
 10
505.3413412100751
 20
432.1742780832707
 30
0.0
 11
468.4826661230491
 21
487.5593423488535
 31
0.0
  0
SOLID
  5
1C0
330
1BE
100
AcDbEntity
  8
1
 62
     2
100
AcDbTrace
 10
475.4507595547622
 20
479.583955639898
 30
0.0
 11
473.1491455564008
 21
478.0522350638497
 31
0.0
 12
468.4826661230491
 22
487.5593423488535
 32
0.0
 13
468.4826661230491
 23
487.5593423488535
 33
0.0
  0
MTEXT
  5
1C1
330
1BE
100
AcDbEntity
  8
1
 62
     7
100
AcDbMText
 10
483.6404605275524
 20
472.0928631213724
 30
0.0
 40
10.5000105000105
 41
0.0
 71
     7
 72
     1
  1
\C7;4-{\Fgdt;n}\C7;4,2
  7
CONVERTER_12
 11
0.5540267252615247
 21
-0.8324988814983423
 31
0.0
 73
     1
 44
0.60024009603842
  0
ENDBLK
  5
1C3
330
1BE
100
AcDbEntity
  8
0
100
AcDbBlockEnd
  0
BLOCK
  5
1CA
330
1C5
100
AcDbEntity
  8
0
100
AcDbBlockBegin
  2
*D16
 70
     1
 10
0.0
 20
0.0
 30
0.0
  3
*D16
  1

  0
LINE
  5
1C6
330
1C5
100
AcDbEntity
  8
1
  6
Continuous
 62
     2
100
AcDbLine
 10
230.4594417742173
 20
514.9325821249921
 30
0.0
 11
413.0334584882605
 21
620.3417398218766
 31
0.0
  0
SOLID
  5
1C7
330
1C5
100
AcDbEntity
  8
1
 62
     2
100
AcDbTrace
 10
378.9411640057662
 20
602.2547477246727
 30
0.0
 11
380.3235166127864
 21
599.8604427753384
 31
0.0
 12
370.5390644762639
 22
595.8075900000002
 32
0.0
 13
370.5390644762639
 23
595.8075900000002
 33
0.0
  0
SOLID
  5
1C8
330
1C5
100
AcDbEntity
  8
1
 62
     2
100
AcDbTrace
 10
235.6972559942335
 20
516.3604322753276
 30
0.0
 11
234.3149033872133
 21
518.754737224662
 31
0.0
 12
244.0993555237359
 22
522.80759
 32
0.0
 13
244.0993555237359
 23
522.80759
 33
0.0
  0
MTEXT
  5
1C9
330
1C5
100
AcDbEntity
  8
1
 62
     7
100
AcDbMText
 10
384.9810915558627
 20
607.6098033012933
 30
0.0
 40
10.5000105000105
 41
0.0
 71
     7
 72
     1
  1
\C7;{\Fgdt;n}\C7;146
  7
CONVERTER_12
 11
0.8660254037844379
 21
0.5000000000000013
 31
0.0
 73
     1
 44
0.60024009603842
  0
ENDBLK
  5
1CB
330
1C5
100
AcDbEntity
  8
0
100
AcDbBlockEnd
  0
ENDSEC
  0
SECTION
  2
ENTITIES
  0
INSERT
  5
58
330
1F
100
AcDbEntity
  8
0
100
AcDbBlockReference
  2
H543-340
 10
64.263510051475
 20
1114.16027423636
 30
0.0
  0
INSERT
  5
59
330
1F
100
AcDbEntity
  8
1
100
AcDbBlockReference
  2
開示A4
 10
0.0
 20
0.0
 30
0.0
 41
3.000003000003
 42
3.000003000003
 43
3.000003000003
  0
INSERT
  5
5A
330
1F
100
AcDbEntity
  8
0
100
AcDbBlockReference
  2
H543-340-H1__2
 10
322.866689767841
 20
800.0990423642311
 30
0.0
  0
LINE
  5
127
330
1F
100
AcDbEntity
  8
_0-A_
  6
Continuous
 62
     2
100
AcDbLine
 10
152.31921
 20
306.7728164813231
 30
0.0
 11
152.31921
 21
291.7728164813231
 31
0.0
  0
LINE
  5
128
330
1F
100
AcDbEntity
  8
_0-0_
  6
DASH_CENTER
 62
     2
100
AcDbLine
 10
307.3192099999999
 20
662.3075900000001
 30
0.0
 11
307.3192099999999
 21
456.3075900000001
 31
0.0
  0
LINE
  5
129
330
1F
100
AcDbEntity
  8
_0-A_
  6
Continuous
 62
     2
100
AcDbLine
 10
535.2135000000001
 20
654.3075900000001
 30
0.0
 11
550.2135000000001
 21
654.3075900000001
 31
0.0
  0
LINE
  5
12A
330
1F
100
AcDbEntity
  8
_0-A_
  6
Continuous
 62
     2
100
AcDbLine
 10
535.2135000000001
 20
464.3075900000001
 30
0.0
 11
550.2135000000001
 21
464.3075900000001
 31
0.0
  0
LINE
  5
12B
330
1F
100
AcDbEntity
  8
_0-A_
  6
Continuous
 62
     2
100
AcDbLine
 10
535.2135000000001
 20
464.3075900000001
 30
0.0
 11
535.2135000000001
 21
433.7701000000001
 31
0.0
  0
LINE
  5
12C
330
1F
100
AcDbEntity
  8
_0-A_
  6
Continuous
 62
     2
100
AcDbLine
 10
535.2135000000001
 20
654.3075900000001
 30
0.0
 11
535.2135000000001
 21
688.1746200000001
 31
0.0
  0
LINE
  5
12D
330
1F
100
AcDbEntity
  8
_0-0_
  6
DASH_CENTER
 62
     2
100
AcDbLine
 10
134.31921
 20
559.3075900000001
 30
0.0
 11
480.3192099999999
 21
559.3075900000001
 31
0.0
  0
LINE
  5
12E
330
1F
100
AcDbEntity
  8
_0-0_
  6
DASH_CENTER
 62
     2
100
AcDbLine
 10
529.2135000000001
 20
559.3075900000001
 30
0.0
 11
590.7135
 21
559.3075900000001
 31
0.0
  0
LINE
  5
12F
330
1F
100
AcDbEntity
  8
_0-1_
  6
DASH_CENTER
 62
     2
100
AcDbLine
 10
147.31921
 20
635.9075900000001
 30
0.0
 11
147.31921
 21
622.7075900000001
 31
0.0
  0
LINE
  5
130
330
1F
100
AcDbEntity
  8
_0-1_
  6
DASH_CENTER
 62
     2
100
AcDbLine
 10
140.71921
 20
629.3075900000001
 30
0.0
 11
153.91921
 21
629.3075900000001
 31
0.0
  0
LINE
  5
131
330
1F
100
AcDbEntity
  8
_0-1_
  6
DASH_CENTER
 62
     2
100
AcDbLine
 10
147.31921
 20
495.9075900000001
 30
0.0
 11
147.31921
 21
482.7075900000001
 31
0.0
  0
LINE
  5
132
330
1F
100
AcDbEntity
  8
_0-1_
  6
DASH_CENTER
 62
     2
100
AcDbLine
 10
140.71921
 20
489.3075900000001
 30
0.0
 11
153.91921
 21
489.3075900000001
 31
0.0
  0
LINE
  5
133
330
1F
100
AcDbEntity
  8
_0-1_
  6
DASH_CENTER
 62
     2
100
AcDbLine
 10
467.3192099999999
 20
495.9075900000001
 30
0.0
 11
467.3192099999999
 21
481.3075900000001
 31
0.0
  0
LINE
  5
134
330
1F
100
AcDbEntity
  8
_0-1_
  6
DASH_CENTER
 62
     2
100
AcDbLine
 10
467.3192099999999
 20
635.9075900000001
 30
0.0
 11
467.3192099999999
 21
622.7075900000001
 31
0.0
  0
LINE
  5
135
330
1F
100
AcDbEntity
  8
_0-1_
  6
DASH_CENTER
 62
     2
100
AcDbLine
 10
460.7192099999999
 20
629.3075900000001
 30
0.0
 11
475.3192099999999
 21
629.3075900000001
 31
0.0
  0
LINE
  5
136
330
1F
100
AcDbEntity
  8
_0-1_
  6
DASH_CENTER
 62
     2
100
AcDbLine
 10
473.9192099999999
 20
489.3075900000001
 30
0.0
 11
459.3192099999999
 21
489.3075900000001
 31
0.0
  0
LINE
  5
137
330
1F
100
AcDbEntity
  8
_0-0_
  6
DASH_CENTER
 62
     2
100
AcDbLine
 10
307.3192099999999
 20
312.7728164813231
 30
0.0
 11
307.3192099999999
 21
251.2728164813231
 31
0.0
  0
LINE
  5
138
330
1F
100
AcDbEntity
  8
_0-A_
  6
Continuous
 62
     2
100
AcDbLine
 10
124.0112499999997
 20
306.7728164813231
 30
0.0
 11
152.68016
 21
306.7728164813231
 31
0.0
  0
LINE
  5
139
330
1F
100
AcDbEntity
  8
_0-A_
  6
Continuous
 62
     2
100
AcDbLine
 10
462.3192099999999
 20
306.7728164813231
 30
0.0
 11
517.12717
 21
306.7728164813231
 31
0.0
  0
LINE
  5
13A
330
1F
100
AcDbEntity
  8
_0-A_
  6
Continuous
 62
     2
100
AcDbLine
 10
462.3192099999999
 20
306.7728164813231
 30
0.0
 11
462.3192099999999
 21
291.7728164813231
 31
0.0
  0
SOLID
  5
142
330
1F
100
AcDbEntity
  8
0
 62
     2
100
AcDbTrace
 10
338.5275958165953
 20
455.4917736558835
 30
0.0
 11
336.045921043739
 21
454.2732149817477
 31
0.0
 12
332.6588223998349
 22
464.3075900000001
 32
0.0
 13
332.6588223998349
 23
464.3075900000001
 33
0.0
  0
LEADER
  5
143
330
1F
100
AcDbEntity
  8
0
  6
Continuous
 62
     2
100
AcDbLeader
  3
Standard
 71
     0
 76
     3
 10
332.6588223998349
 20
464.3075900000001
 30
0.0
 10
347.3501264607158
 20
434.3877843787403
 30
0.0
 10
452.6960084145385
 20
434.3877843787403
 30
0.0
  0
SOLID
  5
144
330
1F
100
AcDbEntity
  8
0
 62
     2
100
AcDbTrace
 10
139.7190086847919
 20
316.9612486937344
 30
0.0
 11
141.8445194718289
 21
318.7292415711896
 31
0.0
 12
147.4963836634099
 22
309.7728164813231
 32
0.0
 13
147.4963836634099
 23
309.7728164813231
 33
0.0
  0
LEADER
  5
145
330
1F
100
AcDbEntity
  8
0
  6
Continuous
 62
     2
100
AcDbLeader
  3
Standard
 71
     0
 76
     3
 10
147.4963836634099
 20
309.7728164813231
 30
0.0
 10
131.7247221296964
 20
328.7337733646206
 30
0.0
 10
104.3788401758739
 20
328.7337733646206
 30
0.0
  0
SOLID
  5
146
330
1F
100
AcDbEntity
  8
1
 62
     2
100
AcDbTrace
 10
492.3849502412367
 20
317.2728269813336
 30
0.0
 11
495.1496554552772
 21
317.2728269813336
 31
0.0
 12
493.7673028482569
 22
306.7728164813231
 32
0.0
 13
493.7673028482569
 23
306.7728164813231
 33
0.0
  0
LEADER
  5
147
330
1F
100
AcDbEntity
  8
1
  6
Continuous
 62
     2
100
AcDbLeader
  3
Standard
 71
     0
 76
     2
 10
493.7673028482569
 20
306.7728164813231
 30
0.0
 10
493.7673028482569
 20
326.6622381337157
 30
0.0
  0
MTEXT
  5
148
330
1F
100
AcDbEntity
  8
0
 62
     7
100
AcDbMText
 10
102.000102000102
 20
102.000102000102
 30
0.0
 40
10.5000105000105
 41
0.0
 71
     4
 72
     1
  1
板厚は、t=3とする。
  7
CONVERTER_11
 73
     1
 44
1.0
  0
MTEXT
  5
149
330
1F
100
AcDbEntity
  8
1
 62
     7
100
AcDbMText
 10
399.7434849098292
 20
442.3590941486746
 30
0.0
 40
10.5000105000105
 41
0.0
 71
     5
 72
     1
  1
床開口部310X190
  7
CONVERTER_11
 73
     1
 44
1.0
  0
MTEXT
  5
14A
330
1F
100
AcDbEntity
  8
1
 62
     7
100
AcDbMText
 10
117.8313636805828
 20
336.2050831345549
 30
0.0
 40
10.5000105000105
 41
0.0
 71
     5
 72
     1
  1
本体
  7
CONVERTER_11
 73
     1
 44
1.0
  0
MTEXT
  5
14C
330
1F
100
AcDbEntity
  8
1
 62
     7
100
AcDbMText
 10
501.7182171538181
 20
329.0166854471271
 30
0.0
 40
10.5000105000105
 41
0.0
 71
     9
 72
     1
  1
FL
  7
CONVERTER_12
 73
     1
 44
1.32052821128451
  0
MTEXT
  5
14D
330
1F
100
AcDbEntity
  8
1
 62
     7
100
AcDbMText
 10
171.000171000171
 20
68.25006825006828
 30
0.0
 40
10.5000105000105
 41
0.0
 71
     5
 72
     1
  1
洗濯機パン
  7
CONVERTER_11
 73
     1
 44
0.54545454545455
  0
MTEXT
  5
14E
330
1F
100
AcDbEntity
  8
1
 62
     7
100
AcDbMText
 10
171.000171000171
 20
42.75004275004274
 30
0.0
 40
10.5000105000105
 41
0.0
 71
     5
 72
     1
  1
H543F-340
  7
CONVERTER_12
 73
     1
 44
0.7202881152461
  0
MTEXT
  5
14F
330
1F
100
AcDbEntity
  8
0
 62
     7
100
AcDbMText
 10
255.7502557502558
 20
51.00005100005099
 30
0.0
 40
10.5000105000105
 41
0.0
 71
     5
 72
     1
  1
1
  7
CONVERTER_12
 73
     1
 44
1.32052821128451
  0
MTEXT
  5
150
330
1F
100
AcDbEntity
  8
0
 62
     7
100
AcDbMText
 10
281.2502812502813
 20
51.00005100005099
 30
0.0
 40
10.5000105000105
 41
0.0
 71
     5
 72
     1
  1
3
  7
CONVERTER_12
 73
     1
 44
1.32052821128451
  0
DIMENSION
  5
15B
330
1F
100
AcDbEntity
  8
1
100
AcDbDimension
  2
*D5
 10
97.31920999999998
 20
309.7728164813231
 30
0.0
 11
89.06920174999173
 21
282.0228164813231
 31
0.0
 70
    32
  1
56
 71
     5
 42
-1.0
 53
90.0
  3
ME10_DIM_10
100
AcDbAlignedDimension
 13
236.40254
 23
254.2728164813231
 33
0.0
 14
139.31921
 24
309.7728164813231
 34
0.0
 50
90.0
100
AcDbRotatedDimension
  0
DIMENSION
  5
166
330
1F
100
AcDbEntity
  8
1
100
AcDbDimension
  2
*D6
 10
117.31921
 20
309.7728164813231
 30
0.0
 11
109.0692017499917
 21
289.7728164813231
 31
0.0
 70
    32
  1
<>
 71
     5
 42
-1.0
 53
90.0
  3
ME10_DIM_11
100
AcDbAlignedDimension
 13
169.59729
 23
269.7728164813231
 33
0.0
 14
139.31921
 24
309.7728164813231
 34
0.0
 50
90.0
100
AcDbRotatedDimension
  0
DIMENSION
  5
173
330
1F
100
AcDbEntity
  8
1
100
AcDbDimension
  2
*D7
 10
117.31921
 20
257.7728164813231
 30
0.0
 11
109.0692017499917
 21
263.7728164813231
 31
0.0
 70
    32
  1
<>
 71
     5
 42
-1.0
 53
90.0
  3
ME10_DIM_12
100
AcDbAlignedDimension
 13
169.59729
 23
269.7728164813231
 33
0.0
 14
238.01346
 24
257.7728164813232
 34
0.0
 50
90.0
100
AcDbRotatedDimension
  0
DIMENSION
  5
17E
330
1F
100
AcDbEntity
  8
1
100
AcDbDimension
  2
*D8
 10
457.3192099999999
 20
679.3075900000001
 30
0.0
 11
307.3192099999999
 21
687.5575982500084
 31
0.0
 70
    32
  1
<>
 71
     5
 42
-1.0
 53
0.00013888888889
  3
ME10_DIM_13
100
AcDbAlignedDimension
 13
157.31921
 23
629.3075900000001
 33
0.0
 14
457.3192099999999
 24
629.3075900000001
 34
0.0
100
AcDbRotatedDimension
  0
DIMENSION
  5
189
330
1F
100
AcDbEntity
  8
1
100
AcDbDimension
  2
*D9
 10
137.3192099999999
 20
699.3075900000002
 30
0.0
 11
307.3192099999999
 21
707.5575982500085
 31
0.0
 70
    32
  1
<>
 71
     5
 42
-1.0
 53
0.00013888888889
  3
ME10_DIM_14
100
AcDbAlignedDimension
 13
477.3192099999999
 23
629.3075900000001
 33
0.0
 14
137.31921
 24
629.3075900000001
 34
0.0
100
AcDbRotatedDimension
  0
DIMENSION
  5
194
330
1F
100
AcDbEntity
  8
1
100
AcDbDimension
  2
*D10
 10
117.31921
 20
649.3075900000001
 30
0.0
 11
109.0692017499917
 21
559.3075900000001
 31
0.0
 70
    32
  1
<>
 71
     5
 42
-1.0
 53
90.0
  3
ME10_DIM_15
100
AcDbAlignedDimension
 13
177.31921
 23
469.3075900000001
 33
0.0
 14
177.31921
 24
649.3075900000001
 34
0.0
 50
90.0
100
AcDbRotatedDimension
  0
DIMENSION
  5
19F
330
1F
100
AcDbEntity
  8
1
100
AcDbDimension
  2
*D11
 10
97.31920999999998
 20
659.3075900000001
 30
0.0
 11
89.06920174999173
 21
559.3075900000001
 31
0.0
 70
    32
  1
<>
 71
     5
 42
-1.0
 53
90.0
  3
ME10_DIM_16
100
AcDbAlignedDimension
 13
167.31921
 23
459.3075900000002
 33
0.0
 14
167.31921
 24
659.3075900000001
 34
0.0
 50
90.0
100
AcDbRotatedDimension
  0
DIMENSION
  5
1AA
330
1F
100
AcDbEntity
  8
1
100
AcDbDimension
  2
*D12
 10
497.3192099999999
 20
629.3075900000001
 30
0.0
 11
489.0692017499917
 21
555.311537077921
 31
0.0
 70
    32
  1
<>
 71
     5
 42
-1.0
 53
90.0
  3
ME10_DIM_17
100
AcDbAlignedDimension
 13
473.9192099999999
 23
489.3075900000001
 33
0.0
 14
475.3192099999999
 24
629.3075900000001
 34
0.0
 50
90.0
100
AcDbRotatedDimension
  0
DIMENSION
  5
1B5
330
1F
100
AcDbEntity
  8
1
100
AcDbDimension
  2
*D13
 10
147.3192099999999
 20
417.4471847909471
 30
0.0
 11
307.3192099999999
 21
425.6971930409553
 31
0.0
 70
    32
  1
<>
 71
     5
 42
-1.0
 53
0.00013888888889
  3
ME10_DIM_18
100
AcDbAlignedDimension
 13
467.3192099999999
 23
481.3075900000001
 33
0.0
 14
147.31921
 24
482.7075900000001
 34
0.0
100
AcDbRotatedDimension
  0
INSERT
  5
1BD
330
1F
100
AcDbEntity
  8
1
100
AcDbBlockReference
  2
*D14
 10
0.0
 20
0.0
 30
0.0
  0
INSERT
  5
1C4
330
1F
100
AcDbEntity
  8
1
100
AcDbBlockReference
  2
*D15
 10
0.0
 20
0.0
 30
0.0
  0
INSERT
  5
1CC
330
1F
100
AcDbEntity
  8
1
100
AcDbBlockReference
  2
*D16
 10
0.0
 20
0.0
 30
0.0
  0
HATCH
  5
1CD
330
1F
100
AcDbEntity
  8
1
  6
Continuous
 62
     4
100
AcDbHatch
 10
0.0
 20
0.0
 30
0.0
210
0.0
220
0.0
230
1.0
  2
CUSTOM1
 70
     0
 71
     0
 91
        1
 92
        1
 93
        4
 72
     1
 10
124.0112499999997
 20
306.7728164813231
 11
124.0112499999997
 21
291.7728164813231
 72
     1
 10
124.0112499999997
 20
291.7728164813231
 11
152.31921
 21
291.7728164813231
 72
     1
 10
152.31921
 20
291.7728164813231
 11
152.31921
 21
306.7728164813231
 72
     1
 10
152.31921
 20
306.7728164813231
 11
124.0112499999997
 21
306.7728164813231
 97
        0
 75
     1
 76
     2
 52
45.0
 41
15.0
 77
     0
 78
     2
 53
45.0
 43
0.0
 44
0.0
 45
-21.21320343559642
 46
0.0000000000000017
 79
     0
 53
45.0
 43
3.535533905932737
 44
-3.535533905932737
 45
-21.21320343559642
 46
0.0000000000000017
 79
     0
 98
        1
 10
0.0
 20
0.0
  0
HATCH
  5
1CE
330
1F
100
AcDbEntity
  8
1
  6
Continuous
 62
     4
100
AcDbHatch
 10
0.0
 20
0.0
 30
0.0
210
0.0
220
0.0
230
1.0
  2
CUSTOM2
 70
     0
 71
     0
 91
        1
 92
        1
 93
        4
 72
     1
 10
517.12717
 20
306.7728164813231
 11
517.12717
 21
291.7728164813231
 72
     1
 10
517.12717
 20
291.7728164813231
 11
462.3192099999999
 21
291.7728164813231
 72
     1
 10
462.3192099999999
 20
291.7728164813231
 11
462.3192099999999
 21
306.7728164813231
 72
     1
 10
462.3192099999999
 20
306.7728164813231
 11
517.12717
 21
306.7728164813231
 97
        0
 75
     1
 76
     2
 52
45.0
 41
15.0
 77
     0
 78
     2
 53
45.0
 43
0.0
 44
0.0
 45
-21.21320343559642
 46
0.0000000000000017
 79
     0
 53
45.0
 43
3.535533905932737
 44
-3.535533905932737
 45
-21.21320343559642
 46
0.0000000000000017
 79
     0
 98
        1
 10
0.0
 20
0.0
  0
HATCH
  5
1CF
330
1F
100
AcDbEntity
  8
1
  6
Continuous
 62
     4
100
AcDbHatch
 10
0.0
 20
0.0
 30
0.0
210
0.0
220
0.0
230
1.0
  2
CUSTOM3
 70
     0
 71
     0
 91
        1
 92
        1
 93
        4
 72
     1
 10
550.2135000000001
 20
688.1746200000001
 11
535.2135000000001
 21
688.1746200000001
 72
     1
 10
535.2135000000001
 20
688.1746200000001
 11
535.2135000000001
 21
654.3075900000001
 72
     1
 10
535.2135000000001
 20
654.3075900000001
 11
550.2135000000001
 21
654.3075900000001
 72
     1
 10
550.2135000000001
 20
654.3075900000001
 11
550.2135000000001
 21
688.1746200000001
 97
        0
 75
     1
 76
     2
 52
45.0
 41
15.0
 77
     0
 78
     2
 53
45.0
 43
0.0
 44
0.0
 45
-21.21320343559642
 46
0.0000000000000017
 79
     0
 53
45.0
 43
3.535533905932737
 44
-3.535533905932737
 45
-21.21320343559642
 46
0.0000000000000017
 79
     0
 98
        1
 10
0.0
 20
0.0
  0
HATCH
  5
1D0
330
1F
100
AcDbEntity
  8
1
  6
Continuous
 62
     4
100
AcDbHatch
 10
0.0
 20
0.0
 30
0.0
210
0.0
220
0.0
230
1.0
  2
CUSTOM4
 70
     0
 71
     0
 91
        1
 92
        1
 93
        4
 72
     1
 10
550.2135000000001
 20
464.3075900000001
 11
550.2135000000001
 21
433.7701000000001
 72
     1
 10
550.2135000000001
 20
433.7701000000001
 11
535.2135000000001
 21
433.7701000000001
 72
     1
 10
535.2135000000001
 20
433.7701000000001
 11
535.2135000000001
 21
464.3075900000001
 72
     1
 10
535.2135000000001
 20
464.3075900000001
 11
550.2135000000001
 21
464.3075900000001
 97
        0
 75
     1
 76
     2
 52
45.0
 41
15.0
 77
     0
 78
     2
 53
45.0
 43
0.0
 44
0.0
 45
-21.21320343559642
 46
0.0000000000000017
 79
     0
 53
45.0
 43
3.535533905932737
 44
-3.535533905932737
 45
-21.21320343559642
 46
0.0000000000000017
 79
     0
 98
        1
 10
0.0
 20
0.0
  0
ENDSEC
  0
SECTION
  2
OBJECTS
  0
DICTIONARY
  5
C
330
0
100
AcDbDictionary
281
     1
  3
ACAD_GROUP
350
D
  3
ACAD_LAYOUT
350
1A
  3
ACAD_MATERIAL
350
3B
  3
ACAD_MLEADERSTYLE
350
1D3
  3
ACAD_MLINESTYLE
350
17
  3
ACAD_PLOTSETTINGS
350
19
  3
ACAD_PLOTSTYLENAME
350
E
  3
ACAD_VISUALSTYLE
350
2A
  3
AcDbVariableDictionary
350
1D1
  0
DICTIONARY
  5
D
102
{ACAD_REACTORS
330
C
102
}
330
C
100
AcDbDictionary
281
     1
  0
DICTIONARY
  5
1A
102
{ACAD_REACTORS
330
C
102
}
330
C
100
AcDbDictionary
281
     1
  3
Layout1
350
1E
  3
Layout2
350
26
  3
Model
350
22
  0
DICTIONARY
  5
3B
102
{ACAD_REACTORS
330
C
102
}
330
C
100
AcDbDictionary
281
     1
  3
ByBlock
350
3D
  3
ByLayer
350
3C
  3
Global
350
3E
  0
DICTIONARY
  5
1D3
102
{ACAD_REACTORS
330
C
102
}
330
C
100
AcDbDictionary
281
     1
  0
DICTIONARY
  5
17
102
{ACAD_REACTORS
330
C
102
}
330
C
100
AcDbDictionary
281
     1
  3
Standard
350
18
  0
DICTIONARY
  5
19
102
{ACAD_REACTORS
330
C
102
}
330
C
100
AcDbDictionary
281
     1
  0
ACDBDICTIONARYWDFLT
  5
E
102
{ACAD_REACTORS
330
C
102
}
330
C
100
AcDbDictionary
281
     1
  3
Normal
350
F
100
AcDbDictionaryWithDefault
340
F
  0
DICTIONARY
  5
2A
102
{ACAD_REACTORS
330
C
102
}
330
C
100
AcDbDictionary
281
     1
  3
2dWireframe
350
2F
  3
3D Hidden
350
31
  3
3dWireframe
350
30
  3
Basic
350
32
  3
Brighten
350
36
  3
ColorChange
350
3A
  3
Conceptual
350
34
  3
Dim
350
35
  3
Facepattern
350
39
  3
Flat
350
2B
  3
FlatWithEdges
350
2C
  3
Gouraud
350
2D
  3
GouraudWithEdges
350
2E
  3
Linepattern
350
38
  3
Realistic
350
33
  3
Thicken
350
37
  0
DICTIONARY
  5
1D1
102
{ACAD_REACTORS
330
C
102
}
330
C
100
AcDbDictionary
281
     1
  3
DIMASSOC
350
1D4
  3
HIDETEXT
350
1D5
  0
LAYOUT
  5
1E
102
{ACAD_REACTORS
330
1A
102
}
330
1A
100
AcDbPlotSettings
  1

  2
none_device
  4

  6

 40
0.0
 41
0.0
 42
0.0
 43
0.0
 44
0.0
 45
0.0
 46
0.0
 47
0.0
 48
0.0
 49
0.0
140
0.0
141
0.0
142
1.0
143
1.0
 70
   688
 72
     0
 73
     0
 74
     5
  7

 75
    16
147
1.0
148
0.0
149
0.0
100
AcDbLayout
  1
Layout1
 70
     1
 71
     1
 10
0.0
 20
0.0
 11
12.0
 21
9.0
 12
0.0
 22
0.0
 32
0.0
 14
1.00000000000000E+20
 24
1.00000000000000E+20
 34
1.00000000000000E+20
 15
-1.00000000000000E+20
 25
-1.00000000000000E+20
 35
-1.00000000000000E+20
146
0.0
 13
0.0
 23
0.0
 33
0.0
 16
1.0
 26
0.0
 36
0.0
 17
0.0
 27
1.0
 37
0.0
 76
     0
330
1B
  0
LAYOUT
  5
26
102
{ACAD_REACTORS
330
1A
102
}
330
1A
100
AcDbPlotSettings
  1

  2
none_device
  4

  6

 40
0.0
 41
0.0
 42
0.0
 43
0.0
 44
0.0
 45
0.0
 46
0.0
 47
0.0
 48
0.0
 49
0.0
140
0.0
141
0.0
142
1.0
143
1.0
 70
   688
 72
     0
 73
     0
 74
     5
  7

 75
    16
147
1.0
148
0.0
149
0.0
100
AcDbLayout
  1
Layout2
 70
     1
 71
     2
 10
0.0
 20
0.0
 11
0.0
 21
0.0
 12
0.0
 22
0.0
 32
0.0
 14
0.0
 24
0.0
 34
0.0
 15
0.0
 25
0.0
 35
0.0
146
0.0
 13
0.0
 23
0.0
 33
0.0
 16
1.0
 26
0.0
 36
0.0
 17
0.0
 27
1.0
 37
0.0
 76
     0
330
23
  0
LAYOUT
  5
22
102
{ACAD_REACTORS
330
1A
102
}
330
1A
100
AcDbPlotSettings
  1

  2
none_device
  4

  6

 40
0.0
 41
0.0
 42
0.0
 43
0.0
 44
0.0
 45
0.0
 46
0.0
 47
0.0
 48
0.0
 49
0.0
140
0.0
141
0.0
142
1.0
143
1.0
 70
  1712
 72
     0
 73
     0
 74
     0
  7

 75
     0
147
1.0
148
0.0
149
0.0
100
AcDbLayout
  1
Model
 70
     1
 71
     0
 10
0.0
 20
0.0
 11
12.0
 21
9.0
 12
0.0
 22
0.0
 32
0.0
 14
0.0
 24
0.0
 34
0.0
 15
630.00063000063
 25
891.0008910008911
 35
0.0
146
0.0
 13
0.0
 23
0.0
 33
0.0
 16
1.0
 26
0.0
 36
0.0
 17
0.0
 27
1.0
 37
0.0
 76
     0
330
1F
331
29
  0
MATERIAL
  5
3D
102
{ACAD_REACTORS
330
3B
102
}
102
{ACAD_XDICTIONARY
360
1F8
102
}
330
3B
100
AcDbMaterial
  1
ByBlock
  0
MATERIAL
  5
3C
102
{ACAD_REACTORS
330
3B
102
}
102
{ACAD_XDICTIONARY
360
1F6
102
}
330
3B
100
AcDbMaterial
  1
ByLayer
  0
MATERIAL
  5
3E
102
{ACAD_REACTORS
330
3B
102
}
102
{ACAD_XDICTIONARY
360
1FA
102
}
330
3B
100
AcDbMaterial
  1
Global
  0
MLINESTYLE
  5
18
102
{ACAD_REACTORS
330
17
102
}
330
17
100
AcDbMlineStyle
  2
Standard
 70
     0
  3

 62
   256
 51
90.0
 52
90.0
 71
     2
 49
0.5
 62
   256
  6
BYLAYER
 49
-0.5
 62
   256
  6
BYLAYER
  0
ACDBPLACEHOLDER
  5
F
102
{ACAD_REACTORS
330
E
102
}
330
E
  0
VISUALSTYLE
  5
2F
102
{ACAD_REACTORS
330
2A
102
}
102
{ACAD_XDICTIONARY
360
1DE
102
}
330
2A
100
AcDbVisualStyle
  2
2dWireframe
 70
     4
 71
     0
 72
     2
 73
     0
 90
        0
 40
-0.6
 41
-30.0
 62
     5
 63
     7
 74
     1
 91
        4
 64
     7
 65
   257
 75
     1
175
     1
 42
1.0
 92
        0
 66
   257
 43
1.0
 76
     1
 77
     6
 78
     2
 67
     7
 79
     5
170
     0
171
     0
290
     0
174
     0
 93
        1
 44
0.0
173
     0
291
     0
 45
0.0
1001
ACAD
1000
AcDbSavedByObjectVersion
1070
     0
  0
VISUALSTYLE
  5
31
102
{ACAD_REACTORS
330
2A
102
}
102
{ACAD_XDICTIONARY
360
1E2
102
}
330
2A
100
AcDbVisualStyle
  2
3D Hidden
 70
     6
 71
     1
 72
     2
 73
     2
 90
        0
 40
-0.6
 41
-30.0
 62
     5
 63
     7
 74
     2
 91
        2
 64
     7
 65
   257
 75
     2
175
     1
 42
40.0
 92
        0
 66
   257
 43
1.0
 76
     1
 77
     6
 78
     2
 67
     7
 79
     3
170
     0
171
     0
290
     0
174
     0
 93
        1
 44
0.0
173
     0
291
     0
 45
0.0
1001
ACAD
1000
AcDbSavedByObjectVersion
1070
     0
  0
VISUALSTYLE
  5
30
102
{ACAD_REACTORS
330
2A
102
}
102
{ACAD_XDICTIONARY
360
1E0
102
}
330
2A
100
AcDbVisualStyle
  2
3dWireframe
 70
     5
 71
     0
 72
     2
 73
     0
 90
        0
 40
-0.6
 41
-30.0
 62
     5
 63
     7
 74
     1
 91
        4
 64
     7
 65
   257
 75
     1
175
     1
 42
1.0
 92
        0
 66
   257
 43
1.0
 76
     1
 77
     6
 78
     2
 67
     7
 79
     5
170
     0
171
     0
290
     0
174
     0
 93
        1
 44
0.0
173
     0
291
     0
 45
0.0
1001
ACAD
1000
AcDbSavedByObjectVersion
1070
     0
  0
VISUALSTYLE
  5
32
102
{ACAD_REACTORS
330
2A
102
}
102
{ACAD_XDICTIONARY
360
1E4
102
}
330
2A
100
AcDbVisualStyle
  2
Basic
 70
     7
 71
     1
 72
     0
 73
     1
 90
        0
 40
-0.6
 41
-30.0
 62
     5
 63
     7
 74
     0
 91
        4
 64
     7
 65
   257
 75
     1
175
     1
 42
1.0
 92
        8
 66
     7
 43
1.0
 76
     1
 77
     6
 78
     2
 67
     7
 79
     5
170
     0
171
     0
290
     0
174
     0
 93
        1
 44
0.0
173
     0
291
     1
 45
0.0
1001
ACAD
1000
AcDbSavedByObjectVersion
1070
     0
  0
VISUALSTYLE
  5
36
102
{ACAD_REACTORS
330
2A
102
}
102
{ACAD_XDICTIONARY
360
1EC
102
}
330
2A
100
AcDbVisualStyle
  2
Brighten
 70
    12
 71
     2
 72
     2
 73
     0
 90
        0
 40
-0.6
 41
-30.0
 62
     5
 63
     7
 74
     1
 91
        4
 64
     7
 65
   257
 75
     1
175
     1
 42
1.0
 92
        8
 66
     7
 43
1.0
 76
     1
 77
     6
 78
     2
 67
     7
 79
     5
170
     0
171
     0
290
     0
174
     0
 93
        1
 44
50.0
173
     0
291
     1
 45
0.0
1001
ACAD
1000
AcDbSavedByObjectVersion
1070
     0
  0
VISUALSTYLE
  5
3A
102
{ACAD_REACTORS
330
2A
102
}
102
{ACAD_XDICTIONARY
360
1F4
102
}
330
2A
100
AcDbVisualStyle
  2
ColorChange
 70
    16
 71
     2
 72
     2
 73
     3
 90
        0
 40
-0.6
 41
-30.0
 62
     5
 63
     8
 74
     1
 91
        4
 64
     7
 65
   257
 75
     1
175
     1
 42
1.0
 92
        8
 66
     8
 43
1.0
 76
     1
 77
     6
 78
     2
 67
     7
 79
     5
170
     0
171
     0
290
     0
174
     0
 93
        1
 44
0.0
173
     0
291
     1
 45
0.0
1001
ACAD
1000
AcDbSavedByObjectVersion
1070
     0
  0
VISUALSTYLE
  5
34
102
{ACAD_REACTORS
330
2A
102
}
102
{ACAD_XDICTIONARY
360
1E8
102
}
330
2A
100
AcDbVisualStyle
  2
Conceptual
 70
     9
 71
     3
 72
     2
 73
     0
 90
        0
 40
-0.6
 41
-30.0
 62
     5
 63
     7
 74
     2
 91
        2
 64
     7
 65
   257
 75
     1
175
     1
 42
40.0
 92
        8
 66
     7
 43
1.0
 76
     1
 77
     6
 78
     2
 67
     7
 79
     3
170
     0
171
     0
290
     0
174
     0
 93
        1
 44
0.0
173
     0
291
     0
 45
0.0
1001
ACAD
1000
AcDbSavedByObjectVersion
1070
     0
  0
VISUALSTYLE
  5
35
102
{ACAD_REACTORS
330
2A
102
}
102
{ACAD_XDICTIONARY
360
1EA
102
}
330
2A
100
AcDbVisualStyle
  2
Dim
 70
    11
 71
     2
 72
     2
 73
     0
 90
        0
 40
-0.6
 41
-30.0
 62
     5
 63
     7
 74
     1
 91
        4
 64
     7
 65
   257
 75
     1
175
     1
 42
1.0
 92
        8
 66
     7
 43
1.0
 76
     1
 77
     6
 78
     2
 67
     7
 79
     5
170
     0
171
     0
290
     0
174
     0
 93
        1
 44
-50.0
173
     0
291
     1
 45
0.0
1001
ACAD
1000
AcDbSavedByObjectVersion
1070
     0
  0
VISUALSTYLE
  5
39
102
{ACAD_REACTORS
330
2A
102
}
102
{ACAD_XDICTIONARY
360
1F2
102
}
330
2A
100
AcDbVisualStyle
  2
Facepattern
 70
    15
 71
     2
 72
     2
 73
     0
 90
        0
 40
-0.6
 41
-30.0
 62
     5
 63
     7
 74
     1
 91
        4
 64
     7
 65
   257
 75
     1
175
     1
 42
1.0
 92
        8
 66
     7
 43
1.0
 76
     1
 77
     6
 78
     2
 67
     7
 79
     5
170
     0
171
     0
290
     0
174
     0
 93
        1
 44
0.0
173
     0
291
     1
 45
0.0
1001
ACAD
1000
AcDbSavedByObjectVersion
1070
     0
  0
VISUALSTYLE
  5
2B
102
{ACAD_REACTORS
330
2A
102
}
102
{ACAD_XDICTIONARY
360
1D6
102
}
330
2A
100
AcDbVisualStyle
  2
Flat
 70
     0
 71
     2
 72
     1
 73
     1
 90
        2
 40
-0.6
 41
30.0
 62
     5
 63
     7
 74
     0
 91
        4
 64
     7
 65
   257
 75
     1
175
     1
 42
1.0
 92
        8
 66
     7
 43
1.0
 76
     1
 77
     6
 78
     2
 67
     7
 79
     5
170
     0
171
     0
290
     0
174
     0
 93
       13
 44
0.0
173
     0
291
     1
 45
0.0
1001
ACAD
1000
AcDbSavedByObjectVersion
1070
     0
  0
VISUALSTYLE
  5
2C
102
{ACAD_REACTORS
330
2A
102
}
102
{ACAD_XDICTIONARY
360
1D8
102
}
330
2A
100
AcDbVisualStyle
  2
FlatWithEdges
 70
     1
 71
     2
 72
     1
 73
     1
 90
        2
 40
-0.6
 41
30.0
 62
     5
 63
     7
 74
     1
 91
        4
 64
     7
 65
   257
 75
     1
175
     1
 42
1.0
 92
        0
 66
   257
 43
1.0
 76
     1
 77
     6
 78
     2
 67
     7
 79
     5
170
     0
171
     0
290
     0
174
     0
 93
       13
 44
0.0
173
     0
291
     1
 45
0.0
1001
ACAD
1000
AcDbSavedByObjectVersion
1070
     0
  0
VISUALSTYLE
  5
2D
102
{ACAD_REACTORS
330
2A
102
}
102
{ACAD_XDICTIONARY
360
1DA
102
}
330
2A
100
AcDbVisualStyle
  2
Gouraud
 70
     2
 71
     2
 72
     2
 73
     1
 90
        2
 40
-0.6
 41
30.0
 62
     5
 63
     7
 74
     0
 91
        4
 64
     7
 65
   257
 75
     1
175
     1
 42
1.0
 92
        0
 66
     7
 43
1.0
 76
     1
 77
     6
 78
     2
 67
     7
 79
     5
170
     0
171
     0
290
     0
174
     0
 93
       13
 44
0.0
173
     0
291
     1
 45
0.0
1001
ACAD
1000
AcDbSavedByObjectVersion
1070
     0
  0
VISUALSTYLE
  5
2E
102
{ACAD_REACTORS
330
2A
102
}
102
{ACAD_XDICTIONARY
360
1DC
102
}
330
2A
100
AcDbVisualStyle
  2
GouraudWithEdges
 70
     3
 71
     2
 72
     2
 73
     1
 90
        2
 40
-0.6
 41
30.0
 62
     5
 63
     7
 74
     1
 91
        4
 64
     7
 65
   257
 75
     1
175
     1
 42
1.0
 92
        0
 66
   257
 43
1.0
 76
     1
 77
     6
 78
     2
 67
     7
 79
     5
170
     0
171
     0
290
     0
174
     0
 93
       13
 44
0.0
173
     0
291
     1
 45
0.0
1001
ACAD
1000
AcDbSavedByObjectVersion
1070
     0
  0
VISUALSTYLE
  5
38
102
{ACAD_REACTORS
330
2A
102
}
102
{ACAD_XDICTIONARY
360
1F0
102
}
330
2A
100
AcDbVisualStyle
  2
Linepattern
 70
    14
 71
     2
 72
     2
 73
     0
 90
        0
 40
-0.6
 41
-30.0
 62
     5
 63
     7
 74
     1
 91
        4
 64
     7
 65
   257
 75
     7
175
     7
 42
1.0
 92
        8
 66
     7
 43
1.0
 76
     1
 77
     6
 78
     2
 67
     7
 79
     5
170
     0
171
     0
290
     0
174
     0
 93
        1
 44
0.0
173
     0
291
     1
 45
0.0
1001
ACAD
1000
AcDbSavedByObjectVersion
1070
     0
  0
VISUALSTYLE
  5
33
102
{ACAD_REACTORS
330
2A
102
}
102
{ACAD_XDICTIONARY
360
1E6
102
}
330
2A
100
AcDbVisualStyle
  2
Realistic
 70
     8
 71
     2
 72
     2
 73
     0
 90
        0
 40
-0.6
 41
-30.0
 62
     5
 63
     7
 74
     1
 91
        0
 64
     7
 65
   257
 75
     1
175
     1
 42
1.0
 92
        8
 66
     8
 43
1.0
 76
     1
 77
     6
 78
     2
 67
     7
 79
     5
170
     0
171
     0
290
     0
174
     0
 93
       13
 44
0.0
173
     0
291
     0
 45
0.0
1001
ACAD
1000
AcDbSavedByObjectVersion
1070
     0
  0
VISUALSTYLE
  5
37
102
{ACAD_REACTORS
330
2A
102
}
102
{ACAD_XDICTIONARY
360
1EE
102
}
330
2A
100
AcDbVisualStyle
  2
Thicken
 70
    13
 71
     2
 72
     2
 73
     0
 90
        0
 40
-0.6
 41
-30.0
 62
     5
 63
     7
 74
     1
 91
        4
 64
     7
 65
   257
 75
     1
175
     1
 42
1.0
 92
       12
 66
     7
 43
1.0
 76
     1
 77
     6
 78
     2
 67
     7
 79
     5
170
     0
171
     0
290
     0
174
     0
 93
        1
 44
0.0
173
     0
291
     1
 45
0.0
1001
ACAD
1000
AcDbSavedByObjectVersion
1070
     0
  0
DICTIONARYVAR
  5
1D4
102
{ACAD_REACTORS
330
1D1
102
}
330
1D1
100
DictionaryVariables
280
     0
  1
2
  0
DICTIONARYVAR
  5
1D5
102
{ACAD_REACTORS
330
1D1
102
}
330
1D1
100
DictionaryVariables
280
     0
  1
1
  0
DICTIONARY
  5
1F8
330
3D
100
AcDbDictionary
280
     1
281
     1
  3
ACAD_XREC_ROUNDTRIP
360
1F9
  0
DICTIONARY
  5
1F6
330
3C
100
AcDbDictionary
280
     1
281
     1
  3
ACAD_XREC_ROUNDTRIP
360
1F7
  0
DICTIONARY
  5
1FA
330
3E
100
AcDbDictionary
280
     1
281
     1
  3
ACAD_XREC_ROUNDTRIP
360
1FB
  0
DICTIONARY
  5
1DE
330
2F
100
AcDbDictionary
280
     1
281
     1
  3
ACAD_XREC_ROUNDTRIP
360
1DF
  0
DICTIONARY
  5
1E2
330
31
100
AcDbDictionary
280
     1
281
     1
  3
ACAD_XREC_ROUNDTRIP
360
1E3
  0
DICTIONARY
  5
1E0
330
30
100
AcDbDictionary
280
     1
281
     1
  3
ACAD_XREC_ROUNDTRIP
360
1E1
  0
DICTIONARY
  5
1E4
330
32
100
AcDbDictionary
280
     1
281
     1
  3
ACAD_XREC_ROUNDTRIP
360
1E5
  0
DICTIONARY
  5
1EC
330
36
100
AcDbDictionary
280
     1
281
     1
  3
ACAD_XREC_ROUNDTRIP
360
1ED
  0
DICTIONARY
  5
1F4
330
3A
100
AcDbDictionary
280
     1
281
     1
  3
ACAD_XREC_ROUNDTRIP
360
1F5
  0
DICTIONARY
  5
1E8
330
34
100
AcDbDictionary
280
     1
281
     1
  3
ACAD_XREC_ROUNDTRIP
360
1E9
  0
DICTIONARY
  5
1EA
330
35
100
AcDbDictionary
280
     1
281
     1
  3
ACAD_XREC_ROUNDTRIP
360
1EB
  0
DICTIONARY
  5
1F2
330
39
100
AcDbDictionary
280
     1
281
     1
  3
ACAD_XREC_ROUNDTRIP
360
1F3
  0
DICTIONARY
  5
1D6
330
2B
100
AcDbDictionary
280
     1
281
     1
  3
ACAD_XREC_ROUNDTRIP
360
1D7
  0
DICTIONARY
  5
1D8
330
2C
100
AcDbDictionary
280
     1
281
     1
  3
ACAD_XREC_ROUNDTRIP
360
1D9
  0
DICTIONARY
  5
1DA
330
2D
100
AcDbDictionary
280
     1
281
     1
  3
ACAD_XREC_ROUNDTRIP
360
1DB
  0
DICTIONARY
  5
1DC
330
2E
100
AcDbDictionary
280
     1
281
     1
  3
ACAD_XREC_ROUNDTRIP
360
1DD
  0
DICTIONARY
  5
1F0
330
38
100
AcDbDictionary
280
     1
281
     1
  3
ACAD_XREC_ROUNDTRIP
360
1F1
  0
DICTIONARY
  5
1E6
330
33
100
AcDbDictionary
280
     1
281
     1
  3
ACAD_XREC_ROUNDTRIP
360
1E7
  0
DICTIONARY
  5
1EE
330
37
100
AcDbDictionary
280
     1
281
     1
  3
ACAD_XREC_ROUNDTRIP
360
1EF
  0
XRECORD
  5
1F9
102
{ACAD_REACTORS
330
1F8
102
}
330
1F8
100
AcDbXrecord
280
     1
102
MATERIAL
148
0.0
149
0.0
149
0.0
 93
        0
 94
      127
282
     0
 72
     1
 77
     1
171
     1
175
     1
179
     1
273
     0
  0
XRECORD
  5
1F7
102
{ACAD_REACTORS
330
1F6
102
}
330
1F6
100
AcDbXrecord
280
     1
102
MATERIAL
148
0.0
149
0.0
149
0.0
 93
        0
 94
      127
282
     0
 72
     1
 77
     1
171
     1
175
     1
179
     1
273
     0
  0
XRECORD
  5
1FB
102
{ACAD_REACTORS
330
1FA
102
}
330
1FA
100
AcDbXrecord
280
     1
102
MATERIAL
148
0.0
149
0.0
149
0.0
 93
        0
 94
      127
282
     0
 72
     1
 77
     1
171
     1
175
     1
179
     1
273
     0
  0
XRECORD
  5
1DF
102
{ACAD_REACTORS
330
1DE
102
}
330
1DE
100
AcDbXrecord
280
     1
102
RTVSPropertyOp0
 70
     1
102
RTVSPropertyOp1
 70
     1
102
RTVSPropertyOp2
 70
     1
102
RTVSPropertyOp3
 70
     1
102
RTVSPropertyOp4
 70
     1
102
RTVSPropertyOp5
 70
     1
102
RTVSPropertyOp6
 70
     1
102
RTVSPropertyOp7
 70
     1
102
RTVSPropertyOp8
 70
     1
102
RTVSPropertyOp9
 70
     1
102
RTVSPropertyOp10
 70
     1
102
RTVSPropertyOp11
 70
     1
102
RTVSPropertyOp12
 70
     1
102
RTVSPropertyOp13
 70
     1
102
RTVSPropertyOp14
 70
     1
102
RTVSPropertyOp15
 70
     1
102
RTVSPropertyOp16
 70
     1
102
RTVSPropertyOp17
 70
     1
102
RTVSPropertyOp18
 70
     1
102
RTVSPropertyOp19
 70
     1
102
RTVSPropertyOp20
 70
     1
102
RTVSPropertyOp21
 70
     1
102
RTVSPropertyOp22
 70
     1
102
RTVSPropertyOp23
 70
     1
102
RTVSPropertyOp24
 70
     1
102
RTVSPropertyOp25
 70
     1
102
RTVSPropertyOp26
 70
     1
102
RTVSPropertyOp27
 70
     1
102
RTVSPropertyOp28
 70
     1
102
RTVSPropertyOp29
 70
     1
102
RTVSPropertyOp30
 70
     1
102
RTVSPropertyOp31
 70
     1
102
RTVSPropertyOp32
 70
     1
  0
XRECORD
  5
1E3
102
{ACAD_REACTORS
330
1E2
102
}
330
1E2
100
AcDbXrecord
280
     1
102
RTVSPropertyOp0
 70
     1
102
RTVSPropertyOp1
 70
     1
102
RTVSPropertyOp2
 70
     1
102
RTVSPropertyOp3
 70
     1
102
RTVSPropertyOp4
 70
     1
102
RTVSPropertyOp5
 70
     1
102
RTVSPropertyOp6
 70
     1
102
RTVSPropertyOp7
 70
     1
102
RTVSPropertyOp8
 70
     1
102
RTVSPropertyOp9
 70
     1
102
RTVSPropertyOp10
 70
     1
102
RTVSPropertyOp11
 70
     1
102
RTVSPropertyOp12
 70
     1
102
RTVSPropertyOp13
 70
     1
102
RTVSPropertyOp14
 70
     1
102
RTVSPropertyOp15
 70
     1
102
RTVSPropertyOp16
 70
     1
102
RTVSPropertyOp17
 70
     1
102
RTVSPropertyOp18
 70
     1
102
RTVSPropertyOp19
 70
     1
102
RTVSPropertyOp20
 70
     1
102
RTVSPropertyOp21
 70
     1
102
RTVSPropertyOp22
 70
     1
102
RTVSPropertyOp23
 70
     1
102
RTVSPropertyOp24
 70
     1
102
RTVSPropertyOp25
 70
     1
102
RTVSPropertyOp26
 70
     1
102
RTVSPropertyOp27
 70
     1
102
RTVSPropertyOp28
 70
     1
102
RTVSPropertyOp29
 70
     1
102
RTVSPropertyOp30
 70
     1
102
RTVSPropertyOp31
 70
     1
102
RTVSPropertyOp32
 70
     1
  0
XRECORD
  5
1E1
102
{ACAD_REACTORS
330
1E0
102
}
330
1E0
100
AcDbXrecord
280
     1
102
RTVSPropertyOp0
 70
     1
102
RTVSPropertyOp1
 70
     1
102
RTVSPropertyOp2
 70
     1
102
RTVSPropertyOp3
 70
     1
102
RTVSPropertyOp4
 70
     1
102
RTVSPropertyOp5
 70
     1
102
RTVSPropertyOp6
 70
     1
102
RTVSPropertyOp7
 70
     1
102
RTVSPropertyOp8
 70
     1
102
RTVSPropertyOp9
 70
     1
102
RTVSPropertyOp10
 70
     1
102
RTVSPropertyOp11
 70
     1
102
RTVSPropertyOp12
 70
     1
102
RTVSPropertyOp13
 70
     1
102
RTVSPropertyOp14
 70
     1
102
RTVSPropertyOp15
 70
     1
102
RTVSPropertyOp16
 70
     1
102
RTVSPropertyOp17
 70
     1
102
RTVSPropertyOp18
 70
     1
102
RTVSPropertyOp19
 70
     1
102
RTVSPropertyOp20
 70
     1
102
RTVSPropertyOp21
 70
     1
102
RTVSPropertyOp22
 70
     1
102
RTVSPropertyOp23
 70
     1
102
RTVSPropertyOp24
 70
     1
102
RTVSPropertyOp25
 70
     1
102
RTVSPropertyOp26
 70
     1
102
RTVSPropertyOp27
 70
     1
102
RTVSPropertyOp28
 70
     1
102
RTVSPropertyOp29
 70
     1
102
RTVSPropertyOp30
 70
     1
102
RTVSPropertyOp31
 70
     1
102
RTVSPropertyOp32
 70
     1
  0
XRECORD
  5
1E5
102
{ACAD_REACTORS
330
1E4
102
}
330
1E4
100
AcDbXrecord
280
     1
102
RTVSPropertyOp0
 70
     1
102
RTVSPropertyOp1
 70
     1
102
RTVSPropertyOp2
 70
     1
102
RTVSPropertyOp3
 70
     1
102
RTVSPropertyOp4
 70
     1
102
RTVSPropertyOp5
 70
     1
102
RTVSPropertyOp6
 70
     1
102
RTVSPropertyOp7
 70
     1
102
RTVSPropertyOp8
 70
     1
102
RTVSPropertyOp9
 70
     1
102
RTVSPropertyOp10
 70
     1
102
RTVSPropertyOp11
 70
     1
102
RTVSPropertyOp12
 70
     1
102
RTVSPropertyOp13
 70
     1
102
RTVSPropertyOp14
 70
     1
102
RTVSPropertyOp15
 70
     1
102
RTVSPropertyOp16
 70
     1
102
RTVSPropertyOp17
 70
     1
102
RTVSPropertyOp18
 70
     1
102
RTVSPropertyOp19
 70
     1
102
RTVSPropertyOp20
 70
     1
102
RTVSPropertyOp21
 70
     1
102
RTVSPropertyOp22
 70
     1
102
RTVSPropertyOp23
 70
     1
102
RTVSPropertyOp24
 70
     1
102
RTVSPropertyOp25
 70
     1
102
RTVSPropertyOp26
 70
     1
102
RTVSPropertyOp27
 70
     1
102
RTVSPropertyOp28
 70
     1
102
RTVSPropertyOp29
 70
     1
102
RTVSPropertyOp30
 70
     1
102
RTVSPropertyOp31
 70
     1
102
RTVSPropertyOp32
 70
     1
  0
XRECORD
  5
1ED
102
{ACAD_REACTORS
330
1EC
102
}
330
1EC
100
AcDbXrecord
280
     1
102
RTVSPropertyOp0
 70
     1
102
RTVSPropertyOp1
 70
     1
102
RTVSPropertyOp2
 70
     1
102
RTVSPropertyOp3
 70
     1
102
RTVSPropertyOp4
 70
     1
102
RTVSPropertyOp5
 70
     1
102
RTVSPropertyOp6
 70
     1
102
RTVSPropertyOp7
 70
     1
102
RTVSPropertyOp8
 70
     1
102
RTVSPropertyOp9
 70
     1
102
RTVSPropertyOp10
 70
     1
102
RTVSPropertyOp11
 70
     1
102
RTVSPropertyOp12
 70
     1
102
RTVSPropertyOp13
 70
     1
102
RTVSPropertyOp14
 70
     1
102
RTVSPropertyOp15
 70
     1
102
RTVSPropertyOp16
 70
     1
102
RTVSPropertyOp17
 70
     1
102
RTVSPropertyOp18
 70
     1
102
RTVSPropertyOp19
 70
     1
102
RTVSPropertyOp20
 70
     1
102
RTVSPropertyOp21
 70
     1
102
RTVSPropertyOp22
 70
     1
102
RTVSPropertyOp23
 70
     1
102
RTVSPropertyOp24
 70
     1
102
RTVSPropertyOp25
 70
     1
102
RTVSPropertyOp26
 70
     1
102
RTVSPropertyOp27
 70
     1
102
RTVSPropertyOp28
 70
     1
102
RTVSPropertyOp29
 70
     1
102
RTVSPropertyOp30
 70
     1
102
RTVSPropertyOp31
 70
     1
102
RTVSPropertyOp32
 70
     1
  0
XRECORD
  5
1F5
102
{ACAD_REACTORS
330
1F4
102
}
330
1F4
100
AcDbXrecord
280
     1
102
RTVSPropertyOp0
 70
     1
102
RTVSPropertyOp1
 70
     1
102
RTVSPropertyOp2
 70
     1
102
RTVSPropertyOp3
 70
     1
102
RTVSPropertyOp4
 70
     1
102
RTVSPropertyOp5
 70
     1
102
RTVSPropertyOp6
 70
     1
102
RTVSPropertyOp7
 70
     1
102
RTVSPropertyOp8
 70
     1
102
RTVSPropertyOp9
 70
     1
102
RTVSPropertyOp10
 70
     1
102
RTVSPropertyOp11
 70
     1
102
RTVSPropertyOp12
 70
     1
102
RTVSPropertyOp13
 70
     1
102
RTVSPropertyOp14
 70
     1
102
RTVSPropertyOp15
 70
     1
102
RTVSPropertyOp16
 70
     1
102
RTVSPropertyOp17
 70
     1
102
RTVSPropertyOp18
 70
     1
102
RTVSPropertyOp19
 70
     1
102
RTVSPropertyOp20
 70
     1
102
RTVSPropertyOp21
 70
     1
102
RTVSPropertyOp22
 70
     1
102
RTVSPropertyOp23
 70
     1
102
RTVSPropertyOp24
 70
     1
102
RTVSPropertyOp25
 70
     1
102
RTVSPropertyOp26
 70
     1
102
RTVSPropertyOp27
 70
     1
102
RTVSPropertyOp28
 70
     1
102
RTVSPropertyOp29
 70
     1
102
RTVSPropertyOp30
 70
     1
102
RTVSPropertyOp31
 70
     1
102
RTVSPropertyOp32
 70
     1
  0
XRECORD
  5
1E9
102
{ACAD_REACTORS
330
1E8
102
}
330
1E8
100
AcDbXrecord
280
     1
102
RTVSPropertyOp0
 70
     1
102
RTVSPropertyOp1
 70
     1
102
RTVSPropertyOp2
 70
     1
102
RTVSPropertyOp3
 70
     1
102
RTVSPropertyOp4
 70
     1
102
RTVSPropertyOp5
 70
     1
102
RTVSPropertyOp6
 70
     1
102
RTVSPropertyOp7
 70
     1
102
RTVSPropertyOp8
 70
     1
102
RTVSPropertyOp9
 70
     1
102
RTVSPropertyOp10
 70
     1
102
RTVSPropertyOp11
 70
     1
102
RTVSPropertyOp12
 70
     1
102
RTVSPropertyOp13
 70
     1
102
RTVSPropertyOp14
 70
     1
102
RTVSPropertyOp15
 70
     1
102
RTVSPropertyOp16
 70
     1
102
RTVSPropertyOp17
 70
     1
102
RTVSPropertyOp18
 70
     1
102
RTVSPropertyOp19
 70
     1
102
RTVSPropertyOp20
 70
     1
102
RTVSPropertyOp21
 70
     1
102
RTVSPropertyOp22
 70
     1
102
RTVSPropertyOp23
 70
     1
102
RTVSPropertyOp24
 70
     1
102
RTVSPropertyOp25
 70
     1
102
RTVSPropertyOp26
 70
     1
102
RTVSPropertyOp27
 70
     1
102
RTVSPropertyOp28
 70
     1
102
RTVSPropertyOp29
 70
     1
102
RTVSPropertyOp30
 70
     1
102
RTVSPropertyOp31
 70
     1
102
RTVSPropertyOp32
 70
     1
  0
XRECORD
  5
1EB
102
{ACAD_REACTORS
330
1EA
102
}
330
1EA
100
AcDbXrecord
280
     1
102
RTVSPropertyOp0
 70
     1
102
RTVSPropertyOp1
 70
     1
102
RTVSPropertyOp2
 70
     1
102
RTVSPropertyOp3
 70
     1
102
RTVSPropertyOp4
 70
     1
102
RTVSPropertyOp5
 70
     1
102
RTVSPropertyOp6
 70
     1
102
RTVSPropertyOp7
 70
     1
102
RTVSPropertyOp8
 70
     1
102
RTVSPropertyOp9
 70
     1
102
RTVSPropertyOp10
 70
     1
102
RTVSPropertyOp11
 70
     1
102
RTVSPropertyOp12
 70
     1
102
RTVSPropertyOp13
 70
     1
102
RTVSPropertyOp14
 70
     1
102
RTVSPropertyOp15
 70
     1
102
RTVSPropertyOp16
 70
     1
102
RTVSPropertyOp17
 70
     1
102
RTVSPropertyOp18
 70
     1
102
RTVSPropertyOp19
 70
     1
102
RTVSPropertyOp20
 70
     1
102
RTVSPropertyOp21
 70
     1
102
RTVSPropertyOp22
 70
     1
102
RTVSPropertyOp23
 70
     1
102
RTVSPropertyOp24
 70
     1
102
RTVSPropertyOp25
 70
     1
102
RTVSPropertyOp26
 70
     1
102
RTVSPropertyOp27
 70
     1
102
RTVSPropertyOp28
 70
     1
102
RTVSPropertyOp29
 70
     1
102
RTVSPropertyOp30
 70
     1
102
RTVSPropertyOp31
 70
     1
102
RTVSPropertyOp32
 70
     1
  0
XRECORD
  5
1F3
102
{ACAD_REACTORS
330
1F2
102
}
330
1F2
100
AcDbXrecord
280
     1
102
RTVSPropertyOp0
 70
     1
102
RTVSPropertyOp1
 70
     1
102
RTVSPropertyOp2
 70
     1
102
RTVSPropertyOp3
 70
     1
102
RTVSPropertyOp4
 70
     1
102
RTVSPropertyOp5
 70
     1
102
RTVSPropertyOp6
 70
     1
102
RTVSPropertyOp7
 70
     1
102
RTVSPropertyOp8
 70
     1
102
RTVSPropertyOp9
 70
     1
102
RTVSPropertyOp10
 70
     1
102
RTVSPropertyOp11
 70
     1
102
RTVSPropertyOp12
 70
     1
102
RTVSPropertyOp13
 70
     1
102
RTVSPropertyOp14
 70
     1
102
RTVSPropertyOp15
 70
     1
102
RTVSPropertyOp16
 70
     1
102
RTVSPropertyOp17
 70
     1
102
RTVSPropertyOp18
 70
     1
102
RTVSPropertyOp19
 70
     1
102
RTVSPropertyOp20
 70
     1
102
RTVSPropertyOp21
 70
     1
102
RTVSPropertyOp22
 70
     1
102
RTVSPropertyOp23
 70
     1
102
RTVSPropertyOp24
 70
     1
102
RTVSPropertyOp25
 70
     1
102
RTVSPropertyOp26
 70
     1
102
RTVSPropertyOp27
 70
     1
102
RTVSPropertyOp28
 70
     1
102
RTVSPropertyOp29
 70
     1
102
RTVSPropertyOp30
 70
     1
102
RTVSPropertyOp31
 70
     1
102
RTVSPropertyOp32
 70
     1
  0
XRECORD
  5
1D7
102
{ACAD_REACTORS
330
1D6
102
}
330
1D6
100
AcDbXrecord
280
     1
102
RTVSPropertyOp0
 70
     1
102
RTVSPropertyOp1
 70
     1
102
RTVSPropertyOp2
 70
     1
102
RTVSPropertyOp3
 70
     1
102
RTVSPropertyOp4
 70
     1
102
RTVSPropertyOp5
 70
     1
102
RTVSPropertyOp6
 70
     1
102
RTVSPropertyOp7
 70
     1
102
RTVSPropertyOp8
 70
     1
102
RTVSPropertyOp9
 70
     1
102
RTVSPropertyOp10
 70
     1
102
RTVSPropertyOp11
 70
     1
102
RTVSPropertyOp12
 70
     1
102
RTVSPropertyOp13
 70
     1
102
RTVSPropertyOp14
 70
     1
102
RTVSPropertyOp15
 70
     1
102
RTVSPropertyOp16
 70
     1
102
RTVSPropertyOp17
 70
     1
102
RTVSPropertyOp18
 70
     1
102
RTVSPropertyOp19
 70
     1
102
RTVSPropertyOp20
 70
     1
102
RTVSPropertyOp21
 70
     1
102
RTVSPropertyOp22
 70
     1
102
RTVSPropertyOp23
 70
     1
102
RTVSPropertyOp24
 70
     1
102
RTVSPropertyOp25
 70
     1
102
RTVSPropertyOp26
 70
     1
102
RTVSPropertyOp27
 70
     1
102
RTVSPropertyOp28
 70
     1
102
RTVSPropertyOp29
 70
     1
102
RTVSPropertyOp30
 70
     1
102
RTVSPropertyOp31
 70
     1
102
RTVSPropertyOp32
 70
     1
  0
XRECORD
  5
1D9
102
{ACAD_REACTORS
330
1D8
102
}
330
1D8
100
AcDbXrecord
280
     1
102
RTVSPropertyOp0
 70
     1
102
RTVSPropertyOp1
 70
     1
102
RTVSPropertyOp2
 70
     1
102
RTVSPropertyOp3
 70
     1
102
RTVSPropertyOp4
 70
     1
102
RTVSPropertyOp5
 70
     1
102
RTVSPropertyOp6
 70
     1
102
RTVSPropertyOp7
 70
     1
102
RTVSPropertyOp8
 70
     1
102
RTVSPropertyOp9
 70
     1
102
RTVSPropertyOp10
 70
     1
102
RTVSPropertyOp11
 70
     1
102
RTVSPropertyOp12
 70
     1
102
RTVSPropertyOp13
 70
     1
102
RTVSPropertyOp14
 70
     1
102
RTVSPropertyOp15
 70
     1
102
RTVSPropertyOp16
 70
     1
102
RTVSPropertyOp17
 70
     1
102
RTVSPropertyOp18
 70
     1
102
RTVSPropertyOp19
 70
     1
102
RTVSPropertyOp20
 70
     1
102
RTVSPropertyOp21
 70
     1
102
RTVSPropertyOp22
 70
     1
102
RTVSPropertyOp23
 70
     1
102
RTVSPropertyOp24
 70
     1
102
RTVSPropertyOp25
 70
     1
102
RTVSPropertyOp26
 70
     1
102
RTVSPropertyOp27
 70
     1
102
RTVSPropertyOp28
 70
     1
102
RTVSPropertyOp29
 70
     1
102
RTVSPropertyOp30
 70
     1
102
RTVSPropertyOp31
 70
     1
102
RTVSPropertyOp32
 70
     1
  0
XRECORD
  5
1DB
102
{ACAD_REACTORS
330
1DA
102
}
330
1DA
100
AcDbXrecord
280
     1
102
RTVSPropertyOp0
 70
     1
102
RTVSPropertyOp1
 70
     1
102
RTVSPropertyOp2
 70
     1
102
RTVSPropertyOp3
 70
     1
102
RTVSPropertyOp4
 70
     1
102
RTVSPropertyOp5
 70
     1
102
RTVSPropertyOp6
 70
     1
102
RTVSPropertyOp7
 70
     1
102
RTVSPropertyOp8
 70
     1
102
RTVSPropertyOp9
 70
     1
102
RTVSPropertyOp10
 70
     1
102
RTVSPropertyOp11
 70
     1
102
RTVSPropertyOp12
 70
     1
102
RTVSPropertyOp13
 70
     1
102
RTVSPropertyOp14
 70
     1
102
RTVSPropertyOp15
 70
     1
102
RTVSPropertyOp16
 70
     1
102
RTVSPropertyOp17
 70
     1
102
RTVSPropertyOp18
 70
     1
102
RTVSPropertyOp19
 70
     1
102
RTVSPropertyOp20
 70
     1
102
RTVSPropertyOp21
 70
     1
102
RTVSPropertyOp22
 70
     1
102
RTVSPropertyOp23
 70
     1
102
RTVSPropertyOp24
 70
     1
102
RTVSPropertyOp25
 70
     1
102
RTVSPropertyOp26
 70
     1
102
RTVSPropertyOp27
 70
     1
102
RTVSPropertyOp28
 70
     1
102
RTVSPropertyOp29
 70
     1
102
RTVSPropertyOp30
 70
     1
102
RTVSPropertyOp31
 70
     1
102
RTVSPropertyOp32
 70
     1
  0
XRECORD
  5
1DD
102
{ACAD_REACTORS
330
1DC
102
}
330
1DC
100
AcDbXrecord
280
     1
102
RTVSPropertyOp0
 70
     1
102
RTVSPropertyOp1
 70
     1
102
RTVSPropertyOp2
 70
     1
102
RTVSPropertyOp3
 70
     1
102
RTVSPropertyOp4
 70
     1
102
RTVSPropertyOp5
 70
     1
102
RTVSPropertyOp6
 70
     1
102
RTVSPropertyOp7
 70
     1
102
RTVSPropertyOp8
 70
     1
102
RTVSPropertyOp9
 70
     1
102
RTVSPropertyOp10
 70
     1
102
RTVSPropertyOp11
 70
     1
102
RTVSPropertyOp12
 70
     1
102
RTVSPropertyOp13
 70
     1
102
RTVSPropertyOp14
 70
     1
102
RTVSPropertyOp15
 70
     1
102
RTVSPropertyOp16
 70
     1
102
RTVSPropertyOp17
 70
     1
102
RTVSPropertyOp18
 70
     1
102
RTVSPropertyOp19
 70
     1
102
RTVSPropertyOp20
 70
     1
102
RTVSPropertyOp21
 70
     1
102
RTVSPropertyOp22
 70
     1
102
RTVSPropertyOp23
 70
     1
102
RTVSPropertyOp24
 70
     1
102
RTVSPropertyOp25
 70
     1
102
RTVSPropertyOp26
 70
     1
102
RTVSPropertyOp27
 70
     1
102
RTVSPropertyOp28
 70
     1
102
RTVSPropertyOp29
 70
     1
102
RTVSPropertyOp30
 70
     1
102
RTVSPropertyOp31
 70
     1
102
RTVSPropertyOp32
 70
     1
  0
XRECORD
  5
1F1
102
{ACAD_REACTORS
330
1F0
102
}
330
1F0
100
AcDbXrecord
280
     1
102
RTVSPropertyOp0
 70
     1
102
RTVSPropertyOp1
 70
     1
102
RTVSPropertyOp2
 70
     1
102
RTVSPropertyOp3
 70
     1
102
RTVSPropertyOp4
 70
     1
102
RTVSPropertyOp5
 70
     1
102
RTVSPropertyOp6
 70
     1
102
RTVSPropertyOp7
 70
     1
102
RTVSPropertyOp8
 70
     1
102
RTVSPropertyOp9
 70
     1
102
RTVSPropertyOp10
 70
     1
102
RTVSPropertyOp11
 70
     1
102
RTVSPropertyOp12
 70
     1
102
RTVSPropertyOp13
 70
     1
102
RTVSPropertyOp14
 70
     1
102
RTVSPropertyOp15
 70
     1
102
RTVSPropertyOp16
 70
     1
102
RTVSPropertyOp17
 70
     1
102
RTVSPropertyOp18
 70
     1
102
RTVSPropertyOp19
 70
     1
102
RTVSPropertyOp20
 70
     1
102
RTVSPropertyOp21
 70
     1
102
RTVSPropertyOp22
 70
     1
102
RTVSPropertyOp23
 70
     1
102
RTVSPropertyOp24
 70
     1
102
RTVSPropertyOp25
 70
     1
102
RTVSPropertyOp26
 70
     1
102
RTVSPropertyOp27
 70
     1
102
RTVSPropertyOp28
 70
     1
102
RTVSPropertyOp29
 70
     1
102
RTVSPropertyOp30
 70
     1
102
RTVSPropertyOp31
 70
     1
102
RTVSPropertyOp32
 70
     1
  0
XRECORD
  5
1E7
102
{ACAD_REACTORS
330
1E6
102
}
330
1E6
100
AcDbXrecord
280
     1
102
RTVSPropertyOp0
 70
     1
102
RTVSPropertyOp1
 70
     1
102
RTVSPropertyOp2
 70
     1
102
RTVSPropertyOp3
 70
     1
102
RTVSPropertyOp4
 70
     1
102
RTVSPropertyOp5
 70
     1
102
RTVSPropertyOp6
 70
     1
102
RTVSPropertyOp7
 70
     1
102
RTVSPropertyOp8
 70
     1
102
RTVSPropertyOp9
 70
     1
102
RTVSPropertyOp10
 70
     1
102
RTVSPropertyOp11
 70
     1
102
RTVSPropertyOp12
 70
     1
102
RTVSPropertyOp13
 70
     1
102
RTVSPropertyOp14
 70
     1
102
RTVSPropertyOp15
 70
     1
102
RTVSPropertyOp16
 70
     1
102
RTVSPropertyOp17
 70
     1
102
RTVSPropertyOp18
 70
     1
102
RTVSPropertyOp19
 70
     1
102
RTVSPropertyOp20
 70
     1
102
RTVSPropertyOp21
 70
     1
102
RTVSPropertyOp22
 70
     1
102
RTVSPropertyOp23
 70
     1
102
RTVSPropertyOp24
 70
     1
102
RTVSPropertyOp25
 70
     1
102
RTVSPropertyOp26
 70
     1
102
RTVSPropertyOp27
 70
     1
102
RTVSPropertyOp28
 70
     1
102
RTVSPropertyOp29
 70
     1
102
RTVSPropertyOp30
 70
     1
102
RTVSPropertyOp31
 70
     1
102
RTVSPropertyOp32
 70
     1
  0
XRECORD
  5
1EF
102
{ACAD_REACTORS
330
1EE
102
}
330
1EE
100
AcDbXrecord
280
     1
102
RTVSPropertyOp0
 70
     1
102
RTVSPropertyOp1
 70
     1
102
RTVSPropertyOp2
 70
     1
102
RTVSPropertyOp3
 70
     1
102
RTVSPropertyOp4
 70
     1
102
RTVSPropertyOp5
 70
     1
102
RTVSPropertyOp6
 70
     1
102
RTVSPropertyOp7
 70
     1
102
RTVSPropertyOp8
 70
     1
102
RTVSPropertyOp9
 70
     1
102
RTVSPropertyOp10
 70
     1
102
RTVSPropertyOp11
 70
     1
102
RTVSPropertyOp12
 70
     1
102
RTVSPropertyOp13
 70
     1
102
RTVSPropertyOp14
 70
     1
102
RTVSPropertyOp15
 70
     1
102
RTVSPropertyOp16
 70
     1
102
RTVSPropertyOp17
 70
     1
102
RTVSPropertyOp18
 70
     1
102
RTVSPropertyOp19
 70
     1
102
RTVSPropertyOp20
 70
     1
102
RTVSPropertyOp21
 70
     1
102
RTVSPropertyOp22
 70
     1
102
RTVSPropertyOp23
 70
     1
102
RTVSPropertyOp24
 70
     1
102
RTVSPropertyOp25
 70
     1
102
RTVSPropertyOp26
 70
     1
102
RTVSPropertyOp27
 70
     1
102
RTVSPropertyOp28
 70
     1
102
RTVSPropertyOp29
 70
     1
102
RTVSPropertyOp30
 70
     1
102
RTVSPropertyOp31
 70
     1
102
RTVSPropertyOp32
 70
     1
  0
ENDSEC
  0
EOF
