  0
SECTION
  2
HEADER
  9
$ACADVER
  1
AC1015
  9
$ACADMAINTVER
 70
     6
  9
$DWGCODEPAGE
  3
ANSI_932
  9
$INSBASE
 10
0.0
 20
0.0
 30
0.0
  9
$EXTMIN
 10
0.0
 20
0.0
 30
0.0
  9
$EXTMAX
 10
420.0
 20
594.0
 30
0.0
  9
$LIMMIN
 10
0.0
 20
0.0
  9
$LIMMAX
 10
12.0
 20
9.0
  9
$ORTHOMODE
 70
     0
  9
$REGENMODE
 70
     1
  9
$FILLMODE
 70
     1
  9
$QTEXTMODE
 70
     0
  9
$MIRRTEXT
 70
     1
  9
$LTSCALE
 40
1.0
  9
$ATTMODE
 70
     1
  9
$TEXTSIZE
 40
0.2
  9
$TRACEWID
 40
0.05
  9
$TEXTSTYLE
  7
Standard
  9
$CLAYER
  8
0
  9
$CELTYPE
  6
ByLayer
  9
$CECOLOR
 62
   256
  9
$CELTSCALE
 40
1.0
  9
$DISPSILH
 70
     0
  9
$DIMSCALE
 40
1.0
  9
$DIMASZ
 40
0.18
  9
$DIMEXO
 40
0.0625
  9
$DIMDLI
 40
0.38
  9
$DIMRND
 40
0.0
  9
$DIMDLE
 40
0.0
  9
$DIMEXE
 40
0.18
  9
$DIMTP
 40
0.0
  9
$DIMTM
 40
0.0
  9
$DIMTXT
 40
0.18
  9
$DIMCEN
 40
0.09
  9
$DIMTSZ
 40
0.0
  9
$DIMTOL
 70
     0
  9
$DIMLIM
 70
     0
  9
$DIMTIH
 70
     1
  9
$DIMTOH
 70
     1
  9
$DIMSE1
 70
     0
  9
$DIMSE2
 70
     0
  9
$DIMTAD
 70
     0
  9
$DIMZIN
 70
     0
  9
$DIMBLK
  1

  9
$DIMASO
 70
     1
  9
$DIMSHO
 70
     1
  9
$DIMPOST
  1

  9
$DIMAPOST
  1

  9
$DIMALT
 70
     0
  9
$DIMALTD
 70
     2
  9
$DIMALTF
 40
25.4
  9
$DIMLFAC
 40
1.0
  9
$DIMTOFL
 70
     0
  9
$DIMTVP
 40
0.0
  9
$DIMTIX
 70
     0
  9
$DIMSOXD
 70
     0
  9
$DIMSAH
 70
     0
  9
$DIMBLK1
  1

  9
$DIMBLK2
  1

  9
$DIMSTYLE
  2
Standard
  9
$DIMCLRD
 70
     0
  9
$DIMCLRE
 70
     0
  9
$DIMCLRT
 70
     0
  9
$DIMTFAC
 40
1.0
  9
$DIMGAP
 40
0.09
  9
$DIMJUST
 70
     0
  9
$DIMSD1
 70
     0
  9
$DIMSD2
 70
     0
  9
$DIMTOLJ
 70
     1
  9
$DIMTZIN
 70
     0
  9
$DIMALTZ
 70
     0
  9
$DIMALTTZ
 70
     0
  9
$DIMUPT
 70
     0
  9
$DIMDEC
 70
     4
  9
$DIMTDEC
 70
     4
  9
$DIMALTU
 70
     2
  9
$DIMALTTD
 70
     2
  9
$DIMTXSTY
  7
Standard
  9
$DIMAUNIT
 70
     0
  9
$DIMADEC
 70
     0
  9
$DIMALTRND
 40
0.0
  9
$DIMAZIN
 70
     0
  9
$DIMDSEP
 70
    46
  9
$DIMATFIT
 70
     3
  9
$DIMFRAC
 70
     0
  9
$DIMLDRBLK
  1

  9
$DIMLUNIT
 70
     2
  9
$DIMLWD
 70
    -2
  9
$DIMLWE
 70
    -2
  9
$DIMTMOVE
 70
     0
  9
$LUNITS
 70
     2
  9
$LUPREC
 70
     4
  9
$SKETCHINC
 40
0.1
  9
$FILLETRAD
 40
0.5
  9
$AUNITS
 70
     0
  9
$AUPREC
 70
     0
  9
$MENU
  1
.
  9
$ELEVATION
 40
0.0
  9
$PELEVATION
 40
0.0
  9
$THICKNESS
 40
0.0
  9
$LIMCHECK
 70
     0
  9
$CHAMFERA
 40
0.5
  9
$CHAMFERB
 40
0.5
  9
$CHAMFERC
 40
1.0
  9
$CHAMFERD
 40
0.0
  9
$SKPOLY
 70
     0
  9
$TDCREATE
 40
2456500.494510347
  9
$TDUCREATE
 40
2456500.119510347
  9
$TDUPDATE
 40
2456500.494511424
  9
$TDUUPDATE
 40
2456500.119511424
  9
$TDINDWG
 40
0.0000000116
  9
$TDUSRTIMER
 40
0.0000000116
  9
$USRTIMER
 70
     1
  9
$ANGBASE
 50
0.0
  9
$ANGDIR
 70
     0
  9
$PDMODE
 70
     0
  9
$PDSIZE
 40
0.0
  9
$PLINEWID
 40
0.0
  9
$SPLFRAME
 70
     0
  9
$SPLINETYPE
 70
     6
  9
$SPLINESEGS
 70
     8
  9
$HANDSEED
  5
424
  9
$SURFTAB1
 70
     6
  9
$SURFTAB2
 70
     6
  9
$SURFTYPE
 70
     6
  9
$SURFU
 70
     6
  9
$SURFV
 70
     6
  9
$UCSBASE
  2

  9
$UCSNAME
  2

  9
$UCSORG
 10
0.0
 20
0.0
 30
0.0
  9
$UCSXDIR
 10
1.0
 20
0.0
 30
0.0
  9
$UCSYDIR
 10
0.0
 20
1.0
 30
0.0
  9
$UCSORTHOREF
  2

  9
$UCSORTHOVIEW
 70
     0
  9
$UCSORGTOP
 10
0.0
 20
0.0
 30
0.0
  9
$UCSORGBOTTOM
 10
0.0
 20
0.0
 30
0.0
  9
$UCSORGLEFT
 10
0.0
 20
0.0
 30
0.0
  9
$UCSORGRIGHT
 10
0.0
 20
0.0
 30
0.0
  9
$UCSORGFRONT
 10
0.0
 20
0.0
 30
0.0
  9
$UCSORGBACK
 10
0.0
 20
0.0
 30
0.0
  9
$PUCSBASE
  2

  9
$PUCSNAME
  2

  9
$PUCSORG
 10
0.0
 20
0.0
 30
0.0
  9
$PUCSXDIR
 10
1.0
 20
0.0
 30
0.0
  9
$PUCSYDIR
 10
0.0
 20
1.0
 30
0.0
  9
$PUCSORTHOREF
  2

  9
$PUCSORTHOVIEW
 70
     0
  9
$PUCSORGTOP
 10
0.0
 20
0.0
 30
0.0
  9
$PUCSORGBOTTOM
 10
0.0
 20
0.0
 30
0.0
  9
$PUCSORGLEFT
 10
0.0
 20
0.0
 30
0.0
  9
$PUCSORGRIGHT
 10
0.0
 20
0.0
 30
0.0
  9
$PUCSORGFRONT
 10
0.0
 20
0.0
 30
0.0
  9
$PUCSORGBACK
 10
0.0
 20
0.0
 30
0.0
  9
$USERI1
 70
     0
  9
$USERI2
 70
     0
  9
$USERI3
 70
     0
  9
$USERI4
 70
     0
  9
$USERI5
 70
     0
  9
$USERR1
 40
18.1
  9
$USERR2
 40
0.0
  9
$USERR3
 40
0.0
  9
$USERR4
 40
0.0
  9
$USERR5
 40
0.0
  9
$WORLDVIEW
 70
     1
  9
$SHADEDGE
 70
     3
  9
$SHADEDIF
 70
    70
  9
$TILEMODE
 70
     1
  9
$MAXACTVP
 70
    64
  9
$PINSBASE
 10
0.0
 20
0.0
 30
0.0
  9
$PLIMCHECK
 70
     0
  9
$PEXTMIN
 10
1.00000000000000E+20
 20
1.00000000000000E+20
 30
1.00000000000000E+20
  9
$PEXTMAX
 10
-1.00000000000000E+20
 20
-1.00000000000000E+20
 30
-1.00000000000000E+20
  9
$PLIMMIN
 10
0.0
 20
0.0
  9
$PLIMMAX
 10
12.0
 20
9.0
  9
$UNITMODE
 70
     0
  9
$VISRETAIN
 70
     1
  9
$PLINEGEN
 70
     0
  9
$PSLTSCALE
 70
     1
  9
$TREEDEPTH
 70
  3020
  9
$CMLSTYLE
  2
Standard
  9
$CMLJUST
 70
     0
  9
$CMLSCALE
 40
1.0
  9
$PROXYGRAPHICS
 70
     1
  9
$MEASUREMENT
 70
     1
  9
$CELWEIGHT
370
    -1
  9
$ENDCAPS
280
     0
  9
$JOINSTYLE
280
     0
  9
$LWDISPLAY
290
     0
  9
$INSUNITS
 70
     4
  9
$HYPERLINKBASE
  1

  9
$STYLESHEET
  1

  9
$XEDIT
290
     1
  9
$CEPSNTYPE
380
     0
  9
$PSTYLEMODE
290
     1
  9
$FINGERPRINTGUID
  2
{33325181-7248-4305-9E7F-A6AB5ECAD72E}
  9
$VERSIONGUID
  2
{FAEB1C32-E019-11D5-929B-00C0DF256EC4}
  9
$EXTNAMES
290
     1
  9
$PSVPSCALE
 40
0.0
  9
$OLESTARTUP
290
     0
  0
ENDSEC
  0
SECTION
  2
CLASSES
  0
CLASS
  1
ACDBDICTIONARYWDFLT
  2
AcDbDictionaryWithDefault
  3
ObjectDBX Classes
 90
        0
280
     0
281
     0
  0
CLASS
  1
VISUALSTYLE
  2
AcDbVisualStyle
  3
ObjectDBX Classes
 90
     4095
280
     0
281
     0
  0
CLASS
  1
MATERIAL
  2
AcDbMaterial
  3
ObjectDBX Classes
 90
     1153
280
     0
281
     0
  0
CLASS
  1
DICTIONARYVAR
  2
AcDbDictionaryVar
  3
ObjectDBX Classes
 90
        0
280
     0
281
     0
  0
CLASS
  1
ACDBPLACEHOLDER
  2
AcDbPlaceHolder
  3
ObjectDBX Classes
 90
        0
280
     0
281
     0
  0
CLASS
  1
LAYOUT
  2
AcDbLayout
  3
ObjectDBX Classes
 90
        0
280
     0
281
     0
  0
ENDSEC
  0
SECTION
  2
TABLES
  0
TABLE
  2
VPORT
  5
8
330
0
100
AcDbSymbolTable
 70
     1
  0
VPORT
  5
29
330
8
100
AcDbSymbolTableRecord
100
AcDbViewportTableRecord
  2
*Active
 70
     0
 10
0.0
 20
0.0
 11
1.0
 21
1.0
 12
210.0
 22
297.0
 13
0.0
 23
0.0
 14
0.5
 24
0.5
 15
0.5
 25
0.5
 16
0.0
 26
0.0
 36
1.0
 17
0.0
 27
0.0
 37
0.0
 40
653.4000000000001
 41
1.60267857142857
 42
50.0
 43
0.0
 44
0.0
 50
0.0
 51
0.0
 71
     0
 72
   100
 73
     1
 74
     3
 75
     0
 76
     0
 77
     0
 78
     0
281
     0
 65
     1
110
0.0
120
0.0
130
0.0
111
1.0
121
0.0
131
0.0
112
0.0
122
1.0
132
0.0
 79
     0
146
0.0
  0
ENDTAB
  0
TABLE
  2
LTYPE
  5
5
330
0
100
AcDbSymbolTable
 70
     8
  0
LTYPE
  5
14
330
5
100
AcDbSymbolTableRecord
100
AcDbLinetypeTableRecord
  2
ByBlock
 70
     0
  3

 72
    65
 73
     0
 40
0.0
  0
LTYPE
  5
15
330
5
100
AcDbSymbolTableRecord
100
AcDbLinetypeTableRecord
  2
ByLayer
 70
     0
  3

 72
    65
 73
     0
 40
0.0
  0
LTYPE
  5
16
330
5
100
AcDbSymbolTableRecord
100
AcDbLinetypeTableRecord
  2
Continuous
 70
     0
  3
Solid line
 72
    65
 73
     0
 40
0.0
  0
LTYPE
  5
3F
330
5
100
AcDbSymbolTableRecord
100
AcDbLinetypeTableRecord
  2
DASHED
 70
     0
  3
Dashed
 72
    65
 73
     2
 40
15.0
 49
7.0
 74
     0
 49
-8.0
 74
     0
  0
LTYPE
  5
40
330
5
100
AcDbSymbolTableRecord
100
AcDbLinetypeTableRecord
  2
DOTTED
 70
     0
  3
Dotted
 72
    65
 73
     2
 40
1.0
 49
0.0
 74
     0
 49
-1.0
 74
     0
  0
LTYPE
  5
41
330
5
100
AcDbSymbolTableRecord
100
AcDbLinetypeTableRecord
  2
DOT_CENTER
 70
     0
  3
Dot_Center
 72
    65
 73
     4
 40
14.0
 49
12.0
 74
     0
 49
-1.0
 74
     0
 49
0.0
 74
     0
 49
-1.0
 74
     0
  0
LTYPE
  5
42
330
5
100
AcDbSymbolTableRecord
100
AcDbLinetypeTableRecord
  2
LONG_DASHED
 70
     0
  3
Long_Dashed
 72
    65
 73
     2
 40
15.0
 49
10.0
 74
     0
 49
-5.0
 74
     0
  0
LTYPE
  5
43
330
5
100
AcDbSymbolTableRecord
100
AcDbLinetypeTableRecord
  2
DASH_CENTER
 70
     0
  3
Dash_Center
 72
    65
 73
     4
 40
14.0
 49
11.0
 74
     0
 49
-1.0
 74
     0
 49
1.0
 74
     0
 49
-1.0
 74
     0
  0
LTYPE
  5
44
330
5
100
AcDbSymbolTableRecord
100
AcDbLinetypeTableRecord
  2
PHANTOM
 70
     0
  3
Phantom
 72
    65
 73
     6
 40
13.0
 49
10.0
 74
     0
 49
-1.0
 74
     0
 49
0.0
 74
     0
 49
-1.0
 74
     0
 49
0.0
 74
     0
 49
-1.0
 74
     0
  0
LTYPE
  5
45
330
5
100
AcDbSymbolTableRecord
100
AcDbLinetypeTableRecord
  2
CENTER_DASH_DASH
 70
     0
  3
Center_Dash_Dash
 72
    65
 73
     6
 40
14.0
 49
9.0
 74
     0
 49
-1.0
 74
     0
 49
1.0
 74
     0
 49
-1.0
 74
     0
 49
1.0
 74
     0
 49
-1.0
 74
     0
  0
ENDTAB
  0
TABLE
  2
LAYER
  5
2
330
0
100
AcDbSymbolTable
 70
     2
  0
LAYER
  5
10
330
2
100
AcDbSymbolTableRecord
100
AcDbLayerTableRecord
  2
0
 70
     0
 62
     7
  6
Continuous
370
    -3
390
F
  0
LAYER
  5
46
330
2
100
AcDbSymbolTableRecord
100
AcDbLayerTableRecord
  2
1
 70
     0
 62
     7
  6
Continuous
370
    -3
390
F
  0
ENDTAB
  0
TABLE
  2
STYLE
  5
3
330
0
100
AcDbSymbolTable
 70
     3
  0
STYLE
  5
11
330
3
100
AcDbSymbolTableRecord
100
AcDbTextStyleTableRecord
  2
Standard
 70
     0
 40
0.0
 41
1.0
 50
0.0
 71
     0
 42
0.2
  3
txt
  4

  0
STYLE
  5
154
330
3
100
AcDbSymbolTableRecord
100
AcDbTextStyleTableRecord
  2
CONVERTER_11
 70
     0
 40
0.0
 41
0.89
 50
0.0
 71
     0
 42
0.2
  3
MS Mincho.ttf
  4

1001
ACAD
1000
MS Mincho
1071
    32785
  0
STYLE
  5
1F7
330
3
100
AcDbSymbolTableRecord
100
AcDbTextStyleTableRecord
  2
CONVERTER_12
 70
     0
 40
0.0
 41
0.9
 50
0.0
 71
     0
 42
0.2
  3
txt.shx
  4

  0
ENDTAB
  0
TABLE
  2
VIEW
  5
6
330
0
100
AcDbSymbolTable
 70
     0
  0
ENDTAB
  0
TABLE
  2
UCS
  5
7
330
0
100
AcDbSymbolTable
 70
     0
  0
ENDTAB
  0
TABLE
  2
APPID
  5
9
330
0
100
AcDbSymbolTable
 70
     1
  0
APPID
  5
12
330
9
100
AcDbSymbolTableRecord
100
AcDbRegAppTableRecord
  2
ACAD
 70
     0
  0
ENDTAB
  0
TABLE
  2
DIMSTYLE
  5
A
330
0
100
AcDbSymbolTable
 70
    19
100
AcDbDimStyleTable
  0
DIMSTYLE
105
27
330
A
100
AcDbSymbolTableRecord
100
AcDbDimStyleTableRecord
  2
Standard
 70
     0
178
     0
340
11
  0
DIMSTYLE
105
1FB
102
{ACAD_REACTORS
330
1FC
102
}
330
A
100
AcDbSymbolTableRecord
100
AcDbDimStyleTableRecord
  2
ME10_DIM_10
 70
     0
 41
7.0
 42
0.0
 44
2.0
 73
     0
 74
     0
 77
     1
 78
     8
140
7.0
147
2.0
172
     1
173
     1
174
     1
175
     1
176
     2
177
     2
271
     2
178
     7
271
     2
340
1F7
  0
DIMSTYLE
105
228
102
{ACAD_REACTORS
330
229
102
}
330
A
100
AcDbSymbolTableRecord
100
AcDbDimStyleTableRecord
  2
ME10_DIM_11
 70
     0
 41
7.0
 42
0.0
 44
2.0
 73
     0
 74
     0
 77
     1
 78
     8
140
7.0
147
2.0
172
     1
173
     1
174
     1
175
     1
176
     2
177
     2
271
     2
178
     7
271
     2
340
1F7
  0
DIMSTYLE
105
233
102
{ACAD_REACTORS
330
234
102
}
330
A
100
AcDbSymbolTableRecord
100
AcDbDimStyleTableRecord
  2
ME10_DIM_12
 70
     0
  3
{\Fgdt;n}<>
 41
7.0
 42
0.0
 44
2.0
 73
     0
 74
     0
 77
     1
 78
     8
140
7.0
147
2.0
172
     1
173
     1
174
     1
175
     1
176
     2
177
     2
271
     2
178
     7
271
     2
340
1F7
  0
DIMSTYLE
105
23E
102
{ACAD_REACTORS
330
23F
102
}
330
A
100
AcDbSymbolTableRecord
100
AcDbDimStyleTableRecord
  2
ME10_DIM_13
 70
     0
  3
{\Fgdt;n}<>
 41
7.0
 42
0.0
 44
2.0
 73
     0
 74
     0
 77
     1
 78
     8
140
7.0
147
2.0
172
     1
173
     1
174
     1
175
     1
176
     2
177
     2
271
     2
178
     7
271
     2
340
1F7
  0
DIMSTYLE
105
357
102
{ACAD_REACTORS
330
358
102
}
330
A
100
AcDbSymbolTableRecord
100
AcDbDimStyleTableRecord
  2
ME10_DIM_14
 70
     0
 41
7.0
 42
0.0
 44
2.0
 73
     0
 74
     0
 77
     1
 78
     8
140
7.0
147
2.0
172
     1
173
     1
174
     1
175
     1
176
     2
177
     2
271
     2
178
     7
271
     2
340
1F7
  0
DIMSTYLE
105
362
102
{ACAD_REACTORS
330
363
102
}
330
A
100
AcDbSymbolTableRecord
100
AcDbDimStyleTableRecord
  2
ME10_DIM_15
 70
     0
 41
7.0
 42
0.0
 44
2.0
 73
     0
 74
     0
 77
     1
 78
     8
140
7.0
147
2.0
172
     1
173
     1
174
     1
175
     1
176
     2
177
     2
271
     2
178
     7
271
     2
340
1F7
  0
DIMSTYLE
105
36D
102
{ACAD_REACTORS
330
36E
102
}
330
A
100
AcDbSymbolTableRecord
100
AcDbDimStyleTableRecord
  2
ME10_DIM_16
 70
     0
 41
7.0
 42
0.0
 44
2.0
 73
     0
 74
     0
 77
     1
 78
     8
140
7.0
147
2.0
172
     1
173
     1
174
     1
175
     1
176
     2
177
     2
271
     2
178
     7
271
     2
340
1F7
  0
DIMSTYLE
105
378
102
{ACAD_REACTORS
330
379
102
}
330
A
100
AcDbSymbolTableRecord
100
AcDbDimStyleTableRecord
  2
ME10_DIM_17
 70
     0
 41
7.0
 42
0.0
 44
2.0
 73
     0
 74
     0
 77
     1
 78
     8
140
7.0
147
2.0
172
     1
173
     1
174
     1
175
     1
176
     2
177
     2
271
     2
178
     7
271
     2
340
1F7
  0
DIMSTYLE
105
383
102
{ACAD_REACTORS
330
384
102
}
330
A
100
AcDbSymbolTableRecord
100
AcDbDimStyleTableRecord
  2
ME10_DIM_18
 70
     0
  3
{\Fgdt;n}<>
 41
7.0
 42
0.0
 44
2.0
 73
     0
 74
     0
 77
     1
 78
     8
140
7.0
147
2.0
172
     1
173
     1
174
     1
175
     1
176
     2
177
     2
271
     2
178
     7
271
     2
340
1F7
  0
DIMSTYLE
105
38E
102
{ACAD_REACTORS
330
38F
102
}
330
A
100
AcDbSymbolTableRecord
100
AcDbDimStyleTableRecord
  2
ME10_DIM_19
 70
     0
  3
{\Fgdt;n}<>
 41
7.0
 42
0.0
 44
2.0
 73
     0
 74
     0
 77
     1
 78
     8
140
7.0
147
2.0
172
     1
173
     1
174
     1
175
     1
176
     2
177
     2
271
     2
178
     7
271
     2
340
1F7
  0
DIMSTYLE
105
39A
102
{ACAD_REACTORS
330
39B
102
}
330
A
100
AcDbSymbolTableRecord
100
AcDbDimStyleTableRecord
  2
ME10_DIM_20
 70
     0
 41
7.0
 42
0.0
 44
2.0
 77
     1
 78
     8
140
7.0
147
2.0
172
     1
173
     1
174
     1
175
     1
176
     2
177
     2
271
     2
178
     7
271
     2
340
154
  0
DIMSTYLE
105
3A6
102
{ACAD_REACTORS
330
3A7
102
}
330
A
100
AcDbSymbolTableRecord
100
AcDbDimStyleTableRecord
  2
ME10_DIM_21
 70
     0
  3
内径{\Fgdt;n}<>
 41
7.0
 42
0.0
 44
2.0
 73
     0
 74
     0
 77
     1
 78
     8
140
7.0
147
2.0
172
     1
173
     1
174
     1
175
     1
176
     2
177
     2
271
     2
178
     7
271
     2
340
154
  0
DIMSTYLE
105
3B2
102
{ACAD_REACTORS
330
3B3
102
}
330
A
100
AcDbSymbolTableRecord
100
AcDbDimStyleTableRecord
  2
ME10_DIM_22
 70
     0
  3
{\Fgdt;n}<>
 41
7.0
 42
0.0
 44
2.0
 73
     0
 74
     0
 77
     1
 78
     8
140
7.0
147
2.0
172
     1
173
     1
174
     1
175
     1
176
     2
177
     2
271
     2
178
     7
271
     2
340
1F7
  0
DIMSTYLE
105
3BD
102
{ACAD_REACTORS
330
3BE
102
}
330
A
100
AcDbSymbolTableRecord
100
AcDbDimStyleTableRecord
  2
ME10_DIM_23
 70
     0
 41
7.0
 42
0.0
 44
2.0
 73
     0
 74
     0
 77
     1
 78
     8
140
7.0
147
2.0
172
     1
173
     1
174
     1
175
     1
176
     2
177
     2
271
     2
178
     7
271
     2
340
1F7
  0
DIMSTYLE
105
3C8
102
{ACAD_REACTORS
330
3C9
102
}
330
A
100
AcDbSymbolTableRecord
100
AcDbDimStyleTableRecord
  2
ME10_DIM_24
 70
     0
 41
7.0
 42
0.0
 44
2.0
 73
     0
 74
     0
 77
     1
 78
     8
140
7.0
147
2.0
172
     1
173
     1
174
     1
175
     1
176
     2
177
     2
271
     2
178
     7
271
     2
340
1F7
  0
DIMSTYLE
105
3DD
102
{ACAD_REACTORS
330
3DE
102
}
330
A
100
AcDbSymbolTableRecord
100
AcDbDimStyleTableRecord
  2
ME10_DIM_25
 70
     0
 41
7.0
 42
0.0
 44
2.0
 73
     0
 74
     0
 77
     1
 78
     8
140
7.0
147
2.0
172
     1
173
     1
174
     1
175
     1
176
     2
177
     2
271
     2
178
     7
271
     2
340
1F7
  0
DIMSTYLE
105
3EA
102
{ACAD_REACTORS
330
3EB
102
}
330
A
100
AcDbSymbolTableRecord
100
AcDbDimStyleTableRecord
  2
ME10_DIM_26
 70
     0
 41
7.0
 42
0.0
 44
2.0
 73
     0
 74
     0
 77
     1
 78
     8
140
7.0
147
2.0
172
     1
173
     1
174
     1
175
     1
176
     2
177
     2
271
     2
178
     7
271
     2
340
1F7
  0
DIMSTYLE
105
3F7
102
{ACAD_REACTORS
330
3F8
102
}
330
A
100
AcDbSymbolTableRecord
100
AcDbDimStyleTableRecord
  2
ME10_DIM_27
 70
     0
 41
7.0
 42
0.0
 44
2.0
 73
     0
 74
     0
 77
     1
 78
     8
140
7.0
147
2.0
172
     1
173
     1
174
     1
175
     1
176
     2
177
     2
271
     2
178
     7
271
     2
340
1F7
  0
ENDTAB
  0
TABLE
  2
BLOCK_RECORD
  5
1
330
0
100
AcDbSymbolTable
 70
    29
  0
BLOCK_RECORD
  5
1F
330
1
100
AcDbSymbolTableRecord
100
AcDbBlockTableRecord
  2
*Model_Space
340
22
  0
BLOCK_RECORD
  5
1B
330
1
100
AcDbSymbolTableRecord
100
AcDbBlockTableRecord
  2
*Paper_Space
340
1E
  0
BLOCK_RECORD
  5
23
330
1
100
AcDbSymbolTableRecord
100
AcDbBlockTableRecord
  2
*Paper_Space0
340
26
  0
BLOCK_RECORD
  5
47
330
1
100
AcDbSymbolTableRecord
100
AcDbBlockTableRecord
  2
H5500-50-H1
340
0
102
{BLKREFS
331
62
102
}
  0
BLOCK_RECORD
  5
4A
330
1
100
AcDbSymbolTableRecord
100
AcDbBlockTableRecord
  2
開示A4
340
0
102
{BLKREFS
331
63
102
}
  0
BLOCK_RECORD
  5
4D
330
1
100
AcDbSymbolTableRecord
100
AcDbBlockTableRecord
  2
H5500-50-H11
340
0
102
{BLKREFS
331
64
102
}
  0
BLOCK_RECORD
  5
50
330
1
100
AcDbSymbolTableRecord
100
AcDbBlockTableRecord
  2
H5500-50-H10
340
0
102
{BLKREFS
331
65
102
}
  0
BLOCK_RECORD
  5
53
330
1
100
AcDbSymbolTableRecord
100
AcDbBlockTableRecord
  2
H5500-50-H2
340
0
102
{BLKREFS
331
66
102
}
  0
BLOCK_RECORD
  5
56
330
1
100
AcDbSymbolTableRecord
100
AcDbBlockTableRecord
  2
H5500-50-H3
340
0
102
{BLKREFS
331
67
102
}
  0
BLOCK_RECORD
  5
59
330
1
100
AcDbSymbolTableRecord
100
AcDbBlockTableRecord
  2
H5500-50-H9
340
0
102
{BLKREFS
331
68
102
}
  0
BLOCK_RECORD
  5
5C
330
1
100
AcDbSymbolTableRecord
100
AcDbBlockTableRecord
  2
H5500-50-H6
340
0
102
{BLKREFS
331
69
102
}
  0
BLOCK_RECORD
  5
5F
330
1
100
AcDbSymbolTableRecord
100
AcDbBlockTableRecord
  2
H5500-50-H8
340
0
102
{BLKREFS
331
6A
102
}
  0
BLOCK_RECORD
  5
1EF
330
1
100
AcDbSymbolTableRecord
100
AcDbBlockTableRecord
  2
*D10
340
0
  0
BLOCK_RECORD
  5
21F
330
1
100
AcDbSymbolTableRecord
100
AcDbBlockTableRecord
  2
*D11
340
0
  0
BLOCK_RECORD
  5
22A
330
1
100
AcDbSymbolTableRecord
100
AcDbBlockTableRecord
  2
*D12
340
0
  0
BLOCK_RECORD
  5
235
330
1
100
AcDbSymbolTableRecord
100
AcDbBlockTableRecord
  2
*D13
340
0
  0
BLOCK_RECORD
  5
34E
330
1
100
AcDbSymbolTableRecord
100
AcDbBlockTableRecord
  2
*D14
340
0
  0
BLOCK_RECORD
  5
359
330
1
100
AcDbSymbolTableRecord
100
AcDbBlockTableRecord
  2
*D15
340
0
  0
BLOCK_RECORD
  5
364
330
1
100
AcDbSymbolTableRecord
100
AcDbBlockTableRecord
  2
*D16
340
0
  0
BLOCK_RECORD
  5
36F
330
1
100
AcDbSymbolTableRecord
100
AcDbBlockTableRecord
  2
*D17
340
0
  0
BLOCK_RECORD
  5
37A
330
1
100
AcDbSymbolTableRecord
100
AcDbBlockTableRecord
  2
*D18
340
0
  0
BLOCK_RECORD
  5
385
330
1
100
AcDbSymbolTableRecord
100
AcDbBlockTableRecord
  2
*D19
340
0
  0
BLOCK_RECORD
  5
390
330
1
100
AcDbSymbolTableRecord
100
AcDbBlockTableRecord
  2
*D20
340
0
  0
BLOCK_RECORD
  5
39C
330
1
100
AcDbSymbolTableRecord
100
AcDbBlockTableRecord
  2
*D21
340
0
  0
BLOCK_RECORD
  5
3A8
330
1
100
AcDbSymbolTableRecord
100
AcDbBlockTableRecord
  2
*D22
340
0
  0
BLOCK_RECORD
  5
3B4
330
1
100
AcDbSymbolTableRecord
100
AcDbBlockTableRecord
  2
*D23
340
0
  0
BLOCK_RECORD
  5
3BF
330
1
100
AcDbSymbolTableRecord
100
AcDbBlockTableRecord
  2
*D24
340
0
  0
BLOCK_RECORD
  5
3CA
330
1
100
AcDbSymbolTableRecord
100
AcDbBlockTableRecord
  2
*D25
340
0
102
{BLKREFS
331
3D1
102
}
  0
BLOCK_RECORD
  5
3D2
330
1
100
AcDbSymbolTableRecord
100
AcDbBlockTableRecord
  2
*D26
340
0
  0
BLOCK_RECORD
  5
3DF
330
1
100
AcDbSymbolTableRecord
100
AcDbBlockTableRecord
  2
*D27
340
0
  0
BLOCK_RECORD
  5
3EC
330
1
100
AcDbSymbolTableRecord
100
AcDbBlockTableRecord
  2
*D28
340
0
  0
ENDTAB
  0
ENDSEC
  0
SECTION
  2
BLOCKS
  0
BLOCK
  5
20
330
1F
100
AcDbEntity
  8
0
100
AcDbBlockBegin
  2
*Model_Space
 70
     0
 10
0.0
 20
0.0
 30
0.0
  3
*Model_Space
  1

  0
ENDBLK
  5
21
330
1F
100
AcDbEntity
  8
0
100
AcDbBlockEnd
  0
BLOCK
  5
1C
330
1B
100
AcDbEntity
 67
     1
  8
0
100
AcDbBlockBegin
  2
*Paper_Space
 70
     0
 10
0.0
 20
0.0
 30
0.0
  3
*Paper_Space
  1

  0
ENDBLK
  5
1D
330
1B
100
AcDbEntity
 67
     1
  8
0
100
AcDbBlockEnd
  0
BLOCK
  5
24
330
23
100
AcDbEntity
  8
0
100
AcDbBlockBegin
  2
*Paper_Space0
 70
     0
 10
0.0
 20
0.0
 30
0.0
  3
*Paper_Space0
  1

  0
ENDBLK
  5
25
330
23
100
AcDbEntity
  8
0
100
AcDbBlockEnd
  0
BLOCK
  5
48
330
47
100
AcDbEntity
  8
0
100
AcDbBlockBegin
  2
H5500-50-H1
 70
     0
 10
105.4047090827187
 20
231.320945201481
 30
0.0
  3
H5500-50-H1
  1

  0
LINE
  5
6B
330
47
100
AcDbEntity
  8
0
  6
Continuous
 62
     7
100
AcDbLine
 10
191.0361931879846
 20
312.4458377725176
 30
0.0
 11
192.32650318512
 21
312.6042679189304
 31
0.0
  0
LINE
  5
6C
330
47
100
AcDbEntity
  8
0
  6
Continuous
 62
     7
100
AcDbLine
 10
180.8394621619869
 20
460.0882861663681
 30
0.0
 11
180.8394621619869
 21
454.2882861663679
 31
0.0
  0
LINE
  5
6D
330
47
100
AcDbEntity
  8
0
  6
Continuous
 62
     7
100
AcDbLine
 10
163.4047090827192
 20
441.688286166368
 30
0.0
 11
163.4047090827192
 21
472.688286166368
 31
0.0
  0
LINE
  5
6E
330
47
100
AcDbEntity
  8
0
  6
Continuous
 62
     7
100
AcDbLine
 10
154.7444550448743
 20
472.688286166368
 30
0.0
 11
159.5778747590682
 21
472.688286166368
 31
0.0
  0
LINE
  5
6F
330
47
100
AcDbEntity
  8
0
  6
Continuous
 62
     7
100
AcDbLine
 10
159.5778747590682
 20
441.688286166368
 30
0.0
 11
154.7444550448743
 21
441.688286166368
 31
0.0
  0
LINE
  5
70
330
47
100
AcDbEntity
  8
0
  6
Continuous
 62
     7
100
AcDbLine
 10
163.4047090827192
 20
441.688286166368
 30
0.0
 11
160.8165186316933
 21
441.688286166368
 31
0.0
  0
LINE
  5
71
330
47
100
AcDbEntity
  8
0
  6
Continuous
 62
     7
100
AcDbLine
 10
160.8165186316933
 20
472.688286166368
 30
0.0
 11
163.4047090827192
 21
472.688286166368
 31
0.0
  0
LINE
  5
72
330
47
100
AcDbEntity
  8
0
  6
Continuous
 62
     7
100
AcDbLine
 10
160.8187687315283
 20
471.488286166368
 30
0.0
 11
163.4047090827192
 21
471.488286166368
 31
0.0
  0
LINE
  5
73
330
47
100
AcDbEntity
  8
0
  6
Continuous
 62
     7
100
AcDbLine
 10
155.1559337117901
 20
471.488286166368
 30
0.0
 11
159.0336878859853
 21
471.488286166368
 31
0.0
  0
LINE
  5
74
330
47
100
AcDbEntity
  8
0
  6
Continuous
 62
     7
100
AcDbLine
 10
163.4047090827192
 20
442.8882861663681
 30
0.0
 11
160.8187687315283
 21
442.8882861663681
 31
0.0
  0
LINE
  5
75
330
47
100
AcDbEntity
  8
0
  6
Continuous
 62
     7
100
AcDbLine
 10
159.0336878859853
 20
442.8882861663681
 30
0.0
 11
155.1559337117901
 21
442.8882861663681
 31
0.0
  0
LINE
  5
76
330
47
100
AcDbEntity
  8
0
  6
Continuous
 62
     7
100
AcDbLine
 10
160.8187687315283
 20
471.488286166368
 30
0.0
 11
160.8165186316933
 21
472.688286166368
 31
0.0
  0
LINE
  5
77
330
47
100
AcDbEntity
  8
0
  6
Continuous
 62
     7
100
AcDbLine
 10
160.8165186316933
 20
441.688286166368
 30
0.0
 11
160.8187687315283
 21
442.8882861663681
 31
0.0
  0
LINE
  5
78
330
47
100
AcDbEntity
  8
0
  6
Continuous
 62
     7
100
AcDbLine
 10
155.1559337117901
 20
471.488286166368
 30
0.0
 11
154.7444550448743
 21
472.688286166368
 31
0.0
  0
LINE
  5
79
330
47
100
AcDbEntity
  8
0
  6
Continuous
 62
     7
100
AcDbLine
 10
154.7444550448743
 20
441.688286166368
 30
0.0
 11
155.1559337117901
 21
442.8882861663681
 31
0.0
  0
LINE
  5
7A
330
47
100
AcDbEntity
  8
0
  6
Continuous
 62
     7
100
AcDbLine
 10
198.1438243901648
 20
295.5863722206609
 30
0.0
 11
195.8892415371697
 21
313.9484760260259
 31
0.0
  0
LINE
  5
7B
330
47
100
AcDbEntity
  8
0
  6
Continuous
 62
     7
100
AcDbLine
 10
195.8892415371697
 20
313.9484760260259
 30
0.0
 11
195.8283068654667
 21
314.444749101847
 31
0.0
  0
LINE
  5
7C
330
47
100
AcDbEntity
  8
0
  6
Continuous
 62
     7
100
AcDbLine
 10
192.709829668515
 20
323.431689625301
 30
0.0
 11
188.4736931221666
 21
322.9115574595321
 31
0.0
  0
LINE
  5
7D
330
47
100
AcDbEntity
  8
0
  6
Continuous
 62
     7
100
AcDbLine
 10
183.2353686921278
 20
314.4097954559441
 30
0.0
 11
186.0777865920249
 21
321.1061123900761
 31
0.0
  0
LINE
  5
7E
330
47
100
AcDbEntity
  8
0
  6
Continuous
 62
     7
100
AcDbLine
 10
195.8283068654667
 20
314.444749101847
 30
0.0
 11
194.9386606586083
 21
321.690336008829
 31
0.0
  0
LINE
  5
7F
330
47
100
AcDbEntity
  8
0
  6
Continuous
 62
     7
100
AcDbLine
 10
193.1971799933986
 20
313.7186834139828
 30
0.0
 11
192.4659639329655
 21
319.673960323845
 31
0.0
  0
LINE
  5
80
330
47
100
AcDbEntity
  8
0
  6
Continuous
 62
     7
100
AcDbLine
 10
191.3515484379189
 20
320.5446371320811
 30
0.0
 11
190.0612384407852
 21
320.3862069856541
 31
0.0
  0
LINE
  5
81
330
47
100
AcDbEntity
  8
0
  6
Continuous
 62
     7
100
AcDbLine
 10
189.9217776929807
 20
313.3165145807587
 30
0.0
 11
189.1905616325492
 21
319.271791490607
 31
0.0
  0
LINE
  5
82
330
47
100
AcDbEntity
  8
0
  6
Continuous
 62
     7
100
AcDbLine
 10
195.8892415371697
 20
313.9484760260259
 30
0.0
 11
195.8283068654667
 21
314.444749101847
 31
0.0
  0
LINE
  5
83
330
47
100
AcDbEntity
  8
0
  6
Continuous
 62
     7
100
AcDbLine
 10
156.0791200379037
 20
309.006481625843
 30
0.0
 11
156.592943986619
 21
307.766000880182
 31
0.0
  0
LINE
  5
84
330
47
100
AcDbEntity
  8
0
  6
Continuous
 62
     7
100
AcDbLine
 10
151.7513797820723
 20
306.507859624156
 30
0.0
 11
152.5687556463623
 21
305.4426346586649
 31
0.0
  0
LINE
  5
85
330
47
100
AcDbEntity
  8
0
  6
Continuous
 62
     7
100
AcDbLine
 10
149.9696802401731
 20
304.7559740440249
 30
0.0
 11
150.818208377597
 21
303.9074459066021
 31
0.0
  0
LINE
  5
86
330
47
100
AcDbEntity
  8
0
  6
Continuous
 62
     7
100
AcDbLine
 10
146.9502264108131
 20
300.820945201481
 30
0.0
 11
147.9894568953544
 21
300.2209452014811
 31
0.0
  0
LINE
  5
87
330
47
100
AcDbEntity
  8
0
  6
Continuous
 62
     7
100
AcDbLine
 10
145.8509979650031
 20
298.5919304164181
 30
0.0
 11
146.9596534040166
 21
298.1327102975799
 31
0.0
  0
LINE
  5
88
330
47
100
AcDbEntity
  8
0
  6
Continuous
 62
     7
100
AcDbLine
 10
144.4257907372579
 20
293.8195672031679
 30
0.0
 11
145.7569905502636
 21
293.644311422998
 31
0.0
  0
LINE
  5
89
330
47
100
AcDbEntity
  8
0
  6
Continuous
 62
     7
100
AcDbLine
 10
144.4047090827175
 20
286.2299105452889
 30
0.0
 11
153.7454508198265
 21
288.7327547504569
 31
0.0
  0
LINE
  5
8A
330
47
100
AcDbEntity
  8
0
  6
Continuous
 62
     7
100
AcDbLine
 10
156.592943986619
 20
307.766000880182
 30
0.0
 11
159.5778747590668
 21
300.5597405265939
 31
0.0
  0
LINE
  5
8B
330
47
100
AcDbEntity
  8
0
  6
Continuous
 62
     7
100
AcDbLine
 10
152.5687556463623
 20
305.4426346586649
 30
0.0
 11
157.3170947926305
 21
299.2544786043929
 31
0.0
  0
LINE
  5
8C
330
47
100
AcDbEntity
  8
0
  6
Continuous
 62
     7
100
AcDbLine
 10
150.818208377597
 20
303.9074459066021
 30
0.0
 11
156.3336412708522
 21
298.392013013347
 31
0.0
  0
LINE
  5
8D
330
47
100
AcDbEntity
  8
0
  6
Continuous
 62
     7
100
AcDbLine
 10
147.9894568953544
 20
300.2209452014811
 30
0.0
 11
154.744455044873
 21
296.320945201481
 31
0.0
  0
LINE
  5
8E
330
47
100
AcDbEntity
  8
0
  6
Continuous
 62
     7
100
AcDbLine
 10
146.9596534040166
 20
298.1327102975799
 30
0.0
 11
154.1659137576047
 21
295.1477795251319
 31
0.0
  0
LINE
  5
8F
330
47
100
AcDbEntity
  8
0
  6
Continuous
 62
     7
100
AcDbLine
 10
144.5672567166152
 20
293.800942853662
 30
0.0
 11
145.7569905502636
 21
293.644311422998
 31
0.0
  0
LINE
  5
90
330
47
100
AcDbEntity
  8
0
  6
Continuous
 62
     7
100
AcDbLine
 10
144.262022399001
 20
291.320945201481
 30
0.0
 11
145.6047090827174
 21
291.320945201481
 31
0.0
  0
LINE
  5
91
330
47
100
AcDbEntity
  8
0
  6
Continuous
 62
     7
100
AcDbLine
 10
144.4047090827175
 20
291.320945201481
 30
0.0
 11
153.4047090827175
 21
291.320945201481
 31
0.0
  0
LINE
  5
92
330
47
100
AcDbEntity
  8
0
  6
Continuous
 62
     7
100
AcDbLine
 10
163.4047090827176
 20
310.463631885197
 30
0.0
 11
163.4047090827172
 21
309.1209452014809
 31
0.0
  0
LINE
  5
93
330
47
100
AcDbEntity
  8
0
  6
Continuous
 62
     7
100
AcDbLine
 10
158.4502171945414
 20
309.8113606538429
 30
0.0
 11
158.7977300798924
 21
308.5144249094269
 31
0.0
  0
LINE
  5
94
330
47
100
AcDbEntity
  8
0
  6
Continuous
 62
     7
100
AcDbLine
 10
156.1337238677807
 20
308.874656319196
 30
0.0
 11
156.592943986619
 21
307.766000880182
 31
0.0
  0
LINE
  5
95
330
47
100
AcDbEntity
  8
0
  6
Continuous
 62
     7
100
AcDbLine
 10
163.4047090827176
 20
310.463631885197
 30
0.0
 11
163.4047090827175
 21
301.320945201481
 31
0.0
  0
LINE
  5
96
330
47
100
AcDbEntity
  8
0
  6
Continuous
 62
     7
100
AcDbLine
 10
158.7977300798924
 20
308.5144249094269
 30
0.0
 11
160.8165186316922
 21
300.9802034643719
 31
0.0
  0
LINE
  5
97
330
47
100
AcDbEntity
  8
0
  6
Continuous
 62
     7
100
AcDbLine
 10
156.592943986619
 20
307.766000880182
 30
0.0
 11
159.5778747590668
 21
300.5597405265939
 31
0.0
  0
LINE
  5
98
330
47
100
AcDbEntity
  8
0
  6
Continuous
 62
     7
100
AcDbLine
 10
145.7569905502636
 20
293.644311422998
 30
0.0
 11
153.4902604689795
 21
292.626207123682
 31
0.0
  0
LINE
  5
99
330
47
100
AcDbEntity
  8
0
  6
Continuous
 62
     7
100
AcDbLine
 10
180.8394621619861
 20
312.6043503864869
 30
0.0
 11
163.4047090827176
 21
310.463631885197
 31
0.0
  0
LINE
  5
9A
330
47
100
AcDbEntity
  8
0
  6
Continuous
 62
     7
100
AcDbLine
 10
216.2364376458169
 20
316.446797565832
 30
0.0
 11
206.3109761294029
 21
315.2281041317799
 31
0.0
  0
LINE
  5
9B
330
47
100
AcDbEntity
  8
0
  6
Continuous
 62
     7
100
AcDbLine
 10
204.3258838261209
 20
314.9843654449701
 30
0.0
 11
195.8892415371697
 21
313.9484760260259
 31
0.0
  0
LINE
  5
9C
330
47
100
AcDbEntity
  8
0
  6
Continuous
 62
     7
100
AcDbLine
 10
222.7306956550899
 20
279.9663286419129
 30
0.0
 11
224.7157879583718
 21
280.210067328723
 31
0.0
  0
LINE
  5
9D
330
47
100
AcDbEntity
  8
0
  6
Continuous
 62
     7
100
AcDbLine
 10
210.8201418353938
 20
278.5038965210511
 30
0.0
 11
220.7456033518071
 21
279.722589955102
 31
0.0
  0
LINE
  5
9E
330
47
100
AcDbEntity
  8
0
  6
Continuous
 62
     7
100
AcDbLine
 10
144.3557089432407
 20
268.3174451915179
 30
0.0
 11
137.4047090827187
 21
267.820945201481
 31
0.0
  0
LINE
  5
9F
330
47
100
AcDbEntity
  8
1
  6
Continuous
 62
     7
100
AcDbLine
 10
163.4047090827187
 20
268.3174451915179
 30
0.0
 11
144.3557089432407
 21
268.3174451915179
 31
0.0
  0
LINE
  5
A0
330
47
100
AcDbEntity
  8
0
  6
Continuous
 62
     7
100
AcDbLine
 10
137.4047090827187
 20
267.820945201481
 30
0.0
 11
137.4047090827187
 21
267.320945201481
 31
0.0
  0
LINE
  5
A1
330
47
100
AcDbEntity
  8
0
  6
Continuous
 62
     7
100
AcDbLine
 10
226.0312341166248
 20
314.6269178732559
 30
0.0
 11
225.6656260864097
 21
317.60455632818
 31
0.0
  0
LINE
  5
A2
330
47
100
AcDbEntity
  8
0
  6
Continuous
 62
     7
100
AcDbLine
 10
189.4047090827187
 20
267.820945201481
 30
0.0
 11
182.4537092221968
 21
268.3174451915179
 31
0.0
  0
LINE
  5
A3
330
47
100
AcDbEntity
  8
0
  6
PHANTOM
 62
     4
100
AcDbLine
 10
229.9310531055918
 20
282.8654410207344
 30
0.0
 11
179.1115784261238
 21
276.6255941368943
 31
0.0
  0
LINE
  5
A4
330
47
100
AcDbEntity
  8
0
  6
Continuous
 62
     7
100
AcDbLine
 10
218.5973554351868
 20
475.688286166368
 30
0.0
 11
208.6032228454997
 21
475.688286166368
 31
0.0
  0
LINE
  5
A5
330
47
100
AcDbEntity
  8
0
  6
Continuous
 62
     7
100
AcDbLine
 10
206.7056335470418
 20
475.688286166368
 30
0.0
 11
198.1438243901648
 21
475.688286166368
 31
0.0
  0
LINE
  5
A6
330
47
100
AcDbEntity
  8
0
  6
Continuous
 62
     7
100
AcDbLine
 10
218.5973554351868
 20
438.688286166368
 30
0.0
 11
208.6032228454997
 21
438.688286166368
 31
0.0
  0
LINE
  5
A7
330
47
100
AcDbEntity
  8
0
  6
Continuous
 62
     7
100
AcDbLine
 10
206.7056335470418
 20
438.688286166368
 30
0.0
 11
198.3504218518758
 21
438.688286166368
 31
0.0
  0
LINE
  5
A8
330
47
100
AcDbEntity
  8
0
  6
Continuous
 62
     7
100
AcDbLine
 10
189.8730299556198
 20
460.0882861663681
 30
0.0
 11
193.1484322560357
 21
460.0882861663681
 31
0.0
  0
LINE
  5
A9
330
47
100
AcDbEntity
  8
0
  6
Continuous
 62
     7
100
AcDbLine
 10
189.8730299556198
 20
460.0882861663681
 30
0.0
 11
189.8730299556198
 21
461.0882861663681
 31
0.0
  0
LINE
  5
AA
330
47
100
AcDbEntity
  8
0
  6
Continuous
 62
     7
100
AcDbLine
 10
193.1484322560357
 20
460.0882861663681
 30
0.0
 11
193.1484322560357
 21
461.0882861663681
 31
0.0
  0
LINE
  5
AB
330
47
100
AcDbEntity
  8
0
  6
Continuous
 62
     7
100
AcDbLine
 10
189.8730299556198
 20
454.2882861663679
 30
0.0
 11
186.0777865920257
 21
454.2882861663679
 31
0.0
  0
LINE
  5
AC
330
47
100
AcDbEntity
  8
0
  6
Continuous
 62
     7
100
AcDbLine
 10
193.1484322560357
 20
454.2882861663679
 30
0.0
 11
189.8730299556198
 21
454.2882861663679
 31
0.0
  0
LINE
  5
AD
330
47
100
AcDbEntity
  8
0
  6
Continuous
 62
     7
100
AcDbLine
 10
189.8730299556198
 20
453.2882861663679
 30
0.0
 11
189.8730299556198
 21
454.2882861663679
 31
0.0
  0
LINE
  5
AE
330
47
100
AcDbEntity
  8
0
  6
Continuous
 62
     7
100
AcDbLine
 10
193.1484322560357
 20
453.2882861663679
 30
0.0
 11
193.1484322560357
 21
454.2882861663679
 31
0.0
  0
LINE
  5
AF
330
47
100
AcDbEntity
  8
0
  6
Continuous
 62
     7
100
AcDbLine
 10
186.0777865920257
 20
454.2882861663679
 30
0.0
 11
180.8394621619869
 21
454.2882861663679
 31
0.0
  0
LINE
  5
B0
330
47
100
AcDbEntity
  8
0
  6
Continuous
 62
     7
100
AcDbLine
 10
186.0777865920257
 20
460.0882861663681
 30
0.0
 11
180.8394621619869
 21
460.0882861663681
 31
0.0
  0
LINE
  5
B1
330
47
100
AcDbEntity
  8
0
  6
Continuous
 62
     7
100
AcDbLine
 10
195.8283068654667
 20
460.0882861663681
 30
0.0
 11
186.0777865920257
 21
460.0882861663681
 31
0.0
  0
LINE
  5
B2
330
47
100
AcDbEntity
  8
0
  6
Continuous
 62
     7
100
AcDbLine
 10
195.8283068654667
 20
454.2882861663679
 30
0.0
 11
193.1484322560357
 21
454.2882861663679
 31
0.0
  0
LINE
  5
B3
330
47
100
AcDbEntity
  8
0
  6
Continuous
 62
     7
100
AcDbLine
 10
186.0777865920257
 20
454.2882861663679
 30
0.0
 11
186.0777865920257
 21
460.0882861663681
 31
0.0
  0
LINE
  5
B4
330
47
100
AcDbEntity
  8
0
  6
Continuous
 62
     7
100
AcDbLine
 10
195.8283068654667
 20
454.2882861663679
 30
0.0
 11
195.8283068654667
 21
460.0882861663681
 31
0.0
  0
LINE
  5
B5
330
47
100
AcDbEntity
  8
0
  6
Continuous
 62
     7
100
AcDbLine
 10
198.1438243901119
 20
438.188286166368
 30
0.0
 11
163.4047090827187
 21
438.188286166368
 31
0.0
  0
LINE
  5
B6
330
47
100
AcDbEntity
  8
0
  6
Continuous
 62
     7
100
AcDbLine
 10
198.1438243901387
 20
476.188286166368
 30
0.0
 11
163.4047090827187
 21
476.188286166368
 31
0.0
  0
LINE
  5
B7
330
47
100
AcDbEntity
  8
0
  6
Continuous
 62
     7
100
AcDbLine
 10
221.9266049952128
 20
438.688286166368
 30
0.0
 11
220.4949447336449
 21
438.688286166368
 31
0.0
  0
LINE
  5
B8
330
47
100
AcDbEntity
  8
0
  6
Continuous
 62
     7
100
AcDbLine
 10
221.9266049952128
 20
475.688286166368
 30
0.0
 11
220.4949447336449
 21
475.688286166368
 31
0.0
  0
LINE
  5
B9
330
47
100
AcDbEntity
  8
0
  6
Continuous
 62
     7
100
AcDbLine
 10
222.4612051053769
 20
476.188286166368
 30
0.0
 11
223.9500243328387
 21
476.188286166368
 31
0.0
  0
LINE
  5
BA
330
47
100
AcDbEntity
  8
0
  6
Continuous
 62
     7
100
AcDbLine
 10
223.9500243328567
 20
475.688286166368
 30
0.0
 11
224.4846244430037
 21
475.688286166368
 31
0.0
  0
LINE
  5
BB
330
47
100
AcDbEntity
  8
0
  6
Continuous
 62
     7
100
AcDbLine
 10
223.9500243328387
 20
438.188286166368
 30
0.0
 11
222.4612051053769
 21
438.188286166368
 31
0.0
  0
LINE
  5
BC
330
47
100
AcDbEntity
  8
0
  6
Continuous
 62
     7
100
AcDbLine
 10
224.4846244430037
 20
438.688286166368
 30
0.0
 11
223.9500243328567
 21
438.688286166368
 31
0.0
  0
LINE
  5
BD
330
47
100
AcDbEntity
  8
0
  6
Continuous
 62
     7
100
AcDbLine
 10
223.9500243328567
 20
475.688286166368
 30
0.0
 11
227.9202089394037
 21
475.688286166368
 31
0.0
  0
LINE
  5
BE
330
47
100
AcDbEntity
  8
0
  6
Continuous
 62
     7
100
AcDbLine
 10
227.9202089394037
 20
438.688286166368
 30
0.0
 11
224.4846244430037
 21
438.688286166368
 31
0.0
  0
LINE
  5
BF
330
47
100
AcDbEntity
  8
0
  6
Continuous
 62
     7
100
AcDbLine
 10
144.4047090827187
 20
286.2299105452889
 30
0.0
 11
144.4047090827187
 21
268.320945201481
 31
0.0
  0
LINE
  5
C0
330
47
100
AcDbEntity
  8
0
  6
Continuous
 62
     7
100
AcDbLine
 10
225.6656260864097
 20
317.60455632818
 30
0.0
 11
221.6954414798438
 21
317.1170789545599
 31
0.0
  0
LINE
  5
C1
330
47
100
AcDbEntity
  8
0
  6
Continuous
 62
     7
100
AcDbLine
 10
220.2066222523818
 20
316.9342749394521
 30
0.0
 11
218.2215299490998
 21
316.690536252642
 31
0.0
  0
LINE
  5
C2
330
47
100
AcDbEntity
  8
0
  6
Continuous
 62
     7
100
AcDbLine
 10
230.1747917923997
 20
280.8803487174509
 30
0.0
 11
226.0312341166248
 21
314.6269178732559
 31
0.0
  0
LINE
  5
C3
330
47
100
AcDbEntity
  8
0
  6
Continuous
 62
     7
100
AcDbLine
 10
226.2046071858347
 20
280.3928713438299
 30
0.0
 11
230.1747917923997
 21
280.8803487174509
 31
0.0
  0
LINE
  5
C4
330
47
100
AcDbEntity
  8
0
  6
Continuous
 62
     7
100
AcDbLine
 10
200.3984072431597
 20
277.2242684152971
 30
0.0
 11
208.8350495321111
 21
278.260157834241
 31
0.0
  0
LINE
  5
C5
330
47
100
AcDbEntity
  8
0
  6
Continuous
 62
     7
100
AcDbLine
 10
189.4297543354767
 20
275.3737322716011
 30
0.0
 11
200.4593419148619
 21
276.7279953394759
 31
0.0
  0
LINE
  5
C6
330
47
100
AcDbEntity
  8
0
  6
Continuous
 62
     7
100
AcDbLine
 10
200.4593419148619
 20
276.7279953394759
 30
0.0
 11
200.3984072431597
 21
277.2242684152971
 31
0.0
  0
LINE
  5
C7
330
47
100
AcDbEntity
  8
0
  6
DASH_CENTER
 62
     7
100
AcDbLine
 10
220.4761128020948
 20
298.328432447277
 30
0.0
 11
220.4949447336449
 21
298.1750586728219
 31
0.0
  0
LINE
  5
C8
330
47
100
AcDbEntity
  8
0
  6
DASH_CENTER
 62
     7
100
AcDbLine
 10
220.4761128020948
 20
298.328432447277
 30
0.0
 11
220.4949447336449
 21
298.1750586728219
 31
0.0
  0
LINE
  5
C9
330
47
100
AcDbEntity
  8
0
  6
DASH_CENTER
 62
     7
100
AcDbLine
 10
220.4761128020948
 20
298.328432447277
 30
0.0
 11
220.4949447336449
 21
298.1750586728219
 31
0.0
  0
LINE
  5
CA
330
47
100
AcDbEntity
  8
0
  6
DASH_CENTER
 62
     7
100
AcDbLine
 10
220.4761128020948
 20
298.328432447277
 30
0.0
 11
220.4949447336449
 21
298.1750586728219
 31
0.0
  0
LINE
  5
CB
330
47
100
AcDbEntity
  8
1
  6
Continuous
 62
     7
100
AcDbLine
 10
182.4537092221968
 20
268.3174451915179
 30
0.0
 11
163.4047090827187
 21
268.3174451915179
 31
0.0
  0
LINE
  5
CC
330
47
100
AcDbEntity
  8
0
  6
Continuous
 62
     7
100
AcDbLine
 10
189.4047090827187
 20
267.320945201481
 30
0.0
 11
189.4047090827187
 21
267.820945201481
 31
0.0
  0
LINE
  5
CD
330
47
100
AcDbEntity
  8
0
  6
PHANTOM
 62
     4
100
AcDbLine
 10
221.9391801666547
 20
315.131986651277
 30
0.0
 11
225.9093647732197
 21
315.619464024898
 31
0.0
  0
LINE
  5
CE
330
47
100
AcDbEntity
  8
1
  6
Continuous
 62
     7
100
AcDbLine
 10
200.3984072431597
 20
277.2242684152971
 30
0.0
 11
198.1438243901648
 21
295.5863722206609
 31
0.0
  0
LINE
  5
CF
330
47
100
AcDbEntity
  8
1
  6
Continuous
 62
     7
100
AcDbLine
 10
224.7157879583718
 20
280.210067328723
 30
0.0
 11
220.2066222523794
 21
316.9342749394531
 31
0.0
  0
LINE
  5
D0
330
47
100
AcDbEntity
  8
1
  6
Continuous
 62
     7
100
AcDbLine
 10
221.6954414798438
 20
317.1170789545599
 30
0.0
 11
226.2046071858347
 21
280.3928713438299
 31
0.0
  0
ARC
  5
D1
330
47
100
AcDbEntity
  8
0
  6
Continuous
 62
     7
100
AcDbCircle
 10
163.4047090827187
 20
457.188286166368
 30
0.0
 40
19.0
100
AcDbArc
 50
90.0
 51
270.0
  0
ARC
  5
D2
330
47
100
AcDbEntity
  8
0
  6
Continuous
 62
     7
100
AcDbCircle
 10
193.3822239218892
 20
457.188286166368
 30
0.0
 40
41.63084413981564
100
AcDbArc
 50
158.1412248802599
 51
201.8587751197401
  0
ARC
  5
D3
330
47
100
AcDbEntity
  8
0
  6
Continuous
 62
     7
100
AcDbCircle
 10
192.1621416729481
 20
457.188286166368
 30
0.0
 40
36.08302163504226
100
AcDbArc
 50
203.3475927272377
 51
205.4399515132311
  0
ARC
  5
D4
330
47
100
AcDbEntity
  8
0
  6
Continuous
 62
     7
100
AcDbCircle
 10
210.3982443206783
 20
457.188286166368
 30
0.0
 40
51.94802712613593
100
AcDbArc
 50
162.6399634681284
 51
197.3600365318716
  0
ARC
  5
D5
330
47
100
AcDbEntity
  8
0
  6
Continuous
 62
     7
100
AcDbCircle
 10
166.2593854137122
 20
457.188286166368
 30
0.0
 40
19.30915900289763
100
AcDbArc
 50
134.551863023448
 51
225.4481369765524
  0
ARC
  5
D6
330
47
100
AcDbEntity
  8
0
  6
Continuous
 62
     7
100
AcDbCircle
 10
185.8507664145862
 20
457.188286166368
 30
0.0
 40
35.88108617441198
100
AcDbArc
 50
198.1392961906602
 51
202.5499816129938
  0
ARC
  5
D7
330
47
100
AcDbEntity
  8
0
  6
Continuous
 62
     7
100
AcDbCircle
 10
210.3982443206783
 20
457.188286166368
 30
0.0
 40
51.60052712613621
100
AcDbArc
 50
163.9110739391062
 51
196.0889260608937
  0
ARC
  5
D8
330
47
100
AcDbEntity
  8
0
  6
Continuous
 62
     7
100
AcDbCircle
 10
193.3822239218892
 20
457.188286166368
 30
0.0
 40
40.81346913981605
100
AcDbArc
 50
159.4897753533864
 51
200.5102246466135
  0
ARC
  5
D9
330
47
100
AcDbEntity
  8
0
  6
Continuous
 62
     7
100
AcDbCircle
 10
192.1621416729481
 20
457.188286166368
 30
0.0
 40
36.0830216350423
100
AcDbArc
 50
156.6524072727621
 51
203.3475927272377
  0
ARC
  5
DA
330
47
100
AcDbEntity
  8
0
  6
Continuous
 62
     7
100
AcDbCircle
 10
192.1621416729481
 20
457.188286166368
 30
0.0
 40
36.08302163504283
100
AcDbArc
 50
154.5600484867689
 51
156.6524072727621
  0
ARC
  5
DB
330
47
100
AcDbEntity
  8
0
  6
Continuous
 62
     7
100
AcDbCircle
 10
166.2593854137122
 20
457.188286166368
 30
0.0
 40
18.30915900289744
100
AcDbArc
 50
142.4017714018121
 51
217.5982285981884
  0
ARC
  5
DC
330
47
100
AcDbEntity
  8
0
  6
Continuous
 62
     7
100
AcDbCircle
 10
185.8507664145862
 20
457.188286166368
 30
0.0
 40
35.88108617441207
100
AcDbArc
 50
157.4500183870065
 51
161.8607038093402
  0
ARC
  5
DD
330
47
100
AcDbEntity
  8
0
  6
Continuous
 62
     7
100
AcDbCircle
 10
185.8507664145862
 20
457.188286166368
 30
0.0
 40
35.88108617441191
100
AcDbArc
 50
161.8607038093402
 51
198.1392961906602
  0
ARC
  5
DE
330
47
100
AcDbEntity
  8
0
  6
Continuous
 62
     7
100
AcDbCircle
 10
163.4047090827175
 20
291.320945201481
 30
0.0
 40
17.8000000000001
100
AcDbArc
 50
180.0
 51
195.0000000000001
  0
ARC
  5
DF
330
47
100
AcDbEntity
  8
0
  6
Continuous
 62
     7
100
AcDbCircle
 10
163.4047090827175
 20
291.320945201481
 30
0.0
 40
17.80000000000011
100
AcDbArc
 50
157.4999999999991
 51
172.4999999999997
  0
ARC
  5
E0
330
47
100
AcDbEntity
  8
0
  6
Continuous
 62
     7
100
AcDbCircle
 10
163.4047090827175
 20
291.320945201481
 30
0.0
 40
17.80000000000006
100
AcDbArc
 50
112.4999999999996
 51
127.5000000000001
  0
ARC
  5
E1
330
47
100
AcDbEntity
  8
0
  6
Continuous
 62
     7
100
AcDbCircle
 10
163.4047090827175
 20
291.320945201481
 30
0.0
 40
17.80000000000038
100
AcDbArc
 50
134.9999999999986
 51
149.9999999999999
  0
ARC
  5
E2
330
47
100
AcDbEntity
  8
0
  6
Continuous
 62
     7
100
AcDbCircle
 10
163.4047090827175
 20
291.320945201481
 30
0.0
 40
18.9999999999999
100
AcDbArc
 50
172.4999999999999
 51
180.0
  0
ARC
  5
E3
330
47
100
AcDbEntity
  8
0
  6
Continuous
 62
     7
100
AcDbCircle
 10
163.4047090827175
 20
291.320945201481
 30
0.0
 40
19.00000000000033
100
AcDbArc
 50
127.4999999999992
 51
135.000000000001
  0
ARC
  5
E4
330
47
100
AcDbEntity
  8
0
  6
Continuous
 62
     7
100
AcDbCircle
 10
163.4047090827175
 20
291.320945201481
 30
0.0
 40
19.00000000000006
100
AcDbArc
 50
150.0000000000001
 51
157.4999999999987
  0
ARC
  5
E5
330
47
100
AcDbEntity
  8
0
  6
Continuous
 62
     7
100
AcDbCircle
 10
163.4047090827175
 20
291.320945201481
 30
0.0
 40
10.0
100
AcDbArc
 50
180.0
 51
194.9999999999934
  0
ARC
  5
E6
330
47
100
AcDbEntity
  8
0
  6
Continuous
 62
     7
100
AcDbCircle
 10
163.4047090827175
 20
291.320945201481
 30
0.0
 40
9.99999999999994
100
AcDbArc
 50
157.4999999999997
 51
172.4999999999972
  0
ARC
  5
E7
330
47
100
AcDbEntity
  8
0
  6
Continuous
 62
     7
100
AcDbCircle
 10
163.4047090827175
 20
291.320945201481
 30
0.0
 40
10.00000000000026
100
AcDbArc
 50
134.9999999999969
 51
150.0000000000003
  0
ARC
  5
E8
330
47
100
AcDbEntity
  8
0
  6
Continuous
 62
     7
100
AcDbCircle
 10
163.4047090827175
 20
291.320945201481
 30
0.0
 40
9.999999999999957
100
AcDbArc
 50
112.4999999999989
 51
127.5000000000005
  0
ARC
  5
E9
330
47
100
AcDbEntity
  8
0
  6
Continuous
 62
     7
100
AcDbCircle
 10
163.4047090827175
 20
291.320945201481
 30
0.0
 40
17.7999999999999
100
AcDbArc
 50
90.00000000000092
 51
105.0000000000002
  0
ARC
  5
EA
330
47
100
AcDbEntity
  8
0
  6
Continuous
 62
     7
100
AcDbCircle
 10
163.4047090827175
 20
291.320945201481
 30
0.0
 40
18.99999999999985
100
AcDbArc
 50
105.0000000000004
 51
112.4999999999996
  0
ARC
  5
EB
330
47
100
AcDbEntity
  8
0
  6
Continuous
 62
     7
100
AcDbCircle
 10
163.4047090827175
 20
291.320945201481
 30
0.0
 40
10.0
100
AcDbArc
 50
90.0
 51
105.0000000000001
  0
ARC
  5
EC
330
47
100
AcDbEntity
  8
0
  6
Continuous
 62
     7
100
AcDbCircle
 10
163.4047090827187
 20
457.188286166368
 30
0.0
 40
26.0
100
AcDbArc
 50
180.0
 51
313.0490798002352
  0
ARC
  5
ED
330
47
100
AcDbEntity
  8
0
  6
Continuous
 62
     7
100
AcDbCircle
 10
163.4047090827187
 20
457.188286166368
 30
0.0
 40
25.99999999999949
100
AcDbArc
 50
46.95092019976485
 51
180.0
  0
ARC
  5
EE
330
47
100
AcDbEntity
  8
0
  6
Continuous
 62
     7
100
AcDbCircle
 10
220.9891160359198
 20
316.7155062746749
 30
0.0
 40
0.812499999978098
100
AcDbArc
 50
29.61986494431024
 51
164.3801350556858
  0
ARC
  5
EF
330
47
100
AcDbEntity
  8
0
  6
Continuous
 62
     7
100
AcDbCircle
 10
225.4221134022967
 20
280.6116400086071
 30
0.0
 40
0.8124999999784391
100
AcDbArc
 50
209.6198649442228
 51
344.3801350556858
  0
SPLINE
  5
F0
330
47
100
AcDbEntity
  8
0
  6
Continuous
 62
     7
100
AcDbSpline
210
0.0
220
0.0
230
1.0
 70
     8
 71
     3
 72
    27
 73
    23
 74
    21
 42
0.000000001
 43
0.0000000001
 44
0.00000001
 40
0.0
 40
0.0
 40
0.0
 40
0.0
 40
0.1260601992654023
 40
0.252196093880326
 40
0.501780300909774
 40
0.7513775014022547
 40
0.993354345702572
 40
1.235359723724288
 40
1.465203804264309
 40
1.695097726857363
 40
1.909139782413647
 40
2.123263272132423
 40
2.319128293531136
 40
2.515121942866126
 40
2.692274048692128
 40
2.869618426850392
 40
3.029993779788778
 40
3.1906117515422
 40
3.339110033079271
 40
3.487797239605049
 40
3.632031485246587
 40
3.776265726754646
 40
3.776265726754646
 40
3.776265726754646
 40
3.776265726754646
 10
189.8730299556198
 20
461.0882861663681
 30
0.0
 10
189.8733295446989
 20
461.1303073673336
 30
0.0
 10
189.8739289111044
 20
461.2143750016134
 30
0.0
 10
189.8802662370012
 20
461.3815371321589
 30
0.0
 10
189.8955790234378
 20
461.5894971974992
 30
0.0
 10
189.9260529784218
 20
461.8347734667847
 30
0.0
 10
189.9687040327639
 20
462.0756597719569
 30
0.0
 10
190.0224942959214
 20
462.307567683322
 30
0.0
 10
190.0881133196382
 20
462.5322158472381
 30
0.0
 10
190.1635759600534
 20
462.743907748608
 30
0.0
 10
190.2502958430815
 20
462.9455497258254
 30
0.0
 10
190.345191802181
 20
463.1308616596743
 30
0.0
 10
190.450560335412
 20
463.3034157573003
 30
0.0
 10
190.5622439204598
 20
463.4570235578451
 30
0.0
 10
190.683330187547
 20
463.595240647304
 30
0.0
 10
190.8089611620426
 20
463.7126552448112
 30
0.0
 10
190.9424481552558
 20
463.812149528841
 30
0.0
 10
191.0790352808934
 20
463.8894208151841
 30
0.0
 10
191.2211080851211
 20
463.9466252786085
 30
0.0
 10
191.3648711857205
 20
463.9799575651444
 30
0.0
 10
191.5108786713383
 20
463.9931865041942
 30
0.0
 10
191.6066352465172
 20
463.9823145821614
 30
0.0
 10
191.6545135331187
 20
463.976878615259
 30
0.0
 11
189.8730299556198
 21
461.0882861663681
 31
0.0
 11
189.874574785301
 21
461.2143368911211
 31
0.0
 11
189.8792092743444
 21
461.3403876158744
 31
0.0
 11
189.897653771168
 21
461.5892893571494
 31
0.0
 11
189.9285238505955
 21
461.8369702015392
 31
0.0
 11
189.9707849208518
 21
462.0752280348228
 31
0.0
 11
190.0256639728001
 21
462.3109288889864
 31
0.0
 11
190.0902333739033
 21
462.5315169525861
 31
0.0
 11
190.1677064602395
 21
462.7479635661821
 31
0.0
 11
190.2524559570497
 21
462.9445126041622
 31
0.0
 11
190.3504074886575
 21
463.1349183979083
 31
0.0
 11
190.452730557269
 21
463.3019306615873
 31
0.0
 11
190.5683802312709
 21
463.4601667619389
 31
0.0
 11
190.6854164153394
 21
463.593153228104
 31
0.0
 11
190.815323711487
 21
463.7138807014612
 31
0.0
 11
190.944230974714
 21
463.8092912420875
 31
0.0
 11
191.0841811319016
 21
463.8881080314352
 31
0.0
 11
191.2221882706049
 21
463.9429329274622
 31
0.0
 11
191.3669486785363
 21
463.9768786152591
 31
0.0
 11
191.5107311058276
 21
463.9882861663679
 31
0.0
 11
191.6545135331187
 21
463.976878615259
 31
0.0
  0
SPLINE
  5
F1
330
47
100
AcDbEntity
  8
0
  6
Continuous
 62
     7
100
AcDbSpline
210
0.0
220
0.0
230
1.0
 70
     8
 71
     3
 72
    25
 73
    21
 74
    19
 42
0.000000001
 43
0.0000000001
 44
0.00000001
 40
0.0
 40
0.0
 40
0.0
 40
0.0
 40
0.1486872001353396
 40
0.2971854768079444
 40
0.4578034488922434
 40
0.6181788022991949
 40
0.795523180794981
 40
0.9726752868488593
 40
1.168668936366025
 40
1.364533957898784
 40
1.578657447731588
 40
1.792699503374351
 40
2.022593426039456
 40
2.252437506629624
 40
2.494442884683475
 40
2.736419728984362
 40
2.986016929428474
 40
3.235601136310263
 40
3.361737031009067
 40
3.487797230642252
 40
3.487797230642252
 40
3.487797230642252
 40
3.487797230642252
 10
191.6545135331187
 20
463.976878615259
 30
0.0
 10
191.7032034844886
 20
463.9670938255132
 30
0.0
 10
191.8005215176612
 20
463.9475366650033
 30
0.0
 10
191.942378022277
 20
463.8891545130321
 30
0.0
 10
192.0790275259583
 20
463.8122228625176
 30
0.0
 10
192.2124970184188
 20
463.7126332876245
 30
0.0
 10
192.3381331472622
 20
463.595246752029
 30
0.0
 10
192.4592179576529
 20
463.4570217299646
 30
0.0
 10
192.5709019721824
 20
463.3034162671563
 30
0.0
 10
192.6762703843376
 20
463.1308615099449
 30
0.0
 10
192.7711663787549
 20
462.9455497682181
 30
0.0
 10
192.8578862518835
 20
462.7439077370732
 30
0.0
 10
192.9333488951093
 20
462.5322158510551
 30
0.0
 10
192.998967917999
 20
462.3075676827938
 30
0.0
 10
193.0527581813186
 20
462.0756597725922
 30
0.0
 10
193.0954092355324
 20
461.8347734670788
 30
0.0
 10
193.1258831902986
 20
461.5894971979291
 30
0.0
 10
193.1411959767
 20
461.3815371325808
 30
0.0
 10
193.1475333011287
 20
461.2143750018758
 30
0.0
 10
193.1481326669558
 20
461.1303073674453
 30
0.0
 10
193.1484322560357
 20
461.088286166357
 30
0.0
 11
191.6545135331187
 21
463.976878615259
 31
0.0
 11
191.7992739410498
 21
463.9429329274621
 31
0.0
 11
191.9372810797529
 21
463.8881080314352
 31
0.0
 11
192.0772312369405
 21
463.8092912420876
 31
0.0
 11
192.2061385001676
 21
463.7138807014612
 31
0.0
 11
192.3360457963152
 21
463.593153228104
 31
0.0
 11
192.4530819803838
 21
463.4601667619388
 31
0.0
 11
192.5687316543856
 21
463.3019306615872
 31
0.0
 11
192.6710547229972
 21
463.1349183979084
 31
0.0
 11
192.7690062546051
 21
462.9445126041622
 31
0.0
 11
192.8537557514157
 21
462.747963566182
 31
0.0
 11
192.931228837752
 21
462.5315169525861
 31
0.0
 11
192.9957982388551
 21
462.3109288889864
 31
0.0
 11
193.050677290803
 21
462.0752280348228
 31
0.0
 11
193.0929383610592
 21
461.8369702015392
 31
0.0
 11
193.1238084404868
 21
461.5892893571494
 31
0.0
 11
193.1422529373106
 21
461.3403876158746
 31
0.0
 11
193.1468874263544
 21
461.214336891116
 31
0.0
 11
193.1484322560357
 21
461.088286166357
 31
0.0
  0
SPLINE
  5
F2
330
47
100
AcDbEntity
  8
0
  6
Continuous
 62
     7
100
AcDbSpline
210
0.0
220
0.0
230
1.0
 70
     8
 71
     3
 72
    27
 73
    23
 74
    21
 42
0.000000001
 43
0.0000000001
 44
0.00000001
 40
0.0
 40
0.0
 40
0.0
 40
0.0
 40
0.1260601992654591
 40
0.252196093880326
 40
0.501780300909774
 40
0.7513775014023675
 40
0.9933543457026288
 40
1.23535972372429
 40
1.465203804264311
 40
1.695097726857365
 40
1.909139782413493
 40
2.123263272132117
 40
2.319128293530539
 40
2.515121942865759
 40
2.692274048691974
 40
2.869618426850354
 40
3.029993779788774
 40
3.19061175154214
 40
3.339110033079211
 40
3.487797239604989
 40
3.632031485246541
 40
3.776265726754612
 40
3.776265726754612
 40
3.776265726754612
 40
3.776265726754612
 10
189.8730299556198
 20
453.2882861663679
 30
0.0
 10
189.8733295446989
 20
453.2462649654022
 30
0.0
 10
189.8739289111045
 20
453.1621973311226
 30
0.0
 10
189.8802662370012
 20
452.9950352005774
 30
0.0
 10
189.8955790234378
 20
452.7870751352367
 30
0.0
 10
189.9260529784219
 20
452.5417988659513
 30
0.0
 10
189.9687040327639
 20
452.3009125607789
 30
0.0
 10
190.0224942959213
 20
452.0690046494139
 30
0.0
 10
190.0881133196382
 20
451.8443564854983
 30
0.0
 10
190.1635759600533
 20
451.6326645841276
 30
0.0
 10
190.2502958430815
 20
451.431022606911
 30
0.0
 10
190.3451918021809
 20
451.2457106730621
 30
0.0
 10
190.4505603354122
 20
451.0731565754363
 30
0.0
 10
190.5622439204598
 20
450.9195487748914
 30
0.0
 10
190.683330187547
 20
450.781331685432
 30
0.0
 10
190.8089611620426
 20
450.6639170879248
 30
0.0
 10
190.9424481552558
 20
450.564422803895
 30
0.0
 10
191.0790352808935
 20
450.4871515175519
 30
0.0
 10
191.2211080851211
 20
450.4299470541276
 30
0.0
 10
191.3648711857205
 20
450.3966147675917
 30
0.0
 10
191.5108786713383
 20
450.3833858285413
 30
0.0
 10
191.6066352465173
 20
450.3942577505748
 30
0.0
 10
191.6545135331187
 20
450.399693717477
 30
0.0
 11
189.8730299556198
 21
453.2882861663679
 31
0.0
 11
189.874574785301
 21
453.1622354416148
 31
0.0
 11
189.8792092743444
 21
453.0361847168616
 31
0.0
 11
189.897653771168
 21
452.7872829755866
 31
0.0
 11
189.9285238505955
 21
452.5396021311967
 31
0.0
 11
189.9707849208518
 21
452.3013442979131
 31
0.0
 11
190.0256639728001
 21
452.0656434437497
 31
0.0
 11
190.0902333739033
 21
451.8450553801499
 31
0.0
 11
190.1677064602395
 21
451.628608766554
 31
0.0
 11
190.2524559570497
 21
451.432059728574
 31
0.0
 11
190.3504074886575
 21
451.241653934828
 31
0.0
 11
190.452730557269
 21
451.0746416711494
 31
0.0
 11
190.5683802312709
 21
450.9164055707976
 31
0.0
 11
190.6854164153394
 21
450.7834191046322
 31
0.0
 11
190.815323711487
 21
450.6626916312748
 31
0.0
 11
190.944230974714
 21
450.5672810906484
 31
0.0
 11
191.0841811319016
 21
450.4884643013008
 31
0.0
 11
191.2221882706049
 21
450.4336394052739
 31
0.0
 11
191.3669486785363
 21
450.3996937174769
 31
0.0
 11
191.5107311058276
 21
450.3882861663679
 31
0.0
 11
191.6545135331187
 21
450.399693717477
 31
0.0
  0
SPLINE
  5
F3
330
47
100
AcDbEntity
  8
0
  6
Continuous
 62
     7
100
AcDbSpline
210
0.0
220
0.0
230
1.0
 70
     8
 71
     3
 72
    25
 73
    21
 74
    19
 42
0.000000001
 43
0.0000000001
 44
0.00000001
 40
0.0
 40
0.0
 40
0.0
 40
0.0
 40
0.1486872001353267
 40
0.2971854768079524
 40
0.4578034488922236
 40
0.6181788022991751
 40
0.7955231807949226
 40
0.9726752868488009
 40
1.168668936365921
 40
1.364533957898777
 40
1.578657447731581
 40
1.792699503374344
 40
2.022593426039449
 40
2.252437506629672
 40
2.494442884683467
 40
2.736419728984354
 40
2.98601692942841
 40
3.235601136310199
 40
3.361737031009116
 40
3.487797230642415
 40
3.487797230642415
 40
3.487797230642415
 40
3.487797230642415
 10
191.6545135331187
 20
450.399693717477
 30
0.0
 10
191.7032034844887
 20
450.409478507223
 30
0.0
 10
191.8005215176612
 20
450.4290356677324
 30
0.0
 10
191.9423780222769
 20
450.4874178197042
 30
0.0
 10
192.0790275259584
 20
450.5643494702182
 30
0.0
 10
192.2124970184187
 20
450.6639390451115
 30
0.0
 10
192.3381331472623
 20
450.7813255807072
 30
0.0
 10
192.4592179576529
 20
450.9195506027713
 30
0.0
 10
192.5709019721826
 20
451.0731560655795
 30
0.0
 10
192.6762703843374
 20
451.2457108227913
 30
0.0
 10
192.771166378755
 20
451.4310225645176
 30
0.0
 10
192.8578862518835
 20
451.6326645956631
 30
0.0
 10
192.9333488951094
 20
451.8443564816809
 30
0.0
 10
192.9989679179989
 20
452.069004649942
 30
0.0
 10
193.0527581813187
 20
452.3009125601438
 30
0.0
 10
193.0954092355323
 20
452.5417988656571
 30
0.0
 10
193.1258831902986
 20
452.7870751348069
 30
0.0
 10
193.1411959767
 20
452.9950352001553
 30
0.0
 10
193.1475333011287
 20
453.1621973308601
 30
0.0
 10
193.1481326669558
 20
453.2462649652908
 30
0.0
 10
193.1484322560357
 20
453.2882861663791
 30
0.0
 11
191.6545135331187
 21
450.399693717477
 31
0.0
 11
191.7992739410498
 21
450.4336394052739
 31
0.0
 11
191.9372810797529
 21
450.4884643013008
 31
0.0
 11
192.0772312369405
 21
450.5672810906484
 31
0.0
 11
192.2061385001676
 21
450.6626916312748
 31
0.0
 11
192.3360457963152
 21
450.7834191046319
 31
0.0
 11
192.4530819803838
 21
450.9164055707971
 31
0.0
 11
192.5687316543856
 21
451.0746416711486
 31
0.0
 11
192.6710547229972
 21
451.2416539348276
 31
0.0
 11
192.7690062546051
 21
451.4320597285738
 31
0.0
 11
192.8537557514157
 21
451.628608766554
 31
0.0
 11
192.931228837752
 21
451.8450553801499
 31
0.0
 11
192.9957982388551
 21
452.0656434437497
 31
0.0
 11
193.050677290803
 21
452.3013442979131
 31
0.0
 11
193.0929383610592
 21
452.5396021311968
 31
0.0
 11
193.1238084404868
 21
452.7872829755865
 31
0.0
 11
193.1422529373106
 21
453.0361847168613
 31
0.0
 11
193.1468874263544
 21
453.1622354416201
 31
0.0
 11
193.1484322560357
 21
453.2882861663791
 31
0.0
  0
SPLINE
  5
F4
330
47
100
AcDbEntity
  8
0
  6
Continuous
 62
     7
100
AcDbSpline
210
0.0
220
0.0
230
1.0
 70
     8
 71
     3
 72
    27
 73
    23
 74
    21
 42
0.000000001
 43
0.0000000001
 44
0.00000001
 40
0.0
 40
0.0
 40
0.0
 40
0.0
 40
0.8031722228241959
 40
1.606366755676144
 40
3.188693417105184
 40
4.77102583333186
 40
6.28202014930579
 40
7.793027294946869
 40
9.187682393711498
 40
10.5823650165731
 40
11.81947086452205
 40
13.05663256574184
 40
14.10031912420678
 40
15.14407246439476
 40
15.96572761790513
 40
16.78821255625773
 40
17.36943012747514
 40
17.94857928898237
 40
18.30059028216525
 40
18.67914240801387
 40
18.80300916782181
 40
18.90876229499827
 40
18.90876229499827
 40
18.90876229499827
 40
18.90876229499827
 10
195.8892415371527
 20
457.188286166368
 30
0.0
 10
195.8896525656947
 20
457.4560105642338
 30
0.0
 10
195.8904746247931
 20
457.991466796675
 30
0.0
 10
195.899124338223
 20
459.0543360271005
 30
0.0
 10
195.920133526625
 20
460.3768116005157
 30
0.0
 10
195.9616981851475
 20
461.9348418450782
 30
0.0
 10
196.0201860168279
 20
463.4685368019809
 30
0.0
 10
196.0934073241572
 20
464.9389739717024
 30
0.0
 10
196.1833537434403
 20
466.3696344825401
 30
0.0
 10
196.2854869686315
 20
467.7079454402443
 30
0.0
 10
196.4042333816832
 20
468.9921642442469
 30
0.0
 10
196.5319555536701
 20
470.1579305843454
 30
0.0
 10
196.6761089577248
 20
471.2567638228633
 30
0.0
 10
196.8218186132332
 20
472.2156168160059
 30
0.0
 10
196.9866867526738
 20
473.0963975715287
 30
0.0
 10
197.1521566652544
 20
473.8199709575831
 30
0.0
 10
197.3352980866936
 20
474.4550619431901
 30
0.0
 10
197.4782251121076
 20
474.9387869779984
 30
0.0
 10
197.6738667310323
 20
475.3341316108219
 30
0.0
 10
197.8673228329968
 20
475.544523109532
 30
0.0
 10
198.0312605847625
 20
475.6726228487886
 30
0.0
 10
198.1083296616713
 20
475.6833470498692
 30
0.0
 10
198.1438243901648
 20
475.688286166368
 30
0.0
 11
195.8892415371527
 21
457.188286166368
 31
0.0
 11
195.8913584461557
 21
457.9914555918278
 31
0.0
 11
195.8977091731647
 21
458.7946250172874
 31
0.0
 11
195.9229775271539
 21
460.3767499092718
 31
0.0
 11
195.9654187958776
 21
461.9585130439179
 31
0.0
 11
196.0231139049094
 21
463.4684054563916
 31
0.0
 11
196.0987446008924
 21
464.9775186370126
 31
0.0
 11
196.1864559182536
 21
466.3694128748152
 31
0.0
 11
196.2934208196166
 21
467.7599876222741
 31
0.0
 11
196.4077039387528
 21
468.9918034557448
 31
0.0
 11
196.5437132975574
 21
470.2214662262309
 31
0.0
 11
196.6796169281319
 21
471.2562666105353
 31
0.0
 11
196.8395129395591
 21
472.2876997399464
 31
0.0
 11
196.9919818262472
 21
473.0950846727228
 31
0.0
 11
197.1787740946561
 21
473.8960778824109
 31
0.0
 11
197.3361127889282
 21
474.4555941021023
 31
0.0
 11
197.5194565057271
 21
475.0049563069583
 31
0.0
 11
197.6829685763029
 21
475.3166862248113
 31
0.0
 11
197.9372928679469
 21
475.5970803511328
 31
0.0
 11
198.0405586290559
 21
475.6654847125632
 31
0.0
 11
198.1438243901648
 21
475.688286166368
 31
0.0
  0
SPLINE
  5
F5
330
47
100
AcDbEntity
  8
0
  6
Continuous
 62
     7
100
AcDbSpline
210
0.0
220
0.0
230
1.0
 70
     8
 71
     3
 72
    45
 73
    41
 74
    39
 42
0.000000001
 43
0.0000000001
 44
0.00000001
 40
0.0
 40
0.0
 40
0.0
 40
0.0
 40
0.1059336668673704
 40
0.2309634649592753
 40
0.6175165292635998
 40
0.9759471267692627
 40
1.568500906316568
 40
2.163696014417545
 40
3.00758473886614
 40
3.850496800929148
 40
4.921818450236229
 40
5.993111740737676
 40
7.263362687541408
 40
8.533551488153728
 40
9.965732976774904
 40
11.39788911922233
 40
12.94964774375542
 40
14.50139358948107
 40
16.12646560151691
 40
17.75153205278704
 40
19.40130223934347
 40
21.05107242589984
 40
22.67613887717014
 40
24.30121088920638
 40
25.8529567349322
 40
27.40471535946506
 40
28.8368715019121
 40
30.26905299053321
 40
31.53924179114554
 40
32.80949273794921
 40
33.88078602845061
 40
34.95210767775779
 40
35.79501973982091
 40
36.63890846426951
 40
37.23410357237044
 40
37.82665735191769
 40
38.18508794942341
 40
38.57164101372786
 40
38.69667081180539
 40
38.80260447866066
 40
38.80260447866066
 40
38.80260447866066
 40
38.80260447866066
 10
198.1438243901387
 20
476.188286166368
 30
0.0
 10
198.1082712704148
 20
476.1831600875178
 30
0.0
 10
198.0307560448755
 20
476.1719838920715
 30
0.0
 10
197.8662185494553
 20
476.0391334078198
 30
0.0
 10
197.6721399413096
 20
475.822613804496
 30
0.0
 10
197.4767195368275
 20
475.416715129302
 30
0.0
 10
197.3354436448899
 20
474.9208234668367
 30
0.0
 10
197.1522368604313
 20
474.2688383537375
 30
0.0
 10
196.9865267983384
 20
473.5259758135176
 30
0.0
 10
196.8216733589656
 20
472.6213851545609
 30
0.0
 10
196.6761026133202
 20
471.6367544775892
 30
0.0
 10
196.5319487632019
 20
470.5082561001522
 30
0.0
 10
196.4042155650147
 20
469.3110512931688
 30
0.0
 10
196.285471877453
 20
467.9921328305471
 30
0.0
 10
196.1833493616386
 20
466.6176928827693
 30
0.0
 10
196.0934032749818
 20
465.1483753380479
 30
0.0
 10
196.0201858404768
 20
463.6382232355148
 30
0.0
 10
195.9616889519547
 20
462.0630857167839
 30
0.0
 10
195.9201633026899
 20
460.4629642282234
 30
0.0
 10
195.8947585190147
 20
458.8298299968297
 30
0.0
 10
195.8864622225028
 20
457.1882861663679
 30
0.0
 10
195.8947585190147
 20
455.5467423359063
 30
0.0
 10
195.92016330269
 20
453.9136081045122
 30
0.0
 10
195.9616889519546
 20
452.3134866159518
 30
0.0
 10
196.0201858404768
 20
450.7383490972206
 30
0.0
 10
196.0934032749817
 20
449.2281969946876
 30
0.0
 10
196.1833493616386
 20
447.7588794499665
 30
0.0
 10
196.2854718774529
 20
446.3844395021888
 30
0.0
 10
196.4042155650148
 20
445.0655210395673
 30
0.0
 10
196.5319487632019
 20
443.8683162325837
 30
0.0
 10
196.6761026133202
 20
442.7398178551468
 30
0.0
 10
196.8216733589656
 20
441.7551871781749
 30
0.0
 10
196.9865267983383
 20
440.8505965192182
 30
0.0
 10
197.1522368604313
 20
440.1077339789983
 30
0.0
 10
197.3354436448899
 20
439.4557488658992
 30
0.0
 10
197.4767195368277
 20
438.959857203434
 30
0.0
 10
197.6721399413094
 20
438.5539585282401
 30
0.0
 10
197.8662185494531
 20
438.3374389249194
 30
0.0
 10
198.0307560448639
 20
438.2045884406733
 30
0.0
 10
198.1082712703927
 20
438.1934122452211
 30
0.0
 10
198.1438243901119
 20
438.188286166368
 30
0.0
 11
198.1438243901387
 21
476.188286166368
 31
0.0
 11
198.0405256592869
 21
476.1648060977876
 31
0.0
 11
197.9372269284358
 21
476.0943658920547
 31
0.0
 11
197.6813047418865
 21
475.8046641398162
 31
0.0
 11
197.5183202244326
 21
475.4854329699577
 31
0.0
 11
197.3360379748273
 21
474.9216128193032
 31
0.0
 11
197.1789861588848
 21
474.3475118322491
 31
0.0
 11
196.9918793686913
 21
473.5246271334058
 31
0.0
 11
196.8394124998127
 21
472.6956189322142
 31
0.0
 11
196.6795940356391
 21
471.6362851161494
 31
0.0
 11
196.5437207007922
 21
470.5736432431433
 31
0.0
 11
196.4076911955108
 21
469.3106969100374
 31
0.0
 11
196.2934128323997
 21
468.0456593439346
 31
0.0
 11
196.1864509833033
 21
466.6174776406847
 31
0.0
 11
196.0987435979999
 21
465.188009687516
 31
0.0
 11
196.0231120300456
 21
463.6380952729301
 31
0.0
 11
195.9654180884129
 21
462.0874223298145
 31
0.0
 11
195.9229771104904
 21
460.4629046152157
 31
0.0
 11
195.8977090934509
 21
458.8380346217625
 31
0.0
 11
195.8892415371524
 21
457.188286166368
 31
0.0
 11
195.8977090934509
 21
455.5385377109735
 31
0.0
 11
195.9229771104904
 21
453.9136677175201
 31
0.0
 11
195.9654180884128
 21
452.2891500029209
 31
0.0
 11
196.0231120300456
 21
450.7384770598051
 31
0.0
 11
196.0987435979998
 21
449.1885626452195
 31
0.0
 11
196.1864509833033
 21
447.7590946920511
 31
0.0
 11
196.2934128323997
 21
446.3309129888013
 31
0.0
 11
196.4076911955108
 21
445.0658754226985
 31
0.0
 11
196.5437207007922
 21
443.8029290895927
 31
0.0
 11
196.6795940356392
 21
442.7402872165866
 31
0.0
 11
196.8394124998127
 21
441.6809534005217
 31
0.0
 11
196.9918793686912
 21
440.85194519933
 31
0.0
 11
197.1789861588848
 21
440.0290605004867
 31
0.0
 11
197.3360379748273
 21
439.4549595134327
 31
0.0
 11
197.5183202244326
 21
438.8911393627782
 31
0.0
 11
197.6813047418866
 21
438.5719081929198
 31
0.0
 11
197.937226928436
 21
438.2822064406812
 31
0.0
 11
198.0405256592739
 21
438.2117662349542
 31
0.0
 11
198.1438243901119
 21
438.188286166368
 31
0.0
  0
SPLINE
  5
F6
330
47
100
AcDbEntity
  8
0
  6
Continuous
 62
     7
100
AcDbSpline
210
0.0
220
0.0
230
1.0
 70
     8
 71
     3
 72
    11
 73
     7
 74
     5
 42
0.000000001
 43
0.0000000001
 44
0.00000001
 40
0.0
 40
0.0
 40
0.0
 40
0.0
 40
0.2535359977591534
 40
0.5237696063517637
 40
0.6487993975121282
 40
0.7547330588325272
 40
0.7547330588325272
 40
0.7547330588325272
 40
0.7547330588325272
 10
198.6784245003119
 20
475.688286166368
 30
0.0
 10
198.6331817362318
 20
475.7600510232755
 30
0.0
 10
198.5397165699311
 20
475.9083070923309
 30
0.0
 10
198.3906539564185
 20
476.0640830182981
 30
0.0
 10
198.2568627489691
 20
476.1719942142528
 30
0.0
 10
198.1793680839519
 20
476.1831633435038
 30
0.0
 10
198.1438243901817
 20
476.188286166368
 30
0.0
 11
198.6784245003119
 21
475.688286166368
 31
0.0
 11
198.5363997971472
 21
475.8983087395333
 31
0.0
 11
198.3504218518576
 21
476.094365892055
 31
0.0
 11
198.2471231210197
 21
476.1648060977818
 31
0.0
 11
198.1438243901817
 21
476.188286166368
 31
0.0
  0
SPLINE
  5
F7
330
47
100
AcDbEntity
  8
0
  6
Continuous
 62
     7
100
AcDbSpline
210
0.0
220
0.0
230
1.0
 70
     8
 71
     3
 72
    45
 73
    41
 74
    39
 42
0.000000001
 43
0.0000000001
 44
0.00000001
 40
0.0
 40
0.0
 40
0.0
 40
0.0
 40
0.1059336668673704
 40
0.2309634649592753
 40
0.6175165292635998
 40
0.9759471267692627
 40
1.568500906316568
 40
2.163696014417545
 40
3.00758473886614
 40
3.850496800929148
 40
4.921818450236229
 40
5.993111740737676
 40
7.263362687541408
 40
8.533551488153728
 40
9.965732976774904
 40
11.39788911922233
 40
12.94964774375542
 40
14.50139358948107
 40
16.12646560151691
 40
17.75153205278704
 40
19.40130223934347
 40
21.05107242589984
 40
22.67613887717014
 40
24.30121088920638
 40
25.8529567349322
 40
27.40471535946506
 40
28.8368715019121
 40
30.26905299053321
 40
31.53924179114554
 40
32.80949273794921
 40
33.88078602845061
 40
34.95210767775779
 40
35.79501973982091
 40
36.63890846426951
 40
37.23410357237044
 40
37.82665735191769
 40
38.18508794942341
 40
38.57164101372786
 40
38.69667081180539
 40
38.80260447866066
 40
38.80260447866066
 40
38.80260447866066
 40
38.80260447866066
 10
198.1438243901387
 20
476.188286166368
 30
0.0
 10
198.1082712704148
 20
476.1831600875178
 30
0.0
 10
198.0307560448755
 20
476.1719838920715
 30
0.0
 10
197.8662185494553
 20
476.0391334078198
 30
0.0
 10
197.6721399413096
 20
475.822613804496
 30
0.0
 10
197.4767195368275
 20
475.416715129302
 30
0.0
 10
197.3354436448899
 20
474.9208234668367
 30
0.0
 10
197.1522368604313
 20
474.2688383537375
 30
0.0
 10
196.9865267983384
 20
473.5259758135176
 30
0.0
 10
196.8216733589656
 20
472.6213851545609
 30
0.0
 10
196.6761026133202
 20
471.6367544775892
 30
0.0
 10
196.5319487632019
 20
470.5082561001522
 30
0.0
 10
196.4042155650147
 20
469.3110512931688
 30
0.0
 10
196.285471877453
 20
467.9921328305471
 30
0.0
 10
196.1833493616386
 20
466.6176928827693
 30
0.0
 10
196.0934032749818
 20
465.1483753380479
 30
0.0
 10
196.0201858404768
 20
463.6382232355148
 30
0.0
 10
195.9616889519547
 20
462.0630857167839
 30
0.0
 10
195.9201633026899
 20
460.4629642282234
 30
0.0
 10
195.8947585190147
 20
458.8298299968297
 30
0.0
 10
195.8864622225028
 20
457.1882861663679
 30
0.0
 10
195.8947585190147
 20
455.5467423359063
 30
0.0
 10
195.92016330269
 20
453.9136081045122
 30
0.0
 10
195.9616889519546
 20
452.3134866159518
 30
0.0
 10
196.0201858404768
 20
450.7383490972206
 30
0.0
 10
196.0934032749817
 20
449.2281969946876
 30
0.0
 10
196.1833493616386
 20
447.7588794499665
 30
0.0
 10
196.2854718774529
 20
446.3844395021888
 30
0.0
 10
196.4042155650148
 20
445.0655210395673
 30
0.0
 10
196.5319487632019
 20
443.8683162325837
 30
0.0
 10
196.6761026133202
 20
442.7398178551468
 30
0.0
 10
196.8216733589656
 20
441.7551871781749
 30
0.0
 10
196.9865267983383
 20
440.8505965192182
 30
0.0
 10
197.1522368604313
 20
440.1077339789983
 30
0.0
 10
197.3354436448899
 20
439.4557488658992
 30
0.0
 10
197.4767195368277
 20
438.959857203434
 30
0.0
 10
197.6721399413094
 20
438.5539585282401
 30
0.0
 10
197.8662185494531
 20
438.3374389249194
 30
0.0
 10
198.0307560448639
 20
438.2045884406733
 30
0.0
 10
198.1082712703927
 20
438.1934122452211
 30
0.0
 10
198.1438243901119
 20
438.188286166368
 30
0.0
 11
198.1438243901387
 21
476.188286166368
 31
0.0
 11
198.0405256592869
 21
476.1648060977876
 31
0.0
 11
197.9372269284358
 21
476.0943658920547
 31
0.0
 11
197.6813047418865
 21
475.8046641398162
 31
0.0
 11
197.5183202244326
 21
475.4854329699577
 31
0.0
 11
197.3360379748273
 21
474.9216128193032
 31
0.0
 11
197.1789861588848
 21
474.3475118322491
 31
0.0
 11
196.9918793686913
 21
473.5246271334058
 31
0.0
 11
196.8394124998127
 21
472.6956189322142
 31
0.0
 11
196.6795940356391
 21
471.6362851161494
 31
0.0
 11
196.5437207007922
 21
470.5736432431433
 31
0.0
 11
196.4076911955108
 21
469.3106969100374
 31
0.0
 11
196.2934128323997
 21
468.0456593439346
 31
0.0
 11
196.1864509833033
 21
466.6174776406847
 31
0.0
 11
196.0987435979999
 21
465.188009687516
 31
0.0
 11
196.0231120300456
 21
463.6380952729301
 31
0.0
 11
195.9654180884129
 21
462.0874223298145
 31
0.0
 11
195.9229771104904
 21
460.4629046152157
 31
0.0
 11
195.8977090934509
 21
458.8380346217625
 31
0.0
 11
195.8892415371524
 21
457.188286166368
 31
0.0
 11
195.8977090934509
 21
455.5385377109735
 31
0.0
 11
195.9229771104904
 21
453.9136677175201
 31
0.0
 11
195.9654180884128
 21
452.2891500029209
 31
0.0
 11
196.0231120300456
 21
450.7384770598051
 31
0.0
 11
196.0987435979998
 21
449.1885626452195
 31
0.0
 11
196.1864509833033
 21
447.7590946920511
 31
0.0
 11
196.2934128323997
 21
446.3309129888013
 31
0.0
 11
196.4076911955108
 21
445.0658754226985
 31
0.0
 11
196.5437207007922
 21
443.8029290895927
 31
0.0
 11
196.6795940356392
 21
442.7402872165866
 31
0.0
 11
196.8394124998127
 21
441.6809534005217
 31
0.0
 11
196.9918793686912
 21
440.85194519933
 31
0.0
 11
197.1789861588848
 21
440.0290605004867
 31
0.0
 11
197.3360379748273
 21
439.4549595134327
 31
0.0
 11
197.5183202244326
 21
438.8911393627782
 31
0.0
 11
197.6813047418866
 21
438.5719081929198
 31
0.0
 11
197.937226928436
 21
438.2822064406812
 31
0.0
 11
198.0405256592739
 21
438.2117662349542
 31
0.0
 11
198.1438243901119
 21
438.188286166368
 31
0.0
  0
SPLINE
  5
F8
330
47
100
AcDbEntity
  8
0
  6
Continuous
 62
     7
100
AcDbSpline
210
0.0
220
0.0
230
1.0
 70
     8
 71
     3
 72
    11
 73
     7
 74
     5
 42
0.000000001
 43
0.0000000001
 44
0.00000001
 40
0.0
 40
0.0
 40
0.0
 40
0.0
 40
0.2535359977586825
 40
0.523769606351499
 40
0.6487993975119917
 40
0.7547330588324032
 40
0.7547330588324032
 40
0.7547330588324032
 40
0.7547330588324032
 10
198.6784245003119
 20
438.688286166368
 30
0.0
 10
198.6331817362318
 20
438.6165213094608
 30
0.0
 10
198.5397165699309
 20
438.4682652404057
 30
0.0
 10
198.3906539564183
 20
438.312489314438
 30
0.0
 10
198.2568627489693
 20
438.2045781184836
 30
0.0
 10
198.1793680839519
 20
438.1934089892321
 30
0.0
 10
198.1438243901817
 20
438.188286166368
 30
0.0
 11
198.6784245003119
 21
438.688286166368
 31
0.0
 11
198.5363997971472
 21
438.4782635932033
 31
0.0
 11
198.3504218518576
 21
438.2822064406814
 31
0.0
 11
198.2471231210197
 21
438.2117662349543
 31
0.0
 11
198.1438243901817
 21
438.188286166368
 31
0.0
  0
SPLINE
  5
F9
330
47
100
AcDbEntity
  8
0
  6
Continuous
 62
     7
100
AcDbSpline
210
0.0
220
0.0
230
1.0
 70
     8
 71
     3
 72
    27
 73
    23
 74
    21
 42
0.000000001
 43
0.0000000001
 44
0.00000001
 40
0.0
 40
0.0
 40
0.0
 40
0.0
 40
0.8031722228241959
 40
1.606366755676144
 40
3.188693417105298
 40
4.77102583333186
 40
6.282020149305733
 40
7.793027294946357
 40
9.187682393710817
 40
10.58236501657264
 40
11.81947086452182
 40
13.05663256574184
 40
14.10031912420689
 40
15.14407246439486
 40
15.96572761790535
 40
16.78821255625789
 40
17.36943012747519
 40
17.94857928898231
 40
18.30059028216504
 40
18.67914240801329
 40
18.80300916782123
 40
18.90876229499785
 40
18.90876229499785
 40
18.90876229499785
 40
18.90876229499785
 10
195.8892415371527
 20
457.188286166368
 30
0.0
 10
195.8896525656947
 20
456.9205617685023
 30
0.0
 10
195.8904746247931
 20
456.3851055360612
 30
0.0
 10
195.8991243382231
 20
455.3222363056354
 30
0.0
 10
195.9201335266249
 20
453.9997607322205
 30
0.0
 10
195.9616981851475
 20
452.4417304876578
 30
0.0
 10
196.0201860168278
 20
450.9080355307552
 30
0.0
 10
196.0934073241573
 20
449.4375983610342
 30
0.0
 10
196.1833537434402
 20
448.0069378501966
 30
0.0
 10
196.2854869686317
 20
446.6686268924922
 30
0.0
 10
196.4042333816832
 20
445.3844080884894
 30
0.0
 10
196.53195555367
 20
444.2186417483906
 30
0.0
 10
196.6761089577248
 20
443.1198085098727
 30
0.0
 10
196.8218186132332
 20
442.16095551673
 30
0.0
 10
196.9866867526737
 20
441.2801747612073
 30
0.0
 10
197.1521566652544
 20
440.5566013751527
 30
0.0
 10
197.3352980866936
 20
439.9215103895459
 30
0.0
 10
197.4782251121077
 20
439.4377853547376
 30
0.0
 10
197.6738667310321
 20
439.0424407219143
 30
0.0
 10
197.867322832997
 20
438.8320492232044
 30
0.0
 10
198.0312605847625
 20
438.7039494839484
 30
0.0
 10
198.1083296616712
 20
438.693225282867
 30
0.0
 10
198.1438243901648
 20
438.688286166368
 30
0.0
 11
195.8892415371527
 21
457.188286166368
 31
0.0
 11
195.8913584461557
 21
456.3851167409082
 31
0.0
 11
195.8977091731647
 21
455.5819473154486
 31
0.0
 11
195.9229775271539
 21
453.9998224234641
 31
0.0
 11
195.9654187958776
 21
452.4180592888181
 31
0.0
 11
196.0231139049094
 21
450.9081668763445
 31
0.0
 11
196.0987446008924
 21
449.3990536957239
 31
0.0
 11
196.1864559182536
 21
448.0071594579215
 31
0.0
 11
196.2934208196166
 21
446.6165847104624
 31
0.0
 11
196.4077039387528
 21
445.3847688769914
 31
0.0
 11
196.5437132975574
 21
444.1551061065052
 31
0.0
 11
196.6796169281319
 21
443.1203057222006
 31
0.0
 11
196.8395129395591
 21
442.0888725927895
 31
0.0
 11
196.9919818262472
 21
441.281487660013
 31
0.0
 11
197.1787740946561
 21
440.480494450325
 31
0.0
 11
197.3361127889282
 21
439.9209782306337
 31
0.0
 11
197.5194565057271
 21
439.3716160257778
 31
0.0
 11
197.6829685763029
 21
439.0598861079249
 31
0.0
 11
197.9372928679469
 21
438.7794919816039
 31
0.0
 11
198.0405586290559
 21
438.7110876201735
 31
0.0
 11
198.1438243901648
 21
438.688286166368
 31
0.0
  0
SPLINE
  5
FA
330
47
100
AcDbEntity
  8
0
  6
Continuous
 62
     7
100
AcDbSpline
210
0.0
220
0.0
230
1.0
 70
     8
 71
     3
 72
    27
 73
    23
 74
    21
 42
0.000000001
 43
0.0000000001
 44
0.00000001
 40
0.0
 40
0.0
 40
0.0
 40
0.0
 40
0.8031722228241961
 40
1.606366755676147
 40
3.188693417105194
 40
4.771025833331875
 40
6.282020149305805
 40
7.793027294946882
 40
9.187682393711519
 40
10.58236501657315
 40
11.81947086452211
 40
13.05663256574188
 40
14.10031912420679
 40
15.1440724643948
 40
15.96572761790521
 40
16.78821255625775
 40
17.36943012747508
 40
17.94857928898227
 40
18.30059028216515
 40
18.67914240801382
 40
18.80300916782173
 40
18.90876229499806
 40
18.90876229499806
 40
18.90876229499806
 40
18.90876229499806
 10
221.6954414798438
 20
457.188286166368
 30
0.0
 10
221.6958525083858
 20
457.4560105642337
 30
0.0
 10
221.6966745674842
 20
457.9914667966748
 30
0.0
 10
221.7053242809147
 20
459.0543360271007
 30
0.0
 10
221.7263334693169
 20
460.3768116005156
 30
0.0
 10
221.7678981278396
 20
461.934841845078
 30
0.0
 10
221.82638595952
 20
463.4685368019809
 30
0.0
 10
221.8996072668492
 20
464.9389739717025
 30
0.0
 10
221.9895536861323
 20
466.3696344825398
 30
0.0
 10
222.0916869113242
 20
467.7079454402445
 30
0.0
 10
222.2104333243759
 20
468.9921642442466
 30
0.0
 10
222.3381554963626
 20
470.1579305843454
 30
0.0
 10
222.4823089004169
 20
471.2567638228634
 30
0.0
 10
222.6280185559256
 20
472.2156168160058
 30
0.0
 10
222.7928866953665
 20
473.0963975715284
 30
0.0
 10
222.9583566079469
 20
473.8199709575832
 30
0.0
 10
223.1414980293857
 20
474.45506194319
 30
0.0
 10
223.2844250547996
 20
474.9387869779986
 30
0.0
 10
223.4800666737243
 20
475.3341316108219
 30
0.0
 10
223.6735227756889
 20
475.544523109532
 30
0.0
 10
223.8374605274545
 20
475.6726228487886
 30
0.0
 10
223.9145296043632
 20
475.6833470498691
 30
0.0
 10
223.9500243328567
 20
475.688286166368
 30
0.0
 11
221.6954414798438
 21
457.188286166368
 31
0.0
 11
221.6975583888468
 21
457.9914555918278
 31
0.0
 11
221.7039091158561
 21
458.7946250172874
 31
0.0
 11
221.7291774698458
 21
460.3767499092718
 31
0.0
 11
221.7716187385697
 21
461.9585130439179
 31
0.0
 11
221.8293138476015
 21
463.4684054563916
 31
0.0
 11
221.9049445435844
 21
464.9775186370126
 31
0.0
 11
221.9926558609457
 21
466.3694128748152
 31
0.0
 11
222.0996207623091
 21
467.7599876222741
 31
0.0
 11
222.2139038814456
 21
468.9918034557448
 31
0.0
 11
222.3499132402498
 21
470.2214662262309
 31
0.0
 11
222.4858168708242
 21
471.2562666105353
 31
0.0
 11
222.6457128822516
 21
472.2876997399464
 31
0.0
 11
222.7981817689399
 21
473.0950846727228
 31
0.0
 11
222.9849740373485
 21
473.8960778824109
 31
0.0
 11
223.1423127316203
 21
474.4555941021023
 31
0.0
 11
223.3256564484192
 21
475.0049563069583
 31
0.0
 11
223.4891685189949
 21
475.3166862248113
 31
0.0
 11
223.743492810639
 21
475.5970803511328
 31
0.0
 11
223.8467585717479
 21
475.6654847125632
 31
0.0
 11
223.9500243328567
 21
475.688286166368
 31
0.0
  0
SPLINE
  5
FB
330
47
100
AcDbEntity
  8
0
  6
Continuous
 62
     7
100
AcDbSpline
210
0.0
220
0.0
230
1.0
 70
     8
 71
     3
 72
    11
 73
     7
 74
     5
 42
0.000000001
 43
0.0000000001
 44
0.00000001
 40
0.0
 40
0.0
 40
0.0
 40
0.0
 40
0.253535997759042
 40
0.5237696063516327
 40
0.6487993975120208
 40
0.754733058832392
 40
0.754733058832392
 40
0.754733058832392
 40
0.754733058832392
 10
224.4846244430037
 20
475.688286166368
 30
0.0
 10
224.4393816789236
 20
475.7600510232755
 30
0.0
 10
224.3459165126231
 20
475.9083070923309
 30
0.0
 10
224.1968538991105
 20
476.0640830182981
 30
0.0
 10
224.0630626916612
 20
476.1719942142527
 30
0.0
 10
223.985568026644
 20
476.183163343504
 30
0.0
 10
223.9500243328737
 20
476.188286166368
 30
0.0
 11
224.4846244430037
 21
475.688286166368
 31
0.0
 11
224.3425997398392
 21
475.8983087395333
 31
0.0
 11
224.1566217945496
 21
476.094365892055
 31
0.0
 11
224.0533230637117
 21
476.1648060977818
 31
0.0
 11
223.9500243328737
 21
476.188286166368
 31
0.0
  0
SPLINE
  5
FC
330
47
100
AcDbEntity
  8
0
  6
Continuous
 62
     7
100
AcDbSpline
210
0.0
220
0.0
230
1.0
 70
     8
 71
     3
 72
    11
 73
     7
 74
     5
 42
0.000000001
 43
0.0000000001
 44
0.00000001
 40
0.0
 40
0.0
 40
0.0
 40
0.0
 40
0.2535359977585711
 40
0.523769606351368
 40
0.6487993975118841
 40
0.7547330588322679
 40
0.7547330588322679
 40
0.7547330588322679
 40
0.7547330588322679
 10
224.4846244430037
 20
438.688286166368
 30
0.0
 10
224.4393816789236
 20
438.6165213094608
 30
0.0
 10
224.3459165126229
 20
438.4682652404057
 30
0.0
 10
224.1968538991105
 20
438.3124893144381
 30
0.0
 10
224.0630626916613
 20
438.2045781184836
 30
0.0
 10
223.9855680266438
 20
438.193408989232
 30
0.0
 10
223.9500243328737
 20
438.188286166368
 30
0.0
 11
224.4846244430037
 21
438.688286166368
 31
0.0
 11
224.3425997398392
 21
438.4782635932033
 31
0.0
 11
224.1566217945496
 21
438.2822064406814
 31
0.0
 11
224.0533230637117
 21
438.2117662349543
 31
0.0
 11
223.9500243328737
 21
438.188286166368
 31
0.0
  0
SPLINE
  5
FD
330
47
100
AcDbEntity
  8
0
  6
Continuous
 62
     7
100
AcDbSpline
210
0.0
220
0.0
230
1.0
 70
     8
 71
     3
 72
    45
 73
    41
 74
    39
 42
0.000000001
 43
0.0000000001
 44
0.00000001
 40
0.0
 40
0.0
 40
0.0
 40
0.0
 40
0.105933666866733
 40
0.23096346495845
 40
0.6175165292627557
 40
0.9759471267684314
 40
1.568500906315736
 40
2.163696014416714
 40
3.007584738865316
 40
3.850496800928324
 40
4.921818450235417
 40
5.993111740736904
 40
7.263362687540662
 40
8.533551488152966
 40
9.965732976774115
 40
11.39788911922154
 40
12.94964774375463
 40
14.50139358948028
 40
16.12646560151612
 40
17.75153205278625
 40
19.40130223934268
 40
21.05107242589905
 40
22.67613887716935
 40
24.30121088920558
 40
25.8529567349314
 40
27.40471535946427
 40
28.83687150191129
 40
30.26905299053239
 40
31.53924179114469
 40
32.8094927379484
 40
33.88078602844983
 40
34.95210767775703
 40
35.79501973982015
 40
36.63890846426876
 40
37.23410357236969
 40
37.82665735191694
 40
38.18508794942265
 40
38.57164101372711
 40
38.69667081180467
 40
38.80260447865991
 40
38.80260447865991
 40
38.80260447865991
 40
38.80260447865991
 10
222.4612051053678
 20
476.188286166368
 30
0.0
 10
222.4256519856442
 20
476.1831600875177
 30
0.0
 10
222.3481367601052
 20
476.1719838920715
 30
0.0
 10
222.1835992646852
 20
476.0391334078193
 30
0.0
 10
221.9895206565396
 20
475.822613804496
 30
0.0
 10
221.7941002520575
 20
475.4167151293021
 30
0.0
 10
221.6528243601199
 20
474.9208234668367
 30
0.0
 10
221.4696175756614
 20
474.2688383537376
 30
0.0
 10
221.3039075135683
 20
473.5259758135173
 30
0.0
 10
221.1390540741955
 20
472.621385154561
 30
0.0
 10
220.9934833285501
 20
471.6367544775892
 30
0.0
 10
220.8493294784315
 20
470.5082561001523
 30
0.0
 10
220.7215962802439
 20
469.3110512931686
 30
0.0
 10
220.6028525926825
 20
467.9921328305471
 30
0.0
 10
220.5007300768686
 20
466.6176928827692
 30
0.0
 10
220.4107839902117
 20
465.1483753380479
 30
0.0
 10
220.3375665557068
 20
463.6382232355148
 30
0.0
 10
220.2790696671847
 20
462.0630857167837
 30
0.0
 10
220.2375440179198
 20
460.4629642282235
 30
0.0
 10
220.2121392342447
 20
458.8298299968297
 30
0.0
 10
220.2038429377328
 20
457.1882861663679
 30
0.0
 10
220.2121392342447
 20
455.5467423359063
 30
0.0
 10
220.2375440179199
 20
453.9136081045123
 30
0.0
 10
220.2790696671847
 20
452.3134866159517
 30
0.0
 10
220.3375665557068
 20
450.7383490972205
 30
0.0
 10
220.4107839902118
 20
449.2281969946878
 30
0.0
 10
220.5007300768684
 20
447.7588794499664
 30
0.0
 10
220.6028525926827
 20
446.384439502189
 30
0.0
 10
220.7215962802439
 20
445.0655210395672
 30
0.0
 10
220.8493294784315
 20
443.8683162325838
 30
0.0
 10
220.9934833285502
 20
442.7398178551468
 30
0.0
 10
221.1390540741955
 20
441.7551871781749
 30
0.0
 10
221.3039075135683
 20
440.8505965192184
 30
0.0
 10
221.4696175756613
 20
440.1077339789982
 30
0.0
 10
221.65282436012
 20
439.4557488658992
 30
0.0
 10
221.7941002520576
 20
438.9598572034338
 30
0.0
 10
221.9895206565394
 20
438.5539585282401
 30
0.0
 10
222.1835992646831
 20
438.3374389249196
 30
0.0
 10
222.3481367600938
 20
438.2045884406731
 30
0.0
 10
222.4256519856227
 20
438.1934122452211
 30
0.0
 10
222.4612051053419
 20
438.188286166368
 30
0.0
 11
222.4612051053678
 21
476.188286166368
 31
0.0
 11
222.3579063745167
 21
476.1648060977876
 31
0.0
 11
222.2546076436658
 21
476.0943658920547
 31
0.0
 11
221.9986854571165
 21
475.8046641398162
 31
0.0
 11
221.8357009396626
 21
475.4854329699577
 31
0.0
 11
221.6534186900573
 21
474.9216128193032
 31
0.0
 11
221.4963668741148
 21
474.3475118322491
 31
0.0
 11
221.3092600839212
 21
473.5246271334058
 31
0.0
 11
221.1567932150427
 21
472.6956189322142
 31
0.0
 11
220.996974750869
 21
471.6362851161494
 31
0.0
 11
220.8611014160217
 21
470.5736432431433
 31
0.0
 11
220.7250719107401
 21
469.3106969100374
 31
0.0
 11
220.6107935476292
 21
468.0456593439346
 31
0.0
 11
220.5038316985332
 21
466.6174776406847
 31
0.0
 11
220.4161243132298
 21
465.188009687516
 31
0.0
 11
220.3404927452756
 21
463.6380952729301
 31
0.0
 11
220.2827988036428
 21
462.0874223298145
 31
0.0
 11
220.2403578257203
 21
460.4629046152157
 31
0.0
 11
220.2150898086809
 21
458.8380346217625
 31
0.0
 11
220.2066222523824
 21
457.188286166368
 31
0.0
 11
220.2150898086809
 21
455.5385377109735
 31
0.0
 11
220.2403578257203
 21
453.9136677175201
 31
0.0
 11
220.2827988036428
 21
452.2891500029209
 31
0.0
 11
220.3404927452756
 21
450.7384770598051
 31
0.0
 11
220.4161243132298
 21
449.1885626452195
 31
0.0
 11
220.5038316985332
 21
447.7590946920511
 31
0.0
 11
220.6107935476292
 21
446.3309129888013
 31
0.0
 11
220.7250719107402
 21
445.0658754226985
 31
0.0
 11
220.8611014160218
 21
443.8029290895927
 31
0.0
 11
220.996974750869
 21
442.7402872165866
 31
0.0
 11
221.1567932150427
 21
441.6809534005217
 31
0.0
 11
221.3092600839212
 21
440.85194519933
 31
0.0
 11
221.4963668741148
 21
440.0290605004867
 31
0.0
 11
221.6534186900573
 21
439.4549595134327
 31
0.0
 11
221.8357009396626
 21
438.8911393627782
 31
0.0
 11
221.9986854571166
 21
438.5719081929198
 31
0.0
 11
222.254607643666
 21
438.2822064406812
 31
0.0
 11
222.3579063745039
 21
438.2117662349542
 31
0.0
 11
222.4612051053419
 21
438.188286166368
 31
0.0
  0
SPLINE
  5
FE
330
47
100
AcDbEntity
  8
0
  6
Continuous
 62
     7
100
AcDbSpline
210
0.0
220
0.0
230
1.0
 70
     8
 71
     3
 72
    45
 73
    41
 74
    39
 42
0.000000001
 43
0.0000000001
 44
0.00000001
 40
0.0
 40
0.0
 40
0.0
 40
0.0
 40
0.1059336668666498
 40
0.2309634649584138
 40
0.6175165292627948
 40
0.9759471267684319
 40
1.568500906315719
 40
2.163696014416697
 40
3.007584738865305
 40
3.850496800928313
 40
4.921818450235406
 40
5.993111740736889
 40
7.263362687540646
 40
8.533551488152947
 40
9.965732976774095
 40
11.39788911922152
 40
12.94964774375461
 40
14.50139358948026
 40
16.12646560151611
 40
17.75153205278624
 40
19.40130223934267
 40
21.05107242589904
 40
22.67613887716935
 40
24.30121088920559
 40
25.85295673493141
 40
27.40471535946428
 40
28.8368715019113
 40
30.26905299053239
 40
31.5392417911447
 40
32.8094927379484
 40
33.88078602844983
 40
34.95210767775703
 40
35.79501973982015
 40
36.63890846426876
 40
37.23410357236969
 40
37.82665735191691
 40
38.18508794942259
 40
38.5716410137271
 40
38.69667081180462
 40
38.80260447865975
 40
38.80260447865975
 40
38.80260447865975
 40
38.80260447865975
 10
223.9500243328298
 20
476.188286166368
 30
0.0
 10
223.9144712131061
 20
476.1831600875177
 30
0.0
 10
223.8369559875673
 20
476.1719838920715
 30
0.0
 10
223.6724184921472
 20
476.0391334078195
 30
0.0
 10
223.4783398840016
 20
475.8226138044961
 30
0.0
 10
223.2829194795195
 20
475.416715129302
 30
0.0
 10
223.1416435875821
 20
474.9208234668368
 30
0.0
 10
222.9584368031233
 20
474.2688383537374
 30
0.0
 10
222.7927267410303
 20
473.5259758135176
 30
0.0
 10
222.6278733016576
 20
472.621385154561
 30
0.0
 10
222.4823025560121
 20
471.6367544775892
 30
0.0
 10
222.3381487058935
 20
470.5082561001522
 30
0.0
 10
222.2104155077061
 20
469.3110512931688
 30
0.0
 10
222.0916718201446
 20
467.992132830547
 30
0.0
 10
221.9895493043307
 20
466.6176928827693
 30
0.0
 10
221.8996032176738
 20
465.148375338048
 30
0.0
 10
221.8263857831689
 20
463.6382232355147
 30
0.0
 10
221.7678888946468
 20
462.0630857167838
 30
0.0
 10
221.7263632453819
 20
460.4629642282235
 30
0.0
 10
221.7009584617062
 20
458.8298299968297
 30
0.0
 10
221.6926621651938
 20
457.1882861663679
 30
0.0
 10
221.7009584617061
 20
455.5467423359063
 30
0.0
 10
221.7263632453819
 20
453.9136081045123
 30
0.0
 10
221.7678888946467
 20
452.3134866159518
 30
0.0
 10
221.8263857831689
 20
450.7383490972205
 30
0.0
 10
221.8996032176738
 20
449.2281969946877
 30
0.0
 10
221.9895493043306
 20
447.7588794499665
 30
0.0
 10
222.0916718201446
 20
446.3844395021889
 30
0.0
 10
222.2104155077061
 20
445.0655210395672
 30
0.0
 10
222.3381487058935
 20
443.8683162325838
 30
0.0
 10
222.4823025560122
 20
442.7398178551468
 30
0.0
 10
222.6278733016576
 20
441.755187178175
 30
0.0
 10
222.7927267410304
 20
440.8505965192182
 30
0.0
 10
222.9584368031234
 20
440.1077339789983
 30
0.0
 10
223.1416435875819
 20
439.4557488658991
 30
0.0
 10
223.2829194795197
 20
438.959857203434
 30
0.0
 10
223.4783398840013
 20
438.5539585282398
 30
0.0
 10
223.6724184921452
 20
438.3374389249199
 30
0.0
 10
223.8369559875558
 20
438.204588440673
 30
0.0
 10
223.9144712130845
 20
438.1934122452211
 30
0.0
 10
223.9500243328037
 20
438.188286166368
 30
0.0
 11
223.9500243328298
 21
476.188286166368
 31
0.0
 11
223.8467256019788
 21
476.1648060977876
 31
0.0
 11
223.7434268711278
 21
476.0943658920547
 31
0.0
 11
223.4875046845784
 21
475.8046641398162
 31
0.0
 11
223.3245201671246
 21
475.4854329699577
 31
0.0
 11
223.1422379175193
 21
474.9216128193032
 31
0.0
 11
222.9851861015769
 21
474.3475118322491
 31
0.0
 11
222.7980793113832
 21
473.5246271334058
 31
0.0
 11
222.6456124425047
 21
472.6956189322142
 31
0.0
 11
222.485793978331
 21
471.6362851161494
 31
0.0
 11
222.3499206434838
 21
470.5736432431433
 31
0.0
 11
222.2138911382022
 21
469.3106969100374
 31
0.0
 11
222.0996127750913
 21
468.0456593439346
 31
0.0
 11
221.9926509259953
 21
466.6174776406847
 31
0.0
 11
221.9049435406919
 21
465.188009687516
 31
0.0
 11
221.8293119727377
 21
463.6380952729301
 31
0.0
 11
221.7716180311049
 21
462.0874223298145
 31
0.0
 11
221.7291770531822
 21
460.4629046152157
 31
0.0
 11
221.7039090361424
 21
458.8380346217625
 31
0.0
 11
221.6954414798435
 21
457.188286166368
 31
0.0
 11
221.7039090361424
 21
455.5385377109735
 31
0.0
 11
221.7291770531822
 21
453.9136677175201
 31
0.0
 11
221.7716180311049
 21
452.2891500029209
 31
0.0
 11
221.8293119727377
 21
450.7384770598051
 31
0.0
 11
221.9049435406919
 21
449.1885626452195
 31
0.0
 11
221.9926509259953
 21
447.7590946920511
 31
0.0
 11
222.0996127750913
 21
446.3309129888013
 31
0.0
 11
222.2138911382023
 21
445.0658754226985
 31
0.0
 11
222.3499206434838
 21
443.8029290895927
 31
0.0
 11
222.4857939783311
 21
442.7402872165866
 31
0.0
 11
222.6456124425047
 21
441.6809534005217
 31
0.0
 11
222.7980793113832
 21
440.85194519933
 31
0.0
 11
222.9851861015769
 21
440.0290605004867
 31
0.0
 11
223.1422379175193
 21
439.4549595134327
 31
0.0
 11
223.3245201671246
 21
438.8911393627782
 31
0.0
 11
223.4875046845785
 21
438.5719081929198
 31
0.0
 11
223.743426871128
 21
438.2822064406812
 31
0.0
 11
223.8467256019658
 21
438.2117662349542
 31
0.0
 11
223.9500243328037
 21
438.188286166368
 31
0.0
  0
SPLINE
  5
FF
330
47
100
AcDbEntity
  8
0
  6
Continuous
 62
     7
100
AcDbSpline
210
0.0
220
0.0
230
1.0
 70
     8
 71
     3
 72
    27
 73
    23
 74
    21
 42
0.000000001
 43
0.0000000001
 44
0.00000001
 40
0.0
 40
0.0
 40
0.0
 40
0.0
 40
0.8031722228241961
 40
1.606366755676147
 40
3.188693417105307
 40
4.771025833331875
 40
6.282020149305748
 40
7.79302729494637
 40
9.187682393710837
 40
10.58236501657269
 40
11.81947086452188
 40
13.05663256574187
 40
14.10031912420688
 40
15.14407246439482
 40
15.9657276179053
 40
16.78821255625787
 40
17.36943012747518
 40
17.9485792889823
 40
18.30059028216503
 40
18.67914240801332
 40
18.80300916782123
 40
18.90876229499771
 40
18.90876229499771
 40
18.90876229499771
 40
18.90876229499771
 10
221.6954414798438
 20
457.188286166368
 30
0.0
 10
221.6958525083857
 20
456.9205617685022
 30
0.0
 10
221.6966745674843
 20
456.3851055360612
 30
0.0
 10
221.7053242809147
 20
455.3222363056354
 30
0.0
 10
221.7263334693169
 20
453.9997607322205
 30
0.0
 10
221.7678981278396
 20
452.4417304876579
 30
0.0
 10
221.82638595952
 20
450.9080355307553
 30
0.0
 10
221.8996072668492
 20
449.4375983610341
 30
0.0
 10
221.9895536861324
 20
448.0069378501967
 30
0.0
 10
222.0916869113241
 20
446.6686268924921
 30
0.0
 10
222.210433324376
 20
445.3844080884895
 30
0.0
 10
222.3381554963626
 20
444.2186417483907
 30
0.0
 10
222.4823089004167
 20
443.1198085098725
 30
0.0
 10
222.6280185559251
 20
442.16095551673
 30
0.0
 10
222.7928866953656
 20
441.2801747612074
 30
0.0
 10
222.9583566079463
 20
440.5566013751525
 30
0.0
 10
223.1414980293856
 20
439.9215103895461
 30
0.0
 10
223.2844250547996
 20
439.4377853547375
 30
0.0
 10
223.4800666737242
 20
439.0424407219144
 30
0.0
 10
223.6735227756891
 20
438.8320492232045
 30
0.0
 10
223.8374605274545
 20
438.7039494839485
 30
0.0
 10
223.9145296043632
 20
438.6932252828671
 30
0.0
 10
223.9500243328567
 20
438.688286166368
 30
0.0
 11
221.6954414798438
 21
457.188286166368
 31
0.0
 11
221.6975583888468
 21
456.3851167409082
 31
0.0
 11
221.7039091158561
 21
455.5819473154486
 31
0.0
 11
221.7291774698458
 21
453.9998224234641
 31
0.0
 11
221.7716187385697
 21
452.4180592888181
 31
0.0
 11
221.8293138476015
 21
450.9081668763445
 31
0.0
 11
221.9049445435844
 21
449.3990536957239
 31
0.0
 11
221.9926558609457
 21
448.0071594579215
 31
0.0
 11
222.0996207623091
 21
446.6165847104624
 31
0.0
 11
222.2139038814456
 21
445.3847688769914
 31
0.0
 11
222.3499132402498
 21
444.1551061065052
 31
0.0
 11
222.485816870824
 21
443.1203057222006
 31
0.0
 11
222.645712882251
 21
442.0888725927895
 31
0.0
 11
222.7981817689391
 21
441.281487660013
 31
0.0
 11
222.9849740373481
 21
440.480494450325
 31
0.0
 11
223.1423127316202
 21
439.9209782306337
 31
0.0
 11
223.3256564484192
 21
439.3716160257778
 31
0.0
 11
223.4891685189949
 21
439.0598861079249
 31
0.0
 11
223.743492810639
 21
438.7794919816039
 31
0.0
 11
223.8467585717479
 21
438.7110876201735
 31
0.0
 11
223.9500243328567
 21
438.688286166368
 31
0.0
  0
SPLINE
  5
100
330
47
100
AcDbEntity
  8
0
  6
Continuous
 62
     7
100
AcDbSpline
210
0.0
220
0.0
230
1.0
 70
    11
 71
     3
 72
    79
 73
    75
 74
    73
 42
0.000000001
 43
0.0000000001
 44
0.00000001
 40
0.0
 40
0.0
 40
0.0
 40
0.0
 40
0.3785521235035431
 40
0.7305631171534653
 40
1.309712278485676
 40
1.890929849347117
 40
2.713414787246664
 40
3.535069940354914
 40
4.578823280078463
 40
5.622509838120804
 40
6.859671538893193
 40
8.096777386450459
 40
9.491460008933545
 40
10.88611510738174
 40
12.3971222527434
 40
13.90811656849831
 40
15.49044898455416
 40
17.072775645887
 40
18.67913681466172
 40
20.28549798346441
 40
21.8678246448806
 40
23.45015706107766
 40
24.96115137702553
 40
26.47215852264106
 40
27.86681362138066
 40
29.26149624421127
 40
30.49860209212403
 40
31.73576379329212
 40
32.779450351693
 40
33.82320369178068
 40
34.64485884517412
 40
35.46734378334449
 40
36.04856135432612
 40
36.62771051526485
 40
36.97972150785538
 40
37.35827363290304
 40
37.58404734789412
 40
37.80982106288793
 40
38.18837318794159
 40
38.54038418053605
 40
39.11953334147792
 40
39.70075091246139
 40
40.52323585063225
 40
41.34489100402406
 40
42.38864434410713
 40
43.43233090250146
 40
44.66949260365978
 40
45.90659845156106
 40
47.30128107437749
 40
48.69593617310316
 40
50.20694331870543
 40
51.71793763464425
 40
53.30027005083978
 40
54.8825967122666
 40
56.48895788109793
 40
58.09531904992558
 40
59.67764571134176
 40
61.25997812752019
 40
62.77097244343744
 40
64.28197958901382
 40
65.67663468771389
 40
67.07131731050589
 40
68.30842315838888
 40
69.54558485953694
 40
70.58927141793518
 40
71.63302475804551
 40
72.45467991148784
 40
73.27716484976145
 40
73.85838242089392
 40
74.43753158217338
 40
74.78954257516962
 40
75.16809470107822
 40
75.39386841654883
 40
75.61964213473581
 40
75.61964213473581
 40
75.61964213473581
 40
75.61964213473581
 10
228.1267404616041
 20
438.7794919816035
 30
0.0
 10
228.2176704597676
 20
438.8683972018274
 30
0.0
 10
228.3931551622415
 20
439.0399742905797
 30
0.0
 10
228.5844584416855
 20
439.4388993160947
 30
0.0
 10
228.7291652721689
 20
439.9211554931927
 30
0.0
 10
228.9117070060085
 20
440.5567413951906
 30
0.0
 10
229.0773979888386
 20
441.2801323332494
 30
0.0
 10
229.2421967556259
 20
442.1609703407959
 30
0.0
 10
229.3879296290358
 20
443.1198041712682
 30
0.0
 10
229.5320760757436
 20
444.2186431525803
 30
0.0
 10
229.659800425666
 20
445.3844076868211
 30
0.0
 10
229.7785462410347
 20
446.6686270140202
 30
0.0
 10
229.8806794973699
 20
448.0069378164303
 30
0.0
 10
229.9706264862133
 20
449.4375983623488
 30
0.0
 10
230.0438452925102
 20
450.9080355560155
 30
0.0
 10
230.1023428113403
 20
452.4417303734647
 30
0.0
 10
230.1438696668239
 20
453.9997611739845
 30
0.0
 10
230.1692746359363
 20
455.5899280467229
 30
0.0
 10
230.1775711661513
 20
457.1882861565268
 30
0.0
 10
230.1692746352851
 20
458.786644266487
 30
0.0
 10
230.1438696647233
 20
460.3768111389061
 30
0.0
 10
230.1023428109481
 20
461.9348419409518
 30
0.0
 10
230.0438452824815
 20
463.4685367535491
 30
0.0
 10
229.9706265073938
 20
464.9389739654954
 30
0.0
 10
229.8806794073781
 20
466.3696344491848
 30
0.0
 10
229.7785465402673
 20
467.7079454724199
 30
0.0
 10
229.6597994253385
 20
468.9921640651638
 30
0.0
 10
229.5320795498816
 20
470.1579311310657
 30
0.0
 10
229.3879188689328
 20
471.2567620611622
 30
0.0
 10
229.2422334862983
 20
472.2156227559566
 30
0.0
 10
229.0772928269872
 20
473.0963805004238
 30
0.0
 10
228.9120540154614
 20
473.8200272158651
 30
0.0
 10
228.7282856985262
 20
474.4549192838506
 30
0.0
 10
228.5872192307854
 20
474.9392346829981
 30
0.0
 10
228.3870424382609
 20
475.3331402805069
 30
0.0
 10
228.1842985534718
 20
475.5729991722135
 30
0.0
 10
227.9202089390018
 20
475.7313569122171
 30
0.0
 10
227.6561193245319
 20
475.5729991722091
 30
0.0
 10
227.4533754397378
 20
475.3331402805026
 30
0.0
 10
227.2531986472042
 20
474.9392346829931
 30
0.0
 10
227.1121321794521
 20
474.4549192838463
 30
0.0
 10
226.928363862503
 20
473.8200272158629
 30
0.0
 10
226.7631250509627
 20
473.0963805004244
 30
0.0
 10
226.598184391636
 20
472.2156227559623
 30
0.0
 10
226.4524990089884
 20
471.2567620611741
 30
0.0
 10
226.3083383280298
 20
470.1579311310858
 30
0.0
 10
226.1806184525702
 20
468.9921640651935
 30
0.0
 10
226.0618713376487
 20
467.7079454724607
 30
0.0
 10
225.9597384705587
 20
466.3696344492373
 30
0.0
 10
225.8697913705834
 20
464.9389739655588
 30
0.0
 10
225.7965725955586
 20
463.4685367536217
 30
0.0
 10
225.7380750671831
 20
461.9348419410283
 30
0.0
 10
225.6965482135365
 20
460.3768111389808
 30
0.0
 10
225.6711432431243
 20
458.7866442665394
 30
0.0
 10
225.6628467125153
 20
457.1882861565739
 30
0.0
 10
225.6711432427851
 20
455.5899280466173
 30
0.0
 10
225.6965482129064
 20
453.99976117416
 30
0.0
 10
225.7380750661063
 20
452.4417303721964
 30
0.0
 10
225.7965725946609
 20
450.9080355593431
 30
0.0
 10
225.8697913676951
 20
449.4375983483889
 30
0.0
 10
225.959738473367
 20
448.0069378613583
 30
0.0
 10
226.0618713192699
 20
446.6686268500084
 30
0.0
 10
226.1806185039092
 20
445.3844082177421
 30
0.0
 10
226.3083381384615
 20
444.2186412880465
 30
0.0
 10
226.4524995852112
 20
443.1198099247176
 30
0.0
 10
226.598182412529
 20
442.1609506753575
 30
0.0
 10
226.7631307066156
 20
441.2801886121642
 30
0.0
 10
226.9283451886406
 20
440.5565556591082
 30
0.0
 10
227.1121795037507
 20
439.9216262582853
 30
0.0
 10
227.2530500976512
 20
439.4374216583549
 30
0.0
 10
227.4537043420149
 20
439.0432459832649
 30
0.0
 10
227.6549969251263
 20
438.8042080431567
 30
0.0
 10
227.922567584933
 20
438.6438811975682
 30
0.0
 10
228.0586828339072
 20
438.7342883910321
 30
0.0
 10
228.1267404616041
 20
438.7794919816035
 30
0.0
 11
228.1267404616041
 21
438.7794919816035
 31
0.0
 11
228.3810647532484
 21
439.0598861079248
 31
0.0
 11
228.5445768238244
 21
439.3716160257778
 31
0.0
 11
228.7279205406232
 21
439.9209782306337
 31
0.0
 11
228.885259234895
 21
440.4804944503251
 31
0.0
 11
229.0720515033036
 21
441.2814876600131
 31
0.0
 11
229.2245203899919
 21
442.0888725927895
 31
0.0
 11
229.3844164014193
 21
443.1203057222007
 31
0.0
 11
229.5203200319937
 21
444.1551061065052
 31
0.0
 11
229.656329390798
 21
445.3847688769914
 31
0.0
 11
229.7706125099344
 21
446.6165847104623
 31
0.0
 11
229.8775774112978
 21
448.0071594579215
 31
0.0
 11
229.9652887286591
 21
449.3990536957239
 31
0.0
 11
230.0409194246421
 21
450.9081668763445
 31
0.0
 11
230.0986145336739
 21
452.4180592888181
 31
0.0
 11
230.1410558023977
 21
453.9998224234641
 31
0.0
 11
230.1663241563873
 21
455.5819473154485
 31
0.0
 11
230.1747917923995
 21
457.188286166368
 31
0.0
 11
230.1663241563873
 21
458.7946250172876
 31
0.0
 11
230.1410558023977
 21
460.3767499092719
 31
0.0
 11
230.0986145336739
 21
461.9585130439179
 31
0.0
 11
230.0409194246421
 21
463.4684054563917
 31
0.0
 11
229.9652887286592
 21
464.9775186370126
 31
0.0
 11
229.8775774112978
 21
466.3694128748152
 31
0.0
 11
229.7706125099344
 21
467.7599876222741
 31
0.0
 11
229.656329390798
 21
468.9918034557448
 31
0.0
 11
229.5203200319937
 21
470.2214662262309
 31
0.0
 11
229.3844164014193
 21
471.2562666105353
 31
0.0
 11
229.2245203899919
 21
472.2876997399464
 31
0.0
 11
229.0720515033036
 21
473.0950846727228
 31
0.0
 11
228.885259234895
 21
473.8960778824109
 31
0.0
 11
228.7279205406232
 21
474.4555941021023
 31
0.0
 11
228.5445768238244
 21
475.0049563069583
 31
0.0
 11
228.3810647532485
 21
475.3166862248112
 31
0.0
 11
228.1267404616041
 21
475.5970803511325
 31
0.0
 11
227.9202089394038
 21
475.6882861663678
 31
0.0
 11
227.7136774172037
 21
475.5970803511325
 31
0.0
 11
227.4593531255599
 21
475.3166862248113
 31
0.0
 11
227.2958410549841
 21
475.0049563069583
 31
0.0
 11
227.1124973381853
 21
474.4555941021023
 31
0.0
 11
226.9551586439135
 21
473.8960778824109
 31
0.0
 11
226.768366375505
 21
473.0950846727228
 31
0.0
 11
226.6158974888166
 21
472.2876997399464
 31
0.0
 11
226.4560014773892
 21
471.2562666105354
 31
0.0
 11
226.3200978468148
 21
470.2214662262309
 31
0.0
 11
226.1840884880106
 21
468.9918034557448
 31
0.0
 11
226.0698053688741
 21
467.759987622274
 31
0.0
 11
225.9628404675107
 21
466.3694128748152
 31
0.0
 11
225.8751291501494
 21
464.9775186370126
 31
0.0
 11
225.7994984541665
 21
463.4684054563916
 31
0.0
 11
225.7418033451347
 21
461.9585130439179
 31
0.0
 11
225.6993620764109
 21
460.3767499092719
 31
0.0
 11
225.6740937224212
 21
458.7946250172876
 31
0.0
 11
225.665626086409
 21
457.188286166368
 31
0.0
 11
225.6740937224212
 21
455.5819473154484
 31
0.0
 11
225.6993620764109
 21
453.9998224234641
 31
0.0
 11
225.7418033451347
 21
452.4180592888181
 31
0.0
 11
225.7994984541664
 21
450.9081668763445
 31
0.0
 11
225.8751291501494
 21
449.3990536957239
 31
0.0
 11
225.9628404675107
 21
448.0071594579215
 31
0.0
 11
226.0698053688741
 21
446.6165847104624
 31
0.0
 11
226.1840884880106
 21
445.3847688769914
 31
0.0
 11
226.3200978468148
 21
444.1551061065052
 31
0.0
 11
226.4560014773892
 21
443.1203057222006
 31
0.0
 11
226.6158974888166
 21
442.0888725927895
 31
0.0
 11
226.7683663755049
 21
441.281487660013
 31
0.0
 11
226.9551586439135
 21
440.480494450325
 31
0.0
 11
227.1124973381853
 21
439.9209782306337
 31
0.0
 11
227.2958410549842
 21
439.3716160257778
 31
0.0
 11
227.4593531255599
 21
439.0598861079249
 31
0.0
 11
227.7136774172037
 21
438.7794919816035
 31
0.0
 11
227.9202089394038
 21
438.6882861663682
 31
0.0
 11
228.1267404616041
 21
438.7794919816035
 31
0.0
  0
ARC
  5
101
330
47
100
AcDbEntity
  8
0
  6
Continuous
 62
     7
100
AcDbCircle
 10
192.2046338417254
 20
313.5968140705737
 30
0.0
 40
1.000000000000673
100
AcDbArc
 50
276.999999999386
 51
6.99999999999992
  0
ARC
  5
102
330
47
100
AcDbEntity
  8
0
  6
Continuous
 62
     7
100
AcDbCircle
 10
190.9143238445899
 20
313.43838392416
 30
0.0
 40
0.9999999999676421
100
AcDbArc
 50
187.0000000000072
 51
276.9999999993988
  0
ARC
  5
103
330
47
100
AcDbEntity
  8
0
  6
Continuous
 62
     7
100
AcDbCircle
 10
188.8393011523823
 20
319.9339190046089
 30
0.0
 40
2.999999999999251
100
AcDbArc
 50
97.00000000000665
 51
157.0000000000123
  0
ARC
  5
104
330
47
100
AcDbEntity
  8
0
  6
Continuous
 62
     7
100
AcDbCircle
 10
180.4738541317705
 20
315.581988841411
 30
0.0
 40
3.00000000000014
100
AcDbArc
 50
277.0000000000024
 51
337.0000000000164
  0
ARC
  5
105
330
47
100
AcDbEntity
  8
0
  6
Continuous
 62
     7
100
AcDbCircle
 10
192.9535683553255
 20
321.4465973220181
 30
0.0
 40
2.00000000000024
100
AcDbArc
 50
7.00000000001662
 51
97.00000000000502
  0
ARC
  5
106
330
47
100
AcDbEntity
  8
0
  6
Continuous
 62
     7
100
AcDbCircle
 10
191.4734177813242
 20
319.5520909804391
 30
0.0
 40
1.000000000000073
100
AcDbArc
 50
7.00000000004156
 51
97.00000000000448
  0
ARC
  5
107
330
47
100
AcDbEntity
  8
0
  6
Continuous
 62
     7
100
AcDbCircle
 10
190.1831077841903
 20
319.393660834013
 30
0.0
 40
0.9999999999997542
100
AcDbArc
 50
96.99999999999952
 51
187.0000000000527
  0
ARC
  5
108
330
47
100
AcDbEntity
  8
0
  6
Continuous
 62
     7
100
AcDbCircle
 10
190.4047090827187
 20
267.43336305847
 30
0.0
 40
8.000000000000655
100
AcDbArc
 50
97.00000000000541
 51
173.6552689692138
  0
ENDBLK
  5
49
330
47
100
AcDbEntity
  8
0
100
AcDbBlockEnd
  0
BLOCK
  5
4B
330
4A
100
AcDbEntity
  8
0
100
AcDbBlockBegin
  2
開示A4
 70
     0
 10
0.0
 20
0.0
 30
0.0
  3
開示A4
  1

  0
POINT
  5
109
330
4A
100
AcDbEntity
  8
1
 62
     4
100
AcDbPoint
 10
93.75
 20
17.0
 30
0.0
  0
POINT
  5
10A
330
4A
100
AcDbEntity
  8
1
 62
     4
100
AcDbPoint
 10
85.25
 20
17.0
 30
0.0
  0
POINT
  5
10B
330
4A
100
AcDbEntity
  8
1
 62
     4
100
AcDbPoint
 10
106.5
 20
19.0
 30
0.0
  0
POINT
  5
10C
330
4A
100
AcDbEntity
  8
1
 62
     4
100
AcDbPoint
 10
106.5
 20
12.5
 30
0.0
  0
POINT
  5
10D
330
4A
100
AcDbEntity
  8
1
 62
     4
100
AcDbPoint
 10
112.25
 20
12.5
 30
0.0
  0
POINT
  5
10E
330
4A
100
AcDbEntity
  8
1
 62
     4
100
AcDbPoint
 10
100.75
 20
12.5
 30
0.0
  0
POINT
  5
10F
330
4A
100
AcDbEntity
  8
1
 62
     4
100
AcDbPoint
 10
123.5
 20
19.0
 30
0.0
  0
POINT
  5
110
330
4A
100
AcDbEntity
  8
1
 62
     4
100
AcDbPoint
 10
123.5
 20
12.5
 30
0.0
  0
POINT
  5
111
330
4A
100
AcDbEntity
  8
1
 62
     4
100
AcDbPoint
 10
129.25
 20
12.5
 30
0.0
  0
POINT
  5
112
330
4A
100
AcDbEntity
  8
1
 62
     4
100
AcDbPoint
 10
117.75
 20
12.5
 30
0.0
  0
POINT
  5
113
330
4A
100
AcDbEntity
  8
1
 62
     4
100
AcDbPoint
 10
140.5
 20
19.0
 30
0.0
  0
POINT
  5
114
330
4A
100
AcDbEntity
  8
1
 62
     4
100
AcDbPoint
 10
140.5
 20
12.5
 30
0.0
  0
POINT
  5
115
330
4A
100
AcDbEntity
  8
1
 62
     4
100
AcDbPoint
 10
146.25
 20
12.5
 30
0.0
  0
POINT
  5
116
330
4A
100
AcDbEntity
  8
1
 62
     4
100
AcDbPoint
 10
134.75
 20
12.5
 30
0.0
  0
POINT
  5
117
330
4A
100
AcDbEntity
  8
1
 62
     4
100
AcDbPoint
 10
151.75
 20
12.5
 30
0.0
  0
POINT
  5
118
330
4A
100
AcDbEntity
  8
1
 62
     4
100
AcDbPoint
 10
163.25
 20
12.5
 30
0.0
  0
POINT
  5
119
330
4A
100
AcDbEntity
  8
1
 62
     4
100
AcDbPoint
 10
157.5
 20
12.5
 30
0.0
  0
POINT
  5
11A
330
4A
100
AcDbEntity
  8
1
 62
     4
100
AcDbPoint
 10
57.00000000000001
 20
14.25
 30
0.0
  0
POINT
  5
11B
330
4A
100
AcDbEntity
  8
1
 62
     4
100
AcDbPoint
 10
57.00000000000001
 20
22.75
 30
0.0
  0
POINT
  5
11C
330
4A
100
AcDbEntity
  8
1
 62
     4
100
AcDbPoint
 10
47.50000000000001
 20
282.0000000000003
 30
0.0
  0
POINT
  5
11D
330
4A
100
AcDbEntity
  8
1
 62
     4
100
AcDbPoint
 10
157.5
 20
19.0
 30
0.0
  0
POINT
  5
11E
330
4A
100
AcDbEntity
  8
1
 62
     4
100
AcDbPoint
 10
57.00000000000001
 20
16.25
 30
0.0
  0
POINT
  5
11F
330
4A
100
AcDbEntity
  8
1
 62
     4
100
AcDbPoint
 10
57.00000000000001
 20
24.75
 30
0.0
  0
POINT
  5
120
330
4A
100
AcDbEntity
  8
1
 62
     4
100
AcDbPoint
 10
57.00000000000001
 20
20.75
 30
0.0
  0
POINT
  5
121
330
4A
100
AcDbEntity
  8
1
 62
     4
100
AcDbPoint
 10
57.00000000000001
 20
12.25
 30
0.0
  0
POINT
  5
122
330
4A
100
AcDbEntity
  8
1
 62
     4
100
AcDbPoint
 10
34.0
 20
34.0
 30
0.0
  0
LINE
  5
123
330
4A
100
AcDbEntity
  8
1
  6
Continuous
 62
     7
100
AcDbLine
 10
105.0
 20
10.0
 30
0.0
 11
200.0
 21
10.0
 31
0.0
  0
LINE
  5
124
330
4A
100
AcDbEntity
  8
1
  6
Continuous
 62
     2
100
AcDbLine
 10
105.0
 20
10.0
 30
0.0
 11
105.0
 21
5.0
 31
0.0
  0
LINE
  5
125
330
4A
100
AcDbEntity
  8
1
  6
Continuous
 62
     7
100
AcDbLine
 10
200.0
 20
148.5
 30
0.0
 11
200.0
 21
287.0000000000003
 31
0.0
  0
LINE
  5
126
330
4A
100
AcDbEntity
  8
1
  6
Continuous
 62
     2
100
AcDbLine
 10
200.0
 20
148.5
 30
0.0
 11
205.0
 21
148.5
 31
0.0
  0
LINE
  5
127
330
4A
100
AcDbEntity
  8
1
  6
Continuous
 62
     7
100
AcDbLine
 10
25.0
 20
148.5
 30
0.0
 11
25.0
 21
287.0000000000003
 31
0.0
  0
LINE
  5
128
330
4A
100
AcDbEntity
  8
1
  6
Continuous
 62
     2
100
AcDbLine
 10
25.0
 20
148.5
 30
0.0
 11
20.0
 21
148.5
 31
0.0
  0
LINE
  5
129
330
4A
100
AcDbEntity
  8
1
  6
Continuous
 62
     7
100
AcDbLine
 10
105.0
 20
287.0000000000003
 30
0.0
 11
25.0
 21
287.0000000000003
 31
0.0
  0
LINE
  5
12A
330
4A
100
AcDbEntity
  8
1
  6
Continuous
 62
     2
100
AcDbLine
 10
105.0
 20
287.0000000000003
 30
0.0
 11
105.0
 21
292.0000000000003
 31
0.0
  0
LINE
  5
12B
330
4A
100
AcDbEntity
  8
1
  6
Continuous
 62
     2
100
AcDbLine
 10
166.0
 20
20.0
 30
0.0
 11
200.0
 21
20.0
 31
0.0
  0
LINE
  5
12C
330
4A
100
AcDbEntity
  8
1
  6
Continuous
 62
     2
100
AcDbLine
 10
98.0
 20
27.0
 30
0.0
 11
98.0
 21
10.0
 31
0.0
  0
LINE
  5
12D
330
4A
100
AcDbEntity
  8
1
  6
Continuous
 62
     2
100
AcDbLine
 10
115.0
 20
27.0
 30
0.0
 11
115.0
 21
10.0
 31
0.0
  0
LINE
  5
12E
330
4A
100
AcDbEntity
  8
1
  6
Continuous
 62
     2
100
AcDbLine
 10
149.0
 20
27.0
 30
0.0
 11
149.0
 21
10.0
 31
0.0
  0
LINE
  5
12F
330
4A
100
AcDbEntity
  8
1
  6
Continuous
 62
     2
100
AcDbLine
 10
132.0
 20
27.0
 30
0.0
 11
132.0
 21
10.0
 31
0.0
  0
LINE
  5
130
330
4A
100
AcDbEntity
  8
1
  6
Continuous
 62
     2
100
AcDbLine
 10
166.0
 20
27.0
 30
0.0
 11
166.0
 21
10.0
 31
0.0
  0
LINE
  5
131
330
4A
100
AcDbEntity
  8
1
  6
Continuous
 62
     2
100
AcDbLine
 10
55.00000000000001
 20
277.0000000000003
 30
0.0
 11
25.0
 21
277.0000000000003
 31
0.0
  0
LINE
  5
132
330
4A
100
AcDbEntity
  8
1
  6
Continuous
 62
     7
100
AcDbLine
 10
25.0
 20
10.0
 30
0.0
 11
25.0
 21
148.5
 31
0.0
  0
LINE
  5
133
330
4A
100
AcDbEntity
  8
1
  6
Continuous
 62
     2
100
AcDbLine
 10
40.0
 20
287.0000000000003
 30
0.0
 11
40.0
 21
277.0000000000003
 31
0.0
  0
LINE
  5
134
330
4A
100
AcDbEntity
  8
1
  6
Continuous
 62
     2
100
AcDbLine
 10
55.00000000000001
 20
287.0000000000003
 30
0.0
 11
55.00000000000001
 21
277.0000000000003
 31
0.0
  0
LINE
  5
135
330
4A
100
AcDbEntity
  8
1
  6
Continuous
 62
     2
100
AcDbLine
 10
33.0
 20
41.0
 30
0.0
 11
33.0
 21
27.0
 31
0.0
  0
LINE
  5
136
330
4A
100
AcDbEntity
  8
1
  6
Continuous
 62
     7
100
AcDbLine
 10
200.0
 20
27.0
 30
0.0
 11
25.0
 21
27.0
 31
0.0
  0
LINE
  5
137
330
4A
100
AcDbEntity
  8
1
  6
Continuous
 62
     7
100
AcDbLine
 10
25.0
 20
41.0
 30
0.0
 11
200.0
 21
41.0
 31
0.0
  0
LINE
  5
138
330
4A
100
AcDbEntity
  8
1
  6
PHANTOM
 62
     4
100
AcDbLine
 10
0.0
 20
0.0
 30
0.0
 11
210.0
 21
0.0
 31
0.0
  0
LINE
  5
139
330
4A
100
AcDbEntity
  8
1
  6
PHANTOM
 62
     4
100
AcDbLine
 10
210.0
 20
0.0
 30
0.0
 11
210.0
 21
297.0
 31
0.0
  0
LINE
  5
13A
330
4A
100
AcDbEntity
  8
1
  6
PHANTOM
 62
     4
100
AcDbLine
 10
210.0
 20
297.0
 30
0.0
 11
0.0
 21
297.0
 31
0.0
  0
LINE
  5
13B
330
4A
100
AcDbEntity
  8
1
  6
PHANTOM
 62
     4
100
AcDbLine
 10
0.0
 20
297.0
 30
0.0
 11
0.0
 21
0.0
 31
0.0
  0
LINE
  5
13C
330
4A
100
AcDbEntity
  8
1
  6
Continuous
 62
     7
100
AcDbLine
 10
25.0
 20
10.0
 30
0.0
 11
105.0
 21
10.0
 31
0.0
  0
LINE
  5
13D
330
4A
100
AcDbEntity
  8
1
  6
Continuous
 62
     7
100
AcDbLine
 10
200.0
 20
10.0
 30
0.0
 11
200.0
 21
148.5
 31
0.0
  0
LINE
  5
13E
330
4A
100
AcDbEntity
  8
1
  6
Continuous
 62
     7
100
AcDbLine
 10
200.0
 20
287.0000000000003
 30
0.0
 11
105.0
 21
287.0000000000003
 31
0.0
  0
LINE
  5
13F
330
4A
100
AcDbEntity
  8
1
  6
Continuous
 62
     2
100
AcDbLine
 10
25.0
 20
18.5
 30
0.0
 11
81.0
 21
18.5
 31
0.0
  0
LINE
  5
140
330
4A
100
AcDbEntity
  8
1
  6
Continuous
 62
     2
100
AcDbLine
 10
33.0
 20
27.0
 30
0.0
 11
33.0
 21
10.0
 31
0.0
  0
LINE
  5
141
330
4A
100
AcDbEntity
  8
1
  6
Continuous
 62
     7
100
AcDbLine
 10
191.0
 20
24.69999999999999
 30
0.0
 11
191.0
 21
22.30000000000001
 31
0.0
  0
LINE
  5
142
330
4A
100
AcDbEntity
  8
1
  6
Continuous
 62
     7
100
AcDbLine
 10
191.0
 20
24.69999999999999
 30
0.0
 11
196.0
 21
25.5
 31
0.0
  0
LINE
  5
143
330
4A
100
AcDbEntity
  8
1
  6
Continuous
 62
     7
100
AcDbLine
 10
196.0
 20
25.5
 30
0.0
 11
196.0
 21
21.5
 31
0.0
  0
LINE
  5
144
330
4A
100
AcDbEntity
  8
1
  6
Continuous
 62
     7
100
AcDbLine
 10
196.0
 20
21.5
 30
0.0
 11
191.0
 21
22.30000000000001
 31
0.0
  0
LINE
  5
145
330
4A
100
AcDbEntity
  8
1
  6
DOT_CENTER
 62
     2
100
AcDbLine
 10
184.0
 20
23.5
 30
0.0
 11
197.0
 21
23.5
 31
0.0
  0
LINE
  5
146
330
4A
100
AcDbEntity
  8
1
  6
DOT_CENTER
 62
     2
100
AcDbLine
 10
187.0
 20
26.5
 30
0.0
 11
187.0
 21
20.5
 31
0.0
  0
LINE
  5
147
330
4A
100
AcDbEntity
  8
1
  6
Continuous
 62
     2
100
AcDbLine
 10
81.0
 20
27.0
 30
0.0
 11
81.0
 21
10.0
 31
0.0
  0
CIRCLE
  5
148
330
4A
100
AcDbEntity
  8
1
  6
Continuous
 62
     7
100
AcDbCircle
 10
103.5
 20
12.5
 30
0.0
 40
0.2999999999999972
  0
CIRCLE
  5
149
330
4A
100
AcDbEntity
  8
1
  6
Continuous
 62
     7
100
AcDbCircle
 10
109.5
 20
12.5
 30
0.0
 40
0.2999999999999972
  0
CIRCLE
  5
14A
330
4A
100
AcDbEntity
  8
1
  6
Continuous
 62
     7
100
AcDbCircle
 10
120.5
 20
12.5
 30
0.0
 40
0.2999999999999972
  0
CIRCLE
  5
14B
330
4A
100
AcDbEntity
  8
1
  6
Continuous
 62
     7
100
AcDbCircle
 10
126.5
 20
12.5
 30
0.0
 40
0.2999999999999972
  0
CIRCLE
  5
14C
330
4A
100
AcDbEntity
  8
1
  6
Continuous
 62
     7
100
AcDbCircle
 10
137.5
 20
12.5
 30
0.0
 40
0.3000000000000114
  0
CIRCLE
  5
14D
330
4A
100
AcDbEntity
  8
1
  6
Continuous
 62
     7
100
AcDbCircle
 10
143.5
 20
12.5
 30
0.0
 40
0.3000000000000114
  0
CIRCLE
  5
14E
330
4A
100
AcDbEntity
  8
1
  6
Continuous
 62
     7
100
AcDbCircle
 10
160.5
 20
12.5
 30
0.0
 40
0.3000000000000114
  0
CIRCLE
  5
14F
330
4A
100
AcDbEntity
  8
1
  6
Continuous
 62
     7
100
AcDbCircle
 10
154.5
 20
12.5
 30
0.0
 40
0.3000000000000114
  0
CIRCLE
  5
150
330
4A
100
AcDbEntity
  8
1
  6
Continuous
 62
     7
100
AcDbCircle
 10
187.0
 20
23.5
 30
0.0
 40
1.200000000000102
  0
CIRCLE
  5
151
330
4A
100
AcDbEntity
  8
1
  6
Continuous
 62
     7
100
AcDbCircle
 10
187.0
 20
23.5
 30
0.0
 40
2.0
  0
CIRCLE
  5
152
330
4A
100
AcDbEntity
  8
1
  6
DOT_CENTER
 62
     7
100
AcDbCircle
 10
89.5
 20
16.0
 30
0.0
 40
0.1000000000000227
  0
CIRCLE
  5
153
330
4A
100
AcDbEntity
  8
1
  6
DOT_CENTER
 62
     7
100
AcDbCircle
 10
89.5
 20
18.0
 30
0.0
 40
0.1000000000000227
  0
MTEXT
  5
155
330
4A
100
AcDbEntity
  8
1
 62
     7
100
AcDbMText
 10
188.5
 20
15.0
 30
0.0
 40
3.0
 41
0.0
 71
     5
 72
     1
  1
三栄水栓製作所
  7
CONVERTER_11
 73
     1
 44
1.0
  0
MTEXT
  5
156
330
4A
100
AcDbEntity
  8
1
 62
     7
100
AcDbMText
 10
171.5
 20
15.0
 30
0.0
 40
2.5
 41
0.0
 71
     5
 72
     1
  1
株式会社
  7
CONVERTER_11
 73
     1
 44
1.0
  0
MTEXT
  5
157
330
4A
100
AcDbEntity
  8
1
 62
     2
100
AcDbMText
 10
32.5
 20
282.0000000000003
 30
0.0
 40
5.0
 41
0.0
 71
     5
 72
     1
  1
図番
  7
CONVERTER_11
 73
     1
 44
0.45454545454545
  0
MTEXT
  5
158
330
4A
100
AcDbEntity
  8
1
 62
     2
100
AcDbMText
 10
29.0
 20
34.0
 30
0.0
 40
3.5
 41
0.0
 71
     5
 72
     1
  1
備考
  7
CONVERTER_11
 73
     1
 44
0.45454545454545
  0
MTEXT
  5
159
330
4A
100
AcDbEntity
  8
1
 62
     2
100
AcDbMText
 10
29.0
 20
22.75
 30
0.0
 40
3.5
 41
0.0
 71
     5
 72
     1
  1
品名
  7
CONVERTER_11
 73
     1
 44
0.72727272727273
  0
MTEXT
  5
15A
330
4A
100
AcDbEntity
  8
1
 62
     2
100
AcDbMText
 10
29.0
 20
14.25
 30
0.0
 40
3.5
 41
0.0
 71
     5
 72
     1
  1
品番
  7
CONVERTER_11
 73
     1
 44
0.72727272727273
  0
MTEXT
  5
15B
330
4A
100
AcDbEntity
  8
1
 62
     2
100
AcDbMText
 10
101.5
 20
25.0
 30
0.0
 40
3.0
 41
0.0
 71
     5
 72
     1
  1
承認
  7
CONVERTER_11
 73
     1
 44
0.59090909090909
  0
MTEXT
  5
15C
330
4A
100
AcDbEntity
  8
1
 62
     2
100
AcDbMText
 10
175.0
 20
23.5
 30
0.0
 40
3.5
 41
0.0
 71
     5
 72
     1
  1
第三角法
  7
CONVERTER_11
 73
     1
 44
0.54545454545455
  0
MTEXT
  5
15D
330
4A
100
AcDbEntity
  8
1
 62
     2
100
AcDbMText
 10
118.5
 20
25.0
 30
0.0
 40
3.0
 41
0.0
 71
     5
 72
     1
  1
検図
  7
CONVERTER_11
 73
     1
 44
0.59090909090909
  0
MTEXT
  5
15E
330
4A
100
AcDbEntity
  8
1
 62
     2
100
AcDbMText
 10
152.5
 20
25.0
 30
0.0
 40
3.0
 41
0.0
 71
     5
 72
     1
  1
担当
  7
CONVERTER_11
 73
     1
 44
0.59090909090909
  0
MTEXT
  5
15F
330
4A
100
AcDbEntity
  8
1
 62
     2
100
AcDbMText
 10
135.5
 20
25.0
 30
0.0
 40
3.0
 41
0.0
 71
     5
 72
     1
  1
製図
  7
CONVERTER_11
 73
     1
 44
0.59090909090909
  0
MTEXT
  5
160
330
4A
100
AcDbEntity
  8
1
 62
     2
100
AcDbMText
 10
89.5
 20
24.0
 30
0.0
 40
3.5
 41
0.0
 71
     5
 72
     1
  1
尺度
  7
CONVERTER_11
 73
     1
 44
0.54545454545455
  0
MTEXT
  5
161
330
4A
100
AcDbEntity
  8
1
 62
   250
100
AcDbMText
 10
25.0
 20
5.0
 30
0.0
 40
3.5
 41
0.0
 71
     4
 72
     1
  1
備考欄の文字列 原点位置=4
  7
CONVERTER_11
 73
     1
 44
0.54545454545455
  0
ENDBLK
  5
4C
330
4A
100
AcDbEntity
  8
0
100
AcDbBlockEnd
  0
BLOCK
  5
4E
330
4D
100
AcDbEntity
  8
0
100
AcDbBlockBegin
  2
H5500-50-H11
 70
     0
 10
712.7515485480271
 20
-906.4637279237489
 30
0.0
  3
H5500-50-H11
  1

  0
LINE
  5
162
330
4D
100
AcDbEntity
  8
1
  6
PHANTOM
 62
     4
100
AcDbLine
 10
336.3302967801924
 20
260.536272076251
 30
0.0
 11
346.3854277277816
 21
260.536272076251
 31
0.0
  0
LINE
  5
163
330
4D
100
AcDbEntity
  8
0
  6
Continuous
 62
     7
100
AcDbLine
 10
342.5015485480271
 20
230.7675969416561
 30
0.0
 11
341.2511311007759
 21
230.415047065957
 31
0.0
  0
LINE
  5
164
330
4D
100
AcDbEntity
  8
0
  6
Continuous
 62
     7
100
AcDbLine
 10
342.5015485480271
 20
232.177596941656
 30
0.0
 11
340.0010674499602
 21
231.472596941656
 31
0.0
  0
LINE
  5
165
330
4D
100
AcDbEntity
  8
0
  6
Continuous
 62
     7
100
AcDbLine
 10
339.5010674499602
 20
231.761272076251
 30
0.0
 11
343.0015485480271
 21
232.466272076251
 31
0.0
  0
LINE
  5
166
330
4D
100
AcDbEntity
  8
0
  6
Continuous
 62
     7
100
AcDbLine
 10
342.5015485480271
 20
232.754947210846
 30
0.0
 11
340.0010674499602
 21
232.049947210846
 31
0.0
  0
LINE
  5
167
330
4D
100
AcDbEntity
  8
1
  6
PHANTOM
 62
     4
100
AcDbLine
 10
341.2515839805715
 20
219.836272076251
 30
0.0
 11
341.250846420203
 21
236.436272076251
 31
0.0
  0
LINE
  5
168
330
4D
100
AcDbEntity
  8
1
  6
Continuous
 62
     7
100
AcDbLine
 10
339.2515485480271
 20
260.036272076251
 30
0.0
 11
339.2515485480271
 21
261.036272076251
 31
0.0
  0
LINE
  5
169
330
4D
100
AcDbEntity
  8
1
  6
Continuous
 62
     7
100
AcDbLine
 10
339.2515485480271
 20
260.036272076251
 30
0.0
 11
340.2515485480271
 21
260.036272076251
 31
0.0
  0
LINE
  5
16A
330
4D
100
AcDbEntity
  8
1
  6
Continuous
 62
     7
100
AcDbLine
 10
340.7515485480271
 20
258.536272076251
 30
0.0
 11
340.7515485480271
 21
259.536272076251
 31
0.0
  0
LINE
  5
16B
330
4D
100
AcDbEntity
  8
1
  6
Continuous
 62
     7
100
AcDbLine
 10
341.7515485480271
 20
258.536272076251
 30
0.0
 11
340.7515485480271
 21
258.536272076251
 31
0.0
  0
LINE
  5
16C
330
4D
100
AcDbEntity
  8
1
  6
Continuous
 62
     7
100
AcDbLine
 10
341.7515485480271
 20
258.536272076251
 30
0.0
 11
341.7515485480271
 21
259.536272076251
 31
0.0
  0
LINE
  5
16D
330
4D
100
AcDbEntity
  8
1
  6
Continuous
 62
     7
100
AcDbLine
 10
343.2515485480271
 20
260.036272076251
 30
0.0
 11
342.2515485480271
 21
260.036272076251
 31
0.0
  0
LINE
  5
16E
330
4D
100
AcDbEntity
  8
1
  6
Continuous
 62
     7
100
AcDbLine
 10
343.2515485480271
 20
261.036272076251
 30
0.0
 11
343.2515485480271
 21
260.036272076251
 31
0.0
  0
LINE
  5
16F
330
4D
100
AcDbEntity
  8
1
  6
Continuous
 62
     7
100
AcDbLine
 10
343.2515485480271
 20
261.036272076251
 30
0.0
 11
342.2515485480271
 21
261.036272076251
 31
0.0
  0
LINE
  5
170
330
4D
100
AcDbEntity
  8
1
  6
Continuous
 62
     7
100
AcDbLine
 10
341.7515485480271
 20
262.536272076251
 30
0.0
 11
341.7515485480271
 21
261.536272076251
 31
0.0
  0
LINE
  5
171
330
4D
100
AcDbEntity
  8
1
  6
Continuous
 62
     7
100
AcDbLine
 10
340.7515485480271
 20
262.536272076251
 30
0.0
 11
341.7515485480271
 21
262.536272076251
 31
0.0
  0
LINE
  5
172
330
4D
100
AcDbEntity
  8
1
  6
Continuous
 62
     7
100
AcDbLine
 10
340.7515485480271
 20
262.536272076251
 30
0.0
 11
340.7515485480271
 21
261.536272076251
 31
0.0
  0
LINE
  5
173
330
4D
100
AcDbEntity
  8
1
  6
Continuous
 62
     7
100
AcDbLine
 10
339.2515485480271
 20
261.036272076251
 30
0.0
 11
340.2515485480271
 21
261.036272076251
 31
0.0
  0
LINE
  5
174
330
4D
100
AcDbEntity
  8
1
  6
PHANTOM
 62
     4
100
AcDbLine
 10
341.2515485480271
 20
255.4172066610259
 30
0.0
 11
341.2515485480271
 21
265.776715954854
 31
0.0
  0
LINE
  5
175
330
4D
100
AcDbEntity
  8
1
  6
Continuous
 62
     7
100
AcDbLine
 10
340.000380689933
 20
233.936272076251
 30
0.0
 11
342.5015485480271
 21
233.936272076251
 31
0.0
  0
LINE
  5
176
330
4D
100
AcDbEntity
  8
1
  6
Continuous
 62
     7
100
AcDbLine
 10
339.5010674499602
 20
231.761272076251
 30
0.0
 11
340.0010674499602
 21
231.472596941656
 31
0.0
  0
LINE
  5
177
330
4D
100
AcDbEntity
  8
1
  6
Continuous
 62
     7
100
AcDbLine
 10
339.5010674499602
 20
231.761272076251
 30
0.0
 11
340.0010674499602
 21
232.049947210846
 31
0.0
  0
LINE
  5
178
330
4D
100
AcDbEntity
  8
1
  6
Continuous
 62
     7
100
AcDbLine
 10
340.0010674499602
 20
232.049947210846
 30
0.0
 11
340.0010674499602
 21
233.936272076251
 31
0.0
  0
LINE
  5
179
330
4D
100
AcDbEntity
  8
1
  6
Continuous
 62
     7
100
AcDbLine
 10
340.0010674499602
 20
230.639947210846
 30
0.0
 11
340.0010674499602
 21
231.472596941656
 31
0.0
  0
LINE
  5
17A
330
4D
100
AcDbEntity
  8
1
  6
Continuous
 62
     7
100
AcDbLine
 10
342.5015485480271
 20
230.7675969416561
 30
0.0
 11
342.5015485480271
 21
229.934947210846
 31
0.0
  0
LINE
  5
17B
330
4D
100
AcDbEntity
  8
1
  6
Continuous
 62
     7
100
AcDbLine
 10
342.5015485480271
 20
232.177596941656
 30
0.0
 11
342.5015485480271
 21
231.344947210846
 31
0.0
  0
LINE
  5
17C
330
4D
100
AcDbEntity
  8
1
  6
Continuous
 62
     7
100
AcDbLine
 10
342.5015485480271
 20
233.936272076251
 30
0.0
 11
342.5015485480271
 21
232.754947210846
 31
0.0
  0
LINE
  5
17D
330
4D
100
AcDbEntity
  8
1
  6
Continuous
 62
     7
100
AcDbLine
 10
342.5015485480271
 20
231.344947210846
 30
0.0
 11
343.0015485480271
 21
231.0562720762511
 31
0.0
  0
LINE
  5
17E
330
4D
100
AcDbEntity
  8
1
  6
Continuous
 62
     7
100
AcDbLine
 10
342.5015485480271
 20
230.7675969416561
 30
0.0
 11
343.0015485480271
 21
231.0562720762511
 31
0.0
  0
LINE
  5
17F
330
4D
100
AcDbEntity
  8
1
  6
Continuous
 62
     7
100
AcDbLine
 10
342.5015485480271
 20
232.754947210846
 30
0.0
 11
343.0015485480271
 21
232.466272076251
 31
0.0
  0
LINE
  5
180
330
4D
100
AcDbEntity
  8
1
  6
Continuous
 62
     7
100
AcDbLine
 10
342.5015485480271
 20
232.177596941656
 30
0.0
 11
343.0015485480271
 21
232.466272076251
 31
0.0
  0
LINE
  5
181
330
4D
100
AcDbEntity
  8
1
  6
Continuous
 62
     7
100
AcDbLine
 10
341.2515485480271
 20
231.436272076251
 30
0.0
 11
341.2515485480271
 21
227.936272076251
 31
0.0
  0
LINE
  5
182
330
4D
100
AcDbEntity
  8
1
  6
DASH_CENTER
 62
     2
100
AcDbLine
 10
341.2515485480271
 20
227.936272076251
 30
0.0
 11
341.2515485480271
 21
231.436272076251
 31
0.0
  0
LINE
  5
183
330
4D
100
AcDbEntity
  8
1
  6
Continuous
 62
     7
100
AcDbLine
 10
341.2515485480271
 20
231.436272076251
 30
0.0
 11
341.2515485480271
 21
227.936272076251
 31
0.0
  0
LINE
  5
184
330
4D
100
AcDbEntity
  8
1
  6
Continuous
 62
     7
100
AcDbLine
 10
341.250846420203
 20
236.436272076251
 30
0.0
 11
345.0015485480271
 21
236.436272076251
 31
0.0
  0
LINE
  5
185
330
4D
100
AcDbEntity
  8
0
  6
Continuous
 62
     7
100
AcDbLine
 10
342.5015485480271
 20
233.936272076251
 30
0.0
 11
345.0015485480271
 21
236.436272076251
 31
0.0
  0
LINE
  5
186
330
4D
100
AcDbEntity
  8
1
  6
PHANTOM
 62
     4
100
AcDbLine
 10
341.250846420203
 20
236.436272076251
 30
0.0
 11
341.2507947290716
 21
237.529581428769
 31
0.0
  0
LINE
  5
187
330
4D
100
AcDbEntity
  8
1
  6
Continuous
 62
     7
100
AcDbLine
 10
337.500380689933
 20
236.436272076251
 30
0.0
 11
341.2510828177571
 21
236.436272076251
 31
0.0
  0
LINE
  5
188
330
4D
100
AcDbEntity
  8
0
  6
Continuous
 62
     7
100
AcDbLine
 10
337.500380689933
 20
236.436272076251
 30
0.0
 11
340.000380689933
 21
233.936272076251
 31
0.0
  0
LINE
  5
189
330
4D
100
AcDbEntity
  8
1
  6
Continuous
 62
     7
100
AcDbLine
 10
339.5010674499602
 20
230.351272076251
 30
0.0
 11
340.0010674499602
 21
230.062596941656
 31
0.0
  0
LINE
  5
18A
330
4D
100
AcDbEntity
  8
1
  6
Continuous
 62
     7
100
AcDbLine
 10
339.5010674499602
 20
230.351272076251
 30
0.0
 11
340.0010674499602
 21
230.639947210846
 31
0.0
  0
LINE
  5
18B
330
4D
100
AcDbEntity
  8
1
  6
Continuous
 62
     7
100
AcDbLine
 10
340.0010674499602
 20
229.229947210846
 30
0.0
 11
340.0010674499602
 21
230.062596941656
 31
0.0
  0
LINE
  5
18C
330
4D
100
AcDbEntity
  8
0
  6
Continuous
 62
     7
100
AcDbLine
 10
339.5010674499602
 20
230.351272076251
 30
0.0
 11
343.0015485480271
 21
231.0562720762511
 31
0.0
  0
LINE
  5
18D
330
4D
100
AcDbEntity
  8
0
  6
Continuous
 62
     7
100
AcDbLine
 10
342.5015485480271
 20
230.7675969416561
 30
0.0
 11
340.0010674499602
 21
230.062596941656
 31
0.0
  0
LINE
  5
18E
330
4D
100
AcDbEntity
  8
0
  6
Continuous
 62
     7
100
AcDbLine
 10
342.5015485480271
 20
231.344947210846
 30
0.0
 11
340.0010674499602
 21
230.639947210846
 31
0.0
  0
LINE
  5
18F
330
4D
100
AcDbEntity
  8
0
  6
Continuous
 62
     7
100
AcDbLine
 10
342.5015485480271
 20
229.357596941656
 30
0.0
 11
341.2511311007759
 21
229.005047065957
 31
0.0
  0
LINE
  5
190
330
4D
100
AcDbEntity
  8
1
  6
Continuous
 62
     7
100
AcDbLine
 10
342.5015485480271
 20
229.357596941656
 30
0.0
 11
342.5015485480271
 21
228.524947210846
 31
0.0
  0
LINE
  5
191
330
4D
100
AcDbEntity
  8
1
  6
Continuous
 62
     7
100
AcDbLine
 10
342.5015485480271
 20
229.357596941656
 30
0.0
 11
343.0015485480271
 21
229.646272076251
 31
0.0
  0
LINE
  5
192
330
4D
100
AcDbEntity
  8
1
  6
Continuous
 62
     7
100
AcDbLine
 10
339.5010674499602
 20
228.941272076251
 30
0.0
 11
340.0010674499602
 21
228.652596941656
 31
0.0
  0
LINE
  5
193
330
4D
100
AcDbEntity
  8
1
  6
Continuous
 62
     7
100
AcDbLine
 10
339.5010674499602
 20
228.941272076251
 30
0.0
 11
340.0010674499602
 21
229.229947210846
 31
0.0
  0
LINE
  5
194
330
4D
100
AcDbEntity
  8
0
  6
Continuous
 62
     7
100
AcDbLine
 10
339.5010674499602
 20
228.941272076251
 30
0.0
 11
343.0015485480271
 21
229.646272076251
 31
0.0
  0
LINE
  5
195
330
4D
100
AcDbEntity
  8
0
  6
Continuous
 62
     7
100
AcDbLine
 10
342.5015485480271
 20
229.357596941656
 30
0.0
 11
340.0010674499602
 21
228.652596941656
 31
0.0
  0
LINE
  5
196
330
4D
100
AcDbEntity
  8
1
  6
Continuous
 62
     7
100
AcDbLine
 10
342.5015485480271
 20
230.7675969416561
 30
0.0
 11
342.5015485480271
 21
229.934947210846
 31
0.0
  0
LINE
  5
197
330
4D
100
AcDbEntity
  8
1
  6
Continuous
 62
     7
100
AcDbLine
 10
342.5015485480271
 20
229.934947210846
 30
0.0
 11
343.0015485480271
 21
229.646272076251
 31
0.0
  0
LINE
  5
198
330
4D
100
AcDbEntity
  8
0
  6
Continuous
 62
     7
100
AcDbLine
 10
342.5015485480271
 20
229.934947210846
 30
0.0
 11
340.0010674499602
 21
229.229947210846
 31
0.0
  0
LINE
  5
199
330
4D
100
AcDbEntity
  8
1
  6
Continuous
 62
     7
100
AcDbLine
 10
340.0010674499602
 20
227.819947210846
 30
0.0
 11
340.0010674499602
 21
228.652596941656
 31
0.0
  0
LINE
  5
19A
330
4D
100
AcDbEntity
  8
0
  6
Continuous
 62
     7
100
AcDbLine
 10
342.5015485480271
 20
227.947596941656
 30
0.0
 11
341.2511311007759
 21
227.595047065957
 31
0.0
  0
LINE
  5
19B
330
4D
100
AcDbEntity
  8
1
  6
Continuous
 62
     7
100
AcDbLine
 10
342.5015485480271
 20
227.947596941656
 30
0.0
 11
342.5015485480271
 21
227.114947210846
 31
0.0
  0
LINE
  5
19C
330
4D
100
AcDbEntity
  8
1
  6
Continuous
 62
     7
100
AcDbLine
 10
342.5015485480271
 20
227.947596941656
 30
0.0
 11
343.0015485480271
 21
228.236272076251
 31
0.0
  0
LINE
  5
19D
330
4D
100
AcDbEntity
  8
1
  6
Continuous
 62
     7
100
AcDbLine
 10
339.5010674499602
 20
227.531272076251
 30
0.0
 11
340.0010674499602
 21
227.242596941656
 31
0.0
  0
LINE
  5
19E
330
4D
100
AcDbEntity
  8
1
  6
Continuous
 62
     7
100
AcDbLine
 10
339.5010674499602
 20
227.531272076251
 30
0.0
 11
340.0010674499602
 21
227.819947210846
 31
0.0
  0
LINE
  5
19F
330
4D
100
AcDbEntity
  8
0
  6
Continuous
 62
     7
100
AcDbLine
 10
339.5010674499602
 20
227.531272076251
 30
0.0
 11
343.0015485480271
 21
228.236272076251
 31
0.0
  0
LINE
  5
1A0
330
4D
100
AcDbEntity
  8
0
  6
Continuous
 62
     7
100
AcDbLine
 10
342.5015485480271
 20
227.947596941656
 30
0.0
 11
340.0010674499602
 21
227.242596941656
 31
0.0
  0
LINE
  5
1A1
330
4D
100
AcDbEntity
  8
1
  6
Continuous
 62
     7
100
AcDbLine
 10
342.5015485480271
 20
228.524947210846
 30
0.0
 11
343.0015485480271
 21
228.236272076251
 31
0.0
  0
LINE
  5
1A2
330
4D
100
AcDbEntity
  8
0
  6
Continuous
 62
     7
100
AcDbLine
 10
342.5015485480271
 20
228.524947210846
 30
0.0
 11
340.0010674499602
 21
227.819947210846
 31
0.0
  0
LINE
  5
1A3
330
4D
100
AcDbEntity
  8
1
  6
Continuous
 62
     7
100
AcDbLine
 10
340.0010674499602
 20
226.409947210846
 30
0.0
 11
340.0010674499602
 21
227.242596941656
 31
0.0
  0
LINE
  5
1A4
330
4D
100
AcDbEntity
  8
0
  6
Continuous
 62
     7
100
AcDbLine
 10
342.5015485480271
 20
227.947596941656
 30
0.0
 11
341.2511311007759
 21
227.595047065957
 31
0.0
  0
LINE
  5
1A5
330
4D
100
AcDbEntity
  8
1
  6
Continuous
 62
     7
100
AcDbLine
 10
342.5015485480271
 20
227.947596941656
 30
0.0
 11
342.5015485480271
 21
227.114947210846
 31
0.0
  0
LINE
  5
1A6
330
4D
100
AcDbEntity
  8
1
  6
Continuous
 62
     7
100
AcDbLine
 10
342.5015485480271
 20
227.947596941656
 30
0.0
 11
343.0015485480271
 21
228.236272076251
 31
0.0
  0
LINE
  5
1A7
330
4D
100
AcDbEntity
  8
1
  6
Continuous
 62
     7
100
AcDbLine
 10
339.5010674499602
 20
227.531272076251
 30
0.0
 11
340.0010674499602
 21
227.242596941656
 31
0.0
  0
LINE
  5
1A8
330
4D
100
AcDbEntity
  8
1
  6
Continuous
 62
     7
100
AcDbLine
 10
339.5010674499602
 20
227.531272076251
 30
0.0
 11
340.0010674499602
 21
227.819947210846
 31
0.0
  0
LINE
  5
1A9
330
4D
100
AcDbEntity
  8
0
  6
Continuous
 62
     7
100
AcDbLine
 10
339.5010674499602
 20
227.531272076251
 30
0.0
 11
343.0015485480271
 21
228.236272076251
 31
0.0
  0
LINE
  5
1AA
330
4D
100
AcDbEntity
  8
0
  6
Continuous
 62
     7
100
AcDbLine
 10
342.5015485480271
 20
227.947596941656
 30
0.0
 11
340.0010674499602
 21
227.242596941656
 31
0.0
  0
LINE
  5
1AB
330
4D
100
AcDbEntity
  8
1
  6
Continuous
 62
     7
100
AcDbLine
 10
342.5015485480271
 20
228.524947210846
 30
0.0
 11
343.0015485480271
 21
228.236272076251
 31
0.0
  0
LINE
  5
1AC
330
4D
100
AcDbEntity
  8
0
  6
Continuous
 62
     7
100
AcDbLine
 10
342.5015485480271
 20
228.524947210846
 30
0.0
 11
340.0010674499602
 21
227.819947210846
 31
0.0
  0
LINE
  5
1AD
330
4D
100
AcDbEntity
  8
1
  6
Continuous
 62
     7
100
AcDbLine
 10
340.0010674499602
 20
226.409947210846
 30
0.0
 11
340.0010674499602
 21
227.242596941656
 31
0.0
  0
LINE
  5
1AE
330
4D
100
AcDbEntity
  8
0
  6
Continuous
 62
     7
100
AcDbLine
 10
342.5015485480271
 20
226.537596941656
 30
0.0
 11
341.2511311007759
 21
226.185047065957
 31
0.0
  0
LINE
  5
1AF
330
4D
100
AcDbEntity
  8
1
  6
Continuous
 62
     7
100
AcDbLine
 10
342.5015485480271
 20
226.537596941656
 30
0.0
 11
342.5015485480271
 21
225.7049472108459
 31
0.0
  0
LINE
  5
1B0
330
4D
100
AcDbEntity
  8
1
  6
Continuous
 62
     7
100
AcDbLine
 10
342.5015485480271
 20
226.537596941656
 30
0.0
 11
343.0015485480271
 21
226.826272076251
 31
0.0
  0
LINE
  5
1B1
330
4D
100
AcDbEntity
  8
1
  6
Continuous
 62
     7
100
AcDbLine
 10
339.5010674499602
 20
226.121272076251
 30
0.0
 11
340.0010674499602
 21
225.832596941656
 31
0.0
  0
LINE
  5
1B2
330
4D
100
AcDbEntity
  8
1
  6
Continuous
 62
     7
100
AcDbLine
 10
339.5010674499602
 20
226.121272076251
 30
0.0
 11
340.0010674499602
 21
226.409947210846
 31
0.0
  0
LINE
  5
1B3
330
4D
100
AcDbEntity
  8
0
  6
Continuous
 62
     7
100
AcDbLine
 10
339.5010674499602
 20
226.121272076251
 30
0.0
 11
343.0015485480271
 21
226.826272076251
 31
0.0
  0
LINE
  5
1B4
330
4D
100
AcDbEntity
  8
0
  6
Continuous
 62
     7
100
AcDbLine
 10
342.5015485480271
 20
226.537596941656
 30
0.0
 11
340.0010674499602
 21
225.832596941656
 31
0.0
  0
LINE
  5
1B5
330
4D
100
AcDbEntity
  8
1
  6
Continuous
 62
     7
100
AcDbLine
 10
342.5015485480271
 20
227.114947210846
 30
0.0
 11
343.0015485480271
 21
226.826272076251
 31
0.0
  0
LINE
  5
1B6
330
4D
100
AcDbEntity
  8
0
  6
Continuous
 62
     7
100
AcDbLine
 10
342.5015485480271
 20
227.114947210846
 30
0.0
 11
340.0010674499602
 21
226.409947210846
 31
0.0
  0
LINE
  5
1B7
330
4D
100
AcDbEntity
  8
1
  6
Continuous
 62
     7
100
AcDbLine
 10
340.0010674499602
 20
224.999947210846
 30
0.0
 11
340.0010674499602
 21
225.832596941656
 31
0.0
  0
LINE
  5
1B8
330
4D
100
AcDbEntity
  8
0
  6
Continuous
 62
     7
100
AcDbLine
 10
342.5015485480271
 20
226.537596941656
 30
0.0
 11
341.2511311007759
 21
226.185047065957
 31
0.0
  0
LINE
  5
1B9
330
4D
100
AcDbEntity
  8
1
  6
Continuous
 62
     7
100
AcDbLine
 10
342.5015485480271
 20
226.537596941656
 30
0.0
 11
342.5015485480271
 21
225.7049472108459
 31
0.0
  0
LINE
  5
1BA
330
4D
100
AcDbEntity
  8
1
  6
Continuous
 62
     7
100
AcDbLine
 10
342.5015485480271
 20
226.537596941656
 30
0.0
 11
343.0015485480271
 21
226.826272076251
 31
0.0
  0
LINE
  5
1BB
330
4D
100
AcDbEntity
  8
1
  6
Continuous
 62
     7
100
AcDbLine
 10
339.5010674499602
 20
226.121272076251
 30
0.0
 11
340.0010674499602
 21
225.832596941656
 31
0.0
  0
LINE
  5
1BC
330
4D
100
AcDbEntity
  8
1
  6
Continuous
 62
     7
100
AcDbLine
 10
339.5010674499602
 20
226.121272076251
 30
0.0
 11
340.0010674499602
 21
226.409947210846
 31
0.0
  0
LINE
  5
1BD
330
4D
100
AcDbEntity
  8
0
  6
Continuous
 62
     7
100
AcDbLine
 10
339.5010674499602
 20
226.121272076251
 30
0.0
 11
343.0015485480271
 21
226.826272076251
 31
0.0
  0
LINE
  5
1BE
330
4D
100
AcDbEntity
  8
0
  6
Continuous
 62
     7
100
AcDbLine
 10
342.5015485480271
 20
226.537596941656
 30
0.0
 11
340.0010674499602
 21
225.832596941656
 31
0.0
  0
LINE
  5
1BF
330
4D
100
AcDbEntity
  8
1
  6
Continuous
 62
     7
100
AcDbLine
 10
342.5015485480271
 20
227.114947210846
 30
0.0
 11
343.0015485480271
 21
226.826272076251
 31
0.0
  0
LINE
  5
1C0
330
4D
100
AcDbEntity
  8
0
  6
Continuous
 62
     7
100
AcDbLine
 10
342.5015485480271
 20
227.114947210846
 30
0.0
 11
340.0010674499602
 21
226.409947210846
 31
0.0
  0
LINE
  5
1C1
330
4D
100
AcDbEntity
  8
1
  6
Continuous
 62
     7
100
AcDbLine
 10
340.0010674499602
 20
224.999947210846
 30
0.0
 11
340.0010674499602
 21
225.832596941656
 31
0.0
  0
LINE
  5
1C2
330
4D
100
AcDbEntity
  8
0
  6
Continuous
 62
     7
100
AcDbLine
 10
342.5015485480271
 20
226.537596941656
 30
0.0
 11
341.2511311007759
 21
226.185047065957
 31
0.0
  0
LINE
  5
1C3
330
4D
100
AcDbEntity
  8
1
  6
Continuous
 62
     7
100
AcDbLine
 10
342.5015485480271
 20
226.537596941656
 30
0.0
 11
342.5015485480271
 21
225.7049472108459
 31
0.0
  0
LINE
  5
1C4
330
4D
100
AcDbEntity
  8
1
  6
Continuous
 62
     7
100
AcDbLine
 10
342.5015485480271
 20
226.537596941656
 30
0.0
 11
343.0015485480271
 21
226.826272076251
 31
0.0
  0
LINE
  5
1C5
330
4D
100
AcDbEntity
  8
1
  6
Continuous
 62
     7
100
AcDbLine
 10
339.5010674499602
 20
226.121272076251
 30
0.0
 11
340.0010674499602
 21
225.832596941656
 31
0.0
  0
LINE
  5
1C6
330
4D
100
AcDbEntity
  8
1
  6
Continuous
 62
     7
100
AcDbLine
 10
339.5010674499602
 20
226.121272076251
 30
0.0
 11
340.0010674499602
 21
226.409947210846
 31
0.0
  0
LINE
  5
1C7
330
4D
100
AcDbEntity
  8
0
  6
Continuous
 62
     7
100
AcDbLine
 10
339.5010674499602
 20
226.121272076251
 30
0.0
 11
343.0015485480271
 21
226.826272076251
 31
0.0
  0
LINE
  5
1C8
330
4D
100
AcDbEntity
  8
0
  6
Continuous
 62
     7
100
AcDbLine
 10
342.5015485480271
 20
226.537596941656
 30
0.0
 11
340.0010674499602
 21
225.832596941656
 31
0.0
  0
LINE
  5
1C9
330
4D
100
AcDbEntity
  8
1
  6
Continuous
 62
     7
100
AcDbLine
 10
342.5015485480271
 20
227.114947210846
 30
0.0
 11
343.0015485480271
 21
226.826272076251
 31
0.0
  0
LINE
  5
1CA
330
4D
100
AcDbEntity
  8
0
  6
Continuous
 62
     7
100
AcDbLine
 10
342.5015485480271
 20
227.114947210846
 30
0.0
 11
340.0010674499602
 21
226.409947210846
 31
0.0
  0
LINE
  5
1CB
330
4D
100
AcDbEntity
  8
1
  6
Continuous
 62
     7
100
AcDbLine
 10
340.0010674499602
 20
224.999947210846
 30
0.0
 11
340.0010674499602
 21
225.832596941656
 31
0.0
  0
LINE
  5
1CC
330
4D
100
AcDbEntity
  8
0
  6
Continuous
 62
     7
100
AcDbLine
 10
342.5015485480271
 20
225.127596941656
 30
0.0
 11
341.2511311007759
 21
224.775047065957
 31
0.0
  0
LINE
  5
1CD
330
4D
100
AcDbEntity
  8
1
  6
Continuous
 62
     7
100
AcDbLine
 10
342.5015485480271
 20
225.127596941656
 30
0.0
 11
342.5015485480271
 21
224.294947210846
 31
0.0
  0
LINE
  5
1CE
330
4D
100
AcDbEntity
  8
1
  6
Continuous
 62
     7
100
AcDbLine
 10
342.5015485480271
 20
225.127596941656
 30
0.0
 11
343.0015485480271
 21
225.416272076251
 31
0.0
  0
LINE
  5
1CF
330
4D
100
AcDbEntity
  8
1
  6
Continuous
 62
     7
100
AcDbLine
 10
339.5010674499602
 20
224.711272076251
 30
0.0
 11
340.0010674499602
 21
224.422596941656
 31
0.0
  0
LINE
  5
1D0
330
4D
100
AcDbEntity
  8
1
  6
Continuous
 62
     7
100
AcDbLine
 10
339.5010674499602
 20
224.711272076251
 30
0.0
 11
340.0010674499602
 21
224.999947210846
 31
0.0
  0
LINE
  5
1D1
330
4D
100
AcDbEntity
  8
0
  6
Continuous
 62
     7
100
AcDbLine
 10
339.5010674499602
 20
224.711272076251
 30
0.0
 11
343.0015485480271
 21
225.416272076251
 31
0.0
  0
LINE
  5
1D2
330
4D
100
AcDbEntity
  8
0
  6
Continuous
 62
     7
100
AcDbLine
 10
342.5015485480271
 20
225.127596941656
 30
0.0
 11
340.0010674499602
 21
224.422596941656
 31
0.0
  0
LINE
  5
1D3
330
4D
100
AcDbEntity
  8
1
  6
Continuous
 62
     7
100
AcDbLine
 10
342.5015485480271
 20
225.7049472108459
 30
0.0
 11
343.0015485480271
 21
225.416272076251
 31
0.0
  0
LINE
  5
1D4
330
4D
100
AcDbEntity
  8
0
  6
Continuous
 62
     7
100
AcDbLine
 10
342.5015485480271
 20
225.7049472108459
 30
0.0
 11
340.0010674499602
 21
224.999947210846
 31
0.0
  0
LINE
  5
1D5
330
4D
100
AcDbEntity
  8
1
  6
Continuous
 62
     7
100
AcDbLine
 10
340.0010674499602
 20
223.5899472108461
 30
0.0
 11
340.0010674499602
 21
224.422596941656
 31
0.0
  0
LINE
  5
1D6
330
4D
100
AcDbEntity
  8
0
  6
Continuous
 62
     7
100
AcDbLine
 10
342.5015485480271
 20
223.717596941656
 30
0.0
 11
341.2511311007759
 21
223.365047065957
 31
0.0
  0
LINE
  5
1D7
330
4D
100
AcDbEntity
  8
1
  6
Continuous
 62
     7
100
AcDbLine
 10
342.5015485480271
 20
223.717596941656
 30
0.0
 11
342.5015485480271
 21
223.001274214745
 31
0.0
  0
LINE
  5
1D8
330
4D
100
AcDbEntity
  8
1
  6
Continuous
 62
     7
100
AcDbLine
 10
342.5015485480271
 20
223.717596941656
 30
0.0
 11
343.0015485480271
 21
224.006272076251
 31
0.0
  0
LINE
  5
1D9
330
4D
100
AcDbEntity
  8
1
  6
Continuous
 62
     7
100
AcDbLine
 10
339.5010674499602
 20
223.3012720762511
 30
0.0
 11
340.0010674499602
 21
223.0125969416559
 31
0.0
  0
LINE
  5
1DA
330
4D
100
AcDbEntity
  8
1
  6
Continuous
 62
     7
100
AcDbLine
 10
339.5010674499602
 20
223.3012720762511
 30
0.0
 11
340.0010674499602
 21
223.5899472108461
 31
0.0
  0
LINE
  5
1DB
330
4D
100
AcDbEntity
  8
0
  6
Continuous
 62
     7
100
AcDbLine
 10
339.5010674499602
 20
223.3012720762511
 30
0.0
 11
343.0015485480271
 21
224.006272076251
 31
0.0
  0
LINE
  5
1DC
330
4D
100
AcDbEntity
  8
0
  6
Continuous
 62
     7
100
AcDbLine
 10
342.5015485480271
 20
223.717596941656
 30
0.0
 11
340.0010674499602
 21
223.0125969416559
 31
0.0
  0
LINE
  5
1DD
330
4D
100
AcDbEntity
  8
1
  6
Continuous
 62
     7
100
AcDbLine
 10
342.5015485480271
 20
224.294947210846
 30
0.0
 11
343.0015485480271
 21
224.006272076251
 31
0.0
  0
LINE
  5
1DE
330
4D
100
AcDbEntity
  8
0
  6
Continuous
 62
     7
100
AcDbLine
 10
342.5015485480271
 20
224.294947210846
 30
0.0
 11
340.0010674499602
 21
223.5899472108461
 31
0.0
  0
LINE
  5
1DF
330
4D
100
AcDbEntity
  8
1
  6
Continuous
 62
     7
100
AcDbLine
 10
342.0160638051025
 20
222.1603899737
 30
0.0
 11
342.8123513060967
 21
222.620126776752
 31
0.0
  0
LINE
  5
1E0
330
4D
100
AcDbEntity
  8
1
  6
Continuous
 62
     7
100
AcDbLine
 10
340.1328790670052
 20
222.123615682944
 30
0.0
 11
340.7079796398836
 21
221.791581212381
 31
0.0
  0
LINE
  5
1E1
330
4D
100
AcDbEntity
  8
1
  6
Continuous
 62
     7
100
AcDbLine
 10
340.1328790670052
 20
222.123615682944
 30
0.0
 11
340.4144205907713
 21
222.286163757478
 31
0.0
  0
LINE
  5
1E2
330
4D
100
AcDbEntity
  8
0
  6
Continuous
 62
     7
100
AcDbLine
 10
341.2515499618974
 20
220.836213154179
 30
0.0
 11
342.0160638051025
 21
222.1603899737
 31
0.0
  0
LINE
  5
1E3
330
4D
100
AcDbEntity
  8
0
  6
Continuous
 62
     7
100
AcDbLine
 10
340.001551375768
 20
223.001274214745
 30
0.0
 11
340.4144205907713
 21
222.286163757478
 31
0.0
  0
LINE
  5
1E4
330
4D
100
AcDbEntity
  8
0
  6
Continuous
 62
     7
100
AcDbLine
 10
342.4142075555997
 20
222.849995178277
 30
0.0
 11
340.4144205907713
 21
222.286163757478
 31
0.0
  0
LINE
  5
1E5
330
4D
100
AcDbEntity
  8
0
  6
Continuous
 62
     7
100
AcDbLine
 10
342.4142075555997
 20
222.849995178277
 30
0.0
 11
342.5015485480271
 21
223.001274214745
 31
0.0
  0
LINE
  5
1E6
330
4D
100
AcDbEntity
  8
1
  6
Continuous
 62
     7
100
AcDbLine
 10
342.4142075555997
 20
222.849995178277
 30
0.0
 11
342.8123513060967
 21
222.620126776752
 31
0.0
  0
LINE
  5
1E7
330
4D
100
AcDbEntity
  8
0
  6
Continuous
 62
     7
100
AcDbLine
 10
342.8123513060967
 20
222.620126776752
 30
0.0
 11
340.1328790670052
 21
222.123615682944
 31
0.0
  0
LINE
  5
1E8
330
4D
100
AcDbEntity
  8
0
  6
Continuous
 62
     7
100
AcDbLine
 10
342.0160638051025
 20
222.1603899737
 30
0.0
 11
340.7079796398836
 21
221.791581212381
 31
0.0
  0
LINE
  5
1E9
330
4D
100
AcDbEntity
  8
0
  6
Continuous
 62
     7
100
AcDbLine
 10
340.7010895372237
 20
221.78963857727
 30
0.0
 11
341.2515499618974
 21
220.836213154179
 31
0.0
  0
CIRCLE
  5
1EA
330
4D
100
AcDbEntity
  8
1
  6
Continuous
 62
     7
100
AcDbCircle
 10
341.2515485480271
 20
260.536272076251
 30
0.0
 40
3.75116785809405
  0
ARC
  5
1EB
330
4D
100
AcDbEntity
  8
1
  6
Continuous
 62
     7
100
AcDbCircle
 10
342.2515485480271
 20
261.536272076251
 30
0.0
 40
0.5
100
AcDbArc
 50
180.0
 51
270.0
  0
ARC
  5
1EC
330
4D
100
AcDbEntity
  8
1
  6
Continuous
 62
     7
100
AcDbCircle
 10
340.2515485480271
 20
261.536272076251
 30
0.0
 40
0.5
100
AcDbArc
 50
270.0
 51
0.0
  0
ARC
  5
1ED
330
4D
100
AcDbEntity
  8
1
  6
Continuous
 62
     7
100
AcDbCircle
 10
342.2515485480271
 20
259.536272076251
 30
0.0
 40
0.5
100
AcDbArc
 50
90.0
 51
180.0
  0
ARC
  5
1EE
330
4D
100
AcDbEntity
  8
1
  6
Continuous
 62
     7
100
AcDbCircle
 10
340.2515485480271
 20
259.536272076251
 30
0.0
 40
0.5
100
AcDbArc
 50
0.0
 51
90.0
  0
DIMENSION
  5
1FC
330
4D
100
AcDbEntity
  8
1
100
AcDbDimension
  2
*D10
 10
365.0027164061212
 20
220.8362131541791
 30
0.0
 11
359.5027164061212
 21
228.636242615215
 31
0.0
 70
    32
  1
16
 71
     5
 42
-1.0
 53
90.0
  3
ME10_DIM_10
100
AcDbAlignedDimension
 13
345.0015485480271
 23
236.436272076251
 33
0.0
 14
341.2515499618974
 24
220.836213154179
 34
0.0
 50
90.0
100
AcDbRotatedDimension
  0
ENDBLK
  5
4F
330
4D
100
AcDbEntity
  8
0
100
AcDbBlockEnd
  0
BLOCK
  5
51
330
50
100
AcDbEntity
  8
0
100
AcDbBlockBegin
  2
H5500-50-H10
 70
     0
 10
329.6048331997001
 20
368.105895558054
 30
0.0
  3
H5500-50-H10
  1

  0
LINE
  5
1FD
330
50
100
AcDbEntity
  8
0
  6
PHANTOM
 62
     4
100
AcDbLine
 10
348.6048331997001
 20
468.405895558054
 30
0.0
 11
348.6048331997001
 21
425.105895558054
 31
0.0
  0
LINE
  5
1FE
330
50
100
AcDbEntity
  8
0
  6
Continuous
 62
     7
100
AcDbLine
 10
348.6048331997001
 20
428.105895558054
 30
0.0
 11
363.6048331997001
 21
428.105895558054
 31
0.0
  0
LINE
  5
1FF
330
50
100
AcDbEntity
  8
0
  6
Continuous
 62
     7
100
AcDbLine
 10
348.6048331997001
 20
451.105895558054
 30
0.0
 11
364.6048331997001
 21
451.105895558054
 31
0.0
  0
LINE
  5
200
330
50
100
AcDbEntity
  8
0
  6
Continuous
 62
     7
100
AcDbLine
 10
348.6048331997001
 20
452.605895558054
 30
0.0
 11
364.6048331997001
 21
452.605895558054
 31
0.0
  0
LINE
  5
201
330
50
100
AcDbEntity
  8
0
  6
Continuous
 62
     7
100
AcDbLine
 10
359.5592843498048
 20
464.405895558054
 30
0.0
 11
363.6048331997001
 21
464.405895558054
 31
0.0
  0
LINE
  5
202
330
50
100
AcDbEntity
  8
0
  6
Continuous
 62
     7
100
AcDbLine
 10
363.6048331997001
 20
464.405895558054
 30
0.0
 11
363.6048331997001
 21
452.605895558054
 31
0.0
  0
LINE
  5
203
330
50
100
AcDbEntity
  8
0
  6
Continuous
 62
     7
100
AcDbLine
 10
363.6048331997001
 20
451.105895558054
 30
0.0
 11
363.6048331997001
 21
428.105895558054
 31
0.0
  0
LINE
  5
204
330
50
100
AcDbEntity
  8
0
  6
Continuous
 62
     7
100
AcDbLine
 10
364.6048331997001
 20
452.605895558054
 30
0.0
 11
364.6048331997001
 21
451.105895558054
 31
0.0
  0
LINE
  5
205
330
50
100
AcDbEntity
  8
0
  6
Continuous
 62
     7
100
AcDbLine
 10
333.6048331997001
 20
428.105895558054
 30
0.0
 11
348.6048331997001
 21
428.105895558054
 31
0.0
  0
LINE
  5
206
330
50
100
AcDbEntity
  8
0
  6
Continuous
 62
     7
100
AcDbLine
 10
332.6048331997001
 20
451.105895558054
 30
0.0
 11
348.6048331997001
 21
451.105895558054
 31
0.0
  0
LINE
  5
207
330
50
100
AcDbEntity
  8
0
  6
Continuous
 62
     7
100
AcDbLine
 10
332.6048331997001
 20
452.605895558054
 30
0.0
 11
348.6048331997001
 21
452.605895558054
 31
0.0
  0
LINE
  5
208
330
50
100
AcDbEntity
  8
0
  6
Continuous
 62
     7
100
AcDbLine
 10
333.6048331997001
 20
464.405895558054
 30
0.0
 11
337.6503820495954
 21
464.405895558054
 31
0.0
  0
LINE
  5
209
330
50
100
AcDbEntity
  8
0
  6
Continuous
 62
     7
100
AcDbLine
 10
333.6048331997001
 20
452.605895558054
 30
0.0
 11
333.6048331997001
 21
464.405895558054
 31
0.0
  0
LINE
  5
20A
330
50
100
AcDbEntity
  8
0
  6
Continuous
 62
     7
100
AcDbLine
 10
333.6048331997001
 20
428.105895558054
 30
0.0
 11
333.6048331997001
 21
451.105895558054
 31
0.0
  0
LINE
  5
20B
330
50
100
AcDbEntity
  8
0
  6
Continuous
 62
     7
100
AcDbLine
 10
332.6048331997001
 20
451.105895558054
 30
0.0
 11
332.6048331997001
 21
452.605895558054
 31
0.0
  0
LINE
  5
20C
330
50
100
AcDbEntity
  8
0
  6
PHANTOM
 62
     4
100
AcDbLine
 10
348.6048331997001
 20
506.405895558054
 30
0.0
 11
348.6048331997001
 21
544.405895558054
 31
0.0
  0
LINE
  5
20D
330
50
100
AcDbEntity
  8
0
  6
PHANTOM
 62
     4
100
AcDbLine
 10
329.6048331997001
 20
525.405895558054
 30
0.0
 11
367.6048331997001
 21
525.405895558054
 31
0.0
  0
LINE
  5
20E
330
50
100
AcDbEntity
  8
0
  6
Continuous
 62
     7
100
AcDbLine
 10
358.6048331997001
 20
514.225555670555
 30
0.0
 11
358.6048331997001
 21
516.336716984446
 31
0.0
  0
LINE
  5
20F
330
50
100
AcDbEntity
  8
0
  6
Continuous
 62
     7
100
AcDbLine
 10
363.6048331997001
 20
525.405895558054
 30
0.0
 11
364.6048331997001
 21
525.405895558054
 31
0.0
  0
LINE
  5
210
330
50
100
AcDbEntity
  8
0
  6
Continuous
 62
     7
100
AcDbLine
 10
338.6048331997001
 20
516.336716984446
 30
0.0
 11
338.6048331997001
 21
514.225555670555
 31
0.0
  0
LINE
  5
211
330
50
100
AcDbEntity
  8
0
  6
Continuous
 62
     7
100
AcDbLine
 10
358.6048331997001
 20
534.475074131662
 30
0.0
 11
358.6048331997001
 21
536.586235445553
 31
0.0
  0
LINE
  5
212
330
50
100
AcDbEntity
  8
0
  6
Continuous
 62
     7
100
AcDbLine
 10
338.6048331997001
 20
536.586235445553
 30
0.0
 11
338.6048331997001
 21
534.475074131662
 31
0.0
  0
ARC
  5
213
330
50
100
AcDbEntity
  8
0
  6
Continuous
 62
     7
100
AcDbCircle
 10
348.6048331997001
 20
464.405895558054
 30
0.0
 40
10.0
100
AcDbArc
 50
270.0
 51
354.7840914295455
  0
ARC
  5
214
330
50
100
AcDbEntity
  8
0
  6
Continuous
 62
     7
100
AcDbCircle
 10
359.5592843498048
 20
463.405895558054
 30
0.0
 40
1.0
100
AcDbArc
 50
90.0
 51
174.7840914295565
  0
ARC
  5
215
330
50
100
AcDbEntity
  8
0
  6
Continuous
 62
     7
100
AcDbCircle
 10
348.6048331997001
 20
464.405895558054
 30
0.0
 40
10.00000000000015
100
AcDbArc
 50
185.2159085704545
 51
270.0
  0
ARC
  5
216
330
50
100
AcDbEntity
  8
0
  6
Continuous
 62
     7
100
AcDbCircle
 10
337.6503820495954
 20
463.405895558054
 30
0.0
 40
1.000000000001235
100
AcDbArc
 50
5.21590857044291
 51
90.0
  0
ARC
  5
217
330
50
100
AcDbEntity
  8
0
  6
Continuous
 62
     7
100
AcDbCircle
 10
348.6048331997001
 20
525.405895558054
 30
0.0
 40
13.5
100
AcDbArc
 50
0.0
 51
317.7945535962692
  0
ARC
  5
218
330
50
100
AcDbEntity
  8
0
  6
Continuous
 62
     7
100
AcDbCircle
 10
348.6048331997001
 20
525.405895558054
 30
0.0
 40
13.49999999999967
100
AcDbArc
 50
317.7945535962692
 51
0.0
  0
ARC
  5
219
330
50
100
AcDbEntity
  8
0
  6
Continuous
 62
     7
100
AcDbCircle
 10
348.6048331997001
 20
525.405895558054
 30
0.0
 40
15.0
100
AcDbArc
 50
0.0
 51
311.8103148957784
  0
ARC
  5
21A
330
50
100
AcDbEntity
  8
0
  6
Continuous
 62
     7
100
AcDbCircle
 10
348.6048331997001
 20
525.405895558054
 30
0.0
 40
15.00000000000006
100
AcDbArc
 50
311.8103148957784
 51
0.0
  0
ARC
  5
21B
330
50
100
AcDbEntity
  8
0
  6
Continuous
 62
     7
100
AcDbCircle
 10
348.6048331997001
 20
525.405895558054
 30
0.0
 40
16.0
100
AcDbArc
 50
90.0
 51
180.0
  0
ARC
  5
21C
330
50
100
AcDbEntity
  8
0
  6
Continuous
 62
     7
100
AcDbCircle
 10
348.6048331997001
 20
525.405895558054
 30
0.0
 40
16.0
100
AcDbArc
 50
270.0
 51
0.0
  0
ARC
  5
21D
330
50
100
AcDbEntity
  8
0
  6
Continuous
 62
     7
100
AcDbCircle
 10
348.6048331997001
 20
525.405895558054
 30
0.0
 40
16.0
100
AcDbArc
 50
0.0
 51
90.0
  0
ARC
  5
21E
330
50
100
AcDbEntity
  8
0
  6
Continuous
 62
     7
100
AcDbCircle
 10
348.6048331997001
 20
525.405895558054
 30
0.0
 40
16.0
100
AcDbArc
 50
180.0
 51
270.0
  0
DIMENSION
  5
229
330
50
100
AcDbEntity
  8
1
100
AcDbDimension
  2
*D11
 10
384.6048331997001
 20
428.105895558054
 30
0.0
 11
379.1048331997001
 21
446.2558955580541
 31
0.0
 70
    32
  1
36
 71
     5
 42
-1.0
 53
90.0
  3
ME10_DIM_11
100
AcDbAlignedDimension
 13
363.6048331997001
 23
464.405895558054
 33
0.0
 14
363.6048331997001
 24
428.105895558054
 34
0.0
 50
90.0
100
AcDbRotatedDimension
  0
DIMENSION
  5
234
330
50
100
AcDbEntity
  8
0
100
AcDbDimension
  2
*D12
 10
333.6048331997001
 20
408.105895558054
 30
0.0
 11
348.6048331997001
 21
413.605895558054
 31
0.0
 70
    32
  1
<>
 71
     5
 42
-1.0
 53
0.00013888888889
  3
ME10_DIM_12
100
AcDbAlignedDimension
 13
363.6048331997001
 23
428.105895558054
 33
0.0
 14
333.6048331997001
 24
428.105895558054
 34
0.0
100
AcDbRotatedDimension
  0
DIMENSION
  5
23F
330
50
100
AcDbEntity
  8
0
100
AcDbDimension
  2
*D13
 10
332.6048331997001
 20
392.105895558054
 30
0.0
 11
348.6048331997001
 21
397.605895558054
 31
0.0
 70
    32
  1
<>
 71
     5
 42
-1.0
 53
0.00013888888889
  3
ME10_DIM_13
100
AcDbAlignedDimension
 13
364.6048331997001
 23
451.105895558054
 33
0.0
 14
332.6048331997001
 24
451.105895558054
 34
0.0
100
AcDbRotatedDimension
  0
ENDBLK
  5
52
330
50
100
AcDbEntity
  8
0
100
AcDbBlockEnd
  0
BLOCK
  5
54
330
53
100
AcDbEntity
  8
0
100
AcDbBlockBegin
  2
H5500-50-H2
 70
     0
 10
108.4047090827187
 20
249.820945201481
 30
0.0
  3
H5500-50-H2
  1

  0
LINE
  5
240
330
53
100
AcDbEntity
  8
0
  6
Continuous
 62
     7
100
AcDbLine
 10
184.1547090827192
 20
421.248231909314
 30
0.0
 11
183.6713476981502
 21
419.444302663685
 31
0.0
  0
LINE
  5
241
330
53
100
AcDbEntity
  8
0
  6
Continuous
 62
     7
100
AcDbLine
 10
172.1409281264053
 20
415.2475731509701
 30
0.0
 11
170.6111084558961
 21
416.318764416362
 31
0.0
  0
LINE
  5
242
330
53
100
AcDbEntity
  8
0
  6
Continuous
 62
     7
100
AcDbLine
 10
156.1983097095413
 20
416.318764416362
 30
0.0
 11
154.6684900390317
 21
415.2475731509701
 31
0.0
  0
LINE
  5
243
330
53
100
AcDbEntity
  8
0
  6
Continuous
 62
     7
100
AcDbLine
 10
143.1380704672881
 20
419.4443026636859
 30
0.0
 11
142.6547090827192
 21
421.248231909314
 31
0.0
  0
LINE
  5
244
330
53
100
AcDbEntity
  8
0
  6
Continuous
 62
     7
100
AcDbLine
 10
197.0560118027238
 20
430.6753693772671
 30
0.0
 11
195.1955534721583
 21
430.51260036438
 31
0.0
  0
LINE
  5
245
330
53
100
AcDbEntity
  8
0
  6
Continuous
 62
     7
100
AcDbLine
 10
184.1547090827187
 20
493.128340423423
 30
0.0
 11
185.9586383283468
 21
493.611701807992
 31
0.0
  0
LINE
  5
246
330
53
100
AcDbEntity
  8
0
  6
Continuous
 62
     7
100
AcDbLine
 10
195.3583224850431
 20
485.724430298925
 30
0.0
 11
195.1955534721563
 21
483.8639719683599
 31
0.0
  0
LINE
  5
247
330
53
100
AcDbEntity
  8
0
  6
Continuous
 62
     7
100
AcDbLine
 10
156.1983097095408
 20
498.0578079163749
 30
0.0
 11
157.2695009749332
 21
499.587627586883
 31
0.0
  0
LINE
  5
248
330
53
100
AcDbEntity
  8
0
  6
Continuous
 62
     7
100
AcDbLine
 10
169.5399171905051
 20
499.587627586883
 30
0.0
 11
170.6111084558961
 21
498.0578079163749
 31
0.0
  0
LINE
  5
249
330
53
100
AcDbEntity
  8
0
  6
Continuous
 62
     7
100
AcDbLine
 10
140.8507798370902
 20
493.611701807991
 30
0.0
 11
142.6547090827187
 21
493.1283404234221
 31
0.0
  0
LINE
  5
24A
330
53
100
AcDbEntity
  8
0
  6
Continuous
 62
     7
100
AcDbLine
 10
131.6138646932812
 20
483.8639719683599
 30
0.0
 11
131.4510956803943
 21
485.724430298925
 31
0.0
  0
LINE
  5
24B
330
53
100
AcDbEntity
  8
0
  6
Continuous
 62
     7
100
AcDbLine
 10
122.7148766367082
 20
470.5928550492099
 30
0.0
 11
124.4074653201028
 21
471.382122114383
 31
0.0
  0
LINE
  5
24C
330
53
100
AcDbEntity
  8
0
  6
Continuous
 62
     7
100
AcDbLine
 10
121.9047090827187
 20
457.188286166368
 30
0.0
 11
120.5841412216587
 21
458.508854027428
 31
0.0
  0
LINE
  5
24D
330
53
100
AcDbEntity
  8
0
  6
Continuous
 62
     7
100
AcDbLine
 10
131.6138646932812
 20
430.512600364377
 30
0.0
 11
129.7534063627152
 21
430.6753693772639
 31
0.0
  0
LINE
  5
24E
330
53
100
AcDbEntity
  8
0
  6
Continuous
 62
     7
100
AcDbLine
 10
123.6181982549302
 20
441.301861534957
 30
0.0
 11
124.4074653201033
 21
442.994450218353
 31
0.0
  0
LINE
  5
24F
330
53
100
AcDbEntity
  8
0
  6
PHANTOM
 62
     4
100
AcDbLine
 10
131.9047090827187
 20
255.560891592212
 30
0.0
 11
134.0047090827186
 21
257.851800683121
 31
0.0
  0
LINE
  5
250
330
53
100
AcDbEntity
  8
0
  6
Continuous
 62
     7
100
AcDbLine
 10
124.4016615088497
 20
266.901492053937
 30
0.0
 11
121.9047090827187
 21
266.820945201481
 31
0.0
  0
LINE
  5
251
330
53
100
AcDbEntity
  8
0
  6
Continuous
 62
     7
100
AcDbLine
 10
120.4380826773056
 20
256.820945201481
 30
0.0
 11
120.4380826773056
 21
263.820945201481
 31
0.0
  0
LINE
  5
252
330
53
100
AcDbEntity
  8
0
  6
Continuous
 62
     7
100
AcDbLine
 10
120.4380826773056
 20
256.820945201481
 30
0.0
 11
110.4047090827187
 21
256.820945201481
 31
0.0
  0
LINE
  5
253
330
53
100
AcDbEntity
  8
1
  6
Continuous
 62
     7
100
AcDbLine
 10
163.4047090827187
 20
267.320945201481
 30
0.0
 11
137.4047090827187
 21
267.320945201481
 31
0.0
  0
LINE
  5
254
330
53
100
AcDbEntity
  8
1
  6
Continuous
 62
     7
100
AcDbLine
 10
121.9047090827187
 20
256.820945201481
 30
0.0
 11
120.4380826773056
 21
256.820945201481
 31
0.0
  0
LINE
  5
255
330
53
100
AcDbEntity
  8
1
  6
Continuous
 62
     7
100
AcDbLine
 10
163.4047090827187
 20
249.820945201481
 30
0.0
 11
110.9047090827187
 21
249.820945201481
 31
0.0
  0
LINE
  5
256
330
53
100
AcDbEntity
  8
0
  6
Continuous
 62
     7
100
AcDbLine
 10
154.6684900390317
 20
256.820945201481
 30
0.0
 11
154.6684900390317
 21
264.320945201481
 31
0.0
  0
LINE
  5
257
330
53
100
AcDbEntity
  8
0
  6
Continuous
 62
     7
100
AcDbLine
 10
131.6138646932807
 20
256.820945201481
 30
0.0
 11
131.6138646932807
 21
267.1341437695641
 31
0.0
  0
LINE
  5
258
330
53
100
AcDbEntity
  8
0
  6
Continuous
 62
     7
100
AcDbLine
 10
156.1983097095406
 20
256.820945201481
 30
0.0
 11
156.1983097095406
 21
267.320945201481
 31
0.0
  0
LINE
  5
259
330
53
100
AcDbEntity
  8
0
  6
Continuous
 62
     7
100
AcDbLine
 10
129.4015992358696
 20
256.820945201481
 30
0.0
 11
129.4015992358696
 21
264.1341437695641
 31
0.0
  0
LINE
  5
25A
330
53
100
AcDbEntity
  8
0
  6
Continuous
 62
     7
100
AcDbLine
 10
123.6086067727506
 20
256.820945201481
 30
0.0
 11
123.6086067727506
 21
263.90157803569
 31
0.0
  0
LINE
  5
25B
330
53
100
AcDbEntity
  8
0
  6
Continuous
 62
     7
100
AcDbLine
 10
142.6547090827176
 20
256.820945201481
 30
0.0
 11
142.6547090827176
 21
267.3352376312949
 31
0.0
  0
LINE
  5
25C
330
53
100
AcDbEntity
  8
0
  6
Continuous
 62
     7
100
AcDbLine
 10
143.1380704672877
 20
256.820945201481
 30
0.0
 11
143.1380704672866
 21
264.3352376312949
 31
0.0
  0
LINE
  5
25D
330
53
100
AcDbEntity
  8
0
  6
Continuous
 62
     7
100
AcDbLine
 10
137.4047090827187
 20
267.320945201481
 30
0.0
 11
124.4016615088497
 21
266.901492053937
 31
0.0
  0
LINE
  5
25E
330
53
100
AcDbEntity
  8
0
  6
Continuous
 62
     7
100
AcDbLine
 10
121.9047090827187
 20
256.820945201481
 30
0.0
 11
121.9047090827187
 21
266.820945201481
 31
0.0
  0
LINE
  5
25F
330
53
100
AcDbEntity
  8
1
  6
Continuous
 62
     7
100
AcDbLine
 10
123.6086067727506
 20
256.820945201481
 30
0.0
 11
121.9047090827187
 21
256.820945201481
 31
0.0
  0
LINE
  5
260
330
53
100
AcDbEntity
  8
1
  6
Continuous
 62
     7
100
AcDbLine
 10
129.4015992358696
 20
256.820945201481
 30
0.0
 11
123.6086067727506
 21
256.820945201481
 31
0.0
  0
LINE
  5
261
330
53
100
AcDbEntity
  8
1
  6
Continuous
 62
     7
100
AcDbLine
 10
131.6138646932807
 20
256.820945201481
 30
0.0
 11
129.4015992358696
 21
256.820945201481
 31
0.0
  0
LINE
  5
262
330
53
100
AcDbEntity
  8
1
  6
Continuous
 62
     7
100
AcDbLine
 10
142.6547090827176
 20
256.820945201481
 30
0.0
 11
131.6138646932807
 21
256.820945201481
 31
0.0
  0
LINE
  5
263
330
53
100
AcDbEntity
  8
1
  6
Continuous
 62
     7
100
AcDbLine
 10
143.1380704672877
 20
256.820945201481
 30
0.0
 11
142.6547090827176
 21
256.820945201481
 31
0.0
  0
LINE
  5
264
330
53
100
AcDbEntity
  8
1
  6
Continuous
 62
     7
100
AcDbLine
 10
154.6684900390317
 20
256.820945201481
 30
0.0
 11
143.1380704672877
 21
256.820945201481
 31
0.0
  0
LINE
  5
265
330
53
100
AcDbEntity
  8
1
  6
Continuous
 62
     7
100
AcDbLine
 10
156.1983097095406
 20
256.820945201481
 30
0.0
 11
154.6684900390317
 21
256.820945201481
 31
0.0
  0
LINE
  5
266
330
53
100
AcDbEntity
  8
1
  6
Continuous
 62
     7
100
AcDbLine
 10
163.4047090827187
 20
256.820945201481
 30
0.0
 11
156.1983097095406
 21
256.820945201481
 31
0.0
  0
LINE
  5
267
330
53
100
AcDbEntity
  8
0
  6
Continuous
 62
     7
100
AcDbLine
 10
110.9047090827187
 20
249.820945201481
 30
0.0
 11
108.4047090827187
 21
249.820945201481
 31
0.0
  0
LINE
  5
268
330
53
100
AcDbEntity
  8
0
  6
Continuous
 62
     7
100
AcDbLine
 10
108.4047090827187
 20
249.820945201481
 30
0.0
 11
108.4047090827187
 21
254.820945201481
 31
0.0
  0
LINE
  5
269
330
53
100
AcDbEntity
  8
0
  6
PHANTOM
 62
     4
100
AcDbLine
 10
192.8047090827188
 20
257.851800683121
 30
0.0
 11
194.9047090827187
 21
255.560891592212
 31
0.0
  0
LINE
  5
26A
330
53
100
AcDbEntity
  8
0
  6
Continuous
 62
     7
100
AcDbLine
 10
204.9047090827187
 20
266.820945201481
 30
0.0
 11
202.4077566565877
 21
266.901492053937
 31
0.0
  0
LINE
  5
26B
330
53
100
AcDbEntity
  8
0
  6
Continuous
 62
     7
100
AcDbLine
 10
206.3713354881318
 20
263.820945201481
 30
0.0
 11
206.3713354881318
 21
256.820945201481
 31
0.0
  0
LINE
  5
26C
330
53
100
AcDbEntity
  8
0
  6
Continuous
 62
     7
100
AcDbLine
 10
216.4047090827187
 20
256.820945201481
 30
0.0
 11
206.3713354881318
 21
256.820945201481
 31
0.0
  0
LINE
  5
26D
330
53
100
AcDbEntity
  8
0
  6
Continuous
 62
     7
100
AcDbLine
 10
218.4047090827187
 20
249.820945201481
 30
0.0
 11
215.9047090827187
 21
249.820945201481
 31
0.0
  0
LINE
  5
26E
330
53
100
AcDbEntity
  8
0
  6
Continuous
 62
     7
100
AcDbLine
 10
218.4047090827187
 20
254.820945201481
 30
0.0
 11
218.4047090827187
 21
249.820945201481
 31
0.0
  0
LINE
  5
26F
330
53
100
AcDbEntity
  8
1
  6
Continuous
 62
     7
100
AcDbLine
 10
189.4047090827187
 20
267.320945201481
 30
0.0
 11
163.4047090827187
 21
267.320945201481
 31
0.0
  0
LINE
  5
270
330
53
100
AcDbEntity
  8
1
  6
Continuous
 62
     7
100
AcDbLine
 10
206.3713354881318
 20
256.820945201481
 30
0.0
 11
204.9047090827187
 21
256.820945201481
 31
0.0
  0
LINE
  5
271
330
53
100
AcDbEntity
  8
1
  6
Continuous
 62
     7
100
AcDbLine
 10
215.9047090827187
 20
249.820945201481
 30
0.0
 11
163.4047090827187
 21
249.820945201481
 31
0.0
  0
LINE
  5
272
330
53
100
AcDbEntity
  8
0
  6
Continuous
 62
     7
100
AcDbLine
 10
172.1409281264057
 20
264.320945201481
 30
0.0
 11
172.1409281264057
 21
256.820945201481
 31
0.0
  0
LINE
  5
273
330
53
100
AcDbEntity
  8
0
  6
Continuous
 62
     7
100
AcDbLine
 10
195.1955534721567
 20
267.1341437695641
 30
0.0
 11
195.1955534721567
 21
256.820945201481
 31
0.0
  0
LINE
  5
274
330
53
100
AcDbEntity
  8
0
  6
Continuous
 62
     7
100
AcDbLine
 10
170.6111084558968
 20
267.320945201481
 30
0.0
 11
170.6111084558968
 21
256.820945201481
 31
0.0
  0
LINE
  5
275
330
53
100
AcDbEntity
  8
0
  6
Continuous
 62
     7
100
AcDbLine
 10
197.4078189295679
 20
264.1341437695641
 30
0.0
 11
197.4078189295679
 21
256.820945201481
 31
0.0
  0
LINE
  5
276
330
53
100
AcDbEntity
  8
0
  6
Continuous
 62
     7
100
AcDbLine
 10
203.2008113926868
 20
263.90157803569
 30
0.0
 11
203.2008113926868
 21
256.820945201481
 31
0.0
  0
LINE
  5
277
330
53
100
AcDbEntity
  8
0
  6
Continuous
 62
     7
100
AcDbLine
 10
184.1547090827198
 20
267.3352376312949
 30
0.0
 11
184.1547090827198
 21
256.820945201481
 31
0.0
  0
LINE
  5
278
330
53
100
AcDbEntity
  8
0
  6
Continuous
 62
     7
100
AcDbLine
 10
183.6713476981509
 20
264.3352376312949
 30
0.0
 11
183.6713476981497
 21
256.820945201481
 31
0.0
  0
LINE
  5
279
330
53
100
AcDbEntity
  8
0
  6
Continuous
 62
     7
100
AcDbLine
 10
202.4077566565877
 20
266.901492053937
 30
0.0
 11
189.4047090827187
 21
267.320945201481
 31
0.0
  0
LINE
  5
27A
330
53
100
AcDbEntity
  8
0
  6
Continuous
 62
     7
100
AcDbLine
 10
204.9047090827187
 20
266.820945201481
 30
0.0
 11
204.9047090827187
 21
256.820945201481
 31
0.0
  0
LINE
  5
27B
330
53
100
AcDbEntity
  8
1
  6
Continuous
 62
     7
100
AcDbLine
 10
204.9047090827187
 20
256.820945201481
 30
0.0
 11
203.2008113926868
 21
256.820945201481
 31
0.0
  0
LINE
  5
27C
330
53
100
AcDbEntity
  8
1
  6
Continuous
 62
     7
100
AcDbLine
 10
203.2008113926868
 20
256.820945201481
 30
0.0
 11
197.4078189295679
 21
256.820945201481
 31
0.0
  0
LINE
  5
27D
330
53
100
AcDbEntity
  8
1
  6
Continuous
 62
     7
100
AcDbLine
 10
197.4078189295679
 20
256.820945201481
 30
0.0
 11
195.1955534721567
 21
256.820945201481
 31
0.0
  0
LINE
  5
27E
330
53
100
AcDbEntity
  8
1
  6
Continuous
 62
     7
100
AcDbLine
 10
195.1955534721567
 20
256.820945201481
 30
0.0
 11
184.1547090827198
 21
256.820945201481
 31
0.0
  0
LINE
  5
27F
330
53
100
AcDbEntity
  8
1
  6
Continuous
 62
     7
100
AcDbLine
 10
184.1547090827198
 20
256.820945201481
 30
0.0
 11
183.6713476981497
 21
256.820945201481
 31
0.0
  0
LINE
  5
280
330
53
100
AcDbEntity
  8
1
  6
Continuous
 62
     7
100
AcDbLine
 10
183.6713476981497
 20
256.820945201481
 30
0.0
 11
172.1409281264057
 21
256.820945201481
 31
0.0
  0
LINE
  5
281
330
53
100
AcDbEntity
  8
1
  6
Continuous
 62
     7
100
AcDbLine
 10
172.1409281264057
 20
256.820945201481
 30
0.0
 11
170.6111084558968
 21
256.820945201481
 31
0.0
  0
LINE
  5
282
330
53
100
AcDbEntity
  8
1
  6
Continuous
 62
     7
100
AcDbLine
 10
170.6111084558968
 20
256.820945201481
 30
0.0
 11
163.4047090827187
 21
256.820945201481
 31
0.0
  0
ARC
  5
283
330
53
100
AcDbEntity
  8
0
  6
Continuous
 62
     7
100
AcDbCircle
 10
163.4047090827192
 20
457.188286166368
 30
0.0
 40
54.99999999999908
100
AcDbArc
 50
19.65548131544111
 51
340.6648427228257
  0
ARC
  5
284
330
53
100
AcDbEntity
  8
0
  6
Continuous
 62
     7
100
AcDbCircle
 10
163.4047090827192
 20
457.188286166368
 30
0.0
 40
42.99999999999959
100
AcDbArc
 50
289.9999999999991
 51
297.7424728162987
  0
ARC
  5
285
330
53
100
AcDbEntity
  8
0
  6
Continuous
 62
     7
100
AcDbCircle
 10
183.1883847850047
 20
419.5737121862369
 30
0.0
 40
0.5000000000002622
100
AcDbArc
 50
290.0000000000688
 51
297.7424728163543
  0
ARC
  5
286
330
53
100
AcDbEntity
  8
0
  6
Continuous
 62
     7
100
AcDbCircle
 10
183.1883847850047
 20
419.5737121862369
 30
0.0
 40
0.4999999999998442
100
AcDbArc
 50
297.7424728163543
 51
344.9999999999587
  0
ARC
  5
287
330
53
100
AcDbEntity
  8
0
  6
Continuous
 62
     7
100
AcDbCircle
 10
163.4047090827192
 20
457.188286166368
 30
0.0
 40
42.99999999999996
100
AcDbArc
 50
282.2575271837
 51
289.9999999999991
  0
ARC
  5
288
330
53
100
AcDbEntity
  8
0
  6
Continuous
 62
     7
100
AcDbCircle
 10
172.4277163445802
 20
415.6571491731149
 30
0.0
 40
0.5000000000004753
100
AcDbArc
 50
282.2575271836734
 51
289.9999999999834
  0
ARC
  5
289
330
53
100
AcDbEntity
  8
0
  6
Continuous
 62
     7
100
AcDbCircle
 10
172.4277163445802
 20
415.6571491731149
 30
0.0
 40
0.4999999999998869
100
AcDbArc
 50
235.0000000000773
 51
282.2575271836734
  0
ARC
  5
28A
330
53
100
AcDbEntity
  8
0
  6
Continuous
 62
     7
100
AcDbCircle
 10
163.4047090827192
 20
457.188286166368
 30
0.0
 40
42.99999999999993
100
AcDbArc
 50
249.9999999999996
 51
257.7424728162988
  0
ARC
  5
28B
330
53
100
AcDbEntity
  8
0
  6
Continuous
 62
     7
100
AcDbCircle
 10
154.3817018208572
 20
415.6571491731149
 30
0.0
 40
0.5000000000008885
100
AcDbArc
 50
250.0000000000197
 51
257.7424728163393
  0
ARC
  5
28C
330
53
100
AcDbEntity
  8
0
  6
Continuous
 62
     7
100
AcDbCircle
 10
154.3817018208572
 20
415.6571491731149
 30
0.0
 40
0.5000000000004512
100
AcDbArc
 50
257.7424728163393
 51
304.9999999998853
  0
ARC
  5
28D
330
53
100
AcDbEntity
  8
0
  6
Continuous
 62
     7
100
AcDbCircle
 10
163.4047090827192
 20
457.188286166368
 30
0.0
 40
42.99999999999983
100
AcDbArc
 50
242.2575271837001
 51
249.9999999999996
  0
ARC
  5
28E
330
53
100
AcDbEntity
  8
0
  6
Continuous
 62
     7
100
AcDbCircle
 10
143.6210333804318
 20
419.5737121862369
 30
0.0
 40
0.499999999999434
100
AcDbArc
 50
242.257527183735
 51
250.0000000000352
  0
ARC
  5
28F
330
53
100
AcDbEntity
  8
0
  6
Continuous
 62
     7
100
AcDbCircle
 10
143.6210333804318
 20
419.5737121862369
 30
0.0
 40
0.4999999999991456
100
AcDbArc
 50
194.9999999999937
 51
242.257527183735
  0
ARC
  5
290
330
53
100
AcDbEntity
  8
0
  6
Continuous
 62
     7
100
AcDbCircle
 10
163.4047090827192
 20
457.188286166368
 30
0.0
 40
42.99999999999999
100
AcDbArc
 50
322.2575271837052
 51
330.0000000000041
  0
ARC
  5
291
330
53
100
AcDbEntity
  8
0
  6
Continuous
 62
     7
100
AcDbCircle
 10
163.4047090827192
 20
457.188286166368
 30
0.0
 40
42.99999999999942
100
AcDbArc
 50
330.0000000000041
 51
334.5176802306702
  0
ARC
  5
292
330
53
100
AcDbEntity
  8
0
  6
Continuous
 62
     7
100
AcDbCircle
 10
163.4047090827192
 20
457.188286166368
 30
0.0
 40
42.99999999999953
100
AcDbArc
 50
50.00000000000065
 51
57.74247281630009
  0
ARC
  5
293
330
53
100
AcDbEntity
  8
0
  6
Continuous
 62
     7
100
AcDbCircle
 10
186.0880478508991
 20
493.128738894847
 30
0.0
 40
0.4999999999988556
100
AcDbArc
 50
50.00000000006451
 51
57.74247281639848
  0
ARC
  5
294
330
53
100
AcDbEntity
  8
0
  6
Continuous
 62
     7
100
AcDbCircle
 10
186.0880478508991
 20
493.128738894847
 30
0.0
 40
0.499999999999137
100
AcDbArc
 50
57.74247281639848
 51
105.0000000001005
  0
ARC
  5
295
330
53
100
AcDbEntity
  8
0
  6
Continuous
 62
     7
100
AcDbCircle
 10
163.4047090827192
 20
457.188286166368
 30
0.0
 40
42.99999999999888
100
AcDbArc
 50
42.25752718370211
 51
50.00000000000065
  0
ARC
  5
296
330
53
100
AcDbEntity
  8
0
  6
Continuous
 62
     7
100
AcDbCircle
 10
194.8602251359967
 20
485.768008170299
 30
0.0
 40
0.4999999999991485
100
AcDbArc
 50
42.25752718367233
 51
49.99999999997559
  0
ARC
  5
297
330
53
100
AcDbEntity
  8
0
  6
Continuous
 62
     7
100
AcDbCircle
 10
194.8602251359967
 20
485.768008170299
 30
0.0
 40
0.5000000000005345
100
AcDbArc
 50
354.9999999999794
 51
42.25752718367233
  0
ARC
  5
298
330
53
100
AcDbEntity
  8
0
  6
Continuous
 62
     7
100
AcDbCircle
 10
163.4047090827192
 20
457.188286166368
 30
0.0
 40
43.0
100
AcDbArc
 50
90.00000000000064
 51
97.7424728162993
  0
ARC
  5
299
330
53
100
AcDbEntity
  8
0
  6
Continuous
 62
     7
100
AcDbCircle
 10
157.6790769970771
 20
499.300839368708
 30
0.0
 40
0.5
100
AcDbArc
 50
90.0000000000456
 51
97.74247281626927
  0
ARC
  5
29A
330
53
100
AcDbEntity
  8
0
  6
Continuous
 62
     7
100
AcDbCircle
 10
157.6790769970771
 20
499.300839368708
 30
0.0
 40
0.499999999999396
100
AcDbArc
 50
97.74247281626927
 51
145.0000000000095
  0
ARC
  5
29B
330
53
100
AcDbEntity
  8
0
  6
Continuous
 62
     7
100
AcDbCircle
 10
163.4047090827192
 20
457.188286166368
 30
0.0
 40
42.99999999999989
100
AcDbArc
 50
82.25752718370175
 51
90.00000000000064
  0
ARC
  5
29C
330
53
100
AcDbEntity
  8
0
  6
Continuous
 62
     7
100
AcDbCircle
 10
169.1303411683603
 20
499.300839368708
 30
0.0
 40
0.4999999999994228
100
AcDbArc
 50
82.25752718370813
 51
90.0
  0
ARC
  5
29D
330
53
100
AcDbEntity
  8
0
  6
Continuous
 62
     7
100
AcDbCircle
 10
169.1303411683603
 20
499.300839368708
 30
0.0
 40
0.4999999999999358
100
AcDbArc
 50
34.99999999993066
 51
82.25752718370813
  0
ARC
  5
29E
330
53
100
AcDbEntity
  8
0
  6
Continuous
 62
     7
100
AcDbCircle
 10
163.4047090827192
 20
457.188286166368
 30
0.0
 40
43.00000000000068
100
AcDbArc
 50
122.257527183702
 51
130.0000000000003
  0
ARC
  5
29F
330
53
100
AcDbEntity
  8
0
  6
Continuous
 62
     7
100
AcDbCircle
 10
140.7213703145392
 20
493.128738894847
 30
0.0
 40
0.5000000000000927
100
AcDbArc
 50
122.257527183775
 51
130.0000000000502
  0
ARC
  5
2A0
330
53
100
AcDbEntity
  8
0
  6
Continuous
 62
     7
100
AcDbCircle
 10
140.7213703145392
 20
493.128738894847
 30
0.0
 40
0.4999999999993926
100
AcDbArc
 50
75.00000000001386
 51
122.257527183775
  0
ARC
  5
2A1
330
53
100
AcDbEntity
  8
0
  6
Continuous
 62
     7
100
AcDbCircle
 10
163.4047090827192
 20
457.188286166368
 30
0.0
 40
43.00000000000016
100
AcDbArc
 50
130.0000000000003
 51
137.7424728162996
  0
ARC
  5
2A2
330
53
100
AcDbEntity
  8
0
  6
Continuous
 62
     7
100
AcDbCircle
 10
131.9491930294398
 20
485.768008170299
 30
0.0
 40
0.4999999999995821
100
AcDbArc
 50
130.0000000000144
 51
137.7424728163299
  0
ARC
  5
2A3
330
53
100
AcDbEntity
  8
0
  6
Continuous
 62
     7
100
AcDbCircle
 10
131.9491930294398
 20
485.768008170299
 30
0.0
 40
0.4999999999991696
100
AcDbArc
 50
137.7424728163299
 51
185.0000000000294
  0
ARC
  5
2A4
330
53
100
AcDbEntity
  8
0
  6
Continuous
 62
     7
100
AcDbCircle
 10
122.9261857675781
 20
470.139701155691
 30
0.0
 40
0.499999999999479
100
AcDbArc
 50
162.2575271836313
 51
169.9999999999432
  0
ARC
  5
2A5
330
53
100
AcDbEntity
  8
0
  6
Continuous
 62
     7
100
AcDbCircle
 10
122.9261857675781
 20
470.139701155691
 30
0.0
 40
0.5000000000003356
100
AcDbArc
 50
114.9999999999261
 51
162.2575271836313
  0
ARC
  5
2A6
330
53
100
AcDbEntity
  8
0
  6
Continuous
 62
     7
100
AcDbCircle
 10
163.4047090827192
 20
457.188286166368
 30
0.0
 40
43.00000000000133
100
AcDbArc
 50
170.0000000000003
 51
177.7424728162989
  0
ARC
  5
2A7
330
53
100
AcDbEntity
  8
0
  6
Continuous
 62
     7
100
AcDbCircle
 10
120.9376946122527
 20
458.8624074180209
 30
0.0
 40
0.5000000000004271
100
AcDbArc
 50
170.0000000000498
 51
177.7424728163089
  0
ARC
  5
2A8
330
53
100
AcDbEntity
  8
0
  6
Continuous
 62
     7
100
AcDbCircle
 10
120.9376946122527
 20
458.8624074180209
 30
0.0
 40
0.4999999999997391
100
AcDbArc
 50
177.7424728163089
 51
224.999999999909
  0
ARC
  5
2A9
330
53
100
AcDbEntity
  8
0
  6
Continuous
 62
     7
100
AcDbCircle
 10
163.4047090827192
 20
457.188286166368
 30
0.0
 40
43.00000000000043
100
AcDbArc
 50
162.2575271837008
 51
170.0000000000003
  0
ARC
  5
2AA
330
53
100
AcDbEntity
  8
0
  6
Continuous
 62
     7
100
AcDbCircle
 10
163.4047090827192
 20
457.188286166368
 30
0.0
 40
43.00000000000004
100
AcDbArc
 50
210.0
 51
217.7424728162983
  0
ARC
  5
2AB
330
53
100
AcDbEntity
  8
0
  6
Continuous
 62
     7
100
AcDbCircle
 10
129.7969842340897
 20
431.173466726309
 30
0.0
 40
0.5000000000002379
100
AcDbArc
 50
209.9999999999842
 51
217.7424728162367
  0
ARC
  5
2AC
330
53
100
AcDbEntity
  8
0
  6
Continuous
 62
     7
100
AcDbCircle
 10
129.7969842340897
 20
431.173466726309
 30
0.0
 40
0.4999999999993908
100
AcDbArc
 50
217.7424728162367
 51
264.9999999999147
  0
ARC
  5
2AD
330
53
100
AcDbEntity
  8
0
  6
Continuous
 62
     7
100
AcDbCircle
 10
163.4047090827192
 20
457.188286166368
 30
0.0
 40
43.00000000000039
100
AcDbArc
 50
202.2575271837001
 51
210.0
  0
ARC
  5
2AE
330
53
100
AcDbEntity
  8
0
  6
Continuous
 62
     7
100
AcDbCircle
 10
124.0713521484481
 20
441.090552404087
 30
0.0
 40
0.4999999999997639
100
AcDbArc
 50
202.2575271836361
 51
210.0000000000013
  0
ARC
  5
2AF
330
53
100
AcDbEntity
  8
0
  6
Continuous
 62
     7
100
AcDbCircle
 10
124.0713521484481
 20
441.090552404087
 30
0.0
 40
0.4999999999994633
100
AcDbArc
 50
155.0000000000148
 51
202.2575271836361
  0
ARC
  5
2B0
330
53
100
AcDbEntity
  8
0
  6
Continuous
 62
     7
100
AcDbCircle
 10
163.4047090827192
 20
457.188286166368
 30
0.0
 40
41.48074314443588
100
AcDbArc
 50
26.48670128433005
 51
333.5132987156699
  0
SPLINE
  5
2B1
330
53
100
AcDbEntity
  8
0
  6
Continuous
 62
     7
100
AcDbSpline
210
0.0
220
0.0
230
1.0
 70
     8
 71
     3
 72
    27
 73
    23
 74
    21
 42
0.000000001
 43
0.0000000001
 44
0.00000001
 40
0.0
 40
0.0
 40
0.0
 40
0.0
 40
0.1303644843317835
 40
0.2607875283899877
 40
0.5185598017343246
 40
0.7763433617924886
 40
1.025286040413773
 40
1.274253968492775
 40
1.509035554147247
 40
1.743862755315489
 40
1.960028982816639
 40
2.176273918676205
 40
2.370722094721917
 40
2.565305335551314
 40
2.73693658043023
 40
2.90879698378842
 40
3.059422157919791
 40
3.210396262146518
 40
3.345711467904887
 40
3.48133675536681
 40
3.546542661595373
 40
3.611196943950186
 40
3.611196943950186
 40
3.611196943950186
 40
3.611196943950186
 10
120.4380826773056
 20
263.820945201467
 30
0.0
 10
120.4383507270125
 20
263.8644009001174
 30
0.0
 10
120.4388869501216
 20
263.9513318176723
 30
0.0
 10
120.4445494541329
 20
264.1241094946307
 30
0.0
 10
120.4582504215287
 20
264.3390644599271
 30
0.0
 10
120.4854769993563
 20
264.5925245391239
 30
0.0
 10
120.5236348402482
 20
264.8415995270315
 30
0.0
 10
120.5716730201783
 20
265.0811583661764
 30
0.0
 10
120.630376904396
 20
265.3134770972119
 30
0.0
 10
120.6977158862412
 20
265.5320506069854
 30
0.0
 10
120.7752939292808
 20
265.7406199584212
 30
0.0
 10
120.8598771704638
 20
265.9318617049668
 30
0.0
 10
120.9541400264201
 20
266.1104227173294
 30
0.0
 10
121.0535641569434
 20
266.26893218576
 30
0.0
 10
121.1619327632
 20
266.4121370089516
 30
0.0
 10
121.2737591749414
 20
266.5335026570123
 30
0.0
 10
121.3934345506509
 20
266.6369511827604
 30
0.0
 10
121.5154937727023
 20
266.7172493738491
 30
0.0
 10
121.6433603485925
 20
266.7772245423284
 30
0.0
 10
121.7521307328092
 20
266.8063851310962
 30
0.0
 10
121.8398395992082
 20
266.8192181341545
 30
0.0
 10
121.883147242484
 20
266.8203711483631
 30
0.0
 10
121.9047090827746
 20
266.820945201481
 30
0.0
 11
120.4380826773056
 21
263.820945201467
 31
0.0
 11
120.4394644411639
 21
263.9513023529499
 31
0.0
 11
120.4436097327406
 21
264.0816595044325
 31
0.0
 11
120.4601066208312
 21
264.3389033529862
 31
0.0
 11
120.487743242943
 21
264.5952011894283
 31
0.0
 11
120.525509274906
 21
264.8412625315054
 31
0.0
 11
120.5746700375575
 21
265.0853286057793
 31
0.0
 11
120.6323098582816
 21
265.3129248359897
 31
0.0
 11
120.7017581471216
 21
265.5372477049779
 31
0.0
 11
120.7773017183818
 21
265.7397841380298
 31
0.0
 11
120.8651869457944
 21
265.9373646508157
 31
0.0
 11
120.9562181090126
 21
266.1091884571743
 31
0.0
 11
121.0601226129466
 21
266.2737074274875
 31
0.0
 11
121.1640232898461
 21
266.4103161148886
 31
0.0
 11
121.2809877487006
 21
266.5362339987991
 31
0.0
 11
121.3953472378139
 21
266.6342638422328
 31
0.0
 11
121.521754940976
 21
266.7168124493803
 31
0.0
 11
121.6446529579785
 21
266.7734364908653
 31
0.0
 11
121.7755390668549
 21
266.8089758300548
 31
0.0
 11
121.8401240748147
 21
266.817952858627
 31
0.0
 11
121.9047090827746
 21
266.820945201481
 31
0.0
  0
SPLINE
  5
2B2
330
53
100
AcDbEntity
  8
0
  6
Continuous
 62
     7
100
AcDbSpline
210
0.0
220
0.0
230
1.0
 70
     8
 71
     3
 72
    27
 73
    23
 74
    21
 42
0.000000001
 43
0.0000000001
 44
0.00000001
 40
0.0
 40
0.0
 40
0.0
 40
0.0
 40
0.1302743515444137
 40
0.2605659960490904
 40
0.5174550793625872
 40
0.7743482994222581
 40
1.020361100489625
 40
1.266383313214144
 40
1.494734721680788
 40
1.72310543981457
 40
1.927729784703815
 40
2.132386728121133
 40
2.308312809412448
 40
2.484330254347152
 40
2.628222149905016
 40
2.77223132484291
 40
2.883698990725073
 40
2.99586227319657
 40
3.080169960096506
 40
3.165774081402056
 40
3.200016195502837
 40
3.233185455968105
 40
3.233185455968105
 40
3.233185455968105
 40
3.233185455968105
 10
123.6086067727506
 20
263.90157803569
 30
0.0
 10
123.6087524994572
 20
263.9450030720272
 30
0.0
 10
123.6090439662015
 20
264.0318589090883
 30
0.0
 10
123.6121135725668
 20
264.2043217369434
 30
0.0
 10
123.6195623295301
 20
264.4189028952958
 30
0.0
 10
123.6343167273851
 20
264.6717635804829
 30
0.0
 10
123.6550560907301
 20
264.9205680710836
 30
0.0
 10
123.6810554360197
 20
265.159315861956
 30
0.0
 10
123.712953231699
 20
265.3914110913698
 30
0.0
 10
123.7492998171199
 20
265.6088838337827
 30
0.0
 10
123.7914307728286
 20
265.8172539425099
 30
0.0
 10
123.8368607825674
 20
266.0070214660598
 30
0.0
 10
123.8880066589765
 20
266.1854164445286
 30
0.0
 10
123.9409196179857
 20
266.3421059237676
 30
0.0
 10
123.9996217754701
 20
266.4852519471908
 30
0.0
 10
124.0583813564617
 20
266.604927575885
 30
0.0
 10
124.1233220972325
 20
266.709052368943
 30
0.0
 10
124.1868151864255
 20
266.7901138537995
 30
0.0
 10
124.2574745624192
 20
266.8533147510429
 30
0.0
 10
124.3191113057305
 20
266.8839481658591
 30
0.0
 10
124.3681362401493
 20
266.8988855950586
 30
0.0
 10
124.3906056199462
 20
266.9006324975331
 30
0.0
 10
124.4016615088247
 20
266.901492053936
 30
0.0
 11
123.6086067727506
 21
263.90157803569
 31
0.0
 11
123.6093574700073
 21
264.031850215231
 31
0.0
 11
123.611609561775
 21
264.162122394772
 31
0.0
 11
123.6205710626901
 21
264.4188551209097
 31
0.0
 11
123.6356136655559
 21
264.6753075465385
 31
0.0
 11
123.6560889180874
 21
264.9204668056136
 31
0.0
 11
123.6828797486283
 21
265.165025961098
 31
0.0
 11
123.7140447621446
 21
265.3912406990265
 31
0.0
 11
123.751943486113
 21
265.6164447655718
 31
0.0
 11
123.7926111143986
 21
265.8169871962329
 31
0.0
 11
123.8406604472242
 21
266.0159236837258
 31
0.0
 11
123.8893019823605
 21
266.1849916791915
 31
0.0
 11
123.9462674628325
 21
266.3515361924279
 31
0.0
 11
124.0010881092655
 21
266.4845759393812
 31
0.0
 11
124.0655648200704
 21
266.6133447094148
 31
0.0
 11
124.1248407766408
 21
266.7077449288266
 31
0.0
 11
124.1953960229696
 21
266.7949375833417
 31
0.0
 11
124.2593005960077
 21
266.8499284141965
 31
0.0
 11
124.3357480682899
 21
266.8884491800461
 31
0.0
 11
124.3687047885575
 21
266.8977430915235
 31
0.0
 11
124.4016615088247
 21
266.901492053936
 31
0.0
  0
SPLINE
  5
2B3
330
53
100
AcDbEntity
  8
0
  6
Continuous
 62
     7
100
AcDbSpline
210
0.0
220
0.0
230
1.0
 70
     8
 71
     3
 72
    27
 73
    23
 74
    21
 42
0.000000001
 43
0.0000000001
 44
0.00000001
 40
0.0
 40
0.0
 40
0.0
 40
0.0
 40
0.1305262069084463
 40
0.2611867165610937
 40
0.5205488879726745
 40
0.7799262777746873
 40
1.034076817308671
 40
1.288259080373427
 40
1.534219952891415
 40
1.780231376349196
 40
2.015770088258341
 40
2.251380657022903
 40
2.475314939422009
 40
2.699342634842799
 40
2.911820773166041
 40
3.124406995646109
 40
3.327096423141566
 40
3.529888465101801
 40
3.725953340609525
 40
3.922083036767794
 40
4.115821909357317
 40
4.309560780284286
 40
4.309560780284286
 40
4.309560780284286
 40
4.309560780284286
 10
129.4015992358696
 20
264.13414376955
 30
0.0
 10
129.4020049769104
 20
264.1776545625418
 30
0.0
 10
129.4028168902526
 20
264.2647209179967
 30
0.0
 10
129.4114319190243
 20
264.4380621131231
 30
0.0
 10
129.4321687799253
 20
264.6536833028108
 30
0.0
 10
129.4735961728965
 20
264.908152668626
 30
0.0
 10
129.5313646012582
 20
265.1576411076736
 30
0.0
 10
129.6045355822922
 20
265.3984017405577
 30
0.0
 10
129.6933983342668
 20
265.6309212524595
 30
0.0
 10
129.7961663916312
 20
265.8508232224006
 30
0.0
 10
129.9135594465124
 20
266.0593306732819
 30
0.0
 10
130.0429367214214
 20
266.2518540742376
 30
0.0
 10
130.1854586261063
 20
266.4299793162276
 30
0.0
 10
130.3377569672699
 20
266.5893690353677
 30
0.0
 10
130.5012432857742
 20
266.7315779565351
 30
0.0
 10
130.6721582268038
 20
266.8529228243406
 30
0.0
 10
130.8517460908178
 20
266.9546590140101
 30
0.0
 10
131.036354486007
 20
267.0339495293246
 30
0.0
 10
131.2265271071392
 20
267.0918641836992
 30
0.0
 10
131.4192001317663
 20
267.1259389801041
 30
0.0
 10
131.6139832653349
 20
267.1390771174683
 30
0.0
 10
131.742832446122
 20
267.1280665673021
 30
0.0
 10
131.8072570358807
 20
267.122561285555
 30
0.0
 11
129.4015992358696
 21
264.13414376955
 31
0.0
 11
129.4036932357553
 21
264.2646531750574
 31
0.0
 11
129.4099752354125
 21
264.3951625805656
 31
0.0
 11
129.4349781706718
 21
264.6533167762402
 31
0.0
 11
129.4767122828254
 21
264.909314616321
 31
0.0
 11
129.5341269696875
 21
265.1568950082948
 31
0.0
 11
129.6081864752053
 21
265.4000488948841
 31
0.0
 11
129.6961179484139
 21
265.6297548088633
 31
0.0
 11
129.800464981233
 21
265.8525401704188
 31
0.0
 11
129.9161900815558
 21
266.0576893504812
 31
0.0
 11
130.0478115421352
 21
266.2531071883643
 31
0.0
 11
130.1879137290875
 21
266.4278010353726
 31
0.0
 11
130.3428656384995
 21
266.5895981745381
 31
0.0
 11
130.503382254056
 21
266.7288151834111
 31
0.0
 11
130.6768441869072
 21
266.8517129459344
 31
0.0
 11
130.8533704309956
 21
266.9513196193389
 31
0.0
 11
131.0397320637798
 21
267.0312818253929
 31
0.0
 11
131.2274087035474
 21
267.0880173054924
 31
0.0
 11
131.4204723506803
 21
267.1225612855548
 31
0.0
 11
131.6138646932806
 21
267.1341437695639
 31
0.0
 11
131.8072570358807
 21
267.122561285555
 31
0.0
  0
SPLINE
  5
2B4
330
53
100
AcDbEntity
  8
0
  6
Continuous
 62
     7
100
AcDbSpline
210
0.0
220
0.0
230
1.0
 70
     8
 71
     3
 72
    25
 73
    21
 74
    19
 42
0.000000001
 43
0.0000000001
 44
0.00000001
 40
0.0
 40
0.0
 40
0.0
 40
0.0
 40
0.0665649627127506
 40
0.1301467868534805
 40
0.2285016045104607
 40
0.3265175881555308
 40
0.4619356270068351
 40
0.5973422869779803
 40
0.7680008744697743
 40
0.9385997025955608
 40
1.140020021070422
 40
1.341432739129834
 40
1.568038429314573
 40
1.794635096345133
 40
2.039860414584511
 40
2.285082374984357
 40
2.541736156003369
 40
2.798388289692689
 40
2.928644743496573
 40
3.058894876410292
 40
3.058894876410292
 40
3.058894876410292
 40
3.058894876410292
 10
142.6987719746217
 20
267.320945201481
 30
0.0
 10
142.7167996324871
 20
267.3076917844884
 30
0.0
 10
142.7520470396649
 20
267.2817789191465
 30
0.0
 10
142.7938016876774
 20
267.2167051780409
 30
0.0
 10
142.8281536366775
 20
267.1372496668874
 30
0.0
 10
142.8672481988363
 20
267.0336903246154
 30
0.0
 10
142.9024106635736
 20
266.9157890493156
 30
0.0
 10
142.9377910097451
 20
266.772908029814
 30
0.0
 10
142.9693272642731
 20
266.617137972851
 30
0.0
 10
143.0002348975245
 20
266.4388888145305
 30
0.0
 10
143.0276123679515
 20
266.249691003268
 30
0.0
 10
143.0530781677404
 20
266.0414158864167
 30
0.0
 10
143.0750004621523
 20
265.8242994744185
 30
0.0
 10
143.0942872549747
 20
265.592279965133
 30
0.0
 10
143.1099906852643
 20
265.3537703695814
 30
0.0
 10
143.1225318417495
 20
265.1050436392622
 30
0.0
 10
143.131446401627
 20
264.8523487409046
 30
0.0
 10
143.1359511204249
 20
264.6378682822788
 30
0.0
 10
143.1378060832402
 20
264.4654901467916
 30
0.0
 10
143.1379823369123
 20
264.3786544341248
 30
0.0
 10
143.1380704672866
 20
264.3352376312949
 30
0.0
 11
142.6987719746217
 21
267.320945201481
 31
0.0
 11
142.7498557020644
 21
267.2782679572429
 31
0.0
 11
142.7861846937346
 21
267.2260869974328
 31
0.0
 11
142.8274931021625
 21
267.1368273457857
 31
0.0
 11
142.8619152308824
 21
267.045054528152
 31
0.0
 11
142.9013830164862
 21
266.9155155799979
 31
0.0
 11
142.9341284818309
 21
266.7841279929737
 31
0.0
 11
142.9685454972364
 21
266.6169758990934
 31
0.0
 11
142.9977589059793
 21
266.4488969388539
 31
0.0
 11
143.0268790105884
 21
266.2495927387766
 31
0.0
 11
143.0513983791229
 21
266.0496780481267
 31
0.0
 11
143.0743351745706
 21
265.8242361660063
 31
0.0
 11
143.0931509595578
 21
265.5984220483646
 31
0.0
 11
143.1093637288409
 21
265.3537332607141
 31
0.0
 11
143.1217367726004
 21
265.108823649548
 31
0.0
 11
143.1308365006108
 21
264.8523312358934
 31
0.0
 11
143.1362548133094
 21
264.5957363028654
 31
0.0
 11
143.1376165537923
 21
264.46548696708
 31
0.0
 11
143.1380704672866
 21
264.3352376312949
 31
0.0
  0
SPLINE
  5
2B5
330
53
100
AcDbEntity
  8
0
  6
Continuous
 62
     7
100
AcDbSpline
210
0.0
220
0.0
230
1.0
 70
     8
 71
     3
 72
    27
 73
    23
 74
    21
 42
0.000000001
 43
0.0000000001
 44
0.00000001
 40
0.0
 40
0.0
 40
0.0
 40
0.0
 40
0.1303757190238224
 40
0.2608151887814383
 40
0.5186976856776678
 40
0.7765921147412502
 40
1.025898539343026
 40
1.275231527462886
 40
1.510803964696739
 40
1.746423965856737
 40
1.963987528654971
 40
2.181631973062431
 40
2.378266471039209
 40
2.575036655187683
 40
2.749808626580046
 40
2.924802905109766
 40
3.079602123227139
 40
3.234720768460166
 40
3.375090841316926
 40
3.515733679748879
 40
3.650862626804765
 40
3.785991567717967
 40
3.785991567717967
 40
3.785991567717967
 40
3.785991567717967
 10
154.6684900390317
 20
264.320945201509
 30
0.0
 10
154.6687697052781
 20
264.3644047242929
 30
0.0
 10
154.669329180094
 20
264.4513450204968
 30
0.0
 10
154.6752391897239
 20
264.6241619006064
 30
0.0
 10
154.6895338606926
 20
264.8391633380577
 30
0.0
 10
154.7179512819493
 20
265.0926962215199
 30
0.0
 10
154.7577637348946
 20
265.341802872143
 30
0.0
 10
154.8079090805437
 20
265.5814551010345
 30
0.0
 10
154.8691594629911
 20
265.8137955994902
 30
0.0
 10
154.9394688563291
 20
266.0324849371785
 30
0.0
 10
155.0204138845952
 20
266.2410647186238
 30
0.0
 10
155.1087597950449
 20
266.432439262887
 30
0.0
 10
155.2071153879935
 20
266.6109914778517
 30
0.0
 10
155.311006980456
 20
266.7696235464404
 30
0.0
 10
155.4240723822201
 20
266.9127771261562
 30
0.0
 10
155.5409429960011
 20
267.0341850284116
 30
0.0
 10
155.6657490129786
 20
267.1374924672463
 30
0.0
 10
155.7931619377251
 20
267.2176876654524
 30
0.0
 10
155.9263795391062
 20
267.2774181637807
 30
0.0
 10
156.0611931948928
 20
267.3121092314439
 30
0.0
 10
156.1984776552276
 20
267.3260862734893
 30
0.0
 10
156.2881007191928
 20
267.31471495062
 30
0.0
 10
156.3329122499297
 20
267.309029283892
 30
0.0
 11
154.6684900390317
 21
264.320945201509
 31
0.0
 11
154.6699318043502
 21
264.451312939002
 31
0.0
 11
154.6742571003041
 21
264.581680676495
 31
0.0
 11
154.6914705506311
 21
264.8389880399642
 31
0.0
 11
154.7203004153168
 21
265.0952659661377
 31
0.0
 11
154.7597159692033
 21
265.3414368568989
 31
0.0
 11
154.8109911601513
 21
265.5854405325917
 31
0.0
 11
154.8711662703398
 21
265.813197704349
 31
0.0
 11
154.9435885337125
 21
266.0374114432142
 31
0.0
 11
155.0224878120165
 21
266.2401645140095
 31
0.0
 11
155.1141145344524
 21
266.43758195975
 31
0.0
 11
155.2092448708647
 21
266.6096730543753
 31
0.0
 11
155.3175330595369
 21
266.7739660046453
 31
0.0
 11
155.4261878185147
 21
266.9108578790392
 31
0.0
 11
155.5480119340344
 21
267.0364838409672
 31
0.0
 11
155.6676446472289
 21
267.1347223861995
 31
0.0
 11
155.7991668674978
 21
267.2169641003225
 31
0.0
 11
155.9275939394047
 21
267.273623119016
 31
0.0
 11
156.0637071691515
 21
267.3090292838915
 31
0.0
 11
156.1983097095406
 21
267.3209452014814
 31
0.0
 11
156.3329122499297
 21
267.309029283892
 31
0.0
  0
SPLINE
  5
2B6
330
53
100
AcDbEntity
  8
0
  6
Continuous
 62
     7
100
AcDbSpline
210
0.0
220
0.0
230
1.0
 70
     8
 71
     3
 72
    27
 73
    23
 74
    21
 42
0.000000001
 43
0.0000000001
 44
0.00000001
 40
0.0
 40
0.0
 40
0.0
 40
0.0
 40
0.1303644843317835
 40
0.2607875283899877
 40
0.5185598017343246
 40
0.7763433617924886
 40
1.025286040413773
 40
1.274253968492775
 40
1.509035554147247
 40
1.743862755315489
 40
1.960028982816639
 40
2.176273918676205
 40
2.370722094721917
 40
2.565305335551314
 40
2.73693658043023
 40
2.90879698378842
 40
3.059422157919791
 40
3.210396262146518
 40
3.345711467904887
 40
3.48133675536681
 40
3.546542661595373
 40
3.611196943950186
 40
3.611196943950186
 40
3.611196943950186
 40
3.611196943950186
 10
120.4380826773056
 20
263.820945201467
 30
0.0
 10
120.4383507270125
 20
263.8644009001174
 30
0.0
 10
120.4388869501216
 20
263.9513318176723
 30
0.0
 10
120.4445494541329
 20
264.1241094946307
 30
0.0
 10
120.4582504215287
 20
264.3390644599271
 30
0.0
 10
120.4854769993563
 20
264.5925245391239
 30
0.0
 10
120.5236348402482
 20
264.8415995270315
 30
0.0
 10
120.5716730201783
 20
265.0811583661764
 30
0.0
 10
120.630376904396
 20
265.3134770972119
 30
0.0
 10
120.6977158862412
 20
265.5320506069854
 30
0.0
 10
120.7752939292808
 20
265.7406199584212
 30
0.0
 10
120.8598771704638
 20
265.9318617049668
 30
0.0
 10
120.9541400264201
 20
266.1104227173294
 30
0.0
 10
121.0535641569434
 20
266.26893218576
 30
0.0
 10
121.1619327632
 20
266.4121370089516
 30
0.0
 10
121.2737591749414
 20
266.5335026570123
 30
0.0
 10
121.3934345506509
 20
266.6369511827604
 30
0.0
 10
121.5154937727023
 20
266.7172493738491
 30
0.0
 10
121.6433603485925
 20
266.7772245423284
 30
0.0
 10
121.7521307328092
 20
266.8063851310962
 30
0.0
 10
121.8398395992082
 20
266.8192181341545
 30
0.0
 10
121.883147242484
 20
266.8203711483631
 30
0.0
 10
121.9047090827746
 20
266.820945201481
 30
0.0
 11
120.4380826773056
 21
263.820945201467
 31
0.0
 11
120.4394644411639
 21
263.9513023529499
 31
0.0
 11
120.4436097327406
 21
264.0816595044325
 31
0.0
 11
120.4601066208312
 21
264.3389033529862
 31
0.0
 11
120.487743242943
 21
264.5952011894283
 31
0.0
 11
120.525509274906
 21
264.8412625315054
 31
0.0
 11
120.5746700375575
 21
265.0853286057793
 31
0.0
 11
120.6323098582816
 21
265.3129248359897
 31
0.0
 11
120.7017581471216
 21
265.5372477049779
 31
0.0
 11
120.7773017183818
 21
265.7397841380298
 31
0.0
 11
120.8651869457944
 21
265.9373646508157
 31
0.0
 11
120.9562181090126
 21
266.1091884571743
 31
0.0
 11
121.0601226129466
 21
266.2737074274875
 31
0.0
 11
121.1640232898461
 21
266.4103161148886
 31
0.0
 11
121.2809877487006
 21
266.5362339987991
 31
0.0
 11
121.3953472378139
 21
266.6342638422328
 31
0.0
 11
121.521754940976
 21
266.7168124493803
 31
0.0
 11
121.6446529579785
 21
266.7734364908653
 31
0.0
 11
121.7755390668549
 21
266.8089758300548
 31
0.0
 11
121.8401240748147
 21
266.817952858627
 31
0.0
 11
121.9047090827746
 21
266.820945201481
 31
0.0
  0
SPLINE
  5
2B7
330
53
100
AcDbEntity
  8
0
  6
Continuous
 62
     7
100
AcDbSpline
210
0.0
220
0.0
230
1.0
 70
     8
 71
     3
 72
    27
 73
    23
 74
    21
 42
0.000000001
 43
0.0000000001
 44
0.00000001
 40
0.0
 40
0.0
 40
0.0
 40
0.0
 40
0.1303644843317835
 40
0.2607875283899877
 40
0.5185598017343274
 40
0.7763433617924853
 40
1.025286040413778
 40
1.274253968492766
 40
1.509035554147249
 40
1.743862755315487
 40
1.960028982816641
 40
2.176273918676196
 40
2.370722094721888
 40
2.5653053355513
 40
2.736936580430233
 40
2.908796983788394
 40
3.059422157919755
 40
3.210396262146505
 40
3.345711467904862
 40
3.481336755366756
 40
3.546542661595263
 40
3.61119694395019
 40
3.61119694395019
 40
3.61119694395019
 40
3.61119694395019
 10
206.3713354881318
 20
263.820945201467
 30
0.0
 10
206.3710674384247
 20
263.8644009001174
 30
0.0
 10
206.3705312153159
 20
263.9513318176723
 30
0.0
 10
206.3648687113044
 20
264.1241094946305
 30
0.0
 10
206.3511677439088
 20
264.3390644599271
 30
0.0
 10
206.3239411660812
 20
264.5925245391239
 30
0.0
 10
206.285783325189
 20
264.8415995270315
 30
0.0
 10
206.2377451452592
 20
265.0811583661765
 30
0.0
 10
206.1790412610414
 20
265.3134770972118
 30
0.0
 10
206.1117022791962
 20
265.5320506069854
 30
0.0
 10
206.0341242361565
 20
265.7406199584212
 30
0.0
 10
205.9495409949735
 20
265.9318617049668
 30
0.0
 10
205.8552781390174
 20
266.1104227173294
 30
0.0
 10
205.755854008494
 20
266.2689321857599
 30
0.0
 10
205.6474854022374
 20
266.4121370089516
 30
0.0
 10
205.5356589904959
 20
266.5335026570123
 30
0.0
 10
205.4159836147866
 20
266.6369511827604
 30
0.0
 10
205.2939243927351
 20
266.7172493738491
 30
0.0
 10
205.1660578168449
 20
266.7772245423285
 30
0.0
 10
205.0572874326284
 20
266.8063851310962
 30
0.0
 10
204.9695785662292
 20
266.8192181341545
 30
0.0
 10
204.9262709229534
 20
266.8203711483631
 30
0.0
 10
204.9047090826628
 20
266.820945201481
 30
0.0
 11
206.3713354881318
 21
263.820945201467
 31
0.0
 11
206.3699537242735
 21
263.9513023529499
 31
0.0
 11
206.3658084326968
 21
264.0816595044325
 31
0.0
 11
206.3493115446062
 21
264.3389033529862
 31
0.0
 11
206.3216749224944
 21
264.5952011894283
 31
0.0
 11
206.2839088905314
 21
264.8412625315054
 31
0.0
 11
206.2347481278799
 21
265.0853286057793
 31
0.0
 11
206.1771083071557
 21
265.3129248359897
 31
0.0
 11
206.1076600183158
 21
265.5372477049779
 31
0.0
 11
206.0321164470556
 21
265.7397841380298
 31
0.0
 11
205.944231219643
 21
265.9373646508157
 31
0.0
 11
205.8532000564249
 21
266.1091884571743
 31
0.0
 11
205.7492955524908
 21
266.2737074274875
 31
0.0
 11
205.6453948755913
 21
266.4103161148886
 31
0.0
 11
205.5284304167369
 21
266.5362339987991
 31
0.0
 11
205.4140709276235
 21
266.6342638422328
 31
0.0
 11
205.2876632244615
 21
266.7168124493803
 31
0.0
 11
205.1647652074589
 21
266.7734364908653
 31
0.0
 11
205.0338790985825
 21
266.8089758300548
 31
0.0
 11
204.9692940906228
 21
266.817952858627
 31
0.0
 11
204.9047090826628
 21
266.820945201481
 31
0.0
  0
SPLINE
  5
2B8
330
53
100
AcDbEntity
  8
0
  6
Continuous
 62
     7
100
AcDbSpline
210
0.0
220
0.0
230
1.0
 70
     8
 71
     3
 72
    27
 73
    23
 74
    21
 42
0.000000001
 43
0.0000000001
 44
0.00000001
 40
0.0
 40
0.0
 40
0.0
 40
0.0
 40
0.1302743515444136
 40
0.2605659960490896
 40
0.5174550793625883
 40
0.7743482994222608
 40
1.020361100489624
 40
1.266383313214144
 40
1.494734721680786
 40
1.723105439814568
 40
1.927729784703811
 40
2.132386728121129
 40
2.308312809412456
 40
2.484330254347159
 40
2.628222149905024
 40
2.772231324842918
 40
2.883698990725073
 40
2.995862273196543
 40
3.080169960096468
 40
3.165774081402056
 40
3.200016195502865
 40
3.233185455968133
 40
3.233185455968133
 40
3.233185455968133
 40
3.233185455968133
 10
203.2008113926868
 20
263.90157803569
 30
0.0
 10
203.2006656659802
 20
263.9450030720272
 30
0.0
 10
203.2003741992358
 20
264.0318589090883
 30
0.0
 10
203.1973045928708
 20
264.2043217369435
 30
0.0
 10
203.1898558359072
 20
264.4189028952959
 30
0.0
 10
203.1751014380523
 20
264.6717635804831
 30
0.0
 10
203.1543620747073
 20
264.9205680710834
 30
0.0
 10
203.1283627294177
 20
265.1593158619562
 30
0.0
 10
203.0964649337384
 20
265.3914110913697
 30
0.0
 10
203.0601183483176
 20
265.6088838337827
 30
0.0
 10
203.0179873926089
 20
265.8172539425099
 30
0.0
 10
202.97255738287
 20
266.0070214660599
 30
0.0
 10
202.9214115064609
 20
266.1854164445286
 30
0.0
 10
202.8684985474517
 20
266.3421059237676
 30
0.0
 10
202.8097963899674
 20
266.4852519471908
 30
0.0
 10
202.7510368089756
 20
266.604927575885
 30
0.0
 10
202.686096068205
 20
266.709052368943
 30
0.0
 10
202.6226029790119
 20
266.7901138537994
 30
0.0
 10
202.5519436030182
 20
266.853314751043
 30
0.0
 10
202.490306859707
 20
266.8839481658591
 30
0.0
 10
202.4412819252881
 20
266.8988855950586
 30
0.0
 10
202.4188125454912
 20
266.9006324975332
 30
0.0
 10
202.4077566566127
 20
266.901492053936
 30
0.0
 11
203.2008113926868
 21
263.90157803569
 31
0.0
 11
203.2000606954301
 21
264.031850215231
 31
0.0
 11
203.1978086036624
 21
264.162122394772
 31
0.0
 11
203.1888471027473
 21
264.4188551209097
 31
0.0
 11
203.1738044998814
 21
264.6753075465385
 31
0.0
 11
203.1533292473501
 21
264.9204668056136
 31
0.0
 11
203.1265384168092
 21
265.165025961098
 31
0.0
 11
203.0953734032928
 21
265.3912406990265
 31
0.0
 11
203.0574746793244
 21
265.6164447655718
 31
0.0
 11
203.0168070510388
 21
265.8169871962329
 31
0.0
 11
202.9687577182132
 21
266.0159236837258
 31
0.0
 11
202.9201161830769
 21
266.1849916791915
 31
0.0
 11
202.8631507026049
 21
266.3515361924279
 31
0.0
 11
202.8083300561719
 21
266.4845759393812
 31
0.0
 11
202.743853345367
 21
266.6133447094148
 31
0.0
 11
202.6845773887966
 21
266.7077449288266
 31
0.0
 11
202.6140221424679
 21
266.7949375833417
 31
0.0
 11
202.5501175694297
 21
266.8499284141965
 31
0.0
 11
202.4736700971475
 21
266.8884491800461
 31
0.0
 11
202.44071337688
 21
266.8977430915235
 31
0.0
 11
202.4077566566127
 21
266.901492053936
 31
0.0
  0
SPLINE
  5
2B9
330
53
100
AcDbEntity
  8
0
  6
Continuous
 62
     7
100
AcDbSpline
210
0.0
220
0.0
230
1.0
 70
     8
 71
     3
 72
    27
 73
    23
 74
    21
 42
0.000000001
 43
0.0000000001
 44
0.00000001
 40
0.0
 40
0.0
 40
0.0
 40
0.0
 40
0.1305262069084463
 40
0.261186716561095
 40
0.5205488879726787
 40
0.779926277774696
 40
1.034076817308673
 40
1.288259080373446
 40
1.534219952891444
 40
1.780231376349201
 40
2.01577008825836
 40
2.251380657022922
 40
2.47531493942201
 40
2.69934263484278
 40
2.911820773166022
 40
3.12440699564609
 40
3.327096423141572
 40
3.529888465101833
 40
3.725953340609611
 40
3.922083036767825
 40
4.11582190935732
 40
4.309560780284204
 40
4.309560780284204
 40
4.309560780284204
 40
4.309560780284204
 10
197.4078189295679
 20
264.13414376955
 30
0.0
 10
197.4074131885271
 20
264.1776545625418
 30
0.0
 10
197.4066012751849
 20
264.2647209179968
 30
0.0
 10
197.3979862464132
 20
264.438062113123
 30
0.0
 10
197.3772493855122
 20
264.6536833028109
 30
0.0
 10
197.3358219925408
 20
264.9081526686259
 30
0.0
 10
197.2780535641793
 20
265.1576411076737
 30
0.0
 10
197.2048825831451
 20
265.3984017405577
 30
0.0
 10
197.1160198311705
 20
265.6309212524594
 30
0.0
 10
197.0132517738063
 20
265.8508232224005
 30
0.0
 10
196.895858718925
 20
266.0593306732819
 30
0.0
 10
196.766481444016
 20
266.2518540742375
 30
0.0
 10
196.6239595393311
 20
266.4299793162276
 30
0.0
 10
196.4716611981675
 20
266.5893690353678
 30
0.0
 10
196.3081748796633
 20
266.7315779565351
 30
0.0
 10
196.1372599386337
 20
266.8529228243405
 30
0.0
 10
195.9576720746196
 20
266.9546590140102
 30
0.0
 10
195.7730636794304
 20
267.0339495293246
 30
0.0
 10
195.5828910582982
 20
267.0918641836991
 30
0.0
 10
195.3902180336709
 20
267.1259389801042
 30
0.0
 10
195.1954349001026
 20
267.1390771174681
 30
0.0
 10
195.0665857193155
 20
267.1280665673022
 30
0.0
 10
195.0021611295568
 20
267.122561285555
 30
0.0
 11
197.4078189295679
 21
264.13414376955
 31
0.0
 11
197.4057249296822
 21
264.2646531750574
 31
0.0
 11
197.399442930025
 21
264.3951625805656
 31
0.0
 11
197.3744399947657
 21
264.6533167762402
 31
0.0
 11
197.332705882612
 21
264.909314616321
 31
0.0
 11
197.2752911957499
 21
265.1568950082948
 31
0.0
 11
197.201231690232
 21
265.4000488948841
 31
0.0
 11
197.1133002170235
 21
265.6297548088633
 31
0.0
 11
197.0089531842044
 21
265.8525401704188
 31
0.0
 11
196.8932280838816
 21
266.0576893504812
 31
0.0
 11
196.7616066233022
 21
266.2531071883643
 31
0.0
 11
196.6215044363499
 21
266.4278010353726
 31
0.0
 11
196.4665525269379
 21
266.5895981745381
 31
0.0
 11
196.3060359113814
 21
266.7288151834111
 31
0.0
 11
196.1325739785302
 21
266.8517129459344
 31
0.0
 11
195.9560477344418
 21
266.9513196193389
 31
0.0
 11
195.7696861016576
 21
267.0312818253929
 31
0.0
 11
195.58200946189
 21
267.0880173054924
 31
0.0
 11
195.3889458147571
 21
267.1225612855548
 31
0.0
 11
195.1955534721568
 21
267.1341437695639
 31
0.0
 11
195.0021611295568
 21
267.122561285555
 31
0.0
  0
SPLINE
  5
2BA
330
53
100
AcDbEntity
  8
0
  6
Continuous
 62
     7
100
AcDbSpline
210
0.0
220
0.0
230
1.0
 70
     8
 71
     3
 72
    25
 73
    21
 74
    19
 42
0.000000001
 43
0.0000000001
 44
0.00000001
 40
0.0
 40
0.0
 40
0.0
 40
0.0
 40
0.066564962712707
 40
0.1301467868534369
 40
0.2285016045104529
 40
0.3265175881554931
 40
0.4619356270067808
 40
0.597342286977926
 40
0.7680008744697258
 40
0.9385997025955123
 40
1.140020021070377
 40
1.341432739129786
 40
1.568038429314526
 40
1.794635096345088
 40
2.039860414584467
 40
2.285082374984314
 40
2.541736156003325
 40
2.798388289692644
 40
2.928644743496527
 40
3.058894876410247
 40
3.058894876410247
 40
3.058894876410247
 40
3.058894876410247
 10
184.1106461908157
 20
267.320945201481
 30
0.0
 10
184.0926185329503
 20
267.3076917844884
 30
0.0
 10
184.0573711257724
 20
267.2817789191465
 30
0.0
 10
184.0156164777601
 20
267.2167051780409
 30
0.0
 10
183.9812645287598
 20
267.1372496668874
 30
0.0
 10
183.9421699666013
 20
267.0336903246155
 30
0.0
 10
183.9070075018639
 20
266.9157890493157
 30
0.0
 10
183.8716271556925
 20
266.7729080298141
 30
0.0
 10
183.8400909011644
 20
266.617137972851
 30
0.0
 10
183.809183267913
 20
266.4388888145305
 30
0.0
 10
183.781805797486
 20
266.2496910032679
 30
0.0
 10
183.7563399976971
 20
266.0414158864168
 30
0.0
 10
183.7344177032852
 20
265.8242994744185
 30
0.0
 10
183.7151309104627
 20
265.592279965133
 30
0.0
 10
183.6994274801731
 20
265.3537703695814
 30
0.0
 10
183.6868863236879
 20
265.1050436392622
 30
0.0
 10
183.6779717638105
 20
264.8523487409046
 30
0.0
 10
183.6734670450126
 20
264.6378682822788
 30
0.0
 10
183.6716120821973
 20
264.4654901467915
 30
0.0
 10
183.6714358285252
 20
264.3786544341247
 30
0.0
 10
183.6713476981509
 20
264.3352376312949
 30
0.0
 11
184.1106461908157
 21
267.320945201481
 31
0.0
 11
184.0595624633731
 21
267.2782679572429
 31
0.0
 11
184.0232334717029
 21
267.2260869974328
 31
0.0
 11
183.9819250632749
 21
267.1368273457857
 31
0.0
 11
183.9475029345551
 21
267.045054528152
 31
0.0
 11
183.9080351489513
 21
266.9155155799979
 31
0.0
 11
183.8752896836066
 21
266.7841279929737
 31
0.0
 11
183.840872668201
 21
266.6169758990934
 31
0.0
 11
183.8116592594582
 21
266.4488969388539
 31
0.0
 11
183.782539154849
 21
266.2495927387766
 31
0.0
 11
183.7580197863145
 21
266.0496780481267
 31
0.0
 11
183.7350829908669
 21
265.8242361660063
 31
0.0
 11
183.7162672058797
 21
265.5984220483646
 31
0.0
 11
183.7000544365966
 21
265.3537332607141
 31
0.0
 11
183.687681392837
 21
265.108823649548
 31
0.0
 11
183.6785816648267
 21
264.8523312358934
 31
0.0
 11
183.6731633521281
 21
264.5957363028654
 31
0.0
 11
183.6718016116452
 21
264.46548696708
 31
0.0
 11
183.6713476981509
 21
264.3352376312949
 31
0.0
  0
SPLINE
  5
2BB
330
53
100
AcDbEntity
  8
0
  6
Continuous
 62
     7
100
AcDbSpline
210
0.0
220
0.0
230
1.0
 70
     8
 71
     3
 72
    27
 73
    23
 74
    21
 42
0.000000001
 43
0.0000000001
 44
0.00000001
 40
0.0
 40
0.0
 40
0.0
 40
0.0
 40
0.1303757190238228
 40
0.2608151887814377
 40
0.5186976856776653
 40
0.776592114741254
 40
1.025898539343025
 40
1.275231527462885
 40
1.510803964696739
 40
1.746423965856728
 40
1.963987528654972
 40
2.181631973062432
 40
2.378266471039223
 40
2.575036655187697
 40
2.749808626580025
 40
2.924802905109785
 40
3.079602123227114
 40
3.234720768460165
 40
3.375090841316899
 40
3.515733679748852
 40
3.65086262680471
 40
3.785991567717969
 40
3.785991567717969
 40
3.785991567717969
 40
3.785991567717969
 10
172.1409281264057
 20
264.320945201509
 30
0.0
 10
172.1406484601593
 20
264.3644047242929
 30
0.0
 10
172.1400889853433
 20
264.4513450204968
 30
0.0
 10
172.1341789757136
 20
264.6241619006064
 30
0.0
 10
172.1198843047448
 20
264.8391633380576
 30
0.0
 10
172.091466883488
 20
265.0926962215199
 30
0.0
 10
172.0516544305428
 20
265.341802872143
 30
0.0
 10
172.0015090848937
 20
265.5814551010345
 30
0.0
 10
171.9402587024463
 20
265.8137955994901
 30
0.0
 10
171.8699493091084
 20
266.0324849371787
 30
0.0
 10
171.7890042808422
 20
266.2410647186236
 30
0.0
 10
171.7006583703925
 20
266.432439262887
 30
0.0
 10
171.6023027774438
 20
266.6109914778516
 30
0.0
 10
171.4984111849814
 20
266.7696235464403
 30
0.0
 10
171.3853457832173
 20
266.9127771261563
 30
0.0
 10
171.2684751694362
 20
267.0341850284115
 30
0.0
 10
171.1436691524589
 20
267.1374924672463
 30
0.0
 10
171.0162562277122
 20
267.2176876654524
 30
0.0
 10
170.8830386263312
 20
267.2774181637807
 30
0.0
 10
170.7482249705447
 20
267.3121092314439
 30
0.0
 10
170.6109405102097
 20
267.3260862734894
 30
0.0
 10
170.5213174462446
 20
267.3147149506199
 30
0.0
 10
170.4765059155077
 20
267.309029283892
 30
0.0
 11
172.1409281264057
 21
264.320945201509
 31
0.0
 11
172.1394863610871
 21
264.451312939002
 31
0.0
 11
172.1351610651333
 21
264.581680676495
 31
0.0
 11
172.1179476148063
 21
264.8389880399642
 31
0.0
 11
172.0891177501205
 21
265.0952659661377
 31
0.0
 11
172.0497021962341
 21
265.3414368568989
 31
0.0
 11
171.9984270052861
 21
265.5854405325917
 31
0.0
 11
171.9382518950976
 21
265.813197704349
 31
0.0
 11
171.8658296317249
 21
266.0374114432142
 31
0.0
 11
171.7869303534209
 21
266.2401645140095
 31
0.0
 11
171.695303630985
 21
266.43758195975
 31
0.0
 11
171.6001732945727
 21
266.6096730543753
 31
0.0
 11
171.4918851059005
 21
266.7739660046453
 31
0.0
 11
171.3832303469227
 21
266.9108578790392
 31
0.0
 11
171.2614062314029
 21
267.0364838409672
 31
0.0
 11
171.1417735182085
 21
267.1347223861995
 31
0.0
 11
171.0102512979396
 21
267.2169641003225
 31
0.0
 11
170.8818242260327
 21
267.273623119016
 31
0.0
 11
170.7457109962859
 21
267.3090292838915
 31
0.0
 11
170.6111084558968
 21
267.3209452014814
 31
0.0
 11
170.4765059155077
 21
267.309029283892
 31
0.0
  0
SPLINE
  5
2BC
330
53
100
AcDbEntity
  8
0
  6
Continuous
 62
     7
100
AcDbSpline
210
0.0
220
0.0
230
1.0
 70
     8
 71
     3
 72
    27
 73
    23
 74
    21
 42
0.000000001
 43
0.0000000001
 44
0.00000001
 40
0.0
 40
0.0
 40
0.0
 40
0.0
 40
0.1303644843317835
 40
0.2607875283899877
 40
0.5185598017343274
 40
0.7763433617924853
 40
1.025286040413778
 40
1.274253968492766
 40
1.509035554147249
 40
1.743862755315487
 40
1.960028982816641
 40
2.176273918676196
 40
2.370722094721888
 40
2.5653053355513
 40
2.736936580430233
 40
2.908796983788394
 40
3.059422157919755
 40
3.210396262146505
 40
3.345711467904862
 40
3.481336755366756
 40
3.546542661595263
 40
3.61119694395019
 40
3.61119694395019
 40
3.61119694395019
 40
3.61119694395019
 10
206.3713354881318
 20
263.820945201467
 30
0.0
 10
206.3710674384247
 20
263.8644009001174
 30
0.0
 10
206.3705312153159
 20
263.9513318176723
 30
0.0
 10
206.3648687113044
 20
264.1241094946305
 30
0.0
 10
206.3511677439088
 20
264.3390644599271
 30
0.0
 10
206.3239411660812
 20
264.5925245391239
 30
0.0
 10
206.285783325189
 20
264.8415995270315
 30
0.0
 10
206.2377451452592
 20
265.0811583661765
 30
0.0
 10
206.1790412610414
 20
265.3134770972118
 30
0.0
 10
206.1117022791962
 20
265.5320506069854
 30
0.0
 10
206.0341242361565
 20
265.7406199584212
 30
0.0
 10
205.9495409949735
 20
265.9318617049668
 30
0.0
 10
205.8552781390174
 20
266.1104227173294
 30
0.0
 10
205.755854008494
 20
266.2689321857599
 30
0.0
 10
205.6474854022374
 20
266.4121370089516
 30
0.0
 10
205.5356589904959
 20
266.5335026570123
 30
0.0
 10
205.4159836147866
 20
266.6369511827604
 30
0.0
 10
205.2939243927351
 20
266.7172493738491
 30
0.0
 10
205.1660578168449
 20
266.7772245423285
 30
0.0
 10
205.0572874326284
 20
266.8063851310962
 30
0.0
 10
204.9695785662292
 20
266.8192181341545
 30
0.0
 10
204.9262709229534
 20
266.8203711483631
 30
0.0
 10
204.9047090826628
 20
266.820945201481
 30
0.0
 11
206.3713354881318
 21
263.820945201467
 31
0.0
 11
206.3699537242735
 21
263.9513023529499
 31
0.0
 11
206.3658084326968
 21
264.0816595044325
 31
0.0
 11
206.3493115446062
 21
264.3389033529862
 31
0.0
 11
206.3216749224944
 21
264.5952011894283
 31
0.0
 11
206.2839088905314
 21
264.8412625315054
 31
0.0
 11
206.2347481278799
 21
265.0853286057793
 31
0.0
 11
206.1771083071557
 21
265.3129248359897
 31
0.0
 11
206.1076600183158
 21
265.5372477049779
 31
0.0
 11
206.0321164470556
 21
265.7397841380298
 31
0.0
 11
205.944231219643
 21
265.9373646508157
 31
0.0
 11
205.8532000564249
 21
266.1091884571743
 31
0.0
 11
205.7492955524908
 21
266.2737074274875
 31
0.0
 11
205.6453948755913
 21
266.4103161148886
 31
0.0
 11
205.5284304167369
 21
266.5362339987991
 31
0.0
 11
205.4140709276235
 21
266.6342638422328
 31
0.0
 11
205.2876632244615
 21
266.7168124493803
 31
0.0
 11
205.1647652074589
 21
266.7734364908653
 31
0.0
 11
205.0338790985825
 21
266.8089758300548
 31
0.0
 11
204.9692940906228
 21
266.817952858627
 31
0.0
 11
204.9047090826628
 21
266.820945201481
 31
0.0
  0
ARC
  5
2BD
330
53
100
AcDbEntity
  8
0
  6
Continuous
 62
     7
100
AcDbCircle
 10
110.4047090827187
 20
254.820945201481
 30
0.0
 40
1.999999999999972
100
AcDbArc
 50
90.0
 51
180.0
  0
ARC
  5
2BE
330
53
100
AcDbEntity
  8
0
  6
Continuous
 62
     7
100
AcDbCircle
 10
216.4047090827187
 20
254.820945201481
 30
0.0
 40
2.0
100
AcDbArc
 50
0.0
 51
90.0
  0
ENDBLK
  5
55
330
53
100
AcDbEntity
  8
0
100
AcDbBlockEnd
  0
BLOCK
  5
57
330
56
100
AcDbEntity
  8
0
100
AcDbBlockBegin
  2
H5500-50-H3
 70
     0
 10
110.9047090827187
 20
223.320945201481
 30
0.0
  3
H5500-50-H3
  1

  0
LINE
  5
2BF
330
56
100
AcDbEntity
  8
0
  6
Continuous
 62
     7
100
AcDbLine
 10
135.4047090827187
 20
248.320945201481
 30
0.0
 11
110.9047090827187
 21
248.320945201481
 31
0.0
  0
LINE
  5
2C0
330
56
100
AcDbEntity
  8
0
  6
Continuous
 62
     7
100
AcDbLine
 10
110.9047090827187
 20
248.320945201481
 30
0.0
 11
110.9047090827187
 21
249.820945201481
 31
0.0
  0
LINE
  5
2C1
330
56
100
AcDbEntity
  8
1
  6
Continuous
 62
     7
100
AcDbLine
 10
163.4047090827187
 20
248.320945201481
 30
0.0
 11
135.4047090827187
 21
248.320945201481
 31
0.0
  0
LINE
  5
2C2
330
56
100
AcDbEntity
  8
0
  6
Continuous
 62
     7
100
AcDbLine
 10
215.9047090827187
 20
248.320945201481
 30
0.0
 11
191.4047090827187
 21
248.320945201481
 31
0.0
  0
LINE
  5
2C3
330
56
100
AcDbEntity
  8
0
  6
Continuous
 62
     7
100
AcDbLine
 10
215.9047090827187
 20
249.820945201481
 30
0.0
 11
215.9047090827187
 21
248.320945201481
 31
0.0
  0
LINE
  5
2C4
330
56
100
AcDbEntity
  8
1
  6
Continuous
 62
     7
100
AcDbLine
 10
191.4047090827187
 20
248.320945201481
 30
0.0
 11
163.4047090827187
 21
248.320945201481
 31
0.0
  0
CIRCLE
  5
2C5
330
56
100
AcDbEntity
  8
1
  6
DASHED
 62
     3
100
AcDbCircle
 10
124.4335659124195
 20
479.6882861663676
 30
0.0
 40
2.000000000000016
  0
CIRCLE
  5
2C6
330
56
100
AcDbEntity
  8
1
  6
DASHED
 62
     3
100
AcDbCircle
 10
202.3758522530189
 20
479.6882861663677
 30
0.0
 40
1.999999999999967
  0
CIRCLE
  5
2C7
330
56
100
AcDbEntity
  8
1
  6
DASHED
 62
     3
100
AcDbCircle
 10
163.4047090827192
 20
412.1882861663677
 30
0.0
 40
2.0
  0
ENDBLK
  5
58
330
56
100
AcDbEntity
  8
0
100
AcDbBlockEnd
  0
BLOCK
  5
5A
330
59
100
AcDbEntity
  8
0
100
AcDbBlockBegin
  2
H5500-50-H9
 70
     0
 10
203.9921560802298
 20
265.609592251914
 30
0.0
  3
H5500-50-H9
  1

  0
LINE
  5
2C8
330
59
100
AcDbEntity
  8
0
  6
Continuous
 62
     7
100
AcDbLine
 10
220.4949447336449
 20
298.1750586728219
 30
0.0
 11
222.9134996701978
 21
278.47750941445
 31
0.0
  0
LINE
  5
2C9
330
59
100
AcDbEntity
  8
0
  6
Continuous
 62
     7
100
AcDbLine
 10
220.4949447336449
 20
298.1750586728219
 30
0.0
 11
222.9134996701978
 21
278.47750941445
 31
0.0
  0
LINE
  5
2CA
330
59
100
AcDbEntity
  8
0
  6
Continuous
 62
     7
100
AcDbLine
 10
208.5843909139487
 20
296.7126265519601
 30
0.0
 11
211.0029458505017
 21
277.015077293589
 31
0.0
  0
LINE
  5
2CB
330
59
100
AcDbEntity
  8
0
  6
Continuous
 62
     7
100
AcDbLine
 10
220.4761128020948
 20
298.328432447277
 30
0.0
 11
220.4949447336449
 21
298.1750586728219
 31
0.0
  0
LINE
  5
2CC
330
59
100
AcDbEntity
  8
0
  6
Continuous
 62
     7
100
AcDbLine
 10
220.4761128020948
 20
298.328432447277
 30
0.0
 11
220.4949447336449
 21
298.1750586728219
 31
0.0
  0
LINE
  5
2CD
330
59
100
AcDbEntity
  8
0
  6
Continuous
 62
     7
100
AcDbLine
 10
208.5655589823987
 20
296.8660003264149
 30
0.0
 11
208.5843909139487
 21
296.7126265519601
 31
0.0
  0
LINE
  5
2CE
330
59
100
AcDbEntity
  8
0
  6
Continuous
 62
     7
100
AcDbLine
 10
206.1470040458458
 20
316.5635495847871
 30
0.0
 11
208.5655589823987
 21
296.8660003264149
 31
0.0
  0
LINE
  5
2CF
330
59
100
AcDbEntity
  8
0
  6
Continuous
 62
     7
100
AcDbLine
 10
218.4910204988119
 20
298.084693760467
 30
0.0
 11
220.9284073669149
 21
278.2337707276399
 31
0.0
  0
LINE
  5
2D0
330
59
100
AcDbEntity
  8
0
  6
Continuous
 62
     7
100
AcDbLine
 10
218.4910204988119
 20
298.084693760467
 30
0.0
 11
220.9284073669149
 21
278.2337707276399
 31
0.0
  0
LINE
  5
2D1
330
59
100
AcDbEntity
  8
0
  6
Continuous
 62
     7
100
AcDbLine
 10
216.0724655622599
 20
317.782243018838
 30
0.0
 11
218.5098524303628
 21
297.9313199860119
 31
0.0
  0
LINE
  5
2D2
330
59
100
AcDbEntity
  8
0
  6
Continuous
 62
     7
100
AcDbLine
 10
218.0575578655428
 20
318.025981705649
 30
0.0
 11
220.4761128020948
 21
298.328432447277
 31
0.0
  0
LINE
  5
2D3
330
59
100
AcDbEntity
  8
0
  6
Continuous
 62
     7
100
AcDbLine
 10
216.0724655622599
 20
317.782243018838
 30
0.0
 11
218.5098524303628
 21
297.9313199860119
 31
0.0
  0
LINE
  5
2D4
330
59
100
AcDbEntity
  8
0
  6
Continuous
 62
     7
100
AcDbLine
 10
218.0575578655428
 20
318.025981705649
 30
0.0
 11
220.4761128020948
 21
298.328432447277
 31
0.0
  0
LINE
  5
2D5
330
59
100
AcDbEntity
  8
0
  6
Continuous
 62
     7
100
AcDbLine
 10
204.1619117425637
 20
316.3198108979771
 30
0.0
 11
206.5992986106667
 21
296.46888786515
 31
0.0
  0
LINE
  5
2D6
330
59
100
AcDbEntity
  8
0
  6
Continuous
 62
     7
100
AcDbLine
 10
212.6857389280817
 20
275.4243314077271
 30
0.0
 11
214.5073391193048
 21
270.273431220058
 31
0.0
  0
LINE
  5
2D7
330
59
100
AcDbEntity
  8
0
  6
Continuous
 62
     7
100
AcDbLine
 10
210.8001762981837
 20
274.75750791629
 30
0.0
 11
212.6217764894068
 21
269.6066077286209
 31
0.0
  0
LINE
  5
2D8
330
59
100
AcDbEntity
  8
0
  6
PHANTOM
 62
     4
100
AcDbLine
 10
213.1059309054567
 20
270.2207226119349
 30
0.0
 11
208.5465008353447
 21
269.6608949928091
 31
0.0
  0
LINE
  5
2D9
330
59
100
AcDbEntity
  8
0
  6
PHANTOM
 62
     4
100
AcDbLine
 10
211.1372695555777
 20
267.715589457835
 30
0.0
 11
210.6025624065399
 21
272.070429717116
 31
0.0
  0
LINE
  5
2DA
330
59
100
AcDbEntity
  8
0
  6
Continuous
 62
     7
100
AcDbLine
 10
217.3062393861658
 20
266.70641634256
 30
0.0
 11
208.3733240213928
 21
265.609592251914
 31
0.0
  0
LINE
  5
2DB
330
59
100
AcDbEntity
  8
0
  6
Continuous
 62
     7
100
AcDbLine
 10
207.1370391829417
 20
267.472815211791
 30
0.0
 11
206.4058231225108
 21
273.4280921216391
 31
0.0
  0
LINE
  5
2DC
330
59
100
AcDbEntity
  8
0
  6
Continuous
 62
     7
100
AcDbLine
 10
208.3733240213928
 20
265.609592251914
 30
0.0
 11
207.1370391829417
 21
267.472815211791
 31
0.0
  0
LINE
  5
2DD
330
59
100
AcDbEntity
  8
0
  6
Continuous
 62
     7
100
AcDbLine
 10
207.1546305873417
 20
275.5350537683271
 30
0.0
 11
216.0875459521137
 21
276.631877858973
 31
0.0
  0
LINE
  5
2DE
330
59
100
AcDbEntity
  8
0
  6
Continuous
 62
     7
100
AcDbLine
 10
206.4058231225108
 20
273.4280921216391
 30
0.0
 11
207.1546305873417
 21
275.5350537683271
 31
0.0
  0
LINE
  5
2DF
330
59
100
AcDbEntity
  8
0
  6
Continuous
 62
     7
100
AcDbLine
 10
219.1590613525757
 20
270.8445908919121
 30
0.0
 11
219.6804366956567
 21
276.2831723017671
 31
0.0
  0
LINE
  5
2E0
330
59
100
AcDbEntity
  8
0
  6
Continuous
 62
     7
100
AcDbLine
 10
221.1499339170707
 20
270.653733793687
 30
0.0
 11
221.6713092601517
 21
276.092315203543
 31
0.0
  0
LINE
  5
2E1
330
59
100
AcDbEntity
  8
0
  6
Continuous
 62
     7
100
AcDbLine
 10
217.2331177801218
 20
267.3019440335451
 30
0.0
 11
217.3062393861658
 21
266.70641634256
 31
0.0
  0
LINE
  5
2E2
330
59
100
AcDbEntity
  8
0
  6
Continuous
 62
     7
100
AcDbLine
 10
217.0015660276518
 20
269.187781721663
 30
0.0
 11
217.2331177801218
 21
267.3019440335451
 31
0.0
  0
LINE
  5
2E3
330
59
100
AcDbEntity
  8
0
  6
Continuous
 62
     7
100
AcDbLine
 10
216.9710986918008
 20
269.435918259574
 30
0.0
 11
217.0015660276518
 21
269.187781721663
 31
0.0
  0
LINE
  5
2E4
330
59
100
AcDbEntity
  8
0
  6
PHANTOM
 62
     4
100
AcDbLine
 10
225.0910231897438
 20
271.6923069054419
 30
0.0
 11
220.5315931196317
 21
271.1324792863161
 31
0.0
  0
LINE
  5
2E5
330
59
100
AcDbEntity
  8
0
  6
PHANTOM
 62
     4
100
AcDbLine
 10
222.5131162262358
 20
273.5328618379781
 30
0.0
 11
223.0478233752738
 21
269.1780215786971
 31
0.0
  0
LINE
  5
2E6
330
59
100
AcDbEntity
  8
0
  6
Continuous
 62
     7
100
AcDbLine
 10
226.2391547509367
 20
267.8032404332059
 30
0.0
 11
217.3062393861658
 21
266.70641634256
 31
0.0
  0
LINE
  5
2E7
330
59
100
AcDbEntity
  8
0
  6
Continuous
 62
     7
100
AcDbLine
 10
226.2567461553367
 20
275.8654789897421
 30
0.0
 11
226.9879622157678
 21
269.9102020798939
 31
0.0
  0
LINE
  5
2E8
330
59
100
AcDbEntity
  8
0
  6
Continuous
 62
     7
100
AcDbLine
 10
226.9879622157678
 20
269.9102020798939
 30
0.0
 11
226.2391547509367
 21
267.8032404332059
 31
0.0
  0
LINE
  5
2E9
330
59
100
AcDbEntity
  8
0
  6
Continuous
 62
     7
100
AcDbLine
 10
216.0875459521137
 20
276.631877858973
 30
0.0
 11
225.0204613168849
 21
277.72870194962
 31
0.0
  0
LINE
  5
2EA
330
59
100
AcDbEntity
  8
0
  6
Continuous
 62
     7
100
AcDbLine
 10
225.0204613168849
 20
277.72870194962
 30
0.0
 11
226.2567461553367
 21
275.8654789897421
 31
0.0
  0
LINE
  5
2EB
330
59
100
AcDbEntity
  8
0
  6
Continuous
 62
     7
100
AcDbLine
 10
216.0875459521137
 20
276.631877858973
 30
0.0
 11
216.9710986918008
 21
269.435918259574
 31
0.0
  0
LINE
  5
2EC
330
59
100
AcDbEntity
  8
0
  6
Continuous
 62
     7
100
AcDbLine
 10
220.4761128020948
 20
298.328432447277
 30
0.0
 11
220.4949447336449
 21
298.1750586728219
 31
0.0
  0
LINE
  5
2ED
330
59
100
AcDbEntity
  8
0
  6
Continuous
 62
     7
100
AcDbLine
 10
220.4761128020948
 20
298.328432447277
 30
0.0
 11
220.4949447336449
 21
298.1750586728219
 31
0.0
  0
LINE
  5
2EE
330
59
100
AcDbEntity
  8
0
  6
Continuous
 62
     7
100
AcDbLine
 10
206.5804666791157
 20
296.6222616396051
 30
0.0
 11
209.0178535472187
 21
276.771338606779
 31
0.0
  0
LINE
  5
2EF
330
59
100
AcDbEntity
  8
0
  6
Continuous
 62
     7
100
AcDbLine
 10
208.5655589823987
 20
296.8660003264149
 30
0.0
 11
208.5843909139487
 21
296.7126265519601
 31
0.0
  0
ARC
  5
2F0
330
59
100
AcDbEntity
  8
0
  6
Continuous
 62
     7
100
AcDbCircle
 10
221.9209535185558
 20
278.355640071045
 30
0.0
 40
0.9999999999995534
100
AcDbArc
 50
186.9999999999993
 51
6.99999999998811
  0
ARC
  5
2F1
330
59
100
AcDbEntity
  8
0
  6
Continuous
 62
     7
100
AcDbCircle
 10
221.9209535185558
 20
278.355640071045
 30
0.0
 40
0.9999999999995534
100
AcDbArc
 50
186.9999999999993
 51
6.99999999998811
  0
ARC
  5
2F2
330
59
100
AcDbEntity
  8
0
  6
Continuous
 62
     7
100
AcDbCircle
 10
205.1544578942049
 20
316.4416802413821
 30
0.0
 40
0.999999999999585
100
AcDbArc
 50
97.0000000000007
 51
186.9999999999904
  0
ARC
  5
2F3
330
59
100
AcDbEntity
  8
0
  6
Continuous
 62
     7
100
AcDbCircle
 10
217.0650117139008
 20
317.904112362244
 30
0.0
 40
1.000000000000668
100
AcDbArc
 50
6.99999999998488
 51
187.000000000051
  0
ARC
  5
2F4
330
59
100
AcDbEntity
  8
0
  6
Continuous
 62
     7
100
AcDbCircle
 10
217.0650117139008
 20
317.904112362244
 30
0.0
 40
1.000000000000668
100
AcDbArc
 50
6.99999999998488
 51
187.000000000051
  0
ARC
  5
2F5
330
59
100
AcDbEntity
  8
0
  6
Continuous
 62
     7
100
AcDbCircle
 10
205.1544578942049
 20
316.4416802413821
 30
0.0
 40
0.9999999999995464
100
AcDbArc
 50
6.99999999999605
 51
97.0000000000007
  0
ARC
  5
2F6
330
59
100
AcDbEntity
  8
0
  6
Continuous
 62
     7
100
AcDbCircle
 10
216.6968926691398
 20
271.6691471007659
 30
0.0
 40
5.000000000000533
100
AcDbArc
 50
97.0000000000036
 51
139.8686713614933
  0
ARC
  5
2F7
330
59
100
AcDbEntity
  8
0
  6
Continuous
 62
     7
100
AcDbCircle
 10
216.6968926691398
 20
271.6691471007659
 30
0.0
 40
5.000000000000703
100
AcDbArc
 50
174.4239576473364
 51
277.0000000000039
  0
ARC
  5
2F8
330
59
100
AcDbEntity
  8
0
  6
Continuous
 62
     7
100
AcDbCircle
 10
210.8634851026968
 20
269.945384888694
 30
0.0
 40
1.500000000000137
100
AcDbArc
 50
277.0000000000053
 51
337.8049335622337
  0
ARC
  5
2F9
330
59
100
AcDbEntity
  8
0
  6
Continuous
 62
     7
100
AcDbCircle
 10
210.8634851026968
 20
269.945384888694
 30
0.0
 40
1.499999999999998
100
AcDbArc
 50
55.11971085384479
 51
277.0000000000053
  0
ARC
  5
2FA
330
59
100
AcDbEntity
  8
0
  6
Continuous
 62
     7
100
AcDbCircle
 10
216.7700142751817
 20
271.0736194097819
 30
0.0
 40
2.399999999999201
100
AcDbArc
 50
199.4759859311602
 51
277.000000000019
  0
ARC
  5
2FB
330
59
100
AcDbEntity
  8
0
  6
Continuous
 62
     7
100
AcDbCircle
 10
211.7429576131329
 20
275.0909196620089
 30
0.0
 40
0.9999999999997242
100
AcDbArc
 50
19.47598593115359
 51
199.4759859311828
  0
ARC
  5
2FC
330
59
100
AcDbEntity
  8
0
  6
Continuous
 62
     7
100
AcDbCircle
 10
216.7700142751817
 20
271.0736194097819
 30
0.0
 40
4.399999999999245
100
AcDbArc
 50
199.4759859311647
 51
277.0000000000187
  0
ARC
  5
2FD
330
59
100
AcDbEntity
  8
0
  6
Continuous
 62
     7
100
AcDbCircle
 10
216.6968926691398
 20
271.6691471007659
 30
0.0
 40
5.000000000000541
100
AcDbArc
 50
54.13132863851528
 51
97.0000000000036
  0
ARC
  5
2FE
330
59
100
AcDbEntity
  8
0
  6
Continuous
 62
     7
100
AcDbCircle
 10
216.6968926691398
 20
271.6691471007659
 30
0.0
 40
4.999999999999335
100
AcDbArc
 50
277.0000000000039
 51
19.57604235266459
  0
ARC
  5
2FF
330
59
100
AcDbEntity
  8
0
  6
Continuous
 62
     7
100
AcDbCircle
 10
222.7740389223927
 20
271.4078170095561
 30
0.0
 40
1.50000000000078
100
AcDbArc
 50
216.1950664377678
 51
276.9999999999719
  0
ARC
  5
300
330
59
100
AcDbEntity
  8
0
  6
Continuous
 62
     7
100
AcDbCircle
 10
222.7740389223927
 20
271.4078170095561
 30
0.0
 40
1.50000000000003
100
AcDbArc
 50
276.9999999999719
 51
138.8802891461786
  0
ARC
  5
301
330
59
100
AcDbEntity
  8
0
  6
Continuous
 62
     7
100
AcDbCircle
 10
216.7700142751817
 20
271.0736194097819
 30
0.0
 40
2.39999999999982
100
AcDbArc
 50
277.000000000019
 51
354.5240140688384
  0
ARC
  5
302
330
59
100
AcDbEntity
  8
0
  6
Continuous
 62
     7
100
AcDbCircle
 10
220.6758729779047
 20
276.187743752655
 30
0.0
 40
0.9999999999996741
100
AcDbArc
 50
354.5240140688589
 51
174.5240140688611
  0
ARC
  5
303
330
59
100
AcDbEntity
  8
0
  6
Continuous
 62
     7
100
AcDbCircle
 10
216.7700142751817
 20
271.0736194097819
 30
0.0
 40
4.400000000000268
100
AcDbArc
 50
277.0000000000187
 51
354.524014068835
  0
ARC
  5
304
330
59
100
AcDbEntity
  8
0
  6
Continuous
 62
     7
100
AcDbCircle
 10
210.0103996988608
 20
276.893207950184
 30
0.0
 40
1.000000000000753
100
AcDbArc
 50
186.9999999999843
 51
276.999999999986
  0
ARC
  5
305
330
59
100
AcDbEntity
  8
0
  6
Continuous
 62
     7
100
AcDbCircle
 10
210.0103996988608
 20
276.893207950184
 30
0.0
 40
1.000000000000756
100
AcDbArc
 50
276.999999999986
 51
6.99999999999585
  0
CIRCLE
  5
306
330
59
100
AcDbEntity
  8
0
  6
Continuous
 62
     7
100
AcDbCircle
 10
210.8634851026968
 20
269.945384888694
 30
0.0
 40
0.9999999999995252
  0
CIRCLE
  5
307
330
59
100
AcDbEntity
  8
0
  6
Continuous
 62
     7
100
AcDbCircle
 10
216.6968926691398
 20
271.6691471007659
 30
0.0
 40
2.499999999999488
  0
CIRCLE
  5
308
330
59
100
AcDbEntity
  8
0
  6
Continuous
 62
     7
100
AcDbCircle
 10
216.6968926691398
 20
271.6691471007659
 30
0.0
 40
2.249999999998836
  0
CIRCLE
  5
309
330
59
100
AcDbEntity
  8
0
  6
Continuous
 62
     7
100
AcDbCircle
 10
222.7740389223927
 20
271.4078170095561
 30
0.0
 40
0.9999999999997542
  0
SPLINE
  5
30A
330
59
100
AcDbEntity
  8
0
  6
Continuous
 62
     7
100
AcDbSpline
210
0.0
220
0.0
230
1.0
 70
     8
 71
     3
 72
    13
 73
     9
 74
     7
 42
0.000000001
 43
0.0000000001
 44
0.00000001
 40
0.0
 40
0.0
 40
0.0
 40
0.0
 40
0.5212063344307638
 40
1.045903900208879
 40
1.549471070117755
 40
2.066044327005224
 40
2.475054629870299
 40
2.884064933701302
 40
2.884064933701302
 40
2.884064933701302
 40
2.884064933701302
 10
222.2171885620137
 20
476.059436163441
 30
0.0
 10
222.1343283375258
 20
476.2121642464695
 30
0.0
 10
221.9680528533578
 20
476.5186434373584
 30
0.0
 10
221.6908360276227
 20
476.9552455312765
 30
0.0
 10
221.3422190888519
 20
477.3415142475741
 30
0.0
 10
220.9384217028193
 20
477.5990601697137
 30
0.0
 10
220.4926180091026
 20
477.7312401126249
 30
0.0
 10
220.2286757629838
 20
477.6404421347007
 30
0.0
 10
220.0967046409387
 20
477.5950431391959
 30
0.0
 11
222.2171885620137
 21
476.059436163441
 31
0.0
 11
221.963430670482
 21
476.5146975905159
 31
0.0
 11
221.6745373834827
 21
476.9527023907668
 31
0.0
 11
221.3310157864315
 21
477.3209045199121
 31
0.0
 11
220.8931848263521
 21
477.5950431391959
 31
0.0
 11
220.4949447336451
 21
477.688286166368
 31
0.0
 11
220.0967046409387
 21
477.5950431391959
 31
0.0
  0
SPLINE
  5
30B
330
59
100
AcDbEntity
  8
0
  6
Continuous
 62
     7
100
AcDbSpline
210
0.0
220
0.0
230
1.0
 70
     8
 71
     3
 72
    45
 73
    41
 74
    39
 42
0.000000001
 43
0.0000000001
 44
0.00000001
 40
0.0
 40
0.0
 40
0.0
 40
0.0
 40
0.1057531279015039
 40
0.2296198874067838
 40
0.6081720133920521
 40
0.9601830066807102
 40
1.539332168342167
 40
2.12054973972837
 40
2.943034678324887
 40
3.764689832081547
 40
4.808443172591264
 40
5.852129731395447
 40
7.089291433041762
 40
8.326397281446768
 40
9.721079904859566
 40
11.11573500421701
 40
12.62674215054618
 40
14.13773646725447
 40
15.72006888429566
 40
17.30239554659926
 40
18.90875671633934
 40
20.51511788607941
 40
22.09744454838312
 40
23.67977696542421
 40
25.19077128213238
 40
26.70177842846115
 40
28.09643352781843
 40
29.4911161512315
 40
30.72822199963676
 40
31.96538370128326
 40
33.00907026008739
 40
34.0528236005972
 40
34.874478754354
 40
35.69696369295049
 40
36.27818126433657
 40
36.85733042599744
 40
37.20934141928589
 40
37.58789354527138
 40
37.71176030473907
 40
37.81751343260967
 40
37.81751343260967
 40
37.81751343260967
 40
37.81751343260967
 10
220.4949447336449
 20
475.688286166368
 30
0.0
 10
220.4594500049083
 20
475.6833470498329
 30
0.0
 10
220.3823809278569
 20
475.6726228486545
 30
0.0
 10
220.2184431760138
 20
475.5445231092712
 30
0.0
 10
220.0249870740191
 20
475.3341316105796
 30
0.0
 10
219.8293454550341
 20
474.9387869776452
 30
0.0
 10
219.6864184295421
 20
474.4550619427098
 30
0.0
 10
219.5032770079487
 20
473.8199709569501
 30
0.0
 10
219.3378070952282
 20
473.0963975707074
 30
0.0
 10
219.1729389554805
 20
472.2156168149479
 30
0.0
 10
219.0272293002811
 20
471.2567638215235
 30
0.0
 10
218.8830758938442
 20
470.157930582703
 30
0.0
 10
218.7553537310434
 20
468.9921642420829
 30
0.0
 10
218.6366072798061
 20
467.707945438184
 30
0.0
 10
218.5344742132804
 20
466.3696344776226
 30
0.0
 10
218.444527169613
 20
464.9389739753871
 30
0.0
 10
218.371308378152
 20
463.4685367679254
 30
0.0
 10
218.3128108542462
 20
461.9348419531143
 30
0.0
 10
218.2712839993196
 20
460.3768111506386
 30
0.0
 10
218.24587902932
 20
458.7866442772103
 30
0.0
 10
218.2375824987192
 20
457.188286166368
 30
0.0
 10
218.2458790293201
 20
455.5899280555256
 30
0.0
 10
218.2712839993195
 20
453.9997611820975
 30
0.0
 10
218.3128108542462
 20
452.4417303796218
 30
0.0
 10
218.3713083781519
 20
450.908035564811
 30
0.0
 10
218.444527169613
 20
449.4375983573494
 30
0.0
 10
218.5344742132803
 20
448.006937855114
 30
0.0
 10
218.6366072798068
 20
446.6686268945525
 30
0.0
 10
218.7553537310444
 20
445.3844080906533
 30
0.0
 10
218.8830758938448
 20
444.2186417500333
 30
0.0
 10
219.0272293002812
 20
443.1198085112126
 30
0.0
 10
219.1729389554805
 20
442.1609555177879
 30
0.0
 10
219.3378070952282
 20
441.2801747620285
 30
0.0
 10
219.5032770079493
 20
440.5566013757858
 30
0.0
 10
219.6864184295428
 20
439.9215103900263
 30
0.0
 10
219.8293454550348
 20
439.4377853550911
 30
0.0
 10
220.0249870740187
 20
439.0424407221573
 30
0.0
 10
220.2184431760073
 20
438.8320492234737
 30
0.0
 10
220.3823809278256
 20
438.7039494841045
 30
0.0
 10
220.4594500048504
 20
438.6932252829102
 30
0.0
 10
220.4949447335748
 20
438.688286166368
 30
0.0
 11
220.4949447336449
 21
475.688286166368
 31
0.0
 11
220.3916789725448
 21
475.6654847125592
 31
0.0
 11
220.2884132114447
 21
475.5970803511329
 31
0.0
 11
220.0340889198008
 21
475.3166862248119
 31
0.0
 11
219.8705768492248
 21
475.0049563069588
 31
0.0
 11
219.6872331324255
 21
474.4555941021024
 31
0.0
 11
219.5298944381536
 21
473.8960778824109
 31
0.0
 11
219.3431021697451
 21
473.0950846727227
 31
0.0
 11
219.1906332830571
 21
472.2876997399464
 31
0.0
 11
219.03073727163
 21
471.2562666105354
 31
0.0
 11
218.8948336410554
 21
470.2214662262309
 31
0.0
 11
218.7588242822507
 21
468.9918034557448
 31
0.0
 11
218.6445411631142
 21
467.7599876222741
 31
0.0
 11
218.537576261751
 21
466.3694128748152
 31
0.0
 11
218.4498649443899
 21
464.9775186370126
 31
0.0
 11
218.3742342484071
 21
463.4684054563916
 31
0.0
 11
218.3165391393751
 21
461.9585130439179
 31
0.0
 11
218.2740978706511
 21
460.3767499092719
 31
0.0
 11
218.2488295166617
 21
458.7946250172876
 31
0.0
 11
218.2403618806497
 21
457.188286166368
 31
0.0
 11
218.2488295166617
 21
455.5819473154485
 31
0.0
 11
218.2740978706511
 21
453.999822423464
 31
0.0
 11
218.3165391393751
 21
452.4180592888181
 31
0.0
 11
218.3742342484071
 21
450.9081668763445
 31
0.0
 11
218.4498649443899
 21
449.3990536957239
 31
0.0
 11
218.537576261751
 21
448.0071594579215
 31
0.0
 11
218.6445411631148
 21
446.6165847104624
 31
0.0
 11
218.7588242822517
 21
445.3847688769914
 31
0.0
 11
218.8948336410559
 21
444.1551061065052
 31
0.0
 11
219.0307372716301
 21
443.1203057222007
 31
0.0
 11
219.1906332830571
 21
442.0888725927895
 31
0.0
 11
219.3431021697453
 21
441.2814876600131
 31
0.0
 11
219.5298944381541
 21
440.4804944503251
 31
0.0
 11
219.6872331324261
 21
439.9209782306337
 31
0.0
 11
219.8705768492251
 21
439.3716160257778
 31
0.0
 11
220.0340889198009
 21
439.0598861079248
 31
0.0
 11
220.2884132114447
 21
438.7794919816033
 31
0.0
 11
220.3916789725097
 21
438.7110876201923
 31
0.0
 11
220.4949447335748
 21
438.688286166368
 31
0.0
  0
SPLINE
  5
30C
330
59
100
AcDbEntity
  8
0
  6
Continuous
 62
     7
100
AcDbSpline
210
0.0
220
0.0
230
1.0
 70
     8
 71
     3
 72
    47
 73
    43
 74
    41
 42
0.000000001
 43
0.0000000001
 44
0.00000001
 40
0.0
 40
0.0
 40
0.0
 40
0.0
 40
0.5165732617999281
 40
1.020140432069441
 40
1.737569249035952
 40
2.450473965029108
 40
3.402510492161567
 40
4.354289966335689
 40
5.537113510487406
 40
6.719380240555857
 40
8.105728468681551
 40
9.491950616525552
 40
11.04585507689304
 40
12.59966353318946
 40
14.27781824001424
 40
15.95593100746069
 40
17.71046711560892
 40
19.4649840794029
 40
21.24527550120095
 40
23.02556692284467
 40
24.7800838861765
 40
26.53461999353664
 40
28.21273275991697
 40
29.89088746539961
 40
31.44469592027705
 40
32.99860037915349
 40
34.38482252568364
 40
35.77117075256072
 40
36.95343748163109
 40
38.1362610248357
 40
39.08804049826841
 40
40.0400770246367
 40
40.75298174000579
 40
41.47041055615561
 40
41.97397772695599
 40
42.49055098619625
 40
42.89956129606357
 40
43.30857160636148
 40
43.82514486618528
 40
44.32871203708814
 40
44.8534096029987
 40
45.37461591958682
 40
45.37461591958682
 40
45.37461591958682
 40
45.37461591958682
 10
220.0967046409387
 20
477.5950431391959
 30
0.0
 10
219.9444011360202
 20
477.5118900401094
 30
0.0
 10
219.6436287602967
 20
477.3476774520161
 30
0.0
 10
219.2580716631768
 20
476.9040449870079
 30
0.0
 10
218.9204445043674
 20
476.3549242750247
 30
0.0
 10
218.563635899382
 20
475.6441415938514
 30
0.0
 10
218.2426116145347
 20
474.8321777639604
 30
0.0
 10
217.9196418740177
 20
473.8548971009292
 30
0.0
 10
217.6298462688489
 20
472.7874245902021
 30
0.0
 10
217.3481186154883
 20
471.5688753783414
 30
0.0
 10
217.0983151612975
 20
470.2741936773166
 30
0.0
 10
216.8661972433888
 20
468.8506749852544
 30
0.0
 10
216.6661643609137
 20
467.3659277078956
 30
0.0
 10
216.4903966948159
 20
465.780222103112
 30
0.0
 10
216.34722500746
 20
464.1496673134938
 30
0.0
 10
216.2329191914626
 20
462.4497946860097
 30
0.0
 10
216.1517244690796
 20
460.7225335299943
 30
0.0
 10
216.1020881216657
 20
458.9600150280997
 30
0.0
 10
216.0858628313174
 20
457.1882861578125
 30
0.0
 10
216.1020881233757
 20
455.416557287522
 30
0.0
 10
216.1517244728049
 20
453.6540387866584
 30
0.0
 10
216.2329191958152
 20
451.9267776296446
 30
0.0
 10
216.3472250169993
 20
450.2269050099363
 30
0.0
 10
216.4903966923464
 20
448.5963501978956
 30
0.0
 10
216.6661644053885
 20
447.010644677237
 30
0.0
 10
216.8661971257796
 20
445.5258971091379
 30
0.0
 10
217.0983155891486
 20
444.1023793974014
 30
0.0
 10
217.348117157193
 20
442.8076943097187
 30
0.0
 10
217.6298508718612
 20
441.5891559845233
 30
0.0
 10
217.9196260658857
 20
440.5216468166871
 30
0.0
 10
218.2426580043244
 20
439.5444778593379
 30
0.0
 10
218.5634799939467
 20
438.732150714508
 30
0.0
 10
218.9208676537723
 20
438.0224079953933
 30
0.0
 10
219.2566678697566
 20
437.4700061576141
 30
0.0
 10
219.6472026295603
 20
437.0353133991827
 30
0.0
 10
220.0523260586831
 20
436.7760971425872
 30
0.0
 10
220.4949328972008
 20
436.6494896364413
 30
0.0
 10
220.937617046169
 20
436.7760669969416
 30
0.0
 10
221.3424485576586
 20
437.0354701777918
 30
0.0
 10
221.6907726562201
 20
437.4212129743159
 30
0.0
 10
221.968068853713
 20
437.8579576254707
 30
0.0
 10
222.1343336591618
 20
438.1644176438707
 30
0.0
 10
222.2171885620037
 20
438.3171361692751
 30
0.0
 11
220.0967046409387
 21
477.5950431391959
 31
0.0
 11
219.658873680859
 21
477.3209045199121
 31
0.0
 11
219.3153520838077
 21
476.9527023907667
 31
0.0
 11
218.9285836356113
 21
476.3484555258677
 31
0.0
 11
218.607719717008
 21
475.7118398813364
 31
0.0
 11
218.2511720254992
 21
474.8290900350743
 31
0.0
 11
217.9511438542754
 21
473.9258363263192
 31
0.0
 11
217.6370569320804
 21
472.7854763219932
 31
0.0
 11
217.3699392291907
 21
471.6337807236339
 31
0.0
 11
217.104901980031
 21
470.2730027614122
 31
0.0
 11
216.8811664863038
 21
468.9049551496252
 31
0.0
 11
216.6722091275798
 21
467.3651642907092
 31
0.0
 11
216.5006166267918
 21
465.8208596809477
 31
0.0
 11
216.3529239059153
 21
464.1492167540048
 31
0.0
 11
216.240135240784
 21
462.474898632186
 31
0.0
 11
216.157223613555
 21
460.7223226386279
 31
0.0
 11
216.1078438946365
 21
458.968500693046
 31
0.0
 11
216.0912974938101
 21
457.1882861663681
 31
0.0
 11
216.1078438946366
 21
455.4080716396904
 31
0.0
 11
216.157223613555
 21
453.6542496941087
 31
0.0
 11
216.240135240784
 21
451.9016737005504
 31
0.0
 11
216.3529239059153
 21
450.2273555787313
 31
0.0
 11
216.5006166267918
 21
448.5557126517888
 31
0.0
 11
216.6722091275798
 21
447.0114080420276
 31
0.0
 11
216.8811664863038
 21
445.4716171831115
 31
0.0
 11
217.104901980031
 21
444.103569571324
 31
0.0
 11
217.3699392291907
 21
442.742791609102
 31
0.0
 11
217.6370569320804
 21
441.5910960107427
 31
0.0
 11
217.9511438542754
 21
440.4507360064172
 31
0.0
 11
218.2511720254992
 21
439.5474822976624
 31
0.0
 11
218.607719717008
 21
438.6647324514005
 31
0.0
 11
218.9285836356115
 21
438.028116806869
 31
0.0
 11
219.3153520838084
 21
437.4238699419697
 31
0.0
 11
219.6588736808597
 21
437.0556678128239
 31
0.0
 11
220.0967046409385
 21
436.78152919354
 31
0.0
 11
220.4949447336451
 21
436.688286166368
 31
0.0
 11
220.8931848263521
 21
436.7815291935401
 31
0.0
 11
221.3310157864315
 21
437.0556678128238
 31
0.0
 11
221.6745373834825
 21
437.4238699419693
 31
0.0
 11
221.9634306704759
 21
437.8618747422105
 31
0.0
 11
222.2171885620037
 21
438.3171361692751
 31
0.0
  0
SPLINE
  5
30D
330
59
100
AcDbEntity
  8
0
  6
Continuous
 62
     7
100
AcDbSpline
210
0.0
220
0.0
230
1.0
 70
     8
 71
     3
 72
    19
 73
    15
 74
    13
 42
0.000000001
 43
0.0000000001
 44
0.00000001
 40
0.0
 40
0.0
 40
0.0
 40
0.0
 40
0.0128662293755562
 40
0.0257331775554953
 40
0.500988859273101
 40
0.9771404847330315
 40
1.456413489476432
 40
1.792943777283631
 40
2.130107347042518
 40
2.478123402444496
 40
2.689166798277326
 40
2.889646681301158
 40
3.090126562317817
 40
3.301169952046619
 40
3.301169952046619
 40
3.301169952046619
 40
3.301169952046619
 10
210.5008121439287
 20
475.688286166436
 30
0.0
 10
210.4990870214543
 20
475.6922126554691
 30
0.0
 10
210.4956366746378
 20
475.7000658504853
 30
0.0
 10
210.4283363272825
 20
475.8528993865058
 30
0.0
 10
210.2889330973531
 20
476.1429118470406
 30
0.0
 10
210.0507574922404
 20
476.5563524316175
 30
0.0
 10
209.8177464142836
 20
476.9189090847081
 30
0.0
 10
209.5721853781934
 20
477.2168117267058
 30
0.0
 10
209.3057125708266
 20
477.4320196838681
 30
0.0
 10
209.0465041653792
 20
477.5829927356324
 30
0.0
 10
208.8078058576685
 20
477.6722932983474
 30
0.0
 10
208.603354262286
 20
477.6958448400139
 30
0.0
 10
208.3981002709514
 20
477.6732477583755
 30
0.0
 10
208.27044750936
 20
477.6215536662432
 30
0.0
 10
208.2049827527938
 20
477.5950431391959
 30
0.0
 11
210.5008121439287
 21
475.688286166436
 31
0.0
 11
210.4956351484798
 21
475.700064890525
 31
0.0
 11
210.4904478621369
 21
475.711839881336
 31
0.0
 11
210.2838613085786
 21
476.139846842094
 31
0.0
 11
210.0479838529787
 21
476.5534676785709
 31
0.0
 11
209.7828154953372
 21
476.9527023907667
 31
0.0
 11
209.5642799154172
 21
477.2086219779594
 31
0.0
 11
209.3038290630403
 21
477.4227355607691
 31
0.0
 11
209.0014629382065
 21
477.5950431391959
 31
0.0
 11
208.8023428918532
 21
477.6649754095749
 31
0.0
 11
208.6032228454999
 21
477.688286166368
 31
0.0
 11
208.4041027991468
 21
477.664975409575
 31
0.0
 11
208.2049827527938
 21
477.5950431391959
 31
0.0
  0
SPLINE
  5
30E
330
59
100
AcDbEntity
  8
0
  6
Continuous
 62
     7
100
AcDbSpline
210
0.0
220
0.0
230
1.0
 70
     8
 71
     3
 72
    45
 73
    41
 74
    39
 42
0.000000001
 43
0.0000000001
 44
0.00000001
 40
0.0
 40
0.0
 40
0.0
 40
0.0
 40
0.1057531279012819
 40
0.2296198874065144
 40
0.6081720133918208
 40
0.9601830066804921
 40
1.539332168341939
 40
2.120549739728165
 40
2.943034678324695
 40
3.764689832081356
 40
4.80844317259106
 40
5.852129731395231
 40
7.089291433041543
 40
8.326397281446553
 40
9.721079904859357
 40
11.1157350042168
 40
12.62674215054597
 40
14.13773646725426
 40
15.72006888429545
 40
17.30239554659905
 40
18.90875671633912
 40
20.5151178860792
 40
22.09744454838291
 40
23.67977696542399
 40
25.19077128213217
 40
26.70177842846093
 40
28.09643352781821
 40
29.49111615123124
 40
30.72822199963648
 40
31.96538370128301
 40
33.00907026008719
 40
34.052823600597
 40
34.8744787543538
 40
35.69696369295032
 40
36.27818126433642
 40
36.85733042599727
 40
37.20934141928571
 40
37.58789354527126
 40
37.71176030473892
 40
37.81751343260939
 40
37.81751343260939
 40
37.81751343260939
 40
37.81751343260939
 10
208.6032228454997
 20
475.688286166368
 30
0.0
 10
208.5677281167633
 20
475.683347049833
 30
0.0
 10
208.4906590397118
 20
475.6726228486543
 30
0.0
 10
208.326721287869
 20
475.5445231092714
 30
0.0
 10
208.1332651858741
 20
475.3341316105797
 30
0.0
 10
207.9376235668891
 20
474.9387869776452
 30
0.0
 10
207.7946965413973
 20
474.45506194271
 30
0.0
 10
207.6115551198036
 20
473.8199709569499
 30
0.0
 10
207.446085207083
 20
473.0963975707076
 30
0.0
 10
207.2812170673354
 20
472.2156168149478
 30
0.0
 10
207.135507412136
 20
471.2567638215236
 30
0.0
 10
206.9913540056993
 20
470.157930582703
 30
0.0
 10
206.8636318428984
 20
468.9921642420829
 30
0.0
 10
206.7448853916612
 20
467.707945438184
 30
0.0
 10
206.6427523251353
 20
466.3696344776228
 30
0.0
 10
206.5528052814679
 20
464.9389739753869
 30
0.0
 10
206.4795864900071
 20
463.4685367679254
 30
0.0
 10
206.4210889661011
 20
461.9348419531143
 30
0.0
 10
206.3795621111745
 20
460.3768111506384
 30
0.0
 10
206.3541571411751
 20
458.7866442772103
 30
0.0
 10
206.3458606105743
 20
457.188286166368
 30
0.0
 10
206.3541571411751
 20
455.5899280555256
 30
0.0
 10
206.3795621111746
 20
453.9997611820975
 30
0.0
 10
206.4210889661011
 20
452.4417303796219
 30
0.0
 10
206.4795864900071
 20
450.908035564811
 30
0.0
 10
206.552805281468
 20
449.4375983573494
 30
0.0
 10
206.6427523251353
 20
448.006937855114
 30
0.0
 10
206.7448853916612
 20
446.6686268945525
 30
0.0
 10
206.8636318428985
 20
445.3844080906533
 30
0.0
 10
206.9913540056993
 20
444.2186417500332
 30
0.0
 10
207.135507412136
 20
443.1198085112124
 30
0.0
 10
207.2812170673354
 20
442.160955517788
 30
0.0
 10
207.446085207083
 20
441.2801747620284
 30
0.0
 10
207.6115551198042
 20
440.5566013757858
 30
0.0
 10
207.7946965413979
 20
439.9215103900264
 30
0.0
 10
207.9376235668898
 20
439.4377853550911
 30
0.0
 10
208.1332651858736
 20
439.0424407221573
 30
0.0
 10
208.3267212878625
 20
438.8320492234736
 30
0.0
 10
208.4906590396806
 20
438.7039494841047
 30
0.0
 10
208.5677281167054
 20
438.6932252829102
 30
0.0
 10
208.6032228454297
 20
438.688286166368
 30
0.0
 11
208.6032228454997
 21
475.688286166368
 31
0.0
 11
208.4999570843998
 21
475.6654847125592
 31
0.0
 11
208.3966913232998
 21
475.5970803511329
 31
0.0
 11
208.1423670316558
 21
475.3166862248119
 31
0.0
 11
207.9788549610797
 21
475.0049563069588
 31
0.0
 11
207.7955112442805
 21
474.4555941021024
 31
0.0
 11
207.6381725500085
 21
473.8960778824109
 31
0.0
 11
207.4513802816
 21
473.0950846727227
 31
0.0
 11
207.298911394912
 21
472.2876997399464
 31
0.0
 11
207.1390153834849
 21
471.2562666105354
 31
0.0
 11
207.0031117529104
 21
470.2214662262309
 31
0.0
 11
206.8671023941058
 21
468.9918034557448
 31
0.0
 11
206.7528192749692
 21
467.7599876222741
 31
0.0
 11
206.6458543736059
 21
466.3694128748152
 31
0.0
 11
206.5581430562449
 21
464.9775186370126
 31
0.0
 11
206.4825123602621
 21
463.4684054563916
 31
0.0
 11
206.4248172512301
 21
461.9585130439179
 31
0.0
 11
206.3823759825061
 21
460.3767499092719
 31
0.0
 11
206.3571076285167
 21
458.7946250172876
 31
0.0
 11
206.3486399925048
 21
457.188286166368
 31
0.0
 11
206.3571076285167
 21
455.5819473154485
 31
0.0
 11
206.3823759825061
 21
453.999822423464
 31
0.0
 11
206.4248172512301
 21
452.4180592888181
 31
0.0
 11
206.4825123602622
 21
450.9081668763445
 31
0.0
 11
206.5581430562449
 21
449.3990536957239
 31
0.0
 11
206.6458543736059
 21
448.0071594579215
 31
0.0
 11
206.7528192749692
 21
446.6165847104624
 31
0.0
 11
206.8671023941058
 21
445.3847688769914
 31
0.0
 11
207.0031117529104
 21
444.1551061065052
 31
0.0
 11
207.1390153834849
 21
443.1203057222007
 31
0.0
 11
207.298911394912
 21
442.0888725927895
 31
0.0
 11
207.4513802816001
 21
441.2814876600131
 31
0.0
 11
207.6381725500091
 21
440.4804944503251
 31
0.0
 11
207.7955112442812
 21
439.9209782306337
 31
0.0
 11
207.9788549610801
 21
439.3716160257778
 31
0.0
 11
208.1423670316559
 21
439.0598861079248
 31
0.0
 11
208.3966913232997
 21
438.7794919816033
 31
0.0
 11
208.4999570843648
 21
438.7110876201923
 31
0.0
 11
208.6032228454297
 21
438.688286166368
 31
0.0
  0
SPLINE
  5
30F
330
59
100
AcDbEntity
  8
0
  6
Continuous
 62
     7
100
AcDbSpline
210
0.0
220
0.0
230
1.0
 70
     8
 71
     3
 72
    59
 73
    55
 74
    53
 42
0.000000001
 43
0.0000000001
 44
0.00000001
 40
0.0
 40
0.0
 40
0.0
 40
0.0
 40
0.3480160563203944
 40
0.6851796265474402
 40
1.021709915355312
 40
1.500982921044046
 40
1.977134546987861
 40
2.452390228697246
 40
3.087355845576211
 40
3.721644648356123
 40
4.356381862271522
 40
5.53920540637384
 40
6.721472136399799
 40
8.107820364499263
 40
9.494042512357987
 40
11.04794697280283
 40
12.60175542923433
 40
14.2799101362364
 40
15.95802290384852
 40
17.71255901212612
 40
19.46707597599847
 40
21.24736739783393
 40
23.02765881948667
 40
24.78217578281057
 40
26.53671189015319
 40
28.2148246565117
 40
29.89297936196921
 40
31.44678781682092
 40
33.0006922756685
 40
34.38691442216886
 40
35.77326264900943
 40
36.95552937803923
 40
38.13835292118613
 40
38.77309013458629
 40
39.40737893684113
 40
40.04234455312964
 40
40.5176002343293
 40
40.99375185968508
 40
41.47302486444011
 40
41.80955515227529
 40
42.14671872188924
 40
42.49473477722303
 40
42.70577817367139
 40
42.90625805839965
 40
43.10673794326846
 40
43.31778134009203
 40
43.66579739602359
 40
44.00296096611739
 40
44.33949125437508
 40
44.81876425941671
 40
45.29491588498351
 40
45.77017156646829
 40
45.78303851403817
 40
45.79590472494777
 40
45.79590472494777
 40
45.79590472494777
 40
45.79590472494777
 10
208.2049827527938
 20
477.5950431391959
 30
0.0
 10
208.1020282483467
 20
477.5410910026075
 30
0.0
 10
207.8993297517671
 20
477.4348691781991
 30
0.0
 10
207.6346300164068
 20
477.2160672698702
 30
0.0
 10
207.3885361221904
 20
476.9192109241505
 30
0.0
 10
207.1558322657804
 20
476.5562231738346
 30
0.0
 10
206.9171350714408
 20
476.1430805777586
 30
0.0
 10
206.6897331893152
 20
475.6651733555234
 30
0.0
 10
206.4685660402056
 20
475.127215367586
 30
0.0
 10
206.2483936606469
 20
474.531755383206
 30
0.0
 10
206.0013352846858
 20
473.7524903232461
 30
0.0
 10
205.7377550083061
 20
472.7875480038284
 30
0.0
 10
205.4565148341438
 20
471.5688359177044
 30
0.0
 10
205.2065596610258
 20
470.2742049083143
 30
0.0
 10
204.9744855799154
 20
468.8506715696643
 30
0.0
 10
204.7744396097216
 20
467.3659286650164
 30
0.0
 10
204.5986756421688
 20
465.7802218243471
 30
0.0
 10
204.4555028883538
 20
464.1496673908833
 30
0.0
 10
204.3411973682399
 20
462.4497946644216
 30
0.0
 10
204.2600025631433
 20
460.7225335358706
 30
0.0
 10
204.2103662388548
 20
458.9600150265088
 30
0.0
 10
204.1941409408236
 20
457.1882861576403
 30
0.0
 10
204.2103662408307
 20
455.4165572889754
 30
0.0
 10
204.2600025670581
 20
453.6540387802166
 30
0.0
 10
204.3411973739965
 20
451.9267776526927
 30
0.0
 10
204.4555028956925
 20
450.2269049274914
 30
0.0
 10
204.5986756509716
 20
448.5963504959605
 30
0.0
 10
204.7744396188555
 20
447.0106436557585
 30
0.0
 10
204.9744855917371
 20
445.5259007570376
 30
0.0
 10
205.2065596661296
 20
444.1023674053944
 30
0.0
 10
205.4565148639384
 20
442.8077364473726
 30
0.0
 10
205.7377549596995
 20
441.5890242014293
 30
0.0
 10
206.0013354757168
 20
440.6240823731736
 30
0.0
 10
206.2483933354306
 20
439.8448162563093
 30
0.0
 10
206.4685673338142
 20
439.2493595869048
 30
0.0
 10
206.6897289144799
 20
438.7113901964769
 30
0.0
 10
206.9171466868183
 20
438.2335155124696
 30
0.0
 10
207.1557883432307
 20
437.8202591917558
 30
0.0
 10
207.3886805918137
 20
437.4576572114269
 30
0.0
 10
207.6342658549314
 20
437.1597593446556
 30
0.0
 10
207.9007265280505
 20
436.9445633012675
 30
0.0
 10
208.1599592047459
 20
436.7935438444769
 30
0.0
 10
208.3986030958001
 20
436.7043541679027
 30
0.0
 10
208.6032228650126
 20
436.6804583897245
 30
0.0
 10
208.8078425764406
 20
436.7043541840015
 30
0.0
 10
209.0464866885708
 20
436.7935437787509
 30
0.0
 10
209.3057180156534
 20
436.9445637718982
 30
0.0
 10
209.572183979536
 20
437.1597577200026
 30
0.0
 10
209.8177469900122
 20
437.4576644116415
 30
0.0
 10
210.0507573335162
 20
437.8202195646309
 30
0.0
 10
210.288933155904
 20
438.2336606019413
 30
0.0
 10
210.4283363411664
 20
438.5236729602484
 30
0.0
 10
210.4956366803102
 20
438.6765064935555
 30
0.0
 10
210.4990870239747
 20
438.6843596830042
 30
0.0
 10
210.5008121439717
 20
438.6882861663989
 30
0.0
 11
208.2049827527938
 21
477.5950431391959
 31
0.0
 11
207.9026166279602
 21
477.4227355607691
 31
0.0
 11
207.6421657755833
 21
477.2086219779594
 31
0.0
 11
207.4236301956633
 21
476.9527023907667
 31
0.0
 11
207.1584618380217
 21
476.553467678571
 31
0.0
 11
206.9225843824216
 21
476.1398468420942
 31
0.0
 11
206.715997828863
 21
475.7118398813364
 31
0.0
 11
206.4720194211587
 21
475.1256181907721
 31
0.0
 11
206.2531608002478
 21
474.530283672433
 31
0.0
 11
206.0594219661299
 21
473.9258363263192
 31
0.0
 11
205.7453350439347
 21
472.7854763219932
 31
0.0
 11
205.4782173410452
 21
471.6337807236339
 31
0.0
 11
205.2131800918858
 21
470.2730027614122
 31
0.0
 11
204.9894445981583
 21
468.9049551496252
 31
0.0
 11
204.7804872394338
 21
467.3651642907092
 31
0.0
 11
204.6088947386458
 21
465.8208596809477
 31
0.0
 11
204.4612020177693
 21
464.1492167540048
 31
0.0
 11
204.348413352638
 21
462.474898632186
 31
0.0
 11
204.2655017254091
 21
460.7223226386279
 31
0.0
 11
204.216122006491
 21
458.968500693046
 31
0.0
 11
204.199575605665
 21
457.1882861663681
 31
0.0
 11
204.2161220064916
 21
455.4080716396904
 31
0.0
 11
204.2655017254099
 21
453.6542496941087
 31
0.0
 11
204.3484133526385
 21
451.9016737005504
 31
0.0
 11
204.4612020177695
 21
450.2273555787313
 31
0.0
 11
204.6088947386458
 21
448.5557126517888
 31
0.0
 11
204.7804872394339
 21
447.0114080420276
 31
0.0
 11
204.9894445981583
 21
445.4716171831115
 31
0.0
 11
205.2131800918859
 21
444.103569571324
 31
0.0
 11
205.4782173410456
 21
442.742791609102
 31
0.0
 11
205.7453350439354
 21
441.5910960107427
 31
0.0
 11
206.0594219661303
 21
440.4507360064172
 31
0.0
 11
206.2531608002479
 21
439.8462886603037
 31
0.0
 11
206.4720194211588
 21
439.2509541419648
 31
0.0
 11
206.715997828863
 21
438.6647324514005
 31
0.0
 11
206.9225843824216
 21
438.2367254906426
 31
0.0
 11
207.1584618380217
 21
437.8231046541657
 31
0.0
 11
207.4236301956633
 21
437.4238699419697
 31
0.0
 11
207.6421657755833
 21
437.1679503547768
 31
0.0
 11
207.90261662796
 21
436.9538367719669
 31
0.0
 11
208.2049827527933
 21
436.78152919354
 31
0.0
 11
208.4041027991466
 21
436.711596923161
 31
0.0
 11
208.6032228454998
 21
436.688286166368
 31
0.0
 11
208.8023428918532
 21
436.711596923161
 31
0.0
 11
209.0014629382065
 21
436.7815291935401
 31
0.0
 11
209.3038290630403
 21
436.9538367719668
 31
0.0
 11
209.5642799154172
 21
437.1679503547767
 31
0.0
 11
209.7828154953372
 21
437.4238699419697
 31
0.0
 11
210.0479838529787
 21
437.8231046541657
 31
0.0
 11
210.2838613085787
 21
438.2367254906427
 31
0.0
 11
210.490447862137
 21
438.6647324514007
 31
0.0
 11
210.4956351485016
 21
438.6765074422609
 31
0.0
 11
210.5008121439717
 21
438.6882861663989
 31
0.0
  0
ENDBLK
  5
5B
330
59
100
AcDbEntity
  8
0
100
AcDbBlockEnd
  0
BLOCK
  5
5D
330
5C
100
AcDbEntity
  8
0
100
AcDbBlockBegin
  2
H5500-50-H6
 70
     0
 10
141.1047090827188
 20
139.2830050382271
 30
0.0
  3
H5500-50-H6
  1

  0
LINE
  5
310
330
5C
100
AcDbEntity
  8
1
  6
Continuous
 62
     7
100
AcDbLine
 10
163.4047090827187
 20
206.320945201481
 30
0.0
 11
143.4047090827187
 21
206.320945201481
 31
0.0
  0
LINE
  5
311
330
5C
100
AcDbEntity
  8
1
  6
Continuous
 62
     7
100
AcDbLine
 10
163.9047090827187
 20
206.320945201481
 30
0.0
 11
163.4047090827187
 21
206.320945201481
 31
0.0
  0
LINE
  5
312
330
5C
100
AcDbEntity
  8
1
  6
Continuous
 62
     7
100
AcDbLine
 10
163.9047090827187
 20
206.320945201481
 30
0.0
 11
163.9047090827187
 21
208.820945201481
 31
0.0
  0
LINE
  5
313
330
5C
100
AcDbEntity
  8
1
  6
Continuous
 62
     7
100
AcDbLine
 10
163.4047090827187
 20
210.320945201481
 30
0.0
 11
163.9624869874951
 21
210.320945201481
 31
0.0
  0
LINE
  5
314
330
5C
100
AcDbEntity
  8
1
  6
Continuous
 62
     7
100
AcDbLine
 10
163.4047090827187
 20
223.320945201481
 30
0.0
 11
166.8047090827187
 21
223.320945201481
 31
0.0
  0
LINE
  5
315
330
5C
100
AcDbEntity
  8
1
  6
Continuous
 62
     7
100
AcDbLine
 10
166.8047090827187
 20
223.320945201481
 30
0.0
 11
166.8047090827187
 21
219.0527583350365
 31
0.0
  0
LINE
  5
316
330
5C
100
AcDbEntity
  8
1
  6
Continuous
 62
     7
100
AcDbLine
 10
183.4047090827187
 20
206.320945201481
 30
0.0
 11
163.9047090827187
 21
206.320945201481
 31
0.0
  0
LINE
  5
317
330
5C
100
AcDbEntity
  8
1
  6
Continuous
 62
     7
100
AcDbLine
 10
163.4047090827187
 20
223.320945201481
 30
0.0
 11
163.4047090827187
 21
206.320945201481
 31
0.0
  0
LINE
  5
318
330
5C
100
AcDbEntity
  8
0
  6
Continuous
 62
     7
100
AcDbLine
 10
183.4047090827187
 20
206.320945201481
 30
0.0
 11
183.4047090827187
 21
156.320945201481
 31
0.0
  0
LINE
  5
319
330
5C
100
AcDbEntity
  8
0
  6
Continuous
 62
     7
100
AcDbLine
 10
143.4047090827187
 20
206.320945201481
 30
0.0
 11
143.4047090827187
 21
223.320945201481
 31
0.0
  0
LINE
  5
31A
330
5C
100
AcDbEntity
  8
0
  6
Continuous
 62
     7
100
AcDbLine
 10
156.4270662142417
 20
139.320945201481
 30
0.0
 11
170.3823519511957
 21
139.320945201481
 31
0.0
  0
LINE
  5
31B
330
5C
100
AcDbEntity
  8
0
  6
Continuous
 62
     7
100
AcDbLine
 10
143.4047090827187
 20
156.320945201481
 30
0.0
 11
143.4047090827187
 21
206.320945201481
 31
0.0
  0
ARC
  5
31C
330
5C
100
AcDbEntity
  8
1
  6
Continuous
 62
     7
100
AcDbCircle
 10
183.4047090827187
 20
208.820945201481
 30
0.0
 40
19.49999999999998
100
AcDbArc
 50
148.3513873404878
 51
175.5882742142298
  0
ARC
  5
31D
330
5C
100
AcDbEntity
  8
1
  6
Continuous
 62
     7
100
AcDbCircle
 10
183.4047090827187
 20
208.820945201481
 30
0.0
 40
19.5
100
AcDbArc
 50
131.9618888283515
 51
148.3513873404878
  0
ARC
  5
31E
330
5C
100
AcDbEntity
  8
1
  6
Continuous
 62
     7
100
AcDbCircle
 10
183.4047090827187
 20
208.820945201481
 30
0.0
 40
19.50000000000002
100
AcDbArc
 50
175.5882742142298
 51
180.0
  0
CIRCLE
  5
31F
330
5C
100
AcDbEntity
  8
1
  6
DASH_CENTER
 62
     2
100
AcDbCircle
 10
163.4047090827192
 20
457.1882861663677
 30
0.0
 40
45.0
  0
SPLINE
  5
320
330
5C
100
AcDbEntity
  8
0
  6
Continuous
 62
     7
100
AcDbSpline
210
0.0
220
0.0
230
1.0
 70
     8
 71
     3
 72
     9
 73
     5
 74
     3
 42
0.000000001
 43
0.0000000001
 44
0.00000001
 40
0.0
 40
0.0
 40
0.0
 40
0.0
 40
0.5691625415147537
 40
1.14020659670167
 40
1.14020659670167
 40
1.14020659670167
 40
1.14020659670167
 10
156.4270662142228
 20
139.3209452014812
 30
0.0
 10
156.2372679555663
 20
139.323692458997
 30
0.0
 10
155.8570440119859
 20
139.3291960757646
 30
0.0
 10
155.4786977024747
 20
139.3673430968323
 30
0.0
 10
155.2892123840639
 20
139.3864480915325
 30
0.0
 11
156.4270662142228
 21
139.3209452014812
 31
0.0
 11
155.8581392991431
 21
139.3373209239945
 31
0.0
 11
155.2892123840639
 21
139.3864480915325
 31
0.0
  0
SPLINE
  5
321
330
5C
100
AcDbEntity
  8
0
  6
Continuous
 62
     7
100
AcDbSpline
210
0.0
220
0.0
230
1.0
 70
     8
 71
     3
 72
    25
 73
    21
 74
    19
 42
0.000000001
 43
0.0000000001
 44
0.00000001
 40
0.0
 40
0.0
 40
0.0
 40
0.0
 40
1.15156755898644
 40
2.302835550609836
 40
3.487509788213351
 40
4.671697532602781
 40
5.905325898662845
 40
7.138423527737872
 40
8.429610645396796
 40
9.720322195922897
 40
11.07013676014489
 40
12.41957387217015
 40
13.82230507555657
 40
15.22476422194489
 40
16.66922900628117
 40
18.11352014339553
 40
19.5845875926922
 40
21.05557090630385
 40
21.79616978804781
 40
22.53594653037405
 40
22.53594653037405
 40
22.53594653037405
 40
22.53594653037405
 10
171.5202057813729
 20
139.3864480915325
 30
0.0
 10
171.9003719707218
 20
139.4425386279172
 30
0.0
 10
172.660605451025
 20
139.5547051231815
 30
0.0
 10
173.7778466864486
 20
139.8888206869747
 30
0.0
 10
174.8646339082327
 20
140.3357902066107
 30
0.0
 10
175.9209409663427
 20
140.911790443096
 30
0.0
 10
176.9276641085139
 20
141.5990399724077
 30
0.0
 10
177.8897563856156
 20
142.4040960325033
 30
0.0
 10
178.7872389982789
 20
143.3075058987066
 30
0.0
 10
179.6262441004752
 20
144.3163646156774
 30
0.0
 10
180.3887955132735
 20
145.4079133310786
 30
0.0
 10
181.0800195910165
 20
146.5892477357793
 30
0.0
 10
181.6857361813431
 20
147.8361420989167
 30
0.0
 10
182.2090396504742
 20
149.1538139426001
 30
0.0
 10
182.6402788172784
 20
150.5189515252075
 30
0.0
 10
182.9804952998545
 20
151.933007207778
 30
0.0
 10
183.2246405669302
 20
153.3757644082764
 30
0.0
 10
183.3467648411453
 20
154.5981435002648
 30
0.0
 10
183.3975377542004
 20
155.5808564663005
 30
0.0
 10
183.4023195297715
 20
156.074340309849
 30
0.0
 10
183.4047090827187
 20
156.320945201481
 30
0.0
 11
171.5202057813729
 21
139.3864480915325
 31
0.0
 11
172.6550757451062
 21
139.5818400500913
 31
0.0
 11
173.7605516037147
 21
139.9033071912066
 31
0.0
 11
174.8555896418552
 21
140.3553522658676
 31
0.0
 11
175.8963116899486
 21
140.9203285802103
 31
0.0
 11
176.9156394444988
 21
141.615173797902
 31
0.0
 11
177.8623755596391
 21
142.4052500554055
 31
0.0
 11
178.7732375712613
 21
143.3203973494854
 31
0.0
 11
179.5995771460184
 21
144.3119109474042
 31
0.0
 11
180.3736074508244
 21
145.4177483884064
 31
0.0
 11
181.0560085820158
 21
146.5819258732395
 31
0.0
 11
181.6698862654581
 21
147.843198650779
 31
0.0
 11
182.1882208298732
 21
149.146356713748
 31
0.0
 11
182.6240746670987
 21
150.5234950314261
 31
0.0
 11
182.9623968540501
 21
151.9276015040288
 31
0.0
 11
183.2080965490064
 21
153.378005275145
 31
0.0
 11
183.3553719288341
 21
154.841597386375
 31
0.0
 11
183.3923747942475
 21
155.581271293928
 31
0.0
 11
183.4047090827187
 21
156.320945201481
 31
0.0
  0
SPLINE
  5
322
330
5C
100
AcDbEntity
  8
0
  6
Continuous
 62
     7
100
AcDbSpline
210
0.0
220
0.0
230
1.0
 70
     8
 71
     3
 72
     9
 73
     5
 74
     3
 42
0.000000001
 43
0.0000000001
 44
0.00000001
 40
0.0
 40
0.0
 40
0.0
 40
0.0
 40
0.56916254151464
 40
1.140206596700877
 40
1.140206596700877
 40
1.140206596700877
 40
1.140206596700877
 10
170.3823519512148
 20
139.3209452014812
 30
0.0
 10
170.5721502098713
 20
139.323692458997
 30
0.0
 10
170.9523741534513
 20
139.3291960757646
 30
0.0
 10
171.3307204629623
 20
139.3673430968323
 30
0.0
 10
171.5202057813729
 20
139.3864480915325
 30
0.0
 11
170.3823519512148
 21
139.3209452014812
 31
0.0
 11
170.9512788662944
 21
139.3373209239945
 31
0.0
 11
171.5202057813729
 21
139.3864480915325
 31
0.0
  0
SPLINE
  5
323
330
5C
100
AcDbEntity
  8
0
  6
Continuous
 62
     7
100
AcDbSpline
210
0.0
220
0.0
230
1.0
 70
     8
 71
     3
 72
     9
 73
     5
 74
     3
 42
0.000000001
 43
0.0000000001
 44
0.00000001
 40
0.0
 40
0.0
 40
0.0
 40
0.0
 40
0.56916254151464
 40
1.140206596700877
 40
1.140206596700877
 40
1.140206596700877
 40
1.140206596700877
 10
170.3823519512148
 20
139.3209452014812
 30
0.0
 10
170.5721502098713
 20
139.323692458997
 30
0.0
 10
170.9523741534513
 20
139.3291960757646
 30
0.0
 10
171.3307204629623
 20
139.3673430968323
 30
0.0
 10
171.5202057813729
 20
139.3864480915325
 30
0.0
 11
170.3823519512148
 21
139.3209452014812
 31
0.0
 11
170.9512788662944
 21
139.3373209239945
 31
0.0
 11
171.5202057813729
 21
139.3864480915325
 31
0.0
  0
SPLINE
  5
324
330
5C
100
AcDbEntity
  8
0
  6
Continuous
 62
     7
100
AcDbSpline
210
0.0
220
0.0
230
1.0
 70
     8
 71
     3
 72
    25
 73
    21
 74
    19
 42
0.000000001
 43
0.0000000001
 44
0.00000001
 40
0.0
 40
0.0
 40
0.0
 40
0.0
 40
1.151567558986636
 40
2.302835550610114
 40
3.487509788213629
 40
4.671697532603035
 40
5.905325898663098
 40
7.138423527738103
 40
8.429610645397007
 40
9.720322195923146
 40
11.07013676014518
 40
12.41957387217043
 40
13.82230507555687
 40
15.22476422194518
 40
16.66922900628146
 40
18.11352014339581
 40
19.58458759269245
 40
21.05557090630406
 40
21.79616978804801
 40
22.53594653037425
 40
22.53594653037425
 40
22.53594653037425
 40
22.53594653037425
 10
155.2892123840639
 20
139.3864480915325
 30
0.0
 10
154.9090461947149
 20
139.4425386279172
 30
0.0
 10
154.1488127144116
 20
139.5547051231814
 30
0.0
 10
153.0315714789879
 20
139.8888206869747
 30
0.0
 10
151.9447842572039
 20
140.3357902066107
 30
0.0
 10
150.8884771990938
 20
140.9117904430961
 30
0.0
 10
149.8817540569227
 20
141.5990399724077
 30
0.0
 10
148.9196617798209
 20
142.4040960325034
 30
0.0
 10
148.0221791671577
 20
143.3075058987067
 30
0.0
 10
147.1831740649613
 20
144.3163646156774
 30
0.0
 10
146.420622652163
 20
145.4079133310786
 30
0.0
 10
145.72939857442
 20
146.5892477357793
 30
0.0
 10
145.1236819840933
 20
147.8361420989166
 30
0.0
 10
144.6003785149623
 20
149.1538139426002
 30
0.0
 10
144.1691393481581
 20
150.5189515252075
 30
0.0
 10
143.8289228655819
 20
151.933007207778
 30
0.0
 10
143.5847775985063
 20
153.3757644082764
 30
0.0
 10
143.4626533242918
 20
154.5981435002648
 30
0.0
 10
143.4118804112368
 20
155.5808564663005
 30
0.0
 10
143.407098635666
 20
156.074340309849
 30
0.0
 10
143.4047090827187
 20
156.320945201481
 30
0.0
 11
155.2892123840639
 21
139.3864480915325
 31
0.0
 11
154.1543424203304
 21
139.5818400500913
 31
0.0
 11
153.0488665617218
 21
139.9033071912066
 31
0.0
 11
151.9538285235813
 21
140.3553522658676
 31
0.0
 11
150.9131064754879
 21
140.9203285802103
 31
0.0
 11
149.8937787209377
 21
141.615173797902
 31
0.0
 11
148.9470426057974
 21
142.4052500554055
 31
0.0
 11
148.0361805941753
 21
143.3203973494854
 31
0.0
 11
147.2098410194181
 21
144.3119109474042
 31
0.0
 11
146.4358107146121
 21
145.4177483884064
 31
0.0
 11
145.7534095834207
 21
146.5819258732395
 31
0.0
 11
145.1395318999784
 21
147.843198650779
 31
0.0
 11
144.6211973355633
 21
149.146356713748
 31
0.0
 11
144.1853434983377
 21
150.5234950314261
 31
0.0
 11
143.8470213113864
 21
151.9276015040288
 31
0.0
 11
143.6013216164303
 21
153.378005275145
 31
0.0
 11
143.454046236603
 21
154.841597386375
 31
0.0
 11
143.4170433711898
 21
155.581271293928
 31
0.0
 11
143.4047090827187
 21
156.320945201481
 31
0.0
  0
CIRCLE
  5
325
330
5C
100
AcDbEntity
  8
1
  6
DOTTED
 62
     1
100
AcDbCircle
 10
163.4047090827192
 20
457.1882861663677
 30
0.0
 40
45.0
  0
ENDBLK
  5
5E
330
5C
100
AcDbEntity
  8
0
100
AcDbBlockEnd
  0
BLOCK
  5
60
330
5F
100
AcDbEntity
  8
0
100
AcDbBlockBegin
  2
H5500-50-H8
 70
     0
 10
135.4047090827187
 20
223.320945201481
 30
0.0
  3
H5500-50-H8
  1

  0
LINE
  5
326
330
5F
100
AcDbEntity
  8
1
  6
Continuous
 62
     7
100
AcDbLine
 10
183.9047090827187
 20
223.320945201481
 30
0.0
 11
163.4047090827187
 21
223.320945201481
 31
0.0
  0
LINE
  5
327
330
5F
100
AcDbEntity
  8
0
  6
Continuous
 62
     7
100
AcDbLine
 10
190.9047090827187
 20
223.320945201481
 30
0.0
 11
183.9047090827187
 21
223.320945201481
 31
0.0
  0
LINE
  5
328
330
5F
100
AcDbEntity
  8
0
  6
Continuous
 62
     7
100
AcDbLine
 10
142.9047090827187
 20
223.320945201481
 30
0.0
 11
135.9047090827187
 21
223.320945201481
 31
0.0
  0
LINE
  5
329
330
5F
100
AcDbEntity
  8
0
  6
Continuous
 62
     7
100
AcDbLine
 10
135.4047090827187
 20
223.820945201481
 30
0.0
 11
135.4047090827187
 21
248.320945201481
 31
0.0
  0
LINE
  5
32A
330
5F
100
AcDbEntity
  8
1
  6
Continuous
 62
     7
100
AcDbLine
 10
163.4047090827187
 20
223.320945201481
 30
0.0
 11
142.9047090827187
 21
223.320945201481
 31
0.0
  0
LINE
  5
32B
330
5F
100
AcDbEntity
  8
0
  6
Continuous
 62
     7
100
AcDbLine
 10
191.4047090827187
 20
248.320945201481
 30
0.0
 11
191.4047090827187
 21
223.820945201481
 31
0.0
  0
ARC
  5
32C
330
5F
100
AcDbEntity
  8
0
  6
Continuous
 62
     7
100
AcDbCircle
 10
190.9047090827187
 20
223.820945201481
 30
0.0
 40
0.5
100
AcDbArc
 50
270.0
 51
0.0
  0
ARC
  5
32D
330
5F
100
AcDbEntity
  8
0
  6
Continuous
 62
     7
100
AcDbCircle
 10
135.9047090827187
 20
223.820945201481
 30
0.0
 40
0.5
100
AcDbArc
 50
180.0
 51
270.0
  0
ENDBLK
  5
61
330
5F
100
AcDbEntity
  8
0
100
AcDbBlockEnd
  0
BLOCK
  5
1F9
330
1EF
100
AcDbEntity
  8
0
100
AcDbBlockBegin
  2
*D10
 70
     1
 10
0.0
 20
0.0
 30
0.0
  3
*D10
  1

  0
LINE
  5
1F0
330
1EF
100
AcDbEntity
  8
1
  6
Continuous
 62
     2
100
AcDbLine
 10
365.0027164061212
 20
206.8362131541791
 30
0.0
 11
365.0027164061212
 21
220.8362131541791
 31
0.0
  0
LINE
  5
1F1
330
1EF
100
AcDbEntity
  8
1
  6
Continuous
 62
     2
100
AcDbLine
 10
365.0027164061212
 20
220.8362131541791
 30
0.0
 11
365.0027164061212
 21
236.4362720762512
 31
0.0
  0
LINE
  5
1F2
330
1EF
100
AcDbEntity
  8
1
  6
Continuous
 62
     2
100
AcDbLine
 10
365.0027164061212
 20
236.4362720762512
 30
0.0
 11
365.0027164061212
 21
250.4362720762512
 31
0.0
  0
LINE
  5
1F3
330
1EF
100
AcDbEntity
  8
1
  6
Continuous
 62
     2
100
AcDbLine
 10
345.0015485480271
 20
236.4362720762512
 30
0.0
 11
367.0027164061212
 21
236.4362720762512
 31
0.0
  0
LINE
  5
1F4
330
1EF
100
AcDbEntity
  8
1
  6
Continuous
 62
     2
100
AcDbLine
 10
341.2515499618974
 20
220.8362131541791
 30
0.0
 11
367.0027164061212
 21
220.8362131541791
 31
0.0
  0
SOLID
  5
1F5
330
1EF
100
AcDbEntity
  8
1
 62
     2
100
AcDbTrace
 10
365.9242838892329
 20
213.8362131541791
 30
0.0
 11
364.0811489230094
 21
213.8362131541791
 31
0.0
 12
365.0027164061212
 22
220.8362131541791
 32
0.0
 13
365.0027164061212
 23
220.8362131541791
 33
0.0
  0
SOLID
  5
1F6
330
1EF
100
AcDbEntity
  8
1
 62
     2
100
AcDbTrace
 10
364.0811489230094
 20
243.4362720762512
 30
0.0
 11
365.9242838892329
 21
243.4362720762512
 31
0.0
 12
365.0027164061212
 22
236.4362720762512
 32
0.0
 13
365.0027164061212
 23
236.4362720762512
 33
0.0
  0
MTEXT
  5
1F8
330
1EF
100
AcDbEntity
  8
1
 62
     7
100
AcDbMText
 10
363.0027164061212
 20
224.436242615215
 30
0.0
 40
7.0
 41
0.0
 71
     7
 72
     1
  1
16
  7
CONVERTER_12
 11
0.0
 21
1.0
 31
0.0
 73
     1
 44
0.60024009603842
  0
ENDBLK
  5
1FA
330
1EF
100
AcDbEntity
  8
0
100
AcDbBlockEnd
  0
BLOCK
  5
226
330
21F
100
AcDbEntity
  8
0
100
AcDbBlockBegin
  2
*D11
 70
     1
 10
0.0
 20
0.0
 30
0.0
  3
*D11
  1

  0
LINE
  5
220
330
21F
100
AcDbEntity
  8
1
  6
Continuous
 62
     2
100
AcDbLine
 10
384.6048331997001
 20
428.105895558054
 30
0.0
 11
384.6048331997001
 21
464.4058955580539
 31
0.0
  0
LINE
  5
221
330
21F
100
AcDbEntity
  8
1
  6
Continuous
 62
     2
100
AcDbLine
 10
363.6048331997001
 20
464.4058955580539
 30
0.0
 11
386.6048331997001
 21
464.4058955580539
 31
0.0
  0
LINE
  5
222
330
21F
100
AcDbEntity
  8
1
  6
Continuous
 62
     2
100
AcDbLine
 10
363.6048331997001
 20
428.105895558054
 30
0.0
 11
386.6048331997001
 21
428.105895558054
 31
0.0
  0
SOLID
  5
223
330
21F
100
AcDbEntity
  8
1
 62
     2
100
AcDbTrace
 10
383.6832657165884
 20
435.105895558054
 30
0.0
 11
385.5264006828119
 21
435.105895558054
 31
0.0
 12
384.6048331997001
 22
428.105895558054
 32
0.0
 13
384.6048331997001
 23
428.105895558054
 33
0.0
  0
SOLID
  5
224
330
21F
100
AcDbEntity
  8
1
 62
     2
100
AcDbTrace
 10
385.5264006828119
 20
457.4058955580539
 30
0.0
 11
383.6832657165884
 21
457.4058955580539
 31
0.0
 12
384.6048331997001
 22
464.4058955580539
 32
0.0
 13
384.6048331997001
 23
464.4058955580539
 33
0.0
  0
MTEXT
  5
225
330
21F
100
AcDbEntity
  8
1
 62
     7
100
AcDbMText
 10
382.6048331997001
 20
441.0058955580541
 30
0.0
 40
7.0
 41
0.0
 71
     7
 72
     1
  1
36
  7
CONVERTER_12
 11
0.0
 21
1.0
 31
0.0
 73
     1
 44
0.60024009603842
  0
ENDBLK
  5
227
330
21F
100
AcDbEntity
  8
0
100
AcDbBlockEnd
  0
BLOCK
  5
231
330
22A
100
AcDbEntity
  8
0
100
AcDbBlockBegin
  2
*D12
 70
     1
 10
0.0
 20
0.0
 30
0.0
  3
*D12
  1

  0
LINE
  5
22B
330
22A
100
AcDbEntity
  8
0
  6
Continuous
 62
     2
100
AcDbLine
 10
333.6048331997001
 20
408.105895558054
 30
0.0
 11
363.6048331997001
 21
408.105895558054
 31
0.0
  0
LINE
  5
22C
330
22A
100
AcDbEntity
  8
0
  6
Continuous
 62
     2
100
AcDbLine
 10
363.6048331997001
 20
428.1058955580542
 30
0.0
 11
363.6048331997001
 21
406.105895558054
 31
0.0
  0
LINE
  5
22D
330
22A
100
AcDbEntity
  8
0
  6
Continuous
 62
     2
100
AcDbLine
 10
333.6048331997001
 20
428.1058955580542
 30
0.0
 11
333.6048331997001
 21
406.105895558054
 31
0.0
  0
SOLID
  5
22E
330
22A
100
AcDbEntity
  8
0
 62
     2
100
AcDbTrace
 10
340.6048331997001
 20
409.0274630411657
 30
0.0
 11
340.6048331997001
 21
407.1843280749422
 31
0.0
 12
333.6048331997001
 22
408.105895558054
 32
0.0
 13
333.6048331997001
 23
408.105895558054
 33
0.0
  0
SOLID
  5
22F
330
22A
100
AcDbEntity
  8
0
 62
     2
100
AcDbTrace
 10
356.6048331997001
 20
407.1843280749422
 30
0.0
 11
356.6048331997001
 21
409.0274630411657
 31
0.0
 12
363.6048331997001
 22
408.105895558054
 32
0.0
 13
363.6048331997001
 23
408.105895558054
 33
0.0
  0
MTEXT
  5
230
330
22A
100
AcDbEntity
  8
0
 62
     7
100
AcDbMText
 10
341.814833199717
 20
410.1058816439013
 30
0.0
 40
7.0
 41
0.0
 71
     7
 72
     1
  1
\C7;{\Fgdt;n}\C7;30
  7
CONVERTER_12
 11
0.9999999999970619
 21
2.424068405545306E-6
 31
0.0
 73
     1
 44
0.60024009603842
  0
ENDBLK
  5
232
330
22A
100
AcDbEntity
  8
0
100
AcDbBlockEnd
  0
BLOCK
  5
23C
330
235
100
AcDbEntity
  8
0
100
AcDbBlockBegin
  2
*D13
 70
     1
 10
0.0
 20
0.0
 30
0.0
  3
*D13
  1

  0
LINE
  5
236
330
235
100
AcDbEntity
  8
0
  6
Continuous
 62
     2
100
AcDbLine
 10
332.6048331997001
 20
392.105895558054
 30
0.0
 11
364.6048331997001
 21
392.105895558054
 31
0.0
  0
LINE
  5
237
330
235
100
AcDbEntity
  8
0
  6
Continuous
 62
     2
100
AcDbLine
 10
364.6048331997001
 20
451.105895558054
 30
0.0
 11
364.6048331997001
 21
390.105895558054
 31
0.0
  0
LINE
  5
238
330
235
100
AcDbEntity
  8
0
  6
Continuous
 62
     2
100
AcDbLine
 10
332.6048331997001
 20
451.105895558054
 30
0.0
 11
332.6048331997001
 21
390.105895558054
 31
0.0
  0
SOLID
  5
239
330
235
100
AcDbEntity
  8
0
 62
     2
100
AcDbTrace
 10
339.6048331997001
 20
393.0274630411657
 30
0.0
 11
339.6048331997001
 21
391.1843280749422
 31
0.0
 12
332.6048331997001
 22
392.105895558054
 32
0.0
 13
332.6048331997001
 23
392.105895558054
 33
0.0
  0
SOLID
  5
23A
330
235
100
AcDbEntity
  8
0
 62
     2
100
AcDbTrace
 10
357.6048331997001
 20
391.1843280749422
 30
0.0
 11
357.6048331997001
 21
393.0274630411657
 31
0.0
 12
364.6048331997001
 22
392.105895558054
 32
0.0
 13
364.6048331997001
 23
392.105895558054
 33
0.0
  0
MTEXT
  5
23B
330
235
100
AcDbEntity
  8
0
 62
     7
100
AcDbMText
 10
341.814833199717
 20
394.1058816439013
 30
0.0
 40
7.0
 41
0.0
 71
     7
 72
     1
  1
\C7;{\Fgdt;n}\C7;32
  7
CONVERTER_12
 11
0.9999999999970619
 21
2.424068405545306E-6
 31
0.0
 73
     1
 44
0.60024009603842
  0
ENDBLK
  5
23D
330
235
100
AcDbEntity
  8
0
100
AcDbBlockEnd
  0
BLOCK
  5
355
330
34E
100
AcDbEntity
  8
0
100
AcDbBlockBegin
  2
*D14
 70
     1
 10
0.0
 20
0.0
 30
0.0
  3
*D14
  1

  0
LINE
  5
34F
330
34E
100
AcDbEntity
  8
1
  6
Continuous
 62
     2
100
AcDbLine
 10
92.40470908271871
 20
248.320945201481
 30
0.0
 11
92.40470908271871
 21
323.431689625301
 31
0.0
  0
LINE
  5
350
330
34E
100
AcDbEntity
  8
1
  6
Continuous
 62
     2
100
AcDbLine
 10
110.9047090827187
 20
248.320945201481
 30
0.0
 11
90.40470908271871
 21
248.320945201481
 31
0.0
  0
LINE
  5
351
330
34E
100
AcDbEntity
  8
1
  6
Continuous
 62
     2
100
AcDbLine
 10
192.709829668515
 20
323.431689625301
 30
0.0
 11
90.40470908271871
 21
323.431689625301
 31
0.0
  0
SOLID
  5
352
330
34E
100
AcDbEntity
  8
1
 62
     2
100
AcDbTrace
 10
91.48314159960694
 20
255.320945201481
 30
0.0
 11
93.32627656583048
 21
255.320945201481
 31
0.0
 12
92.40470908271871
 22
248.320945201481
 32
0.0
 13
92.40470908271871
 23
248.320945201481
 33
0.0
  0
SOLID
  5
353
330
34E
100
AcDbEntity
  8
1
 62
     2
100
AcDbTrace
 10
93.32627656583048
 20
316.431689625301
 30
0.0
 11
91.48314159960694
 21
316.431689625301
 31
0.0
 12
92.40470908271871
 22
323.431689625301
 32
0.0
 13
92.40470908271871
 23
323.431689625301
 33
0.0
  0
MTEXT
  5
354
330
34E
100
AcDbEntity
  8
1
 62
     7
100
AcDbMText
 10
90.40470908271871
 20
280.626317413391
 30
0.0
 40
7.0
 41
0.0
 71
     7
 72
     1
  1
75
  7
CONVERTER_12
 11
0.0
 21
1.0
 31
0.0
 73
     1
 44
0.60024009603842
  0
ENDBLK
  5
356
330
34E
100
AcDbEntity
  8
0
100
AcDbBlockEnd
  0
BLOCK
  5
360
330
359
100
AcDbEntity
  8
0
100
AcDbBlockBegin
  2
*D15
 70
     1
 10
0.0
 20
0.0
 30
0.0
  3
*D15
  1

  0
LINE
  5
35A
330
359
100
AcDbEntity
  8
1
  6
Continuous
 62
     2
100
AcDbLine
 10
280.1747917924
 20
248.3209452014809
 30
0.0
 11
280.1747917924
 21
299.2424525228159
 31
0.0
  0
LINE
  5
35B
330
359
100
AcDbEntity
  8
1
  6
Continuous
 62
     2
100
AcDbLine
 10
227.9202089394037
 20
299.2424525228159
 30
0.0
 11
282.1747917924
 21
299.2424525228159
 31
0.0
  0
LINE
  5
35C
330
359
100
AcDbEntity
  8
1
  6
Continuous
 62
     2
100
AcDbLine
 10
215.9047090827187
 20
248.3209452014809
 30
0.0
 11
282.1747917924
 21
248.3209452014809
 31
0.0
  0
SOLID
  5
35D
330
359
100
AcDbEntity
  8
1
 62
     2
100
AcDbTrace
 10
279.2532243092883
 20
255.3209452014809
 30
0.0
 11
281.0963592755118
 21
255.3209452014809
 31
0.0
 12
280.1747917924
 22
248.3209452014809
 32
0.0
 13
280.1747917924
 23
248.3209452014809
 33
0.0
  0
SOLID
  5
35E
330
359
100
AcDbEntity
  8
1
 62
     2
100
AcDbTrace
 10
281.0963592755118
 20
292.2424525228159
 30
0.0
 11
279.2532243092883
 21
292.2424525228159
 31
0.0
 12
280.1747917924
 22
299.2424525228159
 32
0.0
 13
280.1747917924
 23
299.2424525228159
 33
0.0
  0
MTEXT
  5
35F
330
359
100
AcDbEntity
  8
1
 62
     7
100
AcDbMText
 10
278.1747917924
 20
273.734517069194
 30
0.0
 40
7.0
 41
0.0
 71
     7
 72
     1
  1
51
  7
CONVERTER_12
 11
0.0
 21
1.0
 31
0.0
 73
     1
 44
0.60024009603842
  0
ENDBLK
  5
361
330
359
100
AcDbEntity
  8
0
100
AcDbBlockEnd
  0
BLOCK
  5
36B
330
364
100
AcDbEntity
  8
0
100
AcDbBlockBegin
  2
*D16
 70
     1
 10
0.0
 20
0.0
 30
0.0
  3
*D16
  1

  0
LINE
  5
365
330
364
100
AcDbEntity
  8
1
  6
Continuous
 62
     2
100
AcDbLine
 10
256.1747917924
 20
223.320945201481
 30
0.0
 11
256.1747917924
 21
248.320945201481
 31
0.0
  0
LINE
  5
366
330
364
100
AcDbEntity
  8
1
  6
Continuous
 62
     2
100
AcDbLine
 10
190.9047090827187
 20
223.320945201481
 30
0.0
 11
258.1747917924
 21
223.320945201481
 31
0.0
  0
LINE
  5
367
330
364
100
AcDbEntity
  8
1
  6
Continuous
 62
     2
100
AcDbLine
 10
215.9047090827187
 20
248.320945201481
 30
0.0
 11
258.1747917924
 21
248.320945201481
 31
0.0
  0
SOLID
  5
368
330
364
100
AcDbEntity
  8
1
 62
     2
100
AcDbTrace
 10
255.2532243092882
 20
230.320945201481
 30
0.0
 11
257.0963592755118
 21
230.320945201481
 31
0.0
 12
256.1747917924
 22
223.320945201481
 32
0.0
 13
256.1747917924
 23
223.320945201481
 33
0.0
  0
SOLID
  5
369
330
364
100
AcDbEntity
  8
1
 62
     2
100
AcDbTrace
 10
257.0963592755118
 20
241.320945201481
 30
0.0
 11
255.2532243092882
 21
241.320945201481
 31
0.0
 12
256.1747917924
 22
248.320945201481
 32
0.0
 13
256.1747917924
 23
248.320945201481
 33
0.0
  0
MTEXT
  5
36A
330
364
100
AcDbEntity
  8
1
 62
     7
100
AcDbMText
 10
255.650836126139
 20
230.181120870421
 30
0.0
 40
7.0
 41
0.0
 71
     7
 72
     1
  1
25
  7
CONVERTER_12
 11
0.0
 21
1.0
 31
0.0
 73
     1
 44
0.60024009603842
  0
ENDBLK
  5
36C
330
364
100
AcDbEntity
  8
0
100
AcDbBlockEnd
  0
BLOCK
  5
376
330
36F
100
AcDbEntity
  8
0
100
AcDbBlockBegin
  2
*D17
 70
     1
 10
0.0
 20
0.0
 30
0.0
  3
*D17
  1

  0
LINE
  5
370
330
36F
100
AcDbEntity
  8
1
  6
Continuous
 62
     2
100
AcDbLine
 10
256.1747917924
 20
139.320945201481
 30
0.0
 11
256.1747917924
 21
223.320945201481
 31
0.0
  0
LINE
  5
371
330
36F
100
AcDbEntity
  8
1
  6
Continuous
 62
     2
100
AcDbLine
 10
170.3823519511957
 20
139.320945201481
 30
0.0
 11
258.1747917924
 21
139.320945201481
 31
0.0
  0
LINE
  5
372
330
36F
100
AcDbEntity
  8
1
  6
Continuous
 62
     2
100
AcDbLine
 10
190.9047090827187
 20
223.320945201481
 30
0.0
 11
258.1747917924
 21
223.320945201481
 31
0.0
  0
SOLID
  5
373
330
36F
100
AcDbEntity
  8
1
 62
     2
100
AcDbTrace
 10
255.2532243092882
 20
146.320945201481
 30
0.0
 11
257.0963592755118
 21
146.320945201481
 31
0.0
 12
256.1747917924
 22
139.320945201481
 32
0.0
 13
256.1747917924
 23
139.320945201481
 33
0.0
  0
SOLID
  5
374
330
36F
100
AcDbEntity
  8
1
 62
     2
100
AcDbTrace
 10
257.0963592755118
 20
216.320945201481
 30
0.0
 11
255.2532243092882
 21
216.320945201481
 31
0.0
 12
256.1747917924
 22
223.320945201481
 32
0.0
 13
256.1747917924
 23
223.320945201481
 33
0.0
  0
MTEXT
  5
375
330
36F
100
AcDbEntity
  8
1
 62
     7
100
AcDbMText
 10
254.1747917924
 20
179.7443577995929
 30
0.0
 40
7.0
 41
0.0
 71
     7
 72
     1
  1
84
  7
CONVERTER_12
 11
0.0
 21
1.0
 31
0.0
 73
     1
 44
0.60024009603842
  0
ENDBLK
  5
377
330
36F
100
AcDbEntity
  8
0
100
AcDbBlockEnd
  0
BLOCK
  5
381
330
37A
100
AcDbEntity
  8
0
100
AcDbBlockBegin
  2
*D18
 70
     1
 10
0.0
 20
0.0
 30
0.0
  3
*D18
  1

  0
LINE
  5
37B
330
37A
100
AcDbEntity
  8
0
  6
Continuous
 62
     2
100
AcDbLine
 10
143.4047090827187
 20
119.320945201481
 30
0.0
 11
183.4047090827187
 21
119.320945201481
 31
0.0
  0
LINE
  5
37C
330
37A
100
AcDbEntity
  8
0
  6
Continuous
 62
     2
100
AcDbLine
 10
183.4047090827187
 20
156.320945201481
 30
0.0
 11
183.4047090827187
 21
117.320945201481
 31
0.0
  0
LINE
  5
37D
330
37A
100
AcDbEntity
  8
0
  6
Continuous
 62
     2
100
AcDbLine
 10
143.4047090827187
 20
156.320945201481
 30
0.0
 11
143.4047090827187
 21
117.320945201481
 31
0.0
  0
SOLID
  5
37E
330
37A
100
AcDbEntity
  8
0
 62
     2
100
AcDbTrace
 10
150.4047090827187
 20
120.2425126845928
 30
0.0
 11
150.4047090827187
 21
118.3993777183692
 31
0.0
 12
143.4047090827187
 22
119.320945201481
 32
0.0
 13
143.4047090827187
 23
119.320945201481
 33
0.0
  0
SOLID
  5
37F
330
37A
100
AcDbEntity
  8
0
 62
     2
100
AcDbTrace
 10
176.4047090827187
 20
118.3993777183692
 30
0.0
 11
176.4047090827187
 21
120.2425126845928
 31
0.0
 12
183.4047090827187
 22
119.320945201481
 32
0.0
 13
183.4047090827187
 23
119.320945201481
 33
0.0
  0
MTEXT
  5
380
330
37A
100
AcDbEntity
  8
0
 62
     7
100
AcDbMText
 10
156.6147090827356
 20
121.3209312873283
 30
0.0
 40
7.0
 41
0.0
 71
     7
 72
     1
  1
\C7;{\Fgdt;n}\C7;40
  7
CONVERTER_12
 11
0.9999999999970619
 21
2.424068405545306E-6
 31
0.0
 73
     1
 44
0.60024009603842
  0
ENDBLK
  5
382
330
37A
100
AcDbEntity
  8
0
100
AcDbBlockEnd
  0
BLOCK
  5
38C
330
385
100
AcDbEntity
  8
0
100
AcDbBlockBegin
  2
*D19
 70
     1
 10
0.0
 20
0.0
 30
0.0
  3
*D19
  1

  0
LINE
  5
386
330
385
100
AcDbEntity
  8
1
  6
Continuous
 62
     2
100
AcDbLine
 10
108.4047090827187
 20
87.320945201481
 30
0.0
 11
218.4047090827187
 21
87.320945201481
 31
0.0
  0
LINE
  5
387
330
385
100
AcDbEntity
  8
1
  6
Continuous
 62
     2
100
AcDbLine
 10
218.4047090827187
 20
249.820945201481
 30
0.0
 11
218.4047090827187
 21
85.320945201481
 31
0.0
  0
LINE
  5
388
330
385
100
AcDbEntity
  8
1
  6
Continuous
 62
     2
100
AcDbLine
 10
108.4047090827187
 20
249.820945201481
 30
0.0
 11
108.4047090827187
 21
85.320945201481
 31
0.0
  0
SOLID
  5
389
330
385
100
AcDbEntity
  8
1
 62
     2
100
AcDbTrace
 10
115.4047090827187
 20
88.24251268459277
 30
0.0
 11
115.4047090827187
 21
86.39937771836922
 31
0.0
 12
108.4047090827187
 22
87.320945201481
 32
0.0
 13
108.4047090827187
 23
87.320945201481
 33
0.0
  0
SOLID
  5
38A
330
385
100
AcDbEntity
  8
1
 62
     2
100
AcDbTrace
 10
211.4047090827187
 20
86.39937771836922
 30
0.0
 11
211.4047090827187
 21
88.24251268459277
 31
0.0
 12
218.4047090827187
 22
87.320945201481
 32
0.0
 13
218.4047090827187
 23
87.320945201481
 33
0.0
  0
MTEXT
  5
38B
330
385
100
AcDbEntity
  8
1
 62
     7
100
AcDbMText
 10
155.5647090827356
 20
89.32093128732835
 30
0.0
 40
7.0
 41
0.0
 71
     7
 72
     1
  1
\C7;{\Fgdt;n}\C7;110
  7
CONVERTER_12
 11
0.9999999999970619
 21
2.424068405545306E-6
 31
0.0
 73
     1
 44
0.60024009603842
  0
ENDBLK
  5
38D
330
385
100
AcDbEntity
  8
0
100
AcDbBlockEnd
  0
BLOCK
  5
398
330
390
100
AcDbEntity
  8
0
100
AcDbBlockBegin
  2
*D20
 70
     1
 10
0.0
 20
0.0
 30
0.0
  3
*D20
  1

  0
LINE
  5
391
330
390
100
AcDbEntity
  8
1
  6
Continuous
 62
     2
100
AcDbLine
 10
135.4047090827187
 20
103.320945201481
 30
0.0
 11
190.9047090827187
 21
103.320945201481
 31
0.0
  0
LINE
  5
392
330
390
100
AcDbEntity
  8
1
  6
Continuous
 62
     2
100
AcDbLine
 10
190.9047090827187
 20
103.320945201481
 30
0.0
 11
308.641314695782
 21
103.320945201481
 31
0.0
  0
LINE
  5
393
330
390
100
AcDbEntity
  8
1
  6
Continuous
 62
     2
100
AcDbLine
 10
135.4047090827187
 20
223.820945201481
 30
0.0
 11
135.4047090827187
 21
101.320945201481
 31
0.0
  0
LINE
  5
394
330
390
100
AcDbEntity
  8
1
  6
Continuous
 62
     2
100
AcDbLine
 10
190.9047090827187
 20
223.320945201481
 30
0.0
 11
190.9047090827187
 21
101.320945201481
 31
0.0
  0
SOLID
  5
395
330
390
100
AcDbEntity
  8
1
 62
     2
100
AcDbTrace
 10
142.4047090827187
 20
104.2425126845928
 30
0.0
 11
142.4047090827187
 21
102.3993777183692
 31
0.0
 12
135.4047090827187
 22
103.320945201481
 32
0.0
 13
135.4047090827187
 23
103.320945201481
 33
0.0
  0
SOLID
  5
396
330
390
100
AcDbEntity
  8
1
 62
     2
100
AcDbTrace
 10
183.9047090827187
 20
102.3993777183692
 30
0.0
 11
183.9047090827187
 21
104.2425126845928
 31
0.0
 12
190.9047090827187
 22
103.320945201481
 32
0.0
 13
190.9047090827187
 23
103.320945201481
 33
0.0
  0
MTEXT
  5
397
330
390
100
AcDbEntity
  8
1
 62
     7
100
AcDbMText
 10
226.041314695782
 20
105.320945201481
 30
0.0
 40
7.0
 41
0.0
 71
     7
 72
     1
  1
{\Fgdt;n}51(VP)・{\Fgdt;n}56(VU)
  7
CONVERTER_11
 11
0.9999999999970619
 21
2.424068405545306E-6
 31
0.0
 73
     1
 44
0.45454545454545
  0
ENDBLK
  5
399
330
390
100
AcDbEntity
  8
0
100
AcDbBlockEnd
  0
BLOCK
  5
3A4
330
39C
100
AcDbEntity
  8
0
100
AcDbBlockBegin
  2
*D21
 70
     1
 10
0.0
 20
0.0
 30
0.0
  3
*D21
  1

  0
LINE
  5
39D
330
39C
100
AcDbEntity
  8
0
  6
Continuous
 62
     2
100
AcDbLine
 10
245.7602878060474
 20
318.0568508930024
 30
0.0
 11
249.7819761384195
 21
285.3028278888388
 31
0.0
  0
LINE
  5
39E
330
39C
100
AcDbEntity
  8
0
  6
Continuous
 62
     2
100
AcDbLine
 10
241.0785254459589
 20
356.1867454469938
 30
0.0
 11
245.7602878060474
 21
318.0568508930024
 31
0.0
  0
LINE
  5
39F
330
39C
100
AcDbEntity
  8
0
  6
Continuous
 62
     2
100
AcDbLine
 10
229.9310531055918
 20
282.8654410207344
 30
0.0
 11
251.7670684417021
 21
285.5465665756493
 31
0.0
  0
LINE
  5
3A0
330
39C
100
AcDbEntity
  8
0
  6
Continuous
 62
     2
100
AcDbLine
 10
225.9093647732197
 20
315.6194640248979
 30
0.0
 11
247.74538010933
 21
318.3005895798128
 31
0.0
  0
SOLID
  5
3A1
330
39C
100
AcDbEntity
  8
0
 62
     2
100
AcDbTrace
 10
247.5280714687243
 20
311.2213386555837
 30
0.0
 11
245.6986749510436
 21
310.9967170074428
 31
0.0
 12
245.7602878060474
 22
318.0568508930024
 32
0.0
 13
245.7602878060474
 23
318.0568508930024
 33
0.0
  0
SOLID
  5
3A2
330
39C
100
AcDbEntity
  8
0
 62
     2
100
AcDbTrace
 10
248.0141924757426
 20
292.1383401262576
 30
0.0
 11
249.8435889934233
 21
292.3629617743985
 31
0.0
 12
249.7819761384195
 22
285.3028278888388
 32
0.0
 13
249.7819761384195
 23
285.3028278888388
 33
0.0
  0
MTEXT
  5
3A3
330
39C
100
AcDbEntity
  8
0
 62
     7
100
AcDbMText
 10
243.6949009480805
 20
351.2890950683022
 30
0.0
 40
7.0
 41
0.0
 71
     7
 72
     1
  1
\C7;内径{\Fgdt;n}\C7;33
  7
CONVERTER_11
 11
0.1218693434052143
 21
-0.9925461516413139
 31
0.0
 73
     1
 44
0.45454545454545
  0
ENDBLK
  5
3A5
330
39C
100
AcDbEntity
  8
0
100
AcDbBlockEnd
  0
BLOCK
  5
3B0
330
3A8
100
AcDbEntity
  8
0
100
AcDbBlockBegin
  2
*D22
 70
     1
 10
0.0
 20
0.0
 30
0.0
  3
*D22
  1

  0
LINE
  5
3A9
330
3A8
100
AcDbEntity
  8
1
  6
Continuous
 62
     2
100
AcDbLine
 10
265.9064532514822
 20
285.2676450800313
 30
0.0
 11
261.3972875454961
 21
321.9918526907609
 31
0.0
  0
LINE
  5
3AA
330
3A8
100
AcDbEntity
  8
1
  6
Continuous
 62
     2
100
AcDbLine
 10
261.3972875454961
 20
321.9918526907609
 30
0.0
 11
258.656375959073
 21
344.3147861790615
 31
0.0
  0
LINE
  5
3AB
330
3A8
100
AcDbEntity
  8
1
  6
Continuous
 62
     2
100
AcDbLine
 10
225.6656260864098
 20
317.60455632818
 30
0.0
 11
263.3823798487787
 21
322.2355913775709
 31
0.0
  0
LINE
  5
3AC
330
3A8
100
AcDbEntity
  8
1
  6
Continuous
 62
     2
100
AcDbLine
 10
230.1747917923998
 20
280.8803487174509
 30
0.0
 11
267.8915455547648
 21
285.5113837668414
 31
0.0
  0
SOLID
  5
3AD
330
3A8
100
AcDbEntity
  8
1
 62
     2
100
AcDbTrace
 10
264.1386695888066
 20
292.1031573174504
 30
0.0
 11
265.9680661064874
 21
292.3277789655909
 31
0.0
 12
265.9064532514822
 22
285.2676450800313
 32
0.0
 13
265.9064532514822
 23
285.2676450800313
 33
0.0
  0
SOLID
  5
3AE
330
3A8
100
AcDbEntity
  8
1
 62
     2
100
AcDbTrace
 10
263.1650712081716
 20
315.1563404533418
 30
0.0
 11
261.3356746904908
 21
314.9317188052013
 31
0.0
 12
261.3972875454961
 22
321.9918526907609
 32
0.0
 13
261.3972875454961
 23
321.9918526907609
 33
0.0
  0
MTEXT
  5
3AF
330
3A8
100
AcDbEntity
  8
1
 62
     7
100
AcDbMText
 10
260.965640715813
 20
341.9183521025057
 30
0.0
 40
7.0
 41
0.0
 71
     7
 72
     1
  1
\C7;{\Fgdt;n}\C7;37
  7
CONVERTER_12
 11
0.1218693434050302
 21
-0.9925461516413364
 31
0.0
 73
     1
 44
0.60024009603842
  0
ENDBLK
  5
3B1
330
3A8
100
AcDbEntity
  8
0
100
AcDbBlockEnd
  0
BLOCK
  5
3BB
330
3B4
100
AcDbEntity
  8
0
100
AcDbBlockBegin
  2
*D23
 70
     1
 10
0.0
 20
0.0
 30
0.0
  3
*D23
  1

  0
LINE
  5
3B5
330
3B4
100
AcDbEntity
  8
0
  6
Continuous
 62
     2
100
AcDbLine
 10
157.5184197962497
 20
339.2609243257575
 30
0.0
 11
222.0339196529347
 21
347.1824316470925
 31
0.0
  0
LINE
  5
3B6
330
3B4
100
AcDbEntity
  8
0
  6
Continuous
 62
     2
100
AcDbLine
 10
227.9202089394038
 20
299.2424525228162
 30
0.0
 11
221.7901809661244
 21
349.1675239503752
 31
0.0
  0
LINE
  5
3B7
330
3B4
100
AcDbEntity
  8
0
  6
Continuous
 62
     2
100
AcDbLine
 10
163.4047090827187
 20
291.3209452014812
 30
0.0
 11
157.2746811094394
 21
341.2460166290402
 31
0.0
  0
SOLID
  5
3B8
330
3B4
100
AcDbEntity
  8
0
 62
     2
100
AcDbTrace
 10
164.3539320336686
 20
341.0287079884338
 30
0.0
 11
164.5785536818093
 21
339.1993114707531
 31
0.0
 12
157.5184197962497
 22
339.2609243257575
 32
0.0
 13
157.5184197962497
 23
339.2609243257575
 33
0.0
  0
SOLID
  5
3B9
330
3B4
100
AcDbEntity
  8
0
 62
     2
100
AcDbTrace
 10
215.1984074155158
 20
345.4146479844161
 30
0.0
 11
214.9737857673751
 21
347.2440445020969
 31
0.0
 12
222.0339196529347
 22
347.1824316470925
 32
0.0
 13
222.0339196529347
 23
347.1824316470925
 33
0.0
  0
MTEXT
  5
3BA
330
3B4
100
AcDbEntity
  8
0
 62
     7
100
AcDbMText
 10
184.3215637416565
 20
344.5669562368295
 30
0.0
 40
7.0
 41
0.0
 71
     7
 72
     1
  1
65
  7
CONVERTER_12
 11
0.9925461516413211
 21
0.1218693434051548
 31
0.0
 73
     1
 44
0.60024009603842
  0
ENDBLK
  5
3BC
330
3B4
100
AcDbEntity
  8
0
100
AcDbBlockEnd
  0
BLOCK
  5
3C6
330
3BF
100
AcDbEntity
  8
0
100
AcDbBlockBegin
  2
*D24
 70
     1
 10
0.0
 20
0.0
 30
0.0
  3
*D24
  1

  0
LINE
  5
3C0
330
3BF
100
AcDbEntity
  8
1
  6
Continuous
 62
     2
100
AcDbLine
 10
256.1747917924
 20
248.320945201481
 30
0.0
 11
256.1747917924
 21
291.320945201481
 31
0.0
  0
LINE
  5
3C1
330
3BF
100
AcDbEntity
  8
1
  6
Continuous
 62
     2
100
AcDbLine
 10
163.4047090827187
 20
291.320945201481
 30
0.0
 11
258.1747917924
 21
291.320945201481
 31
0.0
  0
LINE
  5
3C2
330
3BF
100
AcDbEntity
  8
1
  6
Continuous
 62
     2
100
AcDbLine
 10
215.9047090827187
 20
248.320945201481
 30
0.0
 11
258.1747917924
 21
248.320945201481
 31
0.0
  0
SOLID
  5
3C3
330
3BF
100
AcDbEntity
  8
1
 62
     2
100
AcDbTrace
 10
255.2532243092882
 20
255.320945201481
 30
0.0
 11
257.0963592755118
 21
255.320945201481
 31
0.0
 12
256.1747917924
 22
248.320945201481
 32
0.0
 13
256.1747917924
 23
248.320945201481
 33
0.0
  0
SOLID
  5
3C4
330
3BF
100
AcDbEntity
  8
1
 62
     2
100
AcDbTrace
 10
257.0963592755118
 20
284.320945201481
 30
0.0
 11
255.2532243092882
 21
284.320945201481
 31
0.0
 12
256.1747917924
 22
291.320945201481
 32
0.0
 13
256.1747917924
 23
291.320945201481
 33
0.0
  0
MTEXT
  5
3C5
330
3BF
100
AcDbEntity
  8
1
 62
     7
100
AcDbMText
 10
254.1747917924
 20
264.5634807908641
 30
0.0
 40
7.0
 41
0.0
 71
     7
 72
     1
  1
43
  7
CONVERTER_12
 11
0.0
 21
1.0
 31
0.0
 73
     1
 44
0.60024009603842
  0
ENDBLK
  5
3C7
330
3BF
100
AcDbEntity
  8
0
100
AcDbBlockEnd
  0
BLOCK
  5
3CF
330
3CA
100
AcDbEntity
  8
0
100
AcDbBlockBegin
  2
*D25
 70
     1
 10
0.0
 20
0.0
 30
0.0
  3
*D25
  1

  0
LINE
  5
3CB
330
3CA
100
AcDbEntity
  8
1
  6
Continuous
 62
     2
100
AcDbLine
 10
135.6547090827192
 20
409.1238762563314
 30
0.0
 11
203.533259439072
 21
526.6929742176569
 31
0.0
  0
SOLID
  5
3CC
330
3CA
100
AcDbEntity
  8
1
 62
     2
100
AcDbTrace
 10
188.6066082310428
 20
502.6823909047143
 30
0.0
 11
190.2028099343958
 21
501.7608234216025
 31
0.0
 12
185.9047090827192
 22
496.1594293366674
 32
0.0
 13
185.9047090827192
 23
496.1594293366674
 33
0.0
  0
SOLID
  5
3CD
330
3CA
100
AcDbEntity
  8
1
 62
     2
100
AcDbTrace
 10
138.2028099343956
 20
411.6941814280211
 30
0.0
 11
136.6066082310426
 21
412.6157489111329
 31
0.0
 12
140.9047090827192
 22
418.217142996068
 32
0.0
 13
140.9047090827192
 23
418.217142996068
 33
0.0
  0
MTEXT
  5
3CE
330
3CA
100
AcDbEntity
  8
1
 62
     7
100
AcDbMText
 10
193.6812086315031
 20
513.6287216601977
 30
0.0
 40
7.0
 41
0.0
 71
     7
 72
     1
  1
\C7;{\Fgdt;n}\C7;90
  7
CONVERTER_12
 11
0.5000000000000004
 21
0.8660254037844384
 31
0.0
 73
     1
 44
0.60024009603842
  0
ENDBLK
  5
3D0
330
3CA
100
AcDbEntity
  8
0
100
AcDbBlockEnd
  0
BLOCK
  5
3DB
330
3D2
100
AcDbEntity
  8
0
100
AcDbBlockBegin
  2
*D26
 70
     1
 10
0.0
 20
0.0
 30
0.0
  3
*D26
  1

  0
LINE
  5
3D3
330
3D2
100
AcDbEntity
  8
1
  6
Continuous
 62
     2
100
AcDbLine
 10
81.13229572319739
 20
504.6882861663679
 30
0.0
 11
79.4002449156285
 21
505.6882861663679
 31
0.0
  0
LINE
  5
3D4
330
3D2
100
AcDbEntity
  8
1
  6
Continuous
 62
     2
100
AcDbLine
 10
163.4047090827192
 20
362.1882861663676
 30
0.0
 11
163.4047090827192
 21
360.1882861663676
 31
0.0
  0
LINE
  5
3D5
330
3D2
100
AcDbEntity
  8
1
  6
Continuous
 62
     2
100
AcDbLine
 10
110.5771594518685
 20
487.6882861663677
 30
0.0
 11
81.13229572319739
 21
504.6882861663679
 31
0.0
  0
LINE
  5
3D6
330
3D2
100
AcDbEntity
  8
1
  6
Continuous
 62
     2
100
AcDbLine
 10
163.4047090827192
 20
396.1882861663682
 30
0.0
 11
163.4047090827192
 21
362.1882861663676
 31
0.0
  0
ARC
  5
3D7
330
3D2
100
AcDbEntity
  8
1
  6
Continuous
 62
     2
100
AcDbCircle
 10
163.4047090827192
 20
457.1882861663678
 30
0.0
 40
95.00000000000017
100
AcDbArc
 50
150.0
 51
270.0
  0
SOLID
  5
3D8
330
3D2
100
AcDbEntity
  8
1
 62
     2
100
AcDbTrace
 10
78.6724953408073
 20
498.0702299030287
 30
0.0
 11
77.0434320038189
 21
498.9323778878875
 31
0.0
 12
81.13229572319739
 22
504.6882861663679
 32
0.0
 13
81.13229572319739
 23
504.6882861663679
 33
0.0
  0
SOLID
  5
3D9
330
3D2
100
AcDbEntity
  8
1
 62
     2
100
AcDbTrace
 10
156.3755144320127
 20
361.5251804520135
 30
0.0
 11
156.4434040437977
 21
363.3670646786487
 31
0.0
 12
163.4047090827192
 22
362.1882861663676
 32
0.0
 13
163.4047090827192
 23
362.1882861663676
 33
0.0
  0
MTEXT
  5
3DA
330
3D2
100
AcDbEntity
  8
1
 62
     7
100
AcDbMText
 10
77.96434653076618
 20
419.1753351234554
 30
0.0
 40
7.0
 41
0.0
 71
     7
 72
     1
  1
120{\Fgdt;~}
  7
CONVERTER_12
 11
0.4999999999999978
 21
-0.8660254037844399
 31
0.0
 73
     1
 44
0.60024009603842
  0
ENDBLK
  5
3DC
330
3D2
100
AcDbEntity
  8
0
100
AcDbBlockEnd
  0
BLOCK
  5
3E8
330
3DF
100
AcDbEntity
  8
0
100
AcDbBlockBegin
  2
*D27
 70
     1
 10
0.0
 20
0.0
 30
0.0
  3
*D27
  1

  0
LINE
  5
3E0
330
3DF
100
AcDbEntity
  8
1
  6
Continuous
 62
     2
100
AcDbLine
 10
163.4047090827192
 20
362.1882861663678
 30
0.0
 11
163.4047090827192
 21
360.1882861663678
 31
0.0
  0
LINE
  5
3E1
330
3DF
100
AcDbEntity
  8
1
  6
Continuous
 62
     2
100
AcDbLine
 10
245.6771224422408
 20
504.6882861663676
 30
0.0
 11
247.4091732498097
 21
505.6882861663676
 31
0.0
  0
LINE
  5
3E2
330
3DF
100
AcDbEntity
  8
1
  6
Continuous
 62
     2
100
AcDbLine
 10
163.4047090827192
 20
396.1882861663681
 30
0.0
 11
163.4047090827192
 21
362.1882861663678
 31
0.0
  0
LINE
  5
3E3
330
3DF
100
AcDbEntity
  8
1
  6
Continuous
 62
     2
100
AcDbLine
 10
216.2322587135699
 20
487.6882861663676
 30
0.0
 11
245.6771224422408
 21
504.6882861663676
 31
0.0
  0
ARC
  5
3E4
330
3DF
100
AcDbEntity
  8
1
  6
Continuous
 62
     2
100
AcDbCircle
 10
163.4047090827192
 20
457.1882861663677
 30
0.0
 40
94.99999999999989
100
AcDbArc
 50
270.0
 51
29.99999999999995
  0
SOLID
  5
3E5
330
3DF
100
AcDbEntity
  8
1
 62
     2
100
AcDbTrace
 10
170.3660141216407
 20
363.3670646786489
 30
0.0
 11
170.4339037334256
 21
361.5251804520137
 31
0.0
 12
163.4047090827192
 22
362.1882861663678
 32
0.0
 13
163.4047090827192
 23
362.1882861663678
 33
0.0
  0
SOLID
  5
3E6
330
3DF
100
AcDbEntity
  8
1
 62
     2
100
AcDbTrace
 10
249.7659861616193
 20
498.9323778878872
 30
0.0
 11
248.1369228246309
 21
498.0702299030285
 31
0.0
 12
245.6771224422408
 22
504.6882861663676
 32
0.0
 13
245.6771224422408
 23
504.6882861663676
 33
0.0
  0
MTEXT
  5
3E7
330
3DF
100
AcDbEntity
  8
1
 62
     7
100
AcDbMText
 10
239.0450716346716
 20
402.2012372092798
 30
0.0
 40
7.0
 41
0.0
 71
     7
 72
     1
  1
120{\Fgdt;~}
  7
CONVERTER_12
 11
0.5000000000000057
 21
0.8660254037844354
 31
0.0
 73
     1
 44
0.60024009603842
  0
ENDBLK
  5
3E9
330
3DF
100
AcDbEntity
  8
0
100
AcDbBlockEnd
  0
BLOCK
  5
3F5
330
3EC
100
AcDbEntity
  8
0
100
AcDbBlockBegin
  2
*D28
 70
     1
 10
0.0
 20
0.0
 30
0.0
  3
*D28
  1

  0
LINE
  5
3ED
330
3EC
100
AcDbEntity
  8
1
  6
Continuous
 62
     2
100
AcDbLine
 10
245.677122442241
 20
504.6882861663677
 30
0.0
 11
247.4091732498098
 21
505.6882861663677
 31
0.0
  0
LINE
  5
3EE
330
3EC
100
AcDbEntity
  8
1
  6
Continuous
 62
     2
100
AcDbLine
 10
81.13229572319757
 20
504.6882861663678
 30
0.0
 11
79.40024491562869
 21
505.6882861663678
 31
0.0
  0
LINE
  5
3EF
330
3EC
100
AcDbEntity
  8
1
  6
Continuous
 62
     2
100
AcDbLine
 10
216.2322587135699
 20
487.6882861663677
 30
0.0
 11
245.677122442241
 21
504.6882861663677
 31
0.0
  0
LINE
  5
3F0
330
3EC
100
AcDbEntity
  8
1
  6
Continuous
 62
     2
100
AcDbLine
 10
110.5771594518686
 20
487.6882861663677
 30
0.0
 11
81.13229572319757
 21
504.6882861663678
 31
0.0
  0
ARC
  5
3F1
330
3EC
100
AcDbEntity
  8
1
  6
Continuous
 62
     2
100
AcDbCircle
 10
163.4047090827193
 20
457.1882861663678
 30
0.0
 40
94.99999999999999
100
AcDbArc
 50
29.99999999999993
 51
150.0
  0
SOLID
  5
3F2
330
3EC
100
AcDbEntity
  8
1
 62
     2
100
AcDbTrace
 10
241.1756177857096
 20
510.1275639174258
 30
0.0
 11
242.7367915109131
 21
511.1073001592022
 31
0.0
 12
245.677122442241
 22
504.6882861663677
 32
0.0
 13
245.677122442241
 23
504.6882861663677
 33
0.0
  0
SOLID
  5
3F3
330
3EC
100
AcDbEntity
  8
1
 62
     2
100
AcDbTrace
 10
84.07262665452555
 20
511.1073001592023
 30
0.0
 11
85.633800379729
 21
510.1275639174258
 31
0.0
 12
81.13229572319757
 22
504.6882861663678
 32
0.0
 13
81.13229572319757
 23
504.6882861663678
 33
0.0
  0
MTEXT
  5
3F4
330
3EC
100
AcDbEntity
  8
1
 62
     7
100
AcDbMText
 10
153.6047090827191
 20
554.1882861663678
 30
0.0
 40
7.0
 41
0.0
 71
     7
 72
     1
  1
120{\Fgdt;~}
  7
CONVERTER_12
 11
0.9999999999970619
 21
2.424068405545306E-6
 31
0.0
 73
     1
 44
0.60024009603842
  0
ENDBLK
  5
3F6
330
3EC
100
AcDbEntity
  8
0
100
AcDbBlockEnd
  0
ENDSEC
  0
SECTION
  2
ENTITIES
  0
INSERT
  5
62
330
1F
100
AcDbEntity
  8
0
100
AcDbBlockReference
  2
H5500-50-H1
 10
105.4047090827187
 20
231.320945201481
 30
0.0
  0
INSERT
  5
63
330
1F
100
AcDbEntity
  8
1
100
AcDbBlockReference
  2
開示A4
 10
0.0
 20
0.0
 30
0.0
 41
2.0
 42
2.0
 43
2.0
  0
INSERT
  5
64
330
1F
100
AcDbEntity
  8
0
100
AcDbBlockReference
  2
H5500-50-H11
 10
712.7515485480271
 20
-906.4637279237489
 30
0.0
  0
INSERT
  5
65
330
1F
100
AcDbEntity
  8
0
100
AcDbBlockReference
  2
H5500-50-H10
 10
329.6048331997001
 20
368.105895558054
 30
0.0
  0
INSERT
  5
66
330
1F
100
AcDbEntity
  8
0
100
AcDbBlockReference
  2
H5500-50-H2
 10
108.4047090827187
 20
249.820945201481
 30
0.0
  0
INSERT
  5
67
330
1F
100
AcDbEntity
  8
0
100
AcDbBlockReference
  2
H5500-50-H3
 10
110.9047090827187
 20
223.320945201481
 30
0.0
  0
INSERT
  5
68
330
1F
100
AcDbEntity
  8
0
100
AcDbBlockReference
  2
H5500-50-H9
 10
203.9921560802298
 20
265.609592251914
 30
0.0
  0
INSERT
  5
69
330
1F
100
AcDbEntity
  8
0
100
AcDbBlockReference
  2
H5500-50-H6
 10
141.1047090827188
 20
139.2830050382271
 30
0.0
  0
INSERT
  5
6A
330
1F
100
AcDbEntity
  8
0
100
AcDbBlockReference
  2
H5500-50-H8
 10
135.4047090827187
 20
223.320945201481
 30
0.0
  0
LINE
  5
32E
330
1F
100
AcDbEntity
  8
1
  6
DASH_CENTER
 62
     2
100
AcDbLine
 10
211.2290931329122
 20
266.9677464337696
 30
0.0
 11
210.4978770724811
 21
272.9230233436188
 31
0.0
  0
LINE
  5
32F
330
1F
100
AcDbEntity
  8
1
  6
DASH_CENTER
 62
     2
100
AcDbLine
 10
207.8858466477728
 20
269.5797768584795
 30
0.0
 11
213.8411235576201
 21
270.3109929189097
 31
0.0
  0
LINE
  5
330
330
1F
100
AcDbEntity
  8
1
  6
DASH_CENTER
 62
     2
100
AcDbLine
 10
223.1396469526079
 20
268.430178554632
 30
0.0
 11
222.4084308921771
 21
274.3854554644809
 31
0.0
  0
LINE
  5
331
330
1F
100
AcDbEntity
  8
1
  6
DASH_CENTER
 62
     2
100
AcDbLine
 10
225.7516773773169
 20
271.7734250397717
 30
0.0
 11
219.7964004674681
 21
271.0422089793411
 31
0.0
  0
LINE
  5
332
330
1F
100
AcDbEntity
  8
0
  6
DASH_CENTER
 62
     2
100
AcDbLine
 10
227.9202089394037
 20
299.2424525228159
 30
0.0
 11
233.8754858492525
 21
299.9736685832459
 31
0.0
  0
LINE
  5
333
330
1F
100
AcDbEntity
  8
1
  6
PHANTOM
 62
     4
100
AcDbLine
 10
163.4047090827187
 20
291.320945201481
 30
0.0
 11
228.9510315206428
 21
291.320945201481
 31
0.0
  0
LINE
  5
334
330
1F
100
AcDbEntity
  8
0
  6
DASH_CENTER
 62
     2
100
AcDbLine
 10
163.4047090827187
 20
291.320945201481
 30
0.0
 11
227.9202089394037
 21
299.2424525228159
 31
0.0
  0
LINE
  5
335
330
1F
100
AcDbEntity
  8
0
  6
Continuous
 62
     2
100
AcDbLine
 10
297.0
 20
360.328830173424
 30
0.0
 11
380.0
 21
360.328830173424
 31
0.0
  0
LINE
  5
336
330
1F
100
AcDbEntity
  8
0
  6
Continuous
 62
     2
100
AcDbLine
 10
312.435087052701
 20
175.328830173424
 30
0.0
 11
383.435087052701
 21
175.328830173424
 31
0.0
  0
LINE
  5
337
330
1F
100
AcDbEntity
  8
1
  6
DASH_CENTER
 62
     2
100
AcDbLine
 10
326.6048331997001
 20
525.405895558054
 30
0.0
 11
370.6048331997001
 21
525.405895558054
 31
0.0
  0
LINE
  5
338
330
1F
100
AcDbEntity
  8
1
  6
DASH_CENTER
 62
     2
100
AcDbLine
 10
348.6048331997001
 20
503.405895558054
 30
0.0
 11
348.6048331997001
 21
547.405895558054
 31
0.0
  0
LINE
  5
339
330
1F
100
AcDbEntity
  8
1
  6
DASH_CENTER
 62
     2
100
AcDbLine
 10
348.6048331997001
 20
460.4058955580538
 30
0.0
 11
348.6048331997001
 21
422.105895558054
 31
0.0
  0
LINE
  5
33A
330
1F
100
AcDbEntity
  8
1
  6
DASH_CENTER
 62
     2
100
AcDbLine
 10
341.2518061391256
 20
214.836231192234
 30
0.0
 11
341.2505798321183
 21
242.4362720703286
 31
0.0
  0
LINE
  5
33B
330
1F
100
AcDbEntity
  8
1
  6
DASH_CENTER
 62
     2
100
AcDbLine
 10
341.2515485480271
 20
253.0339363600626
 30
0.0
 11
341.2515485480271
 21
268.0386077924393
 31
0.0
  0
LINE
  5
33C
330
1F
100
AcDbEntity
  8
1
  6
DASH_CENTER
 62
     2
100
AcDbLine
 10
348.7538842642153
 20
260.536272076251
 30
0.0
 11
333.7492128318389
 21
260.536272076251
 31
0.0
  0
LINE
  5
33D
330
1F
100
AcDbEntity
  8
1
  6
DASH_CENTER
 62
     2
100
AcDbLine
 10
163.4047090827192
 20
518.1882861663678
 30
0.0
 11
163.4047090827192
 21
396.1882861663682
 31
0.0
  0
LINE
  5
33E
330
1F
100
AcDbEntity
  8
1
  6
DASH_CENTER
 62
     2
100
AcDbLine
 10
236.1747917923995
 20
457.1882861663676
 30
0.0
 11
102.4047090827195
 21
457.1882861663678
 31
0.0
  0
LINE
  5
33F
330
1F
100
AcDbEntity
  8
0
  6
DASH_CENTER
 62
     2
100
AcDbLine
 10
163.4047090827187
 20
268.3174451915179
 30
0.0
 11
163.4047090827187
 21
133.320945201481
 31
0.0
  0
LINE
  5
340
330
1F
100
AcDbEntity
  8
0
  6
DASH_CENTER
 62
     2
100
AcDbLine
 10
163.4047090827187
 20
291.320945201481
 30
0.0
 11
163.4047090827187
 21
268.3174451915179
 31
0.0
  0
LINE
  5
341
330
1F
100
AcDbEntity
  8
1
  6
DASH_CENTER
 62
     2
100
AcDbLine
 10
168.6008615054258
 20
454.1882861663678
 30
0.0
 11
110.5771594518685
 21
487.6882861663677
 31
0.0
  0
LINE
  5
342
330
1F
100
AcDbEntity
  8
1
  6
DASH_CENTER
 62
     2
100
AcDbLine
 10
158.2085566600125
 20
454.1882861663677
 30
0.0
 11
216.2322587135699
 21
487.6882861663677
 31
0.0
  0
SOLID
  5
343
330
1F
100
AcDbEntity
  8
1
 62
     2
100
AcDbTrace
 10
203.0105298545077
 20
488.4712820291099
 30
0.0
 11
204.8478967796254
 21
488.325579296811
 31
0.0
 12
203.3758522530189
 22
481.4203369739365
 32
0.0
 13
203.3758522530189
 23
481.4203369739365
 33
0.0
  0
LEADER
  5
344
330
1F
100
AcDbEntity
  8
1
  6
Continuous
 62
     2
100
AcDbLeader
  3
Standard
 71
     0
 76
     3
 10
203.3758522530189
 20
481.4203369739365
 30
0.0
 10
205.2011698003245
 20
504.4382861663678
 30
0.0
 10
233.0
 20
504.4382861663678
 30
0.0
  0
MTEXT
  5
345
330
1F
100
AcDbEntity
  8
1
 62
     7
100
AcDbMText
 10
68.0
 20
68.0
 30
0.0
 40
7.0
 41
0.0
 71
     4
 72
     1
  1
VP・VUパイプ兼用
  7
CONVERTER_11
 73
     1
 44
0.54545454545455
  0
MTEXT
  5
346
330
1F
100
AcDbEntity
  8
0
 62
     7
100
AcDbMText
 10
337.484249256013
 20
367.328830173424
 30
0.0
 40
10.0
 41
0.0
 71
     5
 72
     1
  1
スリーブキャップ
  7
CONVERTER_11
 73
     1
 44
0.54545454545455
  0
MTEXT
  5
347
330
1F
100
AcDbEntity
  8
0
 62
     7
100
AcDbMText
 10
347.8856052541438
 20
182.328830173424
 30
0.0
 40
10.0
 41
0.0
 71
     5
 72
     1
  1
連結皿ビス3個
  7
CONVERTER_11
 73
     1
 44
0.54545454545455
  0
MTEXT
  5
348
330
1F
100
AcDbEntity
  8
1
 62
     7
100
AcDbMText
 10
114.0
 20
45.5
 30
0.0
 40
7.0
 41
0.0
 71
     5
 72
     1
  1
洗濯機排水トラップ
  7
CONVERTER_11
 73
     1
 44
0.54545454545455
  0
MTEXT
  5
349
330
1F
100
AcDbEntity
  8
1
 62
     7
100
AcDbMText
 10
114.0
 20
24.5
 30
0.0
 40
7.0
 41
0.0
 71
     5
 72
     1
  1
H5500M-50
  7
CONVERTER_12
 73
     1
 44
0.7202881152461
  0
MTEXT
  5
34A
330
1F
100
AcDbEntity
  8
1
 62
     7
100
AcDbMText
 10
170.5
 20
34.0
 30
0.0
 40
7.0
 41
0.0
 71
     5
 72
     1
  1
1
  7
CONVERTER_12
 73
     1
 44
0.7202881152461
  0
MTEXT
  5
34B
330
1F
100
AcDbEntity
  8
1
 62
     7
100
AcDbMText
 10
187.5
 20
34.0
 30
0.0
 40
7.0
 41
0.0
 71
     5
 72
     1
  1
2
  7
CONVERTER_12
 73
     1
 44
0.7202881152461
  0
MTEXT
  5
34C
330
1F
100
AcDbEntity
  8
1
 62
     7
100
AcDbMText
 10
114.0
 20
32.5
 30
0.0
 40
7.0
 41
0.0
 71
     5
 72
     1
  1
H5500-50
  7
CONVERTER_12
 73
     1
 44
0.7202881152461
  0
MTEXT
  5
34D
330
1F
100
AcDbEntity
  8
1
 62
     7
100
AcDbMText
 10
220.1005849001622
 20
510.4382861663678
 30
0.0
 40
7.0
 41
0.0
 71
     5
 72
     1
  1
3-{\Fgdt;n}4
  7
CONVERTER_12
 73
     1
 44
0.7202881152461
  0
DIMENSION
  5
358
330
1F
100
AcDbEntity
  8
1
100
AcDbDimension
  2
*D14
 10
92.40470908271871
 20
248.320945201481
 30
0.0
 11
86.90470908271871
 21
285.876317413391
 31
0.0
 70
    32
  1
75
 71
     5
 42
-1.0
 53
90.0
  3
ME10_DIM_14
100
AcDbAlignedDimension
 13
192.709829668515
 23
323.431689625301
 33
0.0
 14
110.9047090827187
 24
248.320945201481
 34
0.0
 50
90.0
100
AcDbRotatedDimension
  0
DIMENSION
  5
363
330
1F
100
AcDbEntity
  8
1
100
AcDbDimension
  2
*D15
 10
280.1747917924
 20
248.3209452014809
 30
0.0
 11
274.6747917924
 21
277.934517069194
 31
0.0
 70
    32
  1
51
 71
     5
 42
-1.0
 53
90.0
  3
ME10_DIM_15
100
AcDbAlignedDimension
 13
227.9202089394037
 23
299.2424525228159
 33
0.0
 14
215.9047090827187
 24
248.320945201481
 34
0.0
 50
90.0
100
AcDbRotatedDimension
  0
DIMENSION
  5
36E
330
1F
100
AcDbEntity
  8
1
100
AcDbDimension
  2
*D16
 10
256.1747917924
 20
223.320945201481
 30
0.0
 11
252.150836126139
 21
235.431120870421
 31
0.0
 70
    32
  1
<>
 71
     5
 42
-1.0
 53
90.0
  3
ME10_DIM_16
100
AcDbAlignedDimension
 13
215.9047090827187
 23
248.320945201481
 33
0.0
 14
190.9047090827187
 24
223.320945201481
 34
0.0
 50
90.0
100
AcDbRotatedDimension
  0
DIMENSION
  5
379
330
1F
100
AcDbEntity
  8
1
100
AcDbDimension
  2
*D17
 10
256.1747917924
 20
139.320945201481
 30
0.0
 11
250.6747917924
 21
184.9943577995929
 31
0.0
 70
    32
  1
<>
 71
     5
 42
-1.0
 53
90.0
  3
ME10_DIM_17
100
AcDbAlignedDimension
 13
190.9047090827187
 23
223.320945201481
 33
0.0
 14
170.3823519511957
 24
139.320945201481
 34
0.0
 50
90.0
100
AcDbRotatedDimension
  0
DIMENSION
  5
384
330
1F
100
AcDbEntity
  8
0
100
AcDbDimension
  2
*D18
 10
143.4047090827187
 20
119.320945201481
 30
0.0
 11
163.4047090827187
 21
124.820945201481
 31
0.0
 70
    32
  1
<>
 71
     5
 42
-1.0
 53
0.00013888888889
  3
ME10_DIM_18
100
AcDbAlignedDimension
 13
183.4047090827187
 23
156.320945201481
 33
0.0
 14
143.4047090827187
 24
156.320945201481
 34
0.0
100
AcDbRotatedDimension
  0
DIMENSION
  5
38F
330
1F
100
AcDbEntity
  8
1
100
AcDbDimension
  2
*D19
 10
108.4047090827187
 20
87.320945201481
 30
0.0
 11
163.4047090827187
 21
92.820945201481
 31
0.0
 70
    32
  1
<>
 71
     5
 42
-1.0
 53
0.00013888888889
  3
ME10_DIM_19
100
AcDbAlignedDimension
 13
218.4047090827187
 23
249.820945201481
 33
0.0
 14
108.4047090827187
 24
249.820945201481
 34
0.0
100
AcDbRotatedDimension
  0
DIMENSION
  5
39B
330
1F
100
AcDbEntity
  8
1
100
AcDbDimension
  2
*D20
 10
135.4047090827187
 20
103.320945201481
 30
0.0
 11
267.341314695782
 21
108.820945201481
 31
0.0
 70
    32
  1
51(VP)・56(VU)
 71
     5
 42
-1.0
 53
0.00013888888889
  3
ME10_DIM_20
100
AcDbAlignedDimension
 13
190.9047090827187
 23
223.320945201481
 33
0.0
 14
135.4047090827187
 24
223.820945201481
 34
0.0
100
AcDbRotatedDimension
  0
DIMENSION
  5
3A7
330
1F
100
AcDbEntity
  8
0
100
AcDbDimension
  2
*D21
 10
245.7602878060474
 20
318.0568508930024
 30
0.0
 11
248.5422799790019
 21
340.5296426412228
 31
0.0
 70
    33
  1
<>
 71
     5
 42
-1.0
 53
-82.99999999999615
  3
ME10_DIM_21
100
AcDbAlignedDimension
 13
229.9310531055918
 23
282.8654410207344
 33
0.0
 14
225.9093647732197
 24
315.619464024898
 34
0.0
  0
DIMENSION
  5
3B3
330
1F
100
AcDbEntity
  8
1
100
AcDbDimension
  2
*D22
 10
265.9064532514822
 20
285.2676450800313
 30
0.0
 11
265.2670450882779
 21
335.6055064347786
 31
0.0
 70
    32
  1
<>
 71
     5
 42
-1.0
 53
-83.00000000000692
  3
ME10_DIM_22
100
AcDbAlignedDimension
 13
225.6656260864097
 23
317.60455632818
 33
0.0
 14
230.1747917923997
 24
280.8803487174509
 34
0.0
 50
-83.00000000000692
100
AcDbRotatedDimension
  0
DIMENSION
  5
3BE
330
1F
100
AcDbEntity
  8
0
100
AcDbDimension
  2
*D23
 10
157.5184197962497
 20
339.2609243257575
 30
0.0
 11
189.1058883358554
 21
348.6806818204511
 31
0.0
 70
    33
  1
<>
 71
     5
 42
-1.0
 53
7.00000000000038
  3
ME10_DIM_23
100
AcDbAlignedDimension
 13
227.9202089394037
 23
299.2424525228159
 33
0.0
 14
163.4047090827187
 24
291.320945201481
 34
0.0
  0
DIMENSION
  5
3C9
330
1F
100
AcDbEntity
  8
1
100
AcDbDimension
  2
*D24
 10
256.1747917924
 20
248.320945201481
 30
0.0
 11
250.6747917924
 21
269.8134807908641
 31
0.0
 70
    32
  1
<>
 71
     5
 42
-1.0
 53
90.0
  3
ME10_DIM_24
100
AcDbAlignedDimension
 13
163.4047090827187
 23
291.320945201481
 33
0.0
 14
215.9047090827187
 24
248.320945201481
 34
0.0
 50
90.0
100
AcDbRotatedDimension
  0
INSERT
  5
3D1
330
1F
100
AcDbEntity
  8
1
100
AcDbBlockReference
  2
*D25
 10
0.0
 20
0.0
 30
0.0
  0
DIMENSION
  5
3DE
330
1F
100
AcDbEntity
  8
1
100
AcDbDimension
  2
*D26
 10
81.13229572319737
 20
409.6882861663677
 30
0.0
 11
85.8954354440117
 21
412.4382861663679
 31
0.0
 70
    37
  1
<>
 71
     5
 42
-1.0
  3
ME10_DIM_25
100
AcDb3PointAngularDimension
 13
110.5771594518685
 23
487.6882861663677
 33
0.0
 14
163.4047090827192
 24
396.1882861663682
 34
0.0
 15
163.4047090827192
 25
457.1882861663678
 35
0.0
  0
DIMENSION
  5
3EB
330
1F
100
AcDbEntity
  8
1
100
AcDbDimension
  2
*D27
 10
245.6771224422408
 20
409.6882861663678
 30
0.0
 11
240.9139827214261
 21
412.4382861663673
 31
0.0
 70
    37
  1
<>
 71
     5
 42
-1.0
  3
ME10_DIM_26
100
AcDb3PointAngularDimension
 13
163.4047090827192
 23
396.1882861663682
 33
0.0
 14
216.2322587135699
 24
487.6882861663677
 34
0.0
 15
163.4047090827192
 25
457.1882861663677
 35
0.0
  0
DIMENSION
  5
3F8
330
1F
100
AcDbEntity
  8
1
100
AcDbDimension
  2
*D28
 10
163.4047090827192
 20
552.1882861663678
 30
0.0
 11
163.4047090827191
 21
557.6882861663678
 31
0.0
 70
    37
  1
<>
 71
     5
 42
-1.0
  3
ME10_DIM_27
100
AcDb3PointAngularDimension
 13
216.2322587135699
 23
487.6882861663677
 33
0.0
 14
110.5771594518685
 24
487.6882861663677
 34
0.0
 15
163.4047090827193
 25
457.1882861663678
 35
0.0
  0
ENDSEC
  0
SECTION
  2
OBJECTS
  0
DICTIONARY
  5
C
330
0
100
AcDbDictionary
281
     1
  3
ACAD_GROUP
350
D
  3
ACAD_LAYOUT
350
1A
  3
ACAD_MATERIAL
350
3B
  3
ACAD_MLEADERSTYLE
350
3FB
  3
ACAD_MLINESTYLE
350
17
  3
ACAD_PLOTSETTINGS
350
19
  3
ACAD_PLOTSTYLENAME
350
E
  3
ACAD_VISUALSTYLE
350
2A
  3
AcDbVariableDictionary
350
3F9
  0
DICTIONARY
  5
D
102
{ACAD_REACTORS
330
C
102
}
330
C
100
AcDbDictionary
281
     1
  0
DICTIONARY
  5
1A
102
{ACAD_REACTORS
330
C
102
}
330
C
100
AcDbDictionary
281
     1
  3
Layout1
350
1E
  3
Layout2
350
26
  3
Model
350
22
  0
DICTIONARY
  5
3B
102
{ACAD_REACTORS
330
C
102
}
330
C
100
AcDbDictionary
281
     1
  3
ByBlock
350
3D
  3
ByLayer
350
3C
  3
Global
350
3E
  0
DICTIONARY
  5
3FB
102
{ACAD_REACTORS
330
C
102
}
330
C
100
AcDbDictionary
281
     1
  0
DICTIONARY
  5
17
102
{ACAD_REACTORS
330
C
102
}
330
C
100
AcDbDictionary
281
     1
  3
Standard
350
18
  0
DICTIONARY
  5
19
102
{ACAD_REACTORS
330
C
102
}
330
C
100
AcDbDictionary
281
     1
  0
ACDBDICTIONARYWDFLT
  5
E
102
{ACAD_REACTORS
330
C
102
}
330
C
100
AcDbDictionary
281
     1
  3
Normal
350
F
100
AcDbDictionaryWithDefault
340
F
  0
DICTIONARY
  5
2A
102
{ACAD_REACTORS
330
C
102
}
330
C
100
AcDbDictionary
281
     1
  3
2dWireframe
350
2F
  3
3D Hidden
350
31
  3
3dWireframe
350
30
  3
Basic
350
32
  3
Brighten
350
36
  3
ColorChange
350
3A
  3
Conceptual
350
34
  3
Dim
350
35
  3
Facepattern
350
39
  3
Flat
350
2B
  3
FlatWithEdges
350
2C
  3
Gouraud
350
2D
  3
GouraudWithEdges
350
2E
  3
Linepattern
350
38
  3
Realistic
350
33
  3
Thicken
350
37
  0
DICTIONARY
  5
3F9
102
{ACAD_REACTORS
330
C
102
}
330
C
100
AcDbDictionary
281
     1
  3
DIMASSOC
350
3FC
  3
HIDETEXT
350
3FD
  0
LAYOUT
  5
1E
102
{ACAD_REACTORS
330
1A
102
}
330
1A
100
AcDbPlotSettings
  1

  2
none_device
  4

  6

 40
0.0
 41
0.0
 42
0.0
 43
0.0
 44
0.0
 45
0.0
 46
0.0
 47
0.0
 48
0.0
 49
0.0
140
0.0
141
0.0
142
1.0
143
1.0
 70
   688
 72
     0
 73
     0
 74
     5
  7

 75
    16
147
1.0
148
0.0
149
0.0
100
AcDbLayout
  1
Layout1
 70
     1
 71
     1
 10
0.0
 20
0.0
 11
12.0
 21
9.0
 12
0.0
 22
0.0
 32
0.0
 14
1.00000000000000E+20
 24
1.00000000000000E+20
 34
1.00000000000000E+20
 15
-1.00000000000000E+20
 25
-1.00000000000000E+20
 35
-1.00000000000000E+20
146
0.0
 13
0.0
 23
0.0
 33
0.0
 16
1.0
 26
0.0
 36
0.0
 17
0.0
 27
1.0
 37
0.0
 76
     0
330
1B
  0
LAYOUT
  5
26
102
{ACAD_REACTORS
330
1A
102
}
330
1A
100
AcDbPlotSettings
  1

  2
none_device
  4

  6

 40
0.0
 41
0.0
 42
0.0
 43
0.0
 44
0.0
 45
0.0
 46
0.0
 47
0.0
 48
0.0
 49
0.0
140
0.0
141
0.0
142
1.0
143
1.0
 70
   688
 72
     0
 73
     0
 74
     5
  7

 75
    16
147
1.0
148
0.0
149
0.0
100
AcDbLayout
  1
Layout2
 70
     1
 71
     2
 10
0.0
 20
0.0
 11
0.0
 21
0.0
 12
0.0
 22
0.0
 32
0.0
 14
0.0
 24
0.0
 34
0.0
 15
0.0
 25
0.0
 35
0.0
146
0.0
 13
0.0
 23
0.0
 33
0.0
 16
1.0
 26
0.0
 36
0.0
 17
0.0
 27
1.0
 37
0.0
 76
     0
330
23
  0
LAYOUT
  5
22
102
{ACAD_REACTORS
330
1A
102
}
330
1A
100
AcDbPlotSettings
  1

  2
none_device
  4

  6

 40
0.0
 41
0.0
 42
0.0
 43
0.0
 44
0.0
 45
0.0
 46
0.0
 47
0.0
 48
0.0
 49
0.0
140
0.0
141
0.0
142
1.0
143
1.0
 70
  1712
 72
     0
 73
     0
 74
     0
  7

 75
     0
147
1.0
148
0.0
149
0.0
100
AcDbLayout
  1
Model
 70
     1
 71
     0
 10
0.0
 20
0.0
 11
12.0
 21
9.0
 12
0.0
 22
0.0
 32
0.0
 14
0.0
 24
0.0
 34
0.0
 15
420.0
 25
594.0
 35
0.0
146
0.0
 13
0.0
 23
0.0
 33
0.0
 16
1.0
 26
0.0
 36
0.0
 17
0.0
 27
1.0
 37
0.0
 76
     0
330
1F
331
29
  0
MATERIAL
  5
3D
102
{ACAD_REACTORS
330
3B
102
}
102
{ACAD_XDICTIONARY
360
420
102
}
330
3B
100
AcDbMaterial
  1
ByBlock
  0
MATERIAL
  5
3C
102
{ACAD_REACTORS
330
3B
102
}
102
{ACAD_XDICTIONARY
360
41E
102
}
330
3B
100
AcDbMaterial
  1
ByLayer
  0
MATERIAL
  5
3E
102
{ACAD_REACTORS
330
3B
102
}
102
{ACAD_XDICTIONARY
360
422
102
}
330
3B
100
AcDbMaterial
  1
Global
  0
MLINESTYLE
  5
18
102
{ACAD_REACTORS
330
17
102
}
330
17
100
AcDbMlineStyle
  2
Standard
 70
     0
  3

 62
   256
 51
90.0
 52
90.0
 71
     2
 49
0.5
 62
   256
  6
BYLAYER
 49
-0.5
 62
   256
  6
BYLAYER
  0
ACDBPLACEHOLDER
  5
F
102
{ACAD_REACTORS
330
E
102
}
330
E
  0
VISUALSTYLE
  5
2F
102
{ACAD_REACTORS
330
2A
102
}
102
{ACAD_XDICTIONARY
360
406
102
}
330
2A
100
AcDbVisualStyle
  2
2dWireframe
 70
     4
 71
     0
 72
     2
 73
     0
 90
        0
 40
-0.6
 41
-30.0
 62
     5
 63
     7
 74
     1
 91
        4
 64
     7
 65
   257
 75
     1
175
     1
 42
1.0
 92
        0
 66
   257
 43
1.0
 76
     1
 77
     6
 78
     2
 67
     7
 79
     5
170
     0
171
     0
290
     0
174
     0
 93
        1
 44
0.0
173
     0
291
     0
 45
0.0
1001
ACAD
1000
AcDbSavedByObjectVersion
1070
     0
  0
VISUALSTYLE
  5
31
102
{ACAD_REACTORS
330
2A
102
}
102
{ACAD_XDICTIONARY
360
40A
102
}
330
2A
100
AcDbVisualStyle
  2
3D Hidden
 70
     6
 71
     1
 72
     2
 73
     2
 90
        0
 40
-0.6
 41
-30.0
 62
     5
 63
     7
 74
     2
 91
        2
 64
     7
 65
   257
 75
     2
175
     1
 42
40.0
 92
        0
 66
   257
 43
1.0
 76
     1
 77
     6
 78
     2
 67
     7
 79
     3
170
     0
171
     0
290
     0
174
     0
 93
        1
 44
0.0
173
     0
291
     0
 45
0.0
1001
ACAD
1000
AcDbSavedByObjectVersion
1070
     0
  0
VISUALSTYLE
  5
30
102
{ACAD_REACTORS
330
2A
102
}
102
{ACAD_XDICTIONARY
360
408
102
}
330
2A
100
AcDbVisualStyle
  2
3dWireframe
 70
     5
 71
     0
 72
     2
 73
     0
 90
        0
 40
-0.6
 41
-30.0
 62
     5
 63
     7
 74
     1
 91
        4
 64
     7
 65
   257
 75
     1
175
     1
 42
1.0
 92
        0
 66
   257
 43
1.0
 76
     1
 77
     6
 78
     2
 67
     7
 79
     5
170
     0
171
     0
290
     0
174
     0
 93
        1
 44
0.0
173
     0
291
     0
 45
0.0
1001
ACAD
1000
AcDbSavedByObjectVersion
1070
     0
  0
VISUALSTYLE
  5
32
102
{ACAD_REACTORS
330
2A
102
}
102
{ACAD_XDICTIONARY
360
40C
102
}
330
2A
100
AcDbVisualStyle
  2
Basic
 70
     7
 71
     1
 72
     0
 73
     1
 90
        0
 40
-0.6
 41
-30.0
 62
     5
 63
     7
 74
     0
 91
        4
 64
     7
 65
   257
 75
     1
175
     1
 42
1.0
 92
        8
 66
     7
 43
1.0
 76
     1
 77
     6
 78
     2
 67
     7
 79
     5
170
     0
171
     0
290
     0
174
     0
 93
        1
 44
0.0
173
     0
291
     1
 45
0.0
1001
ACAD
1000
AcDbSavedByObjectVersion
1070
     0
  0
VISUALSTYLE
  5
36
102
{ACAD_REACTORS
330
2A
102
}
102
{ACAD_XDICTIONARY
360
414
102
}
330
2A
100
AcDbVisualStyle
  2
Brighten
 70
    12
 71
     2
 72
     2
 73
     0
 90
        0
 40
-0.6
 41
-30.0
 62
     5
 63
     7
 74
     1
 91
        4
 64
     7
 65
   257
 75
     1
175
     1
 42
1.0
 92
        8
 66
     7
 43
1.0
 76
     1
 77
     6
 78
     2
 67
     7
 79
     5
170
     0
171
     0
290
     0
174
     0
 93
        1
 44
50.0
173
     0
291
     1
 45
0.0
1001
ACAD
1000
AcDbSavedByObjectVersion
1070
     0
  0
VISUALSTYLE
  5
3A
102
{ACAD_REACTORS
330
2A
102
}
102
{ACAD_XDICTIONARY
360
41C
102
}
330
2A
100
AcDbVisualStyle
  2
ColorChange
 70
    16
 71
     2
 72
     2
 73
     3
 90
        0
 40
-0.6
 41
-30.0
 62
     5
 63
     8
 74
     1
 91
        4
 64
     7
 65
   257
 75
     1
175
     1
 42
1.0
 92
        8
 66
     8
 43
1.0
 76
     1
 77
     6
 78
     2
 67
     7
 79
     5
170
     0
171
     0
290
     0
174
     0
 93
        1
 44
0.0
173
     0
291
     1
 45
0.0
1001
ACAD
1000
AcDbSavedByObjectVersion
1070
     0
  0
VISUALSTYLE
  5
34
102
{ACAD_REACTORS
330
2A
102
}
102
{ACAD_XDICTIONARY
360
410
102
}
330
2A
100
AcDbVisualStyle
  2
Conceptual
 70
     9
 71
     3
 72
     2
 73
     0
 90
        0
 40
-0.6
 41
-30.0
 62
     5
 63
     7
 74
     2
 91
        2
 64
     7
 65
   257
 75
     1
175
     1
 42
40.0
 92
        8
 66
     7
 43
1.0
 76
     1
 77
     6
 78
     2
 67
     7
 79
     3
170
     0
171
     0
290
     0
174
     0
 93
        1
 44
0.0
173
     0
291
     0
 45
0.0
1001
ACAD
1000
AcDbSavedByObjectVersion
1070
     0
  0
VISUALSTYLE
  5
35
102
{ACAD_REACTORS
330
2A
102
}
102
{ACAD_XDICTIONARY
360
412
102
}
330
2A
100
AcDbVisualStyle
  2
Dim
 70
    11
 71
     2
 72
     2
 73
     0
 90
        0
 40
-0.6
 41
-30.0
 62
     5
 63
     7
 74
     1
 91
        4
 64
     7
 65
   257
 75
     1
175
     1
 42
1.0
 92
        8
 66
     7
 43
1.0
 76
     1
 77
     6
 78
     2
 67
     7
 79
     5
170
     0
171
     0
290
     0
174
     0
 93
        1
 44
-50.0
173
     0
291
     1
 45
0.0
1001
ACAD
1000
AcDbSavedByObjectVersion
1070
     0
  0
VISUALSTYLE
  5
39
102
{ACAD_REACTORS
330
2A
102
}
102
{ACAD_XDICTIONARY
360
41A
102
}
330
2A
100
AcDbVisualStyle
  2
Facepattern
 70
    15
 71
     2
 72
     2
 73
     0
 90
        0
 40
-0.6
 41
-30.0
 62
     5
 63
     7
 74
     1
 91
        4
 64
     7
 65
   257
 75
     1
175
     1
 42
1.0
 92
        8
 66
     7
 43
1.0
 76
     1
 77
     6
 78
     2
 67
     7
 79
     5
170
     0
171
     0
290
     0
174
     0
 93
        1
 44
0.0
173
     0
291
     1
 45
0.0
1001
ACAD
1000
AcDbSavedByObjectVersion
1070
     0
  0
VISUALSTYLE
  5
2B
102
{ACAD_REACTORS
330
2A
102
}
102
{ACAD_XDICTIONARY
360
3FE
102
}
330
2A
100
AcDbVisualStyle
  2
Flat
 70
     0
 71
     2
 72
     1
 73
     1
 90
        2
 40
-0.6
 41
30.0
 62
     5
 63
     7
 74
     0
 91
        4
 64
     7
 65
   257
 75
     1
175
     1
 42
1.0
 92
        8
 66
     7
 43
1.0
 76
     1
 77
     6
 78
     2
 67
     7
 79
     5
170
     0
171
     0
290
     0
174
     0
 93
       13
 44
0.0
173
     0
291
     1
 45
0.0
1001
ACAD
1000
AcDbSavedByObjectVersion
1070
     0
  0
VISUALSTYLE
  5
2C
102
{ACAD_REACTORS
330
2A
102
}
102
{ACAD_XDICTIONARY
360
400
102
}
330
2A
100
AcDbVisualStyle
  2
FlatWithEdges
 70
     1
 71
     2
 72
     1
 73
     1
 90
        2
 40
-0.6
 41
30.0
 62
     5
 63
     7
 74
     1
 91
        4
 64
     7
 65
   257
 75
     1
175
     1
 42
1.0
 92
        0
 66
   257
 43
1.0
 76
     1
 77
     6
 78
     2
 67
     7
 79
     5
170
     0
171
     0
290
     0
174
     0
 93
       13
 44
0.0
173
     0
291
     1
 45
0.0
1001
ACAD
1000
AcDbSavedByObjectVersion
1070
     0
  0
VISUALSTYLE
  5
2D
102
{ACAD_REACTORS
330
2A
102
}
102
{ACAD_XDICTIONARY
360
402
102
}
330
2A
100
AcDbVisualStyle
  2
Gouraud
 70
     2
 71
     2
 72
     2
 73
     1
 90
        2
 40
-0.6
 41
30.0
 62
     5
 63
     7
 74
     0
 91
        4
 64
     7
 65
   257
 75
     1
175
     1
 42
1.0
 92
        0
 66
     7
 43
1.0
 76
     1
 77
     6
 78
     2
 67
     7
 79
     5
170
     0
171
     0
290
     0
174
     0
 93
       13
 44
0.0
173
     0
291
     1
 45
0.0
1001
ACAD
1000
AcDbSavedByObjectVersion
1070
     0
  0
VISUALSTYLE
  5
2E
102
{ACAD_REACTORS
330
2A
102
}
102
{ACAD_XDICTIONARY
360
404
102
}
330
2A
100
AcDbVisualStyle
  2
GouraudWithEdges
 70
     3
 71
     2
 72
     2
 73
     1
 90
        2
 40
-0.6
 41
30.0
 62
     5
 63
     7
 74
     1
 91
        4
 64
     7
 65
   257
 75
     1
175
     1
 42
1.0
 92
        0
 66
   257
 43
1.0
 76
     1
 77
     6
 78
     2
 67
     7
 79
     5
170
     0
171
     0
290
     0
174
     0
 93
       13
 44
0.0
173
     0
291
     1
 45
0.0
1001
ACAD
1000
AcDbSavedByObjectVersion
1070
     0
  0
VISUALSTYLE
  5
38
102
{ACAD_REACTORS
330
2A
102
}
102
{ACAD_XDICTIONARY
360
418
102
}
330
2A
100
AcDbVisualStyle
  2
Linepattern
 70
    14
 71
     2
 72
     2
 73
     0
 90
        0
 40
-0.6
 41
-30.0
 62
     5
 63
     7
 74
     1
 91
        4
 64
     7
 65
   257
 75
     7
175
     7
 42
1.0
 92
        8
 66
     7
 43
1.0
 76
     1
 77
     6
 78
     2
 67
     7
 79
     5
170
     0
171
     0
290
     0
174
     0
 93
        1
 44
0.0
173
     0
291
     1
 45
0.0
1001
ACAD
1000
AcDbSavedByObjectVersion
1070
     0
  0
VISUALSTYLE
  5
33
102
{ACAD_REACTORS
330
2A
102
}
102
{ACAD_XDICTIONARY
360
40E
102
}
330
2A
100
AcDbVisualStyle
  2
Realistic
 70
     8
 71
     2
 72
     2
 73
     0
 90
        0
 40
-0.6
 41
-30.0
 62
     5
 63
     7
 74
     1
 91
        0
 64
     7
 65
   257
 75
     1
175
     1
 42
1.0
 92
        8
 66
     8
 43
1.0
 76
     1
 77
     6
 78
     2
 67
     7
 79
     5
170
     0
171
     0
290
     0
174
     0
 93
       13
 44
0.0
173
     0
291
     0
 45
0.0
1001
ACAD
1000
AcDbSavedByObjectVersion
1070
     0
  0
VISUALSTYLE
  5
37
102
{ACAD_REACTORS
330
2A
102
}
102
{ACAD_XDICTIONARY
360
416
102
}
330
2A
100
AcDbVisualStyle
  2
Thicken
 70
    13
 71
     2
 72
     2
 73
     0
 90
        0
 40
-0.6
 41
-30.0
 62
     5
 63
     7
 74
     1
 91
        4
 64
     7
 65
   257
 75
     1
175
     1
 42
1.0
 92
       12
 66
     7
 43
1.0
 76
     1
 77
     6
 78
     2
 67
     7
 79
     5
170
     0
171
     0
290
     0
174
     0
 93
        1
 44
0.0
173
     0
291
     1
 45
0.0
1001
ACAD
1000
AcDbSavedByObjectVersion
1070
     0
  0
DICTIONARYVAR
  5
3FC
102
{ACAD_REACTORS
330
3F9
102
}
330
3F9
100
DictionaryVariables
280
     0
  1
2
  0
DICTIONARYVAR
  5
3FD
102
{ACAD_REACTORS
330
3F9
102
}
330
3F9
100
DictionaryVariables
280
     0
  1
1
  0
DICTIONARY
  5
420
330
3D
100
AcDbDictionary
280
     1
281
     1
  3
ACAD_XREC_ROUNDTRIP
360
421
  0
DICTIONARY
  5
41E
330
3C
100
AcDbDictionary
280
     1
281
     1
  3
ACAD_XREC_ROUNDTRIP
360
41F
  0
DICTIONARY
  5
422
330
3E
100
AcDbDictionary
280
     1
281
     1
  3
ACAD_XREC_ROUNDTRIP
360
423
  0
DICTIONARY
  5
406
330
2F
100
AcDbDictionary
280
     1
281
     1
  3
ACAD_XREC_ROUNDTRIP
360
407
  0
DICTIONARY
  5
40A
330
31
100
AcDbDictionary
280
     1
281
     1
  3
ACAD_XREC_ROUNDTRIP
360
40B
  0
DICTIONARY
  5
408
330
30
100
AcDbDictionary
280
     1
281
     1
  3
ACAD_XREC_ROUNDTRIP
360
409
  0
DICTIONARY
  5
40C
330
32
100
AcDbDictionary
280
     1
281
     1
  3
ACAD_XREC_ROUNDTRIP
360
40D
  0
DICTIONARY
  5
414
330
36
100
AcDbDictionary
280
     1
281
     1
  3
ACAD_XREC_ROUNDTRIP
360
415
  0
DICTIONARY
  5
41C
330
3A
100
AcDbDictionary
280
     1
281
     1
  3
ACAD_XREC_ROUNDTRIP
360
41D
  0
DICTIONARY
  5
410
330
34
100
AcDbDictionary
280
     1
281
     1
  3
ACAD_XREC_ROUNDTRIP
360
411
  0
DICTIONARY
  5
412
330
35
100
AcDbDictionary
280
     1
281
     1
  3
ACAD_XREC_ROUNDTRIP
360
413
  0
DICTIONARY
  5
41A
330
39
100
AcDbDictionary
280
     1
281
     1
  3
ACAD_XREC_ROUNDTRIP
360
41B
  0
DICTIONARY
  5
3FE
330
2B
100
AcDbDictionary
280
     1
281
     1
  3
ACAD_XREC_ROUNDTRIP
360
3FF
  0
DICTIONARY
  5
400
330
2C
100
AcDbDictionary
280
     1
281
     1
  3
ACAD_XREC_ROUNDTRIP
360
401
  0
DICTIONARY
  5
402
330
2D
100
AcDbDictionary
280
     1
281
     1
  3
ACAD_XREC_ROUNDTRIP
360
403
  0
DICTIONARY
  5
404
330
2E
100
AcDbDictionary
280
     1
281
     1
  3
ACAD_XREC_ROUNDTRIP
360
405
  0
DICTIONARY
  5
418
330
38
100
AcDbDictionary
280
     1
281
     1
  3
ACAD_XREC_ROUNDTRIP
360
419
  0
DICTIONARY
  5
40E
330
33
100
AcDbDictionary
280
     1
281
     1
  3
ACAD_XREC_ROUNDTRIP
360
40F
  0
DICTIONARY
  5
416
330
37
100
AcDbDictionary
280
     1
281
     1
  3
ACAD_XREC_ROUNDTRIP
360
417
  0
XRECORD
  5
421
102
{ACAD_REACTORS
330
420
102
}
330
420
100
AcDbXrecord
280
     1
102
MATERIAL
148
0.0
149
0.0
149
0.0
 93
        0
 94
      127
282
     0
 72
     1
 77
     1
171
     1
175
     1
179
     1
273
     0
  0
XRECORD
  5
41F
102
{ACAD_REACTORS
330
41E
102
}
330
41E
100
AcDbXrecord
280
     1
102
MATERIAL
148
0.0
149
0.0
149
0.0
 93
        0
 94
      127
282
     0
 72
     1
 77
     1
171
     1
175
     1
179
     1
273
     0
  0
XRECORD
  5
423
102
{ACAD_REACTORS
330
422
102
}
330
422
100
AcDbXrecord
280
     1
102
MATERIAL
148
0.0
149
0.0
149
0.0
 93
        0
 94
      127
282
     0
 72
     1
 77
     1
171
     1
175
     1
179
     1
273
     0
  0
XRECORD
  5
407
102
{ACAD_REACTORS
330
406
102
}
330
406
100
AcDbXrecord
280
     1
102
RTVSPropertyOp0
 70
     1
102
RTVSPropertyOp1
 70
     1
102
RTVSPropertyOp2
 70
     1
102
RTVSPropertyOp3
 70
     1
102
RTVSPropertyOp4
 70
     1
102
RTVSPropertyOp5
 70
     1
102
RTVSPropertyOp6
 70
     1
102
RTVSPropertyOp7
 70
     1
102
RTVSPropertyOp8
 70
     1
102
RTVSPropertyOp9
 70
     1
102
RTVSPropertyOp10
 70
     1
102
RTVSPropertyOp11
 70
     1
102
RTVSPropertyOp12
 70
     1
102
RTVSPropertyOp13
 70
     1
102
RTVSPropertyOp14
 70
     1
102
RTVSPropertyOp15
 70
     1
102
RTVSPropertyOp16
 70
     1
102
RTVSPropertyOp17
 70
     1
102
RTVSPropertyOp18
 70
     1
102
RTVSPropertyOp19
 70
     1
102
RTVSPropertyOp20
 70
     1
102
RTVSPropertyOp21
 70
     1
102
RTVSPropertyOp22
 70
     1
102
RTVSPropertyOp23
 70
     1
102
RTVSPropertyOp24
 70
     1
102
RTVSPropertyOp25
 70
     1
102
RTVSPropertyOp26
 70
     1
102
RTVSPropertyOp27
 70
     1
102
RTVSPropertyOp28
 70
     1
102
RTVSPropertyOp29
 70
     1
102
RTVSPropertyOp30
 70
     1
102
RTVSPropertyOp31
 70
     1
102
RTVSPropertyOp32
 70
     1
  0
XRECORD
  5
40B
102
{ACAD_REACTORS
330
40A
102
}
330
40A
100
AcDbXrecord
280
     1
102
RTVSPropertyOp0
 70
     1
102
RTVSPropertyOp1
 70
     1
102
RTVSPropertyOp2
 70
     1
102
RTVSPropertyOp3
 70
     1
102
RTVSPropertyOp4
 70
     1
102
RTVSPropertyOp5
 70
     1
102
RTVSPropertyOp6
 70
     1
102
RTVSPropertyOp7
 70
     1
102
RTVSPropertyOp8
 70
     1
102
RTVSPropertyOp9
 70
     1
102
RTVSPropertyOp10
 70
     1
102
RTVSPropertyOp11
 70
     1
102
RTVSPropertyOp12
 70
     1
102
RTVSPropertyOp13
 70
     1
102
RTVSPropertyOp14
 70
     1
102
RTVSPropertyOp15
 70
     1
102
RTVSPropertyOp16
 70
     1
102
RTVSPropertyOp17
 70
     1
102
RTVSPropertyOp18
 70
     1
102
RTVSPropertyOp19
 70
     1
102
RTVSPropertyOp20
 70
     1
102
RTVSPropertyOp21
 70
     1
102
RTVSPropertyOp22
 70
     1
102
RTVSPropertyOp23
 70
     1
102
RTVSPropertyOp24
 70
     1
102
RTVSPropertyOp25
 70
     1
102
RTVSPropertyOp26
 70
     1
102
RTVSPropertyOp27
 70
     1
102
RTVSPropertyOp28
 70
     1
102
RTVSPropertyOp29
 70
     1
102
RTVSPropertyOp30
 70
     1
102
RTVSPropertyOp31
 70
     1
102
RTVSPropertyOp32
 70
     1
  0
XRECORD
  5
409
102
{ACAD_REACTORS
330
408
102
}
330
408
100
AcDbXrecord
280
     1
102
RTVSPropertyOp0
 70
     1
102
RTVSPropertyOp1
 70
     1
102
RTVSPropertyOp2
 70
     1
102
RTVSPropertyOp3
 70
     1
102
RTVSPropertyOp4
 70
     1
102
RTVSPropertyOp5
 70
     1
102
RTVSPropertyOp6
 70
     1
102
RTVSPropertyOp7
 70
     1
102
RTVSPropertyOp8
 70
     1
102
RTVSPropertyOp9
 70
     1
102
RTVSPropertyOp10
 70
     1
102
RTVSPropertyOp11
 70
     1
102
RTVSPropertyOp12
 70
     1
102
RTVSPropertyOp13
 70
     1
102
RTVSPropertyOp14
 70
     1
102
RTVSPropertyOp15
 70
     1
102
RTVSPropertyOp16
 70
     1
102
RTVSPropertyOp17
 70
     1
102
RTVSPropertyOp18
 70
     1
102
RTVSPropertyOp19
 70
     1
102
RTVSPropertyOp20
 70
     1
102
RTVSPropertyOp21
 70
     1
102
RTVSPropertyOp22
 70
     1
102
RTVSPropertyOp23
 70
     1
102
RTVSPropertyOp24
 70
     1
102
RTVSPropertyOp25
 70
     1
102
RTVSPropertyOp26
 70
     1
102
RTVSPropertyOp27
 70
     1
102
RTVSPropertyOp28
 70
     1
102
RTVSPropertyOp29
 70
     1
102
RTVSPropertyOp30
 70
     1
102
RTVSPropertyOp31
 70
     1
102
RTVSPropertyOp32
 70
     1
  0
XRECORD
  5
40D
102
{ACAD_REACTORS
330
40C
102
}
330
40C
100
AcDbXrecord
280
     1
102
RTVSPropertyOp0
 70
     1
102
RTVSPropertyOp1
 70
     1
102
RTVSPropertyOp2
 70
     1
102
RTVSPropertyOp3
 70
     1
102
RTVSPropertyOp4
 70
     1
102
RTVSPropertyOp5
 70
     1
102
RTVSPropertyOp6
 70
     1
102
RTVSPropertyOp7
 70
     1
102
RTVSPropertyOp8
 70
     1
102
RTVSPropertyOp9
 70
     1
102
RTVSPropertyOp10
 70
     1
102
RTVSPropertyOp11
 70
     1
102
RTVSPropertyOp12
 70
     1
102
RTVSPropertyOp13
 70
     1
102
RTVSPropertyOp14
 70
     1
102
RTVSPropertyOp15
 70
     1
102
RTVSPropertyOp16
 70
     1
102
RTVSPropertyOp17
 70
     1
102
RTVSPropertyOp18
 70
     1
102
RTVSPropertyOp19
 70
     1
102
RTVSPropertyOp20
 70
     1
102
RTVSPropertyOp21
 70
     1
102
RTVSPropertyOp22
 70
     1
102
RTVSPropertyOp23
 70
     1
102
RTVSPropertyOp24
 70
     1
102
RTVSPropertyOp25
 70
     1
102
RTVSPropertyOp26
 70
     1
102
RTVSPropertyOp27
 70
     1
102
RTVSPropertyOp28
 70
     1
102
RTVSPropertyOp29
 70
     1
102
RTVSPropertyOp30
 70
     1
102
RTVSPropertyOp31
 70
     1
102
RTVSPropertyOp32
 70
     1
  0
XRECORD
  5
415
102
{ACAD_REACTORS
330
414
102
}
330
414
100
AcDbXrecord
280
     1
102
RTVSPropertyOp0
 70
     1
102
RTVSPropertyOp1
 70
     1
102
RTVSPropertyOp2
 70
     1
102
RTVSPropertyOp3
 70
     1
102
RTVSPropertyOp4
 70
     1
102
RTVSPropertyOp5
 70
     1
102
RTVSPropertyOp6
 70
     1
102
RTVSPropertyOp7
 70
     1
102
RTVSPropertyOp8
 70
     1
102
RTVSPropertyOp9
 70
     1
102
RTVSPropertyOp10
 70
     1
102
RTVSPropertyOp11
 70
     1
102
RTVSPropertyOp12
 70
     1
102
RTVSPropertyOp13
 70
     1
102
RTVSPropertyOp14
 70
     1
102
RTVSPropertyOp15
 70
     1
102
RTVSPropertyOp16
 70
     1
102
RTVSPropertyOp17
 70
     1
102
RTVSPropertyOp18
 70
     1
102
RTVSPropertyOp19
 70
     1
102
RTVSPropertyOp20
 70
     1
102
RTVSPropertyOp21
 70
     1
102
RTVSPropertyOp22
 70
     1
102
RTVSPropertyOp23
 70
     1
102
RTVSPropertyOp24
 70
     1
102
RTVSPropertyOp25
 70
     1
102
RTVSPropertyOp26
 70
     1
102
RTVSPropertyOp27
 70
     1
102
RTVSPropertyOp28
 70
     1
102
RTVSPropertyOp29
 70
     1
102
RTVSPropertyOp30
 70
     1
102
RTVSPropertyOp31
 70
     1
102
RTVSPropertyOp32
 70
     1
  0
XRECORD
  5
41D
102
{ACAD_REACTORS
330
41C
102
}
330
41C
100
AcDbXrecord
280
     1
102
RTVSPropertyOp0
 70
     1
102
RTVSPropertyOp1
 70
     1
102
RTVSPropertyOp2
 70
     1
102
RTVSPropertyOp3
 70
     1
102
RTVSPropertyOp4
 70
     1
102
RTVSPropertyOp5
 70
     1
102
RTVSPropertyOp6
 70
     1
102
RTVSPropertyOp7
 70
     1
102
RTVSPropertyOp8
 70
     1
102
RTVSPropertyOp9
 70
     1
102
RTVSPropertyOp10
 70
     1
102
RTVSPropertyOp11
 70
     1
102
RTVSPropertyOp12
 70
     1
102
RTVSPropertyOp13
 70
     1
102
RTVSPropertyOp14
 70
     1
102
RTVSPropertyOp15
 70
     1
102
RTVSPropertyOp16
 70
     1
102
RTVSPropertyOp17
 70
     1
102
RTVSPropertyOp18
 70
     1
102
RTVSPropertyOp19
 70
     1
102
RTVSPropertyOp20
 70
     1
102
RTVSPropertyOp21
 70
     1
102
RTVSPropertyOp22
 70
     1
102
RTVSPropertyOp23
 70
     1
102
RTVSPropertyOp24
 70
     1
102
RTVSPropertyOp25
 70
     1
102
RTVSPropertyOp26
 70
     1
102
RTVSPropertyOp27
 70
     1
102
RTVSPropertyOp28
 70
     1
102
RTVSPropertyOp29
 70
     1
102
RTVSPropertyOp30
 70
     1
102
RTVSPropertyOp31
 70
     1
102
RTVSPropertyOp32
 70
     1
  0
XRECORD
  5
411
102
{ACAD_REACTORS
330
410
102
}
330
410
100
AcDbXrecord
280
     1
102
RTVSPropertyOp0
 70
     1
102
RTVSPropertyOp1
 70
     1
102
RTVSPropertyOp2
 70
     1
102
RTVSPropertyOp3
 70
     1
102
RTVSPropertyOp4
 70
     1
102
RTVSPropertyOp5
 70
     1
102
RTVSPropertyOp6
 70
     1
102
RTVSPropertyOp7
 70
     1
102
RTVSPropertyOp8
 70
     1
102
RTVSPropertyOp9
 70
     1
102
RTVSPropertyOp10
 70
     1
102
RTVSPropertyOp11
 70
     1
102
RTVSPropertyOp12
 70
     1
102
RTVSPropertyOp13
 70
     1
102
RTVSPropertyOp14
 70
     1
102
RTVSPropertyOp15
 70
     1
102
RTVSPropertyOp16
 70
     1
102
RTVSPropertyOp17
 70
     1
102
RTVSPropertyOp18
 70
     1
102
RTVSPropertyOp19
 70
     1
102
RTVSPropertyOp20
 70
     1
102
RTVSPropertyOp21
 70
     1
102
RTVSPropertyOp22
 70
     1
102
RTVSPropertyOp23
 70
     1
102
RTVSPropertyOp24
 70
     1
102
RTVSPropertyOp25
 70
     1
102
RTVSPropertyOp26
 70
     1
102
RTVSPropertyOp27
 70
     1
102
RTVSPropertyOp28
 70
     1
102
RTVSPropertyOp29
 70
     1
102
RTVSPropertyOp30
 70
     1
102
RTVSPropertyOp31
 70
     1
102
RTVSPropertyOp32
 70
     1
  0
XRECORD
  5
413
102
{ACAD_REACTORS
330
412
102
}
330
412
100
AcDbXrecord
280
     1
102
RTVSPropertyOp0
 70
     1
102
RTVSPropertyOp1
 70
     1
102
RTVSPropertyOp2
 70
     1
102
RTVSPropertyOp3
 70
     1
102
RTVSPropertyOp4
 70
     1
102
RTVSPropertyOp5
 70
     1
102
RTVSPropertyOp6
 70
     1
102
RTVSPropertyOp7
 70
     1
102
RTVSPropertyOp8
 70
     1
102
RTVSPropertyOp9
 70
     1
102
RTVSPropertyOp10
 70
     1
102
RTVSPropertyOp11
 70
     1
102
RTVSPropertyOp12
 70
     1
102
RTVSPropertyOp13
 70
     1
102
RTVSPropertyOp14
 70
     1
102
RTVSPropertyOp15
 70
     1
102
RTVSPropertyOp16
 70
     1
102
RTVSPropertyOp17
 70
     1
102
RTVSPropertyOp18
 70
     1
102
RTVSPropertyOp19
 70
     1
102
RTVSPropertyOp20
 70
     1
102
RTVSPropertyOp21
 70
     1
102
RTVSPropertyOp22
 70
     1
102
RTVSPropertyOp23
 70
     1
102
RTVSPropertyOp24
 70
     1
102
RTVSPropertyOp25
 70
     1
102
RTVSPropertyOp26
 70
     1
102
RTVSPropertyOp27
 70
     1
102
RTVSPropertyOp28
 70
     1
102
RTVSPropertyOp29
 70
     1
102
RTVSPropertyOp30
 70
     1
102
RTVSPropertyOp31
 70
     1
102
RTVSPropertyOp32
 70
     1
  0
XRECORD
  5
41B
102
{ACAD_REACTORS
330
41A
102
}
330
41A
100
AcDbXrecord
280
     1
102
RTVSPropertyOp0
 70
     1
102
RTVSPropertyOp1
 70
     1
102
RTVSPropertyOp2
 70
     1
102
RTVSPropertyOp3
 70
     1
102
RTVSPropertyOp4
 70
     1
102
RTVSPropertyOp5
 70
     1
102
RTVSPropertyOp6
 70
     1
102
RTVSPropertyOp7
 70
     1
102
RTVSPropertyOp8
 70
     1
102
RTVSPropertyOp9
 70
     1
102
RTVSPropertyOp10
 70
     1
102
RTVSPropertyOp11
 70
     1
102
RTVSPropertyOp12
 70
     1
102
RTVSPropertyOp13
 70
     1
102
RTVSPropertyOp14
 70
     1
102
RTVSPropertyOp15
 70
     1
102
RTVSPropertyOp16
 70
     1
102
RTVSPropertyOp17
 70
     1
102
RTVSPropertyOp18
 70
     1
102
RTVSPropertyOp19
 70
     1
102
RTVSPropertyOp20
 70
     1
102
RTVSPropertyOp21
 70
     1
102
RTVSPropertyOp22
 70
     1
102
RTVSPropertyOp23
 70
     1
102
RTVSPropertyOp24
 70
     1
102
RTVSPropertyOp25
 70
     1
102
RTVSPropertyOp26
 70
     1
102
RTVSPropertyOp27
 70
     1
102
RTVSPropertyOp28
 70
     1
102
RTVSPropertyOp29
 70
     1
102
RTVSPropertyOp30
 70
     1
102
RTVSPropertyOp31
 70
     1
102
RTVSPropertyOp32
 70
     1
  0
XRECORD
  5
3FF
102
{ACAD_REACTORS
330
3FE
102
}
330
3FE
100
AcDbXrecord
280
     1
102
RTVSPropertyOp0
 70
     1
102
RTVSPropertyOp1
 70
     1
102
RTVSPropertyOp2
 70
     1
102
RTVSPropertyOp3
 70
     1
102
RTVSPropertyOp4
 70
     1
102
RTVSPropertyOp5
 70
     1
102
RTVSPropertyOp6
 70
     1
102
RTVSPropertyOp7
 70
     1
102
RTVSPropertyOp8
 70
     1
102
RTVSPropertyOp9
 70
     1
102
RTVSPropertyOp10
 70
     1
102
RTVSPropertyOp11
 70
     1
102
RTVSPropertyOp12
 70
     1
102
RTVSPropertyOp13
 70
     1
102
RTVSPropertyOp14
 70
     1
102
RTVSPropertyOp15
 70
     1
102
RTVSPropertyOp16
 70
     1
102
RTVSPropertyOp17
 70
     1
102
RTVSPropertyOp18
 70
     1
102
RTVSPropertyOp19
 70
     1
102
RTVSPropertyOp20
 70
     1
102
RTVSPropertyOp21
 70
     1
102
RTVSPropertyOp22
 70
     1
102
RTVSPropertyOp23
 70
     1
102
RTVSPropertyOp24
 70
     1
102
RTVSPropertyOp25
 70
     1
102
RTVSPropertyOp26
 70
     1
102
RTVSPropertyOp27
 70
     1
102
RTVSPropertyOp28
 70
     1
102
RTVSPropertyOp29
 70
     1
102
RTVSPropertyOp30
 70
     1
102
RTVSPropertyOp31
 70
     1
102
RTVSPropertyOp32
 70
     1
  0
XRECORD
  5
401
102
{ACAD_REACTORS
330
400
102
}
330
400
100
AcDbXrecord
280
     1
102
RTVSPropertyOp0
 70
     1
102
RTVSPropertyOp1
 70
     1
102
RTVSPropertyOp2
 70
     1
102
RTVSPropertyOp3
 70
     1
102
RTVSPropertyOp4
 70
     1
102
RTVSPropertyOp5
 70
     1
102
RTVSPropertyOp6
 70
     1
102
RTVSPropertyOp7
 70
     1
102
RTVSPropertyOp8
 70
     1
102
RTVSPropertyOp9
 70
     1
102
RTVSPropertyOp10
 70
     1
102
RTVSPropertyOp11
 70
     1
102
RTVSPropertyOp12
 70
     1
102
RTVSPropertyOp13
 70
     1
102
RTVSPropertyOp14
 70
     1
102
RTVSPropertyOp15
 70
     1
102
RTVSPropertyOp16
 70
     1
102
RTVSPropertyOp17
 70
     1
102
RTVSPropertyOp18
 70
     1
102
RTVSPropertyOp19
 70
     1
102
RTVSPropertyOp20
 70
     1
102
RTVSPropertyOp21
 70
     1
102
RTVSPropertyOp22
 70
     1
102
RTVSPropertyOp23
 70
     1
102
RTVSPropertyOp24
 70
     1
102
RTVSPropertyOp25
 70
     1
102
RTVSPropertyOp26
 70
     1
102
RTVSPropertyOp27
 70
     1
102
RTVSPropertyOp28
 70
     1
102
RTVSPropertyOp29
 70
     1
102
RTVSPropertyOp30
 70
     1
102
RTVSPropertyOp31
 70
     1
102
RTVSPropertyOp32
 70
     1
  0
XRECORD
  5
403
102
{ACAD_REACTORS
330
402
102
}
330
402
100
AcDbXrecord
280
     1
102
RTVSPropertyOp0
 70
     1
102
RTVSPropertyOp1
 70
     1
102
RTVSPropertyOp2
 70
     1
102
RTVSPropertyOp3
 70
     1
102
RTVSPropertyOp4
 70
     1
102
RTVSPropertyOp5
 70
     1
102
RTVSPropertyOp6
 70
     1
102
RTVSPropertyOp7
 70
     1
102
RTVSPropertyOp8
 70
     1
102
RTVSPropertyOp9
 70
     1
102
RTVSPropertyOp10
 70
     1
102
RTVSPropertyOp11
 70
     1
102
RTVSPropertyOp12
 70
     1
102
RTVSPropertyOp13
 70
     1
102
RTVSPropertyOp14
 70
     1
102
RTVSPropertyOp15
 70
     1
102
RTVSPropertyOp16
 70
     1
102
RTVSPropertyOp17
 70
     1
102
RTVSPropertyOp18
 70
     1
102
RTVSPropertyOp19
 70
     1
102
RTVSPropertyOp20
 70
     1
102
RTVSPropertyOp21
 70
     1
102
RTVSPropertyOp22
 70
     1
102
RTVSPropertyOp23
 70
     1
102
RTVSPropertyOp24
 70
     1
102
RTVSPropertyOp25
 70
     1
102
RTVSPropertyOp26
 70
     1
102
RTVSPropertyOp27
 70
     1
102
RTVSPropertyOp28
 70
     1
102
RTVSPropertyOp29
 70
     1
102
RTVSPropertyOp30
 70
     1
102
RTVSPropertyOp31
 70
     1
102
RTVSPropertyOp32
 70
     1
  0
XRECORD
  5
405
102
{ACAD_REACTORS
330
404
102
}
330
404
100
AcDbXrecord
280
     1
102
RTVSPropertyOp0
 70
     1
102
RTVSPropertyOp1
 70
     1
102
RTVSPropertyOp2
 70
     1
102
RTVSPropertyOp3
 70
     1
102
RTVSPropertyOp4
 70
     1
102
RTVSPropertyOp5
 70
     1
102
RTVSPropertyOp6
 70
     1
102
RTVSPropertyOp7
 70
     1
102
RTVSPropertyOp8
 70
     1
102
RTVSPropertyOp9
 70
     1
102
RTVSPropertyOp10
 70
     1
102
RTVSPropertyOp11
 70
     1
102
RTVSPropertyOp12
 70
     1
102
RTVSPropertyOp13
 70
     1
102
RTVSPropertyOp14
 70
     1
102
RTVSPropertyOp15
 70
     1
102
RTVSPropertyOp16
 70
     1
102
RTVSPropertyOp17
 70
     1
102
RTVSPropertyOp18
 70
     1
102
RTVSPropertyOp19
 70
     1
102
RTVSPropertyOp20
 70
     1
102
RTVSPropertyOp21
 70
     1
102
RTVSPropertyOp22
 70
     1
102
RTVSPropertyOp23
 70
     1
102
RTVSPropertyOp24
 70
     1
102
RTVSPropertyOp25
 70
     1
102
RTVSPropertyOp26
 70
     1
102
RTVSPropertyOp27
 70
     1
102
RTVSPropertyOp28
 70
     1
102
RTVSPropertyOp29
 70
     1
102
RTVSPropertyOp30
 70
     1
102
RTVSPropertyOp31
 70
     1
102
RTVSPropertyOp32
 70
     1
  0
XRECORD
  5
419
102
{ACAD_REACTORS
330
418
102
}
330
418
100
AcDbXrecord
280
     1
102
RTVSPropertyOp0
 70
     1
102
RTVSPropertyOp1
 70
     1
102
RTVSPropertyOp2
 70
     1
102
RTVSPropertyOp3
 70
     1
102
RTVSPropertyOp4
 70
     1
102
RTVSPropertyOp5
 70
     1
102
RTVSPropertyOp6
 70
     1
102
RTVSPropertyOp7
 70
     1
102
RTVSPropertyOp8
 70
     1
102
RTVSPropertyOp9
 70
     1
102
RTVSPropertyOp10
 70
     1
102
RTVSPropertyOp11
 70
     1
102
RTVSPropertyOp12
 70
     1
102
RTVSPropertyOp13
 70
     1
102
RTVSPropertyOp14
 70
     1
102
RTVSPropertyOp15
 70
     1
102
RTVSPropertyOp16
 70
     1
102
RTVSPropertyOp17
 70
     1
102
RTVSPropertyOp18
 70
     1
102
RTVSPropertyOp19
 70
     1
102
RTVSPropertyOp20
 70
     1
102
RTVSPropertyOp21
 70
     1
102
RTVSPropertyOp22
 70
     1
102
RTVSPropertyOp23
 70
     1
102
RTVSPropertyOp24
 70
     1
102
RTVSPropertyOp25
 70
     1
102
RTVSPropertyOp26
 70
     1
102
RTVSPropertyOp27
 70
     1
102
RTVSPropertyOp28
 70
     1
102
RTVSPropertyOp29
 70
     1
102
RTVSPropertyOp30
 70
     1
102
RTVSPropertyOp31
 70
     1
102
RTVSPropertyOp32
 70
     1
  0
XRECORD
  5
40F
102
{ACAD_REACTORS
330
40E
102
}
330
40E
100
AcDbXrecord
280
     1
102
RTVSPropertyOp0
 70
     1
102
RTVSPropertyOp1
 70
     1
102
RTVSPropertyOp2
 70
     1
102
RTVSPropertyOp3
 70
     1
102
RTVSPropertyOp4
 70
     1
102
RTVSPropertyOp5
 70
     1
102
RTVSPropertyOp6
 70
     1
102
RTVSPropertyOp7
 70
     1
102
RTVSPropertyOp8
 70
     1
102
RTVSPropertyOp9
 70
     1
102
RTVSPropertyOp10
 70
     1
102
RTVSPropertyOp11
 70
     1
102
RTVSPropertyOp12
 70
     1
102
RTVSPropertyOp13
 70
     1
102
RTVSPropertyOp14
 70
     1
102
RTVSPropertyOp15
 70
     1
102
RTVSPropertyOp16
 70
     1
102
RTVSPropertyOp17
 70
     1
102
RTVSPropertyOp18
 70
     1
102
RTVSPropertyOp19
 70
     1
102
RTVSPropertyOp20
 70
     1
102
RTVSPropertyOp21
 70
     1
102
RTVSPropertyOp22
 70
     1
102
RTVSPropertyOp23
 70
     1
102
RTVSPropertyOp24
 70
     1
102
RTVSPropertyOp25
 70
     1
102
RTVSPropertyOp26
 70
     1
102
RTVSPropertyOp27
 70
     1
102
RTVSPropertyOp28
 70
     1
102
RTVSPropertyOp29
 70
     1
102
RTVSPropertyOp30
 70
     1
102
RTVSPropertyOp31
 70
     1
102
RTVSPropertyOp32
 70
     1
  0
XRECORD
  5
417
102
{ACAD_REACTORS
330
416
102
}
330
416
100
AcDbXrecord
280
     1
102
RTVSPropertyOp0
 70
     1
102
RTVSPropertyOp1
 70
     1
102
RTVSPropertyOp2
 70
     1
102
RTVSPropertyOp3
 70
     1
102
RTVSPropertyOp4
 70
     1
102
RTVSPropertyOp5
 70
     1
102
RTVSPropertyOp6
 70
     1
102
RTVSPropertyOp7
 70
     1
102
RTVSPropertyOp8
 70
     1
102
RTVSPropertyOp9
 70
     1
102
RTVSPropertyOp10
 70
     1
102
RTVSPropertyOp11
 70
     1
102
RTVSPropertyOp12
 70
     1
102
RTVSPropertyOp13
 70
     1
102
RTVSPropertyOp14
 70
     1
102
RTVSPropertyOp15
 70
     1
102
RTVSPropertyOp16
 70
     1
102
RTVSPropertyOp17
 70
     1
102
RTVSPropertyOp18
 70
     1
102
RTVSPropertyOp19
 70
     1
102
RTVSPropertyOp20
 70
     1
102
RTVSPropertyOp21
 70
     1
102
RTVSPropertyOp22
 70
     1
102
RTVSPropertyOp23
 70
     1
102
RTVSPropertyOp24
 70
     1
102
RTVSPropertyOp25
 70
     1
102
RTVSPropertyOp26
 70
     1
102
RTVSPropertyOp27
 70
     1
102
RTVSPropertyOp28
 70
     1
102
RTVSPropertyOp29
 70
     1
102
RTVSPropertyOp30
 70
     1
102
RTVSPropertyOp31
 70
     1
102
RTVSPropertyOp32
 70
     1
  0
ENDSEC
  0
EOF
