  0
SECTION
  2
HEADER
  9
$ACADVER
  1
AC1015
  9
$ACADMAINTVER
 70
     6
  9
$DWGCODEPAGE
  3
ANSI_932
  9
$INSBASE
 10
0.0
 20
0.0
 30
0.0
  9
$EXTMIN
 10
0.0
 20
0.0
 30
0.0
  9
$EXTMAX
 10
420.0
 20
594.0
 30
0.0
  9
$LIMMIN
 10
0.0
 20
0.0
  9
$LIMMAX
 10
12.0
 20
9.0
  9
$ORTHOMODE
 70
     0
  9
$REGENMODE
 70
     1
  9
$FILLMODE
 70
     1
  9
$QTEXTMODE
 70
     0
  9
$MIRRTEXT
 70
     1
  9
$LTSCALE
 40
1.0
  9
$ATTMODE
 70
     1
  9
$TEXTSIZE
 40
0.2
  9
$TRACEWID
 40
0.05
  9
$TEXTSTYLE
  7
Standard
  9
$CLAYER
  8
0
  9
$CELTYPE
  6
ByLayer
  9
$CECOLOR
 62
   256
  9
$CELTSCALE
 40
1.0
  9
$DISPSILH
 70
     0
  9
$DIMSCALE
 40
1.0
  9
$DIMASZ
 40
0.18
  9
$DIMEXO
 40
0.0625
  9
$DIMDLI
 40
0.38
  9
$DIMRND
 40
0.0
  9
$DIMDLE
 40
0.0
  9
$DIMEXE
 40
0.18
  9
$DIMTP
 40
0.0
  9
$DIMTM
 40
0.0
  9
$DIMTXT
 40
0.18
  9
$DIMCEN
 40
0.09
  9
$DIMTSZ
 40
0.0
  9
$DIMTOL
 70
     0
  9
$DIMLIM
 70
     0
  9
$DIMTIH
 70
     1
  9
$DIMTOH
 70
     1
  9
$DIMSE1
 70
     0
  9
$DIMSE2
 70
     0
  9
$DIMTAD
 70
     0
  9
$DIMZIN
 70
     0
  9
$DIMBLK
  1

  9
$DIMASO
 70
     1
  9
$DIMSHO
 70
     1
  9
$DIMPOST
  1

  9
$DIMAPOST
  1

  9
$DIMALT
 70
     0
  9
$DIMALTD
 70
     2
  9
$DIMALTF
 40
25.4
  9
$DIMLFAC
 40
1.0
  9
$DIMTOFL
 70
     0
  9
$DIMTVP
 40
0.0
  9
$DIMTIX
 70
     0
  9
$DIMSOXD
 70
     0
  9
$DIMSAH
 70
     0
  9
$DIMBLK1
  1

  9
$DIMBLK2
  1

  9
$DIMSTYLE
  2
Standard
  9
$DIMCLRD
 70
     0
  9
$DIMCLRE
 70
     0
  9
$DIMCLRT
 70
     0
  9
$DIMTFAC
 40
1.0
  9
$DIMGAP
 40
0.09
  9
$DIMJUST
 70
     0
  9
$DIMSD1
 70
     0
  9
$DIMSD2
 70
     0
  9
$DIMTOLJ
 70
     1
  9
$DIMTZIN
 70
     0
  9
$DIMALTZ
 70
     0
  9
$DIMALTTZ
 70
     0
  9
$DIMUPT
 70
     0
  9
$DIMDEC
 70
     4
  9
$DIMTDEC
 70
     4
  9
$DIMALTU
 70
     2
  9
$DIMALTTD
 70
     2
  9
$DIMTXSTY
  7
Standard
  9
$DIMAUNIT
 70
     0
  9
$DIMADEC
 70
     0
  9
$DIMALTRND
 40
0.0
  9
$DIMAZIN
 70
     0
  9
$DIMDSEP
 70
    46
  9
$DIMATFIT
 70
     3
  9
$DIMFRAC
 70
     0
  9
$DIMLDRBLK
  1

  9
$DIMLUNIT
 70
     2
  9
$DIMLWD
 70
    -2
  9
$DIMLWE
 70
    -2
  9
$DIMTMOVE
 70
     0
  9
$LUNITS
 70
     2
  9
$LUPREC
 70
     4
  9
$SKETCHINC
 40
0.1
  9
$FILLETRAD
 40
0.5
  9
$AUNITS
 70
     0
  9
$AUPREC
 70
     0
  9
$MENU
  1
.
  9
$ELEVATION
 40
0.0
  9
$PELEVATION
 40
0.0
  9
$THICKNESS
 40
0.0
  9
$LIMCHECK
 70
     0
  9
$CHAMFERA
 40
0.5
  9
$CHAMFERB
 40
0.5
  9
$CHAMFERC
 40
1.0
  9
$CHAMFERD
 40
0.0
  9
$SKPOLY
 70
     0
  9
$TDCREATE
 40
2456496.70821434
  9
$TDUCREATE
 40
2456496.33321434
  9
$TDUPDATE
 40
2456496.708215602
  9
$TDUUPDATE
 40
2456496.333215602
  9
$TDINDWG
 40
0.0000000116
  9
$TDUSRTIMER
 40
0.0000000116
  9
$USRTIMER
 70
     1
  9
$ANGBASE
 50
0.0
  9
$ANGDIR
 70
     0
  9
$PDMODE
 70
     0
  9
$PDSIZE
 40
0.0
  9
$PLINEWID
 40
0.0
  9
$SPLFRAME
 70
     0
  9
$SPLINETYPE
 70
     6
  9
$SPLINESEGS
 70
     8
  9
$HANDSEED
  5
2DF
  9
$SURFTAB1
 70
     6
  9
$SURFTAB2
 70
     6
  9
$SURFTYPE
 70
     6
  9
$SURFU
 70
     6
  9
$SURFV
 70
     6
  9
$UCSBASE
  2

  9
$UCSNAME
  2

  9
$UCSORG
 10
0.0
 20
0.0
 30
0.0
  9
$UCSXDIR
 10
1.0
 20
0.0
 30
0.0
  9
$UCSYDIR
 10
0.0
 20
1.0
 30
0.0
  9
$UCSORTHOREF
  2

  9
$UCSORTHOVIEW
 70
     0
  9
$UCSORGTOP
 10
0.0
 20
0.0
 30
0.0
  9
$UCSORGBOTTOM
 10
0.0
 20
0.0
 30
0.0
  9
$UCSORGLEFT
 10
0.0
 20
0.0
 30
0.0
  9
$UCSORGRIGHT
 10
0.0
 20
0.0
 30
0.0
  9
$UCSORGFRONT
 10
0.0
 20
0.0
 30
0.0
  9
$UCSORGBACK
 10
0.0
 20
0.0
 30
0.0
  9
$PUCSBASE
  2

  9
$PUCSNAME
  2

  9
$PUCSORG
 10
0.0
 20
0.0
 30
0.0
  9
$PUCSXDIR
 10
1.0
 20
0.0
 30
0.0
  9
$PUCSYDIR
 10
0.0
 20
1.0
 30
0.0
  9
$PUCSORTHOREF
  2

  9
$PUCSORTHOVIEW
 70
     0
  9
$PUCSORGTOP
 10
0.0
 20
0.0
 30
0.0
  9
$PUCSORGBOTTOM
 10
0.0
 20
0.0
 30
0.0
  9
$PUCSORGLEFT
 10
0.0
 20
0.0
 30
0.0
  9
$PUCSORGRIGHT
 10
0.0
 20
0.0
 30
0.0
  9
$PUCSORGFRONT
 10
0.0
 20
0.0
 30
0.0
  9
$PUCSORGBACK
 10
0.0
 20
0.0
 30
0.0
  9
$USERI1
 70
     0
  9
$USERI2
 70
     0
  9
$USERI3
 70
     0
  9
$USERI4
 70
     0
  9
$USERI5
 70
     0
  9
$USERR1
 40
18.1
  9
$USERR2
 40
0.0
  9
$USERR3
 40
0.0
  9
$USERR4
 40
0.0
  9
$USERR5
 40
0.0
  9
$WORLDVIEW
 70
     1
  9
$SHADEDGE
 70
     3
  9
$SHADEDIF
 70
    70
  9
$TILEMODE
 70
     1
  9
$MAXACTVP
 70
    64
  9
$PINSBASE
 10
0.0
 20
0.0
 30
0.0
  9
$PLIMCHECK
 70
     0
  9
$PEXTMIN
 10
1.00000000000000E+20
 20
1.00000000000000E+20
 30
1.00000000000000E+20
  9
$PEXTMAX
 10
-1.00000000000000E+20
 20
-1.00000000000000E+20
 30
-1.00000000000000E+20
  9
$PLIMMIN
 10
0.0
 20
0.0
  9
$PLIMMAX
 10
12.0
 20
9.0
  9
$UNITMODE
 70
     0
  9
$VISRETAIN
 70
     1
  9
$PLINEGEN
 70
     0
  9
$PSLTSCALE
 70
     1
  9
$TREEDEPTH
 70
  3020
  9
$CMLSTYLE
  2
Standard
  9
$CMLJUST
 70
     0
  9
$CMLSCALE
 40
1.0
  9
$PROXYGRAPHICS
 70
     1
  9
$MEASUREMENT
 70
     1
  9
$CELWEIGHT
370
    -1
  9
$ENDCAPS
280
     0
  9
$JOINSTYLE
280
     0
  9
$LWDISPLAY
290
     0
  9
$INSUNITS
 70
     4
  9
$HYPERLINKBASE
  1

  9
$STYLESHEET
  1

  9
$XEDIT
290
     1
  9
$CEPSNTYPE
380
     0
  9
$PSTYLEMODE
290
     1
  9
$FINGERPRINTGUID
  2
{776A979B-3D81-4F09-90FE-B4A090E27D1F}
  9
$VERSIONGUID
  2
{FAEB1C32-E019-11D5-929B-00C0DF256EC4}
  9
$EXTNAMES
290
     1
  9
$PSVPSCALE
 40
0.0
  9
$OLESTARTUP
290
     0
  0
ENDSEC
  0
SECTION
  2
CLASSES
  0
CLASS
  1
ACDBDICTIONARYWDFLT
  2
AcDbDictionaryWithDefault
  3
ObjectDBX Classes
 90
        0
280
     0
281
     0
  0
CLASS
  1
VISUALSTYLE
  2
AcDbVisualStyle
  3
ObjectDBX Classes
 90
     4095
280
     0
281
     0
  0
CLASS
  1
MATERIAL
  2
AcDbMaterial
  3
ObjectDBX Classes
 90
     1153
280
     0
281
     0
  0
CLASS
  1
DICTIONARYVAR
  2
AcDbDictionaryVar
  3
ObjectDBX Classes
 90
        0
280
     0
281
     0
  0
CLASS
  1
ACDBPLACEHOLDER
  2
AcDbPlaceHolder
  3
ObjectDBX Classes
 90
        0
280
     0
281
     0
  0
CLASS
  1
LAYOUT
  2
AcDbLayout
  3
ObjectDBX Classes
 90
        0
280
     0
281
     0
  0
ENDSEC
  0
SECTION
  2
TABLES
  0
TABLE
  2
VPORT
  5
8
330
0
100
AcDbSymbolTable
 70
     1
  0
VPORT
  5
29
330
8
100
AcDbSymbolTableRecord
100
AcDbViewportTableRecord
  2
*Active
 70
     0
 10
0.0
 20
0.0
 11
1.0
 21
1.0
 12
210.0
 22
297.0
 13
0.0
 23
0.0
 14
0.5
 24
0.5
 15
0.5
 25
0.5
 16
0.0
 26
0.0
 36
1.0
 17
0.0
 27
0.0
 37
0.0
 40
653.4000000000001
 41
1.60267857142857
 42
50.0
 43
0.0
 44
0.0
 50
0.0
 51
0.0
 71
     0
 72
   100
 73
     1
 74
     3
 75
     0
 76
     0
 77
     0
 78
     0
281
     0
 65
     1
110
0.0
120
0.0
130
0.0
111
1.0
121
0.0
131
0.0
112
0.0
122
1.0
132
0.0
 79
     0
146
0.0
  0
ENDTAB
  0
TABLE
  2
LTYPE
  5
5
330
0
100
AcDbSymbolTable
 70
     8
  0
LTYPE
  5
14
330
5
100
AcDbSymbolTableRecord
100
AcDbLinetypeTableRecord
  2
ByBlock
 70
     0
  3

 72
    65
 73
     0
 40
0.0
  0
LTYPE
  5
15
330
5
100
AcDbSymbolTableRecord
100
AcDbLinetypeTableRecord
  2
ByLayer
 70
     0
  3

 72
    65
 73
     0
 40
0.0
  0
LTYPE
  5
16
330
5
100
AcDbSymbolTableRecord
100
AcDbLinetypeTableRecord
  2
Continuous
 70
     0
  3
Solid line
 72
    65
 73
     0
 40
0.0
  0
LTYPE
  5
3F
330
5
100
AcDbSymbolTableRecord
100
AcDbLinetypeTableRecord
  2
DASHED
 70
     0
  3
Dashed
 72
    65
 73
     2
 40
15.0
 49
7.0
 74
     0
 49
-8.0
 74
     0
  0
LTYPE
  5
40
330
5
100
AcDbSymbolTableRecord
100
AcDbLinetypeTableRecord
  2
DOTTED
 70
     0
  3
Dotted
 72
    65
 73
     2
 40
1.0
 49
0.0
 74
     0
 49
-1.0
 74
     0
  0
LTYPE
  5
41
330
5
100
AcDbSymbolTableRecord
100
AcDbLinetypeTableRecord
  2
DOT_CENTER
 70
     0
  3
Dot_Center
 72
    65
 73
     4
 40
14.0
 49
12.0
 74
     0
 49
-1.0
 74
     0
 49
0.0
 74
     0
 49
-1.0
 74
     0
  0
LTYPE
  5
42
330
5
100
AcDbSymbolTableRecord
100
AcDbLinetypeTableRecord
  2
LONG_DASHED
 70
     0
  3
Long_Dashed
 72
    65
 73
     2
 40
15.0
 49
10.0
 74
     0
 49
-5.0
 74
     0
  0
LTYPE
  5
43
330
5
100
AcDbSymbolTableRecord
100
AcDbLinetypeTableRecord
  2
DASH_CENTER
 70
     0
  3
Dash_Center
 72
    65
 73
     4
 40
14.0
 49
11.0
 74
     0
 49
-1.0
 74
     0
 49
1.0
 74
     0
 49
-1.0
 74
     0
  0
LTYPE
  5
44
330
5
100
AcDbSymbolTableRecord
100
AcDbLinetypeTableRecord
  2
PHANTOM
 70
     0
  3
Phantom
 72
    65
 73
     6
 40
13.0
 49
10.0
 74
     0
 49
-1.0
 74
     0
 49
0.0
 74
     0
 49
-1.0
 74
     0
 49
0.0
 74
     0
 49
-1.0
 74
     0
  0
LTYPE
  5
45
330
5
100
AcDbSymbolTableRecord
100
AcDbLinetypeTableRecord
  2
CENTER_DASH_DASH
 70
     0
  3
Center_Dash_Dash
 72
    65
 73
     6
 40
14.0
 49
9.0
 74
     0
 49
-1.0
 74
     0
 49
1.0
 74
     0
 49
-1.0
 74
     0
 49
1.0
 74
     0
 49
-1.0
 74
     0
  0
ENDTAB
  0
TABLE
  2
LAYER
  5
2
330
0
100
AcDbSymbolTable
 70
     2
  0
LAYER
  5
10
330
2
100
AcDbSymbolTableRecord
100
AcDbLayerTableRecord
  2
0
 70
     0
 62
     7
  6
Continuous
370
    -3
390
F
  0
LAYER
  5
46
330
2
100
AcDbSymbolTableRecord
100
AcDbLayerTableRecord
  2
1
 70
     0
 62
     7
  6
Continuous
370
    -3
390
F
  0
ENDTAB
  0
TABLE
  2
STYLE
  5
3
330
0
100
AcDbSymbolTable
 70
     3
  0
STYLE
  5
11
330
3
100
AcDbSymbolTableRecord
100
AcDbTextStyleTableRecord
  2
Standard
 70
     0
 40
0.0
 41
1.0
 50
0.0
 71
     0
 42
0.2
  3
txt
  4

  0
STYLE
  5
EE
330
3
100
AcDbSymbolTableRecord
100
AcDbTextStyleTableRecord
  2
CONVERTER_11
 70
     0
 40
0.0
 41
0.89
 50
0.0
 71
     0
 42
0.2
  3
MS Mincho.ttf
  4

1001
ACAD
1000
MS Mincho
1071
    32785
  0
STYLE
  5
269
330
3
100
AcDbSymbolTableRecord
100
AcDbTextStyleTableRecord
  2
CONVERTER_12
 70
     0
 40
0.0
 41
0.9
 50
0.0
 71
     0
 42
0.2
  3
txt.shx
  4

  0
ENDTAB
  0
TABLE
  2
VIEW
  5
6
330
0
100
AcDbSymbolTable
 70
     0
  0
ENDTAB
  0
TABLE
  2
UCS
  5
7
330
0
100
AcDbSymbolTable
 70
     0
  0
ENDTAB
  0
TABLE
  2
APPID
  5
9
330
0
100
AcDbSymbolTable
 70
     1
  0
APPID
  5
12
330
9
100
AcDbSymbolTableRecord
100
AcDbRegAppTableRecord
  2
ACAD
 70
     0
  0
ENDTAB
  0
TABLE
  2
DIMSTYLE
  5
A
330
0
100
AcDbSymbolTable
 70
     7
100
AcDbDimStyleTable
  0
DIMSTYLE
105
27
330
A
100
AcDbSymbolTableRecord
100
AcDbDimStyleTableRecord
  2
Standard
 70
     0
178
     0
340
11
  0
DIMSTYLE
105
279
102
{ACAD_REACTORS
330
27A
102
}
330
A
100
AcDbSymbolTableRecord
100
AcDbDimStyleTableRecord
  2
ME10_DIM_10
 70
     0
  3
内径{\Fgdt;n}<>
 41
7.0
 42
0.0
 44
2.0
 73
     0
 74
     0
 77
     1
 78
     8
140
7.0
147
2.0
172
     1
173
     1
174
     1
175
     1
176
     2
177
     2
271
     2
178
     7
271
     2
340
EE
  0
DIMSTYLE
105
284
102
{ACAD_REACTORS
330
285
102
}
330
A
100
AcDbSymbolTableRecord
100
AcDbDimStyleTableRecord
  2
ME10_DIM_11
 70
     0
 41
7.0
 42
0.0
 44
2.0
 73
     0
 74
     0
 77
     1
 78
     8
140
7.0
147
2.0
172
     1
173
     1
174
     1
175
     1
176
     2
177
     2
271
     2
178
     7
271
     2
340
269
  0
DIMSTYLE
105
28F
102
{ACAD_REACTORS
330
290
102
}
330
A
100
AcDbSymbolTableRecord
100
AcDbDimStyleTableRecord
  2
ME10_DIM_12
 70
     0
  3
{\Fgdt;n}<>
 41
7.0
 42
0.0
 44
2.0
 73
     0
 74
     0
 77
     1
 78
     8
140
7.0
147
2.0
172
     1
173
     1
174
     1
175
     1
176
     2
177
     2
271
     2
178
     7
271
     2
340
269
  0
DIMSTYLE
105
29B
102
{ACAD_REACTORS
330
29C
102
}
330
A
100
AcDbSymbolTableRecord
100
AcDbDimStyleTableRecord
  2
ME10_DIM_13
 70
     0
 41
7.0
 42
0.0
 44
2.0
 73
     0
 74
     0
 77
     1
 78
     8
140
7.0
147
2.0
172
     1
173
     1
174
     1
175
     1
176
     2
177
     2
271
     2
178
     7
271
     2
340
EE
  0
DIMSTYLE
105
2A6
102
{ACAD_REACTORS
330
2A7
102
}
330
A
100
AcDbSymbolTableRecord
100
AcDbDimStyleTableRecord
  2
ME10_DIM_14
 70
     0
 41
7.0
 42
0.0
 44
2.0
 73
     0
 74
     0
 77
     1
 78
     8
140
7.0
147
2.0
172
     1
173
     1
174
     1
175
     1
176
     2
177
     2
271
     2
178
     7
271
     2
340
269
  0
DIMSTYLE
105
2B2
102
{ACAD_REACTORS
330
2B3
102
}
330
A
100
AcDbSymbolTableRecord
100
AcDbDimStyleTableRecord
  2
ME10_DIM_15
 70
     0
 41
7.0
 42
0.0
 44
2.0
 73
     0
 74
     0
 77
     1
 78
     8
140
7.0
147
2.0
172
     1
173
     1
174
     1
175
     1
176
     2
177
     2
271
     2
178
     7
271
     2
340
269
  0
ENDTAB
  0
TABLE
  2
BLOCK_RECORD
  5
1
330
0
100
AcDbSymbolTable
 70
    30
  0
BLOCK_RECORD
  5
1F
330
1
100
AcDbSymbolTableRecord
100
AcDbBlockTableRecord
  2
*Model_Space
340
22
  0
BLOCK_RECORD
  5
1B
330
1
100
AcDbSymbolTableRecord
100
AcDbBlockTableRecord
  2
*Paper_Space
340
1E
  0
BLOCK_RECORD
  5
23
330
1
100
AcDbSymbolTableRecord
100
AcDbBlockTableRecord
  2
*Paper_Space0
340
26
  0
BLOCK_RECORD
  5
47
330
1
100
AcDbSymbolTableRecord
100
AcDbBlockTableRecord
  2
開示A4
340
0
102
{BLKREFS
331
98
102
}
  0
BLOCK_RECORD
  5
4A
330
1
100
AcDbSymbolTableRecord
100
AcDbBlockTableRecord
  2
washer__1
340
0
102
{BLKREFS
331
57
102
}
  0
BLOCK_RECORD
  5
4D
330
1
100
AcDbSymbolTableRecord
100
AcDbBlockTableRecord
  2
neji__2
340
0
102
{BLKREFS
331
58
102
}
  0
BLOCK_RECORD
  5
50
330
1
100
AcDbSymbolTableRecord
100
AcDbBlockTableRecord
  2
guid__3
340
0
102
{BLKREFS
331
59
102
}
  0
BLOCK_RECORD
  5
53
330
1
100
AcDbSymbolTableRecord
100
AcDbBlockTableRecord
  2
ring__4
340
0
102
{BLKREFS
331
5A
102
}
  0
BLOCK_RECORD
  5
56
330
1
100
AcDbSymbolTableRecord
100
AcDbBlockTableRecord
  2
5__5
340
0
102
{BLKREFS
331
99
102
}
  0
BLOCK_RECORD
  5
5D
330
1
100
AcDbSymbolTableRecord
100
AcDbBlockTableRecord
  2
plate
340
0
102
{BLKREFS
331
6A
102
}
  0
BLOCK_RECORD
  5
60
330
1
100
AcDbSymbolTableRecord
100
AcDbBlockTableRecord
  2
washer__6
340
0
102
{BLKREFS
331
6B
102
}
  0
BLOCK_RECORD
  5
63
330
1
100
AcDbSymbolTableRecord
100
AcDbBlockTableRecord
  2
neji__7
340
0
102
{BLKREFS
331
6C
102
}
  0
BLOCK_RECORD
  5
66
330
1
100
AcDbSymbolTableRecord
100
AcDbBlockTableRecord
  2
ring__8
340
0
102
{BLKREFS
331
6D
102
}
  0
BLOCK_RECORD
  5
69
330
1
100
AcDbSymbolTableRecord
100
AcDbBlockTableRecord
  2
5__9
340
0
102
{BLKREFS
331
9A
102
}
  0
BLOCK_RECORD
  5
70
330
1
100
AcDbSymbolTableRecord
100
AcDbBlockTableRecord
  2
lock__10
340
0
102
{BLKREFS
331
9B
102
}
  0
BLOCK_RECORD
  5
73
330
1
100
AcDbSymbolTableRecord
100
AcDbBlockTableRecord
  2
tsuba__11
340
0
102
{BLKREFS
331
9C
102
}
  0
BLOCK_RECORD
  5
76
330
1
100
AcDbSymbolTableRecord
100
AcDbBlockTableRecord
  2
elbo__12
340
0
102
{BLKREFS
331
9D
102
}
  0
BLOCK_RECORD
  5
79
330
1
100
AcDbSymbolTableRecord
100
AcDbBlockTableRecord
  2
neji__13
340
0
102
{BLKREFS
331
86
102
}
  0
BLOCK_RECORD
  5
7C
330
1
100
AcDbSymbolTableRecord
100
AcDbBlockTableRecord
  2
guid__14
340
0
102
{BLKREFS
331
87
102
}
  0
BLOCK_RECORD
  5
7F
330
1
100
AcDbSymbolTableRecord
100
AcDbBlockTableRecord
  2
washer__15
340
0
102
{BLKREFS
331
88
102
}
  0
BLOCK_RECORD
  5
82
330
1
100
AcDbSymbolTableRecord
100
AcDbBlockTableRecord
  2
ring__16
340
0
102
{BLKREFS
331
89
102
}
  0
BLOCK_RECORD
  5
85
330
1
100
AcDbSymbolTableRecord
100
AcDbBlockTableRecord
  2
D21-30
340
0
102
{BLKREFS
331
9E
102
}
  0
BLOCK_RECORD
  5
8C
330
1
100
AcDbSymbolTableRecord
100
AcDbBlockTableRecord
  2
elbo__17
340
0
102
{BLKREFS
331
9F
102
}
  0
BLOCK_RECORD
  5
8F
330
1
100
AcDbSymbolTableRecord
100
AcDbBlockTableRecord
  2
tsuba__18
340
0
102
{BLKREFS
331
A0
102
}
  0
BLOCK_RECORD
  5
92
330
1
100
AcDbSymbolTableRecord
100
AcDbBlockTableRecord
  2
lock__19
340
0
102
{BLKREFS
331
A1
102
}
  0
BLOCK_RECORD
  5
95
330
1
100
AcDbSymbolTableRecord
100
AcDbBlockTableRecord
  2
_3
340
0
102
{BLKREFS
331
A2
102
}
  0
BLOCK_RECORD
  5
26F
330
1
100
AcDbSymbolTableRecord
100
AcDbBlockTableRecord
  2
*D24
340
0
  0
BLOCK_RECORD
  5
27B
330
1
100
AcDbSymbolTableRecord
100
AcDbBlockTableRecord
  2
*D25
340
0
  0
BLOCK_RECORD
  5
286
330
1
100
AcDbSymbolTableRecord
100
AcDbBlockTableRecord
  2
*D26
340
0
  0
BLOCK_RECORD
  5
291
330
1
100
AcDbSymbolTableRecord
100
AcDbBlockTableRecord
  2
*D27
340
0
  0
BLOCK_RECORD
  5
29D
330
1
100
AcDbSymbolTableRecord
100
AcDbBlockTableRecord
  2
*D28
340
0
  0
BLOCK_RECORD
  5
2A8
330
1
100
AcDbSymbolTableRecord
100
AcDbBlockTableRecord
  2
*D29
340
0
  0
ENDTAB
  0
ENDSEC
  0
SECTION
  2
BLOCKS
  0
BLOCK
  5
20
330
1F
100
AcDbEntity
  8
0
100
AcDbBlockBegin
  2
*Model_Space
 70
     0
 10
0.0
 20
0.0
 30
0.0
  3
*Model_Space
  1

  0
ENDBLK
  5
21
330
1F
100
AcDbEntity
  8
0
100
AcDbBlockEnd
  0
BLOCK
  5
1C
330
1B
100
AcDbEntity
 67
     1
  8
0
100
AcDbBlockBegin
  2
*Paper_Space
 70
     0
 10
0.0
 20
0.0
 30
0.0
  3
*Paper_Space
  1

  0
ENDBLK
  5
1D
330
1B
100
AcDbEntity
 67
     1
  8
0
100
AcDbBlockEnd
  0
BLOCK
  5
24
330
23
100
AcDbEntity
  8
0
100
AcDbBlockBegin
  2
*Paper_Space0
 70
     0
 10
0.0
 20
0.0
 30
0.0
  3
*Paper_Space0
  1

  0
ENDBLK
  5
25
330
23
100
AcDbEntity
  8
0
100
AcDbBlockEnd
  0
BLOCK
  5
48
330
47
100
AcDbEntity
  8
0
100
AcDbBlockBegin
  2
開示A4
 70
     0
 10
0.0
 20
0.0
 30
0.0
  3
開示A4
  1

  0
POINT
  5
A3
330
47
100
AcDbEntity
  8
1
 62
     4
100
AcDbPoint
 10
34.0
 20
34.00000000000001
 30
0.0
  0
POINT
  5
A4
330
47
100
AcDbEntity
  8
1
 62
     4
100
AcDbPoint
 10
57.0
 20
12.25
 30
0.0
  0
POINT
  5
A5
330
47
100
AcDbEntity
  8
1
 62
     4
100
AcDbPoint
 10
57.0
 20
20.75000000000001
 30
0.0
  0
POINT
  5
A6
330
47
100
AcDbEntity
  8
1
 62
     4
100
AcDbPoint
 10
57.0
 20
24.75000000000001
 30
0.0
  0
POINT
  5
A7
330
47
100
AcDbEntity
  8
1
 62
     4
100
AcDbPoint
 10
57.0
 20
16.25
 30
0.0
  0
POINT
  5
A8
330
47
100
AcDbEntity
  8
1
 62
     4
100
AcDbPoint
 10
157.5
 20
19.00000000000001
 30
0.0
  0
POINT
  5
A9
330
47
100
AcDbEntity
  8
1
 62
     4
100
AcDbPoint
 10
47.5
 20
282.0000000000003
 30
0.0
  0
POINT
  5
AA
330
47
100
AcDbEntity
  8
1
 62
     4
100
AcDbPoint
 10
57.0
 20
22.75000000000001
 30
0.0
  0
POINT
  5
AB
330
47
100
AcDbEntity
  8
1
 62
     4
100
AcDbPoint
 10
57.0
 20
14.25
 30
0.0
  0
POINT
  5
AC
330
47
100
AcDbEntity
  8
1
 62
     4
100
AcDbPoint
 10
157.5
 20
12.5
 30
0.0
  0
POINT
  5
AD
330
47
100
AcDbEntity
  8
1
 62
     4
100
AcDbPoint
 10
163.25
 20
12.5
 30
0.0
  0
POINT
  5
AE
330
47
100
AcDbEntity
  8
1
 62
     4
100
AcDbPoint
 10
151.75
 20
12.5
 30
0.0
  0
POINT
  5
AF
330
47
100
AcDbEntity
  8
1
 62
     4
100
AcDbPoint
 10
134.75
 20
12.5
 30
0.0
  0
POINT
  5
B0
330
47
100
AcDbEntity
  8
1
 62
     4
100
AcDbPoint
 10
146.25
 20
12.5
 30
0.0
  0
POINT
  5
B1
330
47
100
AcDbEntity
  8
1
 62
     4
100
AcDbPoint
 10
140.5
 20
12.5
 30
0.0
  0
POINT
  5
B2
330
47
100
AcDbEntity
  8
1
 62
     4
100
AcDbPoint
 10
140.5
 20
19.00000000000001
 30
0.0
  0
POINT
  5
B3
330
47
100
AcDbEntity
  8
1
 62
     4
100
AcDbPoint
 10
117.75
 20
12.5
 30
0.0
  0
POINT
  5
B4
330
47
100
AcDbEntity
  8
1
 62
     4
100
AcDbPoint
 10
129.25
 20
12.5
 30
0.0
  0
POINT
  5
B5
330
47
100
AcDbEntity
  8
1
 62
     4
100
AcDbPoint
 10
123.5
 20
12.5
 30
0.0
  0
POINT
  5
B6
330
47
100
AcDbEntity
  8
1
 62
     4
100
AcDbPoint
 10
123.5
 20
19.00000000000001
 30
0.0
  0
POINT
  5
B7
330
47
100
AcDbEntity
  8
1
 62
     4
100
AcDbPoint
 10
100.75
 20
12.5
 30
0.0
  0
POINT
  5
B8
330
47
100
AcDbEntity
  8
1
 62
     4
100
AcDbPoint
 10
112.25
 20
12.5
 30
0.0
  0
POINT
  5
B9
330
47
100
AcDbEntity
  8
1
 62
     4
100
AcDbPoint
 10
106.5
 20
12.5
 30
0.0
  0
POINT
  5
BA
330
47
100
AcDbEntity
  8
1
 62
     4
100
AcDbPoint
 10
106.5
 20
19.00000000000001
 30
0.0
  0
POINT
  5
BB
330
47
100
AcDbEntity
  8
1
 62
     4
100
AcDbPoint
 10
85.25
 20
17.0
 30
0.0
  0
POINT
  5
BC
330
47
100
AcDbEntity
  8
1
 62
     4
100
AcDbPoint
 10
93.75
 20
17.0
 30
0.0
  0
LINE
  5
BD
330
47
100
AcDbEntity
  8
1
  6
Continuous
 62
     2
100
AcDbLine
 10
81.0
 20
27.00000000000001
 30
0.0
 11
81.0
 21
10.0
 31
0.0
  0
LINE
  5
BE
330
47
100
AcDbEntity
  8
1
  6
DOT_CENTER
 62
     2
100
AcDbLine
 10
187.0
 20
26.50000000000001
 30
0.0
 11
187.0
 21
20.50000000000001
 31
0.0
  0
LINE
  5
BF
330
47
100
AcDbEntity
  8
1
  6
DOT_CENTER
 62
     2
100
AcDbLine
 10
184.0
 20
23.50000000000001
 30
0.0
 11
197.0
 21
23.50000000000001
 31
0.0
  0
LINE
  5
C0
330
47
100
AcDbEntity
  8
1
  6
Continuous
 62
     7
100
AcDbLine
 10
196.0
 20
21.50000000000001
 30
0.0
 11
191.0
 21
22.30000000000001
 31
0.0
  0
LINE
  5
C1
330
47
100
AcDbEntity
  8
1
  6
Continuous
 62
     7
100
AcDbLine
 10
196.0
 20
25.50000000000001
 30
0.0
 11
196.0
 21
21.50000000000001
 31
0.0
  0
LINE
  5
C2
330
47
100
AcDbEntity
  8
1
  6
Continuous
 62
     7
100
AcDbLine
 10
191.0
 20
24.70000000000001
 30
0.0
 11
196.0
 21
25.50000000000001
 31
0.0
  0
LINE
  5
C3
330
47
100
AcDbEntity
  8
1
  6
Continuous
 62
     7
100
AcDbLine
 10
191.0
 20
24.70000000000001
 30
0.0
 11
191.0
 21
22.30000000000001
 31
0.0
  0
LINE
  5
C4
330
47
100
AcDbEntity
  8
1
  6
Continuous
 62
     2
100
AcDbLine
 10
33.0
 20
27.0
 30
0.0
 11
33.0
 21
10.0
 31
0.0
  0
LINE
  5
C5
330
47
100
AcDbEntity
  8
1
  6
Continuous
 62
     2
100
AcDbLine
 10
25.0
 20
18.50000000000001
 30
0.0
 11
81.0
 21
18.50000000000001
 31
0.0
  0
LINE
  5
C6
330
47
100
AcDbEntity
  8
1
  6
Continuous
 62
     7
100
AcDbLine
 10
200.0
 20
287.0000000000003
 30
0.0
 11
105.0
 21
287.0000000000003
 31
0.0
  0
LINE
  5
C7
330
47
100
AcDbEntity
  8
1
  6
Continuous
 62
     7
100
AcDbLine
 10
200.0
 20
10.0
 30
0.0
 11
200.0
 21
148.5
 31
0.0
  0
LINE
  5
C8
330
47
100
AcDbEntity
  8
1
  6
Continuous
 62
     7
100
AcDbLine
 10
25.0
 20
10.0
 30
0.0
 11
105.0
 21
10.0
 31
0.0
  0
LINE
  5
C9
330
47
100
AcDbEntity
  8
1
  6
PHANTOM
 62
     4
100
AcDbLine
 10
0.0
 20
297.0
 30
0.0
 11
0.0
 21
0.0
 31
0.0
  0
LINE
  5
CA
330
47
100
AcDbEntity
  8
1
  6
PHANTOM
 62
     4
100
AcDbLine
 10
210.0
 20
297.0
 30
0.0
 11
0.0
 21
297.0
 31
0.0
  0
LINE
  5
CB
330
47
100
AcDbEntity
  8
1
  6
PHANTOM
 62
     4
100
AcDbLine
 10
210.0
 20
0.0
 30
0.0
 11
210.0
 21
297.0
 31
0.0
  0
LINE
  5
CC
330
47
100
AcDbEntity
  8
1
  6
PHANTOM
 62
     4
100
AcDbLine
 10
0.0
 20
0.0
 30
0.0
 11
210.0
 21
0.0
 31
0.0
  0
LINE
  5
CD
330
47
100
AcDbEntity
  8
1
  6
Continuous
 62
     7
100
AcDbLine
 10
25.0
 20
41.0
 30
0.0
 11
200.0
 21
41.0
 31
0.0
  0
LINE
  5
CE
330
47
100
AcDbEntity
  8
1
  6
Continuous
 62
     7
100
AcDbLine
 10
200.0
 20
27.00000000000001
 30
0.0
 11
25.0
 21
27.00000000000001
 31
0.0
  0
LINE
  5
CF
330
47
100
AcDbEntity
  8
1
  6
Continuous
 62
     2
100
AcDbLine
 10
33.0
 20
41.00000000000001
 30
0.0
 11
33.0
 21
27.0
 31
0.0
  0
LINE
  5
D0
330
47
100
AcDbEntity
  8
1
  6
Continuous
 62
     2
100
AcDbLine
 10
55.0
 20
287.0000000000003
 30
0.0
 11
55.0
 21
277.0000000000003
 31
0.0
  0
LINE
  5
D1
330
47
100
AcDbEntity
  8
1
  6
Continuous
 62
     2
100
AcDbLine
 10
40.0
 20
287.0000000000003
 30
0.0
 11
40.0
 21
277.0000000000003
 31
0.0
  0
LINE
  5
D2
330
47
100
AcDbEntity
  8
1
  6
Continuous
 62
     7
100
AcDbLine
 10
25.0
 20
10.0
 30
0.0
 11
25.0
 21
148.5
 31
0.0
  0
LINE
  5
D3
330
47
100
AcDbEntity
  8
1
  6
Continuous
 62
     2
100
AcDbLine
 10
55.0
 20
277.0000000000003
 30
0.0
 11
25.0
 21
277.0000000000003
 31
0.0
  0
LINE
  5
D4
330
47
100
AcDbEntity
  8
1
  6
Continuous
 62
     2
100
AcDbLine
 10
166.0
 20
27.00000000000001
 30
0.0
 11
166.0
 21
10.0
 31
0.0
  0
LINE
  5
D5
330
47
100
AcDbEntity
  8
1
  6
Continuous
 62
     2
100
AcDbLine
 10
132.0
 20
27.00000000000001
 30
0.0
 11
132.0
 21
9.99999999999999
 31
0.0
  0
LINE
  5
D6
330
47
100
AcDbEntity
  8
1
  6
Continuous
 62
     2
100
AcDbLine
 10
149.0
 20
27.00000000000001
 30
0.0
 11
149.0
 21
10.0
 31
0.0
  0
LINE
  5
D7
330
47
100
AcDbEntity
  8
1
  6
Continuous
 62
     2
100
AcDbLine
 10
115.0
 20
27.00000000000001
 30
0.0
 11
115.0
 21
9.99999999999999
 31
0.0
  0
LINE
  5
D8
330
47
100
AcDbEntity
  8
1
  6
Continuous
 62
     2
100
AcDbLine
 10
98.0
 20
27.00000000000001
 30
0.0
 11
98.0
 21
9.99999999999999
 31
0.0
  0
LINE
  5
D9
330
47
100
AcDbEntity
  8
1
  6
Continuous
 62
     2
100
AcDbLine
 10
166.0
 20
20.00000000000001
 30
0.0
 11
200.0
 21
20.00000000000001
 31
0.0
  0
LINE
  5
DA
330
47
100
AcDbEntity
  8
1
  6
Continuous
 62
     2
100
AcDbLine
 10
105.0
 20
287.0000000000003
 30
0.0
 11
105.0
 21
292.0000000000003
 31
0.0
  0
LINE
  5
DB
330
47
100
AcDbEntity
  8
1
  6
Continuous
 62
     7
100
AcDbLine
 10
105.0
 20
287.0000000000003
 30
0.0
 11
25.0
 21
287.0000000000003
 31
0.0
  0
LINE
  5
DC
330
47
100
AcDbEntity
  8
1
  6
Continuous
 62
     2
100
AcDbLine
 10
25.0
 20
148.5
 30
0.0
 11
20.0
 21
148.5
 31
0.0
  0
LINE
  5
DD
330
47
100
AcDbEntity
  8
1
  6
Continuous
 62
     7
100
AcDbLine
 10
25.0
 20
148.5
 30
0.0
 11
25.0
 21
287.0000000000003
 31
0.0
  0
LINE
  5
DE
330
47
100
AcDbEntity
  8
1
  6
Continuous
 62
     2
100
AcDbLine
 10
200.0
 20
148.5
 30
0.0
 11
205.0
 21
148.5
 31
0.0
  0
LINE
  5
DF
330
47
100
AcDbEntity
  8
1
  6
Continuous
 62
     7
100
AcDbLine
 10
200.0
 20
148.5
 30
0.0
 11
200.0
 21
287.0000000000003
 31
0.0
  0
LINE
  5
E0
330
47
100
AcDbEntity
  8
1
  6
Continuous
 62
     2
100
AcDbLine
 10
105.0
 20
10.0
 30
0.0
 11
105.0
 21
5.0
 31
0.0
  0
LINE
  5
E1
330
47
100
AcDbEntity
  8
1
  6
Continuous
 62
     7
100
AcDbLine
 10
105.0
 20
10.0
 30
0.0
 11
200.0
 21
10.0
 31
0.0
  0
CIRCLE
  5
E2
330
47
100
AcDbEntity
  8
1
  6
DOT_CENTER
 62
     7
100
AcDbCircle
 10
89.5
 20
18.0
 30
0.0
 40
0.1000000000000227
  0
CIRCLE
  5
E3
330
47
100
AcDbEntity
  8
1
  6
DOT_CENTER
 62
     7
100
AcDbCircle
 10
89.5
 20
16.0
 30
0.0
 40
0.1000000000000227
  0
CIRCLE
  5
E4
330
47
100
AcDbEntity
  8
1
  6
Continuous
 62
     7
100
AcDbCircle
 10
187.0
 20
23.50000000000001
 30
0.0
 40
2.0
  0
CIRCLE
  5
E5
330
47
100
AcDbEntity
  8
1
  6
Continuous
 62
     7
100
AcDbCircle
 10
187.0
 20
23.50000000000001
 30
0.0
 40
1.200000000000102
  0
CIRCLE
  5
E6
330
47
100
AcDbEntity
  8
1
  6
Continuous
 62
     7
100
AcDbCircle
 10
154.5
 20
12.5
 30
0.0
 40
0.3000000000000114
  0
CIRCLE
  5
E7
330
47
100
AcDbEntity
  8
1
  6
Continuous
 62
     7
100
AcDbCircle
 10
160.5
 20
12.5
 30
0.0
 40
0.3000000000000114
  0
CIRCLE
  5
E8
330
47
100
AcDbEntity
  8
1
  6
Continuous
 62
     7
100
AcDbCircle
 10
143.5
 20
12.5
 30
0.0
 40
0.3000000000000114
  0
CIRCLE
  5
E9
330
47
100
AcDbEntity
  8
1
  6
Continuous
 62
     7
100
AcDbCircle
 10
137.5
 20
12.5
 30
0.0
 40
0.3000000000000114
  0
CIRCLE
  5
EA
330
47
100
AcDbEntity
  8
1
  6
Continuous
 62
     7
100
AcDbCircle
 10
126.5
 20
12.5
 30
0.0
 40
0.2999999999999972
  0
CIRCLE
  5
EB
330
47
100
AcDbEntity
  8
1
  6
Continuous
 62
     7
100
AcDbCircle
 10
120.5
 20
12.5
 30
0.0
 40
0.2999999999999972
  0
CIRCLE
  5
EC
330
47
100
AcDbEntity
  8
1
  6
Continuous
 62
     7
100
AcDbCircle
 10
109.5
 20
12.5
 30
0.0
 40
0.2999999999999972
  0
CIRCLE
  5
ED
330
47
100
AcDbEntity
  8
1
  6
Continuous
 62
     7
100
AcDbCircle
 10
103.5
 20
12.5
 30
0.0
 40
0.2999999999999972
  0
MTEXT
  5
EF
330
47
100
AcDbEntity
  8
1
 62
   250
100
AcDbMText
 10
25.0
 20
5.0
 30
0.0
 40
3.5
 41
0.0
 71
     4
 72
     1
  1
備考欄の文字列 原点位置=4
  7
CONVERTER_11
 73
     1
 44
0.54545454545455
  0
MTEXT
  5
F0
330
47
100
AcDbEntity
  8
1
 62
     2
100
AcDbMText
 10
89.5
 20
24.00000000000001
 30
0.0
 40
3.5
 41
0.0
 71
     5
 72
     1
  1
尺度
  7
CONVERTER_11
 73
     1
 44
0.54545454545455
  0
MTEXT
  5
F1
330
47
100
AcDbEntity
  8
1
 62
     2
100
AcDbMText
 10
135.5
 20
25.00000000000001
 30
0.0
 40
3.0
 41
0.0
 71
     5
 72
     1
  1
製図
  7
CONVERTER_11
 73
     1
 44
0.59090909090909
  0
MTEXT
  5
F2
330
47
100
AcDbEntity
  8
1
 62
     2
100
AcDbMText
 10
152.5
 20
25.00000000000001
 30
0.0
 40
3.0
 41
0.0
 71
     5
 72
     1
  1
設計
  7
CONVERTER_11
 73
     1
 44
0.59090909090909
  0
MTEXT
  5
F3
330
47
100
AcDbEntity
  8
1
 62
     2
100
AcDbMText
 10
118.5
 20
25.00000000000001
 30
0.0
 40
3.0
 41
0.0
 71
     5
 72
     1
  1
検図
  7
CONVERTER_11
 73
     1
 44
0.59090909090909
  0
MTEXT
  5
F4
330
47
100
AcDbEntity
  8
1
 62
     2
100
AcDbMText
 10
175.0
 20
23.50000000000001
 30
0.0
 40
3.5
 41
0.0
 71
     5
 72
     1
  1
第三角法
  7
CONVERTER_11
 73
     1
 44
0.54545454545455
  0
MTEXT
  5
F5
330
47
100
AcDbEntity
  8
1
 62
     2
100
AcDbMText
 10
101.5
 20
25.00000000000001
 30
0.0
 40
3.0
 41
0.0
 71
     5
 72
     1
  1
承認
  7
CONVERTER_11
 73
     1
 44
0.59090909090909
  0
MTEXT
  5
F6
330
47
100
AcDbEntity
  8
1
 62
     2
100
AcDbMText
 10
29.0
 20
14.25
 30
0.0
 40
3.5
 41
0.0
 71
     5
 72
     1
  1
品番
  7
CONVERTER_11
 73
     1
 44
0.72727272727273
  0
MTEXT
  5
F7
330
47
100
AcDbEntity
  8
1
 62
     2
100
AcDbMText
 10
29.0
 20
22.75
 30
0.0
 40
3.5
 41
0.0
 71
     5
 72
     1
  1
品名
  7
CONVERTER_11
 73
     1
 44
0.72727272727273
  0
MTEXT
  5
F8
330
47
100
AcDbEntity
  8
1
 62
     2
100
AcDbMText
 10
29.0
 20
34.00000000000001
 30
0.0
 40
3.5
 41
0.0
 71
     5
 72
     1
  1
備考
  7
CONVERTER_11
 73
     1
 44
0.45454545454545
  0
MTEXT
  5
F9
330
47
100
AcDbEntity
  8
1
 62
     2
100
AcDbMText
 10
32.5
 20
282.0000000000003
 30
0.0
 40
5.0
 41
0.0
 71
     5
 72
     1
  1
図番
  7
CONVERTER_11
 73
     1
 44
0.45454545454545
  0
MTEXT
  5
FA
330
47
100
AcDbEntity
  8
1
 62
     7
100
AcDbMText
 10
171.5
 20
15.0
 30
0.0
 40
2.5
 41
0.0
 71
     5
 72
     1
  1
株式会社
  7
CONVERTER_11
 73
     1
 44
1.0
  0
MTEXT
  5
FB
330
47
100
AcDbEntity
  8
1
 62
     7
100
AcDbMText
 10
188.5
 20
15.0
 30
0.0
 40
3.0
 41
0.0
 71
     5
 72
     1
  1
三栄水栓製作所
  7
CONVERTER_11
 73
     1
 44
1.0
  0
ENDBLK
  5
49
330
47
100
AcDbEntity
  8
0
100
AcDbBlockEnd
  0
BLOCK
  5
4B
330
4A
100
AcDbEntity
  8
0
100
AcDbBlockBegin
  2
washer__1
 70
     0
 10
170.564544187085
 20
270.3992200717686
 30
0.0
  3
washer__1
  1

  0
ARC
  5
FC
330
4A
100
AcDbEntity
  8
1
  6
Continuous
 62
     7
100
AcDbCircle
 10
177.814544187085
 20
275.6492200717686
 30
0.0
 40
5.250000000000053
100
AcDbArc
 50
234.1061767208573
 51
305.8938232791418
  0
ARC
  5
FD
330
4A
100
AcDbEntity
  8
1
  6
Continuous
 62
     7
100
AcDbCircle
 10
177.814544187085
 20
275.6492200717686
 30
0.0
 40
5.249999999999889
100
AcDbArc
 50
339.0969224771827
 51
200.9030775228169
  0
CIRCLE
  5
FE
330
4A
100
AcDbEntity
  8
1
  6
Continuous
 62
     7
100
AcDbCircle
 10
177.814544187085
 20
275.6492200717686
 30
0.0
 40
2.5
  0
ENDBLK
  5
4C
330
4A
100
AcDbEntity
  8
0
100
AcDbBlockEnd
  0
BLOCK
  5
4E
330
4D
100
AcDbEntity
  8
0
100
AcDbBlockBegin
  2
neji__2
 70
     0
 10
173.564544187085
 20
266.3992200717686
 30
0.0
  3
neji__2
  1

  0
LINE
  5
FF
330
4D
100
AcDbEntity
  8
0
  6
Continuous
 62
     7
100
AcDbLine
 10
178.814544187085
 20
281.1492200717686
 30
0.0
 11
178.814544187085
 21
281.8992200717686
 31
0.0
  0
LINE
  5
100
330
4D
100
AcDbEntity
  8
0
  6
Continuous
 62
     7
100
AcDbLine
 10
176.814544187085
 20
281.8992200717686
 30
0.0
 11
176.814544187085
 21
281.1492200717686
 31
0.0
  0
ARC
  5
101
330
4D
100
AcDbEntity
  8
0
  6
Continuous
 62
     7
100
AcDbCircle
 10
177.814544187085
 20
281.8992200717686
 30
0.0
 40
1.0
100
AcDbArc
 50
0.0
 51
90.0
  0
ARC
  5
102
330
4D
100
AcDbEntity
  8
0
  6
Continuous
 62
     7
100
AcDbCircle
 10
177.814544187085
 20
281.8992200717686
 30
0.0
 40
1.0
100
AcDbArc
 50
90.0
 51
180.0
  0
CIRCLE
  5
103
330
4D
100
AcDbEntity
  8
1
  6
Continuous
 62
     7
100
AcDbCircle
 10
177.814544187085
 20
275.6492200717686
 30
0.0
 40
2.25
  0
ENDBLK
  5
4F
330
4D
100
AcDbEntity
  8
0
100
AcDbBlockEnd
  0
BLOCK
  5
51
330
50
100
AcDbEntity
  8
0
100
AcDbBlockBegin
  2
guid__3
 70
     0
 10
164.3156569659265
 20
270.1492200717686
 30
0.0
  3
guid__3
  1

  0
LINE
  5
104
330
50
100
AcDbEntity
  8
1
  6
PHANTOM
 62
     4
100
AcDbLine
 10
166.3156569659265
 20
275.6492200717686
 30
0.0
 11
189.5217022016805
 21
275.6492200717686
 31
0.0
  0
LINE
  5
105
330
50
100
AcDbEntity
  8
1
  6
DASH_CENTER
 62
     2
100
AcDbLine
 10
171.314544187085
 20
281.9764546869542
 30
0.0
 11
171.314544187085
 21
274.4060390769961
 31
0.0
  0
LINE
  5
106
330
50
100
AcDbEntity
  8
1
  6
DASH_CENTER
 62
     2
100
AcDbLine
 10
167.2062940965099
 20
278.1492200717686
 30
0.0
 11
174.5293105035282
 21
278.1492200717686
 31
0.0
  0
LINE
  5
107
330
50
100
AcDbEntity
  8
1
  6
DASH_CENTER
 62
     2
100
AcDbLine
 10
180.8627300987872
 20
278.1492200717686
 30
0.0
 11
188.2847061869815
 21
278.1492200717686
 31
0.0
  0
LINE
  5
108
330
50
100
AcDbEntity
  8
1
  6
DASH_CENTER
 62
     2
100
AcDbLine
 10
184.314544187085
 20
274.4060390769961
 30
0.0
 11
184.314544187085
 21
281.9764546869542
 31
0.0
  0
LINE
  5
109
330
50
100
AcDbEntity
  8
1
  6
Continuous
 62
     7
100
AcDbLine
 10
185.814544187085
 20
281.1492200717686
 30
0.0
 11
169.814544187085
 21
281.1492200717686
 31
0.0
  0
LINE
  5
10A
330
50
100
AcDbEntity
  8
1
  6
Continuous
 62
     7
100
AcDbLine
 10
167.814544187085
 20
279.1492200717686
 30
0.0
 11
167.814544187085
 21
272.1492200717686
 31
0.0
  0
LINE
  5
10B
330
50
100
AcDbEntity
  8
1
  6
Continuous
 62
     7
100
AcDbLine
 10
169.814544187085
 20
270.1492200717686
 30
0.0
 11
172.6370040945876
 21
270.1492200717686
 31
0.0
  0
LINE
  5
10C
330
50
100
AcDbEntity
  8
1
  6
Continuous
 62
     7
100
AcDbLine
 10
174.6426646997062
 20
270.1492200717686
 30
0.0
 11
180.9864236744637
 21
270.1492200717686
 31
0.0
  0
LINE
  5
10D
330
50
100
AcDbEntity
  8
1
  6
Continuous
 62
     7
100
AcDbLine
 10
182.9920842795823
 20
270.1492200717686
 30
0.0
 11
185.814544187085
 21
270.1492200717686
 31
0.0
  0
LINE
  5
10E
330
50
100
AcDbEntity
  8
1
  6
Continuous
 62
     7
100
AcDbLine
 10
187.814544187085
 20
272.1492200717686
 30
0.0
 11
187.814544187085
 21
279.1492200717686
 31
0.0
  0
CIRCLE
  5
10F
330
50
100
AcDbEntity
  8
1
  6
Continuous
 62
     7
100
AcDbCircle
 10
184.314544187085
 20
278.1492200717686
 30
0.0
 40
1.75
  0
CIRCLE
  5
110
330
50
100
AcDbEntity
  8
1
  6
Continuous
 62
     7
100
AcDbCircle
 10
171.314544187085
 20
278.1492200717686
 30
0.0
 40
1.75
  0
ARC
  5
111
330
50
100
AcDbEntity
  8
1
  6
Continuous
 62
     7
100
AcDbCircle
 10
185.814544187085
 20
279.1492200717686
 30
0.0
 40
2.0
100
AcDbArc
 50
0.0
 51
90.0
  0
ARC
  5
112
330
50
100
AcDbEntity
  8
1
  6
Continuous
 62
     7
100
AcDbCircle
 10
169.814544187085
 20
279.1492200717686
 30
0.0
 40
2.0
100
AcDbArc
 50
90.0
 51
180.0
  0
ARC
  5
113
330
50
100
AcDbEntity
  8
1
  6
Continuous
 62
     7
100
AcDbCircle
 10
169.814544187085
 20
272.1492200717686
 30
0.0
 40
2.0
100
AcDbArc
 50
180.0
 51
270.0
  0
ARC
  5
114
330
50
100
AcDbEntity
  8
1
  6
Continuous
 62
     7
100
AcDbCircle
 10
185.814544187085
 20
272.1492200717686
 30
0.0
 40
2.0
100
AcDbArc
 50
270.0
 51
0.0
  0
ENDBLK
  5
52
330
50
100
AcDbEntity
  8
0
100
AcDbBlockEnd
  0
BLOCK
  5
54
330
53
100
AcDbEntity
  8
0
100
AcDbBlockBegin
  2
ring__4
 70
     0
 10
168.314544187085
 20
227.8140530247904
 30
0.0
  3
ring__4
  1

  0
LINE
  5
115
330
53
100
AcDbEntity
  8
1
  6
Continuous
 62
     7
100
AcDbLine
 10
170.3149297664322
 20
278.1214530045282
 30
0.0
 11
170.3548071807504
 21
276.6858660890727
 31
0.0
  0
LINE
  5
116
330
53
100
AcDbEntity
  8
1
  6
Continuous
 62
     7
100
AcDbLine
 10
172.3540360220559
 20
276.7414002235533
 30
0.0
 11
172.3141586077377
 21
278.1769871390089
 31
0.0
  0
LINE
  5
117
330
53
100
AcDbEntity
  8
1
  6
Continuous
 62
     7
100
AcDbLine
 10
185.2742811934195
 20
276.6858660890727
 30
0.0
 11
185.3141586077376
 21
278.1214530045282
 31
0.0
  0
LINE
  5
118
330
53
100
AcDbEntity
  8
1
  6
Continuous
 62
     7
100
AcDbLine
 10
183.3149297664322
 20
278.1769871390089
 30
0.0
 11
183.275052352114
 21
276.7414002235533
 31
0.0
  0
LINE
  5
119
330
53
100
AcDbEntity
  8
1
  6
Continuous
 62
     7
100
AcDbLine
 10
182.5511381929478
 20
276.0058392294482
 30
0.0
 11
183.0617218725297
 21
269.2242977891748
 31
0.0
  0
LINE
  5
11A
330
53
100
AcDbEntity
  8
1
  6
Continuous
 62
     7
100
AcDbLine
 10
181.0673665016402
 20
269.0741423543624
 30
0.0
 11
180.5567828220582
 21
275.8556837946356
 31
0.0
  0
LINE
  5
11B
330
53
100
AcDbEntity
  8
1
  6
Continuous
 62
     7
100
AcDbLine
 10
181.0646934728002
 20
269.1319414970526
 30
0.0
 11
181.1161422077457
 21
266.6492200717686
 31
0.0
  0
LINE
  5
11C
330
53
100
AcDbEntity
  8
1
  6
Continuous
 62
     7
100
AcDbLine
 10
183.0648378718876
 20
269.1734540015881
 30
0.0
 11
182.9914596037133
 21
266.6492200717686
 31
0.0
  0
LINE
  5
11D
330
53
100
AcDbEntity
  8
1
  6
Continuous
 62
     7
100
AcDbLine
 10
184.2319534070327
 20
228.9614623691318
 30
0.0
 11
185.044030242806
 21
268.1492200717686
 31
0.0
  0
LINE
  5
11E
330
53
100
AcDbEntity
  8
1
  6
Continuous
 62
     7
100
AcDbLine
 10
173.5643272438131
 20
229.1700488854504
 30
0.0
 11
172.5643272438176
 21
269.1700488852321
 31
0.0
  0
LINE
  5
11F
330
53
100
AcDbEntity
  8
1
  6
Continuous
 62
     7
100
AcDbLine
 10
170.5647611303568
 20
269.1283912580867
 30
0.0
 11
170.5892404100148
 21
268.1492200717686
 31
0.0
  0
LINE
  5
120
330
53
100
AcDbEntity
  8
1
  6
Continuous
 62
     7
100
AcDbLine
 10
172.5673665016402
 20
269.2242977891748
 30
0.0
 11
173.0779501812221
 21
276.0058392294482
 31
0.0
  0
LINE
  5
121
330
53
100
AcDbEntity
  8
1
  6
Continuous
 62
     7
100
AcDbLine
 10
175.0723055521117
 20
275.8556837946356
 30
0.0
 11
174.5617218725297
 21
269.0741423543624
 31
0.0
  0
LINE
  5
122
330
53
100
AcDbEntity
  8
1
  6
Continuous
 62
     7
100
AcDbLine
 10
183.0648378718821
 20
269.1734540013617
 30
0.0
 11
181.8973035651325
 21
229.0099316854462
 31
0.0
  0
LINE
  5
123
330
53
100
AcDbEntity
  8
1
  6
Continuous
 62
     7
100
AcDbLine
 10
170.5892404100148
 20
268.1492200717686
 30
0.0
 11
171.5647611303568
 21
229.1283912580867
 31
0.0
  0
LINE
  5
124
330
53
100
AcDbEntity
  8
1
  6
Continuous
 62
     7
100
AcDbLine
 10
185.044030242806
 20
268.1492200717686
 30
0.0
 11
185.0643949013697
 21
269.1319414970526
 31
0.0
  0
LINE
  5
125
330
53
100
AcDbEntity
  8
1
  6
Continuous
 62
     7
100
AcDbLine
 10
174.5002414812522
 20
266.6492200717686
 30
0.0
 11
174.5643949013697
 21
269.1319414970526
 31
0.0
  0
LINE
  5
126
330
53
100
AcDbEntity
  8
1
  6
Continuous
 62
     7
100
AcDbLine
 10
172.6252093229491
 20
266.6492200717686
 30
0.0
 11
172.5643272438131
 21
269.1700488854503
 31
0.0
  0
ARC
  5
127
330
53
100
AcDbEntity
  8
1
  6
Continuous
 62
     7
100
AcDbCircle
 10
182.064544187085
 20
269.1492200717686
 30
0.0
 40
1.0
100
AcDbArc
 50
0.0
 51
4.30568777393995
  0
ARC
  5
128
330
53
100
AcDbEntity
  8
1
  6
Continuous
 62
     7
100
AcDbCircle
 10
182.064544187085
 20
269.1492200717686
 30
0.0
 40
1.00000000000005
100
AcDbArc
 50
217.0504615820946
 51
310.32174028047
  0
ARC
  5
129
330
53
100
AcDbEntity
  8
1
  6
Continuous
 62
     7
100
AcDbCircle
 10
173.564544187085
 20
269.1492200717686
 30
0.0
 40
1.000000000000062
100
AcDbArc
 50
229.6782597195263
 51
322.9495384179015
  0
ARC
  5
12A
330
53
100
AcDbEntity
  8
1
  6
Continuous
 62
     7
100
AcDbCircle
 10
173.564544187085
 20
269.1492200717686
 30
0.0
 40
0.9999999999999837
100
AcDbArc
 50
175.6943122260606
 51
180.0
  0
ARC
  5
12B
330
53
100
AcDbEntity
  8
1
  6
Continuous
 62
     7
100
AcDbCircle
 10
177.814544187085
 20
275.6492200717686
 30
0.0
 40
2.749999999999965
100
AcDbArc
 50
4.30568777393825
 51
175.6943122260619
  0
ARC
  5
12C
330
53
100
AcDbEntity
  8
1
  6
Continuous
 62
     7
100
AcDbCircle
 10
177.814544187085
 20
275.6492200717686
 30
0.0
 40
4.74999999999995
100
AcDbArc
 50
4.30568777394149
 51
175.6943122260586
  0
ARC
  5
12D
330
53
100
AcDbEntity
  8
1
  6
Continuous
 62
     7
100
AcDbCircle
 10
184.064544187085
 20
269.1492200717686
 30
0.0
 40
0.9999999999999107
100
AcDbArc
 50
359.0099613260715
 51
0.0
  0
ARC
  5
12E
330
53
100
AcDbEntity
  8
1
  6
Continuous
 62
     7
100
AcDbCircle
 10
184.064544187085
 20
269.1492200717686
 30
0.0
 40
1.0
100
AcDbArc
 50
0.0
 51
178.6113621700303
  0
ARC
  5
12F
330
53
100
AcDbEntity
  8
1
  6
Continuous
 62
     7
100
AcDbCircle
 10
171.564544187085
 20
269.1492200717686
 30
0.0
 40
0.9999999999999221
100
AcDbArc
 50
1.19348941147189
 51
180.0
  0
ARC
  5
130
330
53
100
AcDbEntity
  8
1
  6
Continuous
 62
     7
100
AcDbCircle
 10
171.564544187085
 20
269.1492200717686
 30
0.0
 40
1.0
100
AcDbArc
 50
180.0
 51
181.1934894239841
  0
ARC
  5
131
330
53
100
AcDbEntity
  8
0
  6
Continuous
 62
     7
100
AcDbCircle
 10
172.564544187085
 20
229.1492200717686
 30
0.0
 40
1.000000000000094
100
AcDbArc
 50
181.1934894239857
 51
0.0
  0
ARC
  5
132
330
53
100
AcDbEntity
  8
0
  6
Continuous
 62
     7
100
AcDbCircle
 10
183.064544187085
 20
228.9816365482795
 30
0.0
 40
1.167583523489166
100
AcDbArc
 50
178.6113621570525
 51
0.0
  0
CIRCLE
  5
133
330
53
100
AcDbEntity
  8
1
  6
Continuous
 62
     7
100
AcDbCircle
 10
171.314544187085
 20
278.1492200717686
 30
0.0
 40
1.0
  0
CIRCLE
  5
134
330
53
100
AcDbEntity
  8
1
  6
Continuous
 62
     7
100
AcDbCircle
 10
184.314544187085
 20
278.1492200717686
 30
0.0
 40
1.0
  0
ENDBLK
  5
55
330
53
100
AcDbEntity
  8
0
100
AcDbBlockEnd
  0
BLOCK
  5
5B
330
56
100
AcDbEntity
  8
0
100
AcDbBlockBegin
  2
5__5
 70
     0
 10
166.3156569659265
 20
227.8140530247904
 30
0.0
  3
5__5
  1

  0
INSERT
  5
57
330
56
100
AcDbEntity
  8
0
100
AcDbBlockReference
  2
washer__1
 10
170.564544187085
 20
270.3992200717686
 30
0.0
  0
INSERT
  5
58
330
56
100
AcDbEntity
  8
0
100
AcDbBlockReference
  2
neji__2
 10
173.564544187085
 20
266.3992200717686
 30
0.0
  0
INSERT
  5
59
330
56
100
AcDbEntity
  8
0
100
AcDbBlockReference
  2
guid__3
 10
164.3156569659265
 20
270.1492200717686
 30
0.0
  0
INSERT
  5
5A
330
56
100
AcDbEntity
  8
0
100
AcDbBlockReference
  2
ring__4
 10
168.314544187085
 20
227.8140530247904
 30
0.0
  0
ENDBLK
  5
5C
330
56
100
AcDbEntity
  8
0
100
AcDbBlockEnd
  0
BLOCK
  5
5E
330
5D
100
AcDbEntity
  8
0
100
AcDbBlockBegin
  2
plate
 70
     0
 10
165.7182311534798
 20
328.7859213037197
 30
0.0
  3
plate
  1

  0
LINE
  5
135
330
5D
100
AcDbEntity
  8
1
  6
Continuous
 62
     7
100
AcDbLine
 10
189.064544187085
 20
399.4492200717685
 30
0.0
 11
166.564544187085
 21
399.4492200717685
 31
0.0
  0
LINE
  5
136
330
5D
100
AcDbEntity
  8
1
  6
Continuous
 62
     7
100
AcDbLine
 10
187.064544187085
 20
403.9492200717685
 30
0.0
 11
168.564544187085
 21
403.9492200717685
 31
0.0
  0
LINE
  5
137
330
5D
100
AcDbEntity
  8
1
  6
DASH_CENTER
 62
     2
100
AcDbLine
 10
184.314544187085
 20
405.6810841656904
 30
0.0
 11
184.314544187085
 21
396.9453918738456
 31
0.0
  0
LINE
  5
138
330
5D
100
AcDbEntity
  8
1
  6
DASH_CENTER
 62
     2
100
AcDbLine
 10
171.314544187085
 20
396.8296928033367
 30
0.0
 11
171.314544187085
 21
405.7389337009448
 31
0.0
  0
LINE
  5
139
330
5D
100
AcDbEntity
  8
1
  6
Continuous
 62
     7
100
AcDbLine
 10
189.064544187085
 20
399.4492200717685
 30
0.0
 11
189.064544187085
 21
401.9492200717685
 31
0.0
  0
LINE
  5
13A
330
5D
100
AcDbEntity
  8
1
  6
Continuous
 62
     7
100
AcDbLine
 10
166.564544187085
 20
401.9492200717685
 30
0.0
 11
166.564544187085
 21
399.4492200717685
 31
0.0
  0
ARC
  5
13B
330
5D
100
AcDbEntity
  8
1
  6
Continuous
 62
     7
100
AcDbCircle
 10
187.064544187085
 20
401.9492200717685
 30
0.0
 40
2.0
100
AcDbArc
 50
0.0
 51
90.0
  0
ARC
  5
13C
330
5D
100
AcDbEntity
  8
1
  6
Continuous
 62
     7
100
AcDbCircle
 10
168.564544187085
 20
401.9492200717685
 30
0.0
 40
2.0
100
AcDbArc
 50
90.0
 51
180.0
  0
ENDBLK
  5
5F
330
5D
100
AcDbEntity
  8
0
100
AcDbBlockEnd
  0
BLOCK
  5
61
330
60
100
AcDbEntity
  8
0
100
AcDbBlockBegin
  2
washer__6
 70
     0
 10
172.314544187085
 20
329.5359213037197
 30
0.0
  3
washer__6
  1

  0
LINE
  5
13D
330
60
100
AcDbEntity
  8
1
  6
Continuous
 62
     7
100
AcDbLine
 10
172.314544187085
 20
394.6992200717685
 30
0.0
 11
172.314544187085
 21
396.6492200717686
 31
0.0
  0
LINE
  5
13E
330
60
100
AcDbEntity
  8
1
  6
Continuous
 62
     7
100
AcDbLine
 10
182.5645441870849
 20
393.9492200717685
 30
0.0
 11
173.064544187085
 21
393.9492200717685
 31
0.0
  0
LINE
  5
13F
330
60
100
AcDbEntity
  8
1
  6
Continuous
 62
     7
100
AcDbLine
 10
172.314544187085
 20
396.6492200717686
 30
0.0
 11
183.3145441870849
 21
396.6492200717686
 31
0.0
  0
LINE
  5
140
330
60
100
AcDbEntity
  8
1
  6
Continuous
 62
     7
100
AcDbLine
 10
183.3145441870849
 20
396.6492200717686
 30
0.0
 11
183.3145441870849
 21
394.6992200717685
 31
0.0
  0
ARC
  5
141
330
60
100
AcDbEntity
  8
1
  6
Continuous
 62
     7
100
AcDbCircle
 10
182.5645441870849
 20
394.6992200717685
 30
0.0
 40
0.75
100
AcDbArc
 50
270.0
 51
0.0
  0
ARC
  5
142
330
60
100
AcDbEntity
  8
1
  6
Continuous
 62
     7
100
AcDbCircle
 10
173.064544187085
 20
394.6992200717685
 30
0.0
 40
0.75
100
AcDbArc
 50
180.0
 51
270.0
  0
ENDBLK
  5
62
330
60
100
AcDbEntity
  8
0
100
AcDbBlockEnd
  0
BLOCK
  5
64
330
63
100
AcDbEntity
  8
0
100
AcDbBlockBegin
  2
neji__7
 70
     0
 10
175.5645441870849
 20
326.5436583472126
 30
0.0
  3
neji__7
  1

  0
LINE
  5
143
330
63
100
AcDbEntity
  8
1
  6
Continuous
 62
     7
100
AcDbLine
 10
179.814544187085
 20
428.6492200717687
 30
0.0
 11
179.814544187085
 21
420.3812708793375
 31
0.0
  0
LINE
  5
144
330
63
100
AcDbEntity
  8
1
  6
Continuous
 62
     7
100
AcDbLine
 10
175.814544187085
 20
428.6492200717687
 30
0.0
 11
175.814544187085
 21
420.3812708793375
 31
0.0
  0
LINE
  5
145
330
63
100
AcDbEntity
  8
1
  6
Continuous
 62
     2
100
AcDbLine
 10
175.314544187085
 20
419.0583952238053
 30
0.0
 11
175.314544187085
 21
403.9492200717685
 31
0.0
  0
LINE
  5
146
330
63
100
AcDbEntity
  8
1
  6
Continuous
 62
     2
100
AcDbLine
 10
175.314544187085
 20
396.6492200717686
 30
0.0
 11
175.314544187085
 21
399.4492200717687
 31
0.0
  0
LINE
  5
147
330
63
100
AcDbEntity
  8
1
  6
Continuous
 62
     7
100
AcDbLine
 10
174.814544187085
 20
397.1492200717686
 30
0.0
 11
174.814544187085
 21
399.4492200717685
 31
0.0
  0
LINE
  5
148
330
63
100
AcDbEntity
  8
1
  6
Continuous
 62
     7
100
AcDbLine
 10
175.314544187085
 20
396.6492200717686
 30
0.0
 11
174.814544187085
 21
397.1492200717686
 31
0.0
  0
LINE
  5
149
330
63
100
AcDbEntity
  8
1
  6
Continuous
 62
     7
100
AcDbLine
 10
175.564544187085
 20
388.6492200717686
 30
0.0
 11
177.814544187085
 21
388.6492200717686
 31
0.0
  0
LINE
  5
14A
330
63
100
AcDbEntity
  8
1
  6
Continuous
 62
     7
100
AcDbLine
 10
175.564544187085
 20
391.6492200717686
 30
0.0
 11
175.564544187085
 21
388.6492200717686
 31
0.0
  0
LINE
  5
14B
330
63
100
AcDbEntity
  8
1
  6
Continuous
 62
     7
100
AcDbLine
 10
177.814544187085
 20
397.1492200717686
 30
0.0
 11
174.814544187085
 21
397.1492200717686
 31
0.0
  0
LINE
  5
14C
330
63
100
AcDbEntity
  8
1
  6
Continuous
 62
     7
100
AcDbLine
 10
180.814544187085
 20
418.6492200717687
 30
0.0
 11
180.814544187085
 21
403.9492200717685
 31
0.0
  0
LINE
  5
14D
330
63
100
AcDbEntity
  8
1
  6
Continuous
 62
     7
100
AcDbLine
 10
180.8145441870849
 20
399.4492200717685
 30
0.0
 11
180.8145441870849
 21
397.1492200717686
 31
0.0
  0
LINE
  5
14E
330
63
100
AcDbEntity
  8
1
  6
Continuous
 62
     7
100
AcDbLine
 10
180.8145441870849
 20
397.1492200717686
 30
0.0
 11
180.3145441870849
 21
396.6492200717686
 31
0.0
  0
LINE
  5
14F
330
63
100
AcDbEntity
  8
1
  6
Continuous
 62
     7
100
AcDbLine
 10
177.814544187085
 20
388.6492200717686
 30
0.0
 11
180.0645441870849
 21
388.6492200717686
 31
0.0
  0
LINE
  5
150
330
63
100
AcDbEntity
  8
1
  6
Continuous
 62
     7
100
AcDbLine
 10
180.0645441870849
 20
388.6492200717686
 30
0.0
 11
180.0645441870849
 21
391.6492200717686
 31
0.0
  0
LINE
  5
151
330
63
100
AcDbEntity
  8
1
  6
Continuous
 62
     7
100
AcDbLine
 10
180.8145441870849
 20
397.1492200717686
 30
0.0
 11
177.814544187085
 21
397.1492200717686
 31
0.0
  0
LINE
  5
152
330
63
100
AcDbEntity
  8
1
  6
Continuous
 62
     2
100
AcDbLine
 10
180.3145441870849
 20
403.9492200717685
 30
0.0
 11
180.314544187085
 21
419.0583952238053
 31
0.0
  0
LINE
  5
153
330
63
100
AcDbEntity
  8
1
  6
Continuous
 62
     7
100
AcDbLine
 10
174.814544187085
 20
403.9492200717685
 30
0.0
 11
174.814544187085
 21
418.6492200717687
 31
0.0
  0
LINE
  5
154
330
63
100
AcDbEntity
  8
1
  6
Continuous
 62
     2
100
AcDbLine
 10
180.3145441870849
 20
399.4492200717685
 30
0.0
 11
180.3145441870849
 21
396.6492200717686
 31
0.0
  0
ARC
  5
155
330
63
100
AcDbEntity
  8
1
  6
Continuous
 62
     7
100
AcDbCircle
 10
181.814544187085
 20
420.3812708793375
 30
0.0
 40
1.999999999999928
100
AcDbArc
 50
221.4096221092685
 51
239.9999999999986
  0
ARC
  5
156
330
63
100
AcDbEntity
  8
1
  6
Continuous
 62
     7
100
AcDbCircle
 10
181.814544187085
 20
420.3812708793375
 30
0.0
 40
2.0
100
AcDbArc
 50
180.0
 51
221.4096221092685
  0
ARC
  5
157
330
63
100
AcDbEntity
  8
1
  6
Continuous
 62
     7
100
AcDbCircle
 10
177.814544187085
 20
417.2656522112201
 30
0.0
 40
3.70230734611832
100
AcDbArc
 50
57.30249567031179
 51
122.6975043296882
  0
ARC
  5
158
330
63
100
AcDbEntity
  8
1
  6
Continuous
 62
     7
100
AcDbCircle
 10
177.814544187085
 20
428.6492200717687
 30
0.0
 40
2.0
100
AcDbArc
 50
0.0
 51
180.0
  0
ARC
  5
159
330
63
100
AcDbEntity
  8
1
  6
Continuous
 62
     7
100
AcDbCircle
 10
173.814544187085
 20
420.3812708793375
 30
0.0
 40
1.999999999999918
100
AcDbArc
 50
300.0000000000013
 51
318.5903778907314
  0
ARC
  5
15A
330
63
100
AcDbEntity
  8
1
  6
Continuous
 62
     7
100
AcDbCircle
 10
173.814544187085
 20
420.3812708793375
 30
0.0
 40
1.999999999999928
100
AcDbArc
 50
318.5903778907314
 51
0.0
  0
ENDBLK
  5
65
330
63
100
AcDbEntity
  8
0
100
AcDbBlockEnd
  0
BLOCK
  5
67
330
66
100
AcDbEntity
  8
0
100
AcDbBlockBegin
  2
ring__8
 70
     0
 10
170.0018891002364
 20
284.9717948597518
 30
0.0
  3
ring__8
  1

  0
LINE
  5
15B
330
66
100
AcDbEntity
  8
1
  6
Continuous
 62
     7
100
AcDbLine
 10
180.9094661221055
 20
417.2591281786732
 30
0.0
 11
181.0576478243534
 21
403.9492200717685
 31
0.0
  0
LINE
  5
15C
330
66
100
AcDbEntity
  8
1
  6
Continuous
 62
     7
100
AcDbLine
 10
174.7124261352896
 20
417.2361811735476
 30
0.0
 11
174.5714411945919
 21
403.9492200717685
 31
0.0
  0
LINE
  5
15D
330
66
100
AcDbEntity
  8
1
  6
Continuous
 62
     7
100
AcDbLine
 10
172.4142125710306
 20
417.3107051270961
 30
0.0
 11
172.3018317481557
 21
406.8877350164411
 31
0.0
  0
LINE
  5
15E
330
66
100
AcDbEntity
  8
1
  6
Continuous
 62
     7
100
AcDbLine
 10
183.2087064725654
 20
417.3110243798143
 30
0.0
 11
183.3272598588723
 21
406.8874157637225
 31
0.0
  0
LINE
  5
15F
330
66
100
AcDbEntity
  8
1
  6
Continuous
 62
     7
100
AcDbLine
 10
170.0023570382172
 20
398.1492200717686
 30
0.0
 11
170.2347404290421
 21
398.1492200717686
 31
0.0
  0
LINE
  5
160
330
66
100
AcDbEntity
  8
1
  6
Continuous
 62
     7
100
AcDbLine
 10
183.3276672119146
 20
398.1492200717686
 30
0.0
 11
185.6267313359527
 21
398.1492200717686
 31
0.0
  0
LINE
  5
161
330
66
100
AcDbEntity
  8
1
  6
Continuous
 62
     7
100
AcDbLine
 10
183.3276672119146
 20
398.1492200717686
 30
0.0
 11
183.3276672119146
 21
399.4492200717685
 31
0.0
  0
LINE
  5
162
330
66
100
AcDbEntity
  8
1
  6
Continuous
 62
     7
100
AcDbLine
 10
185.6267313359527
 20
398.1492200717686
 30
0.0
 11
185.6267313359527
 21
399.4492200717685
 31
0.0
  0
LINE
  5
163
330
66
100
AcDbEntity
  8
1
  6
Continuous
 62
     7
100
AcDbLine
 10
172.3014211622553
 20
398.1492200717686
 30
0.0
 11
172.3014211622553
 21
399.4492200717685
 31
0.0
  0
LINE
  5
164
330
66
100
AcDbEntity
  8
1
  6
Continuous
 62
     7
100
AcDbLine
 10
170.0023570382172
 20
398.1492200717686
 30
0.0
 11
170.0023570382172
 21
399.4492200717685
 31
0.0
  0
LINE
  5
165
330
66
100
AcDbEntity
  8
1
  6
Continuous
 62
     7
100
AcDbLine
 10
183.3276672119146
 20
403.9492200717685
 30
0.0
 11
183.3276672119146
 21
406.8664170476661
 31
0.0
  0
LINE
  5
166
330
66
100
AcDbEntity
  8
1
  6
Continuous
 62
     7
100
AcDbLine
 10
185.6267313359527
 20
403.9492200717685
 30
0.0
 11
185.6267313359527
 21
406.8664170476661
 31
0.0
  0
LINE
  5
167
330
66
100
AcDbEntity
  8
1
  6
Continuous
 62
     7
100
AcDbLine
 10
172.3014211622553
 20
403.9492200717685
 30
0.0
 11
172.3014211622553
 21
406.8664170476661
 31
0.0
  0
LINE
  5
168
330
66
100
AcDbEntity
  8
1
  6
Continuous
 62
     7
100
AcDbLine
 10
170.0023570382172
 20
403.9492200717685
 30
0.0
 11
170.0023570382172
 21
406.8664170476661
 31
0.0
  0
LINE
  5
169
330
66
100
AcDbEntity
  8
1
  6
Continuous
 62
     7
100
AcDbLine
 10
171.814544187085
 20
379.9685739455575
 30
0.0
 11
170.2347404290421
 21
398.1492200717686
 31
0.0
  0
LINE
  5
16A
330
66
100
AcDbEntity
  8
1
  6
Continuous
 62
     7
100
AcDbLine
 10
172.3014806863868
 20
406.9298661979796
 30
0.0
 11
172.3809395641957
 21
403.9492200717685
 31
0.0
  0
LINE
  5
16B
330
66
100
AcDbEntity
  8
1
  6
Continuous
 62
     7
100
AcDbLine
 10
181.515337158213
 20
380.0294154289679
 30
0.0
 11
182.9564536302774
 21
392.7992200717686
 31
0.0
  0
LINE
  5
16C
330
66
100
AcDbEntity
  8
1
  6
Continuous
 62
     7
100
AcDbLine
 10
182.9564536302774
 20
392.7992200717686
 30
0.0
 11
182.9901382830273
 21
394.0816687253212
 31
0.0
  0
LINE
  5
16D
330
66
100
AcDbEntity
  8
1
  6
Continuous
 62
     7
100
AcDbLine
 10
173.8281793068738
 20
391.6492200717686
 30
0.0
 11
181.8064536302774
 21
391.6492200717686
 31
0.0
  0
LINE
  5
16E
330
66
100
AcDbEntity
  8
1
  6
Continuous
 62
     7
100
AcDbLine
 10
173.8281793068738
 20
393.9492200717685
 30
0.0
 11
181.8064536302774
 21
393.9492200717685
 31
0.0
  0
LINE
  5
16F
330
66
100
AcDbEntity
  8
1
  6
Continuous
 62
     7
100
AcDbLine
 10
185.3977693759006
 20
398.1492200717686
 30
0.0
 11
183.814544187085
 21
379.9690247145693
 31
0.0
  0
LINE
  5
170
330
66
100
AcDbEntity
  8
1
  6
Continuous
 62
     7
100
AcDbLine
 10
183.2493182819113
 20
403.9492200717685
 30
0.0
 11
183.3275957594976
 21
406.9294154289678
 31
0.0
  0
LINE
  5
171
330
66
100
AcDbEntity
  8
1
  6
Continuous
 62
     7
100
AcDbLine
 10
172.5009017921824
 20
399.4492200717685
 30
0.0
 11
172.575544956263
 21
396.6492200717686
 31
0.0
  0
LINE
  5
172
330
66
100
AcDbEntity
  8
1
  6
Continuous
 62
     7
100
AcDbLine
 10
170.2347404290421
 20
398.1492200717686
 30
0.0
 11
172.3014211622553
 21
398.1492200717686
 31
0.0
  0
LINE
  5
173
330
66
100
AcDbEntity
  8
1
  6
Continuous
 62
     7
100
AcDbLine
 10
172.6440849431692
 20
394.0781612788949
 30
0.0
 11
174.1137273593861
 21
380.0298661979795
 31
0.0
  0
LINE
  5
174
330
66
100
AcDbEntity
  8
1
  6
Continuous
 62
     7
100
AcDbLine
 10
183.0575772992273
 20
396.6492200717686
 30
0.0
 11
183.1311217857362
 21
399.4492200717685
 31
0.0
  0
ARC
  5
175
330
66
100
AcDbEntity
  8
1
  6
Continuous
 62
     7
100
AcDbCircle
 10
173.5641552189501
 20
417.2992200717686
 30
0.0
 40
1.150000000000031
100
AcDbArc
 50
356.857674687587
 51
179.4277772720304
  0
ARC
  5
176
330
66
100
AcDbEntity
  8
1
  6
Continuous
 62
     7
100
AcDbCircle
 10
182.058767057504
 20
417.2992200717686
 30
0.0
 40
1.15000000000008
100
AcDbArc
 50
0.58812948555978
 51
181.9978798564815
  0
ARC
  5
177
330
66
100
AcDbEntity
  8
1
  6
Continuous
 62
     7
100
AcDbCircle
 10
171.1518891002363
 20
406.8992200717686
 30
0.0
 40
1.149999999999971
100
AcDbArc
 50
358.3654523487857
 51
359.4277772720332
  0
ARC
  5
178
330
66
100
AcDbEntity
  8
1
  6
Continuous
 62
     7
100
AcDbCircle
 10
184.4771992739336
 20
406.8992200717686
 30
0.0
 40
1.149999999999991
100
AcDbArc
 50
178.495421407937
 51
180.5881294855797
  0
ARC
  5
179
330
66
100
AcDbEntity
  8
1
  6
Continuous
 62
     7
100
AcDbCircle
 10
181.8064536302774
 20
392.7992200717686
 30
0.0
 40
1.150000000000034
100
AcDbArc
 50
270.0
 51
0.0
  0
ARC
  5
17A
330
66
100
AcDbEntity
  8
1
  6
Continuous
 62
     7
100
AcDbCircle
 10
173.8281793068738
 20
392.7992200717686
 30
0.0
 40
1.149999999999864
100
AcDbArc
 50
90.0
 51
270.0
  0
ARC
  5
17B
330
66
100
AcDbEntity
  8
1
  6
Continuous
 62
     7
100
AcDbCircle
 10
184.4771992739336
 20
406.8992200717686
 30
0.0
 40
1.14999999999997
100
AcDbArc
 50
180.5881294855797
 51
181.6345476512143
  0
ARC
  5
17C
330
66
100
AcDbEntity
  8
1
  6
Continuous
 62
     7
100
AcDbCircle
 10
171.1518891002363
 20
406.8992200717686
 30
0.0
 40
1.149999999999897
100
AcDbArc
 50
359.4277772720332
 51
0.0
  0
ARC
  5
17D
330
66
100
AcDbEntity
  8
1
  6
Continuous
 62
     7
100
AcDbCircle
 10
171.1518891002363
 20
406.8992200717686
 30
0.0
 40
1.149999999999904
100
AcDbArc
 50
1.5270448556482
 51
181.6345476512142
  0
ARC
  5
17E
330
66
100
AcDbEntity
  8
1
  6
Continuous
 62
     7
100
AcDbCircle
 10
172.9641357732356
 20
379.9992200717686
 30
0.0
 40
1.149999999999991
100
AcDbArc
 50
181.5270448556509
 51
1.52704485564254
  0
ARC
  5
17F
330
66
100
AcDbEntity
  8
1
  6
Continuous
 62
     7
100
AcDbCircle
 10
171.1518891002363
 20
406.8992200717686
 30
0.0
 40
1.149999999999892
100
AcDbArc
 50
0.0
 51
1.5270448556482
  0
ARC
  5
180
330
66
100
AcDbEntity
  8
1
  6
Continuous
 62
     7
100
AcDbCircle
 10
182.6649406726489
 20
379.9992200717686
 30
0.0
 40
1.149999999999908
100
AcDbArc
 50
178.4954214079313
 51
358.4954214079315
  0
ARC
  5
181
330
66
100
AcDbEntity
  8
1
  6
Continuous
 62
     7
100
AcDbCircle
 10
184.4771992739336
 20
406.8992200717686
 30
0.0
 40
1.150000000000085
100
AcDbArc
 50
358.3654523487858
 51
178.495421407937
  0
ARC
  5
182
330
66
100
AcDbEntity
  8
1
  6
Continuous
 62
     7
100
AcDbCircle
 10
181.8064536302774
 20
392.7992200717686
 30
0.0
 40
1.150000000000006
100
AcDbArc
 50
0.0
 51
90.0
  0
ENDBLK
  5
68
330
66
100
AcDbEntity
  8
0
100
AcDbBlockEnd
  0
BLOCK
  5
6E
330
69
100
AcDbEntity
  8
0
100
AcDbBlockBegin
  2
5__9
 70
     0
 10
166.564544187085
 20
378.8492200717685
 30
0.0
  3
5__9
  1

  0
INSERT
  5
6A
330
69
100
AcDbEntity
  8
1
100
AcDbBlockReference
  2
plate
 10
165.7182311534798
 20
328.7859213037197
 30
0.0
  0
INSERT
  5
6B
330
69
100
AcDbEntity
  8
1
100
AcDbBlockReference
  2
washer__6
 10
172.314544187085
 20
329.5359213037197
 30
0.0
  0
INSERT
  5
6C
330
69
100
AcDbEntity
  8
1
100
AcDbBlockReference
  2
neji__7
 10
175.5645441870849
 20
326.5436583472126
 30
0.0
  0
INSERT
  5
6D
330
69
100
AcDbEntity
  8
1
100
AcDbBlockReference
  2
ring__8
 10
170.0018891002364
 20
284.9717948597518
 30
0.0
  0
LINE
  5
183
330
69
100
AcDbEntity
  8
1
  6
PHANTOM
 62
     4
100
AcDbLine
 10
177.814544187085
 20
434.6492200717687
 30
0.0
 11
177.814544187085
 21
386.2691515379446
 31
0.0
  0
ENDBLK
  5
6F
330
69
100
AcDbEntity
  8
0
100
AcDbBlockEnd
  0
BLOCK
  5
71
330
70
100
AcDbEntity
  8
0
100
AcDbBlockBegin
  2
lock__10
 70
     0
 10
113.314544187085
 20
223.6492200717686
 30
0.0
  3
lock__10
  1

  0
ARC
  5
184
330
70
100
AcDbEntity
  8
1
  6
Continuous
 62
     7
100
AcDbCircle
 10
136.814544187085
 20
398.6492200717686
 30
0.0
 40
19.49999999999999
100
AcDbArc
 50
63.82304782833353
 51
296.1769521716661
  0
ARC
  5
185
330
70
100
AcDbEntity
  8
1
  6
Continuous
 62
     2
100
AcDbCircle
 10
136.814544187085
 20
398.6492200717686
 30
0.0
 40
23.0
100
AcDbArc
 50
49.54091691921055
 51
310.4590830807891
  0
ARC
  5
186
330
70
100
AcDbEntity
  8
1
  6
Continuous
 62
     7
100
AcDbCircle
 10
136.814544187085
 20
398.6492200717686
 30
0.0
 40
23.49999999999998
100
AcDbArc
 50
48.13169377370726
 51
311.8683062262925
  0
ENDBLK
  5
72
330
70
100
AcDbEntity
  8
0
100
AcDbBlockEnd
  0
BLOCK
  5
74
330
73
100
AcDbEntity
  8
0
100
AcDbBlockBegin
  2
tsuba__11
 70
     0
 10
286.814544187085
 20
232.3643677535464
 30
0.0
  3
tsuba__11
  1

  0
ARC
  5
187
330
73
100
AcDbEntity
  8
1
  6
Continuous
 62
     7
100
AcDbCircle
 10
136.814544187085
 20
398.6492200717686
 30
0.0
 40
42.50000000000008
100
AcDbArc
 50
26.45208683459478
 51
335.6842608288235
  0
ENDBLK
  5
75
330
73
100
AcDbEntity
  8
0
100
AcDbBlockEnd
  0
BLOCK
  5
77
330
76
100
AcDbEntity
  8
0
100
AcDbBlockBegin
  2
elbo__12
 70
     0
 10
108.8316967864045
 20
186.1142249325269
 30
0.0
  3
elbo__12
  1

  0
LINE
  5
188
330
76
100
AcDbEntity
  8
1
  6
Continuous
 62
     7
100
AcDbLine
 10
186.814544187085
 20
268.1492200717686
 30
0.0
 11
186.814544187085
 21
265.1492200717686
 31
0.0
  0
LINE
  5
189
330
76
100
AcDbEntity
  8
1
  6
Continuous
 62
     7
100
AcDbLine
 10
186.814544187085
 20
265.1492200717686
 30
0.0
 11
186.814544187085
 21
249.1492200717686
 31
0.0
  0
LINE
  5
18A
330
76
100
AcDbEntity
  8
1
  6
Continuous
 62
     7
100
AcDbLine
 10
136.814544187085
 20
249.1492200717686
 30
0.0
 11
151.3145441870849
 21
233.1492200717686
 31
0.0
  0
LINE
  5
18B
330
76
100
AcDbEntity
  8
0
  6
Continuous
 62
     7
100
AcDbLine
 10
186.814544187085
 20
268.1492200717686
 30
0.0
 11
185.044030242806
 21
268.1492200717686
 31
0.0
  0
LINE
  5
18C
330
76
100
AcDbEntity
  8
0
  6
Continuous
 62
     7
100
AcDbLine
 10
168.814544187085
 20
268.1492200717686
 30
0.0
 11
168.814544187085
 21
266.6492200717686
 31
0.0
  0
LINE
  5
18D
330
76
100
AcDbEntity
  8
1
  6
Continuous
 62
     7
100
AcDbLine
 10
168.814544187085
 20
231.6492200717686
 30
0.0
 11
155.814544187085
 21
231.6492200717686
 31
0.0
  0
LINE
  5
18E
330
76
100
AcDbEntity
  8
1
  6
Continuous
 62
     7
100
AcDbLine
 10
186.814544187085
 20
233.1492200717686
 30
0.0
 11
186.814544187085
 21
230.1492200717686
 31
0.0
  0
LINE
  5
18F
330
76
100
AcDbEntity
  8
1
  6
Continuous
 62
     7
100
AcDbLine
 10
186.814544187085
 20
249.1492200717686
 30
0.0
 11
186.814544187085
 21
233.1492200717686
 31
0.0
  0
LINE
  5
190
330
76
100
AcDbEntity
  8
0
  6
Continuous
 62
     7
100
AcDbLine
 10
168.814544187085
 20
231.6492200717686
 30
0.0
 11
168.814544187085
 21
230.1492200717686
 31
0.0
  0
LINE
  5
191
330
76
100
AcDbEntity
  8
0
  6
Continuous
 62
     7
100
AcDbLine
 10
162.8431389774288
 20
266.6206252814247
 30
0.0
 11
154.814544187085
 21
274.6492200717686
 31
0.0
  0
LINE
  5
192
330
76
100
AcDbEntity
  8
0
  6
Continuous
 62
     7
100
AcDbLine
 10
154.814544187085
 20
266.1859451091694
 30
0.0
 11
154.814544187085
 21
276.6492200717686
 31
0.0
  0
LINE
  5
193
330
76
100
AcDbEntity
  8
0
  6
Continuous
 62
     7
100
AcDbLine
 10
154.814544187085
 20
276.6492200717686
 30
0.0
 11
140.314544187085
 21
276.6492200717686
 31
0.0
  0
LINE
  5
194
330
76
100
AcDbEntity
  8
0
  6
Continuous
 62
     7
100
AcDbLine
 10
140.314544187085
 20
276.6492200717686
 30
0.0
 11
134.2391988910589
 21
266.1859451091694
 31
0.0
  0
LINE
  5
195
330
76
100
AcDbEntity
  8
1
  6
Continuous
 62
     7
100
AcDbLine
 10
154.814544187085
 20
399.6492200717686
 30
0.0
 11
162.814544187085
 21
399.6492200717686
 31
0.0
  0
LINE
  5
196
330
76
100
AcDbEntity
  8
1
  6
Continuous
 62
     7
100
AcDbLine
 10
154.814544187085
 20
397.6492200717686
 30
0.0
 11
162.814544187085
 21
397.6492200717686
 31
0.0
  0
LINE
  5
197
330
76
100
AcDbEntity
  8
1
  6
Continuous
 62
     7
100
AcDbLine
 10
134.314544187085
 20
402.6492200717686
 30
0.0
 11
134.314544187085
 21
394.6492200717686
 31
0.0
  0
LINE
  5
198
330
76
100
AcDbEntity
  8
1
  6
Continuous
 62
     7
100
AcDbLine
 10
140.314544187085
 20
402.6492200717686
 30
0.0
 11
140.314544187085
 21
394.6492200717686
 31
0.0
  0
LINE
  5
199
330
76
100
AcDbEntity
  8
1
  6
Continuous
 62
     7
100
AcDbLine
 10
154.814544187085
 20
402.6492200717686
 30
0.0
 11
154.814544187085
 21
394.6492200717686
 31
0.0
  0
LINE
  5
19A
330
76
100
AcDbEntity
  8
1
  6
Continuous
 62
     7
100
AcDbLine
 10
162.814544187085
 20
399.6492200717686
 30
0.0
 11
162.814544187085
 21
397.6492200717686
 31
0.0
  0
LINE
  5
19B
330
76
100
AcDbEntity
  8
1
  6
Continuous
 62
     7
100
AcDbLine
 10
134.314544187085
 20
402.6492200717686
 30
0.0
 11
154.814544187085
 21
402.6492200717686
 31
0.0
  0
LINE
  5
19C
330
76
100
AcDbEntity
  8
1
  6
Continuous
 62
     7
100
AcDbLine
 10
134.314544187085
 20
394.6492200717686
 30
0.0
 11
154.814544187085
 21
394.6492200717686
 31
0.0
  0
LINE
  5
19D
330
76
100
AcDbEntity
  8
1
  6
Continuous
 62
     7
100
AcDbLine
 10
186.814544187085
 20
417.6492200717686
 30
0.0
 11
186.814544187085
 21
414.6492200717686
 31
0.0
  0
LINE
  5
19E
330
76
100
AcDbEntity
  8
1
  6
Continuous
 62
     7
100
AcDbLine
 10
186.814544187085
 20
414.6492200717686
 30
0.0
 11
186.814544187085
 21
403.9492200717685
 31
0.0
  0
LINE
  5
19F
330
76
100
AcDbEntity
  8
0
  6
Continuous
 62
     7
100
AcDbLine
 10
186.814544187085
 20
417.6492200717686
 30
0.0
 11
183.814544187085
 21
417.6492200717686
 31
0.0
  0
LINE
  5
1A0
330
76
100
AcDbEntity
  8
0
  6
Continuous
 62
     7
100
AcDbLine
 10
183.814544187085
 20
417.6492200717686
 30
0.0
 11
183.814544187085
 21
407.8391074245261
 31
0.0
  0
LINE
  5
1A1
330
76
100
AcDbEntity
  8
1
  6
Continuous
 62
     7
100
AcDbLine
 10
171.814544187085
 20
416.1492200717686
 30
0.0
 11
172.401689399143
 21
416.1492200717686
 31
0.0
  0
LINE
  5
1A2
330
76
100
AcDbEntity
  8
0
  6
Continuous
 62
     7
100
AcDbLine
 10
171.814544187085
 20
417.6492200717686
 30
0.0
 11
168.814544187085
 21
417.6492200717686
 31
0.0
  0
LINE
  5
1A3
330
76
100
AcDbEntity
  8
0
  6
Continuous
 62
     7
100
AcDbLine
 10
168.814544187085
 20
417.6492200717686
 30
0.0
 11
168.814544187085
 21
416.1492200717686
 31
0.0
  0
LINE
  5
1A4
330
76
100
AcDbEntity
  8
1
  6
Continuous
 62
     7
100
AcDbLine
 10
162.814544187085
 20
397.6492200717686
 30
0.0
 11
154.814544187085
 21
397.6492200717686
 31
0.0
  0
LINE
  5
1A5
330
76
100
AcDbEntity
  8
1
  6
Continuous
 62
     7
100
AcDbLine
 10
162.814544187085
 20
399.6492200717686
 30
0.0
 11
154.814544187085
 21
399.6492200717686
 31
0.0
  0
LINE
  5
1A6
330
76
100
AcDbEntity
  8
1
  6
Continuous
 62
     7
100
AcDbLine
 10
186.814544187085
 20
382.6492200717685
 30
0.0
 11
186.814544187085
 21
379.6492200717685
 31
0.0
  0
LINE
  5
1A7
330
76
100
AcDbEntity
  8
1
  6
Continuous
 62
     7
100
AcDbLine
 10
186.814544187085
 20
398.6492200717686
 30
0.0
 11
186.814544187085
 21
382.6492200717685
 31
0.0
  0
LINE
  5
1A8
330
76
100
AcDbEntity
  8
0
  6
Continuous
 62
     7
100
AcDbLine
 10
183.814544187085
 20
379.6492200717685
 30
0.0
 11
186.814544187085
 21
379.6492200717685
 31
0.0
  0
LINE
  5
1A9
330
76
100
AcDbEntity
  8
0
  6
Continuous
 62
     7
100
AcDbLine
 10
168.814544187085
 20
379.6492200717685
 30
0.0
 11
171.814544187085
 21
379.6492200717685
 31
0.0
  0
LINE
  5
1AA
330
76
100
AcDbEntity
  8
0
  6
Continuous
 62
     7
100
AcDbLine
 10
168.814544187085
 20
398.6492200717686
 30
0.0
 11
168.814544187085
 21
381.1492200717685
 31
0.0
  0
LINE
  5
1AB
330
76
100
AcDbEntity
  8
1
  6
Continuous
 62
     7
100
AcDbLine
 10
136.814544187085
 20
416.1492200717686
 30
0.0
 11
168.814544187085
 21
416.1492200717686
 31
0.0
  0
LINE
  5
1AC
330
76
100
AcDbEntity
  8
0
  6
Continuous
 62
     7
100
AcDbLine
 10
168.814544187085
 20
416.1492200717686
 30
0.0
 11
168.814544187085
 21
403.9492200717685
 31
0.0
  0
LINE
  5
1AD
330
76
100
AcDbEntity
  8
1
  6
Continuous
 62
     7
100
AcDbLine
 10
136.814544187085
 20
381.1492200717685
 30
0.0
 11
168.814544187085
 21
381.1492200717685
 31
0.0
  0
LINE
  5
1AE
330
76
100
AcDbEntity
  8
0
  6
Continuous
 62
     7
100
AcDbLine
 10
168.814544187085
 20
381.1492200717685
 30
0.0
 11
168.814544187085
 21
379.6492200717685
 31
0.0
  0
LINE
  5
1AF
330
76
100
AcDbEntity
  8
1
  6
Continuous
 62
     7
100
AcDbLine
 10
183.2219203066623
 20
416.1492200717686
 30
0.0
 11
183.814544187085
 21
416.1492200717686
 31
0.0
  0
LINE
  5
1B0
330
76
100
AcDbEntity
  8
0
  6
Continuous
 62
     7
100
AcDbLine
 10
171.814544187085
 20
407.8391074245261
 30
0.0
 11
171.814544187085
 21
417.6492200717686
 31
0.0
  0
LINE
  5
1B1
330
76
100
AcDbEntity
  8
1
  6
Continuous
 62
     7
100
AcDbLine
 10
181.6417109721729
 20
381.1492200717685
 30
0.0
 11
173.9966277453617
 21
381.1492200717685
 31
0.0
  0
LINE
  5
1B2
330
76
100
AcDbEntity
  8
0
  6
Continuous
 62
     7
100
AcDbLine
 10
168.814544187085
 20
399.4492200717685
 30
0.0
 11
168.814544187085
 21
398.6492200717686
 31
0.0
  0
LINE
  5
1B3
330
76
100
AcDbEntity
  8
1
  6
Continuous
 62
     7
100
AcDbLine
 10
186.814544187085
 20
399.4492200717685
 30
0.0
 11
186.814544187085
 21
398.6492200717686
 31
0.0
  0
LINE
  5
1B4
330
76
100
AcDbEntity
  8
0
  6
Continuous
 62
     7
100
AcDbLine
 10
155.814544187085
 20
230.6492200717686
 30
0.0
 11
155.814544187085
 21
231.6492200717686
 31
0.0
  0
LINE
  5
1B5
330
76
100
AcDbEntity
  8
1
  6
Continuous
 62
     7
100
AcDbLine
 10
120.814544187085
 20
230.6492200717686
 30
0.0
 11
120.814544187085
 21
249.1492200717686
 31
0.0
  0
LINE
  5
1B6
330
76
100
AcDbEntity
  8
1
  6
Continuous
 62
     7
100
AcDbLine
 10
134.2391988910589
 20
266.1859451091694
 30
0.0
 11
154.814544187085
 21
266.1859451091694
 31
0.0
  0
LINE
  5
1B7
330
76
100
AcDbEntity
  8
1
  6
Continuous
 62
     7
100
AcDbLine
 10
162.814544187085
 20
266.6492200717686
 30
0.0
 11
168.814544187085
 21
266.6492200717686
 31
0.0
  0
LINE
  5
1B8
330
76
100
AcDbEntity
  8
1
  6
Continuous
 62
     7
100
AcDbLine
 10
154.814544187085
 20
266.6206252814247
 30
0.0
 11
162.8431389774288
 21
266.6206252814247
 31
0.0
  0
LINE
  5
1B9
330
76
100
AcDbEntity
  8
1
  6
Continuous
 62
     7
100
AcDbLine
 10
168.814544187085
 20
266.6492200717686
 30
0.0
 11
168.814544187085
 21
231.6492200717686
 31
0.0
  0
LINE
  5
1BA
330
76
100
AcDbEntity
  8
1
  6
Continuous
 62
     7
100
AcDbLine
 10
181.974026411107
 20
231.6492200717686
 30
0.0
 11
173.502347964155
 21
231.6492200717686
 31
0.0
  0
LINE
  5
1BB
330
76
100
AcDbEntity
  8
0
  6
Continuous
 62
     7
100
AcDbLine
 10
184.2565669744672
 20
230.1492200717686
 30
0.0
 11
186.814544187085
 21
230.1492200717686
 31
0.0
  0
LINE
  5
1BC
330
76
100
AcDbEntity
  8
0
  6
Continuous
 62
     7
100
AcDbLine
 10
170.5892404100148
 20
268.1492200717686
 30
0.0
 11
168.814544187085
 21
268.1492200717686
 31
0.0
  0
LINE
  5
1BD
330
76
100
AcDbEntity
  8
1
  6
Continuous
 62
     7
100
AcDbLine
 10
172.6252093229491
 20
266.6492200717686
 30
0.0
 11
182.9914596037133
 21
266.6492200717686
 31
0.0
  0
LINE
  5
1BE
330
76
100
AcDbEntity
  8
0
  6
Continuous
 62
     7
100
AcDbLine
 10
168.814544187085
 20
230.1492200717686
 30
0.0
 11
171.5392404100148
 21
230.1492200717686
 31
0.0
  0
ARC
  5
1BF
330
76
100
AcDbEntity
  8
1
  6
Continuous
 62
     7
100
AcDbCircle
 10
137.8063130009973
 20
249.6781742990488
 30
0.0
 40
16.99999999999998
100
AcDbArc
 50
101.852808267184
 51
181.783043360231
  0
ARC
  5
1C0
330
76
100
AcDbEntity
  8
1
  6
Continuous
 62
     7
100
AcDbCircle
 10
137.8063130009973
 20
399.1781742990488
 30
0.0
 40
16.99999999999996
100
AcDbArc
 50
93.3444970626991
 51
181.7830433602311
  0
ARC
  5
1C1
330
76
100
AcDbEntity
  8
1
  6
Continuous
 62
     7
100
AcDbCircle
 10
137.8063130009973
 20
398.1202658444884
 30
0.0
 40
17.00000000000001
100
AcDbArc
 50
178.2169566397691
 51
266.6555029373009
  0
ARC
  5
1C2
330
76
100
AcDbEntity
  8
1
  6
Continuous
 62
     7
100
AcDbCircle
 10
136.814544187085
 20
398.6492200717686
 30
0.0
 40
18.99999999999998
100
AcDbArc
 50
67.08045784843037
 51
292.9195421515695
  0
ENDBLK
  5
78
330
76
100
AcDbEntity
  8
0
100
AcDbBlockEnd
  0
BLOCK
  5
7A
330
79
100
AcDbEntity
  8
0
100
AcDbBlockBegin
  2
neji__13
 70
     0
 10
173.564544187085
 20
266.3992200717685
 30
0.0
  3
neji__13
  1

  0
LINE
  5
1C3
330
79
100
AcDbEntity
  8
1
  6
Continuous
 62
     7
100
AcDbLine
 10
351.814544187085
 20
271.8257261756223
 30
0.0
 11
351.814544187085
 21
279.7666445932539
 31
0.0
  0
LINE
  5
1C4
330
79
100
AcDbEntity
  8
1
  6
Continuous
 62
     7
100
AcDbLine
 10
345.814544187085
 20
272.6492200717685
 30
0.0
 11
345.814544187085
 21
278.6492200717685
 31
0.0
  0
LINE
  5
1C5
330
79
100
AcDbEntity
  8
1
  6
Continuous
 62
     7
100
AcDbLine
 10
345.814544187085
 20
278.1492200717685
 30
0.0
 11
346.6805695908694
 21
278.6492200717685
 31
0.0
  0
LINE
  5
1C6
330
79
100
AcDbEntity
  8
1
  6
Continuous
 62
     7
100
AcDbLine
 10
345.814544187085
 20
273.1492200717685
 30
0.0
 11
346.6805695908694
 21
272.6492200717685
 31
0.0
  0
LINE
  5
1C7
330
79
100
AcDbEntity
  8
1
  6
Continuous
 62
     7
100
AcDbLine
 10
348.2541591177875
 20
272.6492200717685
 30
0.0
 11
330.3216743125097
 21
272.6492200717685
 31
0.0
  0
LINE
  5
1C8
330
79
100
AcDbEntity
  8
1
  6
Continuous
 62
     2
100
AcDbLine
 10
330.1876997162942
 20
273.1492200717685
 30
0.0
 11
345.814544187085
 21
273.1492200717685
 31
0.0
  0
LINE
  5
1C9
330
79
100
AcDbEntity
  8
1
  6
Continuous
 62
     2
100
AcDbLine
 10
345.814544187085
 20
278.1492200717685
 30
0.0
 11
328.5140915752704
 21
278.1492200717685
 31
0.0
  0
LINE
  5
1CA
330
79
100
AcDbEntity
  8
1
  6
Continuous
 62
     7
100
AcDbLine
 10
327.9363359929482
 20
278.6492200717685
 30
0.0
 11
348.2541591177875
 21
278.6492200717685
 31
0.0
  0
LINE
  5
1CB
330
79
100
AcDbEntity
  8
1
  6
Continuous
 62
     7
100
AcDbLine
 10
318.314544187085
 20
272.6492200717685
 30
0.0
 11
323.314544187085
 21
272.6492200717685
 31
0.0
  0
LINE
  5
1CC
330
79
100
AcDbEntity
  8
1
  6
Continuous
 62
     2
100
AcDbLine
 10
317.814544187085
 20
273.1492200717685
 30
0.0
 11
323.314544187085
 21
273.1492200717685
 31
0.0
  0
LINE
  5
1CD
330
79
100
AcDbEntity
  8
1
  6
Continuous
 62
     7
100
AcDbLine
 10
326.314544187085
 20
272.6492200717685
 30
0.0
 11
328.2511219516896
 21
272.6492200717685
 31
0.0
  0
LINE
  5
1CE
330
79
100
AcDbEntity
  8
1
  6
Continuous
 62
     2
100
AcDbLine
 10
326.314544187085
 20
273.1492200717685
 30
0.0
 11
328.1171473554741
 21
273.1492200717685
 31
0.0
  0
LINE
  5
1CF
330
79
100
AcDbEntity
  8
1
  6
Continuous
 62
     2
100
AcDbLine
 10
317.814544187085
 20
278.1492200717685
 30
0.0
 11
320.314544187085
 21
278.1492200717685
 31
0.0
  0
LINE
  5
1D0
330
79
100
AcDbEntity
  8
1
  6
Continuous
 62
     7
100
AcDbLine
 10
318.314544187085
 20
278.6492200717685
 30
0.0
 11
320.314544187085
 21
278.6492200717685
 31
0.0
  0
LINE
  5
1D1
330
79
100
AcDbEntity
  8
1
  6
Continuous
 62
     7
100
AcDbLine
 10
318.314544187085
 20
272.6492200717685
 30
0.0
 11
318.314544187085
 21
278.6492200717685
 31
0.0
  0
LINE
  5
1D2
330
79
100
AcDbEntity
  8
1
  6
Continuous
 62
     7
100
AcDbLine
 10
317.814544187085
 20
273.1492200717685
 30
0.0
 11
318.314544187085
 21
272.6492200717685
 31
0.0
  0
LINE
  5
1D3
330
79
100
AcDbEntity
  8
1
  6
Continuous
 62
     7
100
AcDbLine
 10
317.814544187085
 20
278.1492200717685
 30
0.0
 11
318.314544187085
 21
278.6492200717685
 31
0.0
  0
LINE
  5
1D4
330
79
100
AcDbEntity
  8
1
  6
Continuous
 62
     7
100
AcDbLine
 10
314.314544187085
 20
277.8992200717685
 30
0.0
 11
309.814544187085
 21
277.8992200717685
 31
0.0
  0
LINE
  5
1D5
330
79
100
AcDbEntity
  8
1
  6
Continuous
 62
     7
100
AcDbLine
 10
309.814544187085
 20
273.3992200717685
 30
0.0
 11
314.314544187085
 21
273.3992200717685
 31
0.0
  0
LINE
  5
1D6
330
79
100
AcDbEntity
  8
1
  6
Continuous
 62
     7
100
AcDbLine
 10
309.814544187085
 20
277.8992200717685
 30
0.0
 11
309.814544187085
 21
273.3992200717685
 31
0.0
  0
LINE
  5
1D7
330
79
100
AcDbEntity
  8
1
  6
PHANTOM
 62
     4
100
AcDbLine
 10
356.564544187085
 20
266.3992200717685
 30
0.0
 11
356.564544187085
 21
284.8992200717685
 31
0.0
  0
ARC
  5
1D8
330
79
100
AcDbEntity
  8
1
  6
Continuous
 62
     7
100
AcDbCircle
 10
356.564544187085
 20
275.6492200717685
 30
0.0
 40
7.250000000000194
100
AcDbArc
 50
215.8288401004341
 51
0.0
  0
ARC
  5
1D9
330
79
100
AcDbEntity
  8
1
  6
Continuous
 62
     7
100
AcDbCircle
 10
356.564544187085
 20
275.6492200717685
 30
0.0
 40
7.25
100
AcDbArc
 50
0.0
 51
144.1711598995659
  0
ARC
  5
1DA
330
79
100
AcDbEntity
  8
1
  6
Continuous
 62
     7
100
AcDbCircle
 10
346.5146658281938
 20
282.905114127797
 30
0.0
 40
5.145485209576019
100
AcDbArc
 50
291.0910454499952
 51
324.1711508477138
  0
ARC
  5
1DB
330
79
100
AcDbEntity
  8
1
  6
Continuous
 62
     7
100
AcDbCircle
 10
346.5146658281938
 20
268.3933260157401
 30
0.0
 40
5.145485209575989
100
AcDbArc
 50
35.82884915228627
 51
68.9089545500044
  0
SPLINE
  5
1DC
330
79
100
AcDbEntity
  8
1
  6
Continuous
 62
     7
100
AcDbSpline
210
0.0
220
0.0
230
1.0
 70
     8
 71
     3
 72
    31
 73
    27
 74
    25
 42
0.000000001
 43
0.0000000001
 44
0.00000001
 40
0.0
 40
0.0
 40
0.0
 40
0.0
 40
0.2188120059471351
 40
0.4375983465396394
 40
0.8511789781208418
 40
1.264990837437059
 40
1.63398070250301
 40
2.0028214235407
 40
2.327400720948284
 40
2.651942490431132
 40
2.93935653366157
 40
3.226531042072736
 40
3.491999562957728
 40
3.757271773148281
 40
4.022543983338943
 40
4.288012504223894
 40
4.575187012635008
 40
4.862601055865399
 40
5.187142825348247
 40
5.51172212275587
 40
5.880562843793471
 40
6.249552708859486
 40
6.663364568175808
 40
7.076945199756959
 40
7.295731540349442
 40
7.514543546296558
 40
7.514543546296558
 40
7.514543546296558
 40
7.514543546296558
 10
348.3662738046972
 20
273.1941140701447
 30
0.0
 10
348.2978749566575
 20
273.2194424577432
 30
0.0
 10
348.1610852878888
 20
273.2700962741873
 30
0.0
 10
347.8968444315769
 20
273.3735101673072
 30
0.0
 10
347.5790052762819
 20
273.5177961251622
 30
0.0
 10
347.2286527391618
 20
273.7090609004879
 30
0.0
 10
346.9058828274984
 20
273.9175517541705
 30
0.0
 10
346.6258492634959
 20
274.1352437616227
 30
0.0
 10
346.3793707321352
 20
274.3692884895393
 30
0.0
 10
346.1783953574503
 20
274.6092664706986
 30
0.0
 10
346.01658450709
 20
274.862538553412
 30
0.0
 10
345.9009342634156
 20
275.1188967579472
 30
0.0
 10
345.8308193071324
 20
275.3835971985633
 30
0.0
 10
345.8064096519849
 20
275.6492200717685
 30
0.0
 10
345.8308193071322
 20
275.9148429449738
 30
0.0
 10
345.9009342634158
 20
276.1795433855899
 30
0.0
 10
346.0165845070898
 20
276.4359015901251
 30
0.0
 10
346.1783953574503
 20
276.6891736728384
 30
0.0
 10
346.3793707321353
 20
276.9291516539977
 30
0.0
 10
346.6258492634956
 20
277.1631963819143
 30
0.0
 10
346.9058828274984
 20
277.3808883893666
 30
0.0
 10
347.2286527391618
 20
277.5893792430491
 30
0.0
 10
347.5790052762819
 20
277.7806440183749
 30
0.0
 10
347.8968444315768
 20
277.9249299762298
 30
0.0
 10
348.1610852878889
 20
278.0283438693498
 30
0.0
 10
348.2978749566575
 20
278.0789976857938
 30
0.0
 10
348.3662738046972
 20
278.1043260733923
 30
0.0
 11
348.3662738046972
 21
273.1941140701447
 31
0.0
 11
348.1613125849526
 21
273.270727348302
 31
0.0
 11
347.9578185289657
 21
273.3510867424116
 31
0.0
 11
347.5813426080468
 21
273.5223024558518
 31
0.0
 11
347.2182775283711
 21
273.7208572427089
 31
0.0
 11
346.9089200943856
 21
273.9219828227327
 31
0.0
 11
346.6183917643783
 21
274.1492200717685
 31
0.0
 11
346.3838305165091
 21
274.3735696686749
 31
0.0
 11
346.1763884623696
 21
274.6231596417915
 31
0.0
 11
346.0226219008341
 21
274.8659819577367
 31
0.0
 11
345.9056976690117
 21
275.1282755387678
 31
0.0
 11
345.8381133994828
 21
275.3849969878589
 31
0.0
 11
345.814544187085
 21
275.6492200717685
 31
0.0
 11
345.8381133994827
 21
275.9134431556783
 31
0.0
 11
345.9056976690117
 21
276.1701646047693
 31
0.0
 11
346.0226219008341
 21
276.4324581858004
 31
0.0
 11
346.1763884623696
 21
276.6752805017455
 31
0.0
 11
346.3838305165091
 21
276.9248704748621
 31
0.0
 11
346.6183917643783
 21
277.1492200717685
 31
0.0
 11
346.9089200943855
 21
277.3764573208044
 31
0.0
 11
347.2182775283711
 21
277.5775829008281
 31
0.0
 11
347.5813426080469
 21
277.7761376876853
 31
0.0
 11
347.9578185289657
 21
277.9473534011255
 31
0.0
 11
348.1613125849526
 21
278.027712795235
 31
0.0
 11
348.3662738046972
 21
278.1043260733923
 31
0.0
  0
ARC
  5
1DD
330
79
100
AcDbEntity
  8
1
  6
Continuous
 62
     7
100
AcDbCircle
 10
348.2541591177875
 20
281.6492200717685
 30
0.0
 40
3.0
100
AcDbArc
 50
270.0
 51
324.1711598995664
  0
ARC
  5
1DE
330
79
100
AcDbEntity
  8
1
  6
Continuous
 62
     7
100
AcDbCircle
 10
348.2541591177875
 20
269.6492200717685
 30
0.0
 40
2.999999999999963
100
AcDbArc
 50
35.82884010043363
 51
90.0
  0
ENDBLK
  5
7B
330
79
100
AcDbEntity
  8
0
100
AcDbBlockEnd
  0
BLOCK
  5
7D
330
7C
100
AcDbEntity
  8
0
100
AcDbBlockBegin
  2
guid__14
 70
     0
 10
164.3156569659266
 20
270.1492200717685
 30
0.0
  3
guid__14
  1

  0
LINE
  5
1DF
330
7C
100
AcDbEntity
  8
1
  6
Continuous
 62
     7
100
AcDbLine
 10
323.314544187085
 20
270.6492200717685
 30
0.0
 11
323.314544187085
 21
280.6492200717685
 31
0.0
  0
LINE
  5
1E0
330
7C
100
AcDbEntity
  8
1
  6
Continuous
 62
     7
100
AcDbLine
 10
326.314544187085
 20
270.6492200717685
 30
0.0
 11
326.314544187085
 21
280.6492200717685
 31
0.0
  0
LINE
  5
1E1
330
7C
100
AcDbEntity
  8
1
  6
Continuous
 62
     7
100
AcDbLine
 10
323.814544187085
 20
281.1492200717685
 30
0.0
 11
325.814544187085
 21
281.1492200717685
 31
0.0
  0
ARC
  5
1E2
330
7C
100
AcDbEntity
  8
1
  6
Continuous
 62
     7
100
AcDbCircle
 10
323.814544187085
 20
270.6492200717685
 30
0.0
 40
0.5
100
AcDbArc
 50
180.0
 51
270.0
  0
ARC
  5
1E3
330
7C
100
AcDbEntity
  8
1
  6
Continuous
 62
     7
100
AcDbCircle
 10
325.814544187085
 20
270.6492200717685
 30
0.0
 40
0.5
100
AcDbArc
 50
270.0
 51
0.0
  0
ARC
  5
1E4
330
7C
100
AcDbEntity
  8
1
  6
Continuous
 62
     7
100
AcDbCircle
 10
325.814544187085
 20
280.6492200717685
 30
0.0
 40
0.5
100
AcDbArc
 50
0.0
 51
90.0
  0
ARC
  5
1E5
330
7C
100
AcDbEntity
  8
1
  6
Continuous
 62
     7
100
AcDbCircle
 10
323.814544187085
 20
280.6492200717685
 30
0.0
 40
0.5
100
AcDbArc
 50
90.0
 51
180.0
  0
ENDBLK
  5
7E
330
7C
100
AcDbEntity
  8
0
100
AcDbBlockEnd
  0
BLOCK
  5
80
330
7F
100
AcDbEntity
  8
0
100
AcDbBlockBegin
  2
washer__15
 70
     0
 10
170.564544187085
 20
270.3992200717685
 30
0.0
  3
washer__15
  1

  0
LINE
  5
1E6
330
7F
100
AcDbEntity
  8
1
  6
Continuous
 62
     7
100
AcDbLine
 10
317.064544187085
 20
280.8992200717685
 30
0.0
 11
317.814544187085
 21
280.8992200717685
 31
0.0
  0
LINE
  5
1E7
330
7F
100
AcDbEntity
  8
1
  6
Continuous
 62
     7
100
AcDbLine
 10
316.314544187085
 20
279.3992200717685
 30
0.0
 11
316.314544187085
 21
280.1492200717685
 31
0.0
  0
LINE
  5
1E8
330
7F
100
AcDbEntity
  8
1
  6
Continuous
 62
     7
100
AcDbLine
 10
317.814544187085
 20
280.8992200717685
 30
0.0
 11
317.814544187085
 21
270.3992200717685
 31
0.0
  0
LINE
  5
1E9
330
7F
100
AcDbEntity
  8
1
  6
Continuous
 62
     7
100
AcDbLine
 10
317.814544187085
 20
270.3992200717685
 30
0.0
 11
317.064544187085
 21
270.3992200717685
 31
0.0
  0
ARC
  5
1EA
330
7F
100
AcDbEntity
  8
1
  6
Continuous
 62
     7
100
AcDbCircle
 10
317.064544187085
 20
271.1492200717685
 30
0.0
 40
0.75
100
AcDbArc
 50
180.0
 51
270.0
  0
ARC
  5
1EB
330
7F
100
AcDbEntity
  8
1
  6
Continuous
 62
     7
100
AcDbCircle
 10
317.064544187085
 20
280.1492200717685
 30
0.0
 40
0.75
100
AcDbArc
 50
90.0
 51
180.0
  0
ENDBLK
  5
81
330
7F
100
AcDbEntity
  8
0
100
AcDbBlockEnd
  0
BLOCK
  5
83
330
82
100
AcDbEntity
  8
0
100
AcDbBlockBegin
  2
ring__16
 70
     0
 10
168.314544187085
 20
227.8140530247903
 30
0.0
  3
ring__16
  1

  0
LINE
  5
1EC
330
82
100
AcDbEntity
  8
1
  6
Continuous
 62
     7
100
AcDbLine
 10
323.314544187085
 20
277.1492200717685
 30
0.0
 11
320.314544187085
 21
277.1492200717685
 31
0.0
  0
LINE
  5
1ED
330
82
100
AcDbEntity
  8
1
  6
Continuous
 62
     7
100
AcDbLine
 10
320.314544187085
 20
279.1492200717685
 30
0.0
 11
323.314544187085
 21
279.1492200717685
 31
0.0
  0
LINE
  5
1EE
330
82
100
AcDbEntity
  8
1
  6
Continuous
 62
     7
100
AcDbLine
 10
320.314544187085
 20
277.1492200717685
 30
0.0
 11
320.314544187085
 21
279.1492200717685
 31
0.0
  0
LINE
  5
1EF
330
82
100
AcDbEntity
  8
1
  6
Continuous
 62
     7
100
AcDbLine
 10
327.2439494240597
 20
276.4080391168711
 30
0.0
 11
328.5836953862153
 21
271.4080391168711
 31
0.0
  0
LINE
  5
1F0
330
82
100
AcDbEntity
  8
1
  6
Continuous
 62
     7
100
AcDbLine
 10
329.1758010766378
 20
276.9256772070761
 30
0.0
 11
330.5155470387933
 21
271.9256772070761
 31
0.0
  0
LINE
  5
1F1
330
82
100
AcDbEntity
  8
1
  6
Continuous
 62
     7
100
AcDbLine
 10
327.6177695599262
 20
270.1492200717685
 30
0.0
 11
325.814544187085
 21
270.1492200717685
 31
0.0
  0
LINE
  5
1F2
330
82
100
AcDbEntity
  8
1
  6
Continuous
 62
     7
100
AcDbLine
 10
323.314544187085
 20
270.1492200717685
 30
0.0
 11
323.814544187085
 21
270.1492200717685
 31
0.0
  0
LINE
  5
1F3
330
82
100
AcDbEntity
  8
1
  6
Continuous
 62
     7
100
AcDbLine
 10
322.314544187085
 20
270.1492200717685
 30
0.0
 11
323.314544187085
 21
270.1492200717685
 31
0.0
  0
LINE
  5
1F4
330
82
100
AcDbEntity
  8
1
  6
Continuous
 62
     7
100
AcDbLine
 10
323.814544187085
 20
270.1492200717685
 30
0.0
 11
325.814544187085
 21
270.1492200717685
 31
0.0
  0
LINE
  5
1F5
330
82
100
AcDbEntity
  8
1
  6
Continuous
 62
     7
100
AcDbLine
 10
327.6177695599262
 20
268.1492200717685
 30
0.0
 11
322.314544187085
 21
268.1492200717685
 31
0.0
  0
LINE
  5
1F6
330
82
100
AcDbEntity
  8
1
  6
Continuous
 62
     7
100
AcDbLine
 10
314.314544187085
 20
271.1492200717685
 30
0.0
 11
314.314544187085
 21
279.3992200717685
 31
0.0
  0
LINE
  5
1F7
330
82
100
AcDbEntity
  8
1
  6
Continuous
 62
     7
100
AcDbLine
 10
316.314544187085
 20
271.1492200717685
 30
0.0
 11
316.314544187085
 21
279.3992200717685
 31
0.0
  0
LINE
  5
1F8
330
82
100
AcDbEntity
  8
1
  6
Continuous
 62
     7
100
AcDbLine
 10
322.314544187085
 20
270.1492200717685
 30
0.0
 11
317.314544187085
 21
270.1492200717685
 31
0.0
  0
ARC
  5
1F9
330
82
100
AcDbEntity
  8
1
  6
Continuous
 62
     7
100
AcDbCircle
 10
327.6177695599262
 20
271.1492200717685
 30
0.0
 40
3.0
100
AcDbArc
 50
270.0
 51
15.00000000000082
  0
ARC
  5
1FA
330
82
100
AcDbEntity
  8
1
  6
Continuous
 62
     7
100
AcDbCircle
 10
326.2780235977706
 20
276.1492200717685
 30
0.0
 40
3.000000000000022
100
AcDbArc
 50
14.99999999999997
 51
89.30249089372073
  0
ARC
  5
1FB
330
82
100
AcDbEntity
  8
1
  6
Continuous
 62
     7
100
AcDbCircle
 10
326.2780235977706
 20
276.1492200717685
 30
0.0
 40
1.000000000000045
100
AcDbArc
 50
15.00000000000389
 51
87.90705894646179
  0
ARC
  5
1FC
330
82
100
AcDbEntity
  8
1
  6
Continuous
 62
     7
100
AcDbCircle
 10
327.6177695599262
 20
271.1492200717685
 30
0.0
 40
1.0
100
AcDbArc
 50
270.0
 51
15.00000000000389
  0
ARC
  5
1FD
330
82
100
AcDbEntity
  8
0
  6
Continuous
 62
     7
100
AcDbCircle
 10
317.314544187085
 20
271.1492200717685
 30
0.0
 40
3.0
100
AcDbArc
 50
180.0
 51
227.4727701814794
  0
ARC
  5
1FE
330
82
100
AcDbEntity
  8
0
  6
Continuous
 62
     7
100
AcDbCircle
 10
322.314544187085
 20
249.1492200717686
 30
0.0
 40
20.99999999999991
100
AcDbArc
 50
90.0
 51
0.0
  0
ARC
  5
1FF
330
82
100
AcDbEntity
  8
0
  6
Continuous
 62
     7
100
AcDbCircle
 10
322.314544187085
 20
249.1492200717686
 30
0.0
 40
21.0
100
AcDbArc
 50
0.0
 51
69.8242555812463
  0
ARC
  5
200
330
82
100
AcDbEntity
  8
1
  6
Continuous
 62
     7
100
AcDbCircle
 10
315.314544187085
 20
279.3992200717685
 30
0.0
 40
1.0
100
AcDbArc
 50
0.0
 51
180.0
  0
ARC
  5
201
330
82
100
AcDbEntity
  8
1
  6
Continuous
 62
     7
100
AcDbCircle
 10
317.314544187085
 20
271.1492200717685
 30
0.0
 40
1.0
100
AcDbArc
 50
180.0
 51
270.0
  0
ENDBLK
  5
84
330
82
100
AcDbEntity
  8
0
100
AcDbBlockEnd
  0
BLOCK
  5
8A
330
85
100
AcDbEntity
  8
0
100
AcDbBlockBegin
  2
D21-30
 70
     0
 10
164.3156569659266
 20
227.1492200717686
 30
0.0
  3
D21-30
  1

  0
INSERT
  5
86
330
85
100
AcDbEntity
  8
0
100
AcDbBlockReference
  2
neji__13
 10
173.564544187085
 20
266.3992200717685
 30
0.0
  0
INSERT
  5
87
330
85
100
AcDbEntity
  8
0
100
AcDbBlockReference
  2
guid__14
 10
164.3156569659266
 20
270.1492200717685
 30
0.0
  0
INSERT
  5
88
330
85
100
AcDbEntity
  8
0
100
AcDbBlockReference
  2
washer__15
 10
170.564544187085
 20
270.3992200717685
 30
0.0
  0
INSERT
  5
89
330
85
100
AcDbEntity
  8
0
100
AcDbBlockReference
  2
ring__16
 10
168.314544187085
 20
227.8140530247903
 30
0.0
  0
LINE
  5
202
330
85
100
AcDbEntity
  8
1
  6
PHANTOM
 62
     4
100
AcDbLine
 10
307.434475653261
 20
275.6492200717685
 30
0.0
 11
366.238987872697
 21
275.6492200717685
 31
0.0
  0
ENDBLK
  5
8B
330
85
100
AcDbEntity
  8
0
100
AcDbBlockEnd
  0
BLOCK
  5
8D
330
8C
100
AcDbEntity
  8
0
100
AcDbBlockBegin
  2
elbo__17
 70
     0
 10
108.8316967864045
 20
186.1142249325269
 30
0.0
  3
elbo__17
  1

  0
LINE
  5
203
330
8C
100
AcDbEntity
  8
1
  6
Continuous
 62
     7
100
AcDbLine
 10
338.814544187085
 20
235.6792534793823
 30
0.0
 11
338.814544187085
 21
230.6492200717686
 31
0.0
  0
LINE
  5
204
330
8C
100
AcDbEntity
  8
1
  6
Continuous
 62
     7
100
AcDbLine
 10
305.814544187085
 20
230.6492200717686
 30
0.0
 11
305.814544187085
 21
235.6792534793823
 31
0.0
  0
CIRCLE
  5
205
330
8C
100
AcDbEntity
  8
0
  6
Continuous
 62
     7
100
AcDbCircle
 10
322.314544187085
 20
249.1492200717686
 30
0.0
 40
16.5000444851741
  0
CIRCLE
  5
206
330
8C
100
AcDbEntity
  8
0
  6
Continuous
 62
     7
100
AcDbCircle
 10
322.314544187085
 20
249.1492200717686
 30
0.0
 40
19.0
  0
ENDBLK
  5
8E
330
8C
100
AcDbEntity
  8
0
100
AcDbBlockEnd
  0
BLOCK
  5
90
330
8F
100
AcDbEntity
  8
0
100
AcDbBlockBegin
  2
tsuba__18
 70
     0
 10
286.814544187085
 20
232.3643677535463
 30
0.0
  3
tsuba__18
  1

  0
LINE
  5
207
330
8F
100
AcDbEntity
  8
0
  6
Continuous
 62
     7
100
AcDbLine
 10
160.314544187085
 20
226.6492200717686
 30
0.0
 11
136.814544187085
 21
226.6492200717686
 31
0.0
  0
LINE
  5
208
330
8F
100
AcDbEntity
  8
1
  6
Continuous
 62
     7
100
AcDbLine
 10
179.314544187085
 20
225.3992200717686
 30
0.0
 11
160.314544187085
 21
226.6492200717686
 31
0.0
  0
LINE
  5
209
330
8F
100
AcDbEntity
  8
1
  6
Continuous
 62
     7
100
AcDbLine
 10
136.814544187085
 20
223.6492200717686
 30
0.0
 11
179.314544187085
 21
223.6492200717686
 31
0.0
  0
LINE
  5
20A
330
8F
100
AcDbEntity
  8
1
  6
Continuous
 62
     7
100
AcDbLine
 10
179.314544187085
 20
223.6492200717686
 30
0.0
 11
179.314544187085
 21
225.3992200717686
 31
0.0
  0
LINE
  5
20B
330
8F
100
AcDbEntity
  8
0
  6
Continuous
 62
     7
100
AcDbLine
 10
136.814544187085
 20
226.6492200717686
 30
0.0
 11
113.3145441870849
 21
226.6492200717686
 31
0.0
  0
LINE
  5
20C
330
8F
100
AcDbEntity
  8
1
  6
Continuous
 62
     7
100
AcDbLine
 10
113.3145441870849
 20
226.6492200717686
 30
0.0
 11
94.31454418708485
 21
225.3992200717686
 31
0.0
  0
LINE
  5
20D
330
8F
100
AcDbEntity
  8
1
  6
Continuous
 62
     7
100
AcDbLine
 10
94.31454418708485
 20
223.6492200717686
 30
0.0
 11
136.814544187085
 21
223.6492200717686
 31
0.0
  0
LINE
  5
20E
330
8F
100
AcDbEntity
  8
1
  6
Continuous
 62
     7
100
AcDbLine
 10
94.31454418708485
 20
225.3992200717686
 30
0.0
 11
94.31454418708485
 21
223.6492200717686
 31
0.0
  0
LINE
  5
20F
330
8F
100
AcDbEntity
  8
0
  6
Continuous
 62
     7
100
AcDbLine
 10
94.31454418708485
 20
225.3992200717686
 30
0.0
 11
179.314544187085
 21
225.3992200717686
 31
0.0
  0
LINE
  5
210
330
8F
100
AcDbEntity
  8
0
  6
Continuous
 62
     7
100
AcDbLine
 10
345.814544187085
 20
226.6492200717686
 30
0.0
 11
322.314544187085
 21
226.6492200717686
 31
0.0
  0
LINE
  5
211
330
8F
100
AcDbEntity
  8
1
  6
Continuous
 62
     7
100
AcDbLine
 10
364.814544187085
 20
225.3992200717686
 30
0.0
 11
345.814544187085
 21
226.6492200717686
 31
0.0
  0
LINE
  5
212
330
8F
100
AcDbEntity
  8
1
  6
Continuous
 62
     7
100
AcDbLine
 10
322.314544187085
 20
223.6492200717686
 30
0.0
 11
364.814544187085
 21
223.6492200717686
 31
0.0
  0
LINE
  5
213
330
8F
100
AcDbEntity
  8
1
  6
Continuous
 62
     7
100
AcDbLine
 10
364.814544187085
 20
223.6492200717686
 30
0.0
 11
364.814544187085
 21
225.3992200717686
 31
0.0
  0
LINE
  5
214
330
8F
100
AcDbEntity
  8
0
  6
Continuous
 62
     7
100
AcDbLine
 10
322.314544187085
 20
226.6492200717686
 30
0.0
 11
298.8145441870848
 21
226.6492200717686
 31
0.0
  0
LINE
  5
215
330
8F
100
AcDbEntity
  8
1
  6
Continuous
 62
     7
100
AcDbLine
 10
298.8145441870848
 20
226.6492200717686
 30
0.0
 11
279.8145441870848
 21
225.3992200717686
 31
0.0
  0
LINE
  5
216
330
8F
100
AcDbEntity
  8
1
  6
Continuous
 62
     7
100
AcDbLine
 10
279.8145441870848
 20
223.6492200717686
 30
0.0
 11
322.314544187085
 21
223.6492200717686
 31
0.0
  0
LINE
  5
217
330
8F
100
AcDbEntity
  8
1
  6
Continuous
 62
     7
100
AcDbLine
 10
279.8145441870848
 20
225.3992200717686
 30
0.0
 11
279.8145441870848
 21
223.6492200717686
 31
0.0
  0
LINE
  5
218
330
8F
100
AcDbEntity
  8
0
  6
Continuous
 62
     7
100
AcDbLine
 10
279.8145441870848
 20
225.3992200717686
 30
0.0
 11
364.814544187085
 21
225.3992200717686
 31
0.0
  0
ENDBLK
  5
91
330
8F
100
AcDbEntity
  8
0
100
AcDbBlockEnd
  0
BLOCK
  5
93
330
92
100
AcDbEntity
  8
0
100
AcDbBlockBegin
  2
lock__19
 70
     0
 10
113.314544187085
 20
223.6492200717686
 30
0.0
  3
lock__19
  1

  0
LINE
  5
219
330
92
100
AcDbEntity
  8
0
  6
Continuous
 62
     2
100
AcDbLine
 10
159.814544187085
 20
229.2199342860399
 30
0.0
 11
159.814544187085
 21
226.6492200717686
 31
0.0
  0
LINE
  5
21A
330
92
100
AcDbEntity
  8
0
  6
Continuous
 62
     7
100
AcDbLine
 10
160.314544187085
 20
228.6492200717686
 30
0.0
 11
160.314544187085
 21
226.6492200717686
 31
0.0
  0
LINE
  5
21B
330
92
100
AcDbEntity
  8
0
  6
Continuous
 62
     7
100
AcDbLine
 10
160.314544187085
 20
228.6492200717686
 30
0.0
 11
142.5972771050054
 21
228.6492200717686
 31
0.0
  0
LINE
  5
21C
330
92
100
AcDbEntity
  8
0
  6
Continuous
 62
     7
100
AcDbLine
 10
156.314544187085
 20
230.6492200717686
 30
0.0
 11
147.3183362734098
 21
230.6492200717686
 31
0.0
  0
LINE
  5
21D
330
92
100
AcDbEntity
  8
0
  6
Continuous
 62
     2
100
AcDbLine
 10
113.8145441870851
 20
226.6492200717686
 30
0.0
 11
113.8145441870851
 21
229.2199342860399
 31
0.0
  0
LINE
  5
21E
330
92
100
AcDbEntity
  8
0
  6
Continuous
 62
     7
100
AcDbLine
 10
113.3145441870851
 20
226.6492200717686
 30
0.0
 11
113.3145441870851
 21
228.6492200717686
 31
0.0
  0
LINE
  5
21F
330
92
100
AcDbEntity
  8
0
  6
Continuous
 62
     7
100
AcDbLine
 10
142.5972771050054
 20
228.6492200717686
 30
0.0
 11
113.3145441870851
 21
228.6492200717686
 31
0.0
  0
LINE
  5
220
330
92
100
AcDbEntity
  8
0
  6
Continuous
 62
     7
100
AcDbLine
 10
147.3183362734098
 20
230.6492200717686
 30
0.0
 11
117.3145441870851
 21
230.6492200717686
 31
0.0
  0
LINE
  5
221
330
92
100
AcDbEntity
  8
0
  6
Continuous
 62
     2
100
AcDbLine
 10
345.314544187085
 20
229.2199342860399
 30
0.0
 11
345.314544187085
 21
226.6492200717686
 31
0.0
  0
LINE
  5
222
330
92
100
AcDbEntity
  8
0
  6
Continuous
 62
     7
100
AcDbLine
 10
345.814544187085
 20
228.6492200717686
 30
0.0
 11
345.814544187085
 21
226.6492200717686
 31
0.0
  0
LINE
  5
223
330
92
100
AcDbEntity
  8
0
  6
Continuous
 62
     7
100
AcDbLine
 10
345.814544187085
 20
228.6492200717686
 30
0.0
 11
328.0972771050053
 21
228.6492200717686
 31
0.0
  0
LINE
  5
224
330
92
100
AcDbEntity
  8
0
  6
Continuous
 62
     7
100
AcDbLine
 10
341.814544187085
 20
230.6492200717686
 30
0.0
 11
332.8183362734097
 21
230.6492200717686
 31
0.0
  0
LINE
  5
225
330
92
100
AcDbEntity
  8
0
  6
Continuous
 62
     2
100
AcDbLine
 10
299.3145441870851
 20
226.6492200717686
 30
0.0
 11
299.3145441870851
 21
229.2199342860399
 31
0.0
  0
LINE
  5
226
330
92
100
AcDbEntity
  8
0
  6
Continuous
 62
     7
100
AcDbLine
 10
298.8145441870851
 20
226.6492200717686
 30
0.0
 11
298.8145441870851
 21
228.6492200717686
 31
0.0
  0
LINE
  5
227
330
92
100
AcDbEntity
  8
0
  6
Continuous
 62
     7
100
AcDbLine
 10
316.5318112691646
 20
228.6492200717686
 30
0.0
 11
298.8145441870851
 21
228.6492200717686
 31
0.0
  0
LINE
  5
228
330
92
100
AcDbEntity
  8
0
  6
Continuous
 62
     7
100
AcDbLine
 10
311.8107521007602
 20
230.6492200717686
 30
0.0
 11
302.8145441870851
 21
230.6492200717686
 31
0.0
  0
ARC
  5
229
330
92
100
AcDbEntity
  8
0
  6
Continuous
 62
     7
100
AcDbCircle
 10
156.314544187085
 20
225.6492200717686
 30
0.0
 40
4.999999999999894
100
AcDbArc
 50
45.57299599919311
 51
90.0
  0
ARC
  5
22A
330
92
100
AcDbEntity
  8
0
  6
Continuous
 62
     7
100
AcDbCircle
 10
156.314544187085
 20
225.6492200717686
 30
0.0
 40
5.0
100
AcDbArc
 50
36.86989764584402
 51
45.57299599919311
  0
ARC
  5
22B
330
92
100
AcDbEntity
  8
0
  6
Continuous
 62
     7
100
AcDbCircle
 10
117.3145441870851
 20
225.6492200717686
 30
0.0
 40
5.0
100
AcDbArc
 50
90.0
 51
134.4270040008069
  0
ARC
  5
22C
330
92
100
AcDbEntity
  8
0
  6
Continuous
 62
     7
100
AcDbCircle
 10
117.3145441870851
 20
225.6492200717686
 30
0.0
 40
4.999999999999894
100
AcDbArc
 50
134.4270040008069
 51
143.130102354156
  0
ARC
  5
22D
330
92
100
AcDbEntity
  8
0
  6
Continuous
 62
     7
100
AcDbCircle
 10
341.814544187085
 20
225.6492200717686
 30
0.0
 40
4.999999999999894
100
AcDbArc
 50
45.57299599919311
 51
90.0
  0
ARC
  5
22E
330
92
100
AcDbEntity
  8
0
  6
Continuous
 62
     7
100
AcDbCircle
 10
341.814544187085
 20
225.6492200717686
 30
0.0
 40
5.0
100
AcDbArc
 50
36.86989764584402
 51
45.57299599919311
  0
ARC
  5
22F
330
92
100
AcDbEntity
  8
0
  6
Continuous
 62
     7
100
AcDbCircle
 10
302.8145441870851
 20
225.6492200717686
 30
0.0
 40
5.0
100
AcDbArc
 50
90.0
 51
134.4270040008069
  0
ARC
  5
230
330
92
100
AcDbEntity
  8
0
  6
Continuous
 62
     7
100
AcDbCircle
 10
302.8145441870851
 20
225.6492200717686
 30
0.0
 40
4.999999999999894
100
AcDbArc
 50
134.4270040008069
 51
143.130102354156
  0
ENDBLK
  5
94
330
92
100
AcDbEntity
  8
0
100
AcDbBlockEnd
  0
BLOCK
  5
96
330
95
100
AcDbEntity
  8
0
100
AcDbBlockBegin
  2
_3
 70
     0
 10
108.564544187085
 20
198.6492200717684
 30
0.0
  3
_3
  1

  0
LINE
  5
231
330
95
100
AcDbEntity
  8
0
  6
Continuous
 62
     7
100
AcDbLine
 10
136.814544187085
 20
223.6492200717686
 30
0.0
 11
136.064544187085
 21
223.6492200717686
 31
0.0
  0
LINE
  5
232
330
95
100
AcDbEntity
  8
0
  6
Continuous
 62
     7
100
AcDbLine
 10
136.064544187085
 20
223.6492200717686
 30
0.0
 11
135.814544187085
 21
222.6492200717686
 31
0.0
  0
LINE
  5
233
330
95
100
AcDbEntity
  8
0
  6
Continuous
 62
     7
100
AcDbLine
 10
137.5645441870849
 20
223.6492200717686
 30
0.0
 11
136.814544187085
 21
223.6492200717686
 31
0.0
  0
LINE
  5
234
330
95
100
AcDbEntity
  8
0
  6
Continuous
 62
     7
100
AcDbLine
 10
137.8145441870849
 20
222.6492200717686
 30
0.0
 11
137.5645441870849
 21
223.6492200717686
 31
0.0
  0
LINE
  5
235
330
95
100
AcDbEntity
  8
1
  6
Continuous
 62
     7
100
AcDbLine
 10
136.814544187085
 20
200.6492200717685
 30
0.0
 11
109.444544187085
 21
200.6492200717685
 31
0.0
  0
LINE
  5
236
330
95
100
AcDbEntity
  8
1
  6
Continuous
 62
     7
100
AcDbLine
 10
136.814544187085
 20
198.6492200717685
 30
0.0
 11
110.314544187085
 21
198.6492200717685
 31
0.0
  0
LINE
  5
237
330
95
100
AcDbEntity
  8
1
  6
Continuous
 62
     7
100
AcDbLine
 10
136.814544187085
 20
222.6492200717686
 30
0.0
 11
108.814544187085
 21
222.6492200717686
 31
0.0
  0
LINE
  5
238
330
95
100
AcDbEntity
  8
0
  6
Continuous
 62
     7
100
AcDbLine
 10
109.444544187085
 20
200.6492200717685
 30
0.0
 11
108.814544187085
 21
222.6492200717686
 31
0.0
  0
LINE
  5
239
330
95
100
AcDbEntity
  8
0
  6
Continuous
 62
     7
100
AcDbLine
 10
109.854544187085
 20
222.6492200717686
 30
0.0
 11
109.854544187085
 21
223.6492200717686
 31
0.0
  0
LINE
  5
23A
330
95
100
AcDbEntity
  8
0
  6
Continuous
 62
     7
100
AcDbLine
 10
109.854544187085
 20
223.6492200717686
 30
0.0
 11
111.314544187085
 21
223.6492200717686
 31
0.0
  0
LINE
  5
23B
330
95
100
AcDbEntity
  8
0
  6
Continuous
 62
     7
100
AcDbLine
 10
111.314544187085
 20
223.6492200717686
 30
0.0
 11
111.334544187085
 21
222.6492200717686
 31
0.0
  0
LINE
  5
23C
330
95
100
AcDbEntity
  8
0
  6
Continuous
 62
     7
100
AcDbLine
 10
110.314544187085
 20
198.6492200717685
 30
0.0
 11
109.444544187085
 21
200.6492200717685
 31
0.0
  0
LINE
  5
23D
330
95
100
AcDbEntity
  8
1
  6
Continuous
 62
     7
100
AcDbLine
 10
164.184544187085
 20
200.6492200717685
 30
0.0
 11
136.814544187085
 21
200.6492200717685
 31
0.0
  0
LINE
  5
23E
330
95
100
AcDbEntity
  8
1
  6
Continuous
 62
     7
100
AcDbLine
 10
163.314544187085
 20
198.6492200717685
 30
0.0
 11
136.814544187085
 21
198.6492200717685
 31
0.0
  0
LINE
  5
23F
330
95
100
AcDbEntity
  8
1
  6
Continuous
 62
     7
100
AcDbLine
 10
164.814544187085
 20
222.6492200717686
 30
0.0
 11
136.814544187085
 21
222.6492200717686
 31
0.0
  0
LINE
  5
240
330
95
100
AcDbEntity
  8
0
  6
Continuous
 62
     7
100
AcDbLine
 10
164.814544187085
 20
222.6492200717686
 30
0.0
 11
164.184544187085
 21
200.6492200717685
 31
0.0
  0
LINE
  5
241
330
95
100
AcDbEntity
  8
0
  6
Continuous
 62
     7
100
AcDbLine
 10
163.774544187085
 20
223.6492200717686
 30
0.0
 11
163.774544187085
 21
222.6492200717686
 31
0.0
  0
LINE
  5
242
330
95
100
AcDbEntity
  8
0
  6
Continuous
 62
     7
100
AcDbLine
 10
162.314544187085
 20
223.6492200717686
 30
0.0
 11
163.774544187085
 21
223.6492200717686
 31
0.0
  0
LINE
  5
243
330
95
100
AcDbEntity
  8
0
  6
Continuous
 62
     7
100
AcDbLine
 10
162.2945441870849
 20
222.6492200717686
 30
0.0
 11
162.314544187085
 21
223.6492200717686
 31
0.0
  0
LINE
  5
244
330
95
100
AcDbEntity
  8
0
  6
Continuous
 62
     7
100
AcDbLine
 10
164.184544187085
 20
200.6492200717685
 30
0.0
 11
163.314544187085
 21
198.6492200717685
 31
0.0
  0
LINE
  5
245
330
95
100
AcDbEntity
  8
0
  6
Continuous
 62
     7
100
AcDbLine
 10
322.314544187085
 20
223.6492200717686
 30
0.0
 11
321.564544187085
 21
223.6492200717686
 31
0.0
  0
LINE
  5
246
330
95
100
AcDbEntity
  8
0
  6
Continuous
 62
     7
100
AcDbLine
 10
321.564544187085
 20
223.6492200717686
 30
0.0
 11
321.314544187085
 21
222.6492200717686
 31
0.0
  0
LINE
  5
247
330
95
100
AcDbEntity
  8
0
  6
Continuous
 62
     7
100
AcDbLine
 10
323.0645441870848
 20
223.6492200717686
 30
0.0
 11
322.314544187085
 21
223.6492200717686
 31
0.0
  0
LINE
  5
248
330
95
100
AcDbEntity
  8
0
  6
Continuous
 62
     7
100
AcDbLine
 10
323.3145441870848
 20
222.6492200717686
 30
0.0
 11
323.0645441870848
 21
223.6492200717686
 31
0.0
  0
LINE
  5
249
330
95
100
AcDbEntity
  8
1
  6
Continuous
 62
     7
100
AcDbLine
 10
322.314544187085
 20
200.6492200717685
 30
0.0
 11
294.9445441870849
 21
200.6492200717685
 31
0.0
  0
LINE
  5
24A
330
95
100
AcDbEntity
  8
1
  6
Continuous
 62
     7
100
AcDbLine
 10
322.314544187085
 20
198.6492200717685
 30
0.0
 11
295.814544187085
 21
198.6492200717685
 31
0.0
  0
LINE
  5
24B
330
95
100
AcDbEntity
  8
1
  6
Continuous
 62
     7
100
AcDbLine
 10
322.314544187085
 20
222.6492200717686
 30
0.0
 11
294.314544187085
 21
222.6492200717686
 31
0.0
  0
LINE
  5
24C
330
95
100
AcDbEntity
  8
0
  6
Continuous
 62
     7
100
AcDbLine
 10
294.9445441870849
 20
200.6492200717685
 30
0.0
 11
294.314544187085
 21
222.6492200717686
 31
0.0
  0
LINE
  5
24D
330
95
100
AcDbEntity
  8
0
  6
Continuous
 62
     7
100
AcDbLine
 10
295.3545441870849
 20
222.6492200717686
 30
0.0
 11
295.3545441870849
 21
223.6492200717686
 31
0.0
  0
LINE
  5
24E
330
95
100
AcDbEntity
  8
0
  6
Continuous
 62
     7
100
AcDbLine
 10
295.3545441870849
 20
223.6492200717686
 30
0.0
 11
296.814544187085
 21
223.6492200717686
 31
0.0
  0
LINE
  5
24F
330
95
100
AcDbEntity
  8
0
  6
Continuous
 62
     7
100
AcDbLine
 10
296.814544187085
 20
223.6492200717686
 30
0.0
 11
296.8345441870849
 21
222.6492200717686
 31
0.0
  0
LINE
  5
250
330
95
100
AcDbEntity
  8
0
  6
Continuous
 62
     7
100
AcDbLine
 10
295.814544187085
 20
198.6492200717685
 30
0.0
 11
294.9445441870849
 21
200.6492200717685
 31
0.0
  0
LINE
  5
251
330
95
100
AcDbEntity
  8
1
  6
Continuous
 62
     7
100
AcDbLine
 10
349.684544187085
 20
200.6492200717685
 30
0.0
 11
322.314544187085
 21
200.6492200717685
 31
0.0
  0
LINE
  5
252
330
95
100
AcDbEntity
  8
1
  6
Continuous
 62
     7
100
AcDbLine
 10
348.814544187085
 20
198.6492200717685
 30
0.0
 11
322.314544187085
 21
198.6492200717685
 31
0.0
  0
LINE
  5
253
330
95
100
AcDbEntity
  8
1
  6
Continuous
 62
     7
100
AcDbLine
 10
350.314544187085
 20
222.6492200717686
 30
0.0
 11
322.314544187085
 21
222.6492200717686
 31
0.0
  0
LINE
  5
254
330
95
100
AcDbEntity
  8
0
  6
Continuous
 62
     7
100
AcDbLine
 10
350.314544187085
 20
222.6492200717686
 30
0.0
 11
349.684544187085
 21
200.6492200717685
 31
0.0
  0
LINE
  5
255
330
95
100
AcDbEntity
  8
0
  6
Continuous
 62
     7
100
AcDbLine
 10
349.274544187085
 20
223.6492200717686
 30
0.0
 11
349.274544187085
 21
222.6492200717686
 31
0.0
  0
LINE
  5
256
330
95
100
AcDbEntity
  8
0
  6
Continuous
 62
     7
100
AcDbLine
 10
347.814544187085
 20
223.6492200717686
 30
0.0
 11
349.274544187085
 21
223.6492200717686
 31
0.0
  0
LINE
  5
257
330
95
100
AcDbEntity
  8
0
  6
Continuous
 62
     7
100
AcDbLine
 10
347.794544187085
 20
222.6492200717686
 30
0.0
 11
347.814544187085
 21
223.6492200717686
 31
0.0
  0
LINE
  5
258
330
95
100
AcDbEntity
  8
0
  6
Continuous
 62
     7
100
AcDbLine
 10
349.684544187085
 20
200.6492200717685
 30
0.0
 11
348.814544187085
 21
198.6492200717685
 31
0.0
  0
ENDBLK
  5
97
330
95
100
AcDbEntity
  8
0
100
AcDbBlockEnd
  0
BLOCK
  5
277
330
26F
100
AcDbEntity
  8
0
100
AcDbBlockBegin
  2
*D24
 70
     1
 10
0.0
 20
0.0
 30
0.0
  3
*D24
  1

  0
LINE
  5
270
330
26F
100
AcDbEntity
  8
1
  6
Continuous
 62
     2
100
AcDbLine
 10
206.814544187085
 20
265.1492200717686
 30
0.0
 11
206.814544187085
 21
301.977216942969
 31
0.0
  0
LINE
  5
271
330
26F
100
AcDbEntity
  8
1
  6
Continuous
 62
     2
100
AcDbLine
 10
206.814544187085
 20
233.1492200717686
 30
0.0
 11
206.814544187085
 21
265.1492200717686
 31
0.0
  0
LINE
  5
272
330
26F
100
AcDbEntity
  8
1
  6
Continuous
 62
     2
100
AcDbLine
 10
186.814544187085
 20
265.1492200717686
 30
0.0
 11
208.814544187085
 21
265.1492200717686
 31
0.0
  0
LINE
  5
273
330
26F
100
AcDbEntity
  8
1
  6
Continuous
 62
     2
100
AcDbLine
 10
186.814544187085
 20
233.1492200717686
 30
0.0
 11
208.814544187085
 21
233.1492200717686
 31
0.0
  0
SOLID
  5
274
330
26F
100
AcDbEntity
  8
1
 62
     2
100
AcDbTrace
 10
205.8929767039732
 20
240.1492200717686
 30
0.0
 11
207.7361116701968
 21
240.1492200717686
 31
0.0
 12
206.814544187085
 22
233.1492200717686
 32
0.0
 13
206.814544187085
 23
233.1492200717686
 33
0.0
  0
SOLID
  5
275
330
26F
100
AcDbEntity
  8
1
 62
     2
100
AcDbTrace
 10
207.7361116701968
 20
258.1492200717686
 30
0.0
 11
205.8929767039732
 21
258.1492200717686
 31
0.0
 12
206.814544187085
 22
265.1492200717686
 32
0.0
 13
206.814544187085
 23
265.1492200717686
 33
0.0
  0
MTEXT
  5
276
330
26F
100
AcDbEntity
  8
1
 62
     7
100
AcDbMText
 10
204.814544187085
 20
274.257216942969
 30
0.0
 40
7.0
 41
0.0
 71
     7
 72
     1
  1
\C7;内径{\Fgdt;n}\C7;32
  7
CONVERTER_11
 11
0.0
 21
1.0
 31
0.0
 73
     1
 44
0.45454545454545
  0
ENDBLK
  5
278
330
26F
100
AcDbEntity
  8
0
100
AcDbBlockEnd
  0
BLOCK
  5
282
330
27B
100
AcDbEntity
  8
0
100
AcDbBlockBegin
  2
*D25
 70
     1
 10
0.0
 20
0.0
 30
0.0
  3
*D25
  1

  0
LINE
  5
27C
330
27B
100
AcDbEntity
  8
1
  6
Continuous
 62
     2
100
AcDbLine
 10
136.814544187085
 20
302.8992200717686
 30
0.0
 11
186.814544187085
 21
302.8992200717686
 31
0.0
  0
LINE
  5
27D
330
27B
100
AcDbEntity
  8
1
  6
Continuous
 62
     2
100
AcDbLine
 10
186.814544187085
 20
265.1492200717686
 30
0.0
 11
186.814544187085
 21
304.8992200717686
 31
0.0
  0
LINE
  5
27E
330
27B
100
AcDbEntity
  8
1
  6
Continuous
 62
     2
100
AcDbLine
 10
136.814544187085
 20
280.313314211118
 30
0.0
 11
136.814544187085
 21
304.8992200717686
 31
0.0
  0
SOLID
  5
27F
330
27B
100
AcDbEntity
  8
1
 62
     2
100
AcDbTrace
 10
143.814544187085
 20
303.8207875548803
 30
0.0
 11
143.814544187085
 21
301.9776525886568
 31
0.0
 12
136.814544187085
 22
302.8992200717686
 32
0.0
 13
136.814544187085
 23
302.8992200717686
 33
0.0
  0
SOLID
  5
280
330
27B
100
AcDbEntity
  8
1
 62
     2
100
AcDbTrace
 10
179.814544187085
 20
301.9776525886568
 30
0.0
 11
179.814544187085
 21
303.8207875548803
 31
0.0
 12
186.814544187085
 22
302.8992200717686
 32
0.0
 13
186.814544187085
 23
302.8992200717686
 33
0.0
  0
MTEXT
  5
281
330
27B
100
AcDbEntity
  8
1
 62
     7
100
AcDbMText
 10
156.564544187085
 20
304.8992200717686
 30
0.0
 40
7.0
 41
0.0
 71
     7
 72
     1
  1
50
  7
CONVERTER_12
 11
0.9999999999970619
 21
2.424068405545306E-6
 31
0.0
 73
     1
 44
0.60024009603842
  0
ENDBLK
  5
283
330
27B
100
AcDbEntity
  8
0
100
AcDbBlockEnd
  0
BLOCK
  5
28D
330
286
100
AcDbEntity
  8
0
100
AcDbBlockBegin
  2
*D26
 70
     1
 10
0.0
 20
0.0
 30
0.0
  3
*D26
  1

  0
LINE
  5
287
330
286
100
AcDbEntity
  8
1
  6
Continuous
 62
     2
100
AcDbLine
 10
94.31454418708492
 20
162.6492200717685
 30
0.0
 11
179.314544187085
 21
162.6492200717685
 31
0.0
  0
LINE
  5
288
330
286
100
AcDbEntity
  8
1
  6
Continuous
 62
     2
100
AcDbLine
 10
179.314544187085
 20
223.6492200717685
 30
0.0
 11
179.314544187085
 21
160.6492200717685
 31
0.0
  0
LINE
  5
289
330
286
100
AcDbEntity
  8
1
  6
Continuous
 62
     2
100
AcDbLine
 10
94.3145441870849
 20
223.6492200717685
 30
0.0
 11
94.3145441870849
 21
160.6492200717685
 31
0.0
  0
SOLID
  5
28A
330
286
100
AcDbEntity
  8
1
 62
     2
100
AcDbTrace
 10
101.3145441870849
 20
163.5707875548803
 30
0.0
 11
101.3145441870849
 21
161.7276525886567
 31
0.0
 12
94.31454418708492
 22
162.6492200717685
 32
0.0
 13
94.31454418708492
 23
162.6492200717685
 33
0.0
  0
SOLID
  5
28B
330
286
100
AcDbEntity
  8
1
 62
     2
100
AcDbTrace
 10
172.314544187085
 20
161.7276525886567
 30
0.0
 11
172.314544187085
 21
163.5707875548803
 31
0.0
 12
179.314544187085
 22
162.6492200717685
 32
0.0
 13
179.314544187085
 23
162.6492200717685
 33
0.0
  0
MTEXT
  5
28C
330
286
100
AcDbEntity
  8
1
 62
     7
100
AcDbMText
 10
130.0245441871019
 20
164.6492061576159
 30
0.0
 40
7.0
 41
0.0
 71
     7
 72
     1
  1
\C7;{\Fgdt;n}\C7;85
  7
CONVERTER_12
 11
0.9999999999970619
 21
2.424068405545306E-6
 31
0.0
 73
     1
 44
0.60024009603842
  0
ENDBLK
  5
28E
330
286
100
AcDbEntity
  8
0
100
AcDbBlockEnd
  0
BLOCK
  5
299
330
291
100
AcDbEntity
  8
0
100
AcDbBlockBegin
  2
*D27
 70
     1
 10
0.0
 20
0.0
 30
0.0
  3
*D27
  1

  0
LINE
  5
292
330
291
100
AcDbEntity
  8
1
  6
Continuous
 62
     2
100
AcDbLine
 10
164.814544187085
 20
178.6492200717685
 30
0.0
 11
272.179199036975
 21
178.6492200717685
 31
0.0
  0
LINE
  5
293
330
291
100
AcDbEntity
  8
1
  6
Continuous
 62
     2
100
AcDbLine
 10
108.814544187085
 20
178.6492200717685
 30
0.0
 11
164.814544187085
 21
178.6492200717685
 31
0.0
  0
LINE
  5
294
330
291
100
AcDbEntity
  8
1
  6
Continuous
 62
     2
100
AcDbLine
 10
164.814544187085
 20
222.6492200717685
 30
0.0
 11
164.814544187085
 21
176.6492200717685
 31
0.0
  0
LINE
  5
295
330
291
100
AcDbEntity
  8
1
  6
Continuous
 62
     2
100
AcDbLine
 10
108.814544187085
 20
222.6492200717685
 30
0.0
 11
108.814544187085
 21
176.6492200717685
 31
0.0
  0
SOLID
  5
296
330
291
100
AcDbEntity
  8
1
 62
     2
100
AcDbTrace
 10
115.814544187085
 20
179.5707875548803
 30
0.0
 11
115.814544187085
 21
177.7276525886567
 31
0.0
 12
108.814544187085
 22
178.6492200717685
 32
0.0
 13
108.814544187085
 23
178.6492200717685
 33
0.0
  0
SOLID
  5
297
330
291
100
AcDbEntity
  8
1
 62
     2
100
AcDbTrace
 10
157.814544187085
 20
177.7276525886567
 30
0.0
 11
157.814544187085
 21
179.5707875548803
 31
0.0
 12
164.814544187085
 22
178.6492200717685
 32
0.0
 13
164.814544187085
 23
178.6492200717685
 33
0.0
  0
MTEXT
  5
298
330
291
100
AcDbEntity
  8
1
 62
     7
100
AcDbMText
 10
188.354199036975
 20
180.6492200717685
 30
0.0
 40
7.0
 41
0.0
 71
     7
 72
     1
  1
{\Fgdt;n}51(VP)・{\Fgdt;n}56(VU)
  7
CONVERTER_11
 11
0.9999999999970619
 21
2.424068405545306E-6
 31
0.0
 73
     1
 44
0.45454545454545
  0
ENDBLK
  5
29A
330
291
100
AcDbEntity
  8
0
100
AcDbBlockEnd
  0
BLOCK
  5
2A4
330
29D
100
AcDbEntity
  8
0
100
AcDbBlockBegin
  2
*D28
 70
     1
 10
0.0
 20
0.0
 30
0.0
  3
*D28
  1

  0
LINE
  5
29E
330
29D
100
AcDbEntity
  8
1
  6
Continuous
 62
     2
100
AcDbLine
 10
259.8145441870848
 20
198.6492200717685
 30
0.0
 11
259.8145441870848
 21
223.6492200717685
 31
0.0
  0
LINE
  5
29F
330
29D
100
AcDbEntity
  8
1
  6
Continuous
 62
     2
100
AcDbLine
 10
279.8145441870848
 20
223.6492200717685
 30
0.0
 11
257.8145441870848
 21
223.6492200717685
 31
0.0
  0
LINE
  5
2A0
330
29D
100
AcDbEntity
  8
1
  6
Continuous
 62
     2
100
AcDbLine
 10
295.8145441870849
 20
198.6492200717685
 30
0.0
 11
257.8145441870848
 21
198.6492200717685
 31
0.0
  0
SOLID
  5
2A1
330
29D
100
AcDbEntity
  8
1
 62
     2
100
AcDbTrace
 10
258.8929767039731
 20
205.6492200717685
 30
0.0
 11
260.7361116701966
 21
205.6492200717685
 31
0.0
 12
259.8145441870848
 22
198.6492200717685
 32
0.0
 13
259.8145441870848
 23
198.6492200717685
 33
0.0
  0
SOLID
  5
2A2
330
29D
100
AcDbEntity
  8
1
 62
     2
100
AcDbTrace
 10
260.7361116701966
 20
216.6492200717685
 30
0.0
 11
258.8929767039731
 21
216.6492200717685
 31
0.0
 12
259.8145441870848
 22
223.6492200717685
 32
0.0
 13
259.8145441870848
 23
223.6492200717685
 33
0.0
  0
MTEXT
  5
2A3
330
29D
100
AcDbEntity
  8
1
 62
     7
100
AcDbMText
 10
257.8145441870848
 20
205.3992200717685
 30
0.0
 40
7.0
 41
0.0
 71
     7
 72
     1
  1
25
  7
CONVERTER_12
 11
0.0
 21
1.0
 31
0.0
 73
     1
 44
0.60024009603842
  0
ENDBLK
  5
2A5
330
29D
100
AcDbEntity
  8
0
100
AcDbBlockEnd
  0
BLOCK
  5
2B0
330
2A8
100
AcDbEntity
  8
0
100
AcDbBlockBegin
  2
*D29
 70
     1
 10
0.0
 20
0.0
 30
0.0
  3
*D29
  1

  0
LINE
  5
2A9
330
2A8
100
AcDbEntity
  8
1
  6
Continuous
 62
     2
100
AcDbLine
 10
222.814544187085
 20
249.1492200717686
 30
0.0
 11
222.814544187085
 21
198.6492200717686
 31
0.0
  0
LINE
  5
2AA
330
2A8
100
AcDbEntity
  8
1
  6
Continuous
 62
     2
100
AcDbLine
 10
163.314544187085
 20
198.6492200717686
 30
0.0
 11
224.814544187085
 21
198.6492200717686
 31
0.0
  0
LINE
  5
2AB
330
2A8
100
AcDbEntity
  8
1
  6
Continuous
 62
     2
100
AcDbLine
 10
210.4736522568144
 20
249.1492200717686
 30
0.0
 11
224.814544187085
 21
249.1492200717686
 31
0.0
  0
LINE
  5
2AC
330
2A8
100
AcDbEntity
  8
1
  6
Continuous
 62
     2
100
AcDbLine
 10
189.721375131009
 20
249.1492200717686
 30
0.0
 11
193.3630595775685
 21
249.1492200717686
 31
0.0
  0
SOLID
  5
2AD
330
2A8
100
AcDbEntity
  8
1
 62
     2
100
AcDbTrace
 10
223.7361116701968
 20
242.1492200717686
 30
0.0
 11
221.8929767039732
 21
242.1492200717686
 31
0.0
 12
222.814544187085
 22
249.1492200717686
 32
0.0
 13
222.814544187085
 23
249.1492200717686
 33
0.0
  0
SOLID
  5
2AE
330
2A8
100
AcDbEntity
  8
1
 62
     2
100
AcDbTrace
 10
221.8929767039732
 20
205.6492200717686
 30
0.0
 11
223.7361116701968
 21
205.6492200717686
 31
0.0
 12
222.814544187085
 22
198.6492200717686
 32
0.0
 13
222.814544187085
 23
198.6492200717686
 33
0.0
  0
MTEXT
  5
2AF
330
2A8
100
AcDbEntity
  8
1
 62
     7
100
AcDbMText
 10
220.814544187085
 20
219.6992200717686
 30
0.0
 40
7.0
 41
0.0
 71
     7
 72
     1
  1
51
  7
CONVERTER_12
 11
0.0
 21
1.0
 31
0.0
 73
     1
 44
0.60024009603842
  0
ENDBLK
  5
2B1
330
2A8
100
AcDbEntity
  8
0
100
AcDbBlockEnd
  0
ENDSEC
  0
SECTION
  2
ENTITIES
  0
INSERT
  5
98
330
1F
100
AcDbEntity
  8
1
100
AcDbBlockReference
  2
開示A4
 10
0.0
 20
0.0
 30
0.0
 41
2.0
 42
2.0
 43
2.0
  0
INSERT
  5
99
330
1F
100
AcDbEntity
  8
1
100
AcDbBlockReference
  2
5__5
 10
166.3156569659265
 20
227.8140530247904
 30
0.0
  0
INSERT
  5
9A
330
1F
100
AcDbEntity
  8
1
100
AcDbBlockReference
  2
5__9
 10
166.564544187085
 20
378.8492200717685
 30
0.0
  0
INSERT
  5
9B
330
1F
100
AcDbEntity
  8
0
100
AcDbBlockReference
  2
lock__10
 10
113.314544187085
 20
223.6492200717686
 30
0.0
  0
INSERT
  5
9C
330
1F
100
AcDbEntity
  8
1
100
AcDbBlockReference
  2
tsuba__11
 10
286.814544187085
 20
232.3643677535464
 30
0.0
  0
INSERT
  5
9D
330
1F
100
AcDbEntity
  8
1
100
AcDbBlockReference
  2
elbo__12
 10
108.8316967864045
 20
186.1142249325269
 30
0.0
  0
INSERT
  5
9E
330
1F
100
AcDbEntity
  8
0
100
AcDbBlockReference
  2
D21-30
 10
164.3156569659266
 20
227.1492200717686
 30
0.0
  0
INSERT
  5
9F
330
1F
100
AcDbEntity
  8
1
100
AcDbBlockReference
  2
elbo__17
 10
108.8316967864045
 20
186.1142249325269
 30
0.0
  0
INSERT
  5
A0
330
1F
100
AcDbEntity
  8
1
100
AcDbBlockReference
  2
tsuba__18
 10
286.814544187085
 20
232.3643677535463
 30
0.0
  0
INSERT
  5
A1
330
1F
100
AcDbEntity
  8
0
100
AcDbBlockReference
  2
lock__19
 10
113.314544187085
 20
223.6492200717686
 30
0.0
  0
INSERT
  5
A2
330
1F
100
AcDbEntity
  8
0
100
AcDbBlockReference
  2
_3
 10
108.564544187085
 20
198.6492200717684
 30
0.0
  0
LINE
  5
259
330
1F
100
AcDbEntity
  8
1
  6
DASH_CENTER
 62
     2
100
AcDbLine
 10
356.564544187085
 20
262.3992200717685
 30
0.0
 11
356.564544187085
 21
288.8992200717687
 31
0.0
  0
LINE
  5
25A
330
1F
100
AcDbEntity
  8
1
  6
DASH_CENTER
 62
     2
100
AcDbLine
 10
303.814544187085
 20
275.6492200717685
 30
0.0
 11
369.814544187085
 21
275.6492200717685
 31
0.0
  0
LINE
  5
25B
330
1F
100
AcDbEntity
  8
1
  6
DASH_CENTER
 62
     2
100
AcDbLine
 10
193.814544187085
 20
275.6492200717686
 30
0.0
 11
161.814544187085
 21
275.6492200717686
 31
0.0
  0
LINE
  5
25C
330
1F
100
AcDbEntity
  8
1
  6
DASH_CENTER
 62
     2
100
AcDbLine
 10
88.31454418708485
 20
398.6492200717686
 30
0.0
 11
192.814544187085
 21
398.6492200717686
 31
0.0
  0
LINE
  5
25D
330
1F
100
AcDbEntity
  8
1
  6
DASH_CENTER
 62
     2
100
AcDbLine
 10
136.814544187085
 20
447.128256850356
 30
0.0
 11
136.814544187085
 21
350.1492200717685
 31
0.0
  0
LINE
  5
25E
330
1F
100
AcDbEntity
  8
1
  6
DASH_CENTER
 62
     2
100
AcDbLine
 10
177.814544187085
 20
227.1492200717686
 30
0.0
 11
177.814544187085
 21
284.8896402631218
 31
0.0
  0
LINE
  5
25F
330
1F
100
AcDbEntity
  8
1
  6
DASH_CENTER
 62
     2
100
AcDbLine
 10
322.314544187085
 20
250.6710157597076
 30
0.0
 11
322.314544187085
 21
192.6492200717686
 31
0.0
  0
LINE
  5
260
330
1F
100
AcDbEntity
  8
1
  6
DASH_CENTER
 62
     2
100
AcDbLine
 10
319.8687186115769
 20
249.1492200717686
 30
0.0
 11
347.6863528430889
 21
249.1492200717686
 31
0.0
  0
LINE
  5
261
330
1F
100
AcDbEntity
  8
1
  6
DASH_CENTER
 62
     2
100
AcDbLine
 10
296.3539975835097
 20
249.1492200717686
 30
0.0
 11
319.8687186115769
 21
249.1492200717686
 31
0.0
  0
LINE
  5
262
330
1F
100
AcDbEntity
  8
1
  6
DASH_CENTER
 62
     2
100
AcDbLine
 10
322.314544187085
 20
281.6958779070399
 30
0.0
 11
322.314544187085
 21
250.6710157597076
 31
0.0
  0
LINE
  5
263
330
1F
100
AcDbEntity
  8
1
  6
DASH_CENTER
 62
     2
100
AcDbLine
 10
116.9958390775407
 20
249.1492200717686
 30
0.0
 11
189.721375131009
 21
249.1492200717686
 31
0.0
  0
LINE
  5
264
330
1F
100
AcDbEntity
  8
1
  6
DASH_CENTER
 62
     2
100
AcDbLine
 10
136.814544187085
 20
280.313314211118
 30
0.0
 11
136.814544187085
 21
192.6492200717686
 31
0.0
  0
LINE
  5
265
330
1F
100
AcDbEntity
  8
1
  6
DASH_CENTER
 62
     2
100
AcDbLine
 10
177.814544187085
 20
436.6492200717687
 30
0.0
 11
177.814544187085
 21
382.6492200717686
 31
0.0
  0
SOLID
  5
266
330
1F
100
AcDbEntity
  8
0
 62
     2
100
AcDbTrace
 10
345.8002139698335
 20
267.0478259868334
 30
0.0
 11
344.2040122664806
 21
266.1262585037216
 31
0.0
 12
341.502113118157
 22
272.6492200717685
 32
0.0
 13
341.502113118157
 23
272.6492200717685
 33
0.0
  0
LEADER
  5
267
330
1F
100
AcDbEntity
  8
0
  6
Continuous
 62
     2
100
AcDbLeader
  3
Standard
 71
     0
 76
     3
 10
341.502113118157
 20
272.6492200717685
 30
0.0
 10
355.0698444441132
 20
249.1492200717686
 30
0.0
 10
381.1475820514161
 20
249.1492200717686
 30
0.0
  0
MTEXT
  5
268
330
1F
100
AcDbEntity
  8
1
 62
     7
100
AcDbMText
 10
68.0
 20
68.00000000000001
 30
0.0
 40
7.0
 41
0.0
 71
     4
 72
     1
  1
VP・VUパイプ兼用
  7
CONVERTER_11
 73
     1
 44
0.54545454545455
  0
MTEXT
  5
26A
330
1F
100
AcDbEntity
  8
1
 62
     7
100
AcDbMText
 10
187.5
 20
34.0
 30
0.0
 40
7.0
 41
0.0
 71
     5
 72
     1
  1
2
  7
CONVERTER_12
 73
     1
 44
1.32052821128451
  0
MTEXT
  5
26B
330
1F
100
AcDbEntity
  8
1
 62
     7
100
AcDbMText
 10
170.5
 20
34.0
 30
0.0
 40
7.0
 41
0.0
 71
     5
 72
     1
  1
1
  7
CONVERTER_12
 73
     1
 44
1.32052821128451
  0
MTEXT
  5
26C
330
1F
100
AcDbEntity
  8
1
 62
     7
100
AcDbMText
 10
114.0
 20
28.5
 30
0.0
 40
7.0
 41
0.0
 71
     5
 72
     1
  1
H551-50
  7
CONVERTER_12
 73
     1
 44
1.32052821128451
  0
MTEXT
  5
26D
330
1F
100
AcDbEntity
  8
1
 62
     7
100
AcDbMText
 10
114.0
 20
45.50000000000002
 30
0.0
 40
7.0
 41
0.0
 71
     5
 72
     1
  1
洗濯機排水口
  7
CONVERTER_11
 73
     1
 44
1.0
  0
MTEXT
  5
26E
330
1F
100
AcDbEntity
  8
0
 62
     7
100
AcDbMText
 10
368.6402935462353
 20
255.1492200717686
 30
0.0
 40
7.0
 41
0.0
 71
     5
 72
     1
  1
M6X1
  7
CONVERTER_12
 73
     1
 44
1.32052821128451
  0
DIMENSION
  5
27A
330
1F
100
AcDbEntity
  8
1
100
AcDbDimension
  2
*D24
 10
206.814544187085
 20
233.1492200717686
 30
0.0
 11
201.314544187085
 21
285.527216942969
 31
0.0
 70
    33
  1
<>
 71
     5
 42
-1.0
 53
90.0
  3
ME10_DIM_10
100
AcDbAlignedDimension
 13
186.814544187085
 23
265.1492200717686
 33
0.0
 14
186.814544187085
 24
233.1492200717686
 34
0.0
  0
DIMENSION
  5
285
330
1F
100
AcDbEntity
  8
1
100
AcDbDimension
  2
*D25
 10
136.814544187085
 20
302.8992200717686
 30
0.0
 11
161.814544187085
 21
308.3992200717686
 31
0.0
 70
    32
  1
<>
 71
     5
 42
-1.0
 53
0.00013888888889
  3
ME10_DIM_11
100
AcDbAlignedDimension
 13
186.814544187085
 23
265.1492200717686
 33
0.0
 14
136.814544187085
 24
280.313314211118
 34
0.0
100
AcDbRotatedDimension
  0
DIMENSION
  5
290
330
1F
100
AcDbEntity
  8
1
100
AcDbDimension
  2
*D26
 10
94.31454418708492
 20
162.6492200717685
 30
0.0
 11
136.814544187085
 21
168.1492200717685
 31
0.0
 70
    33
  1
<>
 71
     5
 42
-1.0
 53
0.00013888888889
  3
ME10_DIM_12
100
AcDbAlignedDimension
 13
179.314544187085
 23
223.6492200717686
 33
0.0
 14
94.31454418708485
 24
223.6492200717686
 34
0.0
  0
DIMENSION
  5
29C
330
1F
100
AcDbEntity
  8
1
100
AcDbDimension
  2
*D27
 10
108.814544187085
 20
178.6492200717685
 30
0.0
 11
230.266699036975
 21
184.1492200717685
 31
0.0
 70
    32
  1
51(VP)・56(VU)
 71
     5
 42
-1.0
 53
0.00013888888889
  3
ME10_DIM_13
100
AcDbAlignedDimension
 13
164.814544187085
 23
222.6492200717686
 33
0.0
 14
108.814544187085
 24
222.6492200717686
 34
0.0
100
AcDbRotatedDimension
  0
DIMENSION
  5
2A7
330
1F
100
AcDbEntity
  8
1
100
AcDbDimension
  2
*D28
 10
259.8145441870848
 20
198.6492200717685
 30
0.0
 11
254.3145441870848
 21
210.6492200717685
 31
0.0
 70
    32
  1
<>
 71
     5
 42
-1.0
 53
90.0
  3
ME10_DIM_14
100
AcDbAlignedDimension
 13
279.8145441870848
 23
223.6492200717686
 33
0.0
 14
295.814544187085
 24
198.6492200717685
 34
0.0
 50
90.0
100
AcDbRotatedDimension
  0
DIMENSION
  5
2B3
330
1F
100
AcDbEntity
  8
1
100
AcDbDimension
  2
*D29
 10
222.814544187085
 20
249.1492200717686
 30
0.0
 11
217.314544187085
 21
223.8992200717686
 31
0.0
 70
    32
  1
51
 71
     5
 42
-1.0
 53
90.0
  3
ME10_DIM_15
100
AcDbAlignedDimension
 13
163.314544187085
 23
198.6492200717685
 33
0.0
 14
189.721375131009
 24
249.1492200717686
 34
0.0
 50
90.0
100
AcDbRotatedDimension
  0
ENDSEC
  0
SECTION
  2
OBJECTS
  0
DICTIONARY
  5
C
330
0
100
AcDbDictionary
281
     1
  3
ACAD_GROUP
350
D
  3
ACAD_LAYOUT
350
1A
  3
ACAD_MATERIAL
350
3B
  3
ACAD_MLEADERSTYLE
350
2B6
  3
ACAD_MLINESTYLE
350
17
  3
ACAD_PLOTSETTINGS
350
19
  3
ACAD_PLOTSTYLENAME
350
E
  3
ACAD_VISUALSTYLE
350
2A
  3
AcDbVariableDictionary
350
2B4
  0
DICTIONARY
  5
D
102
{ACAD_REACTORS
330
C
102
}
330
C
100
AcDbDictionary
281
     1
  0
DICTIONARY
  5
1A
102
{ACAD_REACTORS
330
C
102
}
330
C
100
AcDbDictionary
281
     1
  3
Layout1
350
1E
  3
Layout2
350
26
  3
Model
350
22
  0
DICTIONARY
  5
3B
102
{ACAD_REACTORS
330
C
102
}
330
C
100
AcDbDictionary
281
     1
  3
ByBlock
350
3D
  3
ByLayer
350
3C
  3
Global
350
3E
  0
DICTIONARY
  5
2B6
102
{ACAD_REACTORS
330
C
102
}
330
C
100
AcDbDictionary
281
     1
  0
DICTIONARY
  5
17
102
{ACAD_REACTORS
330
C
102
}
330
C
100
AcDbDictionary
281
     1
  3
Standard
350
18
  0
DICTIONARY
  5
19
102
{ACAD_REACTORS
330
C
102
}
330
C
100
AcDbDictionary
281
     1
  0
ACDBDICTIONARYWDFLT
  5
E
102
{ACAD_REACTORS
330
C
102
}
330
C
100
AcDbDictionary
281
     1
  3
Normal
350
F
100
AcDbDictionaryWithDefault
340
F
  0
DICTIONARY
  5
2A
102
{ACAD_REACTORS
330
C
102
}
330
C
100
AcDbDictionary
281
     1
  3
2dWireframe
350
2F
  3
3D Hidden
350
31
  3
3dWireframe
350
30
  3
Basic
350
32
  3
Brighten
350
36
  3
ColorChange
350
3A
  3
Conceptual
350
34
  3
Dim
350
35
  3
Facepattern
350
39
  3
Flat
350
2B
  3
FlatWithEdges
350
2C
  3
Gouraud
350
2D
  3
GouraudWithEdges
350
2E
  3
Linepattern
350
38
  3
Realistic
350
33
  3
Thicken
350
37
  0
DICTIONARY
  5
2B4
102
{ACAD_REACTORS
330
C
102
}
330
C
100
AcDbDictionary
281
     1
  3
DIMASSOC
350
2B7
  3
HIDETEXT
350
2B8
  0
LAYOUT
  5
1E
102
{ACAD_REACTORS
330
1A
102
}
330
1A
100
AcDbPlotSettings
  1

  2
none_device
  4

  6

 40
0.0
 41
0.0
 42
0.0
 43
0.0
 44
0.0
 45
0.0
 46
0.0
 47
0.0
 48
0.0
 49
0.0
140
0.0
141
0.0
142
1.0
143
1.0
 70
   688
 72
     0
 73
     0
 74
     5
  7

 75
    16
147
1.0
148
0.0
149
0.0
100
AcDbLayout
  1
Layout1
 70
     1
 71
     1
 10
0.0
 20
0.0
 11
12.0
 21
9.0
 12
0.0
 22
0.0
 32
0.0
 14
1.00000000000000E+20
 24
1.00000000000000E+20
 34
1.00000000000000E+20
 15
-1.00000000000000E+20
 25
-1.00000000000000E+20
 35
-1.00000000000000E+20
146
0.0
 13
0.0
 23
0.0
 33
0.0
 16
1.0
 26
0.0
 36
0.0
 17
0.0
 27
1.0
 37
0.0
 76
     0
330
1B
  0
LAYOUT
  5
26
102
{ACAD_REACTORS
330
1A
102
}
330
1A
100
AcDbPlotSettings
  1

  2
none_device
  4

  6

 40
0.0
 41
0.0
 42
0.0
 43
0.0
 44
0.0
 45
0.0
 46
0.0
 47
0.0
 48
0.0
 49
0.0
140
0.0
141
0.0
142
1.0
143
1.0
 70
   688
 72
     0
 73
     0
 74
     5
  7

 75
    16
147
1.0
148
0.0
149
0.0
100
AcDbLayout
  1
Layout2
 70
     1
 71
     2
 10
0.0
 20
0.0
 11
0.0
 21
0.0
 12
0.0
 22
0.0
 32
0.0
 14
0.0
 24
0.0
 34
0.0
 15
0.0
 25
0.0
 35
0.0
146
0.0
 13
0.0
 23
0.0
 33
0.0
 16
1.0
 26
0.0
 36
0.0
 17
0.0
 27
1.0
 37
0.0
 76
     0
330
23
  0
LAYOUT
  5
22
102
{ACAD_REACTORS
330
1A
102
}
330
1A
100
AcDbPlotSettings
  1

  2
none_device
  4

  6

 40
0.0
 41
0.0
 42
0.0
 43
0.0
 44
0.0
 45
0.0
 46
0.0
 47
0.0
 48
0.0
 49
0.0
140
0.0
141
0.0
142
1.0
143
1.0
 70
  1712
 72
     0
 73
     0
 74
     0
  7

 75
     0
147
1.0
148
0.0
149
0.0
100
AcDbLayout
  1
Model
 70
     1
 71
     0
 10
0.0
 20
0.0
 11
12.0
 21
9.0
 12
0.0
 22
0.0
 32
0.0
 14
0.0
 24
0.0
 34
0.0
 15
420.0
 25
594.0
 35
0.0
146
0.0
 13
0.0
 23
0.0
 33
0.0
 16
1.0
 26
0.0
 36
0.0
 17
0.0
 27
1.0
 37
0.0
 76
     0
330
1F
331
29
  0
MATERIAL
  5
3D
102
{ACAD_REACTORS
330
3B
102
}
102
{ACAD_XDICTIONARY
360
2DB
102
}
330
3B
100
AcDbMaterial
  1
ByBlock
  0
MATERIAL
  5
3C
102
{ACAD_REACTORS
330
3B
102
}
102
{ACAD_XDICTIONARY
360
2D9
102
}
330
3B
100
AcDbMaterial
  1
ByLayer
  0
MATERIAL
  5
3E
102
{ACAD_REACTORS
330
3B
102
}
102
{ACAD_XDICTIONARY
360
2DD
102
}
330
3B
100
AcDbMaterial
  1
Global
  0
MLINESTYLE
  5
18
102
{ACAD_REACTORS
330
17
102
}
330
17
100
AcDbMlineStyle
  2
Standard
 70
     0
  3

 62
   256
 51
90.0
 52
90.0
 71
     2
 49
0.5
 62
   256
  6
BYLAYER
 49
-0.5
 62
   256
  6
BYLAYER
  0
ACDBPLACEHOLDER
  5
F
102
{ACAD_REACTORS
330
E
102
}
330
E
  0
VISUALSTYLE
  5
2F
102
{ACAD_REACTORS
330
2A
102
}
102
{ACAD_XDICTIONARY
360
2C1
102
}
330
2A
100
AcDbVisualStyle
  2
2dWireframe
 70
     4
 71
     0
 72
     2
 73
     0
 90
        0
 40
-0.6
 41
-30.0
 62
     5
 63
     7
 74
     1
 91
        4
 64
     7
 65
   257
 75
     1
175
     1
 42
1.0
 92
        0
 66
   257
 43
1.0
 76
     1
 77
     6
 78
     2
 67
     7
 79
     5
170
     0
171
     0
290
     0
174
     0
 93
        1
 44
0.0
173
     0
291
     0
 45
0.0
1001
ACAD
1000
AcDbSavedByObjectVersion
1070
     0
  0
VISUALSTYLE
  5
31
102
{ACAD_REACTORS
330
2A
102
}
102
{ACAD_XDICTIONARY
360
2C5
102
}
330
2A
100
AcDbVisualStyle
  2
3D Hidden
 70
     6
 71
     1
 72
     2
 73
     2
 90
        0
 40
-0.6
 41
-30.0
 62
     5
 63
     7
 74
     2
 91
        2
 64
     7
 65
   257
 75
     2
175
     1
 42
40.0
 92
        0
 66
   257
 43
1.0
 76
     1
 77
     6
 78
     2
 67
     7
 79
     3
170
     0
171
     0
290
     0
174
     0
 93
        1
 44
0.0
173
     0
291
     0
 45
0.0
1001
ACAD
1000
AcDbSavedByObjectVersion
1070
     0
  0
VISUALSTYLE
  5
30
102
{ACAD_REACTORS
330
2A
102
}
102
{ACAD_XDICTIONARY
360
2C3
102
}
330
2A
100
AcDbVisualStyle
  2
3dWireframe
 70
     5
 71
     0
 72
     2
 73
     0
 90
        0
 40
-0.6
 41
-30.0
 62
     5
 63
     7
 74
     1
 91
        4
 64
     7
 65
   257
 75
     1
175
     1
 42
1.0
 92
        0
 66
   257
 43
1.0
 76
     1
 77
     6
 78
     2
 67
     7
 79
     5
170
     0
171
     0
290
     0
174
     0
 93
        1
 44
0.0
173
     0
291
     0
 45
0.0
1001
ACAD
1000
AcDbSavedByObjectVersion
1070
     0
  0
VISUALSTYLE
  5
32
102
{ACAD_REACTORS
330
2A
102
}
102
{ACAD_XDICTIONARY
360
2C7
102
}
330
2A
100
AcDbVisualStyle
  2
Basic
 70
     7
 71
     1
 72
     0
 73
     1
 90
        0
 40
-0.6
 41
-30.0
 62
     5
 63
     7
 74
     0
 91
        4
 64
     7
 65
   257
 75
     1
175
     1
 42
1.0
 92
        8
 66
     7
 43
1.0
 76
     1
 77
     6
 78
     2
 67
     7
 79
     5
170
     0
171
     0
290
     0
174
     0
 93
        1
 44
0.0
173
     0
291
     1
 45
0.0
1001
ACAD
1000
AcDbSavedByObjectVersion
1070
     0
  0
VISUALSTYLE
  5
36
102
{ACAD_REACTORS
330
2A
102
}
102
{ACAD_XDICTIONARY
360
2CF
102
}
330
2A
100
AcDbVisualStyle
  2
Brighten
 70
    12
 71
     2
 72
     2
 73
     0
 90
        0
 40
-0.6
 41
-30.0
 62
     5
 63
     7
 74
     1
 91
        4
 64
     7
 65
   257
 75
     1
175
     1
 42
1.0
 92
        8
 66
     7
 43
1.0
 76
     1
 77
     6
 78
     2
 67
     7
 79
     5
170
     0
171
     0
290
     0
174
     0
 93
        1
 44
50.0
173
     0
291
     1
 45
0.0
1001
ACAD
1000
AcDbSavedByObjectVersion
1070
     0
  0
VISUALSTYLE
  5
3A
102
{ACAD_REACTORS
330
2A
102
}
102
{ACAD_XDICTIONARY
360
2D7
102
}
330
2A
100
AcDbVisualStyle
  2
ColorChange
 70
    16
 71
     2
 72
     2
 73
     3
 90
        0
 40
-0.6
 41
-30.0
 62
     5
 63
     8
 74
     1
 91
        4
 64
     7
 65
   257
 75
     1
175
     1
 42
1.0
 92
        8
 66
     8
 43
1.0
 76
     1
 77
     6
 78
     2
 67
     7
 79
     5
170
     0
171
     0
290
     0
174
     0
 93
        1
 44
0.0
173
     0
291
     1
 45
0.0
1001
ACAD
1000
AcDbSavedByObjectVersion
1070
     0
  0
VISUALSTYLE
  5
34
102
{ACAD_REACTORS
330
2A
102
}
102
{ACAD_XDICTIONARY
360
2CB
102
}
330
2A
100
AcDbVisualStyle
  2
Conceptual
 70
     9
 71
     3
 72
     2
 73
     0
 90
        0
 40
-0.6
 41
-30.0
 62
     5
 63
     7
 74
     2
 91
        2
 64
     7
 65
   257
 75
     1
175
     1
 42
40.0
 92
        8
 66
     7
 43
1.0
 76
     1
 77
     6
 78
     2
 67
     7
 79
     3
170
     0
171
     0
290
     0
174
     0
 93
        1
 44
0.0
173
     0
291
     0
 45
0.0
1001
ACAD
1000
AcDbSavedByObjectVersion
1070
     0
  0
VISUALSTYLE
  5
35
102
{ACAD_REACTORS
330
2A
102
}
102
{ACAD_XDICTIONARY
360
2CD
102
}
330
2A
100
AcDbVisualStyle
  2
Dim
 70
    11
 71
     2
 72
     2
 73
     0
 90
        0
 40
-0.6
 41
-30.0
 62
     5
 63
     7
 74
     1
 91
        4
 64
     7
 65
   257
 75
     1
175
     1
 42
1.0
 92
        8
 66
     7
 43
1.0
 76
     1
 77
     6
 78
     2
 67
     7
 79
     5
170
     0
171
     0
290
     0
174
     0
 93
        1
 44
-50.0
173
     0
291
     1
 45
0.0
1001
ACAD
1000
AcDbSavedByObjectVersion
1070
     0
  0
VISUALSTYLE
  5
39
102
{ACAD_REACTORS
330
2A
102
}
102
{ACAD_XDICTIONARY
360
2D5
102
}
330
2A
100
AcDbVisualStyle
  2
Facepattern
 70
    15
 71
     2
 72
     2
 73
     0
 90
        0
 40
-0.6
 41
-30.0
 62
     5
 63
     7
 74
     1
 91
        4
 64
     7
 65
   257
 75
     1
175
     1
 42
1.0
 92
        8
 66
     7
 43
1.0
 76
     1
 77
     6
 78
     2
 67
     7
 79
     5
170
     0
171
     0
290
     0
174
     0
 93
        1
 44
0.0
173
     0
291
     1
 45
0.0
1001
ACAD
1000
AcDbSavedByObjectVersion
1070
     0
  0
VISUALSTYLE
  5
2B
102
{ACAD_REACTORS
330
2A
102
}
102
{ACAD_XDICTIONARY
360
2B9
102
}
330
2A
100
AcDbVisualStyle
  2
Flat
 70
     0
 71
     2
 72
     1
 73
     1
 90
        2
 40
-0.6
 41
30.0
 62
     5
 63
     7
 74
     0
 91
        4
 64
     7
 65
   257
 75
     1
175
     1
 42
1.0
 92
        8
 66
     7
 43
1.0
 76
     1
 77
     6
 78
     2
 67
     7
 79
     5
170
     0
171
     0
290
     0
174
     0
 93
       13
 44
0.0
173
     0
291
     1
 45
0.0
1001
ACAD
1000
AcDbSavedByObjectVersion
1070
     0
  0
VISUALSTYLE
  5
2C
102
{ACAD_REACTORS
330
2A
102
}
102
{ACAD_XDICTIONARY
360
2BB
102
}
330
2A
100
AcDbVisualStyle
  2
FlatWithEdges
 70
     1
 71
     2
 72
     1
 73
     1
 90
        2
 40
-0.6
 41
30.0
 62
     5
 63
     7
 74
     1
 91
        4
 64
     7
 65
   257
 75
     1
175
     1
 42
1.0
 92
        0
 66
   257
 43
1.0
 76
     1
 77
     6
 78
     2
 67
     7
 79
     5
170
     0
171
     0
290
     0
174
     0
 93
       13
 44
0.0
173
     0
291
     1
 45
0.0
1001
ACAD
1000
AcDbSavedByObjectVersion
1070
     0
  0
VISUALSTYLE
  5
2D
102
{ACAD_REACTORS
330
2A
102
}
102
{ACAD_XDICTIONARY
360
2BD
102
}
330
2A
100
AcDbVisualStyle
  2
Gouraud
 70
     2
 71
     2
 72
     2
 73
     1
 90
        2
 40
-0.6
 41
30.0
 62
     5
 63
     7
 74
     0
 91
        4
 64
     7
 65
   257
 75
     1
175
     1
 42
1.0
 92
        0
 66
     7
 43
1.0
 76
     1
 77
     6
 78
     2
 67
     7
 79
     5
170
     0
171
     0
290
     0
174
     0
 93
       13
 44
0.0
173
     0
291
     1
 45
0.0
1001
ACAD
1000
AcDbSavedByObjectVersion
1070
     0
  0
VISUALSTYLE
  5
2E
102
{ACAD_REACTORS
330
2A
102
}
102
{ACAD_XDICTIONARY
360
2BF
102
}
330
2A
100
AcDbVisualStyle
  2
GouraudWithEdges
 70
     3
 71
     2
 72
     2
 73
     1
 90
        2
 40
-0.6
 41
30.0
 62
     5
 63
     7
 74
     1
 91
        4
 64
     7
 65
   257
 75
     1
175
     1
 42
1.0
 92
        0
 66
   257
 43
1.0
 76
     1
 77
     6
 78
     2
 67
     7
 79
     5
170
     0
171
     0
290
     0
174
     0
 93
       13
 44
0.0
173
     0
291
     1
 45
0.0
1001
ACAD
1000
AcDbSavedByObjectVersion
1070
     0
  0
VISUALSTYLE
  5
38
102
{ACAD_REACTORS
330
2A
102
}
102
{ACAD_XDICTIONARY
360
2D3
102
}
330
2A
100
AcDbVisualStyle
  2
Linepattern
 70
    14
 71
     2
 72
     2
 73
     0
 90
        0
 40
-0.6
 41
-30.0
 62
     5
 63
     7
 74
     1
 91
        4
 64
     7
 65
   257
 75
     7
175
     7
 42
1.0
 92
        8
 66
     7
 43
1.0
 76
     1
 77
     6
 78
     2
 67
     7
 79
     5
170
     0
171
     0
290
     0
174
     0
 93
        1
 44
0.0
173
     0
291
     1
 45
0.0
1001
ACAD
1000
AcDbSavedByObjectVersion
1070
     0
  0
VISUALSTYLE
  5
33
102
{ACAD_REACTORS
330
2A
102
}
102
{ACAD_XDICTIONARY
360
2C9
102
}
330
2A
100
AcDbVisualStyle
  2
Realistic
 70
     8
 71
     2
 72
     2
 73
     0
 90
        0
 40
-0.6
 41
-30.0
 62
     5
 63
     7
 74
     1
 91
        0
 64
     7
 65
   257
 75
     1
175
     1
 42
1.0
 92
        8
 66
     8
 43
1.0
 76
     1
 77
     6
 78
     2
 67
     7
 79
     5
170
     0
171
     0
290
     0
174
     0
 93
       13
 44
0.0
173
     0
291
     0
 45
0.0
1001
ACAD
1000
AcDbSavedByObjectVersion
1070
     0
  0
VISUALSTYLE
  5
37
102
{ACAD_REACTORS
330
2A
102
}
102
{ACAD_XDICTIONARY
360
2D1
102
}
330
2A
100
AcDbVisualStyle
  2
Thicken
 70
    13
 71
     2
 72
     2
 73
     0
 90
        0
 40
-0.6
 41
-30.0
 62
     5
 63
     7
 74
     1
 91
        4
 64
     7
 65
   257
 75
     1
175
     1
 42
1.0
 92
       12
 66
     7
 43
1.0
 76
     1
 77
     6
 78
     2
 67
     7
 79
     5
170
     0
171
     0
290
     0
174
     0
 93
        1
 44
0.0
173
     0
291
     1
 45
0.0
1001
ACAD
1000
AcDbSavedByObjectVersion
1070
     0
  0
DICTIONARYVAR
  5
2B7
102
{ACAD_REACTORS
330
2B4
102
}
330
2B4
100
DictionaryVariables
280
     0
  1
2
  0
DICTIONARYVAR
  5
2B8
102
{ACAD_REACTORS
330
2B4
102
}
330
2B4
100
DictionaryVariables
280
     0
  1
1
  0
DICTIONARY
  5
2DB
330
3D
100
AcDbDictionary
280
     1
281
     1
  3
ACAD_XREC_ROUNDTRIP
360
2DC
  0
DICTIONARY
  5
2D9
330
3C
100
AcDbDictionary
280
     1
281
     1
  3
ACAD_XREC_ROUNDTRIP
360
2DA
  0
DICTIONARY
  5
2DD
330
3E
100
AcDbDictionary
280
     1
281
     1
  3
ACAD_XREC_ROUNDTRIP
360
2DE
  0
DICTIONARY
  5
2C1
330
2F
100
AcDbDictionary
280
     1
281
     1
  3
ACAD_XREC_ROUNDTRIP
360
2C2
  0
DICTIONARY
  5
2C5
330
31
100
AcDbDictionary
280
     1
281
     1
  3
ACAD_XREC_ROUNDTRIP
360
2C6
  0
DICTIONARY
  5
2C3
330
30
100
AcDbDictionary
280
     1
281
     1
  3
ACAD_XREC_ROUNDTRIP
360
2C4
  0
DICTIONARY
  5
2C7
330
32
100
AcDbDictionary
280
     1
281
     1
  3
ACAD_XREC_ROUNDTRIP
360
2C8
  0
DICTIONARY
  5
2CF
330
36
100
AcDbDictionary
280
     1
281
     1
  3
ACAD_XREC_ROUNDTRIP
360
2D0
  0
DICTIONARY
  5
2D7
330
3A
100
AcDbDictionary
280
     1
281
     1
  3
ACAD_XREC_ROUNDTRIP
360
2D8
  0
DICTIONARY
  5
2CB
330
34
100
AcDbDictionary
280
     1
281
     1
  3
ACAD_XREC_ROUNDTRIP
360
2CC
  0
DICTIONARY
  5
2CD
330
35
100
AcDbDictionary
280
     1
281
     1
  3
ACAD_XREC_ROUNDTRIP
360
2CE
  0
DICTIONARY
  5
2D5
330
39
100
AcDbDictionary
280
     1
281
     1
  3
ACAD_XREC_ROUNDTRIP
360
2D6
  0
DICTIONARY
  5
2B9
330
2B
100
AcDbDictionary
280
     1
281
     1
  3
ACAD_XREC_ROUNDTRIP
360
2BA
  0
DICTIONARY
  5
2BB
330
2C
100
AcDbDictionary
280
     1
281
     1
  3
ACAD_XREC_ROUNDTRIP
360
2BC
  0
DICTIONARY
  5
2BD
330
2D
100
AcDbDictionary
280
     1
281
     1
  3
ACAD_XREC_ROUNDTRIP
360
2BE
  0
DICTIONARY
  5
2BF
330
2E
100
AcDbDictionary
280
     1
281
     1
  3
ACAD_XREC_ROUNDTRIP
360
2C0
  0
DICTIONARY
  5
2D3
330
38
100
AcDbDictionary
280
     1
281
     1
  3
ACAD_XREC_ROUNDTRIP
360
2D4
  0
DICTIONARY
  5
2C9
330
33
100
AcDbDictionary
280
     1
281
     1
  3
ACAD_XREC_ROUNDTRIP
360
2CA
  0
DICTIONARY
  5
2D1
330
37
100
AcDbDictionary
280
     1
281
     1
  3
ACAD_XREC_ROUNDTRIP
360
2D2
  0
XRECORD
  5
2DC
102
{ACAD_REACTORS
330
2DB
102
}
330
2DB
100
AcDbXrecord
280
     1
102
MATERIAL
148
0.0
149
0.0
149
0.0
 93
        0
 94
      127
282
     0
 72
     1
 77
     1
171
     1
175
     1
179
     1
273
     0
  0
XRECORD
  5
2DA
102
{ACAD_REACTORS
330
2D9
102
}
330
2D9
100
AcDbXrecord
280
     1
102
MATERIAL
148
0.0
149
0.0
149
0.0
 93
        0
 94
      127
282
     0
 72
     1
 77
     1
171
     1
175
     1
179
     1
273
     0
  0
XRECORD
  5
2DE
102
{ACAD_REACTORS
330
2DD
102
}
330
2DD
100
AcDbXrecord
280
     1
102
MATERIAL
148
0.0
149
0.0
149
0.0
 93
        0
 94
      127
282
     0
 72
     1
 77
     1
171
     1
175
     1
179
     1
273
     0
  0
XRECORD
  5
2C2
102
{ACAD_REACTORS
330
2C1
102
}
330
2C1
100
AcDbXrecord
280
     1
102
RTVSPropertyOp0
 70
     1
102
RTVSPropertyOp1
 70
     1
102
RTVSPropertyOp2
 70
     1
102
RTVSPropertyOp3
 70
     1
102
RTVSPropertyOp4
 70
     1
102
RTVSPropertyOp5
 70
     1
102
RTVSPropertyOp6
 70
     1
102
RTVSPropertyOp7
 70
     1
102
RTVSPropertyOp8
 70
     1
102
RTVSPropertyOp9
 70
     1
102
RTVSPropertyOp10
 70
     1
102
RTVSPropertyOp11
 70
     1
102
RTVSPropertyOp12
 70
     1
102
RTVSPropertyOp13
 70
     1
102
RTVSPropertyOp14
 70
     1
102
RTVSPropertyOp15
 70
     1
102
RTVSPropertyOp16
 70
     1
102
RTVSPropertyOp17
 70
     1
102
RTVSPropertyOp18
 70
     1
102
RTVSPropertyOp19
 70
     1
102
RTVSPropertyOp20
 70
     1
102
RTVSPropertyOp21
 70
     1
102
RTVSPropertyOp22
 70
     1
102
RTVSPropertyOp23
 70
     1
102
RTVSPropertyOp24
 70
     1
102
RTVSPropertyOp25
 70
     1
102
RTVSPropertyOp26
 70
     1
102
RTVSPropertyOp27
 70
     1
102
RTVSPropertyOp28
 70
     1
102
RTVSPropertyOp29
 70
     1
102
RTVSPropertyOp30
 70
     1
102
RTVSPropertyOp31
 70
     1
102
RTVSPropertyOp32
 70
     1
  0
XRECORD
  5
2C6
102
{ACAD_REACTORS
330
2C5
102
}
330
2C5
100
AcDbXrecord
280
     1
102
RTVSPropertyOp0
 70
     1
102
RTVSPropertyOp1
 70
     1
102
RTVSPropertyOp2
 70
     1
102
RTVSPropertyOp3
 70
     1
102
RTVSPropertyOp4
 70
     1
102
RTVSPropertyOp5
 70
     1
102
RTVSPropertyOp6
 70
     1
102
RTVSPropertyOp7
 70
     1
102
RTVSPropertyOp8
 70
     1
102
RTVSPropertyOp9
 70
     1
102
RTVSPropertyOp10
 70
     1
102
RTVSPropertyOp11
 70
     1
102
RTVSPropertyOp12
 70
     1
102
RTVSPropertyOp13
 70
     1
102
RTVSPropertyOp14
 70
     1
102
RTVSPropertyOp15
 70
     1
102
RTVSPropertyOp16
 70
     1
102
RTVSPropertyOp17
 70
     1
102
RTVSPropertyOp18
 70
     1
102
RTVSPropertyOp19
 70
     1
102
RTVSPropertyOp20
 70
     1
102
RTVSPropertyOp21
 70
     1
102
RTVSPropertyOp22
 70
     1
102
RTVSPropertyOp23
 70
     1
102
RTVSPropertyOp24
 70
     1
102
RTVSPropertyOp25
 70
     1
102
RTVSPropertyOp26
 70
     1
102
RTVSPropertyOp27
 70
     1
102
RTVSPropertyOp28
 70
     1
102
RTVSPropertyOp29
 70
     1
102
RTVSPropertyOp30
 70
     1
102
RTVSPropertyOp31
 70
     1
102
RTVSPropertyOp32
 70
     1
  0
XRECORD
  5
2C4
102
{ACAD_REACTORS
330
2C3
102
}
330
2C3
100
AcDbXrecord
280
     1
102
RTVSPropertyOp0
 70
     1
102
RTVSPropertyOp1
 70
     1
102
RTVSPropertyOp2
 70
     1
102
RTVSPropertyOp3
 70
     1
102
RTVSPropertyOp4
 70
     1
102
RTVSPropertyOp5
 70
     1
102
RTVSPropertyOp6
 70
     1
102
RTVSPropertyOp7
 70
     1
102
RTVSPropertyOp8
 70
     1
102
RTVSPropertyOp9
 70
     1
102
RTVSPropertyOp10
 70
     1
102
RTVSPropertyOp11
 70
     1
102
RTVSPropertyOp12
 70
     1
102
RTVSPropertyOp13
 70
     1
102
RTVSPropertyOp14
 70
     1
102
RTVSPropertyOp15
 70
     1
102
RTVSPropertyOp16
 70
     1
102
RTVSPropertyOp17
 70
     1
102
RTVSPropertyOp18
 70
     1
102
RTVSPropertyOp19
 70
     1
102
RTVSPropertyOp20
 70
     1
102
RTVSPropertyOp21
 70
     1
102
RTVSPropertyOp22
 70
     1
102
RTVSPropertyOp23
 70
     1
102
RTVSPropertyOp24
 70
     1
102
RTVSPropertyOp25
 70
     1
102
RTVSPropertyOp26
 70
     1
102
RTVSPropertyOp27
 70
     1
102
RTVSPropertyOp28
 70
     1
102
RTVSPropertyOp29
 70
     1
102
RTVSPropertyOp30
 70
     1
102
RTVSPropertyOp31
 70
     1
102
RTVSPropertyOp32
 70
     1
  0
XRECORD
  5
2C8
102
{ACAD_REACTORS
330
2C7
102
}
330
2C7
100
AcDbXrecord
280
     1
102
RTVSPropertyOp0
 70
     1
102
RTVSPropertyOp1
 70
     1
102
RTVSPropertyOp2
 70
     1
102
RTVSPropertyOp3
 70
     1
102
RTVSPropertyOp4
 70
     1
102
RTVSPropertyOp5
 70
     1
102
RTVSPropertyOp6
 70
     1
102
RTVSPropertyOp7
 70
     1
102
RTVSPropertyOp8
 70
     1
102
RTVSPropertyOp9
 70
     1
102
RTVSPropertyOp10
 70
     1
102
RTVSPropertyOp11
 70
     1
102
RTVSPropertyOp12
 70
     1
102
RTVSPropertyOp13
 70
     1
102
RTVSPropertyOp14
 70
     1
102
RTVSPropertyOp15
 70
     1
102
RTVSPropertyOp16
 70
     1
102
RTVSPropertyOp17
 70
     1
102
RTVSPropertyOp18
 70
     1
102
RTVSPropertyOp19
 70
     1
102
RTVSPropertyOp20
 70
     1
102
RTVSPropertyOp21
 70
     1
102
RTVSPropertyOp22
 70
     1
102
RTVSPropertyOp23
 70
     1
102
RTVSPropertyOp24
 70
     1
102
RTVSPropertyOp25
 70
     1
102
RTVSPropertyOp26
 70
     1
102
RTVSPropertyOp27
 70
     1
102
RTVSPropertyOp28
 70
     1
102
RTVSPropertyOp29
 70
     1
102
RTVSPropertyOp30
 70
     1
102
RTVSPropertyOp31
 70
     1
102
RTVSPropertyOp32
 70
     1
  0
XRECORD
  5
2D0
102
{ACAD_REACTORS
330
2CF
102
}
330
2CF
100
AcDbXrecord
280
     1
102
RTVSPropertyOp0
 70
     1
102
RTVSPropertyOp1
 70
     1
102
RTVSPropertyOp2
 70
     1
102
RTVSPropertyOp3
 70
     1
102
RTVSPropertyOp4
 70
     1
102
RTVSPropertyOp5
 70
     1
102
RTVSPropertyOp6
 70
     1
102
RTVSPropertyOp7
 70
     1
102
RTVSPropertyOp8
 70
     1
102
RTVSPropertyOp9
 70
     1
102
RTVSPropertyOp10
 70
     1
102
RTVSPropertyOp11
 70
     1
102
RTVSPropertyOp12
 70
     1
102
RTVSPropertyOp13
 70
     1
102
RTVSPropertyOp14
 70
     1
102
RTVSPropertyOp15
 70
     1
102
RTVSPropertyOp16
 70
     1
102
RTVSPropertyOp17
 70
     1
102
RTVSPropertyOp18
 70
     1
102
RTVSPropertyOp19
 70
     1
102
RTVSPropertyOp20
 70
     1
102
RTVSPropertyOp21
 70
     1
102
RTVSPropertyOp22
 70
     1
102
RTVSPropertyOp23
 70
     1
102
RTVSPropertyOp24
 70
     1
102
RTVSPropertyOp25
 70
     1
102
RTVSPropertyOp26
 70
     1
102
RTVSPropertyOp27
 70
     1
102
RTVSPropertyOp28
 70
     1
102
RTVSPropertyOp29
 70
     1
102
RTVSPropertyOp30
 70
     1
102
RTVSPropertyOp31
 70
     1
102
RTVSPropertyOp32
 70
     1
  0
XRECORD
  5
2D8
102
{ACAD_REACTORS
330
2D7
102
}
330
2D7
100
AcDbXrecord
280
     1
102
RTVSPropertyOp0
 70
     1
102
RTVSPropertyOp1
 70
     1
102
RTVSPropertyOp2
 70
     1
102
RTVSPropertyOp3
 70
     1
102
RTVSPropertyOp4
 70
     1
102
RTVSPropertyOp5
 70
     1
102
RTVSPropertyOp6
 70
     1
102
RTVSPropertyOp7
 70
     1
102
RTVSPropertyOp8
 70
     1
102
RTVSPropertyOp9
 70
     1
102
RTVSPropertyOp10
 70
     1
102
RTVSPropertyOp11
 70
     1
102
RTVSPropertyOp12
 70
     1
102
RTVSPropertyOp13
 70
     1
102
RTVSPropertyOp14
 70
     1
102
RTVSPropertyOp15
 70
     1
102
RTVSPropertyOp16
 70
     1
102
RTVSPropertyOp17
 70
     1
102
RTVSPropertyOp18
 70
     1
102
RTVSPropertyOp19
 70
     1
102
RTVSPropertyOp20
 70
     1
102
RTVSPropertyOp21
 70
     1
102
RTVSPropertyOp22
 70
     1
102
RTVSPropertyOp23
 70
     1
102
RTVSPropertyOp24
 70
     1
102
RTVSPropertyOp25
 70
     1
102
RTVSPropertyOp26
 70
     1
102
RTVSPropertyOp27
 70
     1
102
RTVSPropertyOp28
 70
     1
102
RTVSPropertyOp29
 70
     1
102
RTVSPropertyOp30
 70
     1
102
RTVSPropertyOp31
 70
     1
102
RTVSPropertyOp32
 70
     1
  0
XRECORD
  5
2CC
102
{ACAD_REACTORS
330
2CB
102
}
330
2CB
100
AcDbXrecord
280
     1
102
RTVSPropertyOp0
 70
     1
102
RTVSPropertyOp1
 70
     1
102
RTVSPropertyOp2
 70
     1
102
RTVSPropertyOp3
 70
     1
102
RTVSPropertyOp4
 70
     1
102
RTVSPropertyOp5
 70
     1
102
RTVSPropertyOp6
 70
     1
102
RTVSPropertyOp7
 70
     1
102
RTVSPropertyOp8
 70
     1
102
RTVSPropertyOp9
 70
     1
102
RTVSPropertyOp10
 70
     1
102
RTVSPropertyOp11
 70
     1
102
RTVSPropertyOp12
 70
     1
102
RTVSPropertyOp13
 70
     1
102
RTVSPropertyOp14
 70
     1
102
RTVSPropertyOp15
 70
     1
102
RTVSPropertyOp16
 70
     1
102
RTVSPropertyOp17
 70
     1
102
RTVSPropertyOp18
 70
     1
102
RTVSPropertyOp19
 70
     1
102
RTVSPropertyOp20
 70
     1
102
RTVSPropertyOp21
 70
     1
102
RTVSPropertyOp22
 70
     1
102
RTVSPropertyOp23
 70
     1
102
RTVSPropertyOp24
 70
     1
102
RTVSPropertyOp25
 70
     1
102
RTVSPropertyOp26
 70
     1
102
RTVSPropertyOp27
 70
     1
102
RTVSPropertyOp28
 70
     1
102
RTVSPropertyOp29
 70
     1
102
RTVSPropertyOp30
 70
     1
102
RTVSPropertyOp31
 70
     1
102
RTVSPropertyOp32
 70
     1
  0
XRECORD
  5
2CE
102
{ACAD_REACTORS
330
2CD
102
}
330
2CD
100
AcDbXrecord
280
     1
102
RTVSPropertyOp0
 70
     1
102
RTVSPropertyOp1
 70
     1
102
RTVSPropertyOp2
 70
     1
102
RTVSPropertyOp3
 70
     1
102
RTVSPropertyOp4
 70
     1
102
RTVSPropertyOp5
 70
     1
102
RTVSPropertyOp6
 70
     1
102
RTVSPropertyOp7
 70
     1
102
RTVSPropertyOp8
 70
     1
102
RTVSPropertyOp9
 70
     1
102
RTVSPropertyOp10
 70
     1
102
RTVSPropertyOp11
 70
     1
102
RTVSPropertyOp12
 70
     1
102
RTVSPropertyOp13
 70
     1
102
RTVSPropertyOp14
 70
     1
102
RTVSPropertyOp15
 70
     1
102
RTVSPropertyOp16
 70
     1
102
RTVSPropertyOp17
 70
     1
102
RTVSPropertyOp18
 70
     1
102
RTVSPropertyOp19
 70
     1
102
RTVSPropertyOp20
 70
     1
102
RTVSPropertyOp21
 70
     1
102
RTVSPropertyOp22
 70
     1
102
RTVSPropertyOp23
 70
     1
102
RTVSPropertyOp24
 70
     1
102
RTVSPropertyOp25
 70
     1
102
RTVSPropertyOp26
 70
     1
102
RTVSPropertyOp27
 70
     1
102
RTVSPropertyOp28
 70
     1
102
RTVSPropertyOp29
 70
     1
102
RTVSPropertyOp30
 70
     1
102
RTVSPropertyOp31
 70
     1
102
RTVSPropertyOp32
 70
     1
  0
XRECORD
  5
2D6
102
{ACAD_REACTORS
330
2D5
102
}
330
2D5
100
AcDbXrecord
280
     1
102
RTVSPropertyOp0
 70
     1
102
RTVSPropertyOp1
 70
     1
102
RTVSPropertyOp2
 70
     1
102
RTVSPropertyOp3
 70
     1
102
RTVSPropertyOp4
 70
     1
102
RTVSPropertyOp5
 70
     1
102
RTVSPropertyOp6
 70
     1
102
RTVSPropertyOp7
 70
     1
102
RTVSPropertyOp8
 70
     1
102
RTVSPropertyOp9
 70
     1
102
RTVSPropertyOp10
 70
     1
102
RTVSPropertyOp11
 70
     1
102
RTVSPropertyOp12
 70
     1
102
RTVSPropertyOp13
 70
     1
102
RTVSPropertyOp14
 70
     1
102
RTVSPropertyOp15
 70
     1
102
RTVSPropertyOp16
 70
     1
102
RTVSPropertyOp17
 70
     1
102
RTVSPropertyOp18
 70
     1
102
RTVSPropertyOp19
 70
     1
102
RTVSPropertyOp20
 70
     1
102
RTVSPropertyOp21
 70
     1
102
RTVSPropertyOp22
 70
     1
102
RTVSPropertyOp23
 70
     1
102
RTVSPropertyOp24
 70
     1
102
RTVSPropertyOp25
 70
     1
102
RTVSPropertyOp26
 70
     1
102
RTVSPropertyOp27
 70
     1
102
RTVSPropertyOp28
 70
     1
102
RTVSPropertyOp29
 70
     1
102
RTVSPropertyOp30
 70
     1
102
RTVSPropertyOp31
 70
     1
102
RTVSPropertyOp32
 70
     1
  0
XRECORD
  5
2BA
102
{ACAD_REACTORS
330
2B9
102
}
330
2B9
100
AcDbXrecord
280
     1
102
RTVSPropertyOp0
 70
     1
102
RTVSPropertyOp1
 70
     1
102
RTVSPropertyOp2
 70
     1
102
RTVSPropertyOp3
 70
     1
102
RTVSPropertyOp4
 70
     1
102
RTVSPropertyOp5
 70
     1
102
RTVSPropertyOp6
 70
     1
102
RTVSPropertyOp7
 70
     1
102
RTVSPropertyOp8
 70
     1
102
RTVSPropertyOp9
 70
     1
102
RTVSPropertyOp10
 70
     1
102
RTVSPropertyOp11
 70
     1
102
RTVSPropertyOp12
 70
     1
102
RTVSPropertyOp13
 70
     1
102
RTVSPropertyOp14
 70
     1
102
RTVSPropertyOp15
 70
     1
102
RTVSPropertyOp16
 70
     1
102
RTVSPropertyOp17
 70
     1
102
RTVSPropertyOp18
 70
     1
102
RTVSPropertyOp19
 70
     1
102
RTVSPropertyOp20
 70
     1
102
RTVSPropertyOp21
 70
     1
102
RTVSPropertyOp22
 70
     1
102
RTVSPropertyOp23
 70
     1
102
RTVSPropertyOp24
 70
     1
102
RTVSPropertyOp25
 70
     1
102
RTVSPropertyOp26
 70
     1
102
RTVSPropertyOp27
 70
     1
102
RTVSPropertyOp28
 70
     1
102
RTVSPropertyOp29
 70
     1
102
RTVSPropertyOp30
 70
     1
102
RTVSPropertyOp31
 70
     1
102
RTVSPropertyOp32
 70
     1
  0
XRECORD
  5
2BC
102
{ACAD_REACTORS
330
2BB
102
}
330
2BB
100
AcDbXrecord
280
     1
102
RTVSPropertyOp0
 70
     1
102
RTVSPropertyOp1
 70
     1
102
RTVSPropertyOp2
 70
     1
102
RTVSPropertyOp3
 70
     1
102
RTVSPropertyOp4
 70
     1
102
RTVSPropertyOp5
 70
     1
102
RTVSPropertyOp6
 70
     1
102
RTVSPropertyOp7
 70
     1
102
RTVSPropertyOp8
 70
     1
102
RTVSPropertyOp9
 70
     1
102
RTVSPropertyOp10
 70
     1
102
RTVSPropertyOp11
 70
     1
102
RTVSPropertyOp12
 70
     1
102
RTVSPropertyOp13
 70
     1
102
RTVSPropertyOp14
 70
     1
102
RTVSPropertyOp15
 70
     1
102
RTVSPropertyOp16
 70
     1
102
RTVSPropertyOp17
 70
     1
102
RTVSPropertyOp18
 70
     1
102
RTVSPropertyOp19
 70
     1
102
RTVSPropertyOp20
 70
     1
102
RTVSPropertyOp21
 70
     1
102
RTVSPropertyOp22
 70
     1
102
RTVSPropertyOp23
 70
     1
102
RTVSPropertyOp24
 70
     1
102
RTVSPropertyOp25
 70
     1
102
RTVSPropertyOp26
 70
     1
102
RTVSPropertyOp27
 70
     1
102
RTVSPropertyOp28
 70
     1
102
RTVSPropertyOp29
 70
     1
102
RTVSPropertyOp30
 70
     1
102
RTVSPropertyOp31
 70
     1
102
RTVSPropertyOp32
 70
     1
  0
XRECORD
  5
2BE
102
{ACAD_REACTORS
330
2BD
102
}
330
2BD
100
AcDbXrecord
280
     1
102
RTVSPropertyOp0
 70
     1
102
RTVSPropertyOp1
 70
     1
102
RTVSPropertyOp2
 70
     1
102
RTVSPropertyOp3
 70
     1
102
RTVSPropertyOp4
 70
     1
102
RTVSPropertyOp5
 70
     1
102
RTVSPropertyOp6
 70
     1
102
RTVSPropertyOp7
 70
     1
102
RTVSPropertyOp8
 70
     1
102
RTVSPropertyOp9
 70
     1
102
RTVSPropertyOp10
 70
     1
102
RTVSPropertyOp11
 70
     1
102
RTVSPropertyOp12
 70
     1
102
RTVSPropertyOp13
 70
     1
102
RTVSPropertyOp14
 70
     1
102
RTVSPropertyOp15
 70
     1
102
RTVSPropertyOp16
 70
     1
102
RTVSPropertyOp17
 70
     1
102
RTVSPropertyOp18
 70
     1
102
RTVSPropertyOp19
 70
     1
102
RTVSPropertyOp20
 70
     1
102
RTVSPropertyOp21
 70
     1
102
RTVSPropertyOp22
 70
     1
102
RTVSPropertyOp23
 70
     1
102
RTVSPropertyOp24
 70
     1
102
RTVSPropertyOp25
 70
     1
102
RTVSPropertyOp26
 70
     1
102
RTVSPropertyOp27
 70
     1
102
RTVSPropertyOp28
 70
     1
102
RTVSPropertyOp29
 70
     1
102
RTVSPropertyOp30
 70
     1
102
RTVSPropertyOp31
 70
     1
102
RTVSPropertyOp32
 70
     1
  0
XRECORD
  5
2C0
102
{ACAD_REACTORS
330
2BF
102
}
330
2BF
100
AcDbXrecord
280
     1
102
RTVSPropertyOp0
 70
     1
102
RTVSPropertyOp1
 70
     1
102
RTVSPropertyOp2
 70
     1
102
RTVSPropertyOp3
 70
     1
102
RTVSPropertyOp4
 70
     1
102
RTVSPropertyOp5
 70
     1
102
RTVSPropertyOp6
 70
     1
102
RTVSPropertyOp7
 70
     1
102
RTVSPropertyOp8
 70
     1
102
RTVSPropertyOp9
 70
     1
102
RTVSPropertyOp10
 70
     1
102
RTVSPropertyOp11
 70
     1
102
RTVSPropertyOp12
 70
     1
102
RTVSPropertyOp13
 70
     1
102
RTVSPropertyOp14
 70
     1
102
RTVSPropertyOp15
 70
     1
102
RTVSPropertyOp16
 70
     1
102
RTVSPropertyOp17
 70
     1
102
RTVSPropertyOp18
 70
     1
102
RTVSPropertyOp19
 70
     1
102
RTVSPropertyOp20
 70
     1
102
RTVSPropertyOp21
 70
     1
102
RTVSPropertyOp22
 70
     1
102
RTVSPropertyOp23
 70
     1
102
RTVSPropertyOp24
 70
     1
102
RTVSPropertyOp25
 70
     1
102
RTVSPropertyOp26
 70
     1
102
RTVSPropertyOp27
 70
     1
102
RTVSPropertyOp28
 70
     1
102
RTVSPropertyOp29
 70
     1
102
RTVSPropertyOp30
 70
     1
102
RTVSPropertyOp31
 70
     1
102
RTVSPropertyOp32
 70
     1
  0
XRECORD
  5
2D4
102
{ACAD_REACTORS
330
2D3
102
}
330
2D3
100
AcDbXrecord
280
     1
102
RTVSPropertyOp0
 70
     1
102
RTVSPropertyOp1
 70
     1
102
RTVSPropertyOp2
 70
     1
102
RTVSPropertyOp3
 70
     1
102
RTVSPropertyOp4
 70
     1
102
RTVSPropertyOp5
 70
     1
102
RTVSPropertyOp6
 70
     1
102
RTVSPropertyOp7
 70
     1
102
RTVSPropertyOp8
 70
     1
102
RTVSPropertyOp9
 70
     1
102
RTVSPropertyOp10
 70
     1
102
RTVSPropertyOp11
 70
     1
102
RTVSPropertyOp12
 70
     1
102
RTVSPropertyOp13
 70
     1
102
RTVSPropertyOp14
 70
     1
102
RTVSPropertyOp15
 70
     1
102
RTVSPropertyOp16
 70
     1
102
RTVSPropertyOp17
 70
     1
102
RTVSPropertyOp18
 70
     1
102
RTVSPropertyOp19
 70
     1
102
RTVSPropertyOp20
 70
     1
102
RTVSPropertyOp21
 70
     1
102
RTVSPropertyOp22
 70
     1
102
RTVSPropertyOp23
 70
     1
102
RTVSPropertyOp24
 70
     1
102
RTVSPropertyOp25
 70
     1
102
RTVSPropertyOp26
 70
     1
102
RTVSPropertyOp27
 70
     1
102
RTVSPropertyOp28
 70
     1
102
RTVSPropertyOp29
 70
     1
102
RTVSPropertyOp30
 70
     1
102
RTVSPropertyOp31
 70
     1
102
RTVSPropertyOp32
 70
     1
  0
XRECORD
  5
2CA
102
{ACAD_REACTORS
330
2C9
102
}
330
2C9
100
AcDbXrecord
280
     1
102
RTVSPropertyOp0
 70
     1
102
RTVSPropertyOp1
 70
     1
102
RTVSPropertyOp2
 70
     1
102
RTVSPropertyOp3
 70
     1
102
RTVSPropertyOp4
 70
     1
102
RTVSPropertyOp5
 70
     1
102
RTVSPropertyOp6
 70
     1
102
RTVSPropertyOp7
 70
     1
102
RTVSPropertyOp8
 70
     1
102
RTVSPropertyOp9
 70
     1
102
RTVSPropertyOp10
 70
     1
102
RTVSPropertyOp11
 70
     1
102
RTVSPropertyOp12
 70
     1
102
RTVSPropertyOp13
 70
     1
102
RTVSPropertyOp14
 70
     1
102
RTVSPropertyOp15
 70
     1
102
RTVSPropertyOp16
 70
     1
102
RTVSPropertyOp17
 70
     1
102
RTVSPropertyOp18
 70
     1
102
RTVSPropertyOp19
 70
     1
102
RTVSPropertyOp20
 70
     1
102
RTVSPropertyOp21
 70
     1
102
RTVSPropertyOp22
 70
     1
102
RTVSPropertyOp23
 70
     1
102
RTVSPropertyOp24
 70
     1
102
RTVSPropertyOp25
 70
     1
102
RTVSPropertyOp26
 70
     1
102
RTVSPropertyOp27
 70
     1
102
RTVSPropertyOp28
 70
     1
102
RTVSPropertyOp29
 70
     1
102
RTVSPropertyOp30
 70
     1
102
RTVSPropertyOp31
 70
     1
102
RTVSPropertyOp32
 70
     1
  0
XRECORD
  5
2D2
102
{ACAD_REACTORS
330
2D1
102
}
330
2D1
100
AcDbXrecord
280
     1
102
RTVSPropertyOp0
 70
     1
102
RTVSPropertyOp1
 70
     1
102
RTVSPropertyOp2
 70
     1
102
RTVSPropertyOp3
 70
     1
102
RTVSPropertyOp4
 70
     1
102
RTVSPropertyOp5
 70
     1
102
RTVSPropertyOp6
 70
     1
102
RTVSPropertyOp7
 70
     1
102
RTVSPropertyOp8
 70
     1
102
RTVSPropertyOp9
 70
     1
102
RTVSPropertyOp10
 70
     1
102
RTVSPropertyOp11
 70
     1
102
RTVSPropertyOp12
 70
     1
102
RTVSPropertyOp13
 70
     1
102
RTVSPropertyOp14
 70
     1
102
RTVSPropertyOp15
 70
     1
102
RTVSPropertyOp16
 70
     1
102
RTVSPropertyOp17
 70
     1
102
RTVSPropertyOp18
 70
     1
102
RTVSPropertyOp19
 70
     1
102
RTVSPropertyOp20
 70
     1
102
RTVSPropertyOp21
 70
     1
102
RTVSPropertyOp22
 70
     1
102
RTVSPropertyOp23
 70
     1
102
RTVSPropertyOp24
 70
     1
102
RTVSPropertyOp25
 70
     1
102
RTVSPropertyOp26
 70
     1
102
RTVSPropertyOp27
 70
     1
102
RTVSPropertyOp28
 70
     1
102
RTVSPropertyOp29
 70
     1
102
RTVSPropertyOp30
 70
     1
102
RTVSPropertyOp31
 70
     1
102
RTVSPropertyOp32
 70
     1
  0
ENDSEC
  0
EOF
