  0
SECTION
  2
HEADER
  9
$ACADVER
  1
AC1015
  9
$ACADMAINTVER
 70
     6
  9
$DWGCODEPAGE
  3
ANSI_932
  9
$INSBASE
 10
0.0
 20
0.0
 30
0.0
  9
$EXTMIN
 10
0.0
 20
0.0
 30
0.0
  9
$EXTMAX
 10
420.0
 20
594.0
 30
0.0
  9
$LIMMIN
 10
0.0
 20
0.0
  9
$LIMMAX
 10
12.0
 20
9.0
  9
$ORTHOMODE
 70
     0
  9
$REGENMODE
 70
     1
  9
$FILLMODE
 70
     1
  9
$QTEXTMODE
 70
     0
  9
$MIRRTEXT
 70
     1
  9
$LTSCALE
 40
1.0
  9
$ATTMODE
 70
     1
  9
$TEXTSIZE
 40
0.2
  9
$TRACEWID
 40
0.05
  9
$TEXTSTYLE
  7
Standard
  9
$CLAYER
  8
0
  9
$CELTYPE
  6
ByLayer
  9
$CECOLOR
 62
   256
  9
$CELTSCALE
 40
1.0
  9
$DISPSILH
 70
     0
  9
$DIMSCALE
 40
1.0
  9
$DIMASZ
 40
0.18
  9
$DIMEXO
 40
0.0625
  9
$DIMDLI
 40
0.38
  9
$DIMRND
 40
0.0
  9
$DIMDLE
 40
0.0
  9
$DIMEXE
 40
0.18
  9
$DIMTP
 40
0.0
  9
$DIMTM
 40
0.0
  9
$DIMTXT
 40
0.18
  9
$DIMCEN
 40
0.09
  9
$DIMTSZ
 40
0.0
  9
$DIMTOL
 70
     0
  9
$DIMLIM
 70
     0
  9
$DIMTIH
 70
     1
  9
$DIMTOH
 70
     1
  9
$DIMSE1
 70
     0
  9
$DIMSE2
 70
     0
  9
$DIMTAD
 70
     0
  9
$DIMZIN
 70
     0
  9
$DIMBLK
  1

  9
$DIMASO
 70
     1
  9
$DIMSHO
 70
     1
  9
$DIMPOST
  1

  9
$DIMAPOST
  1

  9
$DIMALT
 70
     0
  9
$DIMALTD
 70
     2
  9
$DIMALTF
 40
25.4
  9
$DIMLFAC
 40
1.0
  9
$DIMTOFL
 70
     0
  9
$DIMTVP
 40
0.0
  9
$DIMTIX
 70
     0
  9
$DIMSOXD
 70
     0
  9
$DIMSAH
 70
     0
  9
$DIMBLK1
  1

  9
$DIMBLK2
  1

  9
$DIMSTYLE
  2
Standard
  9
$DIMCLRD
 70
     0
  9
$DIMCLRE
 70
     0
  9
$DIMCLRT
 70
     0
  9
$DIMTFAC
 40
1.0
  9
$DIMGAP
 40
0.09
  9
$DIMJUST
 70
     0
  9
$DIMSD1
 70
     0
  9
$DIMSD2
 70
     0
  9
$DIMTOLJ
 70
     1
  9
$DIMTZIN
 70
     0
  9
$DIMALTZ
 70
     0
  9
$DIMALTTZ
 70
     0
  9
$DIMUPT
 70
     0
  9
$DIMDEC
 70
     4
  9
$DIMTDEC
 70
     4
  9
$DIMALTU
 70
     2
  9
$DIMALTTD
 70
     2
  9
$DIMTXSTY
  7
Standard
  9
$DIMAUNIT
 70
     0
  9
$DIMADEC
 70
     0
  9
$DIMALTRND
 40
0.0
  9
$DIMAZIN
 70
     0
  9
$DIMDSEP
 70
    46
  9
$DIMATFIT
 70
     3
  9
$DIMFRAC
 70
     0
  9
$DIMLDRBLK
  1

  9
$DIMLUNIT
 70
     2
  9
$DIMLWD
 70
    -2
  9
$DIMLWE
 70
    -2
  9
$DIMTMOVE
 70
     0
  9
$LUNITS
 70
     2
  9
$LUPREC
 70
     4
  9
$SKETCHINC
 40
0.1
  9
$FILLETRAD
 40
0.5
  9
$AUNITS
 70
     0
  9
$AUPREC
 70
     0
  9
$MENU
  1
.
  9
$ELEVATION
 40
0.0
  9
$PELEVATION
 40
0.0
  9
$THICKNESS
 40
0.0
  9
$LIMCHECK
 70
     0
  9
$CHAMFERA
 40
0.5
  9
$CHAMFERB
 40
0.5
  9
$CHAMFERC
 40
1.0
  9
$CHAMFERD
 40
0.0
  9
$SKPOLY
 70
     0
  9
$TDCREATE
 40
2456496.707829942
  9
$TDUCREATE
 40
2456496.332829942
  9
$TDUPDATE
 40
2456496.707831203
  9
$TDUUPDATE
 40
2456496.332831203
  9
$TDINDWG
 40
0.0000000116
  9
$TDUSRTIMER
 40
0.0000000116
  9
$USRTIMER
 70
     1
  9
$ANGBASE
 50
0.0
  9
$ANGDIR
 70
     0
  9
$PDMODE
 70
     0
  9
$PDSIZE
 40
0.0
  9
$PLINEWID
 40
0.0
  9
$SPLFRAME
 70
     0
  9
$SPLINETYPE
 70
     6
  9
$SPLINESEGS
 70
     8
  9
$HANDSEED
  5
429
  9
$SURFTAB1
 70
     6
  9
$SURFTAB2
 70
     6
  9
$SURFTYPE
 70
     6
  9
$SURFU
 70
     6
  9
$SURFV
 70
     6
  9
$UCSBASE
  2

  9
$UCSNAME
  2

  9
$UCSORG
 10
0.0
 20
0.0
 30
0.0
  9
$UCSXDIR
 10
1.0
 20
0.0
 30
0.0
  9
$UCSYDIR
 10
0.0
 20
1.0
 30
0.0
  9
$UCSORTHOREF
  2

  9
$UCSORTHOVIEW
 70
     0
  9
$UCSORGTOP
 10
0.0
 20
0.0
 30
0.0
  9
$UCSORGBOTTOM
 10
0.0
 20
0.0
 30
0.0
  9
$UCSORGLEFT
 10
0.0
 20
0.0
 30
0.0
  9
$UCSORGRIGHT
 10
0.0
 20
0.0
 30
0.0
  9
$UCSORGFRONT
 10
0.0
 20
0.0
 30
0.0
  9
$UCSORGBACK
 10
0.0
 20
0.0
 30
0.0
  9
$PUCSBASE
  2

  9
$PUCSNAME
  2

  9
$PUCSORG
 10
0.0
 20
0.0
 30
0.0
  9
$PUCSXDIR
 10
1.0
 20
0.0
 30
0.0
  9
$PUCSYDIR
 10
0.0
 20
1.0
 30
0.0
  9
$PUCSORTHOREF
  2

  9
$PUCSORTHOVIEW
 70
     0
  9
$PUCSORGTOP
 10
0.0
 20
0.0
 30
0.0
  9
$PUCSORGBOTTOM
 10
0.0
 20
0.0
 30
0.0
  9
$PUCSORGLEFT
 10
0.0
 20
0.0
 30
0.0
  9
$PUCSORGRIGHT
 10
0.0
 20
0.0
 30
0.0
  9
$PUCSORGFRONT
 10
0.0
 20
0.0
 30
0.0
  9
$PUCSORGBACK
 10
0.0
 20
0.0
 30
0.0
  9
$USERI1
 70
     0
  9
$USERI2
 70
     0
  9
$USERI3
 70
     0
  9
$USERI4
 70
     0
  9
$USERI5
 70
     0
  9
$USERR1
 40
18.1
  9
$USERR2
 40
0.0
  9
$USERR3
 40
0.0
  9
$USERR4
 40
0.0
  9
$USERR5
 40
0.0
  9
$WORLDVIEW
 70
     1
  9
$SHADEDGE
 70
     3
  9
$SHADEDIF
 70
    70
  9
$TILEMODE
 70
     1
  9
$MAXACTVP
 70
    64
  9
$PINSBASE
 10
0.0
 20
0.0
 30
0.0
  9
$PLIMCHECK
 70
     0
  9
$PEXTMIN
 10
1.00000000000000E+20
 20
1.00000000000000E+20
 30
1.00000000000000E+20
  9
$PEXTMAX
 10
-1.00000000000000E+20
 20
-1.00000000000000E+20
 30
-1.00000000000000E+20
  9
$PLIMMIN
 10
0.0
 20
0.0
  9
$PLIMMAX
 10
12.0
 20
9.0
  9
$UNITMODE
 70
     0
  9
$VISRETAIN
 70
     1
  9
$PLINEGEN
 70
     0
  9
$PSLTSCALE
 70
     1
  9
$TREEDEPTH
 70
  3020
  9
$CMLSTYLE
  2
Standard
  9
$CMLJUST
 70
     0
  9
$CMLSCALE
 40
1.0
  9
$PROXYGRAPHICS
 70
     1
  9
$MEASUREMENT
 70
     1
  9
$CELWEIGHT
370
    -1
  9
$ENDCAPS
280
     0
  9
$JOINSTYLE
280
     0
  9
$LWDISPLAY
290
     0
  9
$INSUNITS
 70
     4
  9
$HYPERLINKBASE
  1

  9
$STYLESHEET
  1

  9
$XEDIT
290
     1
  9
$CEPSNTYPE
380
     0
  9
$PSTYLEMODE
290
     1
  9
$FINGERPRINTGUID
  2
{7EE471B9-1E1E-4EFF-BBD9-28864200202B}
  9
$VERSIONGUID
  2
{FAEB1C32-E019-11D5-929B-00C0DF256EC4}
  9
$EXTNAMES
290
     1
  9
$PSVPSCALE
 40
0.0
  9
$OLESTARTUP
290
     0
  0
ENDSEC
  0
SECTION
  2
CLASSES
  0
CLASS
  1
ACDBDICTIONARYWDFLT
  2
AcDbDictionaryWithDefault
  3
ObjectDBX Classes
 90
        0
280
     0
281
     0
  0
CLASS
  1
VISUALSTYLE
  2
AcDbVisualStyle
  3
ObjectDBX Classes
 90
     4095
280
     0
281
     0
  0
CLASS
  1
MATERIAL
  2
AcDbMaterial
  3
ObjectDBX Classes
 90
     1153
280
     0
281
     0
  0
CLASS
  1
DICTIONARYVAR
  2
AcDbDictionaryVar
  3
ObjectDBX Classes
 90
        0
280
     0
281
     0
  0
CLASS
  1
ACDBPLACEHOLDER
  2
AcDbPlaceHolder
  3
ObjectDBX Classes
 90
        0
280
     0
281
     0
  0
CLASS
  1
LAYOUT
  2
AcDbLayout
  3
ObjectDBX Classes
 90
        0
280
     0
281
     0
  0
ENDSEC
  0
SECTION
  2
TABLES
  0
TABLE
  2
VPORT
  5
8
330
0
100
AcDbSymbolTable
 70
     1
  0
VPORT
  5
29
330
8
100
AcDbSymbolTableRecord
100
AcDbViewportTableRecord
  2
*Active
 70
     0
 10
0.0
 20
0.0
 11
1.0
 21
1.0
 12
210.0
 22
297.0
 13
0.0
 23
0.0
 14
0.5
 24
0.5
 15
0.5
 25
0.5
 16
0.0
 26
0.0
 36
1.0
 17
0.0
 27
0.0
 37
0.0
 40
653.4000000000001
 41
1.60267857142857
 42
50.0
 43
0.0
 44
0.0
 50
0.0
 51
0.0
 71
     0
 72
   100
 73
     1
 74
     3
 75
     0
 76
     0
 77
     0
 78
     0
281
     0
 65
     1
110
0.0
120
0.0
130
0.0
111
1.0
121
0.0
131
0.0
112
0.0
122
1.0
132
0.0
 79
     0
146
0.0
  0
ENDTAB
  0
TABLE
  2
LTYPE
  5
5
330
0
100
AcDbSymbolTable
 70
     8
  0
LTYPE
  5
14
330
5
100
AcDbSymbolTableRecord
100
AcDbLinetypeTableRecord
  2
ByBlock
 70
     0
  3

 72
    65
 73
     0
 40
0.0
  0
LTYPE
  5
15
330
5
100
AcDbSymbolTableRecord
100
AcDbLinetypeTableRecord
  2
ByLayer
 70
     0
  3

 72
    65
 73
     0
 40
0.0
  0
LTYPE
  5
16
330
5
100
AcDbSymbolTableRecord
100
AcDbLinetypeTableRecord
  2
Continuous
 70
     0
  3
Solid line
 72
    65
 73
     0
 40
0.0
  0
LTYPE
  5
3F
330
5
100
AcDbSymbolTableRecord
100
AcDbLinetypeTableRecord
  2
DASHED
 70
     0
  3
Dashed
 72
    65
 73
     2
 40
15.0
 49
7.0
 74
     0
 49
-8.0
 74
     0
  0
LTYPE
  5
40
330
5
100
AcDbSymbolTableRecord
100
AcDbLinetypeTableRecord
  2
DOTTED
 70
     0
  3
Dotted
 72
    65
 73
     2
 40
1.0
 49
0.0
 74
     0
 49
-1.0
 74
     0
  0
LTYPE
  5
41
330
5
100
AcDbSymbolTableRecord
100
AcDbLinetypeTableRecord
  2
DOT_CENTER
 70
     0
  3
Dot_Center
 72
    65
 73
     4
 40
14.0
 49
12.0
 74
     0
 49
-1.0
 74
     0
 49
0.0
 74
     0
 49
-1.0
 74
     0
  0
LTYPE
  5
42
330
5
100
AcDbSymbolTableRecord
100
AcDbLinetypeTableRecord
  2
LONG_DASHED
 70
     0
  3
Long_Dashed
 72
    65
 73
     2
 40
15.0
 49
10.0
 74
     0
 49
-5.0
 74
     0
  0
LTYPE
  5
43
330
5
100
AcDbSymbolTableRecord
100
AcDbLinetypeTableRecord
  2
DASH_CENTER
 70
     0
  3
Dash_Center
 72
    65
 73
     4
 40
14.0
 49
11.0
 74
     0
 49
-1.0
 74
     0
 49
1.0
 74
     0
 49
-1.0
 74
     0
  0
LTYPE
  5
44
330
5
100
AcDbSymbolTableRecord
100
AcDbLinetypeTableRecord
  2
PHANTOM
 70
     0
  3
Phantom
 72
    65
 73
     6
 40
13.0
 49
10.0
 74
     0
 49
-1.0
 74
     0
 49
0.0
 74
     0
 49
-1.0
 74
     0
 49
0.0
 74
     0
 49
-1.0
 74
     0
  0
LTYPE
  5
45
330
5
100
AcDbSymbolTableRecord
100
AcDbLinetypeTableRecord
  2
CENTER_DASH_DASH
 70
     0
  3
Center_Dash_Dash
 72
    65
 73
     6
 40
14.0
 49
9.0
 74
     0
 49
-1.0
 74
     0
 49
1.0
 74
     0
 49
-1.0
 74
     0
 49
1.0
 74
     0
 49
-1.0
 74
     0
  0
ENDTAB
  0
TABLE
  2
LAYER
  5
2
330
0
100
AcDbSymbolTable
 70
     2
  0
LAYER
  5
10
330
2
100
AcDbSymbolTableRecord
100
AcDbLayerTableRecord
  2
0
 70
     0
 62
     7
  6
Continuous
370
    -3
390
F
  0
LAYER
  5
46
330
2
100
AcDbSymbolTableRecord
100
AcDbLayerTableRecord
  2
1
 70
     0
 62
     7
  6
Continuous
370
    -3
390
F
  0
ENDTAB
  0
TABLE
  2
STYLE
  5
3
330
0
100
AcDbSymbolTable
 70
     3
  0
STYLE
  5
11
330
3
100
AcDbSymbolTableRecord
100
AcDbTextStyleTableRecord
  2
Standard
 70
     0
 40
0.0
 41
1.0
 50
0.0
 71
     0
 42
0.2
  3
txt
  4

  0
STYLE
  5
DE
330
3
100
AcDbSymbolTableRecord
100
AcDbTextStyleTableRecord
  2
CONVERTER_11
 70
     0
 40
0.0
 41
0.89
 50
0.0
 71
     0
 42
0.2
  3
MS Mincho.ttf
  4

1001
ACAD
1000
MS Mincho
1071
    32785
  0
STYLE
  5
3B1
330
3
100
AcDbSymbolTableRecord
100
AcDbTextStyleTableRecord
  2
CONVERTER_12
 70
     0
 40
0.0
 41
0.9
 50
0.0
 71
     0
 42
0.2
  3
txt.shx
  4

  0
ENDTAB
  0
TABLE
  2
VIEW
  5
6
330
0
100
AcDbSymbolTable
 70
     0
  0
ENDTAB
  0
TABLE
  2
UCS
  5
7
330
0
100
AcDbSymbolTable
 70
     0
  0
ENDTAB
  0
TABLE
  2
APPID
  5
9
330
0
100
AcDbSymbolTable
 70
     1
  0
APPID
  5
12
330
9
100
AcDbSymbolTableRecord
100
AcDbRegAppTableRecord
  2
ACAD
 70
     0
  0
ENDTAB
  0
TABLE
  2
DIMSTYLE
  5
A
330
0
100
AcDbSymbolTable
 70
     7
100
AcDbDimStyleTable
  0
DIMSTYLE
105
27
330
A
100
AcDbSymbolTableRecord
100
AcDbDimStyleTableRecord
  2
Standard
 70
     0
178
     0
340
11
  0
DIMSTYLE
105
3C3
102
{ACAD_REACTORS
330
3C4
102
}
330
A
100
AcDbSymbolTableRecord
100
AcDbDimStyleTableRecord
  2
ME10_DIM_10
 70
     0
 41
7.0
 42
0.0
 44
2.0
 73
     0
 74
     0
 77
     1
 78
     8
140
7.0
147
2.0
172
     1
173
     1
174
     1
175
     1
176
     2
177
     2
271
     2
178
     7
271
     2
340
3B1
  0
DIMSTYLE
105
3CF
102
{ACAD_REACTORS
330
3D0
102
}
330
A
100
AcDbSymbolTableRecord
100
AcDbDimStyleTableRecord
  2
ME10_DIM_11
 70
     0
  3
内径{\Fgdt;n}<>
 41
7.0
 42
0.0
 44
2.0
 73
     0
 74
     0
 77
     1
 78
     8
140
7.0
147
2.0
172
     1
173
     1
174
     1
175
     1
176
     2
177
     2
271
     2
178
     7
271
     2
340
DE
  0
DIMSTYLE
105
3DA
102
{ACAD_REACTORS
330
3DB
102
}
330
A
100
AcDbSymbolTableRecord
100
AcDbDimStyleTableRecord
  2
ME10_DIM_12
 70
     0
  3
{\Fgdt;n}<>
 41
7.0
 42
0.0
 44
2.0
 73
     0
 74
     0
 77
     1
 78
     8
140
7.0
147
2.0
172
     1
173
     1
174
     1
175
     1
176
     2
177
     2
271
     2
178
     7
271
     2
340
3B1
  0
DIMSTYLE
105
3E5
102
{ACAD_REACTORS
330
3E6
102
}
330
A
100
AcDbSymbolTableRecord
100
AcDbDimStyleTableRecord
  2
ME10_DIM_13
 70
     0
 41
7.0
 42
0.0
 44
2.0
 73
     0
 74
     0
 77
     1
 78
     8
140
7.0
147
2.0
172
     1
173
     1
174
     1
175
     1
176
     2
177
     2
271
     2
178
     7
271
     2
340
3B1
  0
DIMSTYLE
105
3F0
102
{ACAD_REACTORS
330
3F1
102
}
330
A
100
AcDbSymbolTableRecord
100
AcDbDimStyleTableRecord
  2
ME10_DIM_14
 70
     0
 41
7.0
 42
0.0
 44
2.0
 73
     0
 74
     0
 77
     1
 78
     8
140
7.0
147
2.0
172
     1
173
     1
174
     1
175
     1
176
     2
177
     2
271
     2
178
     7
271
     2
340
3B1
  0
DIMSTYLE
105
3FC
102
{ACAD_REACTORS
330
3FD
102
}
330
A
100
AcDbSymbolTableRecord
100
AcDbDimStyleTableRecord
  2
ME10_DIM_15
 70
     0
 41
7.0
 42
0.0
 44
2.0
 73
     0
 74
     0
 77
     1
 78
     8
140
7.0
147
2.0
172
     1
173
     1
174
     1
175
     1
176
     2
177
     2
271
     2
178
     7
271
     2
340
DE
  0
ENDTAB
  0
TABLE
  2
BLOCK_RECORD
  5
1
330
0
100
AcDbSymbolTable
 70
    26
  0
BLOCK_RECORD
  5
1F
330
1
100
AcDbSymbolTableRecord
100
AcDbBlockTableRecord
  2
*Model_Space
340
22
  0
BLOCK_RECORD
  5
1B
330
1
100
AcDbSymbolTableRecord
100
AcDbBlockTableRecord
  2
*Paper_Space
340
1E
  0
BLOCK_RECORD
  5
23
330
1
100
AcDbSymbolTableRecord
100
AcDbBlockTableRecord
  2
*Paper_Space0
340
26
  0
BLOCK_RECORD
  5
47
330
1
100
AcDbSymbolTableRecord
100
AcDbBlockTableRecord
  2
開示A4
340
0
102
{BLKREFS
331
88
102
}
  0
BLOCK_RECORD
  5
4A
330
1
100
AcDbSymbolTableRecord
100
AcDbBlockTableRecord
  2
neji__1
340
0
102
{BLKREFS
331
57
102
}
  0
BLOCK_RECORD
  5
4D
330
1
100
AcDbSymbolTableRecord
100
AcDbBlockTableRecord
  2
guid
340
0
102
{BLKREFS
331
58
102
}
  0
BLOCK_RECORD
  5
50
330
1
100
AcDbSymbolTableRecord
100
AcDbBlockTableRecord
  2
washer__2
340
0
102
{BLKREFS
331
59
102
}
  0
BLOCK_RECORD
  5
53
330
1
100
AcDbSymbolTableRecord
100
AcDbBlockTableRecord
  2
ring__3
340
0
102
{BLKREFS
331
5A
102
}
  0
BLOCK_RECORD
  5
56
330
1
100
AcDbSymbolTableRecord
100
AcDbBlockTableRecord
  2
D21-30
340
0
102
{BLKREFS
331
89
102
}
  0
BLOCK_RECORD
  5
5D
330
1
100
AcDbSymbolTableRecord
100
AcDbBlockTableRecord
  2
_3
340
0
102
{BLKREFS
331
8A
102
}
  0
BLOCK_RECORD
  5
60
330
1
100
AcDbSymbolTableRecord
100
AcDbBlockTableRecord
  2
lock
340
0
102
{BLKREFS
331
8B
102
}
  0
BLOCK_RECORD
  5
63
330
1
100
AcDbSymbolTableRecord
100
AcDbBlockTableRecord
  2
tsuba
340
0
102
{BLKREFS
331
8C
102
}
  0
BLOCK_RECORD
  5
66
330
1
100
AcDbSymbolTableRecord
100
AcDbBlockTableRecord
  2
screw__4
340
0
102
{BLKREFS
331
8D
102
}
  0
BLOCK_RECORD
  5
69
330
1
100
AcDbSymbolTableRecord
100
AcDbBlockTableRecord
  2
elbo
340
0
102
{BLKREFS
331
8E
102
}
  0
BLOCK_RECORD
  5
6C
330
1
100
AcDbSymbolTableRecord
100
AcDbBlockTableRecord
  2
plate
340
0
102
{BLKREFS
331
79
102
}
  0
BLOCK_RECORD
  5
6F
330
1
100
AcDbSymbolTableRecord
100
AcDbBlockTableRecord
  2
washer__5
340
0
102
{BLKREFS
331
7A
102
}
  0
BLOCK_RECORD
  5
72
330
1
100
AcDbSymbolTableRecord
100
AcDbBlockTableRecord
  2
neji__6
340
0
102
{BLKREFS
331
7B
102
}
  0
BLOCK_RECORD
  5
75
330
1
100
AcDbSymbolTableRecord
100
AcDbBlockTableRecord
  2
ring__7
340
0
102
{BLKREFS
331
7C
102
}
  0
BLOCK_RECORD
  5
78
330
1
100
AcDbSymbolTableRecord
100
AcDbBlockTableRecord
  2
5
340
0
102
{BLKREFS
331
8F
102
}
  0
BLOCK_RECORD
  5
7F
330
1
100
AcDbSymbolTableRecord
100
AcDbBlockTableRecord
  2
screw__8
340
0
102
{BLKREFS
331
90
102
}
  0
BLOCK_RECORD
  5
82
330
1
100
AcDbSymbolTableRecord
100
AcDbBlockTableRecord
  2
screw__9
340
0
102
{BLKREFS
331
91
102
}
  0
BLOCK_RECORD
  5
85
330
1
100
AcDbSymbolTableRecord
100
AcDbBlockTableRecord
  2
screw__10
340
0
102
{BLKREFS
331
92
102
}
  0
BLOCK_RECORD
  5
3B9
330
1
100
AcDbSymbolTableRecord
100
AcDbBlockTableRecord
  2
*D20
340
0
  0
BLOCK_RECORD
  5
3C5
330
1
100
AcDbSymbolTableRecord
100
AcDbBlockTableRecord
  2
*D21
340
0
  0
BLOCK_RECORD
  5
3D1
330
1
100
AcDbSymbolTableRecord
100
AcDbBlockTableRecord
  2
*D22
340
0
  0
BLOCK_RECORD
  5
3DC
330
1
100
AcDbSymbolTableRecord
100
AcDbBlockTableRecord
  2
*D23
340
0
  0
BLOCK_RECORD
  5
3E7
330
1
100
AcDbSymbolTableRecord
100
AcDbBlockTableRecord
  2
*D24
340
0
  0
BLOCK_RECORD
  5
3F2
330
1
100
AcDbSymbolTableRecord
100
AcDbBlockTableRecord
  2
*D25
340
0
  0
ENDTAB
  0
ENDSEC
  0
SECTION
  2
BLOCKS
  0
BLOCK
  5
20
330
1F
100
AcDbEntity
  8
0
100
AcDbBlockBegin
  2
*Model_Space
 70
     0
 10
0.0
 20
0.0
 30
0.0
  3
*Model_Space
  1

  0
ENDBLK
  5
21
330
1F
100
AcDbEntity
  8
0
100
AcDbBlockEnd
  0
BLOCK
  5
1C
330
1B
100
AcDbEntity
 67
     1
  8
0
100
AcDbBlockBegin
  2
*Paper_Space
 70
     0
 10
0.0
 20
0.0
 30
0.0
  3
*Paper_Space
  1

  0
ENDBLK
  5
1D
330
1B
100
AcDbEntity
 67
     1
  8
0
100
AcDbBlockEnd
  0
BLOCK
  5
24
330
23
100
AcDbEntity
  8
0
100
AcDbBlockBegin
  2
*Paper_Space0
 70
     0
 10
0.0
 20
0.0
 30
0.0
  3
*Paper_Space0
  1

  0
ENDBLK
  5
25
330
23
100
AcDbEntity
  8
0
100
AcDbBlockEnd
  0
BLOCK
  5
48
330
47
100
AcDbEntity
  8
0
100
AcDbBlockBegin
  2
開示A4
 70
     0
 10
0.0
 20
0.0
 30
0.0
  3
開示A4
  1

  0
POINT
  5
93
330
47
100
AcDbEntity
  8
1
 62
     4
100
AcDbPoint
 10
34.0
 20
34.00000000000001
 30
0.0
  0
POINT
  5
94
330
47
100
AcDbEntity
  8
1
 62
     4
100
AcDbPoint
 10
57.0
 20
12.25
 30
0.0
  0
POINT
  5
95
330
47
100
AcDbEntity
  8
1
 62
     4
100
AcDbPoint
 10
57.0
 20
20.75000000000001
 30
0.0
  0
POINT
  5
96
330
47
100
AcDbEntity
  8
1
 62
     4
100
AcDbPoint
 10
57.0
 20
24.75000000000001
 30
0.0
  0
POINT
  5
97
330
47
100
AcDbEntity
  8
1
 62
     4
100
AcDbPoint
 10
57.0
 20
16.25
 30
0.0
  0
POINT
  5
98
330
47
100
AcDbEntity
  8
1
 62
     4
100
AcDbPoint
 10
157.5
 20
19.00000000000001
 30
0.0
  0
POINT
  5
99
330
47
100
AcDbEntity
  8
1
 62
     4
100
AcDbPoint
 10
47.5
 20
282.0000000000003
 30
0.0
  0
POINT
  5
9A
330
47
100
AcDbEntity
  8
1
 62
     4
100
AcDbPoint
 10
57.0
 20
22.75000000000001
 30
0.0
  0
POINT
  5
9B
330
47
100
AcDbEntity
  8
1
 62
     4
100
AcDbPoint
 10
57.0
 20
14.25
 30
0.0
  0
POINT
  5
9C
330
47
100
AcDbEntity
  8
1
 62
     4
100
AcDbPoint
 10
157.5
 20
12.5
 30
0.0
  0
POINT
  5
9D
330
47
100
AcDbEntity
  8
1
 62
     4
100
AcDbPoint
 10
163.25
 20
12.5
 30
0.0
  0
POINT
  5
9E
330
47
100
AcDbEntity
  8
1
 62
     4
100
AcDbPoint
 10
151.75
 20
12.5
 30
0.0
  0
POINT
  5
9F
330
47
100
AcDbEntity
  8
1
 62
     4
100
AcDbPoint
 10
134.75
 20
12.5
 30
0.0
  0
POINT
  5
A0
330
47
100
AcDbEntity
  8
1
 62
     4
100
AcDbPoint
 10
146.25
 20
12.5
 30
0.0
  0
POINT
  5
A1
330
47
100
AcDbEntity
  8
1
 62
     4
100
AcDbPoint
 10
140.5
 20
12.5
 30
0.0
  0
POINT
  5
A2
330
47
100
AcDbEntity
  8
1
 62
     4
100
AcDbPoint
 10
140.5
 20
19.00000000000001
 30
0.0
  0
POINT
  5
A3
330
47
100
AcDbEntity
  8
1
 62
     4
100
AcDbPoint
 10
117.75
 20
12.5
 30
0.0
  0
POINT
  5
A4
330
47
100
AcDbEntity
  8
1
 62
     4
100
AcDbPoint
 10
129.25
 20
12.5
 30
0.0
  0
POINT
  5
A5
330
47
100
AcDbEntity
  8
1
 62
     4
100
AcDbPoint
 10
123.5
 20
12.5
 30
0.0
  0
POINT
  5
A6
330
47
100
AcDbEntity
  8
1
 62
     4
100
AcDbPoint
 10
123.5
 20
19.00000000000001
 30
0.0
  0
POINT
  5
A7
330
47
100
AcDbEntity
  8
1
 62
     4
100
AcDbPoint
 10
100.75
 20
12.5
 30
0.0
  0
POINT
  5
A8
330
47
100
AcDbEntity
  8
1
 62
     4
100
AcDbPoint
 10
112.25
 20
12.5
 30
0.0
  0
POINT
  5
A9
330
47
100
AcDbEntity
  8
1
 62
     4
100
AcDbPoint
 10
106.5
 20
12.5
 30
0.0
  0
POINT
  5
AA
330
47
100
AcDbEntity
  8
1
 62
     4
100
AcDbPoint
 10
106.5
 20
19.00000000000001
 30
0.0
  0
POINT
  5
AB
330
47
100
AcDbEntity
  8
1
 62
     4
100
AcDbPoint
 10
85.25
 20
17.0
 30
0.0
  0
POINT
  5
AC
330
47
100
AcDbEntity
  8
1
 62
     4
100
AcDbPoint
 10
93.75
 20
17.0
 30
0.0
  0
LINE
  5
AD
330
47
100
AcDbEntity
  8
1
  6
Continuous
 62
     2
100
AcDbLine
 10
81.0
 20
27.00000000000001
 30
0.0
 11
81.0
 21
10.0
 31
0.0
  0
LINE
  5
AE
330
47
100
AcDbEntity
  8
1
  6
DOT_CENTER
 62
     2
100
AcDbLine
 10
187.0
 20
26.50000000000001
 30
0.0
 11
187.0
 21
20.50000000000001
 31
0.0
  0
LINE
  5
AF
330
47
100
AcDbEntity
  8
1
  6
DOT_CENTER
 62
     2
100
AcDbLine
 10
184.0
 20
23.50000000000001
 30
0.0
 11
197.0
 21
23.50000000000001
 31
0.0
  0
LINE
  5
B0
330
47
100
AcDbEntity
  8
1
  6
Continuous
 62
     7
100
AcDbLine
 10
196.0
 20
21.50000000000001
 30
0.0
 11
191.0
 21
22.30000000000001
 31
0.0
  0
LINE
  5
B1
330
47
100
AcDbEntity
  8
1
  6
Continuous
 62
     7
100
AcDbLine
 10
196.0
 20
25.50000000000001
 30
0.0
 11
196.0
 21
21.50000000000001
 31
0.0
  0
LINE
  5
B2
330
47
100
AcDbEntity
  8
1
  6
Continuous
 62
     7
100
AcDbLine
 10
191.0
 20
24.70000000000001
 30
0.0
 11
196.0
 21
25.50000000000001
 31
0.0
  0
LINE
  5
B3
330
47
100
AcDbEntity
  8
1
  6
Continuous
 62
     7
100
AcDbLine
 10
191.0
 20
24.70000000000001
 30
0.0
 11
191.0
 21
22.30000000000001
 31
0.0
  0
LINE
  5
B4
330
47
100
AcDbEntity
  8
1
  6
Continuous
 62
     2
100
AcDbLine
 10
33.0
 20
27.0
 30
0.0
 11
33.0
 21
10.0
 31
0.0
  0
LINE
  5
B5
330
47
100
AcDbEntity
  8
1
  6
Continuous
 62
     2
100
AcDbLine
 10
25.0
 20
18.50000000000001
 30
0.0
 11
81.0
 21
18.50000000000001
 31
0.0
  0
LINE
  5
B6
330
47
100
AcDbEntity
  8
1
  6
Continuous
 62
     7
100
AcDbLine
 10
200.0
 20
287.0000000000003
 30
0.0
 11
105.0
 21
287.0000000000003
 31
0.0
  0
LINE
  5
B7
330
47
100
AcDbEntity
  8
1
  6
Continuous
 62
     7
100
AcDbLine
 10
200.0
 20
10.0
 30
0.0
 11
200.0
 21
148.5
 31
0.0
  0
LINE
  5
B8
330
47
100
AcDbEntity
  8
1
  6
Continuous
 62
     7
100
AcDbLine
 10
25.0
 20
10.0
 30
0.0
 11
105.0
 21
10.0
 31
0.0
  0
LINE
  5
B9
330
47
100
AcDbEntity
  8
1
  6
PHANTOM
 62
     4
100
AcDbLine
 10
0.0
 20
297.0
 30
0.0
 11
0.0
 21
0.0
 31
0.0
  0
LINE
  5
BA
330
47
100
AcDbEntity
  8
1
  6
PHANTOM
 62
     4
100
AcDbLine
 10
210.0
 20
297.0
 30
0.0
 11
0.0
 21
297.0
 31
0.0
  0
LINE
  5
BB
330
47
100
AcDbEntity
  8
1
  6
PHANTOM
 62
     4
100
AcDbLine
 10
210.0
 20
0.0
 30
0.0
 11
210.0
 21
297.0
 31
0.0
  0
LINE
  5
BC
330
47
100
AcDbEntity
  8
1
  6
PHANTOM
 62
     4
100
AcDbLine
 10
0.0
 20
0.0
 30
0.0
 11
210.0
 21
0.0
 31
0.0
  0
LINE
  5
BD
330
47
100
AcDbEntity
  8
1
  6
Continuous
 62
     7
100
AcDbLine
 10
25.0
 20
41.0
 30
0.0
 11
200.0
 21
41.0
 31
0.0
  0
LINE
  5
BE
330
47
100
AcDbEntity
  8
1
  6
Continuous
 62
     7
100
AcDbLine
 10
200.0
 20
27.00000000000001
 30
0.0
 11
25.0
 21
27.00000000000001
 31
0.0
  0
LINE
  5
BF
330
47
100
AcDbEntity
  8
1
  6
Continuous
 62
     2
100
AcDbLine
 10
33.0
 20
41.00000000000001
 30
0.0
 11
33.0
 21
27.0
 31
0.0
  0
LINE
  5
C0
330
47
100
AcDbEntity
  8
1
  6
Continuous
 62
     2
100
AcDbLine
 10
55.0
 20
287.0000000000003
 30
0.0
 11
55.0
 21
277.0000000000003
 31
0.0
  0
LINE
  5
C1
330
47
100
AcDbEntity
  8
1
  6
Continuous
 62
     2
100
AcDbLine
 10
40.0
 20
287.0000000000003
 30
0.0
 11
40.0
 21
277.0000000000003
 31
0.0
  0
LINE
  5
C2
330
47
100
AcDbEntity
  8
1
  6
Continuous
 62
     7
100
AcDbLine
 10
25.0
 20
10.0
 30
0.0
 11
25.0
 21
148.5
 31
0.0
  0
LINE
  5
C3
330
47
100
AcDbEntity
  8
1
  6
Continuous
 62
     2
100
AcDbLine
 10
55.0
 20
277.0000000000003
 30
0.0
 11
25.0
 21
277.0000000000003
 31
0.0
  0
LINE
  5
C4
330
47
100
AcDbEntity
  8
1
  6
Continuous
 62
     2
100
AcDbLine
 10
166.0
 20
27.00000000000001
 30
0.0
 11
166.0
 21
10.0
 31
0.0
  0
LINE
  5
C5
330
47
100
AcDbEntity
  8
1
  6
Continuous
 62
     2
100
AcDbLine
 10
132.0
 20
27.00000000000001
 30
0.0
 11
132.0
 21
9.99999999999999
 31
0.0
  0
LINE
  5
C6
330
47
100
AcDbEntity
  8
1
  6
Continuous
 62
     2
100
AcDbLine
 10
149.0
 20
27.00000000000001
 30
0.0
 11
149.0
 21
10.0
 31
0.0
  0
LINE
  5
C7
330
47
100
AcDbEntity
  8
1
  6
Continuous
 62
     2
100
AcDbLine
 10
115.0
 20
27.00000000000001
 30
0.0
 11
115.0
 21
9.99999999999999
 31
0.0
  0
LINE
  5
C8
330
47
100
AcDbEntity
  8
1
  6
Continuous
 62
     2
100
AcDbLine
 10
98.0
 20
27.00000000000001
 30
0.0
 11
98.0
 21
9.99999999999999
 31
0.0
  0
LINE
  5
C9
330
47
100
AcDbEntity
  8
1
  6
Continuous
 62
     2
100
AcDbLine
 10
166.0
 20
20.00000000000001
 30
0.0
 11
200.0
 21
20.00000000000001
 31
0.0
  0
LINE
  5
CA
330
47
100
AcDbEntity
  8
1
  6
Continuous
 62
     2
100
AcDbLine
 10
105.0
 20
287.0000000000003
 30
0.0
 11
105.0
 21
292.0000000000003
 31
0.0
  0
LINE
  5
CB
330
47
100
AcDbEntity
  8
1
  6
Continuous
 62
     7
100
AcDbLine
 10
105.0
 20
287.0000000000003
 30
0.0
 11
25.0
 21
287.0000000000003
 31
0.0
  0
LINE
  5
CC
330
47
100
AcDbEntity
  8
1
  6
Continuous
 62
     2
100
AcDbLine
 10
25.0
 20
148.5
 30
0.0
 11
20.0
 21
148.5
 31
0.0
  0
LINE
  5
CD
330
47
100
AcDbEntity
  8
1
  6
Continuous
 62
     7
100
AcDbLine
 10
25.0
 20
148.5
 30
0.0
 11
25.0
 21
287.0000000000003
 31
0.0
  0
LINE
  5
CE
330
47
100
AcDbEntity
  8
1
  6
Continuous
 62
     2
100
AcDbLine
 10
200.0
 20
148.5
 30
0.0
 11
205.0
 21
148.5
 31
0.0
  0
LINE
  5
CF
330
47
100
AcDbEntity
  8
1
  6
Continuous
 62
     7
100
AcDbLine
 10
200.0
 20
148.5
 30
0.0
 11
200.0
 21
287.0000000000003
 31
0.0
  0
LINE
  5
D0
330
47
100
AcDbEntity
  8
1
  6
Continuous
 62
     2
100
AcDbLine
 10
105.0
 20
10.0
 30
0.0
 11
105.0
 21
5.0
 31
0.0
  0
LINE
  5
D1
330
47
100
AcDbEntity
  8
1
  6
Continuous
 62
     7
100
AcDbLine
 10
105.0
 20
10.0
 30
0.0
 11
200.0
 21
10.0
 31
0.0
  0
CIRCLE
  5
D2
330
47
100
AcDbEntity
  8
1
  6
DOT_CENTER
 62
     7
100
AcDbCircle
 10
89.5
 20
18.0
 30
0.0
 40
0.1000000000000227
  0
CIRCLE
  5
D3
330
47
100
AcDbEntity
  8
1
  6
DOT_CENTER
 62
     7
100
AcDbCircle
 10
89.5
 20
16.0
 30
0.0
 40
0.1000000000000227
  0
CIRCLE
  5
D4
330
47
100
AcDbEntity
  8
1
  6
Continuous
 62
     7
100
AcDbCircle
 10
187.0
 20
23.50000000000001
 30
0.0
 40
2.0
  0
CIRCLE
  5
D5
330
47
100
AcDbEntity
  8
1
  6
Continuous
 62
     7
100
AcDbCircle
 10
187.0
 20
23.50000000000001
 30
0.0
 40
1.200000000000102
  0
CIRCLE
  5
D6
330
47
100
AcDbEntity
  8
1
  6
Continuous
 62
     7
100
AcDbCircle
 10
154.5
 20
12.5
 30
0.0
 40
0.3000000000000114
  0
CIRCLE
  5
D7
330
47
100
AcDbEntity
  8
1
  6
Continuous
 62
     7
100
AcDbCircle
 10
160.5
 20
12.5
 30
0.0
 40
0.3000000000000114
  0
CIRCLE
  5
D8
330
47
100
AcDbEntity
  8
1
  6
Continuous
 62
     7
100
AcDbCircle
 10
143.5
 20
12.5
 30
0.0
 40
0.3000000000000114
  0
CIRCLE
  5
D9
330
47
100
AcDbEntity
  8
1
  6
Continuous
 62
     7
100
AcDbCircle
 10
137.5
 20
12.5
 30
0.0
 40
0.3000000000000114
  0
CIRCLE
  5
DA
330
47
100
AcDbEntity
  8
1
  6
Continuous
 62
     7
100
AcDbCircle
 10
126.5
 20
12.5
 30
0.0
 40
0.2999999999999972
  0
CIRCLE
  5
DB
330
47
100
AcDbEntity
  8
1
  6
Continuous
 62
     7
100
AcDbCircle
 10
120.5
 20
12.5
 30
0.0
 40
0.2999999999999972
  0
CIRCLE
  5
DC
330
47
100
AcDbEntity
  8
1
  6
Continuous
 62
     7
100
AcDbCircle
 10
109.5
 20
12.5
 30
0.0
 40
0.2999999999999972
  0
CIRCLE
  5
DD
330
47
100
AcDbEntity
  8
1
  6
Continuous
 62
     7
100
AcDbCircle
 10
103.5
 20
12.5
 30
0.0
 40
0.2999999999999972
  0
MTEXT
  5
DF
330
47
100
AcDbEntity
  8
1
 62
   250
100
AcDbMText
 10
25.0
 20
5.0
 30
0.0
 40
3.5
 41
0.0
 71
     4
 72
     1
  1
備考欄の文字列 原点位置=4
  7
CONVERTER_11
 73
     1
 44
0.54545454545455
  0
MTEXT
  5
E0
330
47
100
AcDbEntity
  8
1
 62
     2
100
AcDbMText
 10
89.5
 20
24.00000000000001
 30
0.0
 40
3.5
 41
0.0
 71
     5
 72
     1
  1
尺度
  7
CONVERTER_11
 73
     1
 44
0.54545454545455
  0
MTEXT
  5
E1
330
47
100
AcDbEntity
  8
1
 62
     2
100
AcDbMText
 10
135.5
 20
25.00000000000001
 30
0.0
 40
3.0
 41
0.0
 71
     5
 72
     1
  1
製図
  7
CONVERTER_11
 73
     1
 44
0.59090909090909
  0
MTEXT
  5
E2
330
47
100
AcDbEntity
  8
1
 62
     2
100
AcDbMText
 10
152.5
 20
25.00000000000001
 30
0.0
 40
3.0
 41
0.0
 71
     5
 72
     1
  1
設計
  7
CONVERTER_11
 73
     1
 44
0.59090909090909
  0
MTEXT
  5
E3
330
47
100
AcDbEntity
  8
1
 62
     2
100
AcDbMText
 10
118.5
 20
25.00000000000001
 30
0.0
 40
3.0
 41
0.0
 71
     5
 72
     1
  1
検図
  7
CONVERTER_11
 73
     1
 44
0.59090909090909
  0
MTEXT
  5
E4
330
47
100
AcDbEntity
  8
1
 62
     2
100
AcDbMText
 10
175.0
 20
23.50000000000001
 30
0.0
 40
3.5
 41
0.0
 71
     5
 72
     1
  1
第三角法
  7
CONVERTER_11
 73
     1
 44
0.54545454545455
  0
MTEXT
  5
E5
330
47
100
AcDbEntity
  8
1
 62
     2
100
AcDbMText
 10
101.5
 20
25.00000000000001
 30
0.0
 40
3.0
 41
0.0
 71
     5
 72
     1
  1
承認
  7
CONVERTER_11
 73
     1
 44
0.59090909090909
  0
MTEXT
  5
E6
330
47
100
AcDbEntity
  8
1
 62
     2
100
AcDbMText
 10
29.0
 20
14.25
 30
0.0
 40
3.5
 41
0.0
 71
     5
 72
     1
  1
品番
  7
CONVERTER_11
 73
     1
 44
0.72727272727273
  0
MTEXT
  5
E7
330
47
100
AcDbEntity
  8
1
 62
     2
100
AcDbMText
 10
29.0
 20
22.75
 30
0.0
 40
3.5
 41
0.0
 71
     5
 72
     1
  1
品名
  7
CONVERTER_11
 73
     1
 44
0.72727272727273
  0
MTEXT
  5
E8
330
47
100
AcDbEntity
  8
1
 62
     2
100
AcDbMText
 10
29.0
 20
34.00000000000001
 30
0.0
 40
3.5
 41
0.0
 71
     5
 72
     1
  1
備考
  7
CONVERTER_11
 73
     1
 44
0.45454545454545
  0
MTEXT
  5
E9
330
47
100
AcDbEntity
  8
1
 62
     2
100
AcDbMText
 10
32.5
 20
282.0000000000003
 30
0.0
 40
5.0
 41
0.0
 71
     5
 72
     1
  1
図番
  7
CONVERTER_11
 73
     1
 44
0.45454545454545
  0
MTEXT
  5
EA
330
47
100
AcDbEntity
  8
1
 62
     7
100
AcDbMText
 10
171.5
 20
15.0
 30
0.0
 40
2.5
 41
0.0
 71
     5
 72
     1
  1
株式会社
  7
CONVERTER_11
 73
     1
 44
1.0
  0
MTEXT
  5
EB
330
47
100
AcDbEntity
  8
1
 62
     7
100
AcDbMText
 10
188.5
 20
15.0
 30
0.0
 40
3.0
 41
0.0
 71
     5
 72
     1
  1
三栄水栓製作所
  7
CONVERTER_11
 73
     1
 44
1.0
  0
ENDBLK
  5
49
330
47
100
AcDbEntity
  8
0
100
AcDbBlockEnd
  0
BLOCK
  5
4B
330
4A
100
AcDbEntity
  8
0
100
AcDbBlockBegin
  2
neji__1
 70
     0
 10
165.564544187085
 20
274.8992200717684
 30
0.0
  3
neji__1
  1

  0
LINE
  5
EC
330
4A
100
AcDbEntity
  8
1
  6
PHANTOM
 62
     4
100
AcDbLine
 10
343.064544187085
 20
274.8992200717684
 30
0.0
 11
343.064544187085
 21
293.3992200717684
 31
0.0
  0
LINE
  5
ED
330
4A
100
AcDbEntity
  8
1
  6
Continuous
 62
     7
100
AcDbLine
 10
296.314544187085
 20
286.3992200717684
 30
0.0
 11
296.314544187085
 21
281.8992200717684
 31
0.0
  0
LINE
  5
EE
330
4A
100
AcDbEntity
  8
1
  6
Continuous
 62
     7
100
AcDbLine
 10
296.314544187085
 20
281.8992200717684
 30
0.0
 11
300.814544187085
 21
281.8992200717684
 31
0.0
  0
LINE
  5
EF
330
4A
100
AcDbEntity
  8
1
  6
Continuous
 62
     7
100
AcDbLine
 10
300.814544187085
 20
286.3992200717684
 30
0.0
 11
296.314544187085
 21
286.3992200717684
 31
0.0
  0
LINE
  5
F0
330
4A
100
AcDbEntity
  8
1
  6
Continuous
 62
     7
100
AcDbLine
 10
304.314544187085
 20
286.6492200717684
 30
0.0
 11
304.814544187085
 21
287.1492200717684
 31
0.0
  0
LINE
  5
F1
330
4A
100
AcDbEntity
  8
1
  6
Continuous
 62
     7
100
AcDbLine
 10
304.314544187085
 20
281.6492200717684
 30
0.0
 11
304.814544187085
 21
281.1492200717684
 31
0.0
  0
LINE
  5
F2
330
4A
100
AcDbEntity
  8
1
  6
Continuous
 62
     7
100
AcDbLine
 10
304.814544187085
 20
281.1492200717684
 30
0.0
 11
304.814544187085
 21
287.1492200717684
 31
0.0
  0
LINE
  5
F3
330
4A
100
AcDbEntity
  8
1
  6
Continuous
 62
     7
100
AcDbLine
 10
304.814544187085
 20
287.1492200717684
 30
0.0
 11
306.814544187085
 21
287.1492200717684
 31
0.0
  0
LINE
  5
F4
330
4A
100
AcDbEntity
  8
1
  6
Continuous
 62
     2
100
AcDbLine
 10
304.314544187085
 20
286.6492200717684
 30
0.0
 11
306.814544187085
 21
286.6492200717684
 31
0.0
  0
LINE
  5
F5
330
4A
100
AcDbEntity
  8
1
  6
Continuous
 62
     2
100
AcDbLine
 10
312.814544187085
 20
281.6492200717684
 30
0.0
 11
314.6171473554741
 21
281.6492200717684
 31
0.0
  0
LINE
  5
F6
330
4A
100
AcDbEntity
  8
1
  6
Continuous
 62
     7
100
AcDbLine
 10
312.814544187085
 20
281.1492200717684
 30
0.0
 11
314.7511219516896
 21
281.1492200717684
 31
0.0
  0
LINE
  5
F7
330
4A
100
AcDbEntity
  8
1
  6
Continuous
 62
     2
100
AcDbLine
 10
304.314544187085
 20
281.6492200717684
 30
0.0
 11
309.814544187085
 21
281.6492200717684
 31
0.0
  0
LINE
  5
F8
330
4A
100
AcDbEntity
  8
1
  6
Continuous
 62
     7
100
AcDbLine
 10
304.814544187085
 20
281.1492200717684
 30
0.0
 11
309.814544187085
 21
281.1492200717684
 31
0.0
  0
LINE
  5
F9
330
4A
100
AcDbEntity
  8
1
  6
Continuous
 62
     7
100
AcDbLine
 10
314.4363359929482
 20
287.1492200717684
 30
0.0
 11
334.7541591177875
 21
287.1492200717684
 31
0.0
  0
LINE
  5
FA
330
4A
100
AcDbEntity
  8
1
  6
Continuous
 62
     2
100
AcDbLine
 10
332.314544187085
 20
286.6492200717684
 30
0.0
 11
315.0140915752704
 21
286.6492200717684
 31
0.0
  0
LINE
  5
FB
330
4A
100
AcDbEntity
  8
1
  6
Continuous
 62
     2
100
AcDbLine
 10
316.6876997162942
 20
281.6492200717684
 30
0.0
 11
332.314544187085
 21
281.6492200717684
 31
0.0
  0
LINE
  5
FC
330
4A
100
AcDbEntity
  8
1
  6
Continuous
 62
     7
100
AcDbLine
 10
334.7541591177875
 20
281.1492200717684
 30
0.0
 11
316.8216743125097
 21
281.1492200717684
 31
0.0
  0
LINE
  5
FD
330
4A
100
AcDbEntity
  8
1
  6
Continuous
 62
     7
100
AcDbLine
 10
332.314544187085
 20
281.6492200717684
 30
0.0
 11
333.1805695908694
 21
281.1492200717684
 31
0.0
  0
LINE
  5
FE
330
4A
100
AcDbEntity
  8
1
  6
Continuous
 62
     7
100
AcDbLine
 10
332.314544187085
 20
286.6492200717684
 30
0.0
 11
333.1805695908694
 21
287.1492200717684
 31
0.0
  0
LINE
  5
FF
330
4A
100
AcDbEntity
  8
1
  6
Continuous
 62
     7
100
AcDbLine
 10
332.314544187085
 20
281.1492200717684
 30
0.0
 11
332.314544187085
 21
287.1492200717684
 31
0.0
  0
LINE
  5
100
330
4A
100
AcDbEntity
  8
1
  6
Continuous
 62
     7
100
AcDbLine
 10
338.314544187085
 20
280.3257261756221
 30
0.0
 11
338.314544187085
 21
288.2666445932538
 31
0.0
  0
LINE
  5
101
330
4A
100
AcDbEntity
  8
0
  6
Continuous
 62
     7
100
AcDbLine
 10
170.814544187085
 20
289.6492200717684
 30
0.0
 11
170.814544187085
 21
290.3992200717684
 31
0.0
  0
LINE
  5
102
330
4A
100
AcDbEntity
  8
0
  6
Continuous
 62
     7
100
AcDbLine
 10
168.814544187085
 20
290.3992200717684
 30
0.0
 11
168.814544187085
 21
289.6492200717684
 31
0.0
  0
ARC
  5
103
330
4A
100
AcDbEntity
  8
1
  6
Continuous
 62
     7
100
AcDbCircle
 10
333.0146658281938
 20
276.8933260157399
 30
0.0
 40
5.145485209575989
100
AcDbArc
 50
35.82884915228627
 51
68.90895455000509
  0
ARC
  5
104
330
4A
100
AcDbEntity
  8
1
  6
Continuous
 62
     7
100
AcDbCircle
 10
333.0146658281938
 20
291.4051141277968
 30
0.0
 40
5.145485209576072
100
AcDbArc
 50
291.0910454499949
 51
324.1711508477138
  0
ARC
  5
105
330
4A
100
AcDbEntity
  8
1
  6
Continuous
 62
     7
100
AcDbCircle
 10
343.064544187085
 20
284.1492200717684
 30
0.0
 40
7.25
100
AcDbArc
 50
0.0
 51
144.1711598995663
  0
ARC
  5
106
330
4A
100
AcDbEntity
  8
1
  6
Continuous
 62
     7
100
AcDbCircle
 10
343.064544187085
 20
284.1492200717684
 30
0.0
 40
7.250000000000161
100
AcDbArc
 50
215.8288401004337
 51
0.0
  0
ARC
  5
107
330
4A
100
AcDbEntity
  8
0
  6
Continuous
 62
     7
100
AcDbCircle
 10
169.814544187085
 20
290.3992200717684
 30
0.0
 40
1.0
100
AcDbArc
 50
0.0
 51
90.0
  0
ARC
  5
108
330
4A
100
AcDbEntity
  8
0
  6
Continuous
 62
     7
100
AcDbCircle
 10
169.814544187085
 20
290.3992200717684
 30
0.0
 40
1.0
100
AcDbArc
 50
90.0
 51
180.0
  0
CIRCLE
  5
109
330
4A
100
AcDbEntity
  8
1
  6
Continuous
 62
     7
100
AcDbCircle
 10
169.814544187085
 20
284.1492200717684
 30
0.0
 40
2.25
  0
SPLINE
  5
10A
330
4A
100
AcDbEntity
  8
1
  6
Continuous
 62
     7
100
AcDbSpline
210
0.0
220
0.0
230
1.0
 70
     8
 71
     3
 72
    31
 73
    27
 74
    25
 42
0.000000001
 43
0.0000000001
 44
0.00000001
 40
0.0
 40
0.0
 40
0.0
 40
0.0
 40
0.2188120059470953
 40
0.4375983465395786
 40
0.8511789781208046
 40
1.264990837437049
 40
1.633980702503095
 40
2.002821423540696
 40
2.327400720948319
 40
2.651942490431123
 40
2.939356533661562
 40
3.226531042072624
 40
3.49199956295767
 40
3.75727177314828
 40
4.022543983338829
 40
4.288012504223834
 40
4.575187012634949
 40
4.862601055865436
 40
5.187142825348284
 40
5.511722122755867
 40
5.880562843793593
 40
6.249552708859512
 40
6.663364568175779
 40
7.076945199756929
 40
7.295731540349413
 40
7.514543546296508
 40
7.514543546296508
 40
7.514543546296508
 40
7.514543546296508
 10
334.8662738046972
 20
281.6941140701446
 30
0.0
 10
334.7978749566575
 20
281.7194424577431
 30
0.0
 10
334.6610852878888
 20
281.7700962741871
 30
0.0
 10
334.396844431577
 20
281.8735101673071
 30
0.0
 10
334.0790052762817
 20
282.017796125162
 30
0.0
 10
333.7286527391618
 20
282.2090609004878
 30
0.0
 10
333.4058828274983
 20
282.4175517541703
 30
0.0
 10
333.1258492634958
 20
282.6352437616226
 30
0.0
 10
332.8793707321352
 20
282.8692884895393
 30
0.0
 10
332.6783953574503
 20
283.1092664706985
 30
0.0
 10
332.5165845070899
 20
283.3625385534118
 30
0.0
 10
332.4009342634157
 20
283.618896757947
 30
0.0
 10
332.3308193071324
 20
283.8835971985631
 30
0.0
 10
332.3064096519849
 20
284.1492200717684
 30
0.0
 10
332.3308193071324
 20
284.4148429449737
 30
0.0
 10
332.4009342634157
 20
284.6795433855897
 30
0.0
 10
332.51658450709
 20
284.935901590125
 30
0.0
 10
332.6783953574502
 20
285.1891736728384
 30
0.0
 10
332.8793707321353
 20
285.4291516539976
 30
0.0
 10
333.1258492634958
 20
285.6631963819143
 30
0.0
 10
333.4058828274985
 20
285.8808883893664
 30
0.0
 10
333.7286527391618
 20
286.0893792430491
 30
0.0
 10
334.0790052762818
 20
286.2806440183746
 30
0.0
 10
334.3968444315769
 20
286.4249299762298
 30
0.0
 10
334.6610852878888
 20
286.5283438693496
 30
0.0
 10
334.7978749566576
 20
286.5789976857936
 30
0.0
 10
334.8662738046972
 20
286.6043260733921
 30
0.0
 11
334.8662738046972
 21
281.6941140701446
 31
0.0
 11
334.6613125849526
 21
281.7707273483019
 31
0.0
 11
334.4578185289657
 21
281.8510867424114
 31
0.0
 11
334.0813426080468
 21
282.0223024558516
 31
0.0
 11
333.7182775283711
 21
282.2208572427088
 31
0.0
 11
333.4089200943855
 21
282.4219828227326
 31
0.0
 11
333.1183917643783
 21
282.6492200717684
 31
0.0
 11
332.8838305165091
 21
282.8735696686749
 31
0.0
 11
332.6763884623696
 21
283.1231596417914
 31
0.0
 11
332.5226219008341
 21
283.3659819577366
 31
0.0
 11
332.4056976690117
 21
283.6282755387676
 31
0.0
 11
332.3381133994828
 21
283.8849969878587
 31
0.0
 11
332.314544187085
 21
284.1492200717684
 31
0.0
 11
332.3381133994827
 21
284.4134431556781
 31
0.0
 11
332.4056976690117
 21
284.6701646047691
 31
0.0
 11
332.5226219008341
 21
284.9324581858002
 31
0.0
 11
332.6763884623696
 21
285.1752805017454
 31
0.0
 11
332.8838305165091
 21
285.424870474862
 31
0.0
 11
333.1183917643783
 21
285.6492200717684
 31
0.0
 11
333.4089200943856
 21
285.8764573208043
 31
0.0
 11
333.7182775283711
 21
286.077582900828
 31
0.0
 11
334.0813426080469
 21
286.2761376876852
 31
0.0
 11
334.4578185289657
 21
286.4473534011253
 31
0.0
 11
334.6613125849526
 21
286.5277127952348
 31
0.0
 11
334.8662738046972
 21
286.6043260733921
 31
0.0
  0
ARC
  5
10B
330
4A
100
AcDbEntity
  8
1
  6
Continuous
 62
     7
100
AcDbCircle
 10
334.7541591177875
 20
278.1492200717684
 30
0.0
 40
2.999999999999996
100
AcDbArc
 50
35.82884010043452
 51
90.0
  0
ARC
  5
10C
330
4A
100
AcDbEntity
  8
1
  6
Continuous
 62
     7
100
AcDbCircle
 10
334.7541591177875
 20
290.1492200717684
 30
0.0
 40
3.0
100
AcDbArc
 50
270.0
 51
324.1711598995655
  0
ENDBLK
  5
4C
330
4A
100
AcDbEntity
  8
0
100
AcDbBlockEnd
  0
BLOCK
  5
4E
330
4D
100
AcDbEntity
  8
0
100
AcDbBlockBegin
  2
guid
 70
     0
 10
156.3156569659265
 20
278.6492200717684
 30
0.0
  3
guid
  1

  0
LINE
  5
10D
330
4D
100
AcDbEntity
  8
1
  6
DASH_CENTER
 62
     2
100
AcDbLine
 10
158.3156569659265
 20
284.1492200717684
 30
0.0
 11
181.5217022016805
 21
284.1492200717684
 31
0.0
  0
LINE
  5
10E
330
4D
100
AcDbEntity
  8
1
  6
DASH_CENTER
 62
     2
100
AcDbLine
 10
163.314544187085
 20
290.476454686954
 30
0.0
 11
163.314544187085
 21
282.9060390769959
 31
0.0
  0
LINE
  5
10F
330
4D
100
AcDbEntity
  8
1
  6
DASH_CENTER
 62
     2
100
AcDbLine
 10
159.2062940965099
 20
286.6492200717684
 30
0.0
 11
166.5293105035282
 21
286.6492200717684
 31
0.0
  0
LINE
  5
110
330
4D
100
AcDbEntity
  8
1
  6
DASH_CENTER
 62
     2
100
AcDbLine
 10
172.8627300987872
 20
286.6492200717684
 30
0.0
 11
180.2847061869815
 21
286.6492200717684
 31
0.0
  0
LINE
  5
111
330
4D
100
AcDbEntity
  8
1
  6
DASH_CENTER
 62
     2
100
AcDbLine
 10
176.314544187085
 20
282.9060390769959
 30
0.0
 11
176.314544187085
 21
290.476454686954
 31
0.0
  0
LINE
  5
112
330
4D
100
AcDbEntity
  8
1
  6
Continuous
 62
     7
100
AcDbLine
 10
177.814544187085
 20
289.6492200717684
 30
0.0
 11
161.814544187085
 21
289.6492200717684
 31
0.0
  0
LINE
  5
113
330
4D
100
AcDbEntity
  8
1
  6
Continuous
 62
     7
100
AcDbLine
 10
159.814544187085
 20
287.6492200717684
 30
0.0
 11
159.814544187085
 21
280.6492200717684
 31
0.0
  0
LINE
  5
114
330
4D
100
AcDbEntity
  8
1
  6
Continuous
 62
     7
100
AcDbLine
 10
161.814544187085
 20
278.6492200717684
 30
0.0
 11
164.6370040945876
 21
278.6492200717684
 31
0.0
  0
LINE
  5
115
330
4D
100
AcDbEntity
  8
1
  6
Continuous
 62
     7
100
AcDbLine
 10
166.6426646997062
 20
278.6492200717684
 30
0.0
 11
172.9864236744637
 21
278.6492200717684
 31
0.0
  0
LINE
  5
116
330
4D
100
AcDbEntity
  8
1
  6
Continuous
 62
     7
100
AcDbLine
 10
174.9920842795823
 20
278.6492200717684
 30
0.0
 11
177.814544187085
 21
278.6492200717684
 31
0.0
  0
LINE
  5
117
330
4D
100
AcDbEntity
  8
1
  6
Continuous
 62
     7
100
AcDbLine
 10
179.814544187085
 20
280.6492200717684
 30
0.0
 11
179.814544187085
 21
287.6492200717684
 31
0.0
  0
LINE
  5
118
330
4D
100
AcDbEntity
  8
1
  6
Continuous
 62
     7
100
AcDbLine
 10
310.314544187085
 20
289.6492200717684
 30
0.0
 11
312.314544187085
 21
289.6492200717684
 31
0.0
  0
LINE
  5
119
330
4D
100
AcDbEntity
  8
1
  6
Continuous
 62
     7
100
AcDbLine
 10
312.814544187085
 20
279.1492200717684
 30
0.0
 11
312.814544187085
 21
289.1492200717684
 31
0.0
  0
LINE
  5
11A
330
4D
100
AcDbEntity
  8
1
  6
Continuous
 62
     7
100
AcDbLine
 10
309.814544187085
 20
279.1492200717684
 30
0.0
 11
309.814544187085
 21
289.1492200717684
 31
0.0
  0
CIRCLE
  5
11B
330
4D
100
AcDbEntity
  8
1
  6
Continuous
 62
     7
100
AcDbCircle
 10
176.314544187085
 20
286.6492200717684
 30
0.0
 40
1.75
  0
CIRCLE
  5
11C
330
4D
100
AcDbEntity
  8
1
  6
Continuous
 62
     7
100
AcDbCircle
 10
163.314544187085
 20
286.6492200717684
 30
0.0
 40
1.75
  0
ARC
  5
11D
330
4D
100
AcDbEntity
  8
1
  6
Continuous
 62
     7
100
AcDbCircle
 10
177.814544187085
 20
287.6492200717684
 30
0.0
 40
2.0
100
AcDbArc
 50
0.0
 51
90.0
  0
ARC
  5
11E
330
4D
100
AcDbEntity
  8
1
  6
Continuous
 62
     7
100
AcDbCircle
 10
161.814544187085
 20
287.6492200717684
 30
0.0
 40
2.0
100
AcDbArc
 50
90.0
 51
180.0
  0
ARC
  5
11F
330
4D
100
AcDbEntity
  8
1
  6
Continuous
 62
     7
100
AcDbCircle
 10
161.814544187085
 20
280.6492200717684
 30
0.0
 40
2.0
100
AcDbArc
 50
180.0
 51
270.0
  0
ARC
  5
120
330
4D
100
AcDbEntity
  8
1
  6
Continuous
 62
     7
100
AcDbCircle
 10
177.814544187085
 20
280.6492200717684
 30
0.0
 40
2.0
100
AcDbArc
 50
270.0
 51
0.0
  0
ARC
  5
121
330
4D
100
AcDbEntity
  8
1
  6
Continuous
 62
     7
100
AcDbCircle
 10
310.314544187085
 20
289.1492200717684
 30
0.0
 40
0.5
100
AcDbArc
 50
90.0
 51
180.0
  0
ARC
  5
122
330
4D
100
AcDbEntity
  8
1
  6
Continuous
 62
     7
100
AcDbCircle
 10
312.314544187085
 20
289.1492200717684
 30
0.0
 40
0.5
100
AcDbArc
 50
0.0
 51
90.0
  0
ARC
  5
123
330
4D
100
AcDbEntity
  8
1
  6
Continuous
 62
     7
100
AcDbCircle
 10
312.314544187085
 20
279.1492200717684
 30
0.0
 40
0.5
100
AcDbArc
 50
270.0
 51
0.0
  0
ARC
  5
124
330
4D
100
AcDbEntity
  8
1
  6
Continuous
 62
     7
100
AcDbCircle
 10
310.314544187085
 20
279.1492200717684
 30
0.0
 40
0.5
100
AcDbArc
 50
180.0
 51
270.0
  0
ENDBLK
  5
4F
330
4D
100
AcDbEntity
  8
0
100
AcDbBlockEnd
  0
BLOCK
  5
51
330
50
100
AcDbEntity
  8
0
100
AcDbBlockBegin
  2
washer__2
 70
     0
 10
162.564544187085
 20
278.8992200717684
 30
0.0
  3
washer__2
  1

  0
LINE
  5
125
330
50
100
AcDbEntity
  8
1
  6
Continuous
 62
     7
100
AcDbLine
 10
304.314544187085
 20
278.8992200717684
 30
0.0
 11
303.564544187085
 21
278.8992200717684
 31
0.0
  0
LINE
  5
126
330
50
100
AcDbEntity
  8
1
  6
Continuous
 62
     7
100
AcDbLine
 10
304.314544187085
 20
289.3992200717684
 30
0.0
 11
304.314544187085
 21
278.8992200717684
 31
0.0
  0
LINE
  5
127
330
50
100
AcDbEntity
  8
1
  6
Continuous
 62
     7
100
AcDbLine
 10
302.814544187085
 20
287.8992200717684
 30
0.0
 11
302.814544187085
 21
288.6492200717684
 31
0.0
  0
LINE
  5
128
330
50
100
AcDbEntity
  8
1
  6
Continuous
 62
     7
100
AcDbLine
 10
303.564544187085
 20
289.3992200717684
 30
0.0
 11
304.314544187085
 21
289.3992200717684
 31
0.0
  0
ARC
  5
129
330
50
100
AcDbEntity
  8
1
  6
Continuous
 62
     7
100
AcDbCircle
 10
169.814544187085
 20
284.1492200717684
 30
0.0
 40
5.250000000000033
100
AcDbArc
 50
234.1061767208586
 51
305.8938232791406
  0
ARC
  5
12A
330
50
100
AcDbEntity
  8
1
  6
Continuous
 62
     7
100
AcDbCircle
 10
169.814544187085
 20
284.1492200717684
 30
0.0
 40
5.24999999999995
100
AcDbArc
 50
339.096922477181
 51
200.9030775228186
  0
ARC
  5
12B
330
50
100
AcDbEntity
  8
1
  6
Continuous
 62
     7
100
AcDbCircle
 10
303.564544187085
 20
279.6492200717684
 30
0.0
 40
0.75
100
AcDbArc
 50
180.0
 51
270.0
  0
CIRCLE
  5
12C
330
50
100
AcDbEntity
  8
1
  6
Continuous
 62
     7
100
AcDbCircle
 10
169.814544187085
 20
284.1492200717684
 30
0.0
 40
2.5
  0
ARC
  5
12D
330
50
100
AcDbEntity
  8
1
  6
Continuous
 62
     7
100
AcDbCircle
 10
303.564544187085
 20
288.6492200717684
 30
0.0
 40
0.75
100
AcDbArc
 50
90.0
 51
180.0
  0
ENDBLK
  5
52
330
50
100
AcDbEntity
  8
0
100
AcDbBlockEnd
  0
BLOCK
  5
54
330
53
100
AcDbEntity
  8
0
100
AcDbBlockBegin
  2
ring__3
 70
     0
 10
160.314544187085
 20
236.3140530247902
 30
0.0
  3
ring__3
  1

  0
LINE
  5
12E
330
53
100
AcDbEntity
  8
1
  6
Continuous
 62
     7
100
AcDbLine
 10
162.3149297664322
 20
286.621453004528
 30
0.0
 11
162.3548071807504
 21
285.1858660890724
 31
0.0
  0
LINE
  5
12F
330
53
100
AcDbEntity
  8
1
  6
Continuous
 62
     7
100
AcDbLine
 10
164.3540360220559
 20
285.2414002235531
 30
0.0
 11
164.3141586077377
 21
286.6769871390087
 31
0.0
  0
LINE
  5
130
330
53
100
AcDbEntity
  8
1
  6
Continuous
 62
     7
100
AcDbLine
 10
177.2742811934195
 20
285.1858660890724
 30
0.0
 11
177.3141586077377
 21
286.621453004528
 31
0.0
  0
LINE
  5
131
330
53
100
AcDbEntity
  8
1
  6
Continuous
 62
     7
100
AcDbLine
 10
175.3149297664322
 20
286.6769871390087
 30
0.0
 11
175.275052352114
 21
285.2414002235531
 31
0.0
  0
LINE
  5
132
330
53
100
AcDbEntity
  8
1
  6
Continuous
 62
     7
100
AcDbLine
 10
174.5511381929478
 20
284.5058392294479
 30
0.0
 11
175.0617218725297
 21
277.7242977891746
 31
0.0
  0
LINE
  5
133
330
53
100
AcDbEntity
  8
1
  6
Continuous
 62
     7
100
AcDbLine
 10
173.0673665016402
 20
277.5741423543622
 30
0.0
 11
172.5567828220582
 21
284.3556837946355
 31
0.0
  0
LINE
  5
134
330
53
100
AcDbEntity
  8
1
  6
Continuous
 62
     7
100
AcDbLine
 10
173.0646934728002
 20
277.6319414970524
 30
0.0
 11
173.1161422077457
 21
275.1492200717684
 31
0.0
  0
LINE
  5
135
330
53
100
AcDbEntity
  8
1
  6
Continuous
 62
     7
100
AcDbLine
 10
175.0648378718876
 20
277.6734540015879
 30
0.0
 11
174.9914596037133
 21
275.1492200717684
 31
0.0
  0
LINE
  5
136
330
53
100
AcDbEntity
  8
1
  6
Continuous
 62
     7
100
AcDbLine
 10
176.2319534070327
 20
237.4614623691316
 30
0.0
 11
177.044030242806
 21
276.6492200717684
 31
0.0
  0
LINE
  5
137
330
53
100
AcDbEntity
  8
1
  6
Continuous
 62
     7
100
AcDbLine
 10
165.5643272438131
 20
237.6700488854502
 30
0.0
 11
164.5643272438176
 21
277.6700488852319
 31
0.0
  0
LINE
  5
138
330
53
100
AcDbEntity
  8
1
  6
Continuous
 62
     7
100
AcDbLine
 10
162.5647611303568
 20
277.6283912580865
 30
0.0
 11
162.5892404100148
 21
276.6492200717684
 31
0.0
  0
LINE
  5
139
330
53
100
AcDbEntity
  8
1
  6
Continuous
 62
     7
100
AcDbLine
 10
164.5673665016402
 20
277.7242977891746
 30
0.0
 11
165.0779501812221
 21
284.5058392294479
 31
0.0
  0
LINE
  5
13A
330
53
100
AcDbEntity
  8
1
  6
Continuous
 62
     7
100
AcDbLine
 10
167.0723055521117
 20
284.3556837946355
 30
0.0
 11
166.5617218725297
 21
277.5741423543622
 31
0.0
  0
LINE
  5
13B
330
53
100
AcDbEntity
  8
1
  6
Continuous
 62
     7
100
AcDbLine
 10
175.0648378718821
 20
277.6734540013615
 30
0.0
 11
173.8973035651325
 21
237.509931685446
 31
0.0
  0
LINE
  5
13C
330
53
100
AcDbEntity
  8
1
  6
Continuous
 62
     7
100
AcDbLine
 10
162.5892404100148
 20
276.6492200717684
 30
0.0
 11
163.5647611303568
 21
237.6283912580866
 31
0.0
  0
LINE
  5
13D
330
53
100
AcDbEntity
  8
1
  6
Continuous
 62
     7
100
AcDbLine
 10
177.044030242806
 20
276.6492200717684
 30
0.0
 11
177.0643949013697
 21
277.6319414970524
 31
0.0
  0
LINE
  5
13E
330
53
100
AcDbEntity
  8
1
  6
Continuous
 62
     7
100
AcDbLine
 10
166.5002414812522
 20
275.1492200717684
 30
0.0
 11
166.5643949013697
 21
277.6319414970524
 31
0.0
  0
LINE
  5
13F
330
53
100
AcDbEntity
  8
1
  6
Continuous
 62
     7
100
AcDbLine
 10
164.6252093229491
 20
275.1492200717684
 30
0.0
 11
164.5643272438131
 21
277.6700488854502
 31
0.0
  0
LINE
  5
140
330
53
100
AcDbEntity
  8
1
  6
Continuous
 62
     7
100
AcDbLine
 10
308.814544187085
 20
278.6492200717684
 30
0.0
 11
303.814544187085
 21
278.6492200717684
 31
0.0
  0
LINE
  5
141
330
53
100
AcDbEntity
  8
1
  6
Continuous
 62
     7
100
AcDbLine
 10
302.814544187085
 20
279.6492200717684
 30
0.0
 11
302.814544187085
 21
287.8992200717684
 31
0.0
  0
LINE
  5
142
330
53
100
AcDbEntity
  8
1
  6
Continuous
 62
     7
100
AcDbLine
 10
300.814544187085
 20
279.6492200717684
 30
0.0
 11
300.814544187085
 21
287.8992200717684
 31
0.0
  0
LINE
  5
143
330
53
100
AcDbEntity
  8
1
  6
Continuous
 62
     7
100
AcDbLine
 10
314.1177695599262
 20
276.6492200717684
 30
0.0
 11
308.814544187085
 21
276.6492200717684
 31
0.0
  0
LINE
  5
144
330
53
100
AcDbEntity
  8
1
  6
Continuous
 62
     7
100
AcDbLine
 10
310.314544187085
 20
278.6492200717684
 30
0.0
 11
312.314544187085
 21
278.6492200717684
 31
0.0
  0
LINE
  5
145
330
53
100
AcDbEntity
  8
1
  6
Continuous
 62
     7
100
AcDbLine
 10
308.814544187085
 20
278.6492200717684
 30
0.0
 11
309.814544187085
 21
278.6492200717684
 31
0.0
  0
LINE
  5
146
330
53
100
AcDbEntity
  8
1
  6
Continuous
 62
     7
100
AcDbLine
 10
309.814544187085
 20
278.6492200717684
 30
0.0
 11
310.314544187085
 21
278.6492200717684
 31
0.0
  0
LINE
  5
147
330
53
100
AcDbEntity
  8
1
  6
Continuous
 62
     7
100
AcDbLine
 10
314.1177695599262
 20
278.6492200717684
 30
0.0
 11
312.314544187085
 21
278.6492200717684
 31
0.0
  0
LINE
  5
148
330
53
100
AcDbEntity
  8
1
  6
Continuous
 62
     7
100
AcDbLine
 10
315.6758010766378
 20
285.4256772070759
 30
0.0
 11
317.0155470387933
 21
280.4256772070759
 31
0.0
  0
LINE
  5
149
330
53
100
AcDbEntity
  8
1
  6
Continuous
 62
     7
100
AcDbLine
 10
313.7439494240597
 20
284.9080391168709
 30
0.0
 11
315.0836953862153
 21
279.9080391168709
 31
0.0
  0
LINE
  5
14A
330
53
100
AcDbEntity
  8
1
  6
Continuous
 62
     7
100
AcDbLine
 10
306.814544187085
 20
285.6492200717684
 30
0.0
 11
306.814544187085
 21
287.6492200717684
 31
0.0
  0
LINE
  5
14B
330
53
100
AcDbEntity
  8
1
  6
Continuous
 62
     7
100
AcDbLine
 10
306.814544187085
 20
287.6492200717684
 30
0.0
 11
309.814544187085
 21
287.6492200717684
 31
0.0
  0
LINE
  5
14C
330
53
100
AcDbEntity
  8
1
  6
Continuous
 62
     7
100
AcDbLine
 10
309.814544187085
 20
285.6492200717684
 30
0.0
 11
306.814544187085
 21
285.6492200717684
 31
0.0
  0
ARC
  5
14D
330
53
100
AcDbEntity
  8
1
  6
Continuous
 62
     7
100
AcDbCircle
 10
174.064544187085
 20
277.6492200717684
 30
0.0
 40
1.0
100
AcDbArc
 50
0.0
 51
4.30568777393995
  0
ARC
  5
14E
330
53
100
AcDbEntity
  8
1
  6
Continuous
 62
     7
100
AcDbCircle
 10
174.064544187085
 20
277.6492200717684
 30
0.0
 40
1.000000000000084
100
AcDbArc
 50
217.0504615820972
 51
310.32174028047
  0
ARC
  5
14F
330
53
100
AcDbEntity
  8
1
  6
Continuous
 62
     7
100
AcDbCircle
 10
165.564544187085
 20
277.6492200717684
 30
0.0
 40
1.000000000000062
100
AcDbArc
 50
229.6782597195263
 51
322.9495384178989
  0
ARC
  5
150
330
53
100
AcDbEntity
  8
1
  6
Continuous
 62
     7
100
AcDbCircle
 10
165.564544187085
 20
277.6492200717684
 30
0.0
 40
0.9999999999999837
100
AcDbArc
 50
175.6943122260606
 51
180.0
  0
ARC
  5
151
330
53
100
AcDbEntity
  8
1
  6
Continuous
 62
     7
100
AcDbCircle
 10
169.814544187085
 20
284.1492200717684
 30
0.0
 40
2.749999999999974
100
AcDbArc
 50
4.30568777394062
 51
175.6943122260596
  0
ARC
  5
152
330
53
100
AcDbEntity
  8
1
  6
Continuous
 62
     7
100
AcDbCircle
 10
169.814544187085
 20
284.1492200717684
 30
0.0
 40
4.749999999999937
100
AcDbArc
 50
4.30568777393944
 51
175.6943122260606
  0
ARC
  5
153
330
53
100
AcDbEntity
  8
0
  6
Continuous
 62
     7
100
AcDbCircle
 10
308.814544187085
 20
257.6492200717684
 30
0.0
 40
21.0
100
AcDbArc
 50
0.0
 51
69.82425558124629
  0
ARC
  5
154
330
53
100
AcDbEntity
  8
0
  6
Continuous
 62
     7
100
AcDbCircle
 10
308.814544187085
 20
257.6492200717684
 30
0.0
 40
21.0
100
AcDbArc
 50
90.0
 51
0.0
  0
ARC
  5
155
330
53
100
AcDbEntity
  8
0
  6
Continuous
 62
     7
100
AcDbCircle
 10
303.814544187085
 20
279.6492200717684
 30
0.0
 40
3.0
100
AcDbArc
 50
180.0
 51
227.4727701814808
  0
ARC
  5
156
330
53
100
AcDbEntity
  8
1
  6
Continuous
 62
     7
100
AcDbCircle
 10
314.1177695599262
 20
279.6492200717684
 30
0.0
 40
1.0
100
AcDbArc
 50
270.0
 51
14.9999999999976
  0
ARC
  5
157
330
53
100
AcDbEntity
  8
1
  6
Continuous
 62
     7
100
AcDbCircle
 10
312.7780235977706
 20
284.6492200717684
 30
0.0
 40
1.000000000000016
100
AcDbArc
 50
14.9999999999976
 51
87.90705894646179
  0
ARC
  5
158
330
53
100
AcDbEntity
  8
1
  6
Continuous
 62
     7
100
AcDbCircle
 10
312.7780235977706
 20
284.6492200717684
 30
0.0
 40
3.000000000000007
100
AcDbArc
 50
14.99999999999893
 51
89.3024908937207
  0
ARC
  5
159
330
53
100
AcDbEntity
  8
1
  6
Continuous
 62
     7
100
AcDbCircle
 10
314.1177695599262
 20
279.6492200717684
 30
0.0
 40
3.0
100
AcDbArc
 50
270.0
 51
14.99999999999977
  0
ARC
  5
15A
330
53
100
AcDbEntity
  8
1
  6
Continuous
 62
     7
100
AcDbCircle
 10
176.064544187085
 20
277.6492200717684
 30
0.0
 40
0.9999999999999107
100
AcDbArc
 50
359.0099613260715
 51
0.0
  0
ARC
  5
15B
330
53
100
AcDbEntity
  8
1
  6
Continuous
 62
     7
100
AcDbCircle
 10
176.064544187085
 20
277.6492200717684
 30
0.0
 40
1.0
100
AcDbArc
 50
0.0
 51
178.6113621700303
  0
ARC
  5
15C
330
53
100
AcDbEntity
  8
1
  6
Continuous
 62
     7
100
AcDbCircle
 10
163.564544187085
 20
277.6492200717684
 30
0.0
 40
0.999999999999921
100
AcDbArc
 50
1.19348941146863
 51
180.0
  0
ARC
  5
15D
330
53
100
AcDbEntity
  8
1
  6
Continuous
 62
     7
100
AcDbCircle
 10
163.564544187085
 20
277.6492200717684
 30
0.0
 40
1.0
100
AcDbArc
 50
180.0
 51
181.1934894239874
  0
ARC
  5
15E
330
53
100
AcDbEntity
  8
0
  6
Continuous
 62
     7
100
AcDbCircle
 10
164.564544187085
 20
237.6492200717684
 30
0.0
 40
1.000000000000093
100
AcDbArc
 50
181.1934894239809
 51
0.0
  0
ARC
  5
15F
330
53
100
AcDbEntity
  8
0
  6
Continuous
 62
     7
100
AcDbCircle
 10
175.064544187085
 20
237.4816365482793
 30
0.0
 40
1.167583523489166
100
AcDbArc
 50
178.6113621570525
 51
0.0
  0
CIRCLE
  5
160
330
53
100
AcDbEntity
  8
1
  6
Continuous
 62
     7
100
AcDbCircle
 10
163.314544187085
 20
286.6492200717684
 30
0.0
 40
1.0
  0
CIRCLE
  5
161
330
53
100
AcDbEntity
  8
1
  6
Continuous
 62
     7
100
AcDbCircle
 10
176.314544187085
 20
286.6492200717684
 30
0.0
 40
1.0
  0
ARC
  5
162
330
53
100
AcDbEntity
  8
1
  6
Continuous
 62
     7
100
AcDbCircle
 10
303.814544187085
 20
279.6492200717684
 30
0.0
 40
1.0
100
AcDbArc
 50
180.0
 51
270.0
  0
ARC
  5
163
330
53
100
AcDbEntity
  8
1
  6
Continuous
 62
     7
100
AcDbCircle
 10
301.814544187085
 20
287.8992200717684
 30
0.0
 40
1.0
100
AcDbArc
 50
0.0
 51
180.0
  0
ENDBLK
  5
55
330
53
100
AcDbEntity
  8
0
100
AcDbBlockEnd
  0
BLOCK
  5
5B
330
56
100
AcDbEntity
  8
0
100
AcDbBlockBegin
  2
D21-30
 70
     0
 10
156.3156569659265
 20
235.6492200717684
 30
0.0
  3
D21-30
  1

  0
INSERT
  5
57
330
56
100
AcDbEntity
  8
0
100
AcDbBlockReference
  2
neji__1
 10
165.564544187085
 20
274.8992200717684
 30
0.0
  0
INSERT
  5
58
330
56
100
AcDbEntity
  8
0
100
AcDbBlockReference
  2
guid
 10
156.3156569659265
 20
278.6492200717684
 30
0.0
  0
INSERT
  5
59
330
56
100
AcDbEntity
  8
0
100
AcDbBlockReference
  2
washer__2
 10
162.564544187085
 20
278.8992200717684
 30
0.0
  0
INSERT
  5
5A
330
56
100
AcDbEntity
  8
0
100
AcDbBlockReference
  2
ring__3
 10
160.314544187085
 20
236.3140530247902
 30
0.0
  0
LINE
  5
164
330
56
100
AcDbEntity
  8
1
  6
PHANTOM
 62
     4
100
AcDbLine
 10
169.814544187085
 20
235.6492200717684
 30
0.0
 11
169.814544187085
 21
293.3896402631216
 31
0.0
  0
LINE
  5
165
330
56
100
AcDbEntity
  8
1
  6
PHANTOM
 62
     4
100
AcDbLine
 10
293.934475653261
 20
284.1492200717684
 30
0.0
 11
352.738987872697
 21
284.1492200717684
 31
0.0
  0
ENDBLK
  5
5C
330
56
100
AcDbEntity
  8
0
100
AcDbBlockEnd
  0
BLOCK
  5
5E
330
5D
100
AcDbEntity
  8
0
100
AcDbBlockBegin
  2
_3
 70
     0
 10
100.564544187085
 20
171.1492200717682
 30
0.0
  3
_3
  1

  0
LINE
  5
166
330
5D
100
AcDbEntity
  8
0
  6
Continuous
 62
     7
100
AcDbLine
 10
309.8145441870848
 20
231.1492200717684
 30
0.0
 11
309.5645441870848
 21
232.1492200717684
 31
0.0
  0
LINE
  5
167
330
5D
100
AcDbEntity
  8
0
  6
Continuous
 62
     7
100
AcDbLine
 10
309.5645441870848
 20
232.1492200717684
 30
0.0
 11
308.814544187085
 21
232.1492200717684
 31
0.0
  0
LINE
  5
168
330
5D
100
AcDbEntity
  8
0
  6
Continuous
 62
     7
100
AcDbLine
 10
308.064544187085
 20
232.1492200717684
 30
0.0
 11
307.814544187085
 21
231.1492200717684
 31
0.0
  0
LINE
  5
169
330
5D
100
AcDbEntity
  8
0
  6
Continuous
 62
     7
100
AcDbLine
 10
308.814544187085
 20
232.1492200717684
 30
0.0
 11
308.064544187085
 21
232.1492200717684
 31
0.0
  0
LINE
  5
16A
330
5D
100
AcDbEntity
  8
0
  6
Continuous
 62
     7
100
AcDbLine
 10
336.184544187085
 20
209.1492200717684
 30
0.0
 11
335.314544187085
 21
207.1492200717684
 31
0.0
  0
LINE
  5
16B
330
5D
100
AcDbEntity
  8
1
  6
Continuous
 62
     7
100
AcDbLine
 10
335.314544187085
 20
207.1492200717684
 30
0.0
 11
308.814544187085
 21
207.1492200717685
 31
0.0
  0
LINE
  5
16C
330
5D
100
AcDbEntity
  8
0
  6
Continuous
 62
     7
100
AcDbLine
 10
334.274544187085
 20
231.1492200717684
 30
0.0
 11
334.314544187085
 21
232.1492200717684
 31
0.0
  0
LINE
  5
16D
330
5D
100
AcDbEntity
  8
0
  6
Continuous
 62
     7
100
AcDbLine
 10
334.314544187085
 20
232.1492200717684
 30
0.0
 11
335.274544187085
 21
232.1492200717684
 31
0.0
  0
LINE
  5
16E
330
5D
100
AcDbEntity
  8
0
  6
Continuous
 62
     7
100
AcDbLine
 10
335.274544187085
 20
232.1492200717684
 30
0.0
 11
335.274544187085
 21
231.1492200717684
 31
0.0
  0
LINE
  5
16F
330
5D
100
AcDbEntity
  8
0
  6
Continuous
 62
     7
100
AcDbLine
 10
336.814544187085
 20
231.1492200717684
 30
0.0
 11
336.184544187085
 21
209.1492200717684
 31
0.0
  0
LINE
  5
170
330
5D
100
AcDbEntity
  8
1
  6
Continuous
 62
     7
100
AcDbLine
 10
336.814544187085
 20
231.1492200717684
 30
0.0
 11
308.814544187085
 21
231.1492200717684
 31
0.0
  0
LINE
  5
171
330
5D
100
AcDbEntity
  8
1
  6
Continuous
 62
     7
100
AcDbLine
 10
336.184544187085
 20
209.1492200717684
 30
0.0
 11
308.814544187085
 21
209.1492200717684
 31
0.0
  0
LINE
  5
172
330
5D
100
AcDbEntity
  8
0
  6
Continuous
 62
     7
100
AcDbLine
 10
282.314544187085
 20
207.1492200717684
 30
0.0
 11
281.4445441870849
 21
209.1492200717684
 31
0.0
  0
LINE
  5
173
330
5D
100
AcDbEntity
  8
1
  6
Continuous
 62
     7
100
AcDbLine
 10
308.814544187085
 20
207.1492200717685
 30
0.0
 11
282.314544187085
 21
207.1492200717684
 31
0.0
  0
LINE
  5
174
330
5D
100
AcDbEntity
  8
0
  6
Continuous
 62
     7
100
AcDbLine
 10
281.4445441870849
 20
209.1492200717684
 30
0.0
 11
280.814544187085
 21
231.1492200717684
 31
0.0
  0
LINE
  5
175
330
5D
100
AcDbEntity
  8
1
  6
Continuous
 62
     7
100
AcDbLine
 10
308.814544187085
 20
231.1492200717684
 30
0.0
 11
280.814544187085
 21
231.1492200717684
 31
0.0
  0
LINE
  5
176
330
5D
100
AcDbEntity
  8
1
  6
Continuous
 62
     7
100
AcDbLine
 10
308.814544187085
 20
209.1492200717684
 30
0.0
 11
281.4445441870849
 21
209.1492200717684
 31
0.0
  0
LINE
  5
177
330
5D
100
AcDbEntity
  8
0
  6
Continuous
 62
     7
100
AcDbLine
 10
283.314544187085
 20
232.1492200717684
 30
0.0
 11
283.3545441870849
 21
231.1492200717684
 31
0.0
  0
LINE
  5
178
330
5D
100
AcDbEntity
  8
0
  6
Continuous
 62
     7
100
AcDbLine
 10
282.3545441870849
 20
232.1492200717684
 30
0.0
 11
283.314544187085
 21
232.1492200717684
 31
0.0
  0
LINE
  5
179
330
5D
100
AcDbEntity
  8
0
  6
Continuous
 62
     7
100
AcDbLine
 10
282.3545441870849
 20
231.1492200717684
 30
0.0
 11
282.3545441870849
 21
232.1492200717684
 31
0.0
  0
LINE
  5
17A
330
5D
100
AcDbEntity
  8
0
  6
Continuous
 62
     7
100
AcDbLine
 10
129.8145441870848
 20
231.1492200717684
 30
0.0
 11
129.5645441870848
 21
232.1492200717684
 31
0.0
  0
LINE
  5
17B
330
5D
100
AcDbEntity
  8
0
  6
Continuous
 62
     7
100
AcDbLine
 10
129.5645441870848
 20
232.1492200717684
 30
0.0
 11
128.814544187085
 21
232.1492200717684
 31
0.0
  0
LINE
  5
17C
330
5D
100
AcDbEntity
  8
0
  6
Continuous
 62
     7
100
AcDbLine
 10
128.064544187085
 20
232.1492200717684
 30
0.0
 11
127.814544187085
 21
231.1492200717684
 31
0.0
  0
LINE
  5
17D
330
5D
100
AcDbEntity
  8
0
  6
Continuous
 62
     7
100
AcDbLine
 10
128.814544187085
 20
232.1492200717684
 30
0.0
 11
128.064544187085
 21
232.1492200717684
 31
0.0
  0
LINE
  5
17E
330
5D
100
AcDbEntity
  8
0
  6
Continuous
 62
     7
100
AcDbLine
 10
156.184544187085
 20
209.1492200717684
 30
0.0
 11
155.314544187085
 21
207.1492200717684
 31
0.0
  0
LINE
  5
17F
330
5D
100
AcDbEntity
  8
1
  6
Continuous
 62
     7
100
AcDbLine
 10
155.314544187085
 20
207.1492200717684
 30
0.0
 11
128.814544187085
 21
207.1492200717685
 31
0.0
  0
LINE
  5
180
330
5D
100
AcDbEntity
  8
0
  6
Continuous
 62
     7
100
AcDbLine
 10
154.274544187085
 20
231.1492200717684
 30
0.0
 11
154.314544187085
 21
232.1492200717684
 31
0.0
  0
LINE
  5
181
330
5D
100
AcDbEntity
  8
0
  6
Continuous
 62
     7
100
AcDbLine
 10
154.314544187085
 20
232.1492200717684
 30
0.0
 11
155.274544187085
 21
232.1492200717684
 31
0.0
  0
LINE
  5
182
330
5D
100
AcDbEntity
  8
0
  6
Continuous
 62
     7
100
AcDbLine
 10
155.274544187085
 20
232.1492200717684
 30
0.0
 11
155.274544187085
 21
231.1492200717684
 31
0.0
  0
LINE
  5
183
330
5D
100
AcDbEntity
  8
0
  6
Continuous
 62
     7
100
AcDbLine
 10
156.814544187085
 20
231.1492200717684
 30
0.0
 11
156.184544187085
 21
209.1492200717684
 31
0.0
  0
LINE
  5
184
330
5D
100
AcDbEntity
  8
1
  6
Continuous
 62
     7
100
AcDbLine
 10
156.814544187085
 20
231.1492200717684
 30
0.0
 11
128.814544187085
 21
231.1492200717684
 31
0.0
  0
LINE
  5
185
330
5D
100
AcDbEntity
  8
1
  6
Continuous
 62
     7
100
AcDbLine
 10
156.184544187085
 20
209.1492200717684
 30
0.0
 11
128.814544187085
 21
209.1492200717684
 31
0.0
  0
LINE
  5
186
330
5D
100
AcDbEntity
  8
0
  6
Continuous
 62
     7
100
AcDbLine
 10
102.314544187085
 20
207.1492200717684
 30
0.0
 11
101.4445441870849
 21
209.1492200717684
 31
0.0
  0
LINE
  5
187
330
5D
100
AcDbEntity
  8
1
  6
Continuous
 62
     7
100
AcDbLine
 10
128.814544187085
 20
207.1492200717685
 30
0.0
 11
102.314544187085
 21
207.1492200717684
 31
0.0
  0
LINE
  5
188
330
5D
100
AcDbEntity
  8
0
  6
Continuous
 62
     7
100
AcDbLine
 10
101.4445441870849
 20
209.1492200717684
 30
0.0
 11
100.814544187085
 21
231.1492200717684
 31
0.0
  0
LINE
  5
189
330
5D
100
AcDbEntity
  8
1
  6
Continuous
 62
     7
100
AcDbLine
 10
128.814544187085
 20
231.1492200717684
 30
0.0
 11
100.814544187085
 21
231.1492200717684
 31
0.0
  0
LINE
  5
18A
330
5D
100
AcDbEntity
  8
1
  6
Continuous
 62
     7
100
AcDbLine
 10
128.814544187085
 20
209.1492200717684
 30
0.0
 11
101.4445441870849
 21
209.1492200717684
 31
0.0
  0
LINE
  5
18B
330
5D
100
AcDbEntity
  8
0
  6
Continuous
 62
     7
100
AcDbLine
 10
103.314544187085
 20
232.1492200717684
 30
0.0
 11
103.3545441870849
 21
231.1492200717684
 31
0.0
  0
LINE
  5
18C
330
5D
100
AcDbEntity
  8
0
  6
Continuous
 62
     7
100
AcDbLine
 10
102.3545441870849
 20
232.1492200717684
 30
0.0
 11
103.314544187085
 21
232.1492200717684
 31
0.0
  0
LINE
  5
18D
330
5D
100
AcDbEntity
  8
0
  6
Continuous
 62
     7
100
AcDbLine
 10
102.3545441870849
 20
231.1492200717684
 30
0.0
 11
102.3545441870849
 21
232.1492200717684
 31
0.0
  0
ENDBLK
  5
5F
330
5D
100
AcDbEntity
  8
0
100
AcDbBlockEnd
  0
BLOCK
  5
61
330
60
100
AcDbEntity
  8
0
100
AcDbBlockBegin
  2
lock
 70
     0
 10
105.314544187085
 20
232.1492200717684
 30
0.0
  3
lock
  1

  0
LINE
  5
18E
330
60
100
AcDbEntity
  8
0
  6
Continuous
 62
     7
100
AcDbLine
 10
298.3107521007602
 20
239.1492200717684
 30
0.0
 11
289.3145441870851
 21
239.1492200717684
 31
0.0
  0
LINE
  5
18F
330
60
100
AcDbEntity
  8
0
  6
Continuous
 62
     7
100
AcDbLine
 10
303.0318112691646
 20
237.1492200717684
 30
0.0
 11
285.3145441870851
 21
237.1492200717684
 31
0.0
  0
LINE
  5
190
330
60
100
AcDbEntity
  8
0
  6
Continuous
 62
     7
100
AcDbLine
 10
285.3145441870851
 20
235.1492200717684
 30
0.0
 11
285.3145441870851
 21
237.1492200717684
 31
0.0
  0
LINE
  5
191
330
60
100
AcDbEntity
  8
0
  6
Continuous
 62
     2
100
AcDbLine
 10
285.8145441870851
 20
235.1492200717684
 30
0.0
 11
285.8145441870851
 21
237.7199342860398
 31
0.0
  0
LINE
  5
192
330
60
100
AcDbEntity
  8
0
  6
Continuous
 62
     7
100
AcDbLine
 10
105.314544187085
 20
237.1492200717684
 30
0.0
 11
105.814544187085
 21
237.1492200717684
 31
0.0
  0
LINE
  5
193
330
60
100
AcDbEntity
  8
0
  6
Continuous
 62
     7
100
AcDbLine
 10
152.314544187085
 20
237.1492200717684
 30
0.0
 11
151.814544187085
 21
237.1492200717684
 31
0.0
  0
LINE
  5
194
330
60
100
AcDbEntity
  8
0
  6
Continuous
 62
     7
100
AcDbLine
 10
328.314544187085
 20
239.1492200717684
 30
0.0
 11
319.3183362734097
 21
239.1492200717684
 31
0.0
  0
LINE
  5
195
330
60
100
AcDbEntity
  8
0
  6
Continuous
 62
     7
100
AcDbLine
 10
332.314544187085
 20
237.1492200717684
 30
0.0
 11
314.5972771050053
 21
237.1492200717684
 31
0.0
  0
LINE
  5
196
330
60
100
AcDbEntity
  8
0
  6
Continuous
 62
     7
100
AcDbLine
 10
332.314544187085
 20
237.1492200717684
 30
0.0
 11
332.314544187085
 21
235.1492200717684
 31
0.0
  0
LINE
  5
197
330
60
100
AcDbEntity
  8
0
  6
Continuous
 62
     2
100
AcDbLine
 10
331.814544187085
 20
237.7199342860398
 30
0.0
 11
331.814544187085
 21
235.1492200717684
 31
0.0
  0
LINE
  5
198
330
60
100
AcDbEntity
  8
0
  6
Continuous
 62
     7
100
AcDbLine
 10
147.814544187085
 20
239.1492200717684
 30
0.0
 11
148.314544187085
 21
239.1492200717684
 31
0.0
  0
LINE
  5
199
330
60
100
AcDbEntity
  8
0
  6
Continuous
 62
     7
100
AcDbLine
 10
105.314544187085
 20
235.1492200717684
 30
0.0
 11
105.314544187085
 21
237.1492200717684
 31
0.0
  0
LINE
  5
19A
330
60
100
AcDbEntity
  8
0
  6
Continuous
 62
     2
100
AcDbLine
 10
105.814544187085
 20
235.1492200717684
 30
0.0
 11
105.814544187085
 21
237.1492200717684
 31
0.0
  0
LINE
  5
19B
330
60
100
AcDbEntity
  8
0
  6
Continuous
 62
     7
100
AcDbLine
 10
109.314544187085
 20
239.1492200717684
 30
0.0
 11
147.814544187085
 21
239.1492200717684
 31
0.0
  0
LINE
  5
19C
330
60
100
AcDbEntity
  8
0
  6
Continuous
 62
     7
100
AcDbLine
 10
152.314544187085
 20
237.1492200717684
 30
0.0
 11
152.314544187085
 21
235.1492200717684
 31
0.0
  0
LINE
  5
19D
330
60
100
AcDbEntity
  8
0
  6
Continuous
 62
     2
100
AcDbLine
 10
151.814544187085
 20
237.7199342860398
 30
0.0
 11
151.814544187085
 21
237.1492200717684
 31
0.0
  0
LINE
  5
19E
330
60
100
AcDbEntity
  8
1
  6
Continuous
 62
     7
100
AcDbLine
 10
105.814544187085
 20
237.1492200717684
 30
0.0
 11
151.814544187085
 21
237.1492200717684
 31
0.0
  0
LINE
  5
19F
330
60
100
AcDbEntity
  8
0
  6
Continuous
 62
     2
100
AcDbLine
 10
105.814544187085
 20
237.1492200717684
 30
0.0
 11
105.814544187085
 21
237.7199342860398
 31
0.0
  0
LINE
  5
1A0
330
60
100
AcDbEntity
  8
0
  6
Continuous
 62
     2
100
AcDbLine
 10
151.814544187085
 20
237.1492200717684
 30
0.0
 11
151.814544187085
 21
235.1492200717684
 31
0.0
  0
ARC
  5
1A1
330
60
100
AcDbEntity
  8
0
  6
Continuous
 62
     7
100
AcDbCircle
 10
289.3145441870851
 20
234.1492200717684
 30
0.0
 40
4.999999999999975
100
AcDbArc
 50
134.427004000806
 51
143.130102354156
  0
ARC
  5
1A2
330
60
100
AcDbEntity
  8
0
  6
Continuous
 62
     7
100
AcDbCircle
 10
289.3145441870851
 20
234.1492200717684
 30
0.0
 40
5.0
100
AcDbArc
 50
90.0
 51
134.427004000806
  0
ARC
  5
1A3
330
60
100
AcDbEntity
  8
0
  6
Continuous
 62
     7
100
AcDbCircle
 10
328.314544187085
 20
234.1492200717684
 30
0.0
 40
5.0
100
AcDbArc
 50
36.86989764584402
 51
45.57299599919402
  0
ARC
  5
1A4
330
60
100
AcDbEntity
  8
0
  6
Continuous
 62
     7
100
AcDbCircle
 10
328.314544187085
 20
234.1492200717684
 30
0.0
 40
4.999999999999975
100
AcDbArc
 50
45.57299599919402
 51
90.0
  0
ARC
  5
1A5
330
60
100
AcDbEntity
  8
0
  6
Continuous
 62
     7
100
AcDbCircle
 10
109.314544187085
 20
234.1492200717684
 30
0.0
 40
4.999999999999975
100
AcDbArc
 50
134.427004000806
 51
143.130102354156
  0
ARC
  5
1A6
330
60
100
AcDbEntity
  8
0
  6
Continuous
 62
     7
100
AcDbCircle
 10
109.314544187085
 20
234.1492200717684
 30
0.0
 40
5.0
100
AcDbArc
 50
90.0
 51
134.427004000806
  0
ARC
  5
1A7
330
60
100
AcDbEntity
  8
0
  6
Continuous
 62
     7
100
AcDbCircle
 10
148.314544187085
 20
234.1492200717684
 30
0.0
 40
5.0
100
AcDbArc
 50
36.86989764584402
 51
45.57299599919402
  0
ARC
  5
1A8
330
60
100
AcDbEntity
  8
0
  6
Continuous
 62
     7
100
AcDbCircle
 10
148.314544187085
 20
234.1492200717684
 30
0.0
 40
4.999999999999975
100
AcDbArc
 50
45.57299599919402
 51
90.0
  0
ARC
  5
1A9
330
60
100
AcDbEntity
  8
1
  6
Continuous
 62
     7
100
AcDbCircle
 10
128.814544187085
 20
407.1492200717684
 30
0.0
 40
19.49999999999999
100
AcDbArc
 50
63.82304782833353
 51
296.1769521716659
  0
ARC
  5
1AA
330
60
100
AcDbEntity
  8
1
  6
Continuous
 62
     2
100
AcDbCircle
 10
128.814544187085
 20
407.1492200717684
 30
0.0
 40
22.99999999999993
100
AcDbArc
 50
49.54091691921077
 51
310.4590830807889
  0
ARC
  5
1AB
330
60
100
AcDbEntity
  8
1
  6
Continuous
 62
     7
100
AcDbCircle
 10
128.814544187085
 20
407.1492200717684
 30
0.0
 40
23.49999999999998
100
AcDbArc
 50
48.13169377370726
 51
311.8683062262922
  0
ENDBLK
  5
62
330
60
100
AcDbEntity
  8
0
100
AcDbBlockEnd
  0
BLOCK
  5
64
330
63
100
AcDbEntity
  8
0
100
AcDbBlockBegin
  2
tsuba
 70
     0
 10
278.814544187085
 20
240.8643677535462
 30
0.0
  3
tsuba
  1

  0
LINE
  5
1AC
330
63
100
AcDbEntity
  8
0
  6
Continuous
 62
     7
100
AcDbLine
 10
258.814544187085
 20
233.8992200717684
 30
0.0
 11
308.814544187085
 21
233.8992200717684
 31
0.0
  0
LINE
  5
1AD
330
63
100
AcDbEntity
  8
1
  6
Continuous
 62
     7
100
AcDbLine
 10
258.814544187085
 20
233.8992200717684
 30
0.0
 11
258.814544187085
 21
232.1492200717684
 31
0.0
  0
LINE
  5
1AE
330
63
100
AcDbEntity
  8
1
  6
Continuous
 62
     7
100
AcDbLine
 10
258.814544187085
 20
232.1492200717684
 30
0.0
 11
308.814544187085
 21
232.1492200717684
 31
0.0
  0
LINE
  5
1AF
330
63
100
AcDbEntity
  8
1
  6
Continuous
 62
     7
100
AcDbLine
 10
285.314544187085
 20
235.1492200717684
 30
0.0
 11
258.814544187085
 21
233.8992200717684
 31
0.0
  0
LINE
  5
1B0
330
63
100
AcDbEntity
  8
0
  6
Continuous
 62
     7
100
AcDbLine
 10
308.814544187085
 20
235.1492200717684
 30
0.0
 11
285.314544187085
 21
235.1492200717684
 31
0.0
  0
LINE
  5
1B1
330
63
100
AcDbEntity
  8
1
  6
DASH_CENTER
 62
     2
100
AcDbLine
 10
86.31454418708495
 20
415.1492200717684
 30
0.0
 11
86.31454418708495
 21
399.1492200717684
 31
0.0
  0
LINE
  5
1B2
330
63
100
AcDbEntity
  8
0
  6
Continuous
 62
     7
100
AcDbLine
 10
308.814544187085
 20
233.8992200717684
 30
0.0
 11
358.8145441870851
 21
233.8992200717684
 31
0.0
  0
LINE
  5
1B3
330
63
100
AcDbEntity
  8
1
  6
Continuous
 62
     7
100
AcDbLine
 10
358.8145441870851
 20
232.1492200717684
 30
0.0
 11
358.8145441870851
 21
233.8992200717684
 31
0.0
  0
LINE
  5
1B4
330
63
100
AcDbEntity
  8
1
  6
Continuous
 62
     7
100
AcDbLine
 10
308.814544187085
 20
232.1492200717684
 30
0.0
 11
358.8145441870851
 21
232.1492200717684
 31
0.0
  0
LINE
  5
1B5
330
63
100
AcDbEntity
  8
1
  6
Continuous
 62
     7
100
AcDbLine
 10
358.8145441870851
 20
233.8992200717684
 30
0.0
 11
332.3145441870851
 21
235.1492200717684
 31
0.0
  0
LINE
  5
1B6
330
63
100
AcDbEntity
  8
0
  6
Continuous
 62
     7
100
AcDbLine
 10
332.3145441870851
 20
235.1492200717684
 30
0.0
 11
308.814544187085
 21
235.1492200717684
 31
0.0
  0
LINE
  5
1B7
330
63
100
AcDbEntity
  8
0
  6
Continuous
 62
     7
100
AcDbLine
 10
78.81454418708495
 20
233.8992200717684
 30
0.0
 11
128.814544187085
 21
233.8992200717684
 31
0.0
  0
LINE
  5
1B8
330
63
100
AcDbEntity
  8
1
  6
Continuous
 62
     7
100
AcDbLine
 10
78.81454418708495
 20
233.8992200717684
 30
0.0
 11
78.81454418708495
 21
232.1492200717684
 31
0.0
  0
LINE
  5
1B9
330
63
100
AcDbEntity
  8
1
  6
Continuous
 62
     7
100
AcDbLine
 10
78.81454418708495
 20
232.1492200717684
 30
0.0
 11
128.814544187085
 21
232.1492200717684
 31
0.0
  0
LINE
  5
1BA
330
63
100
AcDbEntity
  8
1
  6
Continuous
 62
     7
100
AcDbLine
 10
105.314544187085
 20
235.1492200717684
 30
0.0
 11
78.81454418708495
 21
233.8992200717684
 31
0.0
  0
LINE
  5
1BB
330
63
100
AcDbEntity
  8
0
  6
Continuous
 62
     7
100
AcDbLine
 10
128.814544187085
 20
235.1492200717684
 30
0.0
 11
105.314544187085
 21
235.1492200717684
 31
0.0
  0
LINE
  5
1BC
330
63
100
AcDbEntity
  8
0
  6
Continuous
 62
     7
100
AcDbLine
 10
128.814544187085
 20
233.8992200717684
 30
0.0
 11
178.814544187085
 21
233.8992200717684
 31
0.0
  0
LINE
  5
1BD
330
63
100
AcDbEntity
  8
1
  6
Continuous
 62
     7
100
AcDbLine
 10
178.814544187085
 20
232.1492200717684
 30
0.0
 11
178.814544187085
 21
233.8992200717684
 31
0.0
  0
LINE
  5
1BE
330
63
100
AcDbEntity
  8
1
  6
Continuous
 62
     7
100
AcDbLine
 10
128.814544187085
 20
232.1492200717684
 30
0.0
 11
178.814544187085
 21
232.1492200717684
 31
0.0
  0
LINE
  5
1BF
330
63
100
AcDbEntity
  8
1
  6
Continuous
 62
     7
100
AcDbLine
 10
178.814544187085
 20
233.8992200717684
 30
0.0
 11
152.314544187085
 21
235.1492200717684
 31
0.0
  0
LINE
  5
1C0
330
63
100
AcDbEntity
  8
0
  6
Continuous
 62
     7
100
AcDbLine
 10
152.314544187085
 20
235.1492200717684
 30
0.0
 11
128.814544187085
 21
235.1492200717684
 31
0.0
  0
ARC
  5
1C1
330
63
100
AcDbEntity
  8
1
  6
Continuous
 62
     7
100
AcDbCircle
 10
128.814544187085
 20
407.1492200717684
 30
0.0
 40
49.99999999999991
100
AcDbArc
 50
38.27537961479391
 51
336.6737901517769
  0
ARC
  5
1C2
330
63
100
AcDbEntity
  8
1
  6
Continuous
 62
     7
100
AcDbCircle
 10
128.814544187085
 20
407.1492200717684
 30
0.0
 40
49.99999999999991
100
AcDbArc
 50
22.91097898393985
 51
30.68341710897575
  0
CIRCLE
  5
1C3
330
63
100
AcDbEntity
  8
1
  6
Continuous
 62
     7
100
AcDbCircle
 10
86.31454418708495
 20
407.1492200717684
 30
0.0
 40
4.0
  0
ENDBLK
  5
65
330
63
100
AcDbEntity
  8
0
100
AcDbBlockEnd
  0
BLOCK
  5
67
330
66
100
AcDbEntity
  8
0
100
AcDbBlockBegin
  2
screw__4
 70
     0
 10
239.2285086901506
 20
361.5936801335839
 30
0.0
  3
screw__4
  1

  0
LINE
  5
1C4
330
66
100
AcDbEntity
  8
1
  6
Continuous
 62
     7
100
AcDbLine
 10
266.314544187085
 20
231.9492200717684
 30
0.0
 11
266.3145441870852
 21
230.4780710512754
 31
0.0
  0
LINE
  5
1C5
330
66
100
AcDbEntity
  8
0
  6
Continuous
 62
     7
100
AcDbLine
 10
266.314544187085
 20
231.9492200717684
 30
0.0
 11
268.3145441870847
 21
231.9492200717683
 31
0.0
  0
LINE
  5
1C6
330
66
100
AcDbEntity
  8
1
  6
Continuous
 62
     7
100
AcDbLine
 10
268.3145441870847
 20
231.9492200717683
 30
0.0
 11
268.5145441870849
 21
232.1492200717684
 31
0.0
  0
LINE
  5
1C7
330
66
100
AcDbEntity
  8
0
  6
Continuous
 62
     7
100
AcDbLine
 10
268.3145441870847
 20
231.9492200717683
 30
0.0
 11
268.3145441870847
 21
230.9002932734978
 31
0.0
  0
LINE
  5
1C8
330
66
100
AcDbEntity
  8
1
  6
Continuous
 62
     7
100
AcDbLine
 10
262.314544187085
 20
234.2492200717684
 30
0.0
 11
266.1400589056659
 21
234.2492200717684
 31
0.0
  0
LINE
  5
1C9
330
66
100
AcDbEntity
  8
0
  6
DASH_CENTER
 62
     2
100
AcDbLine
 10
266.314544187085
 20
216.9084791300843
 30
0.0
 11
266.314544187085
 21
236.3278552604494
 31
0.0
  0
LINE
  5
1CA
330
66
100
AcDbEntity
  8
1
  6
Continuous
 62
     7
100
AcDbLine
 10
264.3145441870848
 20
231.7447377179421
 30
0.0
 11
264.8034330759738
 21
231.4624775863384
 31
0.0
  0
LINE
  5
1CB
330
66
100
AcDbEntity
  8
1
  6
Continuous
 62
     7
100
AcDbLine
 10
264.3145441870848
 20
230.0558488290533
 30
0.0
 11
264.8034330759738
 21
229.7735886974494
 31
0.0
  0
LINE
  5
1CC
330
66
100
AcDbEntity
  8
1
  6
Continuous
 62
     7
100
AcDbLine
 10
264.8034330759737
 20
230.3381089606572
 30
0.0
 11
264.3145441870848
 21
230.0558488290533
 31
0.0
  0
LINE
  5
1CD
330
66
100
AcDbEntity
  8
1
  6
Continuous
 62
     7
100
AcDbLine
 10
264.3145441870848
 20
228.3669599401644
 30
0.0
 11
264.8034330759738
 21
228.0846998085607
 31
0.0
  0
LINE
  5
1CE
330
66
100
AcDbEntity
  8
1
  6
Continuous
 62
     7
100
AcDbLine
 10
264.8034330759737
 20
228.6492200717683
 30
0.0
 11
264.3145441870848
 21
228.3669599401644
 31
0.0
  0
LINE
  5
1CF
330
66
100
AcDbEntity
  8
1
  6
Continuous
 62
     7
100
AcDbLine
 10
264.3145441870848
 20
226.6780710512757
 30
0.0
 11
264.8034330759737
 21
226.3958109196719
 31
0.0
  0
LINE
  5
1D0
330
66
100
AcDbEntity
  8
1
  6
Continuous
 62
     7
100
AcDbLine
 10
264.8034330759738
 20
226.9603311828793
 30
0.0
 11
264.3145441870848
 21
226.6780710512757
 31
0.0
  0
LINE
  5
1D1
330
66
100
AcDbEntity
  8
1
  6
Continuous
 62
     7
100
AcDbLine
 10
264.8034330759738
 20
225.2714422939905
 30
0.0
 11
264.3145441870848
 21
224.9891821623867
 31
0.0
  0
LINE
  5
1D2
330
66
100
AcDbEntity
  8
1
  6
Continuous
 62
     7
100
AcDbLine
 10
264.3145441870848
 20
224.9891821623867
 30
0.0
 11
264.8034330759737
 21
224.706922030783
 31
0.0
  0
LINE
  5
1D3
330
66
100
AcDbEntity
  8
1
  6
Continuous
 62
     7
100
AcDbLine
 10
264.8034330759738
 20
223.5825534051016
 30
0.0
 11
264.3145441870848
 21
223.3002932734979
 31
0.0
  0
LINE
  5
1D4
330
66
100
AcDbEntity
  8
1
  6
Continuous
 62
     7
100
AcDbLine
 10
264.3145441870848
 20
223.3002932734979
 30
0.0
 11
264.8034330759737
 21
223.0180331418941
 31
0.0
  0
LINE
  5
1D5
330
66
100
AcDbEntity
  8
1
  6
Continuous
 62
     7
100
AcDbLine
 10
267.825655298196
 20
222.1735886974498
 30
0.0
 11
268.3145441870848
 21
222.4558488290535
 31
0.0
  0
LINE
  5
1D6
330
66
100
AcDbEntity
  8
1
  6
Continuous
 62
     7
100
AcDbLine
 10
268.3145441870848
 20
222.4558488290535
 30
0.0
 11
267.825655298196
 21
222.7381089606571
 31
0.0
  0
LINE
  5
1D7
330
66
100
AcDbEntity
  8
1
  6
Continuous
 62
     7
100
AcDbLine
 10
267.825655298196
 20
223.8624775863383
 30
0.0
 11
268.3145441870848
 21
224.1447377179424
 31
0.0
  0
LINE
  5
1D8
330
66
100
AcDbEntity
  8
1
  6
Continuous
 62
     7
100
AcDbLine
 10
268.3145441870848
 20
224.1447377179424
 30
0.0
 11
267.825655298196
 21
224.4269978495462
 31
0.0
  0
LINE
  5
1D9
330
66
100
AcDbEntity
  8
1
  6
Continuous
 62
     7
100
AcDbLine
 10
267.825655298196
 20
225.5513664752274
 30
0.0
 11
268.3145441870848
 21
225.833626606831
 31
0.0
  0
LINE
  5
1DA
330
66
100
AcDbEntity
  8
1
  6
Continuous
 62
     7
100
AcDbLine
 10
268.3145441870848
 20
225.833626606831
 30
0.0
 11
267.825655298196
 21
226.1158867384352
 31
0.0
  0
LINE
  5
1DB
330
66
100
AcDbEntity
  8
1
  6
Continuous
 62
     7
100
AcDbLine
 10
268.3145441870848
 20
227.5225154957199
 30
0.0
 11
267.825655298196
 21
227.8047756273238
 31
0.0
  0
LINE
  5
1DC
330
66
100
AcDbEntity
  8
1
  6
Continuous
 62
     7
100
AcDbLine
 10
267.825655298196
 20
227.2402553641163
 30
0.0
 11
268.3145441870848
 21
227.5225154957199
 31
0.0
  0
LINE
  5
1DD
330
66
100
AcDbEntity
  8
1
  6
Continuous
 62
     7
100
AcDbLine
 10
268.3145441870847
 20
229.2114043846088
 30
0.0
 11
267.825655298196
 21
229.4936645162128
 31
0.0
  0
LINE
  5
1DE
330
66
100
AcDbEntity
  8
1
  6
Continuous
 62
     7
100
AcDbLine
 10
267.825655298196
 20
228.9291442530051
 30
0.0
 11
268.3145441870847
 21
229.2114043846088
 31
0.0
  0
LINE
  5
1DF
330
66
100
AcDbEntity
  8
1
  6
Continuous
 62
     7
100
AcDbLine
 10
267.825655298196
 20
230.6180331418941
 30
0.0
 11
268.3145441870847
 21
230.9002932734978
 31
0.0
  0
LINE
  5
1E0
330
66
100
AcDbEntity
  8
1
  6
Continuous
 62
     7
100
AcDbLine
 10
264.8034330759738
 20
231.4624775863384
 30
0.0
 11
264.8034330759737
 21
230.3381089606572
 31
0.0
  0
LINE
  5
1E1
330
66
100
AcDbEntity
  8
1
  6
Continuous
 62
     7
100
AcDbLine
 10
264.8034330759738
 20
229.7735886974494
 30
0.0
 11
264.8034330759737
 21
228.6492200717683
 31
0.0
  0
LINE
  5
1E2
330
66
100
AcDbEntity
  8
1
  6
Continuous
 62
     7
100
AcDbLine
 10
264.8034330759738
 20
228.0846998085607
 30
0.0
 11
264.8034330759738
 21
226.9603311828793
 31
0.0
  0
LINE
  5
1E3
330
66
100
AcDbEntity
  8
1
  6
Continuous
 62
     7
100
AcDbLine
 10
264.8034330759737
 20
226.3958109196719
 30
0.0
 11
264.8034330759738
 21
225.2714422939905
 31
0.0
  0
LINE
  5
1E4
330
66
100
AcDbEntity
  8
1
  6
Continuous
 62
     7
100
AcDbLine
 10
264.8034330759737
 20
224.706922030783
 30
0.0
 11
264.8034330759738
 21
223.5825534051016
 31
0.0
  0
LINE
  5
1E5
330
66
100
AcDbEntity
  8
1
  6
Continuous
 62
     7
100
AcDbLine
 10
264.8034330759737
 20
223.0180331418941
 30
0.0
 11
264.8034330759738
 21
221.8936645162129
 31
0.0
  0
LINE
  5
1E6
330
66
100
AcDbEntity
  8
1
  6
Continuous
 62
     7
100
AcDbLine
 10
267.825655298196
 20
230.6180331418941
 30
0.0
 11
267.825655298196
 21
229.4936645162128
 31
0.0
  0
LINE
  5
1E7
330
66
100
AcDbEntity
  8
1
  6
Continuous
 62
     7
100
AcDbLine
 10
267.825655298196
 20
228.9291442530051
 30
0.0
 11
267.825655298196
 21
227.8047756273238
 31
0.0
  0
LINE
  5
1E8
330
66
100
AcDbEntity
  8
1
  6
Continuous
 62
     7
100
AcDbLine
 10
267.825655298196
 20
227.2402553641163
 30
0.0
 11
267.825655298196
 21
226.1158867384352
 31
0.0
  0
LINE
  5
1E9
330
66
100
AcDbEntity
  8
1
  6
Continuous
 62
     7
100
AcDbLine
 10
267.825655298196
 20
225.5513664752274
 30
0.0
 11
267.825655298196
 21
224.4269978495462
 31
0.0
  0
LINE
  5
1EA
330
66
100
AcDbEntity
  8
1
  6
Continuous
 62
     7
100
AcDbLine
 10
267.825655298196
 20
223.8624775863383
 30
0.0
 11
267.825655298196
 21
222.7381089606571
 31
0.0
  0
LINE
  5
1EB
330
66
100
AcDbEntity
  8
1
  6
Continuous
 62
     7
100
AcDbLine
 10
264.8034330759738
 20
231.4624775863384
 30
0.0
 11
266.314544187085
 21
231.8846998085606
 31
0.0
  0
LINE
  5
1EC
330
66
100
AcDbEntity
  8
1
  6
Continuous
 62
     7
100
AcDbLine
 10
264.8034330759737
 20
230.3381089606572
 30
0.0
 11
266.314544187085
 21
230.7603311828794
 31
0.0
  0
LINE
  5
1ED
330
66
100
AcDbEntity
  8
1
  6
Continuous
 62
     7
100
AcDbLine
 10
264.3145441870848
 20
230.0558488290533
 30
0.0
 11
268.3145441870847
 21
230.9002932734978
 31
0.0
  0
LINE
  5
1EE
330
66
100
AcDbEntity
  8
1
  6
Continuous
 62
     7
100
AcDbLine
 10
264.8034330759738
 20
229.7735886974494
 30
0.0
 11
267.825655298196
 21
230.6180331418941
 31
0.0
  0
LINE
  5
1EF
330
66
100
AcDbEntity
  8
1
  6
Continuous
 62
     7
100
AcDbLine
 10
264.8034330759737
 20
228.6492200717683
 30
0.0
 11
267.825655298196
 21
229.4936645162128
 31
0.0
  0
LINE
  5
1F0
330
66
100
AcDbEntity
  8
1
  6
Continuous
 62
     7
100
AcDbLine
 10
264.3145441870848
 20
228.3669599401644
 30
0.0
 11
268.3145441870847
 21
229.2114043846088
 31
0.0
  0
LINE
  5
1F1
330
66
100
AcDbEntity
  8
1
  6
Continuous
 62
     7
100
AcDbLine
 10
264.8034330759738
 20
228.0846998085607
 30
0.0
 11
267.825655298196
 21
228.9291442530051
 31
0.0
  0
LINE
  5
1F2
330
66
100
AcDbEntity
  8
1
  6
Continuous
 62
     7
100
AcDbLine
 10
264.8034330759738
 20
226.9603311828793
 30
0.0
 11
267.825655298196
 21
227.8047756273238
 31
0.0
  0
LINE
  5
1F3
330
66
100
AcDbEntity
  8
1
  6
Continuous
 62
     7
100
AcDbLine
 10
264.3145441870848
 20
226.6780710512757
 30
0.0
 11
268.3145441870848
 21
227.5225154957199
 31
0.0
  0
LINE
  5
1F4
330
66
100
AcDbEntity
  8
1
  6
Continuous
 62
     7
100
AcDbLine
 10
264.8034330759737
 20
226.3958109196719
 30
0.0
 11
267.825655298196
 21
227.2402553641163
 31
0.0
  0
LINE
  5
1F5
330
66
100
AcDbEntity
  8
1
  6
Continuous
 62
     7
100
AcDbLine
 10
264.8034330759738
 20
225.2714422939905
 30
0.0
 11
267.825655298196
 21
226.1158867384352
 31
0.0
  0
LINE
  5
1F6
330
66
100
AcDbEntity
  8
1
  6
Continuous
 62
     7
100
AcDbLine
 10
264.3145441870848
 20
224.9891821623867
 30
0.0
 11
268.3145441870848
 21
225.833626606831
 31
0.0
  0
LINE
  5
1F7
330
66
100
AcDbEntity
  8
1
  6
Continuous
 62
     7
100
AcDbLine
 10
264.8034330759737
 20
224.706922030783
 30
0.0
 11
267.825655298196
 21
225.5513664752274
 31
0.0
  0
LINE
  5
1F8
330
66
100
AcDbEntity
  8
1
  6
Continuous
 62
     7
100
AcDbLine
 10
264.8034330759738
 20
223.5825534051016
 30
0.0
 11
267.825655298196
 21
224.4269978495462
 31
0.0
  0
LINE
  5
1F9
330
66
100
AcDbEntity
  8
1
  6
Continuous
 62
     7
100
AcDbLine
 10
264.3145441870848
 20
223.3002932734979
 30
0.0
 11
268.3145441870848
 21
224.1447377179424
 31
0.0
  0
LINE
  5
1FA
330
66
100
AcDbEntity
  8
1
  6
Continuous
 62
     7
100
AcDbLine
 10
264.8034330759737
 20
223.0180331418941
 30
0.0
 11
267.825655298196
 21
223.8624775863383
 31
0.0
  0
LINE
  5
1FB
330
66
100
AcDbEntity
  8
1
  6
Continuous
 62
     7
100
AcDbLine
 10
264.4713146173509
 20
221.6114043846088
 30
0.0
 11
264.8349256162209
 21
221.8213352926867
 31
0.0
  0
LINE
  5
1FC
330
66
100
AcDbEntity
  8
1
  6
Continuous
 62
     7
100
AcDbLine
 10
264.4713146173509
 20
221.6114043846088
 30
0.0
 11
265.063501045712
 21
221.2695053907844
 31
0.0
  0
LINE
  5
1FD
330
66
100
AcDbEntity
  8
1
  6
Continuous
 62
     7
100
AcDbLine
 10
264.8349256162209
 20
221.8213352926867
 30
0.0
 11
264.8034330759738
 21
221.8936645162129
 31
0.0
  0
LINE
  5
1FE
330
66
100
AcDbEntity
  8
1
  6
Continuous
 62
     7
100
AcDbLine
 10
265.3972037567731
 20
219.9225154957202
 30
0.0
 11
265.5781660610061
 21
220.026994130782
 31
0.0
  0
LINE
  5
1FF
330
66
100
AcDbEntity
  8
1
  6
Continuous
 62
     7
100
AcDbLine
 10
265.3972037567731
 20
219.9225154957202
 30
0.0
 11
265.6919237210889
 21
219.752358844987
 31
0.0
  0
LINE
  5
200
330
66
100
AcDbEntity
  8
1
  6
Continuous
 62
     7
100
AcDbLine
 10
267.6948291871075
 20
220.7669599401644
 30
0.0
 11
267.4225425355562
 21
220.9241647117345
 31
0.0
  0
LINE
  5
201
330
66
100
AcDbEntity
  8
1
  6
Continuous
 62
     7
100
AcDbLine
 10
267.6948291871075
 20
220.7669599401644
 30
0.0
 11
267.251375990769
 21
220.5109321178858
 31
0.0
  0
LINE
  5
202
330
66
100
AcDbEntity
  8
1
  6
Continuous
 62
     7
100
AcDbLine
 10
266.7689400476853
 20
219.0780710512757
 30
0.0
 11
266.6793020907708
 21
219.1298235498298
 31
0.0
  0
LINE
  5
203
330
66
100
AcDbEntity
  8
1
  6
Continuous
 62
     7
100
AcDbLine
 10
266.7689400476853
 20
219.0780710512757
 30
0.0
 11
266.6229533153922
 21
218.9937855720881
 31
0.0
  0
LINE
  5
204
330
66
100
AcDbEntity
  8
1
  6
Continuous
 62
     7
100
AcDbLine
 10
266.314544187085
 20
218.2492200717684
 30
0.0
 11
266.6229533153922
 21
218.9937855720881
 31
0.0
  0
LINE
  5
205
330
66
100
AcDbEntity
  8
1
  6
Continuous
 62
     7
100
AcDbLine
 10
266.6793020907708
 20
219.1298235498298
 30
0.0
 11
267.251375990769
 21
220.5109321178858
 31
0.0
  0
LINE
  5
206
330
66
100
AcDbEntity
  8
1
  6
Continuous
 62
     7
100
AcDbLine
 10
267.4225425355562
 20
220.9241647117345
 30
0.0
 11
267.825655298196
 21
221.8973650104656
 31
0.0
  0
LINE
  5
207
330
66
100
AcDbEntity
  8
1
  6
Continuous
 62
     7
100
AcDbLine
 10
267.825655298196
 20
221.8973650104656
 30
0.0
 11
267.825655298196
 21
222.1735886974498
 31
0.0
  0
LINE
  5
208
330
66
100
AcDbEntity
  8
1
  6
Continuous
 62
     7
100
AcDbLine
 10
266.314544187085
 20
218.2492200717684
 30
0.0
 11
265.6919237210889
 21
219.752358844987
 31
0.0
  0
LINE
  5
209
330
66
100
AcDbEntity
  8
1
  6
Continuous
 62
     7
100
AcDbLine
 10
265.5781660610061
 20
220.026994130782
 30
0.0
 11
265.063501045712
 21
221.2695053907844
 31
0.0
  0
LINE
  5
20A
330
66
100
AcDbEntity
  8
1
  6
Continuous
 62
     7
100
AcDbLine
 10
264.8349256162209
 20
221.8213352926867
 30
0.0
 11
267.825655298196
 21
222.7381089606571
 31
0.0
  0
LINE
  5
20B
330
66
100
AcDbEntity
  8
1
  6
Continuous
 62
     7
100
AcDbLine
 10
264.4713146173509
 20
221.6114043846088
 30
0.0
 11
268.3145441870848
 21
222.4558488290535
 31
0.0
  0
LINE
  5
20C
330
66
100
AcDbEntity
  8
1
  6
Continuous
 62
     7
100
AcDbLine
 10
265.063501045712
 20
221.2695053907844
 30
0.0
 11
267.825655298196
 21
222.1735886974498
 31
0.0
  0
LINE
  5
20D
330
66
100
AcDbEntity
  8
1
  6
Continuous
 62
     7
100
AcDbLine
 10
265.5781660610061
 20
220.026994130782
 30
0.0
 11
267.4225425355562
 21
220.9241647117345
 31
0.0
  0
LINE
  5
20E
330
66
100
AcDbEntity
  8
1
  6
Continuous
 62
     7
100
AcDbLine
 10
265.3972037567731
 20
219.9225154957202
 30
0.0
 11
267.6948291871075
 21
220.7669599401644
 31
0.0
  0
LINE
  5
20F
330
66
100
AcDbEntity
  8
1
  6
Continuous
 62
     7
100
AcDbLine
 10
265.6919237210889
 20
219.752358844987
 30
0.0
 11
267.251375990769
 21
220.5109321178858
 31
0.0
  0
LINE
  5
210
330
66
100
AcDbEntity
  8
1
  6
Continuous
 62
     7
100
AcDbLine
 10
266.314544187085
 20
218.9110673025374
 30
0.0
 11
266.7689400476853
 21
219.0780710512757
 31
0.0
  0
LINE
  5
211
330
66
100
AcDbEntity
  8
1
  6
Continuous
 62
     7
100
AcDbLine
 10
266.6229533153922
 20
218.9937855720881
 30
0.0
 11
266.314544187085
 21
218.9110673025374
 31
0.0
  0
LINE
  5
212
330
66
100
AcDbEntity
  8
1
  6
Continuous
 62
     7
100
AcDbLine
 10
266.6793020907708
 20
219.1298235498298
 30
0.0
 11
266.314544187085
 21
218.9110673025374
 31
0.0
  0
LINE
  5
213
330
66
100
AcDbEntity
  8
1
  6
Continuous
 62
     7
100
AcDbLine
 10
264.3145441870848
 20
231.7447377179421
 30
0.0
 11
264.3145441870851
 21
231.9492200717683
 31
0.0
  0
LINE
  5
214
330
66
100
AcDbEntity
  8
1
  6
Continuous
 62
     7
100
AcDbLine
 10
264.3145441870848
 20
231.7447377179421
 30
0.0
 11
265.283144810472
 21
231.9492200717683
 31
0.0
  0
LINE
  5
215
330
66
100
AcDbEntity
  8
0
  6
Continuous
 62
     7
100
AcDbLine
 10
264.3145441870851
 20
231.9492200717683
 30
0.0
 11
266.314544187085
 21
231.9492200717684
 31
0.0
  0
LINE
  5
216
330
66
100
AcDbEntity
  8
1
  6
Continuous
 62
     7
100
AcDbLine
 10
264.114544187085
 20
232.1492200717684
 30
0.0
 11
264.3145441870851
 21
231.9492200717683
 31
0.0
  0
LINE
  5
217
330
66
100
AcDbEntity
  8
1
  6
Continuous
 62
     7
100
AcDbLine
 10
262.3145441870848
 20
234.0643144113911
 30
0.0
 11
262.314544187085
 21
234.2492200717684
 31
0.0
  0
ENDBLK
  5
68
330
66
100
AcDbEntity
  8
0
100
AcDbBlockEnd
  0
BLOCK
  5
6A
330
69
100
AcDbEntity
  8
0
100
AcDbBlockBegin
  2
elbo
 70
     0
 10
100.8316967864045
 20
194.6142249325267
 30
0.0
  3
elbo
  1

  0
LINE
  5
218
330
69
100
AcDbEntity
  8
1
  6
Continuous
 62
     7
100
AcDbLine
 10
178.814544187085
 20
276.6492200717684
 30
0.0
 11
178.814544187085
 21
273.6492200717684
 31
0.0
  0
LINE
  5
219
330
69
100
AcDbEntity
  8
1
  6
Continuous
 62
     7
100
AcDbLine
 10
178.814544187085
 20
273.6492200717684
 30
0.0
 11
178.814544187085
 21
257.6492200717684
 31
0.0
  0
LINE
  5
21A
330
69
100
AcDbEntity
  8
1
  6
Continuous
 62
     7
100
AcDbLine
 10
128.814544187085
 20
257.6492200717684
 30
0.0
 11
143.3145441870848
 21
241.6492200717684
 31
0.0
  0
LINE
  5
21B
330
69
100
AcDbEntity
  8
0
  6
Continuous
 62
     7
100
AcDbLine
 10
178.814544187085
 20
276.6492200717684
 30
0.0
 11
177.044030242806
 21
276.6492200717684
 31
0.0
  0
LINE
  5
21C
330
69
100
AcDbEntity
  8
0
  6
Continuous
 62
     7
100
AcDbLine
 10
160.814544187085
 20
276.6492200717684
 30
0.0
 11
160.814544187085
 21
275.1492200717684
 31
0.0
  0
LINE
  5
21D
330
69
100
AcDbEntity
  8
1
  6
Continuous
 62
     7
100
AcDbLine
 10
160.814544187085
 20
240.1492200717684
 30
0.0
 11
147.814544187085
 21
240.1492200717684
 31
0.0
  0
LINE
  5
21E
330
69
100
AcDbEntity
  8
1
  6
Continuous
 62
     7
100
AcDbLine
 10
178.814544187085
 20
241.6492200717684
 30
0.0
 11
178.814544187085
 21
238.6492200717684
 31
0.0
  0
LINE
  5
21F
330
69
100
AcDbEntity
  8
1
  6
Continuous
 62
     7
100
AcDbLine
 10
178.814544187085
 20
257.6492200717684
 30
0.0
 11
178.814544187085
 21
241.6492200717684
 31
0.0
  0
LINE
  5
220
330
69
100
AcDbEntity
  8
0
  6
Continuous
 62
     7
100
AcDbLine
 10
160.814544187085
 20
240.1492200717684
 30
0.0
 11
160.814544187085
 21
238.6492200717684
 31
0.0
  0
LINE
  5
221
330
69
100
AcDbEntity
  8
0
  6
Continuous
 62
     7
100
AcDbLine
 10
154.8431389774288
 20
275.1206252814245
 30
0.0
 11
146.814544187085
 21
283.1492200717684
 31
0.0
  0
LINE
  5
222
330
69
100
AcDbEntity
  8
0
  6
Continuous
 62
     7
100
AcDbLine
 10
146.814544187085
 20
274.6859451091692
 30
0.0
 11
146.814544187085
 21
285.1492200717684
 31
0.0
  0
LINE
  5
223
330
69
100
AcDbEntity
  8
0
  6
Continuous
 62
     7
100
AcDbLine
 10
146.814544187085
 20
285.1492200717684
 30
0.0
 11
132.314544187085
 21
285.1492200717684
 31
0.0
  0
LINE
  5
224
330
69
100
AcDbEntity
  8
0
  6
Continuous
 62
     7
100
AcDbLine
 10
132.314544187085
 20
285.1492200717684
 30
0.0
 11
126.2391988910589
 21
274.6859451091692
 31
0.0
  0
LINE
  5
225
330
69
100
AcDbEntity
  8
1
  6
Continuous
 62
     7
100
AcDbLine
 10
325.314544187085
 20
244.1792534793822
 30
0.0
 11
325.314544187085
 21
239.1492200717684
 31
0.0
  0
LINE
  5
226
330
69
100
AcDbEntity
  8
1
  6
Continuous
 62
     7
100
AcDbLine
 10
292.314544187085
 20
239.1492200717684
 30
0.0
 11
292.314544187085
 21
244.1792534793822
 31
0.0
  0
LINE
  5
227
330
69
100
AcDbEntity
  8
1
  6
Continuous
 62
     7
100
AcDbLine
 10
146.814544187085
 20
408.1492200717684
 30
0.0
 11
154.814544187085
 21
408.1492200717684
 31
0.0
  0
LINE
  5
228
330
69
100
AcDbEntity
  8
1
  6
Continuous
 62
     7
100
AcDbLine
 10
146.814544187085
 20
406.1492200717684
 30
0.0
 11
154.814544187085
 21
406.1492200717684
 31
0.0
  0
LINE
  5
229
330
69
100
AcDbEntity
  8
1
  6
Continuous
 62
     7
100
AcDbLine
 10
126.314544187085
 20
411.1492200717684
 30
0.0
 11
126.314544187085
 21
403.1492200717684
 31
0.0
  0
LINE
  5
22A
330
69
100
AcDbEntity
  8
1
  6
Continuous
 62
     7
100
AcDbLine
 10
132.314544187085
 20
411.1492200717684
 30
0.0
 11
132.314544187085
 21
403.1492200717684
 31
0.0
  0
LINE
  5
22B
330
69
100
AcDbEntity
  8
1
  6
Continuous
 62
     7
100
AcDbLine
 10
146.814544187085
 20
411.1492200717684
 30
0.0
 11
146.814544187085
 21
403.1492200717684
 31
0.0
  0
LINE
  5
22C
330
69
100
AcDbEntity
  8
1
  6
Continuous
 62
     7
100
AcDbLine
 10
154.814544187085
 20
408.1492200717684
 30
0.0
 11
154.814544187085
 21
406.1492200717684
 31
0.0
  0
LINE
  5
22D
330
69
100
AcDbEntity
  8
1
  6
Continuous
 62
     7
100
AcDbLine
 10
126.314544187085
 20
411.1492200717684
 30
0.0
 11
146.814544187085
 21
411.1492200717684
 31
0.0
  0
LINE
  5
22E
330
69
100
AcDbEntity
  8
1
  6
Continuous
 62
     7
100
AcDbLine
 10
126.314544187085
 20
403.1492200717684
 30
0.0
 11
146.814544187085
 21
403.1492200717684
 31
0.0
  0
LINE
  5
22F
330
69
100
AcDbEntity
  8
1
  6
Continuous
 62
     7
100
AcDbLine
 10
178.814544187085
 20
426.1492200717684
 30
0.0
 11
178.814544187085
 21
423.1492200717684
 31
0.0
  0
LINE
  5
230
330
69
100
AcDbEntity
  8
1
  6
Continuous
 62
     7
100
AcDbLine
 10
178.814544187085
 20
423.1492200717684
 30
0.0
 11
178.814544187085
 21
412.4492200717684
 31
0.0
  0
LINE
  5
231
330
69
100
AcDbEntity
  8
0
  6
Continuous
 62
     7
100
AcDbLine
 10
178.814544187085
 20
426.1492200717684
 30
0.0
 11
175.814544187085
 21
426.1492200717684
 31
0.0
  0
LINE
  5
232
330
69
100
AcDbEntity
  8
0
  6
Continuous
 62
     7
100
AcDbLine
 10
175.814544187085
 20
426.1492200717684
 30
0.0
 11
175.814544187085
 21
416.3391074245259
 31
0.0
  0
LINE
  5
233
330
69
100
AcDbEntity
  8
1
  6
Continuous
 62
     7
100
AcDbLine
 10
163.814544187085
 20
424.6492200717684
 30
0.0
 11
164.401689399143
 21
424.6492200717684
 31
0.0
  0
LINE
  5
234
330
69
100
AcDbEntity
  8
0
  6
Continuous
 62
     7
100
AcDbLine
 10
163.814544187085
 20
426.1492200717684
 30
0.0
 11
160.814544187085
 21
426.1492200717684
 31
0.0
  0
LINE
  5
235
330
69
100
AcDbEntity
  8
0
  6
Continuous
 62
     7
100
AcDbLine
 10
160.814544187085
 20
426.1492200717684
 30
0.0
 11
160.814544187085
 21
424.6492200717684
 31
0.0
  0
LINE
  5
236
330
69
100
AcDbEntity
  8
1
  6
Continuous
 62
     7
100
AcDbLine
 10
154.814544187085
 20
406.1492200717684
 30
0.0
 11
146.814544187085
 21
406.1492200717684
 31
0.0
  0
LINE
  5
237
330
69
100
AcDbEntity
  8
1
  6
Continuous
 62
     7
100
AcDbLine
 10
154.814544187085
 20
408.1492200717684
 30
0.0
 11
146.814544187085
 21
408.1492200717684
 31
0.0
  0
LINE
  5
238
330
69
100
AcDbEntity
  8
1
  6
Continuous
 62
     7
100
AcDbLine
 10
178.814544187085
 20
391.1492200717682
 30
0.0
 11
178.814544187085
 21
388.1492200717682
 31
0.0
  0
LINE
  5
239
330
69
100
AcDbEntity
  8
1
  6
Continuous
 62
     7
100
AcDbLine
 10
178.814544187085
 20
407.1492200717684
 30
0.0
 11
178.814544187085
 21
391.1492200717682
 31
0.0
  0
LINE
  5
23A
330
69
100
AcDbEntity
  8
0
  6
Continuous
 62
     7
100
AcDbLine
 10
175.814544187085
 20
388.1492200717682
 30
0.0
 11
178.814544187085
 21
388.1492200717682
 31
0.0
  0
LINE
  5
23B
330
69
100
AcDbEntity
  8
0
  6
Continuous
 62
     7
100
AcDbLine
 10
160.814544187085
 20
388.1492200717682
 30
0.0
 11
163.814544187085
 21
388.1492200717682
 31
0.0
  0
LINE
  5
23C
330
69
100
AcDbEntity
  8
0
  6
Continuous
 62
     7
100
AcDbLine
 10
160.814544187085
 20
407.1492200717684
 30
0.0
 11
160.814544187085
 21
389.6492200717682
 31
0.0
  0
LINE
  5
23D
330
69
100
AcDbEntity
  8
1
  6
Continuous
 62
     7
100
AcDbLine
 10
128.814544187085
 20
424.6492200717684
 30
0.0
 11
160.814544187085
 21
424.6492200717684
 31
0.0
  0
LINE
  5
23E
330
69
100
AcDbEntity
  8
0
  6
Continuous
 62
     7
100
AcDbLine
 10
160.814544187085
 20
424.6492200717684
 30
0.0
 11
160.814544187085
 21
412.4492200717684
 31
0.0
  0
LINE
  5
23F
330
69
100
AcDbEntity
  8
1
  6
Continuous
 62
     7
100
AcDbLine
 10
128.814544187085
 20
389.6492200717682
 30
0.0
 11
160.814544187085
 21
389.6492200717682
 31
0.0
  0
LINE
  5
240
330
69
100
AcDbEntity
  8
0
  6
Continuous
 62
     7
100
AcDbLine
 10
160.814544187085
 20
389.6492200717682
 30
0.0
 11
160.814544187085
 21
388.1492200717682
 31
0.0
  0
LINE
  5
241
330
69
100
AcDbEntity
  8
1
  6
Continuous
 62
     7
100
AcDbLine
 10
175.2219203066623
 20
424.6492200717684
 30
0.0
 11
175.814544187085
 21
424.6492200717684
 31
0.0
  0
LINE
  5
242
330
69
100
AcDbEntity
  8
0
  6
Continuous
 62
     7
100
AcDbLine
 10
163.814544187085
 20
416.3391074245259
 30
0.0
 11
163.814544187085
 21
426.1492200717684
 31
0.0
  0
LINE
  5
243
330
69
100
AcDbEntity
  8
1
  6
Continuous
 62
     7
100
AcDbLine
 10
173.6417109721729
 20
389.6492200717682
 30
0.0
 11
165.9966277453617
 21
389.6492200717682
 31
0.0
  0
LINE
  5
244
330
69
100
AcDbEntity
  8
0
  6
Continuous
 62
     7
100
AcDbLine
 10
160.814544187085
 20
407.9492200717684
 30
0.0
 11
160.814544187085
 21
407.1492200717684
 31
0.0
  0
LINE
  5
245
330
69
100
AcDbEntity
  8
1
  6
Continuous
 62
     7
100
AcDbLine
 10
178.814544187085
 20
407.9492200717684
 30
0.0
 11
178.814544187085
 21
407.1492200717684
 31
0.0
  0
LINE
  5
246
330
69
100
AcDbEntity
  8
0
  6
Continuous
 62
     7
100
AcDbLine
 10
147.814544187085
 20
239.1492200717684
 30
0.0
 11
147.814544187085
 21
240.1492200717684
 31
0.0
  0
LINE
  5
247
330
69
100
AcDbEntity
  8
1
  6
Continuous
 62
     7
100
AcDbLine
 10
112.814544187085
 20
239.1492200717684
 30
0.0
 11
112.814544187085
 21
257.6492200717684
 31
0.0
  0
LINE
  5
248
330
69
100
AcDbEntity
  8
1
  6
Continuous
 62
     7
100
AcDbLine
 10
126.2391988910589
 20
274.6859451091692
 30
0.0
 11
146.814544187085
 21
274.6859451091692
 31
0.0
  0
LINE
  5
249
330
69
100
AcDbEntity
  8
1
  6
Continuous
 62
     7
100
AcDbLine
 10
154.814544187085
 20
275.1492200717684
 30
0.0
 11
160.814544187085
 21
275.1492200717684
 31
0.0
  0
LINE
  5
24A
330
69
100
AcDbEntity
  8
1
  6
Continuous
 62
     7
100
AcDbLine
 10
146.814544187085
 20
275.1206252814245
 30
0.0
 11
154.8431389774288
 21
275.1206252814245
 31
0.0
  0
LINE
  5
24B
330
69
100
AcDbEntity
  8
1
  6
Continuous
 62
     7
100
AcDbLine
 10
160.814544187085
 20
275.1492200717684
 30
0.0
 11
160.814544187085
 21
240.1492200717684
 31
0.0
  0
LINE
  5
24C
330
69
100
AcDbEntity
  8
1
  6
Continuous
 62
     7
100
AcDbLine
 10
173.974026411107
 20
240.1492200717684
 30
0.0
 11
165.5023479641551
 21
240.1492200717684
 31
0.0
  0
LINE
  5
24D
330
69
100
AcDbEntity
  8
0
  6
Continuous
 62
     7
100
AcDbLine
 10
176.2565669744672
 20
238.6492200717684
 30
0.0
 11
178.814544187085
 21
238.6492200717684
 31
0.0
  0
LINE
  5
24E
330
69
100
AcDbEntity
  8
0
  6
Continuous
 62
     7
100
AcDbLine
 10
162.5892404100148
 20
276.6492200717684
 30
0.0
 11
160.814544187085
 21
276.6492200717684
 31
0.0
  0
LINE
  5
24F
330
69
100
AcDbEntity
  8
1
  6
Continuous
 62
     7
100
AcDbLine
 10
164.6252093229491
 20
275.1492200717684
 30
0.0
 11
174.9914596037133
 21
275.1492200717684
 31
0.0
  0
LINE
  5
250
330
69
100
AcDbEntity
  8
0
  6
Continuous
 62
     7
100
AcDbLine
 10
160.814544187085
 20
238.6492200717684
 30
0.0
 11
163.5392404100148
 21
238.6492200717684
 31
0.0
  0
ARC
  5
251
330
69
100
AcDbEntity
  8
1
  6
Continuous
 62
     7
100
AcDbCircle
 10
129.8063130009973
 20
258.1781742990486
 30
0.0
 40
16.99999999999998
100
AcDbArc
 50
101.852808267184
 51
181.7830433602309
  0
ARC
  5
252
330
69
100
AcDbEntity
  8
1
  6
Continuous
 62
     7
100
AcDbCircle
 10
129.8063130009973
 20
407.6781742990486
 30
0.0
 40
17.00000000000002
100
AcDbArc
 50
93.34449706269909
 51
181.7830433602309
  0
ARC
  5
253
330
69
100
AcDbEntity
  8
1
  6
Continuous
 62
     7
100
AcDbCircle
 10
129.8063130009973
 20
406.6202658444881
 30
0.0
 40
17.00000000000001
100
AcDbArc
 50
178.2169566397686
 51
266.6555029373009
  0
ARC
  5
254
330
69
100
AcDbEntity
  8
1
  6
Continuous
 62
     7
100
AcDbCircle
 10
128.814544187085
 20
407.1492200717684
 30
0.0
 40
18.99999999999993
100
AcDbArc
 50
67.0804578484307
 51
292.9195421515693
  0
CIRCLE
  5
255
330
69
100
AcDbEntity
  8
0
  6
Continuous
 62
     7
100
AcDbCircle
 10
308.814544187085
 20
257.6492200717684
 30
0.0
 40
16.5000444851741
  0
CIRCLE
  5
256
330
69
100
AcDbEntity
  8
0
  6
Continuous
 62
     7
100
AcDbCircle
 10
308.814544187085
 20
257.6492200717684
 30
0.0
 40
19.0
  0
ENDBLK
  5
6B
330
69
100
AcDbEntity
  8
0
100
AcDbBlockEnd
  0
BLOCK
  5
6D
330
6C
100
AcDbEntity
  8
0
100
AcDbBlockBegin
  2
plate
 70
     0
 10
157.7182311534798
 20
337.2859213037194
 30
0.0
  3
plate
  1

  0
LINE
  5
257
330
6C
100
AcDbEntity
  8
1
  6
Continuous
 62
     7
100
AcDbLine
 10
181.064544187085
 20
407.9492200717684
 30
0.0
 11
158.564544187085
 21
407.9492200717684
 31
0.0
  0
LINE
  5
258
330
6C
100
AcDbEntity
  8
1
  6
Continuous
 62
     7
100
AcDbLine
 10
179.064544187085
 20
412.4492200717684
 30
0.0
 11
160.564544187085
 21
412.4492200717684
 31
0.0
  0
LINE
  5
259
330
6C
100
AcDbEntity
  8
1
  6
DASH_CENTER
 62
     2
100
AcDbLine
 10
176.314544187085
 20
414.1810841656903
 30
0.0
 11
176.314544187085
 21
405.4453918738453
 31
0.0
  0
LINE
  5
25A
330
6C
100
AcDbEntity
  8
1
  6
DASH_CENTER
 62
     2
100
AcDbLine
 10
163.314544187085
 20
405.3296928033365
 30
0.0
 11
163.314544187085
 21
414.2389337009446
 31
0.0
  0
LINE
  5
25B
330
6C
100
AcDbEntity
  8
1
  6
Continuous
 62
     7
100
AcDbLine
 10
181.064544187085
 20
407.9492200717684
 30
0.0
 11
181.064544187085
 21
410.4492200717684
 31
0.0
  0
LINE
  5
25C
330
6C
100
AcDbEntity
  8
1
  6
Continuous
 62
     7
100
AcDbLine
 10
158.564544187085
 20
410.4492200717684
 30
0.0
 11
158.564544187085
 21
407.9492200717684
 31
0.0
  0
ARC
  5
25D
330
6C
100
AcDbEntity
  8
1
  6
Continuous
 62
     7
100
AcDbCircle
 10
179.064544187085
 20
410.4492200717684
 30
0.0
 40
2.0
100
AcDbArc
 50
0.0
 51
90.0
  0
ARC
  5
25E
330
6C
100
AcDbEntity
  8
1
  6
Continuous
 62
     7
100
AcDbCircle
 10
160.564544187085
 20
410.4492200717684
 30
0.0
 40
2.0
100
AcDbArc
 50
90.0
 51
180.0
  0
ENDBLK
  5
6E
330
6C
100
AcDbEntity
  8
0
100
AcDbBlockEnd
  0
BLOCK
  5
70
330
6F
100
AcDbEntity
  8
0
100
AcDbBlockBegin
  2
washer__5
 70
     0
 10
164.314544187085
 20
338.0359213037194
 30
0.0
  3
washer__5
  1

  0
LINE
  5
25F
330
6F
100
AcDbEntity
  8
1
  6
Continuous
 62
     7
100
AcDbLine
 10
164.314544187085
 20
403.1992200717684
 30
0.0
 11
164.314544187085
 21
405.1492200717684
 31
0.0
  0
LINE
  5
260
330
6F
100
AcDbEntity
  8
1
  6
Continuous
 62
     7
100
AcDbLine
 10
174.5645441870849
 20
402.4492200717684
 30
0.0
 11
165.064544187085
 21
402.4492200717684
 31
0.0
  0
LINE
  5
261
330
6F
100
AcDbEntity
  8
1
  6
Continuous
 62
     7
100
AcDbLine
 10
164.314544187085
 20
405.1492200717684
 30
0.0
 11
175.3145441870849
 21
405.1492200717684
 31
0.0
  0
LINE
  5
262
330
6F
100
AcDbEntity
  8
1
  6
Continuous
 62
     7
100
AcDbLine
 10
175.3145441870849
 20
405.1492200717684
 30
0.0
 11
175.3145441870849
 21
403.1992200717684
 31
0.0
  0
ARC
  5
263
330
6F
100
AcDbEntity
  8
1
  6
Continuous
 62
     7
100
AcDbCircle
 10
174.5645441870849
 20
403.1992200717684
 30
0.0
 40
0.75
100
AcDbArc
 50
270.0
 51
0.0
  0
ARC
  5
264
330
6F
100
AcDbEntity
  8
1
  6
Continuous
 62
     7
100
AcDbCircle
 10
165.064544187085
 20
403.1992200717684
 30
0.0
 40
0.75
100
AcDbArc
 50
180.0
 51
270.0
  0
ENDBLK
  5
71
330
6F
100
AcDbEntity
  8
0
100
AcDbBlockEnd
  0
BLOCK
  5
73
330
72
100
AcDbEntity
  8
0
100
AcDbBlockBegin
  2
neji__6
 70
     0
 10
167.5645441870849
 20
335.0436583472124
 30
0.0
  3
neji__6
  1

  0
LINE
  5
265
330
72
100
AcDbEntity
  8
1
  6
Continuous
 62
     7
100
AcDbLine
 10
171.814544187085
 20
437.1492200717685
 30
0.0
 11
171.814544187085
 21
428.8812708793374
 31
0.0
  0
LINE
  5
266
330
72
100
AcDbEntity
  8
1
  6
Continuous
 62
     7
100
AcDbLine
 10
167.814544187085
 20
437.1492200717685
 30
0.0
 11
167.814544187085
 21
428.8812708793374
 31
0.0
  0
LINE
  5
267
330
72
100
AcDbEntity
  8
1
  6
Continuous
 62
     2
100
AcDbLine
 10
167.314544187085
 20
427.5583952238051
 30
0.0
 11
167.314544187085
 21
412.4492200717684
 31
0.0
  0
LINE
  5
268
330
72
100
AcDbEntity
  8
1
  6
Continuous
 62
     2
100
AcDbLine
 10
167.314544187085
 20
405.1492200717684
 30
0.0
 11
167.314544187085
 21
407.9492200717684
 31
0.0
  0
LINE
  5
269
330
72
100
AcDbEntity
  8
1
  6
Continuous
 62
     7
100
AcDbLine
 10
166.814544187085
 20
405.6492200717684
 30
0.0
 11
166.814544187085
 21
407.9492200717684
 31
0.0
  0
LINE
  5
26A
330
72
100
AcDbEntity
  8
1
  6
Continuous
 62
     7
100
AcDbLine
 10
167.314544187085
 20
405.1492200717684
 30
0.0
 11
166.814544187085
 21
405.6492200717684
 31
0.0
  0
LINE
  5
26B
330
72
100
AcDbEntity
  8
1
  6
Continuous
 62
     7
100
AcDbLine
 10
167.564544187085
 20
397.1492200717684
 30
0.0
 11
169.814544187085
 21
397.1492200717684
 31
0.0
  0
LINE
  5
26C
330
72
100
AcDbEntity
  8
1
  6
Continuous
 62
     7
100
AcDbLine
 10
167.564544187085
 20
400.1492200717684
 30
0.0
 11
167.564544187085
 21
397.1492200717684
 31
0.0
  0
LINE
  5
26D
330
72
100
AcDbEntity
  8
1
  6
Continuous
 62
     7
100
AcDbLine
 10
169.814544187085
 20
405.6492200717684
 30
0.0
 11
166.814544187085
 21
405.6492200717684
 31
0.0
  0
LINE
  5
26E
330
72
100
AcDbEntity
  8
1
  6
Continuous
 62
     7
100
AcDbLine
 10
172.814544187085
 20
427.1492200717685
 30
0.0
 11
172.814544187085
 21
412.4492200717684
 31
0.0
  0
LINE
  5
26F
330
72
100
AcDbEntity
  8
1
  6
Continuous
 62
     7
100
AcDbLine
 10
172.8145441870849
 20
407.9492200717684
 30
0.0
 11
172.8145441870849
 21
405.6492200717684
 31
0.0
  0
LINE
  5
270
330
72
100
AcDbEntity
  8
1
  6
Continuous
 62
     7
100
AcDbLine
 10
172.8145441870849
 20
405.6492200717684
 30
0.0
 11
172.3145441870849
 21
405.1492200717684
 31
0.0
  0
LINE
  5
271
330
72
100
AcDbEntity
  8
1
  6
Continuous
 62
     7
100
AcDbLine
 10
169.814544187085
 20
397.1492200717684
 30
0.0
 11
172.0645441870849
 21
397.1492200717684
 31
0.0
  0
LINE
  5
272
330
72
100
AcDbEntity
  8
1
  6
Continuous
 62
     7
100
AcDbLine
 10
172.0645441870849
 20
397.1492200717684
 30
0.0
 11
172.0645441870849
 21
400.1492200717684
 31
0.0
  0
LINE
  5
273
330
72
100
AcDbEntity
  8
1
  6
Continuous
 62
     7
100
AcDbLine
 10
172.8145441870849
 20
405.6492200717684
 30
0.0
 11
169.814544187085
 21
405.6492200717684
 31
0.0
  0
LINE
  5
274
330
72
100
AcDbEntity
  8
1
  6
Continuous
 62
     2
100
AcDbLine
 10
172.3145441870849
 20
412.4492200717684
 30
0.0
 11
172.314544187085
 21
427.5583952238051
 31
0.0
  0
LINE
  5
275
330
72
100
AcDbEntity
  8
1
  6
Continuous
 62
     7
100
AcDbLine
 10
166.814544187085
 20
412.4492200717684
 30
0.0
 11
166.814544187085
 21
427.1492200717685
 31
0.0
  0
LINE
  5
276
330
72
100
AcDbEntity
  8
1
  6
Continuous
 62
     2
100
AcDbLine
 10
172.3145441870849
 20
407.9492200717684
 30
0.0
 11
172.3145441870849
 21
405.1492200717684
 31
0.0
  0
ARC
  5
277
330
72
100
AcDbEntity
  8
1
  6
Continuous
 62
     7
100
AcDbCircle
 10
173.814544187085
 20
428.8812708793374
 30
0.0
 40
2.000000000000003
100
AcDbArc
 50
221.4096221092709
 51
240.0000000000002
  0
ARC
  5
278
330
72
100
AcDbEntity
  8
1
  6
Continuous
 62
     7
100
AcDbCircle
 10
173.814544187085
 20
428.8812708793374
 30
0.0
 40
2.0
100
AcDbArc
 50
180.0
 51
221.4096221092709
  0
ARC
  5
279
330
72
100
AcDbEntity
  8
1
  6
Continuous
 62
     7
100
AcDbCircle
 10
169.814544187085
 20
425.7656522112198
 30
0.0
 40
3.702307346118512
100
AcDbArc
 50
57.30249567031368
 51
122.6975043296863
  0
ARC
  5
27A
330
72
100
AcDbEntity
  8
1
  6
Continuous
 62
     7
100
AcDbCircle
 10
169.814544187085
 20
437.1492200717685
 30
0.0
 40
2.0
100
AcDbArc
 50
0.0
 51
180.0
  0
ARC
  5
27B
330
72
100
AcDbEntity
  8
1
  6
Continuous
 62
     7
100
AcDbCircle
 10
165.814544187085
 20
428.8812708793374
 30
0.0
 40
2.000000000000016
100
AcDbArc
 50
299.9999999999997
 51
318.590377890729
  0
ARC
  5
27C
330
72
100
AcDbEntity
  8
1
  6
Continuous
 62
     7
100
AcDbCircle
 10
165.814544187085
 20
428.8812708793374
 30
0.0
 40
2.000000000000003
100
AcDbArc
 50
318.590377890729
 51
0.0
  0
ENDBLK
  5
74
330
72
100
AcDbEntity
  8
0
100
AcDbBlockEnd
  0
BLOCK
  5
76
330
75
100
AcDbEntity
  8
0
100
AcDbBlockBegin
  2
ring__7
 70
     0
 10
162.0018891002364
 20
293.4717948597515
 30
0.0
  3
ring__7
  1

  0
LINE
  5
27D
330
75
100
AcDbEntity
  8
1
  6
Continuous
 62
     7
100
AcDbLine
 10
172.9094661221055
 20
425.7591281786731
 30
0.0
 11
173.0576478243534
 21
412.4492200717684
 31
0.0
  0
LINE
  5
27E
330
75
100
AcDbEntity
  8
1
  6
Continuous
 62
     7
100
AcDbLine
 10
166.7124261352896
 20
425.7361811735475
 30
0.0
 11
166.5714411945919
 21
412.4492200717684
 31
0.0
  0
LINE
  5
27F
330
75
100
AcDbEntity
  8
1
  6
Continuous
 62
     7
100
AcDbLine
 10
164.4142125710306
 20
425.810705127096
 30
0.0
 11
164.3018317481557
 21
415.3877350164408
 31
0.0
  0
LINE
  5
280
330
75
100
AcDbEntity
  8
1
  6
Continuous
 62
     7
100
AcDbLine
 10
175.2087064725654
 20
425.8110243798142
 30
0.0
 11
175.3272598588723
 21
415.3874157637225
 31
0.0
  0
LINE
  5
281
330
75
100
AcDbEntity
  8
1
  6
Continuous
 62
     7
100
AcDbLine
 10
162.0023570382172
 20
406.6492200717684
 30
0.0
 11
162.234740429042
 21
406.6492200717684
 31
0.0
  0
LINE
  5
282
330
75
100
AcDbEntity
  8
1
  6
Continuous
 62
     7
100
AcDbLine
 10
175.3276672119146
 20
406.6492200717684
 30
0.0
 11
177.6267313359527
 21
406.6492200717684
 31
0.0
  0
LINE
  5
283
330
75
100
AcDbEntity
  8
1
  6
Continuous
 62
     7
100
AcDbLine
 10
175.3276672119146
 20
406.6492200717684
 30
0.0
 11
175.3276672119146
 21
407.9492200717684
 31
0.0
  0
LINE
  5
284
330
75
100
AcDbEntity
  8
1
  6
Continuous
 62
     7
100
AcDbLine
 10
177.6267313359527
 20
406.6492200717684
 30
0.0
 11
177.6267313359527
 21
407.9492200717684
 31
0.0
  0
LINE
  5
285
330
75
100
AcDbEntity
  8
1
  6
Continuous
 62
     7
100
AcDbLine
 10
164.3014211622553
 20
406.6492200717684
 30
0.0
 11
164.3014211622553
 21
407.9492200717684
 31
0.0
  0
LINE
  5
286
330
75
100
AcDbEntity
  8
1
  6
Continuous
 62
     7
100
AcDbLine
 10
162.0023570382172
 20
406.6492200717684
 30
0.0
 11
162.0023570382172
 21
407.9492200717684
 31
0.0
  0
LINE
  5
287
330
75
100
AcDbEntity
  8
1
  6
Continuous
 62
     7
100
AcDbLine
 10
175.3276672119146
 20
412.4492200717684
 30
0.0
 11
175.3276672119146
 21
415.3664170476659
 31
0.0
  0
LINE
  5
288
330
75
100
AcDbEntity
  8
1
  6
Continuous
 62
     7
100
AcDbLine
 10
177.6267313359527
 20
412.4492200717684
 30
0.0
 11
177.6267313359527
 21
415.3664170476659
 31
0.0
  0
LINE
  5
289
330
75
100
AcDbEntity
  8
1
  6
Continuous
 62
     7
100
AcDbLine
 10
164.3014211622553
 20
412.4492200717684
 30
0.0
 11
164.3014211622553
 21
415.3664170476659
 31
0.0
  0
LINE
  5
28A
330
75
100
AcDbEntity
  8
1
  6
Continuous
 62
     7
100
AcDbLine
 10
162.0023570382172
 20
412.4492200717684
 30
0.0
 11
162.0023570382172
 21
415.3664170476659
 31
0.0
  0
LINE
  5
28B
330
75
100
AcDbEntity
  8
1
  6
Continuous
 62
     7
100
AcDbLine
 10
163.814544187085
 20
388.4685739455574
 30
0.0
 11
162.234740429042
 21
406.6492200717684
 31
0.0
  0
LINE
  5
28C
330
75
100
AcDbEntity
  8
1
  6
Continuous
 62
     7
100
AcDbLine
 10
164.3014806863868
 20
415.4298661979793
 30
0.0
 11
164.3809395641957
 21
412.4492200717684
 31
0.0
  0
LINE
  5
28D
330
75
100
AcDbEntity
  8
1
  6
Continuous
 62
     7
100
AcDbLine
 10
173.5153371582129
 20
388.5294154289677
 30
0.0
 11
174.9564536302774
 21
401.2992200717683
 31
0.0
  0
LINE
  5
28E
330
75
100
AcDbEntity
  8
1
  6
Continuous
 62
     7
100
AcDbLine
 10
174.9564536302774
 20
401.2992200717683
 30
0.0
 11
174.9901382830273
 21
402.5816687253209
 31
0.0
  0
LINE
  5
28F
330
75
100
AcDbEntity
  8
1
  6
Continuous
 62
     7
100
AcDbLine
 10
165.8281793068738
 20
400.1492200717684
 30
0.0
 11
173.8064536302774
 21
400.1492200717684
 31
0.0
  0
LINE
  5
290
330
75
100
AcDbEntity
  8
1
  6
Continuous
 62
     7
100
AcDbLine
 10
165.8281793068738
 20
402.4492200717684
 30
0.0
 11
173.8064536302774
 21
402.4492200717684
 31
0.0
  0
LINE
  5
291
330
75
100
AcDbEntity
  8
1
  6
Continuous
 62
     7
100
AcDbLine
 10
177.3977693759006
 20
406.6492200717684
 30
0.0
 11
175.814544187085
 21
388.4690247145691
 31
0.0
  0
LINE
  5
292
330
75
100
AcDbEntity
  8
1
  6
Continuous
 62
     7
100
AcDbLine
 10
175.2493182819113
 20
412.4492200717684
 30
0.0
 11
175.3275957594976
 21
415.4294154289677
 31
0.0
  0
LINE
  5
293
330
75
100
AcDbEntity
  8
1
  6
Continuous
 62
     7
100
AcDbLine
 10
164.5009017921824
 20
407.9492200717684
 30
0.0
 11
164.575544956263
 21
405.1492200717684
 31
0.0
  0
LINE
  5
294
330
75
100
AcDbEntity
  8
1
  6
Continuous
 62
     7
100
AcDbLine
 10
162.234740429042
 20
406.6492200717684
 30
0.0
 11
164.3014211622553
 21
406.6492200717684
 31
0.0
  0
LINE
  5
295
330
75
100
AcDbEntity
  8
1
  6
Continuous
 62
     7
100
AcDbLine
 10
164.6440849431691
 20
402.5781612788946
 30
0.0
 11
166.1137273593862
 21
388.5298661979792
 31
0.0
  0
LINE
  5
296
330
75
100
AcDbEntity
  8
1
  6
Continuous
 62
     7
100
AcDbLine
 10
175.0575772992272
 20
405.1492200717684
 30
0.0
 11
175.1311217857362
 21
407.9492200717684
 31
0.0
  0
ARC
  5
297
330
75
100
AcDbEntity
  8
1
  6
Continuous
 62
     7
100
AcDbCircle
 10
165.5641552189501
 20
425.7992200717683
 30
0.0
 40
1.150000000000018
100
AcDbArc
 50
356.8576746875983
 51
179.4277772720191
  0
ARC
  5
298
330
75
100
AcDbEntity
  8
1
  6
Continuous
 62
     7
100
AcDbCircle
 10
174.058767057504
 20
425.7992200717683
 30
0.0
 40
1.150000000000083
100
AcDbArc
 50
0.58812948557394
 51
181.9978798564702
  0
ARC
  5
299
330
75
100
AcDbEntity
  8
1
  6
Continuous
 62
     7
100
AcDbCircle
 10
163.1518891002363
 20
415.3992200717684
 30
0.0
 40
1.149999999999973
100
AcDbArc
 50
358.3654523487828
 51
359.4277772720247
  0
ARC
  5
29A
330
75
100
AcDbEntity
  8
1
  6
Continuous
 62
     7
100
AcDbCircle
 10
176.4771992739336
 20
415.3992200717684
 30
0.0
 40
1.149999999999992
100
AcDbArc
 50
178.4954214079342
 51
180.5881294855712
  0
ARC
  5
29B
330
75
100
AcDbEntity
  8
1
  6
Continuous
 62
     7
100
AcDbCircle
 10
173.8064536302774
 20
401.2992200717683
 30
0.0
 40
1.149999999999864
100
AcDbArc
 50
270.0
 51
0.0
  0
ARC
  5
29C
330
75
100
AcDbEntity
  8
1
  6
Continuous
 62
     7
100
AcDbCircle
 10
165.8281793068738
 20
401.2992200717683
 30
0.0
 40
1.150000000000148
100
AcDbArc
 50
90.0
 51
270.0
  0
ARC
  5
29D
330
75
100
AcDbEntity
  8
1
  6
Continuous
 62
     7
100
AcDbCircle
 10
176.4771992739336
 20
415.3992200717684
 30
0.0
 40
1.149999999999969
100
AcDbArc
 50
180.5881294855712
 51
181.6345476512172
  0
ARC
  5
29E
330
75
100
AcDbEntity
  8
1
  6
Continuous
 62
     7
100
AcDbCircle
 10
163.1518891002363
 20
415.3992200717684
 30
0.0
 40
1.149999999999898
100
AcDbArc
 50
359.4277772720247
 51
0.0
  0
ARC
  5
29F
330
75
100
AcDbEntity
  8
1
  6
Continuous
 62
     7
100
AcDbCircle
 10
163.1518891002363
 20
415.3992200717684
 30
0.0
 40
1.149999999999902
100
AcDbArc
 50
1.52704485564254
 51
181.634547651217
  0
ARC
  5
2A0
330
75
100
AcDbEntity
  8
1
  6
Continuous
 62
     7
100
AcDbCircle
 10
164.9641357732356
 20
388.4992200717684
 30
0.0
 40
1.149999999999988
100
AcDbArc
 50
181.5270448556452
 51
1.52704485563677
  0
ARC
  5
2A1
330
75
100
AcDbEntity
  8
1
  6
Continuous
 62
     7
100
AcDbCircle
 10
163.1518891002363
 20
415.3992200717684
 30
0.0
 40
1.149999999999892
100
AcDbArc
 50
0.0
 51
1.52704485564254
  0
ARC
  5
2A2
330
75
100
AcDbEntity
  8
1
  6
Continuous
 62
     7
100
AcDbCircle
 10
174.6649406726489
 20
388.4992200717684
 30
0.0
 40
1.149999999999994
100
AcDbArc
 50
178.4954214079314
 51
358.4954214079343
  0
ARC
  5
2A3
330
75
100
AcDbEntity
  8
1
  6
Continuous
 62
     7
100
AcDbCircle
 10
176.4771992739336
 20
415.3992200717684
 30
0.0
 40
1.150000000000087
100
AcDbArc
 50
358.3654523487829
 51
178.4954214079342
  0
ARC
  5
2A4
330
75
100
AcDbEntity
  8
1
  6
Continuous
 62
     7
100
AcDbCircle
 10
173.8064536302774
 20
401.2992200717683
 30
0.0
 40
1.150000000000006
100
AcDbArc
 50
0.0
 51
90.0
  0
ENDBLK
  5
77
330
75
100
AcDbEntity
  8
0
100
AcDbBlockEnd
  0
BLOCK
  5
7D
330
78
100
AcDbEntity
  8
0
100
AcDbBlockBegin
  2
5
 70
     0
 10
158.564544187085
 20
387.3492200717683
 30
0.0
  3
5
  1

  0
INSERT
  5
79
330
78
100
AcDbEntity
  8
1
100
AcDbBlockReference
  2
plate
 10
157.7182311534798
 20
337.2859213037194
 30
0.0
  0
INSERT
  5
7A
330
78
100
AcDbEntity
  8
1
100
AcDbBlockReference
  2
washer__5
 10
164.314544187085
 20
338.0359213037194
 30
0.0
  0
INSERT
  5
7B
330
78
100
AcDbEntity
  8
1
100
AcDbBlockReference
  2
neji__6
 10
167.5645441870849
 20
335.0436583472124
 30
0.0
  0
INSERT
  5
7C
330
78
100
AcDbEntity
  8
1
100
AcDbBlockReference
  2
ring__7
 10
162.0018891002364
 20
293.4717948597515
 30
0.0
  0
LINE
  5
2A5
330
78
100
AcDbEntity
  8
1
  6
DASH_CENTER
 62
     2
100
AcDbLine
 10
169.814544187085
 20
443.1492200717685
 30
0.0
 11
169.814544187085
 21
394.7691515379444
 31
0.0
  0
ENDBLK
  5
7E
330
78
100
AcDbEntity
  8
0
100
AcDbBlockEnd
  0
BLOCK
  5
80
330
7F
100
AcDbEntity
  8
0
100
AcDbBlockBegin
  2
screw__8
 70
     0
 10
324.2285086901505
 20
361.5936801335839
 30
0.0
  3
screw__8
  1

  0
LINE
  5
2A6
330
7F
100
AcDbEntity
  8
1
  6
Continuous
 62
     7
100
AcDbLine
 10
347.3145441870848
 20
234.0643144113911
 30
0.0
 11
347.3145441870851
 21
234.2492200717684
 31
0.0
  0
LINE
  5
2A7
330
7F
100
AcDbEntity
  8
1
  6
Continuous
 62
     7
100
AcDbLine
 10
349.114544187085
 20
232.1492200717684
 30
0.0
 11
349.3145441870852
 21
231.9492200717683
 31
0.0
  0
LINE
  5
2A8
330
7F
100
AcDbEntity
  8
0
  6
Continuous
 62
     7
100
AcDbLine
 10
349.3145441870852
 20
231.9492200717683
 30
0.0
 11
351.314544187085
 21
231.9492200717684
 31
0.0
  0
LINE
  5
2A9
330
7F
100
AcDbEntity
  8
1
  6
Continuous
 62
     7
100
AcDbLine
 10
349.3145441870848
 20
231.7447377179421
 30
0.0
 11
350.283144810472
 21
231.9492200717683
 31
0.0
  0
LINE
  5
2AA
330
7F
100
AcDbEntity
  8
1
  6
Continuous
 62
     7
100
AcDbLine
 10
349.3145441870848
 20
231.7447377179421
 30
0.0
 11
349.3145441870852
 21
231.9492200717683
 31
0.0
  0
LINE
  5
2AB
330
7F
100
AcDbEntity
  8
1
  6
Continuous
 62
     7
100
AcDbLine
 10
351.6793020907709
 20
219.1298235498298
 30
0.0
 11
351.314544187085
 21
218.9110673025374
 31
0.0
  0
LINE
  5
2AC
330
7F
100
AcDbEntity
  8
1
  6
Continuous
 62
     7
100
AcDbLine
 10
351.6229533153922
 20
218.9937855720881
 30
0.0
 11
351.314544187085
 21
218.9110673025374
 31
0.0
  0
LINE
  5
2AD
330
7F
100
AcDbEntity
  8
1
  6
Continuous
 62
     7
100
AcDbLine
 10
351.314544187085
 20
218.9110673025374
 30
0.0
 11
351.7689400476854
 21
219.0780710512757
 31
0.0
  0
LINE
  5
2AE
330
7F
100
AcDbEntity
  8
1
  6
Continuous
 62
     7
100
AcDbLine
 10
350.6919237210889
 20
219.752358844987
 30
0.0
 11
352.2513759907691
 21
220.5109321178858
 31
0.0
  0
LINE
  5
2AF
330
7F
100
AcDbEntity
  8
1
  6
Continuous
 62
     7
100
AcDbLine
 10
350.3972037567731
 20
219.9225154957202
 30
0.0
 11
352.6948291871076
 21
220.7669599401644
 31
0.0
  0
LINE
  5
2B0
330
7F
100
AcDbEntity
  8
1
  6
Continuous
 62
     7
100
AcDbLine
 10
350.5781660610062
 20
220.026994130782
 30
0.0
 11
352.4225425355563
 21
220.9241647117345
 31
0.0
  0
LINE
  5
2B1
330
7F
100
AcDbEntity
  8
1
  6
Continuous
 62
     7
100
AcDbLine
 10
350.0635010457121
 20
221.2695053907844
 30
0.0
 11
352.825655298196
 21
222.1735886974498
 31
0.0
  0
LINE
  5
2B2
330
7F
100
AcDbEntity
  8
1
  6
Continuous
 62
     7
100
AcDbLine
 10
349.471314617351
 20
221.6114043846088
 30
0.0
 11
353.3145441870848
 21
222.4558488290535
 31
0.0
  0
LINE
  5
2B3
330
7F
100
AcDbEntity
  8
1
  6
Continuous
 62
     7
100
AcDbLine
 10
349.834925616221
 20
221.8213352926867
 30
0.0
 11
352.825655298196
 21
222.7381089606571
 31
0.0
  0
LINE
  5
2B4
330
7F
100
AcDbEntity
  8
1
  6
Continuous
 62
     7
100
AcDbLine
 10
350.5781660610062
 20
220.026994130782
 30
0.0
 11
350.0635010457121
 21
221.2695053907844
 31
0.0
  0
LINE
  5
2B5
330
7F
100
AcDbEntity
  8
1
  6
Continuous
 62
     7
100
AcDbLine
 10
351.314544187085
 20
218.2492200717684
 30
0.0
 11
350.6919237210889
 21
219.752358844987
 31
0.0
  0
LINE
  5
2B6
330
7F
100
AcDbEntity
  8
1
  6
Continuous
 62
     7
100
AcDbLine
 10
352.825655298196
 20
221.8973650104656
 30
0.0
 11
352.825655298196
 21
222.1735886974498
 31
0.0
  0
LINE
  5
2B7
330
7F
100
AcDbEntity
  8
1
  6
Continuous
 62
     7
100
AcDbLine
 10
352.4225425355563
 20
220.9241647117345
 30
0.0
 11
352.825655298196
 21
221.8973650104656
 31
0.0
  0
LINE
  5
2B8
330
7F
100
AcDbEntity
  8
1
  6
Continuous
 62
     7
100
AcDbLine
 10
351.6793020907709
 20
219.1298235498298
 30
0.0
 11
352.2513759907691
 21
220.5109321178858
 31
0.0
  0
LINE
  5
2B9
330
7F
100
AcDbEntity
  8
1
  6
Continuous
 62
     7
100
AcDbLine
 10
351.314544187085
 20
218.2492200717684
 30
0.0
 11
351.6229533153922
 21
218.9937855720881
 31
0.0
  0
LINE
  5
2BA
330
7F
100
AcDbEntity
  8
1
  6
Continuous
 62
     7
100
AcDbLine
 10
351.7689400476854
 20
219.0780710512757
 30
0.0
 11
351.6229533153922
 21
218.9937855720881
 31
0.0
  0
LINE
  5
2BB
330
7F
100
AcDbEntity
  8
1
  6
Continuous
 62
     7
100
AcDbLine
 10
351.7689400476854
 20
219.0780710512757
 30
0.0
 11
351.6793020907709
 21
219.1298235498298
 31
0.0
  0
LINE
  5
2BC
330
7F
100
AcDbEntity
  8
1
  6
Continuous
 62
     7
100
AcDbLine
 10
352.6948291871076
 20
220.7669599401644
 30
0.0
 11
352.2513759907691
 21
220.5109321178858
 31
0.0
  0
LINE
  5
2BD
330
7F
100
AcDbEntity
  8
1
  6
Continuous
 62
     7
100
AcDbLine
 10
352.6948291871076
 20
220.7669599401644
 30
0.0
 11
352.4225425355563
 21
220.9241647117345
 31
0.0
  0
LINE
  5
2BE
330
7F
100
AcDbEntity
  8
1
  6
Continuous
 62
     7
100
AcDbLine
 10
350.3972037567731
 20
219.9225154957202
 30
0.0
 11
350.6919237210889
 21
219.752358844987
 31
0.0
  0
LINE
  5
2BF
330
7F
100
AcDbEntity
  8
1
  6
Continuous
 62
     7
100
AcDbLine
 10
350.3972037567731
 20
219.9225154957202
 30
0.0
 11
350.5781660610062
 21
220.026994130782
 31
0.0
  0
LINE
  5
2C0
330
7F
100
AcDbEntity
  8
1
  6
Continuous
 62
     7
100
AcDbLine
 10
349.834925616221
 20
221.8213352926867
 30
0.0
 11
349.8034330759739
 21
221.8936645162129
 31
0.0
  0
LINE
  5
2C1
330
7F
100
AcDbEntity
  8
1
  6
Continuous
 62
     7
100
AcDbLine
 10
349.471314617351
 20
221.6114043846088
 30
0.0
 11
350.0635010457121
 21
221.2695053907844
 31
0.0
  0
LINE
  5
2C2
330
7F
100
AcDbEntity
  8
1
  6
Continuous
 62
     7
100
AcDbLine
 10
349.471314617351
 20
221.6114043846088
 30
0.0
 11
349.834925616221
 21
221.8213352926867
 31
0.0
  0
LINE
  5
2C3
330
7F
100
AcDbEntity
  8
1
  6
Continuous
 62
     7
100
AcDbLine
 10
349.8034330759738
 20
223.0180331418941
 30
0.0
 11
352.825655298196
 21
223.8624775863383
 31
0.0
  0
LINE
  5
2C4
330
7F
100
AcDbEntity
  8
1
  6
Continuous
 62
     7
100
AcDbLine
 10
349.3145441870848
 20
223.3002932734979
 30
0.0
 11
353.3145441870848
 21
224.1447377179424
 31
0.0
  0
LINE
  5
2C5
330
7F
100
AcDbEntity
  8
1
  6
Continuous
 62
     7
100
AcDbLine
 10
349.8034330759739
 20
223.5825534051016
 30
0.0
 11
352.825655298196
 21
224.4269978495462
 31
0.0
  0
LINE
  5
2C6
330
7F
100
AcDbEntity
  8
1
  6
Continuous
 62
     7
100
AcDbLine
 10
349.8034330759738
 20
224.706922030783
 30
0.0
 11
352.825655298196
 21
225.5513664752274
 31
0.0
  0
LINE
  5
2C7
330
7F
100
AcDbEntity
  8
1
  6
Continuous
 62
     7
100
AcDbLine
 10
349.3145441870848
 20
224.9891821623867
 30
0.0
 11
353.3145441870848
 21
225.833626606831
 31
0.0
  0
LINE
  5
2C8
330
7F
100
AcDbEntity
  8
1
  6
Continuous
 62
     7
100
AcDbLine
 10
349.8034330759739
 20
225.2714422939905
 30
0.0
 11
352.825655298196
 21
226.1158867384352
 31
0.0
  0
LINE
  5
2C9
330
7F
100
AcDbEntity
  8
1
  6
Continuous
 62
     7
100
AcDbLine
 10
349.8034330759738
 20
226.3958109196719
 30
0.0
 11
352.825655298196
 21
227.2402553641163
 31
0.0
  0
LINE
  5
2CA
330
7F
100
AcDbEntity
  8
1
  6
Continuous
 62
     7
100
AcDbLine
 10
349.3145441870848
 20
226.6780710512757
 30
0.0
 11
353.3145441870848
 21
227.5225154957199
 31
0.0
  0
LINE
  5
2CB
330
7F
100
AcDbEntity
  8
1
  6
Continuous
 62
     7
100
AcDbLine
 10
349.8034330759739
 20
226.9603311828793
 30
0.0
 11
352.825655298196
 21
227.8047756273238
 31
0.0
  0
LINE
  5
2CC
330
7F
100
AcDbEntity
  8
1
  6
Continuous
 62
     7
100
AcDbLine
 10
349.8034330759739
 20
228.0846998085607
 30
0.0
 11
352.825655298196
 21
228.9291442530051
 31
0.0
  0
LINE
  5
2CD
330
7F
100
AcDbEntity
  8
1
  6
Continuous
 62
     7
100
AcDbLine
 10
349.3145441870848
 20
228.3669599401644
 30
0.0
 11
353.3145441870848
 21
229.2114043846088
 31
0.0
  0
LINE
  5
2CE
330
7F
100
AcDbEntity
  8
1
  6
Continuous
 62
     7
100
AcDbLine
 10
349.8034330759738
 20
228.6492200717683
 30
0.0
 11
352.825655298196
 21
229.4936645162128
 31
0.0
  0
LINE
  5
2CF
330
7F
100
AcDbEntity
  8
1
  6
Continuous
 62
     7
100
AcDbLine
 10
349.8034330759739
 20
229.7735886974494
 30
0.0
 11
352.825655298196
 21
230.6180331418941
 31
0.0
  0
LINE
  5
2D0
330
7F
100
AcDbEntity
  8
1
  6
Continuous
 62
     7
100
AcDbLine
 10
349.3145441870848
 20
230.0558488290533
 30
0.0
 11
353.3145441870848
 21
230.9002932734978
 31
0.0
  0
LINE
  5
2D1
330
7F
100
AcDbEntity
  8
1
  6
Continuous
 62
     7
100
AcDbLine
 10
349.8034330759738
 20
230.3381089606572
 30
0.0
 11
351.314544187085
 21
230.7603311828794
 31
0.0
  0
LINE
  5
2D2
330
7F
100
AcDbEntity
  8
1
  6
Continuous
 62
     7
100
AcDbLine
 10
349.8034330759739
 20
231.4624775863384
 30
0.0
 11
351.314544187085
 21
231.8846998085606
 31
0.0
  0
LINE
  5
2D3
330
7F
100
AcDbEntity
  8
1
  6
Continuous
 62
     7
100
AcDbLine
 10
352.825655298196
 20
223.8624775863383
 30
0.0
 11
352.825655298196
 21
222.7381089606571
 31
0.0
  0
LINE
  5
2D4
330
7F
100
AcDbEntity
  8
1
  6
Continuous
 62
     7
100
AcDbLine
 10
352.825655298196
 20
225.5513664752274
 30
0.0
 11
352.825655298196
 21
224.4269978495462
 31
0.0
  0
LINE
  5
2D5
330
7F
100
AcDbEntity
  8
1
  6
Continuous
 62
     7
100
AcDbLine
 10
352.825655298196
 20
227.2402553641163
 30
0.0
 11
352.825655298196
 21
226.1158867384352
 31
0.0
  0
LINE
  5
2D6
330
7F
100
AcDbEntity
  8
1
  6
Continuous
 62
     7
100
AcDbLine
 10
352.825655298196
 20
228.9291442530051
 30
0.0
 11
352.825655298196
 21
227.8047756273238
 31
0.0
  0
LINE
  5
2D7
330
7F
100
AcDbEntity
  8
1
  6
Continuous
 62
     7
100
AcDbLine
 10
352.825655298196
 20
230.6180331418941
 30
0.0
 11
352.825655298196
 21
229.4936645162128
 31
0.0
  0
LINE
  5
2D8
330
7F
100
AcDbEntity
  8
1
  6
Continuous
 62
     7
100
AcDbLine
 10
349.8034330759738
 20
223.0180331418941
 30
0.0
 11
349.8034330759739
 21
221.8936645162129
 31
0.0
  0
LINE
  5
2D9
330
7F
100
AcDbEntity
  8
1
  6
Continuous
 62
     7
100
AcDbLine
 10
349.8034330759738
 20
224.706922030783
 30
0.0
 11
349.8034330759739
 21
223.5825534051016
 31
0.0
  0
LINE
  5
2DA
330
7F
100
AcDbEntity
  8
1
  6
Continuous
 62
     7
100
AcDbLine
 10
349.8034330759738
 20
226.3958109196719
 30
0.0
 11
349.8034330759739
 21
225.2714422939905
 31
0.0
  0
LINE
  5
2DB
330
7F
100
AcDbEntity
  8
1
  6
Continuous
 62
     7
100
AcDbLine
 10
349.8034330759739
 20
228.0846998085607
 30
0.0
 11
349.8034330759739
 21
226.9603311828793
 31
0.0
  0
LINE
  5
2DC
330
7F
100
AcDbEntity
  8
1
  6
Continuous
 62
     7
100
AcDbLine
 10
349.8034330759739
 20
229.7735886974494
 30
0.0
 11
349.8034330759738
 21
228.6492200717683
 31
0.0
  0
LINE
  5
2DD
330
7F
100
AcDbEntity
  8
1
  6
Continuous
 62
     7
100
AcDbLine
 10
349.8034330759739
 20
231.4624775863384
 30
0.0
 11
349.8034330759738
 21
230.3381089606572
 31
0.0
  0
LINE
  5
2DE
330
7F
100
AcDbEntity
  8
1
  6
Continuous
 62
     7
100
AcDbLine
 10
352.825655298196
 20
230.6180331418941
 30
0.0
 11
353.3145441870848
 21
230.9002932734978
 31
0.0
  0
LINE
  5
2DF
330
7F
100
AcDbEntity
  8
1
  6
Continuous
 62
     7
100
AcDbLine
 10
352.825655298196
 20
228.9291442530051
 30
0.0
 11
353.3145441870848
 21
229.2114043846088
 31
0.0
  0
LINE
  5
2E0
330
7F
100
AcDbEntity
  8
1
  6
Continuous
 62
     7
100
AcDbLine
 10
353.3145441870848
 20
229.2114043846088
 30
0.0
 11
352.825655298196
 21
229.4936645162128
 31
0.0
  0
LINE
  5
2E1
330
7F
100
AcDbEntity
  8
1
  6
Continuous
 62
     7
100
AcDbLine
 10
352.825655298196
 20
227.2402553641163
 30
0.0
 11
353.3145441870848
 21
227.5225154957199
 31
0.0
  0
LINE
  5
2E2
330
7F
100
AcDbEntity
  8
1
  6
Continuous
 62
     7
100
AcDbLine
 10
353.3145441870848
 20
227.5225154957199
 30
0.0
 11
352.825655298196
 21
227.8047756273238
 31
0.0
  0
LINE
  5
2E3
330
7F
100
AcDbEntity
  8
1
  6
Continuous
 62
     7
100
AcDbLine
 10
353.3145441870848
 20
225.833626606831
 30
0.0
 11
352.825655298196
 21
226.1158867384352
 31
0.0
  0
LINE
  5
2E4
330
7F
100
AcDbEntity
  8
1
  6
Continuous
 62
     7
100
AcDbLine
 10
352.825655298196
 20
225.5513664752274
 30
0.0
 11
353.3145441870848
 21
225.833626606831
 31
0.0
  0
LINE
  5
2E5
330
7F
100
AcDbEntity
  8
1
  6
Continuous
 62
     7
100
AcDbLine
 10
353.3145441870848
 20
224.1447377179424
 30
0.0
 11
352.825655298196
 21
224.4269978495462
 31
0.0
  0
LINE
  5
2E6
330
7F
100
AcDbEntity
  8
1
  6
Continuous
 62
     7
100
AcDbLine
 10
352.825655298196
 20
223.8624775863383
 30
0.0
 11
353.3145441870848
 21
224.1447377179424
 31
0.0
  0
LINE
  5
2E7
330
7F
100
AcDbEntity
  8
1
  6
Continuous
 62
     7
100
AcDbLine
 10
353.3145441870848
 20
222.4558488290535
 30
0.0
 11
352.825655298196
 21
222.7381089606571
 31
0.0
  0
LINE
  5
2E8
330
7F
100
AcDbEntity
  8
1
  6
Continuous
 62
     7
100
AcDbLine
 10
352.825655298196
 20
222.1735886974498
 30
0.0
 11
353.3145441870848
 21
222.4558488290535
 31
0.0
  0
LINE
  5
2E9
330
7F
100
AcDbEntity
  8
1
  6
Continuous
 62
     7
100
AcDbLine
 10
349.3145441870848
 20
223.3002932734979
 30
0.0
 11
349.8034330759738
 21
223.0180331418941
 31
0.0
  0
LINE
  5
2EA
330
7F
100
AcDbEntity
  8
1
  6
Continuous
 62
     7
100
AcDbLine
 10
349.8034330759739
 20
223.5825534051016
 30
0.0
 11
349.3145441870848
 21
223.3002932734979
 31
0.0
  0
LINE
  5
2EB
330
7F
100
AcDbEntity
  8
1
  6
Continuous
 62
     7
100
AcDbLine
 10
349.3145441870848
 20
224.9891821623867
 30
0.0
 11
349.8034330759738
 21
224.706922030783
 31
0.0
  0
LINE
  5
2EC
330
7F
100
AcDbEntity
  8
1
  6
Continuous
 62
     7
100
AcDbLine
 10
349.8034330759739
 20
225.2714422939905
 30
0.0
 11
349.3145441870848
 21
224.9891821623867
 31
0.0
  0
LINE
  5
2ED
330
7F
100
AcDbEntity
  8
1
  6
Continuous
 62
     7
100
AcDbLine
 10
349.8034330759739
 20
226.9603311828793
 30
0.0
 11
349.3145441870848
 21
226.6780710512757
 31
0.0
  0
LINE
  5
2EE
330
7F
100
AcDbEntity
  8
1
  6
Continuous
 62
     7
100
AcDbLine
 10
349.3145441870848
 20
226.6780710512757
 30
0.0
 11
349.8034330759738
 21
226.3958109196719
 31
0.0
  0
LINE
  5
2EF
330
7F
100
AcDbEntity
  8
1
  6
Continuous
 62
     7
100
AcDbLine
 10
349.8034330759738
 20
228.6492200717683
 30
0.0
 11
349.3145441870848
 21
228.3669599401644
 31
0.0
  0
LINE
  5
2F0
330
7F
100
AcDbEntity
  8
1
  6
Continuous
 62
     7
100
AcDbLine
 10
349.3145441870848
 20
228.3669599401644
 30
0.0
 11
349.8034330759739
 21
228.0846998085607
 31
0.0
  0
LINE
  5
2F1
330
7F
100
AcDbEntity
  8
1
  6
Continuous
 62
     7
100
AcDbLine
 10
349.8034330759738
 20
230.3381089606572
 30
0.0
 11
349.3145441870848
 21
230.0558488290533
 31
0.0
  0
LINE
  5
2F2
330
7F
100
AcDbEntity
  8
1
  6
Continuous
 62
     7
100
AcDbLine
 10
349.3145441870848
 20
230.0558488290533
 30
0.0
 11
349.8034330759739
 21
229.7735886974494
 31
0.0
  0
LINE
  5
2F3
330
7F
100
AcDbEntity
  8
1
  6
Continuous
 62
     7
100
AcDbLine
 10
349.3145441870848
 20
231.7447377179421
 30
0.0
 11
349.8034330759739
 21
231.4624775863384
 31
0.0
  0
LINE
  5
2F4
330
7F
100
AcDbEntity
  8
0
  6
DASH_CENTER
 62
     2
100
AcDbLine
 10
351.314544187085
 20
216.9084791300843
 30
0.0
 11
351.314544187085
 21
236.3278552604494
 31
0.0
  0
LINE
  5
2F5
330
7F
100
AcDbEntity
  8
1
  6
Continuous
 62
     7
100
AcDbLine
 10
347.3145441870851
 20
234.2492200717684
 30
0.0
 11
351.1400589056659
 21
234.2492200717684
 31
0.0
  0
LINE
  5
2F6
330
7F
100
AcDbEntity
  8
0
  6
Continuous
 62
     7
100
AcDbLine
 10
353.3145441870848
 20
231.9492200717683
 30
0.0
 11
353.3145441870848
 21
230.9002932734978
 31
0.0
  0
LINE
  5
2F7
330
7F
100
AcDbEntity
  8
1
  6
Continuous
 62
     7
100
AcDbLine
 10
353.3145441870848
 20
231.9492200717683
 30
0.0
 11
353.5145441870849
 21
232.1492200717684
 31
0.0
  0
LINE
  5
2F8
330
7F
100
AcDbEntity
  8
0
  6
Continuous
 62
     7
100
AcDbLine
 10
351.314544187085
 20
231.9492200717684
 30
0.0
 11
353.3145441870848
 21
231.9492200717683
 31
0.0
  0
LINE
  5
2F9
330
7F
100
AcDbEntity
  8
1
  6
Continuous
 62
     7
100
AcDbLine
 10
351.314544187085
 20
231.9492200717684
 30
0.0
 11
351.3145441870847
 21
230.4780710512754
 31
0.0
  0
ENDBLK
  5
81
330
7F
100
AcDbEntity
  8
0
100
AcDbBlockEnd
  0
BLOCK
  5
83
330
82
100
AcDbEntity
  8
0
100
AcDbBlockBegin
  2
screw__9
 70
     0
 10
39.22850869015056
 20
361.5936801335839
 30
0.0
  3
screw__9
  1

  0
LINE
  5
2FA
330
82
100
AcDbEntity
  8
1
  6
Continuous
 62
     7
100
AcDbLine
 10
82.31454418708485
 20
234.0643144113911
 30
0.0
 11
82.31454418708495
 21
234.2492200717684
 31
0.0
  0
LINE
  5
2FB
330
82
100
AcDbEntity
  8
1
  6
Continuous
 62
     7
100
AcDbLine
 10
84.11454418708495
 20
232.1492200717684
 30
0.0
 11
84.31454418708505
 21
231.9492200717683
 31
0.0
  0
LINE
  5
2FC
330
82
100
AcDbEntity
  8
0
  6
Continuous
 62
     7
100
AcDbLine
 10
84.31454418708505
 20
231.9492200717683
 30
0.0
 11
86.31454418708495
 21
231.9492200717684
 31
0.0
  0
LINE
  5
2FD
330
82
100
AcDbEntity
  8
1
  6
Continuous
 62
     7
100
AcDbLine
 10
84.31454418708485
 20
231.7447377179421
 30
0.0
 11
85.28314481047195
 21
231.9492200717683
 31
0.0
  0
LINE
  5
2FE
330
82
100
AcDbEntity
  8
1
  6
Continuous
 62
     7
100
AcDbLine
 10
84.31454418708485
 20
231.7447377179421
 30
0.0
 11
84.31454418708505
 21
231.9492200717683
 31
0.0
  0
LINE
  5
2FF
330
82
100
AcDbEntity
  8
1
  6
Continuous
 62
     7
100
AcDbLine
 10
86.67930209077075
 20
219.1298235498298
 30
0.0
 11
86.31454418708495
 21
218.9110673025374
 31
0.0
  0
LINE
  5
300
330
82
100
AcDbEntity
  8
1
  6
Continuous
 62
     7
100
AcDbLine
 10
86.62295331539225
 20
218.9937855720881
 30
0.0
 11
86.31454418708495
 21
218.9110673025374
 31
0.0
  0
LINE
  5
301
330
82
100
AcDbEntity
  8
1
  6
Continuous
 62
     7
100
AcDbLine
 10
86.31454418708495
 20
218.9110673025374
 30
0.0
 11
86.76894004768525
 21
219.0780710512757
 31
0.0
  0
LINE
  5
302
330
82
100
AcDbEntity
  8
1
  6
Continuous
 62
     7
100
AcDbLine
 10
85.69192372108884
 20
219.752358844987
 30
0.0
 11
87.25137599076905
 21
220.5109321178858
 31
0.0
  0
LINE
  5
303
330
82
100
AcDbEntity
  8
1
  6
Continuous
 62
     7
100
AcDbLine
 10
85.39720375677315
 20
219.9225154957202
 30
0.0
 11
87.69482918710754
 21
220.7669599401644
 31
0.0
  0
LINE
  5
304
330
82
100
AcDbEntity
  8
1
  6
Continuous
 62
     7
100
AcDbLine
 10
85.57816606100604
 20
220.026994130782
 30
0.0
 11
87.42254253555615
 21
220.9241647117345
 31
0.0
  0
LINE
  5
305
330
82
100
AcDbEntity
  8
1
  6
Continuous
 62
     7
100
AcDbLine
 10
85.06350104571194
 20
221.2695053907844
 30
0.0
 11
87.82565529819595
 21
222.1735886974498
 31
0.0
  0
LINE
  5
306
330
82
100
AcDbEntity
  8
1
  6
Continuous
 62
     7
100
AcDbLine
 10
84.47131461735094
 20
221.6114043846088
 30
0.0
 11
88.31454418708485
 21
222.4558488290535
 31
0.0
  0
LINE
  5
307
330
82
100
AcDbEntity
  8
1
  6
Continuous
 62
     7
100
AcDbLine
 10
84.83492561622084
 20
221.8213352926867
 30
0.0
 11
87.82565529819595
 21
222.7381089606571
 31
0.0
  0
LINE
  5
308
330
82
100
AcDbEntity
  8
1
  6
Continuous
 62
     7
100
AcDbLine
 10
85.57816606100604
 20
220.026994130782
 30
0.0
 11
85.06350104571194
 21
221.2695053907844
 31
0.0
  0
LINE
  5
309
330
82
100
AcDbEntity
  8
1
  6
Continuous
 62
     7
100
AcDbLine
 10
86.31454418708495
 20
218.2492200717684
 30
0.0
 11
85.69192372108884
 21
219.752358844987
 31
0.0
  0
LINE
  5
30A
330
82
100
AcDbEntity
  8
1
  6
Continuous
 62
     7
100
AcDbLine
 10
87.82565529819595
 20
221.8973650104656
 30
0.0
 11
87.82565529819595
 21
222.1735886974498
 31
0.0
  0
LINE
  5
30B
330
82
100
AcDbEntity
  8
1
  6
Continuous
 62
     7
100
AcDbLine
 10
87.42254253555615
 20
220.9241647117345
 30
0.0
 11
87.82565529819595
 21
221.8973650104656
 31
0.0
  0
LINE
  5
30C
330
82
100
AcDbEntity
  8
1
  6
Continuous
 62
     7
100
AcDbLine
 10
86.67930209077075
 20
219.1298235498298
 30
0.0
 11
87.25137599076905
 21
220.5109321178858
 31
0.0
  0
LINE
  5
30D
330
82
100
AcDbEntity
  8
1
  6
Continuous
 62
     7
100
AcDbLine
 10
86.31454418708495
 20
218.2492200717684
 30
0.0
 11
86.62295331539225
 21
218.9937855720881
 31
0.0
  0
LINE
  5
30E
330
82
100
AcDbEntity
  8
1
  6
Continuous
 62
     7
100
AcDbLine
 10
86.76894004768525
 20
219.0780710512757
 30
0.0
 11
86.62295331539225
 21
218.9937855720881
 31
0.0
  0
LINE
  5
30F
330
82
100
AcDbEntity
  8
1
  6
Continuous
 62
     7
100
AcDbLine
 10
86.76894004768525
 20
219.0780710512757
 30
0.0
 11
86.67930209077075
 21
219.1298235498298
 31
0.0
  0
LINE
  5
310
330
82
100
AcDbEntity
  8
1
  6
Continuous
 62
     7
100
AcDbLine
 10
87.69482918710754
 20
220.7669599401644
 30
0.0
 11
87.25137599076905
 21
220.5109321178858
 31
0.0
  0
LINE
  5
311
330
82
100
AcDbEntity
  8
1
  6
Continuous
 62
     7
100
AcDbLine
 10
87.69482918710754
 20
220.7669599401644
 30
0.0
 11
87.42254253555615
 21
220.9241647117345
 31
0.0
  0
LINE
  5
312
330
82
100
AcDbEntity
  8
1
  6
Continuous
 62
     7
100
AcDbLine
 10
85.39720375677315
 20
219.9225154957202
 30
0.0
 11
85.69192372108884
 21
219.752358844987
 31
0.0
  0
LINE
  5
313
330
82
100
AcDbEntity
  8
1
  6
Continuous
 62
     7
100
AcDbLine
 10
85.39720375677315
 20
219.9225154957202
 30
0.0
 11
85.57816606100604
 21
220.026994130782
 31
0.0
  0
LINE
  5
314
330
82
100
AcDbEntity
  8
1
  6
Continuous
 62
     7
100
AcDbLine
 10
84.83492561622084
 20
221.8213352926867
 30
0.0
 11
84.80343307597374
 21
221.8936645162129
 31
0.0
  0
LINE
  5
315
330
82
100
AcDbEntity
  8
1
  6
Continuous
 62
     7
100
AcDbLine
 10
84.47131461735094
 20
221.6114043846088
 30
0.0
 11
85.06350104571194
 21
221.2695053907844
 31
0.0
  0
LINE
  5
316
330
82
100
AcDbEntity
  8
1
  6
Continuous
 62
     7
100
AcDbLine
 10
84.47131461735094
 20
221.6114043846088
 30
0.0
 11
84.83492561622084
 21
221.8213352926867
 31
0.0
  0
LINE
  5
317
330
82
100
AcDbEntity
  8
1
  6
Continuous
 62
     7
100
AcDbLine
 10
84.80343307597364
 20
223.0180331418941
 30
0.0
 11
87.82565529819595
 21
223.8624775863383
 31
0.0
  0
LINE
  5
318
330
82
100
AcDbEntity
  8
1
  6
Continuous
 62
     7
100
AcDbLine
 10
84.31454418708485
 20
223.3002932734979
 30
0.0
 11
88.31454418708485
 21
224.1447377179424
 31
0.0
  0
LINE
  5
319
330
82
100
AcDbEntity
  8
1
  6
Continuous
 62
     7
100
AcDbLine
 10
84.80343307597374
 20
223.5825534051016
 30
0.0
 11
87.82565529819595
 21
224.4269978495462
 31
0.0
  0
LINE
  5
31A
330
82
100
AcDbEntity
  8
1
  6
Continuous
 62
     7
100
AcDbLine
 10
84.80343307597364
 20
224.706922030783
 30
0.0
 11
87.82565529819595
 21
225.5513664752274
 31
0.0
  0
LINE
  5
31B
330
82
100
AcDbEntity
  8
1
  6
Continuous
 62
     7
100
AcDbLine
 10
84.31454418708485
 20
224.9891821623867
 30
0.0
 11
88.31454418708485
 21
225.833626606831
 31
0.0
  0
LINE
  5
31C
330
82
100
AcDbEntity
  8
1
  6
Continuous
 62
     7
100
AcDbLine
 10
84.80343307597374
 20
225.2714422939905
 30
0.0
 11
87.82565529819595
 21
226.1158867384352
 31
0.0
  0
LINE
  5
31D
330
82
100
AcDbEntity
  8
1
  6
Continuous
 62
     7
100
AcDbLine
 10
84.80343307597364
 20
226.3958109196719
 30
0.0
 11
87.82565529819595
 21
227.2402553641163
 31
0.0
  0
LINE
  5
31E
330
82
100
AcDbEntity
  8
1
  6
Continuous
 62
     7
100
AcDbLine
 10
84.31454418708485
 20
226.6780710512757
 30
0.0
 11
88.31454418708485
 21
227.5225154957199
 31
0.0
  0
LINE
  5
31F
330
82
100
AcDbEntity
  8
1
  6
Continuous
 62
     7
100
AcDbLine
 10
84.80343307597374
 20
226.9603311828793
 30
0.0
 11
87.82565529819595
 21
227.8047756273238
 31
0.0
  0
LINE
  5
320
330
82
100
AcDbEntity
  8
1
  6
Continuous
 62
     7
100
AcDbLine
 10
84.80343307597374
 20
228.0846998085607
 30
0.0
 11
87.82565529819595
 21
228.9291442530051
 31
0.0
  0
LINE
  5
321
330
82
100
AcDbEntity
  8
1
  6
Continuous
 62
     7
100
AcDbLine
 10
84.31454418708485
 20
228.3669599401644
 30
0.0
 11
88.31454418708475
 21
229.2114043846088
 31
0.0
  0
LINE
  5
322
330
82
100
AcDbEntity
  8
1
  6
Continuous
 62
     7
100
AcDbLine
 10
84.80343307597364
 20
228.6492200717683
 30
0.0
 11
87.82565529819595
 21
229.4936645162128
 31
0.0
  0
LINE
  5
323
330
82
100
AcDbEntity
  8
1
  6
Continuous
 62
     7
100
AcDbLine
 10
84.80343307597374
 20
229.7735886974494
 30
0.0
 11
87.82565529819595
 21
230.6180331418941
 31
0.0
  0
LINE
  5
324
330
82
100
AcDbEntity
  8
1
  6
Continuous
 62
     7
100
AcDbLine
 10
84.31454418708485
 20
230.0558488290533
 30
0.0
 11
88.31454418708475
 21
230.9002932734978
 31
0.0
  0
LINE
  5
325
330
82
100
AcDbEntity
  8
1
  6
Continuous
 62
     7
100
AcDbLine
 10
84.80343307597364
 20
230.3381089606572
 30
0.0
 11
86.31454418708495
 21
230.7603311828794
 31
0.0
  0
LINE
  5
326
330
82
100
AcDbEntity
  8
1
  6
Continuous
 62
     7
100
AcDbLine
 10
84.80343307597374
 20
231.4624775863384
 30
0.0
 11
86.31454418708495
 21
231.8846998085606
 31
0.0
  0
LINE
  5
327
330
82
100
AcDbEntity
  8
1
  6
Continuous
 62
     7
100
AcDbLine
 10
87.82565529819595
 20
223.8624775863383
 30
0.0
 11
87.82565529819595
 21
222.7381089606571
 31
0.0
  0
LINE
  5
328
330
82
100
AcDbEntity
  8
1
  6
Continuous
 62
     7
100
AcDbLine
 10
87.82565529819595
 20
225.5513664752274
 30
0.0
 11
87.82565529819595
 21
224.4269978495462
 31
0.0
  0
LINE
  5
329
330
82
100
AcDbEntity
  8
1
  6
Continuous
 62
     7
100
AcDbLine
 10
87.82565529819595
 20
227.2402553641163
 30
0.0
 11
87.82565529819595
 21
226.1158867384352
 31
0.0
  0
LINE
  5
32A
330
82
100
AcDbEntity
  8
1
  6
Continuous
 62
     7
100
AcDbLine
 10
87.82565529819595
 20
228.9291442530051
 30
0.0
 11
87.82565529819595
 21
227.8047756273238
 31
0.0
  0
LINE
  5
32B
330
82
100
AcDbEntity
  8
1
  6
Continuous
 62
     7
100
AcDbLine
 10
87.82565529819595
 20
230.6180331418941
 30
0.0
 11
87.82565529819595
 21
229.4936645162128
 31
0.0
  0
LINE
  5
32C
330
82
100
AcDbEntity
  8
1
  6
Continuous
 62
     7
100
AcDbLine
 10
84.80343307597364
 20
223.0180331418941
 30
0.0
 11
84.80343307597374
 21
221.8936645162129
 31
0.0
  0
LINE
  5
32D
330
82
100
AcDbEntity
  8
1
  6
Continuous
 62
     7
100
AcDbLine
 10
84.80343307597364
 20
224.706922030783
 30
0.0
 11
84.80343307597374
 21
223.5825534051016
 31
0.0
  0
LINE
  5
32E
330
82
100
AcDbEntity
  8
1
  6
Continuous
 62
     7
100
AcDbLine
 10
84.80343307597364
 20
226.3958109196719
 30
0.0
 11
84.80343307597374
 21
225.2714422939905
 31
0.0
  0
LINE
  5
32F
330
82
100
AcDbEntity
  8
1
  6
Continuous
 62
     7
100
AcDbLine
 10
84.80343307597374
 20
228.0846998085607
 30
0.0
 11
84.80343307597374
 21
226.9603311828793
 31
0.0
  0
LINE
  5
330
330
82
100
AcDbEntity
  8
1
  6
Continuous
 62
     7
100
AcDbLine
 10
84.80343307597374
 20
229.7735886974494
 30
0.0
 11
84.80343307597364
 21
228.6492200717683
 31
0.0
  0
LINE
  5
331
330
82
100
AcDbEntity
  8
1
  6
Continuous
 62
     7
100
AcDbLine
 10
84.80343307597374
 20
231.4624775863384
 30
0.0
 11
84.80343307597364
 21
230.3381089606572
 31
0.0
  0
LINE
  5
332
330
82
100
AcDbEntity
  8
1
  6
Continuous
 62
     7
100
AcDbLine
 10
87.82565529819595
 20
230.6180331418941
 30
0.0
 11
88.31454418708475
 21
230.9002932734978
 31
0.0
  0
LINE
  5
333
330
82
100
AcDbEntity
  8
1
  6
Continuous
 62
     7
100
AcDbLine
 10
87.82565529819595
 20
228.9291442530051
 30
0.0
 11
88.31454418708475
 21
229.2114043846088
 31
0.0
  0
LINE
  5
334
330
82
100
AcDbEntity
  8
1
  6
Continuous
 62
     7
100
AcDbLine
 10
88.31454418708475
 20
229.2114043846088
 30
0.0
 11
87.82565529819595
 21
229.4936645162128
 31
0.0
  0
LINE
  5
335
330
82
100
AcDbEntity
  8
1
  6
Continuous
 62
     7
100
AcDbLine
 10
87.82565529819595
 20
227.2402553641163
 30
0.0
 11
88.31454418708485
 21
227.5225154957199
 31
0.0
  0
LINE
  5
336
330
82
100
AcDbEntity
  8
1
  6
Continuous
 62
     7
100
AcDbLine
 10
88.31454418708485
 20
227.5225154957199
 30
0.0
 11
87.82565529819595
 21
227.8047756273238
 31
0.0
  0
LINE
  5
337
330
82
100
AcDbEntity
  8
1
  6
Continuous
 62
     7
100
AcDbLine
 10
88.31454418708485
 20
225.833626606831
 30
0.0
 11
87.82565529819595
 21
226.1158867384352
 31
0.0
  0
LINE
  5
338
330
82
100
AcDbEntity
  8
1
  6
Continuous
 62
     7
100
AcDbLine
 10
87.82565529819595
 20
225.5513664752274
 30
0.0
 11
88.31454418708485
 21
225.833626606831
 31
0.0
  0
LINE
  5
339
330
82
100
AcDbEntity
  8
1
  6
Continuous
 62
     7
100
AcDbLine
 10
88.31454418708485
 20
224.1447377179424
 30
0.0
 11
87.82565529819595
 21
224.4269978495462
 31
0.0
  0
LINE
  5
33A
330
82
100
AcDbEntity
  8
1
  6
Continuous
 62
     7
100
AcDbLine
 10
87.82565529819595
 20
223.8624775863383
 30
0.0
 11
88.31454418708485
 21
224.1447377179424
 31
0.0
  0
LINE
  5
33B
330
82
100
AcDbEntity
  8
1
  6
Continuous
 62
     7
100
AcDbLine
 10
88.31454418708485
 20
222.4558488290535
 30
0.0
 11
87.82565529819595
 21
222.7381089606571
 31
0.0
  0
LINE
  5
33C
330
82
100
AcDbEntity
  8
1
  6
Continuous
 62
     7
100
AcDbLine
 10
87.82565529819595
 20
222.1735886974498
 30
0.0
 11
88.31454418708485
 21
222.4558488290535
 31
0.0
  0
LINE
  5
33D
330
82
100
AcDbEntity
  8
1
  6
Continuous
 62
     7
100
AcDbLine
 10
84.31454418708485
 20
223.3002932734979
 30
0.0
 11
84.80343307597364
 21
223.0180331418941
 31
0.0
  0
LINE
  5
33E
330
82
100
AcDbEntity
  8
1
  6
Continuous
 62
     7
100
AcDbLine
 10
84.80343307597374
 20
223.5825534051016
 30
0.0
 11
84.31454418708485
 21
223.3002932734979
 31
0.0
  0
LINE
  5
33F
330
82
100
AcDbEntity
  8
1
  6
Continuous
 62
     7
100
AcDbLine
 10
84.31454418708485
 20
224.9891821623867
 30
0.0
 11
84.80343307597364
 21
224.706922030783
 31
0.0
  0
LINE
  5
340
330
82
100
AcDbEntity
  8
1
  6
Continuous
 62
     7
100
AcDbLine
 10
84.80343307597374
 20
225.2714422939905
 30
0.0
 11
84.31454418708485
 21
224.9891821623867
 31
0.0
  0
LINE
  5
341
330
82
100
AcDbEntity
  8
1
  6
Continuous
 62
     7
100
AcDbLine
 10
84.80343307597374
 20
226.9603311828793
 30
0.0
 11
84.31454418708485
 21
226.6780710512757
 31
0.0
  0
LINE
  5
342
330
82
100
AcDbEntity
  8
1
  6
Continuous
 62
     7
100
AcDbLine
 10
84.31454418708485
 20
226.6780710512757
 30
0.0
 11
84.80343307597364
 21
226.3958109196719
 31
0.0
  0
LINE
  5
343
330
82
100
AcDbEntity
  8
1
  6
Continuous
 62
     7
100
AcDbLine
 10
84.80343307597364
 20
228.6492200717683
 30
0.0
 11
84.31454418708485
 21
228.3669599401644
 31
0.0
  0
LINE
  5
344
330
82
100
AcDbEntity
  8
1
  6
Continuous
 62
     7
100
AcDbLine
 10
84.31454418708485
 20
228.3669599401644
 30
0.0
 11
84.80343307597374
 21
228.0846998085607
 31
0.0
  0
LINE
  5
345
330
82
100
AcDbEntity
  8
1
  6
Continuous
 62
     7
100
AcDbLine
 10
84.80343307597364
 20
230.3381089606572
 30
0.0
 11
84.31454418708485
 21
230.0558488290533
 31
0.0
  0
LINE
  5
346
330
82
100
AcDbEntity
  8
1
  6
Continuous
 62
     7
100
AcDbLine
 10
84.31454418708485
 20
230.0558488290533
 30
0.0
 11
84.80343307597374
 21
229.7735886974494
 31
0.0
  0
LINE
  5
347
330
82
100
AcDbEntity
  8
1
  6
Continuous
 62
     7
100
AcDbLine
 10
84.31454418708485
 20
231.7447377179421
 30
0.0
 11
84.80343307597374
 21
231.4624775863384
 31
0.0
  0
LINE
  5
348
330
82
100
AcDbEntity
  8
0
  6
DASH_CENTER
 62
     2
100
AcDbLine
 10
86.31454418708495
 20
216.9084791300843
 30
0.0
 11
86.31454418708495
 21
236.3278552604494
 31
0.0
  0
LINE
  5
349
330
82
100
AcDbEntity
  8
1
  6
Continuous
 62
     7
100
AcDbLine
 10
82.31454418708495
 20
234.2492200717684
 30
0.0
 11
86.14005890566595
 21
234.2492200717684
 31
0.0
  0
LINE
  5
34A
330
82
100
AcDbEntity
  8
0
  6
Continuous
 62
     7
100
AcDbLine
 10
88.31454418708475
 20
231.9492200717683
 30
0.0
 11
88.31454418708475
 21
230.9002932734978
 31
0.0
  0
LINE
  5
34B
330
82
100
AcDbEntity
  8
1
  6
Continuous
 62
     7
100
AcDbLine
 10
88.31454418708475
 20
231.9492200717683
 30
0.0
 11
88.51454418708485
 21
232.1492200717684
 31
0.0
  0
LINE
  5
34C
330
82
100
AcDbEntity
  8
0
  6
Continuous
 62
     7
100
AcDbLine
 10
86.31454418708495
 20
231.9492200717684
 30
0.0
 11
88.31454418708475
 21
231.9492200717683
 31
0.0
  0
LINE
  5
34D
330
82
100
AcDbEntity
  8
1
  6
Continuous
 62
     7
100
AcDbLine
 10
86.31454418708495
 20
231.9492200717684
 30
0.0
 11
86.31454418708515
 21
230.4780710512754
 31
0.0
  0
ENDBLK
  5
84
330
82
100
AcDbEntity
  8
0
100
AcDbBlockEnd
  0
BLOCK
  5
86
330
85
100
AcDbEntity
  8
0
100
AcDbBlockBegin
  2
screw__10
 70
     0
 10
124.2285086901506
 20
361.5936801335839
 30
0.0
  3
screw__10
  1

  0
LINE
  5
34E
330
85
100
AcDbEntity
  8
1
  6
Continuous
 62
     7
100
AcDbLine
 10
171.314544187085
 20
231.9492200717684
 30
0.0
 11
171.3145441870848
 21
230.4780710512754
 31
0.0
  0
LINE
  5
34F
330
85
100
AcDbEntity
  8
0
  6
Continuous
 62
     7
100
AcDbLine
 10
171.314544187085
 20
231.9492200717684
 30
0.0
 11
173.3145441870848
 21
231.9492200717683
 31
0.0
  0
LINE
  5
350
330
85
100
AcDbEntity
  8
1
  6
Continuous
 62
     7
100
AcDbLine
 10
173.3145441870848
 20
231.9492200717683
 30
0.0
 11
173.5145441870849
 21
232.1492200717684
 31
0.0
  0
LINE
  5
351
330
85
100
AcDbEntity
  8
0
  6
Continuous
 62
     7
100
AcDbLine
 10
173.3145441870848
 20
231.9492200717683
 30
0.0
 11
173.3145441870848
 21
230.9002932734978
 31
0.0
  0
LINE
  5
352
330
85
100
AcDbEntity
  8
1
  6
Continuous
 62
     7
100
AcDbLine
 10
167.314544187085
 20
234.2492200717684
 30
0.0
 11
171.140058905666
 21
234.2492200717684
 31
0.0
  0
LINE
  5
353
330
85
100
AcDbEntity
  8
0
  6
DASH_CENTER
 62
     2
100
AcDbLine
 10
171.314544187085
 20
216.9084791300843
 30
0.0
 11
171.314544187085
 21
236.3278552604494
 31
0.0
  0
LINE
  5
354
330
85
100
AcDbEntity
  8
1
  6
Continuous
 62
     7
100
AcDbLine
 10
169.3145441870849
 20
231.7447377179421
 30
0.0
 11
169.8034330759738
 21
231.4624775863384
 31
0.0
  0
LINE
  5
355
330
85
100
AcDbEntity
  8
1
  6
Continuous
 62
     7
100
AcDbLine
 10
169.3145441870849
 20
230.0558488290533
 30
0.0
 11
169.8034330759738
 21
229.7735886974494
 31
0.0
  0
LINE
  5
356
330
85
100
AcDbEntity
  8
1
  6
Continuous
 62
     7
100
AcDbLine
 10
169.8034330759737
 20
230.3381089606572
 30
0.0
 11
169.3145441870849
 21
230.0558488290533
 31
0.0
  0
LINE
  5
357
330
85
100
AcDbEntity
  8
1
  6
Continuous
 62
     7
100
AcDbLine
 10
169.3145441870849
 20
228.3669599401644
 30
0.0
 11
169.8034330759738
 21
228.0846998085607
 31
0.0
  0
LINE
  5
358
330
85
100
AcDbEntity
  8
1
  6
Continuous
 62
     7
100
AcDbLine
 10
169.8034330759737
 20
228.6492200717683
 30
0.0
 11
169.3145441870849
 21
228.3669599401644
 31
0.0
  0
LINE
  5
359
330
85
100
AcDbEntity
  8
1
  6
Continuous
 62
     7
100
AcDbLine
 10
169.3145441870849
 20
226.6780710512757
 30
0.0
 11
169.8034330759737
 21
226.3958109196719
 31
0.0
  0
LINE
  5
35A
330
85
100
AcDbEntity
  8
1
  6
Continuous
 62
     7
100
AcDbLine
 10
169.8034330759738
 20
226.9603311828793
 30
0.0
 11
169.3145441870849
 21
226.6780710512757
 31
0.0
  0
LINE
  5
35B
330
85
100
AcDbEntity
  8
1
  6
Continuous
 62
     7
100
AcDbLine
 10
169.8034330759738
 20
225.2714422939905
 30
0.0
 11
169.3145441870849
 21
224.9891821623867
 31
0.0
  0
LINE
  5
35C
330
85
100
AcDbEntity
  8
1
  6
Continuous
 62
     7
100
AcDbLine
 10
169.3145441870849
 20
224.9891821623867
 30
0.0
 11
169.8034330759737
 21
224.706922030783
 31
0.0
  0
LINE
  5
35D
330
85
100
AcDbEntity
  8
1
  6
Continuous
 62
     7
100
AcDbLine
 10
169.8034330759738
 20
223.5825534051016
 30
0.0
 11
169.3145441870849
 21
223.3002932734979
 31
0.0
  0
LINE
  5
35E
330
85
100
AcDbEntity
  8
1
  6
Continuous
 62
     7
100
AcDbLine
 10
169.3145441870849
 20
223.3002932734979
 30
0.0
 11
169.8034330759737
 21
223.0180331418941
 31
0.0
  0
LINE
  5
35F
330
85
100
AcDbEntity
  8
1
  6
Continuous
 62
     7
100
AcDbLine
 10
172.825655298196
 20
222.1735886974498
 30
0.0
 11
173.3145441870849
 21
222.4558488290535
 31
0.0
  0
LINE
  5
360
330
85
100
AcDbEntity
  8
1
  6
Continuous
 62
     7
100
AcDbLine
 10
173.3145441870849
 20
222.4558488290535
 30
0.0
 11
172.825655298196
 21
222.7381089606571
 31
0.0
  0
LINE
  5
361
330
85
100
AcDbEntity
  8
1
  6
Continuous
 62
     7
100
AcDbLine
 10
172.825655298196
 20
223.8624775863383
 30
0.0
 11
173.3145441870849
 21
224.1447377179424
 31
0.0
  0
LINE
  5
362
330
85
100
AcDbEntity
  8
1
  6
Continuous
 62
     7
100
AcDbLine
 10
173.3145441870849
 20
224.1447377179424
 30
0.0
 11
172.825655298196
 21
224.4269978495462
 31
0.0
  0
LINE
  5
363
330
85
100
AcDbEntity
  8
1
  6
Continuous
 62
     7
100
AcDbLine
 10
172.825655298196
 20
225.5513664752274
 30
0.0
 11
173.3145441870849
 21
225.833626606831
 31
0.0
  0
LINE
  5
364
330
85
100
AcDbEntity
  8
1
  6
Continuous
 62
     7
100
AcDbLine
 10
173.3145441870849
 20
225.833626606831
 30
0.0
 11
172.825655298196
 21
226.1158867384352
 31
0.0
  0
LINE
  5
365
330
85
100
AcDbEntity
  8
1
  6
Continuous
 62
     7
100
AcDbLine
 10
173.3145441870849
 20
227.5225154957199
 30
0.0
 11
172.825655298196
 21
227.8047756273238
 31
0.0
  0
LINE
  5
366
330
85
100
AcDbEntity
  8
1
  6
Continuous
 62
     7
100
AcDbLine
 10
172.825655298196
 20
227.2402553641163
 30
0.0
 11
173.3145441870849
 21
227.5225154957199
 31
0.0
  0
LINE
  5
367
330
85
100
AcDbEntity
  8
1
  6
Continuous
 62
     7
100
AcDbLine
 10
173.3145441870848
 20
229.2114043846088
 30
0.0
 11
172.825655298196
 21
229.4936645162128
 31
0.0
  0
LINE
  5
368
330
85
100
AcDbEntity
  8
1
  6
Continuous
 62
     7
100
AcDbLine
 10
172.825655298196
 20
228.9291442530051
 30
0.0
 11
173.3145441870848
 21
229.2114043846088
 31
0.0
  0
LINE
  5
369
330
85
100
AcDbEntity
  8
1
  6
Continuous
 62
     7
100
AcDbLine
 10
172.825655298196
 20
230.6180331418941
 30
0.0
 11
173.3145441870848
 21
230.9002932734978
 31
0.0
  0
LINE
  5
36A
330
85
100
AcDbEntity
  8
1
  6
Continuous
 62
     7
100
AcDbLine
 10
169.8034330759738
 20
231.4624775863384
 30
0.0
 11
169.8034330759737
 21
230.3381089606572
 31
0.0
  0
LINE
  5
36B
330
85
100
AcDbEntity
  8
1
  6
Continuous
 62
     7
100
AcDbLine
 10
169.8034330759738
 20
229.7735886974494
 30
0.0
 11
169.8034330759737
 21
228.6492200717683
 31
0.0
  0
LINE
  5
36C
330
85
100
AcDbEntity
  8
1
  6
Continuous
 62
     7
100
AcDbLine
 10
169.8034330759738
 20
228.0846998085607
 30
0.0
 11
169.8034330759738
 21
226.9603311828793
 31
0.0
  0
LINE
  5
36D
330
85
100
AcDbEntity
  8
1
  6
Continuous
 62
     7
100
AcDbLine
 10
169.8034330759737
 20
226.3958109196719
 30
0.0
 11
169.8034330759738
 21
225.2714422939905
 31
0.0
  0
LINE
  5
36E
330
85
100
AcDbEntity
  8
1
  6
Continuous
 62
     7
100
AcDbLine
 10
169.8034330759737
 20
224.706922030783
 30
0.0
 11
169.8034330759738
 21
223.5825534051016
 31
0.0
  0
LINE
  5
36F
330
85
100
AcDbEntity
  8
1
  6
Continuous
 62
     7
100
AcDbLine
 10
169.8034330759737
 20
223.0180331418941
 30
0.0
 11
169.8034330759738
 21
221.8936645162129
 31
0.0
  0
LINE
  5
370
330
85
100
AcDbEntity
  8
1
  6
Continuous
 62
     7
100
AcDbLine
 10
172.825655298196
 20
230.6180331418941
 30
0.0
 11
172.825655298196
 21
229.4936645162128
 31
0.0
  0
LINE
  5
371
330
85
100
AcDbEntity
  8
1
  6
Continuous
 62
     7
100
AcDbLine
 10
172.825655298196
 20
228.9291442530051
 30
0.0
 11
172.825655298196
 21
227.8047756273238
 31
0.0
  0
LINE
  5
372
330
85
100
AcDbEntity
  8
1
  6
Continuous
 62
     7
100
AcDbLine
 10
172.825655298196
 20
227.2402553641163
 30
0.0
 11
172.825655298196
 21
226.1158867384352
 31
0.0
  0
LINE
  5
373
330
85
100
AcDbEntity
  8
1
  6
Continuous
 62
     7
100
AcDbLine
 10
172.825655298196
 20
225.5513664752274
 30
0.0
 11
172.825655298196
 21
224.4269978495462
 31
0.0
  0
LINE
  5
374
330
85
100
AcDbEntity
  8
1
  6
Continuous
 62
     7
100
AcDbLine
 10
172.825655298196
 20
223.8624775863383
 30
0.0
 11
172.825655298196
 21
222.7381089606571
 31
0.0
  0
LINE
  5
375
330
85
100
AcDbEntity
  8
1
  6
Continuous
 62
     7
100
AcDbLine
 10
169.8034330759738
 20
231.4624775863384
 30
0.0
 11
171.314544187085
 21
231.8846998085606
 31
0.0
  0
LINE
  5
376
330
85
100
AcDbEntity
  8
1
  6
Continuous
 62
     7
100
AcDbLine
 10
169.8034330759737
 20
230.3381089606572
 30
0.0
 11
171.314544187085
 21
230.7603311828794
 31
0.0
  0
LINE
  5
377
330
85
100
AcDbEntity
  8
1
  6
Continuous
 62
     7
100
AcDbLine
 10
169.3145441870849
 20
230.0558488290533
 30
0.0
 11
173.3145441870848
 21
230.9002932734978
 31
0.0
  0
LINE
  5
378
330
85
100
AcDbEntity
  8
1
  6
Continuous
 62
     7
100
AcDbLine
 10
169.8034330759738
 20
229.7735886974494
 30
0.0
 11
172.825655298196
 21
230.6180331418941
 31
0.0
  0
LINE
  5
379
330
85
100
AcDbEntity
  8
1
  6
Continuous
 62
     7
100
AcDbLine
 10
169.8034330759737
 20
228.6492200717683
 30
0.0
 11
172.825655298196
 21
229.4936645162128
 31
0.0
  0
LINE
  5
37A
330
85
100
AcDbEntity
  8
1
  6
Continuous
 62
     7
100
AcDbLine
 10
169.3145441870849
 20
228.3669599401644
 30
0.0
 11
173.3145441870848
 21
229.2114043846088
 31
0.0
  0
LINE
  5
37B
330
85
100
AcDbEntity
  8
1
  6
Continuous
 62
     7
100
AcDbLine
 10
169.8034330759738
 20
228.0846998085607
 30
0.0
 11
172.825655298196
 21
228.9291442530051
 31
0.0
  0
LINE
  5
37C
330
85
100
AcDbEntity
  8
1
  6
Continuous
 62
     7
100
AcDbLine
 10
169.8034330759738
 20
226.9603311828793
 30
0.0
 11
172.825655298196
 21
227.8047756273238
 31
0.0
  0
LINE
  5
37D
330
85
100
AcDbEntity
  8
1
  6
Continuous
 62
     7
100
AcDbLine
 10
169.3145441870849
 20
226.6780710512757
 30
0.0
 11
173.3145441870849
 21
227.5225154957199
 31
0.0
  0
LINE
  5
37E
330
85
100
AcDbEntity
  8
1
  6
Continuous
 62
     7
100
AcDbLine
 10
169.8034330759737
 20
226.3958109196719
 30
0.0
 11
172.825655298196
 21
227.2402553641163
 31
0.0
  0
LINE
  5
37F
330
85
100
AcDbEntity
  8
1
  6
Continuous
 62
     7
100
AcDbLine
 10
169.8034330759738
 20
225.2714422939905
 30
0.0
 11
172.825655298196
 21
226.1158867384352
 31
0.0
  0
LINE
  5
380
330
85
100
AcDbEntity
  8
1
  6
Continuous
 62
     7
100
AcDbLine
 10
169.3145441870849
 20
224.9891821623867
 30
0.0
 11
173.3145441870849
 21
225.833626606831
 31
0.0
  0
LINE
  5
381
330
85
100
AcDbEntity
  8
1
  6
Continuous
 62
     7
100
AcDbLine
 10
169.8034330759737
 20
224.706922030783
 30
0.0
 11
172.825655298196
 21
225.5513664752274
 31
0.0
  0
LINE
  5
382
330
85
100
AcDbEntity
  8
1
  6
Continuous
 62
     7
100
AcDbLine
 10
169.8034330759738
 20
223.5825534051016
 30
0.0
 11
172.825655298196
 21
224.4269978495462
 31
0.0
  0
LINE
  5
383
330
85
100
AcDbEntity
  8
1
  6
Continuous
 62
     7
100
AcDbLine
 10
169.3145441870849
 20
223.3002932734979
 30
0.0
 11
173.3145441870849
 21
224.1447377179424
 31
0.0
  0
LINE
  5
384
330
85
100
AcDbEntity
  8
1
  6
Continuous
 62
     7
100
AcDbLine
 10
169.8034330759737
 20
223.0180331418941
 30
0.0
 11
172.825655298196
 21
223.8624775863383
 31
0.0
  0
LINE
  5
385
330
85
100
AcDbEntity
  8
1
  6
Continuous
 62
     7
100
AcDbLine
 10
169.471314617351
 20
221.6114043846088
 30
0.0
 11
169.8349256162209
 21
221.8213352926867
 31
0.0
  0
LINE
  5
386
330
85
100
AcDbEntity
  8
1
  6
Continuous
 62
     7
100
AcDbLine
 10
169.471314617351
 20
221.6114043846088
 30
0.0
 11
170.063501045712
 21
221.2695053907844
 31
0.0
  0
LINE
  5
387
330
85
100
AcDbEntity
  8
1
  6
Continuous
 62
     7
100
AcDbLine
 10
169.8349256162209
 20
221.8213352926867
 30
0.0
 11
169.8034330759738
 21
221.8936645162129
 31
0.0
  0
LINE
  5
388
330
85
100
AcDbEntity
  8
1
  6
Continuous
 62
     7
100
AcDbLine
 10
170.3972037567732
 20
219.9225154957202
 30
0.0
 11
170.5781660610061
 21
220.026994130782
 31
0.0
  0
LINE
  5
389
330
85
100
AcDbEntity
  8
1
  6
Continuous
 62
     7
100
AcDbLine
 10
170.3972037567732
 20
219.9225154957202
 30
0.0
 11
170.6919237210889
 21
219.752358844987
 31
0.0
  0
LINE
  5
38A
330
85
100
AcDbEntity
  8
1
  6
Continuous
 62
     7
100
AcDbLine
 10
172.6948291871076
 20
220.7669599401644
 30
0.0
 11
172.4225425355562
 21
220.9241647117345
 31
0.0
  0
LINE
  5
38B
330
85
100
AcDbEntity
  8
1
  6
Continuous
 62
     7
100
AcDbLine
 10
172.6948291871076
 20
220.7669599401644
 30
0.0
 11
172.2513759907691
 21
220.5109321178858
 31
0.0
  0
LINE
  5
38C
330
85
100
AcDbEntity
  8
1
  6
Continuous
 62
     7
100
AcDbLine
 10
171.7689400476853
 20
219.0780710512757
 30
0.0
 11
171.6793020907708
 21
219.1298235498298
 31
0.0
  0
LINE
  5
38D
330
85
100
AcDbEntity
  8
1
  6
Continuous
 62
     7
100
AcDbLine
 10
171.7689400476853
 20
219.0780710512757
 30
0.0
 11
171.6229533153923
 21
218.9937855720881
 31
0.0
  0
LINE
  5
38E
330
85
100
AcDbEntity
  8
1
  6
Continuous
 62
     7
100
AcDbLine
 10
171.314544187085
 20
218.2492200717684
 30
0.0
 11
171.6229533153923
 21
218.9937855720881
 31
0.0
  0
LINE
  5
38F
330
85
100
AcDbEntity
  8
1
  6
Continuous
 62
     7
100
AcDbLine
 10
171.6793020907708
 20
219.1298235498298
 30
0.0
 11
172.2513759907691
 21
220.5109321178858
 31
0.0
  0
LINE
  5
390
330
85
100
AcDbEntity
  8
1
  6
Continuous
 62
     7
100
AcDbLine
 10
172.4225425355562
 20
220.9241647117345
 30
0.0
 11
172.825655298196
 21
221.8973650104656
 31
0.0
  0
LINE
  5
391
330
85
100
AcDbEntity
  8
1
  6
Continuous
 62
     7
100
AcDbLine
 10
172.825655298196
 20
221.8973650104656
 30
0.0
 11
172.825655298196
 21
222.1735886974498
 31
0.0
  0
LINE
  5
392
330
85
100
AcDbEntity
  8
1
  6
Continuous
 62
     7
100
AcDbLine
 10
171.314544187085
 20
218.2492200717684
 30
0.0
 11
170.6919237210889
 21
219.752358844987
 31
0.0
  0
LINE
  5
393
330
85
100
AcDbEntity
  8
1
  6
Continuous
 62
     7
100
AcDbLine
 10
170.5781660610061
 20
220.026994130782
 30
0.0
 11
170.063501045712
 21
221.2695053907844
 31
0.0
  0
LINE
  5
394
330
85
100
AcDbEntity
  8
1
  6
Continuous
 62
     7
100
AcDbLine
 10
169.8349256162209
 20
221.8213352926867
 30
0.0
 11
172.825655298196
 21
222.7381089606571
 31
0.0
  0
LINE
  5
395
330
85
100
AcDbEntity
  8
1
  6
Continuous
 62
     7
100
AcDbLine
 10
169.471314617351
 20
221.6114043846088
 30
0.0
 11
173.3145441870849
 21
222.4558488290535
 31
0.0
  0
LINE
  5
396
330
85
100
AcDbEntity
  8
1
  6
Continuous
 62
     7
100
AcDbLine
 10
170.063501045712
 20
221.2695053907844
 30
0.0
 11
172.825655298196
 21
222.1735886974498
 31
0.0
  0
LINE
  5
397
330
85
100
AcDbEntity
  8
1
  6
Continuous
 62
     7
100
AcDbLine
 10
170.5781660610061
 20
220.026994130782
 30
0.0
 11
172.4225425355562
 21
220.9241647117345
 31
0.0
  0
LINE
  5
398
330
85
100
AcDbEntity
  8
1
  6
Continuous
 62
     7
100
AcDbLine
 10
170.3972037567732
 20
219.9225154957202
 30
0.0
 11
172.6948291871076
 21
220.7669599401644
 31
0.0
  0
LINE
  5
399
330
85
100
AcDbEntity
  8
1
  6
Continuous
 62
     7
100
AcDbLine
 10
170.6919237210889
 20
219.752358844987
 30
0.0
 11
172.2513759907691
 21
220.5109321178858
 31
0.0
  0
LINE
  5
39A
330
85
100
AcDbEntity
  8
1
  6
Continuous
 62
     7
100
AcDbLine
 10
171.314544187085
 20
218.9110673025374
 30
0.0
 11
171.7689400476853
 21
219.0780710512757
 31
0.0
  0
LINE
  5
39B
330
85
100
AcDbEntity
  8
1
  6
Continuous
 62
     7
100
AcDbLine
 10
171.6229533153923
 20
218.9937855720881
 30
0.0
 11
171.314544187085
 21
218.9110673025374
 31
0.0
  0
LINE
  5
39C
330
85
100
AcDbEntity
  8
1
  6
Continuous
 62
     7
100
AcDbLine
 10
171.6793020907708
 20
219.1298235498298
 30
0.0
 11
171.314544187085
 21
218.9110673025374
 31
0.0
  0
LINE
  5
39D
330
85
100
AcDbEntity
  8
1
  6
Continuous
 62
     7
100
AcDbLine
 10
169.3145441870849
 20
231.7447377179421
 30
0.0
 11
169.3145441870852
 21
231.9492200717683
 31
0.0
  0
LINE
  5
39E
330
85
100
AcDbEntity
  8
1
  6
Continuous
 62
     7
100
AcDbLine
 10
169.3145441870849
 20
231.7447377179421
 30
0.0
 11
170.283144810472
 21
231.9492200717683
 31
0.0
  0
LINE
  5
39F
330
85
100
AcDbEntity
  8
0
  6
Continuous
 62
     7
100
AcDbLine
 10
169.3145441870852
 20
231.9492200717683
 30
0.0
 11
171.314544187085
 21
231.9492200717684
 31
0.0
  0
LINE
  5
3A0
330
85
100
AcDbEntity
  8
1
  6
Continuous
 62
     7
100
AcDbLine
 10
169.114544187085
 20
232.1492200717684
 30
0.0
 11
169.3145441870852
 21
231.9492200717683
 31
0.0
  0
LINE
  5
3A1
330
85
100
AcDbEntity
  8
1
  6
Continuous
 62
     7
100
AcDbLine
 10
167.3145441870849
 20
234.0643144113911
 30
0.0
 11
167.314544187085
 21
234.2492200717684
 31
0.0
  0
ENDBLK
  5
87
330
85
100
AcDbEntity
  8
0
100
AcDbBlockEnd
  0
BLOCK
  5
3C1
330
3B9
100
AcDbEntity
  8
0
100
AcDbBlockBegin
  2
*D20
 70
     1
 10
0.0
 20
0.0
 30
0.0
  3
*D20
  1

  0
LINE
  5
3BA
330
3B9
100
AcDbEntity
  8
1
  6
Continuous
 62
     2
100
AcDbLine
 10
214.814544187085
 20
207.1492200717684
 30
0.0
 11
214.814544187085
 21
257.6492200717684
 31
0.0
  0
LINE
  5
3BB
330
3B9
100
AcDbEntity
  8
1
  6
Continuous
 62
     2
100
AcDbLine
 10
155.314544187085
 20
207.1492200717684
 30
0.0
 11
216.814544187085
 21
207.1492200717684
 31
0.0
  0
LINE
  5
3BC
330
3B9
100
AcDbEntity
  8
1
  6
Continuous
 62
     2
100
AcDbLine
 10
200.2770163709108
 20
257.6492200717684
 30
0.0
 11
216.814544187085
 21
257.6492200717684
 31
0.0
  0
LINE
  5
3BD
330
3B9
100
AcDbEntity
  8
1
  6
Continuous
 62
     2
100
AcDbLine
 10
181.721375131009
 20
257.6492200717684
 30
0.0
 11
187.5408094530117
 21
257.6492200717684
 31
0.0
  0
SOLID
  5
3BE
330
3B9
100
AcDbEntity
  8
1
 62
     2
100
AcDbTrace
 10
213.8929767039732
 20
214.1492200717684
 30
0.0
 11
215.7361116701968
 21
214.1492200717684
 31
0.0
 12
214.814544187085
 22
207.1492200717684
 32
0.0
 13
214.814544187085
 23
207.1492200717684
 33
0.0
  0
SOLID
  5
3BF
330
3B9
100
AcDbEntity
  8
1
 62
     2
100
AcDbTrace
 10
215.7361116701968
 20
250.6492200717684
 30
0.0
 11
213.8929767039732
 21
250.6492200717684
 31
0.0
 12
214.814544187085
 22
257.6492200717684
 32
0.0
 13
214.814544187085
 23
257.6492200717684
 33
0.0
  0
MTEXT
  5
3C0
330
3B9
100
AcDbEntity
  8
1
 62
     7
100
AcDbMText
 10
212.814544187085
 20
228.1992200717685
 30
0.0
 40
7.0
 41
0.0
 71
     7
 72
     1
  1
51
  7
CONVERTER_12
 11
0.0
 21
1.0
 31
0.0
 73
     1
 44
0.60024009603842
  0
ENDBLK
  5
3C2
330
3B9
100
AcDbEntity
  8
0
100
AcDbBlockEnd
  0
BLOCK
  5
3CD
330
3C5
100
AcDbEntity
  8
0
100
AcDbBlockBegin
  2
*D21
 70
     1
 10
0.0
 20
0.0
 30
0.0
  3
*D21
  1

  0
LINE
  5
3C6
330
3C5
100
AcDbEntity
  8
1
  6
Continuous
 62
     2
100
AcDbLine
 10
198.814544187085
 20
241.6492200717684
 30
0.0
 11
198.814544187085
 21
273.6492200717684
 31
0.0
  0
LINE
  5
3C7
330
3C5
100
AcDbEntity
  8
1
  6
Continuous
 62
     2
100
AcDbLine
 10
198.814544187085
 20
273.6492200717684
 30
0.0
 11
198.814544187085
 21
310.432609571451
 31
0.0
  0
LINE
  5
3C8
330
3C5
100
AcDbEntity
  8
1
  6
Continuous
 62
     2
100
AcDbLine
 10
178.814544187085
 20
241.6492200717684
 30
0.0
 11
200.814544187085
 21
241.6492200717684
 31
0.0
  0
LINE
  5
3C9
330
3C5
100
AcDbEntity
  8
1
  6
Continuous
 62
     2
100
AcDbLine
 10
178.814544187085
 20
273.6492200717684
 30
0.0
 11
200.814544187085
 21
273.6492200717684
 31
0.0
  0
SOLID
  5
3CA
330
3C5
100
AcDbEntity
  8
1
 62
     2
100
AcDbTrace
 10
197.8929767039732
 20
248.6492200717684
 30
0.0
 11
199.7361116701968
 21
248.6492200717684
 31
0.0
 12
198.814544187085
 22
241.6492200717684
 32
0.0
 13
198.814544187085
 23
241.6492200717684
 33
0.0
  0
SOLID
  5
3CB
330
3C5
100
AcDbEntity
  8
1
 62
     2
100
AcDbTrace
 10
199.7361116701968
 20
266.6492200717684
 30
0.0
 11
197.8929767039732
 21
266.6492200717684
 31
0.0
 12
198.814544187085
 22
273.6492200717684
 32
0.0
 13
198.814544187085
 23
273.6492200717684
 33
0.0
  0
MTEXT
  5
3CC
330
3C5
100
AcDbEntity
  8
1
 62
     7
100
AcDbMText
 10
196.814544187085
 20
282.712609571451
 30
0.0
 40
7.0
 41
0.0
 71
     7
 72
     1
  1
\C7;内径{\Fgdt;n}\C7;32
  7
CONVERTER_11
 11
0.0
 21
1.0
 31
0.0
 73
     1
 44
0.45454545454545
  0
ENDBLK
  5
3CE
330
3C5
100
AcDbEntity
  8
0
100
AcDbBlockEnd
  0
BLOCK
  5
3D8
330
3D1
100
AcDbEntity
  8
0
100
AcDbBlockBegin
  2
*D22
 70
     1
 10
0.0
 20
0.0
 30
0.0
  3
*D22
  1

  0
LINE
  5
3D2
330
3D1
100
AcDbEntity
  8
1
  6
Continuous
 62
     2
100
AcDbLine
 10
78.814544187085
 20
171.1492200717685
 30
0.0
 11
178.8145441870851
 21
171.1492200717685
 31
0.0
  0
LINE
  5
3D3
330
3D1
100
AcDbEntity
  8
1
  6
Continuous
 62
     2
100
AcDbLine
 10
178.8145441870851
 20
232.1492200717684
 30
0.0
 11
178.8145441870851
 21
169.1492200717685
 31
0.0
  0
LINE
  5
3D4
330
3D1
100
AcDbEntity
  8
1
  6
Continuous
 62
     2
100
AcDbLine
 10
78.814544187085
 20
232.1492200717684
 30
0.0
 11
78.814544187085
 21
169.1492200717685
 31
0.0
  0
SOLID
  5
3D5
330
3D1
100
AcDbEntity
  8
1
 62
     2
100
AcDbTrace
 10
85.814544187085
 20
172.0707875548803
 30
0.0
 11
85.814544187085
 21
170.2276525886567
 31
0.0
 12
78.814544187085
 22
171.1492200717685
 32
0.0
 13
78.814544187085
 23
171.1492200717685
 33
0.0
  0
SOLID
  5
3D6
330
3D1
100
AcDbEntity
  8
1
 62
     2
100
AcDbTrace
 10
171.8145441870851
 20
170.2276525886567
 30
0.0
 11
171.8145441870851
 21
172.0707875548803
 31
0.0
 12
178.8145441870851
 22
171.1492200717685
 32
0.0
 13
178.8145441870851
 23
171.1492200717685
 33
0.0
  0
MTEXT
  5
3D7
330
3D1
100
AcDbEntity
  8
1
 62
     7
100
AcDbMText
 10
119.9245441871019
 20
173.1492061576159
 30
0.0
 40
7.0
 41
0.0
 71
     7
 72
     1
  1
\C7;{\Fgdt;n}\C7;100
  7
CONVERTER_12
 11
0.9999999999970619
 21
2.424068405545306E-6
 31
0.0
 73
     1
 44
0.60024009603842
  0
ENDBLK
  5
3D9
330
3D1
100
AcDbEntity
  8
0
100
AcDbBlockEnd
  0
BLOCK
  5
3E3
330
3DC
100
AcDbEntity
  8
0
100
AcDbBlockBegin
  2
*D23
 70
     1
 10
0.0
 20
0.0
 30
0.0
  3
*D23
  1

  0
LINE
  5
3DD
330
3DC
100
AcDbEntity
  8
0
  6
Continuous
 62
     2
100
AcDbLine
 10
238.814544187085
 20
207.1492200717684
 30
0.0
 11
238.814544187085
 21
232.1492200717684
 31
0.0
  0
LINE
  5
3DE
330
3DC
100
AcDbEntity
  8
0
  6
Continuous
 62
     2
100
AcDbLine
 10
258.814544187085
 20
232.1492200717684
 30
0.0
 11
236.814544187085
 21
232.1492200717684
 31
0.0
  0
LINE
  5
3DF
330
3DC
100
AcDbEntity
  8
0
  6
Continuous
 62
     2
100
AcDbLine
 10
282.314544187085
 20
207.1492200717684
 30
0.0
 11
236.814544187085
 21
207.1492200717684
 31
0.0
  0
SOLID
  5
3E0
330
3DC
100
AcDbEntity
  8
0
 62
     2
100
AcDbTrace
 10
237.8929767039732
 20
214.1492200717684
 30
0.0
 11
239.7361116701968
 21
214.1492200717684
 31
0.0
 12
238.814544187085
 22
207.1492200717684
 32
0.0
 13
238.814544187085
 23
207.1492200717684
 33
0.0
  0
SOLID
  5
3E1
330
3DC
100
AcDbEntity
  8
0
 62
     2
100
AcDbTrace
 10
239.7361116701968
 20
225.1492200717684
 30
0.0
 11
237.8929767039732
 21
225.1492200717684
 31
0.0
 12
238.814544187085
 22
232.1492200717684
 32
0.0
 13
238.814544187085
 23
232.1492200717684
 33
0.0
  0
MTEXT
  5
3E2
330
3DC
100
AcDbEntity
  8
0
 62
     7
100
AcDbMText
 10
236.814544187085
 20
214.5242200717684
 30
0.0
 40
7.0
 41
0.0
 71
     7
 72
     1
  1
25
  7
CONVERTER_12
 11
0.0
 21
1.0
 31
0.0
 73
     1
 44
0.60024009603842
  0
ENDBLK
  5
3E4
330
3DC
100
AcDbEntity
  8
0
100
AcDbBlockEnd
  0
BLOCK
  5
3EE
330
3E7
100
AcDbEntity
  8
0
100
AcDbBlockBegin
  2
*D24
 70
     1
 10
0.0
 20
0.0
 30
0.0
  3
*D24
  1

  0
LINE
  5
3E8
330
3E7
100
AcDbEntity
  8
1
  6
Continuous
 62
     2
100
AcDbLine
 10
128.814544187085
 20
311.3992200717684
 30
0.0
 11
178.814544187085
 21
311.3992200717684
 31
0.0
  0
LINE
  5
3E9
330
3E7
100
AcDbEntity
  8
1
  6
Continuous
 62
     2
100
AcDbLine
 10
178.814544187085
 20
276.6492200717684
 30
0.0
 11
178.814544187085
 21
313.3992200717684
 31
0.0
  0
LINE
  5
3EA
330
3E7
100
AcDbEntity
  8
1
  6
Continuous
 62
     2
100
AcDbLine
 10
128.814544187085
 20
288.8133142111179
 30
0.0
 11
128.814544187085
 21
313.3992200717684
 31
0.0
  0
SOLID
  5
3EB
330
3E7
100
AcDbEntity
  8
1
 62
     2
100
AcDbTrace
 10
135.814544187085
 20
312.3207875548802
 30
0.0
 11
135.814544187085
 21
310.4776525886567
 31
0.0
 12
128.814544187085
 22
311.3992200717684
 32
0.0
 13
128.814544187085
 23
311.3992200717684
 33
0.0
  0
SOLID
  5
3EC
330
3E7
100
AcDbEntity
  8
1
 62
     2
100
AcDbTrace
 10
171.814544187085
 20
310.4776525886567
 30
0.0
 11
171.814544187085
 21
312.3207875548802
 31
0.0
 12
178.814544187085
 22
311.3992200717684
 32
0.0
 13
178.814544187085
 23
311.3992200717684
 33
0.0
  0
MTEXT
  5
3ED
330
3E7
100
AcDbEntity
  8
1
 62
     7
100
AcDbMText
 10
149.064544187085
 20
313.3992200717684
 30
0.0
 40
7.0
 41
0.0
 71
     7
 72
     1
  1
50
  7
CONVERTER_12
 11
0.9999999999970619
 21
2.424068405545306E-6
 31
0.0
 73
     1
 44
0.60024009603842
  0
ENDBLK
  5
3EF
330
3E7
100
AcDbEntity
  8
0
100
AcDbBlockEnd
  0
BLOCK
  5
3FA
330
3F2
100
AcDbEntity
  8
0
100
AcDbBlockBegin
  2
*D25
 70
     1
 10
0.0
 20
0.0
 30
0.0
  3
*D25
  1

  0
LINE
  5
3F3
330
3F2
100
AcDbEntity
  8
1
  6
Continuous
 62
     2
100
AcDbLine
 10
156.814544187085
 20
187.1492200717682
 30
0.0
 11
268.387682916412
 21
187.1492200717682
 31
0.0
  0
LINE
  5
3F4
330
3F2
100
AcDbEntity
  8
1
  6
Continuous
 62
     2
100
AcDbLine
 10
100.814544187085
 20
187.1492200717682
 30
0.0
 11
156.814544187085
 21
187.1492200717682
 31
0.0
  0
LINE
  5
3F5
330
3F2
100
AcDbEntity
  8
1
  6
Continuous
 62
     2
100
AcDbLine
 10
156.814544187085
 20
231.1492200717684
 30
0.0
 11
156.814544187085
 21
185.1492200717682
 31
0.0
  0
LINE
  5
3F6
330
3F2
100
AcDbEntity
  8
1
  6
Continuous
 62
     2
100
AcDbLine
 10
100.814544187085
 20
231.1492200717684
 30
0.0
 11
100.814544187085
 21
185.1492200717682
 31
0.0
  0
SOLID
  5
3F7
330
3F2
100
AcDbEntity
  8
1
 62
     2
100
AcDbTrace
 10
107.814544187085
 20
188.07078755488
 30
0.0
 11
107.814544187085
 21
186.2276525886564
 31
0.0
 12
100.814544187085
 22
187.1492200717682
 32
0.0
 13
100.814544187085
 23
187.1492200717682
 33
0.0
  0
SOLID
  5
3F8
330
3F2
100
AcDbEntity
  8
1
 62
     2
100
AcDbTrace
 10
149.814544187085
 20
186.2276525886564
 30
0.0
 11
149.814544187085
 21
188.07078755488
 31
0.0
 12
156.814544187085
 22
187.1492200717682
 32
0.0
 13
156.814544187085
 23
187.1492200717682
 33
0.0
  0
MTEXT
  5
3F9
330
3F2
100
AcDbEntity
  8
1
 62
     7
100
AcDbMText
 10
184.562682916412
 20
189.1492200717682
 30
0.0
 40
7.0
 41
0.0
 71
     7
 72
     1
  1
{\Fgdt;n}51(VP)・{\Fgdt;n}56(VU)
  7
CONVERTER_11
 11
0.9999999999970619
 21
2.424068405545306E-6
 31
0.0
 73
     1
 44
0.45454545454545
  0
ENDBLK
  5
3FB
330
3F2
100
AcDbEntity
  8
0
100
AcDbBlockEnd
  0
ENDSEC
  0
SECTION
  2
ENTITIES
  0
INSERT
  5
88
330
1F
100
AcDbEntity
  8
1
100
AcDbBlockReference
  2
開示A4
 10
0.0
 20
0.0
 30
0.0
 41
2.0
 42
2.0
 43
2.0
  0
INSERT
  5
89
330
1F
100
AcDbEntity
  8
0
100
AcDbBlockReference
  2
D21-30
 10
156.3156569659265
 20
235.6492200717684
 30
0.0
  0
INSERT
  5
8A
330
1F
100
AcDbEntity
  8
0
100
AcDbBlockReference
  2
_3
 10
100.564544187085
 20
171.1492200717682
 30
0.0
  0
INSERT
  5
8B
330
1F
100
AcDbEntity
  8
0
100
AcDbBlockReference
  2
lock
 10
105.314544187085
 20
232.1492200717684
 30
0.0
  0
INSERT
  5
8C
330
1F
100
AcDbEntity
  8
1
100
AcDbBlockReference
  2
tsuba
 10
278.814544187085
 20
240.8643677535462
 30
0.0
  0
INSERT
  5
8D
330
1F
100
AcDbEntity
  8
0
100
AcDbBlockReference
  2
screw__4
 10
239.2285086901506
 20
361.5936801335839
 30
0.0
  0
INSERT
  5
8E
330
1F
100
AcDbEntity
  8
1
100
AcDbBlockReference
  2
elbo
 10
100.8316967864045
 20
194.6142249325267
 30
0.0
  0
INSERT
  5
8F
330
1F
100
AcDbEntity
  8
1
100
AcDbBlockReference
  2
5
 10
158.564544187085
 20
387.3492200717683
 30
0.0
  0
INSERT
  5
90
330
1F
100
AcDbEntity
  8
0
100
AcDbBlockReference
  2
screw__8
 10
324.2285086901505
 20
361.5936801335839
 30
0.0
  0
INSERT
  5
91
330
1F
100
AcDbEntity
  8
0
100
AcDbBlockReference
  2
screw__9
 10
39.22850869015056
 20
361.5936801335839
 30
0.0
  0
INSERT
  5
92
330
1F
100
AcDbEntity
  8
0
100
AcDbBlockReference
  2
screw__10
 10
124.2285086901506
 20
361.5936801335839
 30
0.0
  0
LINE
  5
3A2
330
1F
100
AcDbEntity
  8
1
  6
DASH_CENTER
 62
     2
100
AcDbLine
 10
169.814544187085
 20
234.1492200717684
 30
0.0
 11
169.814544187085
 21
297.3992200717684
 31
0.0
  0
LINE
  5
3A3
330
1F
100
AcDbEntity
  8
1
  6
DASH_CENTER
 62
     2
100
AcDbLine
 10
343.064544187085
 20
270.8992200717684
 30
0.0
 11
343.064544187085
 21
297.3992200717686
 31
0.0
  0
LINE
  5
3A4
330
1F
100
AcDbEntity
  8
1
  6
DASH_CENTER
 62
     2
100
AcDbLine
 10
356.314544187085
 20
284.1492200717684
 30
0.0
 11
290.314544187085
 21
284.1492200717684
 31
0.0
  0
LINE
  5
3A5
330
1F
100
AcDbEntity
  8
1
  6
DASH_CENTER
 62
     2
100
AcDbLine
 10
128.814544187085
 20
288.8133142111179
 30
0.0
 11
128.814544187085
 21
201.1492200717684
 31
0.0
  0
LINE
  5
3A6
330
1F
100
AcDbEntity
  8
1
  6
DASH_CENTER
 62
     2
100
AcDbLine
 10
106.814544187085
 20
257.6492200717684
 30
0.0
 11
181.721375131009
 21
257.6492200717684
 31
0.0
  0
LINE
  5
3A7
330
1F
100
AcDbEntity
  8
1
  6
DASH_CENTER
 62
     2
100
AcDbLine
 10
308.814544187085
 20
290.1958779070396
 30
0.0
 11
308.814544187085
 21
259.727983467734
 31
0.0
  0
LINE
  5
3A8
330
1F
100
AcDbEntity
  8
1
  6
DASH_CENTER
 62
     2
100
AcDbLine
 10
281.8342665177032
 20
257.6492200717684
 30
0.0
 11
306.370448093079
 21
257.6492200717684
 31
0.0
  0
LINE
  5
3A9
330
1F
100
AcDbEntity
  8
1
  6
DASH_CENTER
 62
     2
100
AcDbLine
 10
306.370448093079
 20
257.6492200717684
 30
0.0
 11
335.79847717114
 21
257.6492200717684
 31
0.0
  0
LINE
  5
3AA
330
1F
100
AcDbEntity
  8
1
  6
DASH_CENTER
 62
     2
100
AcDbLine
 10
308.814544187085
 20
259.727983467734
 30
0.0
 11
308.814544187085
 21
201.1492200717685
 31
0.0
  0
LINE
  5
3AB
330
1F
100
AcDbEntity
  8
1
  6
DASH_CENTER
 62
     2
100
AcDbLine
 10
128.814544187085
 20
463.1305925060741
 30
0.0
 11
128.814544187085
 21
351.1681624781643
 31
0.0
  0
LINE
  5
3AC
330
1F
100
AcDbEntity
  8
1
  6
DASH_CENTER
 62
     2
100
AcDbLine
 10
72.81454418708495
 20
407.1492200717684
 30
0.0
 11
184.814544187085
 21
407.1492200717684
 31
0.0
  0
SOLID
  5
3AD
330
1F
100
AcDbEntity
  8
0
 62
     2
100
AcDbTrace
 10
332.3002139698335
 20
275.5478259868333
 30
0.0
 11
330.7040122664806
 21
274.6262585037215
 31
0.0
 12
328.002113118157
 22
281.1492200717684
 32
0.0
 13
328.002113118157
 23
281.1492200717684
 33
0.0
  0
LEADER
  5
3AE
330
1F
100
AcDbEntity
  8
0
  6
Continuous
 62
     2
100
AcDbLeader
  3
Standard
 71
     0
 76
     3
 10
328.002113118157
 20
281.1492200717684
 30
0.0
 10
341.5698444441132
 20
257.6492200717684
 30
0.0
 10
365.6475820514161
 20
257.6492200717684
 30
0.0
  0
SOLID
  5
3AF
330
1F
100
AcDbEntity
  8
0
 62
     2
100
AcDbTrace
 10
357.6126450387615
 20
216.8544547441183
 30
0.0
 11
356.0164433354085
 21
215.9328872610065
 31
0.0
 12
353.314544187085
 22
222.4558488290535
 32
0.0
 13
353.314544187085
 23
222.4558488290535
 33
0.0
  0
LEADER
  5
3B0
330
1F
100
AcDbEntity
  8
0
  6
Continuous
 62
     2
100
AcDbLeader
  3
Standard
 71
     0
 76
     3
 10
353.314544187085
 20
222.4558488290535
 30
0.0
 10
362.2814046857583
 20
206.9247908609688
 30
0.0
 10
386.3591422930612
 20
206.9247908609688
 30
0.0
  0
MTEXT
  5
3B2
330
1F
100
AcDbEntity
  8
0
 62
     7
100
AcDbMText
 10
187.5
 20
34.0
 30
0.0
 40
7.0
 41
0.0
 71
     5
 72
     1
  1
2
  7
CONVERTER_12
 73
     1
 44
1.32052821128451
  0
MTEXT
  5
3B3
330
1F
100
AcDbEntity
  8
0
 62
     7
100
AcDbMText
 10
170.5
 20
34.0
 30
0.0
 40
7.0
 41
0.0
 71
     5
 72
     1
  1
1
  7
CONVERTER_12
 73
     1
 44
1.32052821128451
  0
MTEXT
  5
3B4
330
1F
100
AcDbEntity
  8
0
 62
     7
100
AcDbMText
 10
114.0
 20
28.5
 30
0.0
 40
7.0
 41
0.0
 71
     5
 72
     1
  1
H552-50
  7
CONVERTER_12
 73
     1
 44
1.32052821128451
  0
MTEXT
  5
3B5
330
1F
100
AcDbEntity
  8
0
 62
     7
100
AcDbMText
 10
114.0
 20
45.50000000000002
 30
0.0
 40
7.0
 41
0.0
 71
     5
 72
     1
  1
ツバ広洗濯機排水口
  7
CONVERTER_11
 73
     1
 44
1.0
  0
MTEXT
  5
3B6
330
1F
100
AcDbEntity
  8
0
 62
     7
100
AcDbMText
 10
353.8323106232237
 20
263.6492200717684
 30
0.0
 40
7.0
 41
0.0
 71
     5
 72
     1
  1
M6X1
  7
CONVERTER_12
 73
     1
 44
1.32052821128451
  0
MTEXT
  5
3B7
330
1F
100
AcDbEntity
  8
0
 62
     7
100
AcDbMText
 10
375.0438708648688
 20
212.9247908609688
 30
0.0
 40
7.0
 41
0.0
 71
     5
 72
     1
  1
4X16
  7
CONVERTER_12
 73
     1
 44
1.32052821128451
  0
MTEXT
  5
3B8
330
1F
100
AcDbEntity
  8
1
 62
     7
100
AcDbMText
 10
68.0
 20
68.00000000000001
 30
0.0
 40
7.0
 41
0.0
 71
     4
 72
     1
  1
VP・VUパイプ兼用
  7
CONVERTER_11
 73
     1
 44
0.54545454545455
  0
DIMENSION
  5
3C4
330
1F
100
AcDbEntity
  8
1
100
AcDbDimension
  2
*D20
 10
214.814544187085
 20
207.1492200717684
 30
0.0
 11
209.314544187085
 21
232.3992200717685
 31
0.0
 70
    32
  1
51
 71
     5
 42
-1.0
 53
90.0
  3
ME10_DIM_10
100
AcDbAlignedDimension
 13
181.721375131009
 23
257.6492200717684
 33
0.0
 14
155.314544187085
 24
207.1492200717684
 34
0.0
 50
90.0
100
AcDbRotatedDimension
  0
DIMENSION
  5
3D0
330
1F
100
AcDbEntity
  8
1
100
AcDbDimension
  2
*D21
 10
198.814544187085
 20
241.6492200717684
 30
0.0
 11
193.314544187085
 21
293.982609571451
 31
0.0
 70
    33
  1
<>
 71
     5
 42
-1.0
 53
90.0
  3
ME10_DIM_11
100
AcDbAlignedDimension
 13
178.814544187085
 23
273.6492200717684
 33
0.0
 14
178.814544187085
 24
241.6492200717684
 34
0.0
  0
DIMENSION
  5
3DB
330
1F
100
AcDbEntity
  8
1
100
AcDbDimension
  2
*D22
 10
78.814544187085
 20
171.1492200717685
 30
0.0
 11
128.814544187085
 21
176.6492200717685
 31
0.0
 70
    32
  1
<>
 71
     5
 42
-1.0
 53
0.00013888888889
  3
ME10_DIM_12
100
AcDbAlignedDimension
 13
178.814544187085
 23
232.1492200717684
 33
0.0
 14
78.81454418708495
 24
232.1492200717684
 34
0.0
100
AcDbRotatedDimension
  0
DIMENSION
  5
3E6
330
1F
100
AcDbEntity
  8
0
100
AcDbDimension
  2
*D23
 10
238.814544187085
 20
207.1492200717684
 30
0.0
 11
233.314544187085
 21
219.7742200717684
 31
0.0
 70
    32
  1
<>
 71
     5
 42
-1.0
 53
90.0
  3
ME10_DIM_13
100
AcDbAlignedDimension
 13
258.814544187085
 23
232.1492200717684
 33
0.0
 14
282.314544187085
 24
207.1492200717684
 34
0.0
 50
90.0
100
AcDbRotatedDimension
  0
DIMENSION
  5
3F1
330
1F
100
AcDbEntity
  8
1
100
AcDbDimension
  2
*D24
 10
128.814544187085
 20
311.3992200717684
 30
0.0
 11
154.314544187085
 21
316.8992200717684
 31
0.0
 70
    32
  1
<>
 71
     5
 42
-1.0
 53
0.00013888888889
  3
ME10_DIM_14
100
AcDbAlignedDimension
 13
178.814544187085
 23
276.6492200717684
 33
0.0
 14
128.814544187085
 24
288.8133142111179
 34
0.0
100
AcDbRotatedDimension
  0
DIMENSION
  5
3FD
330
1F
100
AcDbEntity
  8
1
100
AcDbDimension
  2
*D25
 10
100.814544187085
 20
187.1492200717682
 30
0.0
 11
226.475182916412
 21
192.6492200717682
 31
0.0
 70
    32
  1
51(VP)・56(VU)
 71
     5
 42
-1.0
 53
0.00013888888889
  3
ME10_DIM_15
100
AcDbAlignedDimension
 13
156.814544187085
 23
231.1492200717684
 33
0.0
 14
100.814544187085
 24
231.1492200717684
 34
0.0
100
AcDbRotatedDimension
  0
ENDSEC
  0
SECTION
  2
OBJECTS
  0
DICTIONARY
  5
C
330
0
100
AcDbDictionary
281
     1
  3
ACAD_GROUP
350
D
  3
ACAD_LAYOUT
350
1A
  3
ACAD_MATERIAL
350
3B
  3
ACAD_MLEADERSTYLE
350
400
  3
ACAD_MLINESTYLE
350
17
  3
ACAD_PLOTSETTINGS
350
19
  3
ACAD_PLOTSTYLENAME
350
E
  3
ACAD_VISUALSTYLE
350
2A
  3
AcDbVariableDictionary
350
3FE
  0
DICTIONARY
  5
D
102
{ACAD_REACTORS
330
C
102
}
330
C
100
AcDbDictionary
281
     1
  0
DICTIONARY
  5
1A
102
{ACAD_REACTORS
330
C
102
}
330
C
100
AcDbDictionary
281
     1
  3
Layout1
350
1E
  3
Layout2
350
26
  3
Model
350
22
  0
DICTIONARY
  5
3B
102
{ACAD_REACTORS
330
C
102
}
330
C
100
AcDbDictionary
281
     1
  3
ByBlock
350
3D
  3
ByLayer
350
3C
  3
Global
350
3E
  0
DICTIONARY
  5
400
102
{ACAD_REACTORS
330
C
102
}
330
C
100
AcDbDictionary
281
     1
  0
DICTIONARY
  5
17
102
{ACAD_REACTORS
330
C
102
}
330
C
100
AcDbDictionary
281
     1
  3
Standard
350
18
  0
DICTIONARY
  5
19
102
{ACAD_REACTORS
330
C
102
}
330
C
100
AcDbDictionary
281
     1
  0
ACDBDICTIONARYWDFLT
  5
E
102
{ACAD_REACTORS
330
C
102
}
330
C
100
AcDbDictionary
281
     1
  3
Normal
350
F
100
AcDbDictionaryWithDefault
340
F
  0
DICTIONARY
  5
2A
102
{ACAD_REACTORS
330
C
102
}
330
C
100
AcDbDictionary
281
     1
  3
2dWireframe
350
2F
  3
3D Hidden
350
31
  3
3dWireframe
350
30
  3
Basic
350
32
  3
Brighten
350
36
  3
ColorChange
350
3A
  3
Conceptual
350
34
  3
Dim
350
35
  3
Facepattern
350
39
  3
Flat
350
2B
  3
FlatWithEdges
350
2C
  3
Gouraud
350
2D
  3
GouraudWithEdges
350
2E
  3
Linepattern
350
38
  3
Realistic
350
33
  3
Thicken
350
37
  0
DICTIONARY
  5
3FE
102
{ACAD_REACTORS
330
C
102
}
330
C
100
AcDbDictionary
281
     1
  3
DIMASSOC
350
401
  3
HIDETEXT
350
402
  0
LAYOUT
  5
1E
102
{ACAD_REACTORS
330
1A
102
}
330
1A
100
AcDbPlotSettings
  1

  2
none_device
  4

  6

 40
0.0
 41
0.0
 42
0.0
 43
0.0
 44
0.0
 45
0.0
 46
0.0
 47
0.0
 48
0.0
 49
0.0
140
0.0
141
0.0
142
1.0
143
1.0
 70
   688
 72
     0
 73
     0
 74
     5
  7

 75
    16
147
1.0
148
0.0
149
0.0
100
AcDbLayout
  1
Layout1
 70
     1
 71
     1
 10
0.0
 20
0.0
 11
12.0
 21
9.0
 12
0.0
 22
0.0
 32
0.0
 14
1.00000000000000E+20
 24
1.00000000000000E+20
 34
1.00000000000000E+20
 15
-1.00000000000000E+20
 25
-1.00000000000000E+20
 35
-1.00000000000000E+20
146
0.0
 13
0.0
 23
0.0
 33
0.0
 16
1.0
 26
0.0
 36
0.0
 17
0.0
 27
1.0
 37
0.0
 76
     0
330
1B
  0
LAYOUT
  5
26
102
{ACAD_REACTORS
330
1A
102
}
330
1A
100
AcDbPlotSettings
  1

  2
none_device
  4

  6

 40
0.0
 41
0.0
 42
0.0
 43
0.0
 44
0.0
 45
0.0
 46
0.0
 47
0.0
 48
0.0
 49
0.0
140
0.0
141
0.0
142
1.0
143
1.0
 70
   688
 72
     0
 73
     0
 74
     5
  7

 75
    16
147
1.0
148
0.0
149
0.0
100
AcDbLayout
  1
Layout2
 70
     1
 71
     2
 10
0.0
 20
0.0
 11
0.0
 21
0.0
 12
0.0
 22
0.0
 32
0.0
 14
0.0
 24
0.0
 34
0.0
 15
0.0
 25
0.0
 35
0.0
146
0.0
 13
0.0
 23
0.0
 33
0.0
 16
1.0
 26
0.0
 36
0.0
 17
0.0
 27
1.0
 37
0.0
 76
     0
330
23
  0
LAYOUT
  5
22
102
{ACAD_REACTORS
330
1A
102
}
330
1A
100
AcDbPlotSettings
  1

  2
none_device
  4

  6

 40
0.0
 41
0.0
 42
0.0
 43
0.0
 44
0.0
 45
0.0
 46
0.0
 47
0.0
 48
0.0
 49
0.0
140
0.0
141
0.0
142
1.0
143
1.0
 70
  1712
 72
     0
 73
     0
 74
     0
  7

 75
     0
147
1.0
148
0.0
149
0.0
100
AcDbLayout
  1
Model
 70
     1
 71
     0
 10
0.0
 20
0.0
 11
12.0
 21
9.0
 12
0.0
 22
0.0
 32
0.0
 14
0.0
 24
0.0
 34
0.0
 15
420.0
 25
594.0
 35
0.0
146
0.0
 13
0.0
 23
0.0
 33
0.0
 16
1.0
 26
0.0
 36
0.0
 17
0.0
 27
1.0
 37
0.0
 76
     0
330
1F
331
29
  0
MATERIAL
  5
3D
102
{ACAD_REACTORS
330
3B
102
}
102
{ACAD_XDICTIONARY
360
425
102
}
330
3B
100
AcDbMaterial
  1
ByBlock
  0
MATERIAL
  5
3C
102
{ACAD_REACTORS
330
3B
102
}
102
{ACAD_XDICTIONARY
360
423
102
}
330
3B
100
AcDbMaterial
  1
ByLayer
  0
MATERIAL
  5
3E
102
{ACAD_REACTORS
330
3B
102
}
102
{ACAD_XDICTIONARY
360
427
102
}
330
3B
100
AcDbMaterial
  1
Global
  0
MLINESTYLE
  5
18
102
{ACAD_REACTORS
330
17
102
}
330
17
100
AcDbMlineStyle
  2
Standard
 70
     0
  3

 62
   256
 51
90.0
 52
90.0
 71
     2
 49
0.5
 62
   256
  6
BYLAYER
 49
-0.5
 62
   256
  6
BYLAYER
  0
ACDBPLACEHOLDER
  5
F
102
{ACAD_REACTORS
330
E
102
}
330
E
  0
VISUALSTYLE
  5
2F
102
{ACAD_REACTORS
330
2A
102
}
102
{ACAD_XDICTIONARY
360
40B
102
}
330
2A
100
AcDbVisualStyle
  2
2dWireframe
 70
     4
 71
     0
 72
     2
 73
     0
 90
        0
 40
-0.6
 41
-30.0
 62
     5
 63
     7
 74
     1
 91
        4
 64
     7
 65
   257
 75
     1
175
     1
 42
1.0
 92
        0
 66
   257
 43
1.0
 76
     1
 77
     6
 78
     2
 67
     7
 79
     5
170
     0
171
     0
290
     0
174
     0
 93
        1
 44
0.0
173
     0
291
     0
 45
0.0
1001
ACAD
1000
AcDbSavedByObjectVersion
1070
     0
  0
VISUALSTYLE
  5
31
102
{ACAD_REACTORS
330
2A
102
}
102
{ACAD_XDICTIONARY
360
40F
102
}
330
2A
100
AcDbVisualStyle
  2
3D Hidden
 70
     6
 71
     1
 72
     2
 73
     2
 90
        0
 40
-0.6
 41
-30.0
 62
     5
 63
     7
 74
     2
 91
        2
 64
     7
 65
   257
 75
     2
175
     1
 42
40.0
 92
        0
 66
   257
 43
1.0
 76
     1
 77
     6
 78
     2
 67
     7
 79
     3
170
     0
171
     0
290
     0
174
     0
 93
        1
 44
0.0
173
     0
291
     0
 45
0.0
1001
ACAD
1000
AcDbSavedByObjectVersion
1070
     0
  0
VISUALSTYLE
  5
30
102
{ACAD_REACTORS
330
2A
102
}
102
{ACAD_XDICTIONARY
360
40D
102
}
330
2A
100
AcDbVisualStyle
  2
3dWireframe
 70
     5
 71
     0
 72
     2
 73
     0
 90
        0
 40
-0.6
 41
-30.0
 62
     5
 63
     7
 74
     1
 91
        4
 64
     7
 65
   257
 75
     1
175
     1
 42
1.0
 92
        0
 66
   257
 43
1.0
 76
     1
 77
     6
 78
     2
 67
     7
 79
     5
170
     0
171
     0
290
     0
174
     0
 93
        1
 44
0.0
173
     0
291
     0
 45
0.0
1001
ACAD
1000
AcDbSavedByObjectVersion
1070
     0
  0
VISUALSTYLE
  5
32
102
{ACAD_REACTORS
330
2A
102
}
102
{ACAD_XDICTIONARY
360
411
102
}
330
2A
100
AcDbVisualStyle
  2
Basic
 70
     7
 71
     1
 72
     0
 73
     1
 90
        0
 40
-0.6
 41
-30.0
 62
     5
 63
     7
 74
     0
 91
        4
 64
     7
 65
   257
 75
     1
175
     1
 42
1.0
 92
        8
 66
     7
 43
1.0
 76
     1
 77
     6
 78
     2
 67
     7
 79
     5
170
     0
171
     0
290
     0
174
     0
 93
        1
 44
0.0
173
     0
291
     1
 45
0.0
1001
ACAD
1000
AcDbSavedByObjectVersion
1070
     0
  0
VISUALSTYLE
  5
36
102
{ACAD_REACTORS
330
2A
102
}
102
{ACAD_XDICTIONARY
360
419
102
}
330
2A
100
AcDbVisualStyle
  2
Brighten
 70
    12
 71
     2
 72
     2
 73
     0
 90
        0
 40
-0.6
 41
-30.0
 62
     5
 63
     7
 74
     1
 91
        4
 64
     7
 65
   257
 75
     1
175
     1
 42
1.0
 92
        8
 66
     7
 43
1.0
 76
     1
 77
     6
 78
     2
 67
     7
 79
     5
170
     0
171
     0
290
     0
174
     0
 93
        1
 44
50.0
173
     0
291
     1
 45
0.0
1001
ACAD
1000
AcDbSavedByObjectVersion
1070
     0
  0
VISUALSTYLE
  5
3A
102
{ACAD_REACTORS
330
2A
102
}
102
{ACAD_XDICTIONARY
360
421
102
}
330
2A
100
AcDbVisualStyle
  2
ColorChange
 70
    16
 71
     2
 72
     2
 73
     3
 90
        0
 40
-0.6
 41
-30.0
 62
     5
 63
     8
 74
     1
 91
        4
 64
     7
 65
   257
 75
     1
175
     1
 42
1.0
 92
        8
 66
     8
 43
1.0
 76
     1
 77
     6
 78
     2
 67
     7
 79
     5
170
     0
171
     0
290
     0
174
     0
 93
        1
 44
0.0
173
     0
291
     1
 45
0.0
1001
ACAD
1000
AcDbSavedByObjectVersion
1070
     0
  0
VISUALSTYLE
  5
34
102
{ACAD_REACTORS
330
2A
102
}
102
{ACAD_XDICTIONARY
360
415
102
}
330
2A
100
AcDbVisualStyle
  2
Conceptual
 70
     9
 71
     3
 72
     2
 73
     0
 90
        0
 40
-0.6
 41
-30.0
 62
     5
 63
     7
 74
     2
 91
        2
 64
     7
 65
   257
 75
     1
175
     1
 42
40.0
 92
        8
 66
     7
 43
1.0
 76
     1
 77
     6
 78
     2
 67
     7
 79
     3
170
     0
171
     0
290
     0
174
     0
 93
        1
 44
0.0
173
     0
291
     0
 45
0.0
1001
ACAD
1000
AcDbSavedByObjectVersion
1070
     0
  0
VISUALSTYLE
  5
35
102
{ACAD_REACTORS
330
2A
102
}
102
{ACAD_XDICTIONARY
360
417
102
}
330
2A
100
AcDbVisualStyle
  2
Dim
 70
    11
 71
     2
 72
     2
 73
     0
 90
        0
 40
-0.6
 41
-30.0
 62
     5
 63
     7
 74
     1
 91
        4
 64
     7
 65
   257
 75
     1
175
     1
 42
1.0
 92
        8
 66
     7
 43
1.0
 76
     1
 77
     6
 78
     2
 67
     7
 79
     5
170
     0
171
     0
290
     0
174
     0
 93
        1
 44
-50.0
173
     0
291
     1
 45
0.0
1001
ACAD
1000
AcDbSavedByObjectVersion
1070
     0
  0
VISUALSTYLE
  5
39
102
{ACAD_REACTORS
330
2A
102
}
102
{ACAD_XDICTIONARY
360
41F
102
}
330
2A
100
AcDbVisualStyle
  2
Facepattern
 70
    15
 71
     2
 72
     2
 73
     0
 90
        0
 40
-0.6
 41
-30.0
 62
     5
 63
     7
 74
     1
 91
        4
 64
     7
 65
   257
 75
     1
175
     1
 42
1.0
 92
        8
 66
     7
 43
1.0
 76
     1
 77
     6
 78
     2
 67
     7
 79
     5
170
     0
171
     0
290
     0
174
     0
 93
        1
 44
0.0
173
     0
291
     1
 45
0.0
1001
ACAD
1000
AcDbSavedByObjectVersion
1070
     0
  0
VISUALSTYLE
  5
2B
102
{ACAD_REACTORS
330
2A
102
}
102
{ACAD_XDICTIONARY
360
403
102
}
330
2A
100
AcDbVisualStyle
  2
Flat
 70
     0
 71
     2
 72
     1
 73
     1
 90
        2
 40
-0.6
 41
30.0
 62
     5
 63
     7
 74
     0
 91
        4
 64
     7
 65
   257
 75
     1
175
     1
 42
1.0
 92
        8
 66
     7
 43
1.0
 76
     1
 77
     6
 78
     2
 67
     7
 79
     5
170
     0
171
     0
290
     0
174
     0
 93
       13
 44
0.0
173
     0
291
     1
 45
0.0
1001
ACAD
1000
AcDbSavedByObjectVersion
1070
     0
  0
VISUALSTYLE
  5
2C
102
{ACAD_REACTORS
330
2A
102
}
102
{ACAD_XDICTIONARY
360
405
102
}
330
2A
100
AcDbVisualStyle
  2
FlatWithEdges
 70
     1
 71
     2
 72
     1
 73
     1
 90
        2
 40
-0.6
 41
30.0
 62
     5
 63
     7
 74
     1
 91
        4
 64
     7
 65
   257
 75
     1
175
     1
 42
1.0
 92
        0
 66
   257
 43
1.0
 76
     1
 77
     6
 78
     2
 67
     7
 79
     5
170
     0
171
     0
290
     0
174
     0
 93
       13
 44
0.0
173
     0
291
     1
 45
0.0
1001
ACAD
1000
AcDbSavedByObjectVersion
1070
     0
  0
VISUALSTYLE
  5
2D
102
{ACAD_REACTORS
330
2A
102
}
102
{ACAD_XDICTIONARY
360
407
102
}
330
2A
100
AcDbVisualStyle
  2
Gouraud
 70
     2
 71
     2
 72
     2
 73
     1
 90
        2
 40
-0.6
 41
30.0
 62
     5
 63
     7
 74
     0
 91
        4
 64
     7
 65
   257
 75
     1
175
     1
 42
1.0
 92
        0
 66
     7
 43
1.0
 76
     1
 77
     6
 78
     2
 67
     7
 79
     5
170
     0
171
     0
290
     0
174
     0
 93
       13
 44
0.0
173
     0
291
     1
 45
0.0
1001
ACAD
1000
AcDbSavedByObjectVersion
1070
     0
  0
VISUALSTYLE
  5
2E
102
{ACAD_REACTORS
330
2A
102
}
102
{ACAD_XDICTIONARY
360
409
102
}
330
2A
100
AcDbVisualStyle
  2
GouraudWithEdges
 70
     3
 71
     2
 72
     2
 73
     1
 90
        2
 40
-0.6
 41
30.0
 62
     5
 63
     7
 74
     1
 91
        4
 64
     7
 65
   257
 75
     1
175
     1
 42
1.0
 92
        0
 66
   257
 43
1.0
 76
     1
 77
     6
 78
     2
 67
     7
 79
     5
170
     0
171
     0
290
     0
174
     0
 93
       13
 44
0.0
173
     0
291
     1
 45
0.0
1001
ACAD
1000
AcDbSavedByObjectVersion
1070
     0
  0
VISUALSTYLE
  5
38
102
{ACAD_REACTORS
330
2A
102
}
102
{ACAD_XDICTIONARY
360
41D
102
}
330
2A
100
AcDbVisualStyle
  2
Linepattern
 70
    14
 71
     2
 72
     2
 73
     0
 90
        0
 40
-0.6
 41
-30.0
 62
     5
 63
     7
 74
     1
 91
        4
 64
     7
 65
   257
 75
     7
175
     7
 42
1.0
 92
        8
 66
     7
 43
1.0
 76
     1
 77
     6
 78
     2
 67
     7
 79
     5
170
     0
171
     0
290
     0
174
     0
 93
        1
 44
0.0
173
     0
291
     1
 45
0.0
1001
ACAD
1000
AcDbSavedByObjectVersion
1070
     0
  0
VISUALSTYLE
  5
33
102
{ACAD_REACTORS
330
2A
102
}
102
{ACAD_XDICTIONARY
360
413
102
}
330
2A
100
AcDbVisualStyle
  2
Realistic
 70
     8
 71
     2
 72
     2
 73
     0
 90
        0
 40
-0.6
 41
-30.0
 62
     5
 63
     7
 74
     1
 91
        0
 64
     7
 65
   257
 75
     1
175
     1
 42
1.0
 92
        8
 66
     8
 43
1.0
 76
     1
 77
     6
 78
     2
 67
     7
 79
     5
170
     0
171
     0
290
     0
174
     0
 93
       13
 44
0.0
173
     0
291
     0
 45
0.0
1001
ACAD
1000
AcDbSavedByObjectVersion
1070
     0
  0
VISUALSTYLE
  5
37
102
{ACAD_REACTORS
330
2A
102
}
102
{ACAD_XDICTIONARY
360
41B
102
}
330
2A
100
AcDbVisualStyle
  2
Thicken
 70
    13
 71
     2
 72
     2
 73
     0
 90
        0
 40
-0.6
 41
-30.0
 62
     5
 63
     7
 74
     1
 91
        4
 64
     7
 65
   257
 75
     1
175
     1
 42
1.0
 92
       12
 66
     7
 43
1.0
 76
     1
 77
     6
 78
     2
 67
     7
 79
     5
170
     0
171
     0
290
     0
174
     0
 93
        1
 44
0.0
173
     0
291
     1
 45
0.0
1001
ACAD
1000
AcDbSavedByObjectVersion
1070
     0
  0
DICTIONARYVAR
  5
401
102
{ACAD_REACTORS
330
3FE
102
}
330
3FE
100
DictionaryVariables
280
     0
  1
2
  0
DICTIONARYVAR
  5
402
102
{ACAD_REACTORS
330
3FE
102
}
330
3FE
100
DictionaryVariables
280
     0
  1
1
  0
DICTIONARY
  5
425
330
3D
100
AcDbDictionary
280
     1
281
     1
  3
ACAD_XREC_ROUNDTRIP
360
426
  0
DICTIONARY
  5
423
330
3C
100
AcDbDictionary
280
     1
281
     1
  3
ACAD_XREC_ROUNDTRIP
360
424
  0
DICTIONARY
  5
427
330
3E
100
AcDbDictionary
280
     1
281
     1
  3
ACAD_XREC_ROUNDTRIP
360
428
  0
DICTIONARY
  5
40B
330
2F
100
AcDbDictionary
280
     1
281
     1
  3
ACAD_XREC_ROUNDTRIP
360
40C
  0
DICTIONARY
  5
40F
330
31
100
AcDbDictionary
280
     1
281
     1
  3
ACAD_XREC_ROUNDTRIP
360
410
  0
DICTIONARY
  5
40D
330
30
100
AcDbDictionary
280
     1
281
     1
  3
ACAD_XREC_ROUNDTRIP
360
40E
  0
DICTIONARY
  5
411
330
32
100
AcDbDictionary
280
     1
281
     1
  3
ACAD_XREC_ROUNDTRIP
360
412
  0
DICTIONARY
  5
419
330
36
100
AcDbDictionary
280
     1
281
     1
  3
ACAD_XREC_ROUNDTRIP
360
41A
  0
DICTIONARY
  5
421
330
3A
100
AcDbDictionary
280
     1
281
     1
  3
ACAD_XREC_ROUNDTRIP
360
422
  0
DICTIONARY
  5
415
330
34
100
AcDbDictionary
280
     1
281
     1
  3
ACAD_XREC_ROUNDTRIP
360
416
  0
DICTIONARY
  5
417
330
35
100
AcDbDictionary
280
     1
281
     1
  3
ACAD_XREC_ROUNDTRIP
360
418
  0
DICTIONARY
  5
41F
330
39
100
AcDbDictionary
280
     1
281
     1
  3
ACAD_XREC_ROUNDTRIP
360
420
  0
DICTIONARY
  5
403
330
2B
100
AcDbDictionary
280
     1
281
     1
  3
ACAD_XREC_ROUNDTRIP
360
404
  0
DICTIONARY
  5
405
330
2C
100
AcDbDictionary
280
     1
281
     1
  3
ACAD_XREC_ROUNDTRIP
360
406
  0
DICTIONARY
  5
407
330
2D
100
AcDbDictionary
280
     1
281
     1
  3
ACAD_XREC_ROUNDTRIP
360
408
  0
DICTIONARY
  5
409
330
2E
100
AcDbDictionary
280
     1
281
     1
  3
ACAD_XREC_ROUNDTRIP
360
40A
  0
DICTIONARY
  5
41D
330
38
100
AcDbDictionary
280
     1
281
     1
  3
ACAD_XREC_ROUNDTRIP
360
41E
  0
DICTIONARY
  5
413
330
33
100
AcDbDictionary
280
     1
281
     1
  3
ACAD_XREC_ROUNDTRIP
360
414
  0
DICTIONARY
  5
41B
330
37
100
AcDbDictionary
280
     1
281
     1
  3
ACAD_XREC_ROUNDTRIP
360
41C
  0
XRECORD
  5
426
102
{ACAD_REACTORS
330
425
102
}
330
425
100
AcDbXrecord
280
     1
102
MATERIAL
148
0.0
149
0.0
149
0.0
 93
        0
 94
      127
282
     0
 72
     1
 77
     1
171
     1
175
     1
179
     1
273
     0
  0
XRECORD
  5
424
102
{ACAD_REACTORS
330
423
102
}
330
423
100
AcDbXrecord
280
     1
102
MATERIAL
148
0.0
149
0.0
149
0.0
 93
        0
 94
      127
282
     0
 72
     1
 77
     1
171
     1
175
     1
179
     1
273
     0
  0
XRECORD
  5
428
102
{ACAD_REACTORS
330
427
102
}
330
427
100
AcDbXrecord
280
     1
102
MATERIAL
148
0.0
149
0.0
149
0.0
 93
        0
 94
      127
282
     0
 72
     1
 77
     1
171
     1
175
     1
179
     1
273
     0
  0
XRECORD
  5
40C
102
{ACAD_REACTORS
330
40B
102
}
330
40B
100
AcDbXrecord
280
     1
102
RTVSPropertyOp0
 70
     1
102
RTVSPropertyOp1
 70
     1
102
RTVSPropertyOp2
 70
     1
102
RTVSPropertyOp3
 70
     1
102
RTVSPropertyOp4
 70
     1
102
RTVSPropertyOp5
 70
     1
102
RTVSPropertyOp6
 70
     1
102
RTVSPropertyOp7
 70
     1
102
RTVSPropertyOp8
 70
     1
102
RTVSPropertyOp9
 70
     1
102
RTVSPropertyOp10
 70
     1
102
RTVSPropertyOp11
 70
     1
102
RTVSPropertyOp12
 70
     1
102
RTVSPropertyOp13
 70
     1
102
RTVSPropertyOp14
 70
     1
102
RTVSPropertyOp15
 70
     1
102
RTVSPropertyOp16
 70
     1
102
RTVSPropertyOp17
 70
     1
102
RTVSPropertyOp18
 70
     1
102
RTVSPropertyOp19
 70
     1
102
RTVSPropertyOp20
 70
     1
102
RTVSPropertyOp21
 70
     1
102
RTVSPropertyOp22
 70
     1
102
RTVSPropertyOp23
 70
     1
102
RTVSPropertyOp24
 70
     1
102
RTVSPropertyOp25
 70
     1
102
RTVSPropertyOp26
 70
     1
102
RTVSPropertyOp27
 70
     1
102
RTVSPropertyOp28
 70
     1
102
RTVSPropertyOp29
 70
     1
102
RTVSPropertyOp30
 70
     1
102
RTVSPropertyOp31
 70
     1
102
RTVSPropertyOp32
 70
     1
  0
XRECORD
  5
410
102
{ACAD_REACTORS
330
40F
102
}
330
40F
100
AcDbXrecord
280
     1
102
RTVSPropertyOp0
 70
     1
102
RTVSPropertyOp1
 70
     1
102
RTVSPropertyOp2
 70
     1
102
RTVSPropertyOp3
 70
     1
102
RTVSPropertyOp4
 70
     1
102
RTVSPropertyOp5
 70
     1
102
RTVSPropertyOp6
 70
     1
102
RTVSPropertyOp7
 70
     1
102
RTVSPropertyOp8
 70
     1
102
RTVSPropertyOp9
 70
     1
102
RTVSPropertyOp10
 70
     1
102
RTVSPropertyOp11
 70
     1
102
RTVSPropertyOp12
 70
     1
102
RTVSPropertyOp13
 70
     1
102
RTVSPropertyOp14
 70
     1
102
RTVSPropertyOp15
 70
     1
102
RTVSPropertyOp16
 70
     1
102
RTVSPropertyOp17
 70
     1
102
RTVSPropertyOp18
 70
     1
102
RTVSPropertyOp19
 70
     1
102
RTVSPropertyOp20
 70
     1
102
RTVSPropertyOp21
 70
     1
102
RTVSPropertyOp22
 70
     1
102
RTVSPropertyOp23
 70
     1
102
RTVSPropertyOp24
 70
     1
102
RTVSPropertyOp25
 70
     1
102
RTVSPropertyOp26
 70
     1
102
RTVSPropertyOp27
 70
     1
102
RTVSPropertyOp28
 70
     1
102
RTVSPropertyOp29
 70
     1
102
RTVSPropertyOp30
 70
     1
102
RTVSPropertyOp31
 70
     1
102
RTVSPropertyOp32
 70
     1
  0
XRECORD
  5
40E
102
{ACAD_REACTORS
330
40D
102
}
330
40D
100
AcDbXrecord
280
     1
102
RTVSPropertyOp0
 70
     1
102
RTVSPropertyOp1
 70
     1
102
RTVSPropertyOp2
 70
     1
102
RTVSPropertyOp3
 70
     1
102
RTVSPropertyOp4
 70
     1
102
RTVSPropertyOp5
 70
     1
102
RTVSPropertyOp6
 70
     1
102
RTVSPropertyOp7
 70
     1
102
RTVSPropertyOp8
 70
     1
102
RTVSPropertyOp9
 70
     1
102
RTVSPropertyOp10
 70
     1
102
RTVSPropertyOp11
 70
     1
102
RTVSPropertyOp12
 70
     1
102
RTVSPropertyOp13
 70
     1
102
RTVSPropertyOp14
 70
     1
102
RTVSPropertyOp15
 70
     1
102
RTVSPropertyOp16
 70
     1
102
RTVSPropertyOp17
 70
     1
102
RTVSPropertyOp18
 70
     1
102
RTVSPropertyOp19
 70
     1
102
RTVSPropertyOp20
 70
     1
102
RTVSPropertyOp21
 70
     1
102
RTVSPropertyOp22
 70
     1
102
RTVSPropertyOp23
 70
     1
102
RTVSPropertyOp24
 70
     1
102
RTVSPropertyOp25
 70
     1
102
RTVSPropertyOp26
 70
     1
102
RTVSPropertyOp27
 70
     1
102
RTVSPropertyOp28
 70
     1
102
RTVSPropertyOp29
 70
     1
102
RTVSPropertyOp30
 70
     1
102
RTVSPropertyOp31
 70
     1
102
RTVSPropertyOp32
 70
     1
  0
XRECORD
  5
412
102
{ACAD_REACTORS
330
411
102
}
330
411
100
AcDbXrecord
280
     1
102
RTVSPropertyOp0
 70
     1
102
RTVSPropertyOp1
 70
     1
102
RTVSPropertyOp2
 70
     1
102
RTVSPropertyOp3
 70
     1
102
RTVSPropertyOp4
 70
     1
102
RTVSPropertyOp5
 70
     1
102
RTVSPropertyOp6
 70
     1
102
RTVSPropertyOp7
 70
     1
102
RTVSPropertyOp8
 70
     1
102
RTVSPropertyOp9
 70
     1
102
RTVSPropertyOp10
 70
     1
102
RTVSPropertyOp11
 70
     1
102
RTVSPropertyOp12
 70
     1
102
RTVSPropertyOp13
 70
     1
102
RTVSPropertyOp14
 70
     1
102
RTVSPropertyOp15
 70
     1
102
RTVSPropertyOp16
 70
     1
102
RTVSPropertyOp17
 70
     1
102
RTVSPropertyOp18
 70
     1
102
RTVSPropertyOp19
 70
     1
102
RTVSPropertyOp20
 70
     1
102
RTVSPropertyOp21
 70
     1
102
RTVSPropertyOp22
 70
     1
102
RTVSPropertyOp23
 70
     1
102
RTVSPropertyOp24
 70
     1
102
RTVSPropertyOp25
 70
     1
102
RTVSPropertyOp26
 70
     1
102
RTVSPropertyOp27
 70
     1
102
RTVSPropertyOp28
 70
     1
102
RTVSPropertyOp29
 70
     1
102
RTVSPropertyOp30
 70
     1
102
RTVSPropertyOp31
 70
     1
102
RTVSPropertyOp32
 70
     1
  0
XRECORD
  5
41A
102
{ACAD_REACTORS
330
419
102
}
330
419
100
AcDbXrecord
280
     1
102
RTVSPropertyOp0
 70
     1
102
RTVSPropertyOp1
 70
     1
102
RTVSPropertyOp2
 70
     1
102
RTVSPropertyOp3
 70
     1
102
RTVSPropertyOp4
 70
     1
102
RTVSPropertyOp5
 70
     1
102
RTVSPropertyOp6
 70
     1
102
RTVSPropertyOp7
 70
     1
102
RTVSPropertyOp8
 70
     1
102
RTVSPropertyOp9
 70
     1
102
RTVSPropertyOp10
 70
     1
102
RTVSPropertyOp11
 70
     1
102
RTVSPropertyOp12
 70
     1
102
RTVSPropertyOp13
 70
     1
102
RTVSPropertyOp14
 70
     1
102
RTVSPropertyOp15
 70
     1
102
RTVSPropertyOp16
 70
     1
102
RTVSPropertyOp17
 70
     1
102
RTVSPropertyOp18
 70
     1
102
RTVSPropertyOp19
 70
     1
102
RTVSPropertyOp20
 70
     1
102
RTVSPropertyOp21
 70
     1
102
RTVSPropertyOp22
 70
     1
102
RTVSPropertyOp23
 70
     1
102
RTVSPropertyOp24
 70
     1
102
RTVSPropertyOp25
 70
     1
102
RTVSPropertyOp26
 70
     1
102
RTVSPropertyOp27
 70
     1
102
RTVSPropertyOp28
 70
     1
102
RTVSPropertyOp29
 70
     1
102
RTVSPropertyOp30
 70
     1
102
RTVSPropertyOp31
 70
     1
102
RTVSPropertyOp32
 70
     1
  0
XRECORD
  5
422
102
{ACAD_REACTORS
330
421
102
}
330
421
100
AcDbXrecord
280
     1
102
RTVSPropertyOp0
 70
     1
102
RTVSPropertyOp1
 70
     1
102
RTVSPropertyOp2
 70
     1
102
RTVSPropertyOp3
 70
     1
102
RTVSPropertyOp4
 70
     1
102
RTVSPropertyOp5
 70
     1
102
RTVSPropertyOp6
 70
     1
102
RTVSPropertyOp7
 70
     1
102
RTVSPropertyOp8
 70
     1
102
RTVSPropertyOp9
 70
     1
102
RTVSPropertyOp10
 70
     1
102
RTVSPropertyOp11
 70
     1
102
RTVSPropertyOp12
 70
     1
102
RTVSPropertyOp13
 70
     1
102
RTVSPropertyOp14
 70
     1
102
RTVSPropertyOp15
 70
     1
102
RTVSPropertyOp16
 70
     1
102
RTVSPropertyOp17
 70
     1
102
RTVSPropertyOp18
 70
     1
102
RTVSPropertyOp19
 70
     1
102
RTVSPropertyOp20
 70
     1
102
RTVSPropertyOp21
 70
     1
102
RTVSPropertyOp22
 70
     1
102
RTVSPropertyOp23
 70
     1
102
RTVSPropertyOp24
 70
     1
102
RTVSPropertyOp25
 70
     1
102
RTVSPropertyOp26
 70
     1
102
RTVSPropertyOp27
 70
     1
102
RTVSPropertyOp28
 70
     1
102
RTVSPropertyOp29
 70
     1
102
RTVSPropertyOp30
 70
     1
102
RTVSPropertyOp31
 70
     1
102
RTVSPropertyOp32
 70
     1
  0
XRECORD
  5
416
102
{ACAD_REACTORS
330
415
102
}
330
415
100
AcDbXrecord
280
     1
102
RTVSPropertyOp0
 70
     1
102
RTVSPropertyOp1
 70
     1
102
RTVSPropertyOp2
 70
     1
102
RTVSPropertyOp3
 70
     1
102
RTVSPropertyOp4
 70
     1
102
RTVSPropertyOp5
 70
     1
102
RTVSPropertyOp6
 70
     1
102
RTVSPropertyOp7
 70
     1
102
RTVSPropertyOp8
 70
     1
102
RTVSPropertyOp9
 70
     1
102
RTVSPropertyOp10
 70
     1
102
RTVSPropertyOp11
 70
     1
102
RTVSPropertyOp12
 70
     1
102
RTVSPropertyOp13
 70
     1
102
RTVSPropertyOp14
 70
     1
102
RTVSPropertyOp15
 70
     1
102
RTVSPropertyOp16
 70
     1
102
RTVSPropertyOp17
 70
     1
102
RTVSPropertyOp18
 70
     1
102
RTVSPropertyOp19
 70
     1
102
RTVSPropertyOp20
 70
     1
102
RTVSPropertyOp21
 70
     1
102
RTVSPropertyOp22
 70
     1
102
RTVSPropertyOp23
 70
     1
102
RTVSPropertyOp24
 70
     1
102
RTVSPropertyOp25
 70
     1
102
RTVSPropertyOp26
 70
     1
102
RTVSPropertyOp27
 70
     1
102
RTVSPropertyOp28
 70
     1
102
RTVSPropertyOp29
 70
     1
102
RTVSPropertyOp30
 70
     1
102
RTVSPropertyOp31
 70
     1
102
RTVSPropertyOp32
 70
     1
  0
XRECORD
  5
418
102
{ACAD_REACTORS
330
417
102
}
330
417
100
AcDbXrecord
280
     1
102
RTVSPropertyOp0
 70
     1
102
RTVSPropertyOp1
 70
     1
102
RTVSPropertyOp2
 70
     1
102
RTVSPropertyOp3
 70
     1
102
RTVSPropertyOp4
 70
     1
102
RTVSPropertyOp5
 70
     1
102
RTVSPropertyOp6
 70
     1
102
RTVSPropertyOp7
 70
     1
102
RTVSPropertyOp8
 70
     1
102
RTVSPropertyOp9
 70
     1
102
RTVSPropertyOp10
 70
     1
102
RTVSPropertyOp11
 70
     1
102
RTVSPropertyOp12
 70
     1
102
RTVSPropertyOp13
 70
     1
102
RTVSPropertyOp14
 70
     1
102
RTVSPropertyOp15
 70
     1
102
RTVSPropertyOp16
 70
     1
102
RTVSPropertyOp17
 70
     1
102
RTVSPropertyOp18
 70
     1
102
RTVSPropertyOp19
 70
     1
102
RTVSPropertyOp20
 70
     1
102
RTVSPropertyOp21
 70
     1
102
RTVSPropertyOp22
 70
     1
102
RTVSPropertyOp23
 70
     1
102
RTVSPropertyOp24
 70
     1
102
RTVSPropertyOp25
 70
     1
102
RTVSPropertyOp26
 70
     1
102
RTVSPropertyOp27
 70
     1
102
RTVSPropertyOp28
 70
     1
102
RTVSPropertyOp29
 70
     1
102
RTVSPropertyOp30
 70
     1
102
RTVSPropertyOp31
 70
     1
102
RTVSPropertyOp32
 70
     1
  0
XRECORD
  5
420
102
{ACAD_REACTORS
330
41F
102
}
330
41F
100
AcDbXrecord
280
     1
102
RTVSPropertyOp0
 70
     1
102
RTVSPropertyOp1
 70
     1
102
RTVSPropertyOp2
 70
     1
102
RTVSPropertyOp3
 70
     1
102
RTVSPropertyOp4
 70
     1
102
RTVSPropertyOp5
 70
     1
102
RTVSPropertyOp6
 70
     1
102
RTVSPropertyOp7
 70
     1
102
RTVSPropertyOp8
 70
     1
102
RTVSPropertyOp9
 70
     1
102
RTVSPropertyOp10
 70
     1
102
RTVSPropertyOp11
 70
     1
102
RTVSPropertyOp12
 70
     1
102
RTVSPropertyOp13
 70
     1
102
RTVSPropertyOp14
 70
     1
102
RTVSPropertyOp15
 70
     1
102
RTVSPropertyOp16
 70
     1
102
RTVSPropertyOp17
 70
     1
102
RTVSPropertyOp18
 70
     1
102
RTVSPropertyOp19
 70
     1
102
RTVSPropertyOp20
 70
     1
102
RTVSPropertyOp21
 70
     1
102
RTVSPropertyOp22
 70
     1
102
RTVSPropertyOp23
 70
     1
102
RTVSPropertyOp24
 70
     1
102
RTVSPropertyOp25
 70
     1
102
RTVSPropertyOp26
 70
     1
102
RTVSPropertyOp27
 70
     1
102
RTVSPropertyOp28
 70
     1
102
RTVSPropertyOp29
 70
     1
102
RTVSPropertyOp30
 70
     1
102
RTVSPropertyOp31
 70
     1
102
RTVSPropertyOp32
 70
     1
  0
XRECORD
  5
404
102
{ACAD_REACTORS
330
403
102
}
330
403
100
AcDbXrecord
280
     1
102
RTVSPropertyOp0
 70
     1
102
RTVSPropertyOp1
 70
     1
102
RTVSPropertyOp2
 70
     1
102
RTVSPropertyOp3
 70
     1
102
RTVSPropertyOp4
 70
     1
102
RTVSPropertyOp5
 70
     1
102
RTVSPropertyOp6
 70
     1
102
RTVSPropertyOp7
 70
     1
102
RTVSPropertyOp8
 70
     1
102
RTVSPropertyOp9
 70
     1
102
RTVSPropertyOp10
 70
     1
102
RTVSPropertyOp11
 70
     1
102
RTVSPropertyOp12
 70
     1
102
RTVSPropertyOp13
 70
     1
102
RTVSPropertyOp14
 70
     1
102
RTVSPropertyOp15
 70
     1
102
RTVSPropertyOp16
 70
     1
102
RTVSPropertyOp17
 70
     1
102
RTVSPropertyOp18
 70
     1
102
RTVSPropertyOp19
 70
     1
102
RTVSPropertyOp20
 70
     1
102
RTVSPropertyOp21
 70
     1
102
RTVSPropertyOp22
 70
     1
102
RTVSPropertyOp23
 70
     1
102
RTVSPropertyOp24
 70
     1
102
RTVSPropertyOp25
 70
     1
102
RTVSPropertyOp26
 70
     1
102
RTVSPropertyOp27
 70
     1
102
RTVSPropertyOp28
 70
     1
102
RTVSPropertyOp29
 70
     1
102
RTVSPropertyOp30
 70
     1
102
RTVSPropertyOp31
 70
     1
102
RTVSPropertyOp32
 70
     1
  0
XRECORD
  5
406
102
{ACAD_REACTORS
330
405
102
}
330
405
100
AcDbXrecord
280
     1
102
RTVSPropertyOp0
 70
     1
102
RTVSPropertyOp1
 70
     1
102
RTVSPropertyOp2
 70
     1
102
RTVSPropertyOp3
 70
     1
102
RTVSPropertyOp4
 70
     1
102
RTVSPropertyOp5
 70
     1
102
RTVSPropertyOp6
 70
     1
102
RTVSPropertyOp7
 70
     1
102
RTVSPropertyOp8
 70
     1
102
RTVSPropertyOp9
 70
     1
102
RTVSPropertyOp10
 70
     1
102
RTVSPropertyOp11
 70
     1
102
RTVSPropertyOp12
 70
     1
102
RTVSPropertyOp13
 70
     1
102
RTVSPropertyOp14
 70
     1
102
RTVSPropertyOp15
 70
     1
102
RTVSPropertyOp16
 70
     1
102
RTVSPropertyOp17
 70
     1
102
RTVSPropertyOp18
 70
     1
102
RTVSPropertyOp19
 70
     1
102
RTVSPropertyOp20
 70
     1
102
RTVSPropertyOp21
 70
     1
102
RTVSPropertyOp22
 70
     1
102
RTVSPropertyOp23
 70
     1
102
RTVSPropertyOp24
 70
     1
102
RTVSPropertyOp25
 70
     1
102
RTVSPropertyOp26
 70
     1
102
RTVSPropertyOp27
 70
     1
102
RTVSPropertyOp28
 70
     1
102
RTVSPropertyOp29
 70
     1
102
RTVSPropertyOp30
 70
     1
102
RTVSPropertyOp31
 70
     1
102
RTVSPropertyOp32
 70
     1
  0
XRECORD
  5
408
102
{ACAD_REACTORS
330
407
102
}
330
407
100
AcDbXrecord
280
     1
102
RTVSPropertyOp0
 70
     1
102
RTVSPropertyOp1
 70
     1
102
RTVSPropertyOp2
 70
     1
102
RTVSPropertyOp3
 70
     1
102
RTVSPropertyOp4
 70
     1
102
RTVSPropertyOp5
 70
     1
102
RTVSPropertyOp6
 70
     1
102
RTVSPropertyOp7
 70
     1
102
RTVSPropertyOp8
 70
     1
102
RTVSPropertyOp9
 70
     1
102
RTVSPropertyOp10
 70
     1
102
RTVSPropertyOp11
 70
     1
102
RTVSPropertyOp12
 70
     1
102
RTVSPropertyOp13
 70
     1
102
RTVSPropertyOp14
 70
     1
102
RTVSPropertyOp15
 70
     1
102
RTVSPropertyOp16
 70
     1
102
RTVSPropertyOp17
 70
     1
102
RTVSPropertyOp18
 70
     1
102
RTVSPropertyOp19
 70
     1
102
RTVSPropertyOp20
 70
     1
102
RTVSPropertyOp21
 70
     1
102
RTVSPropertyOp22
 70
     1
102
RTVSPropertyOp23
 70
     1
102
RTVSPropertyOp24
 70
     1
102
RTVSPropertyOp25
 70
     1
102
RTVSPropertyOp26
 70
     1
102
RTVSPropertyOp27
 70
     1
102
RTVSPropertyOp28
 70
     1
102
RTVSPropertyOp29
 70
     1
102
RTVSPropertyOp30
 70
     1
102
RTVSPropertyOp31
 70
     1
102
RTVSPropertyOp32
 70
     1
  0
XRECORD
  5
40A
102
{ACAD_REACTORS
330
409
102
}
330
409
100
AcDbXrecord
280
     1
102
RTVSPropertyOp0
 70
     1
102
RTVSPropertyOp1
 70
     1
102
RTVSPropertyOp2
 70
     1
102
RTVSPropertyOp3
 70
     1
102
RTVSPropertyOp4
 70
     1
102
RTVSPropertyOp5
 70
     1
102
RTVSPropertyOp6
 70
     1
102
RTVSPropertyOp7
 70
     1
102
RTVSPropertyOp8
 70
     1
102
RTVSPropertyOp9
 70
     1
102
RTVSPropertyOp10
 70
     1
102
RTVSPropertyOp11
 70
     1
102
RTVSPropertyOp12
 70
     1
102
RTVSPropertyOp13
 70
     1
102
RTVSPropertyOp14
 70
     1
102
RTVSPropertyOp15
 70
     1
102
RTVSPropertyOp16
 70
     1
102
RTVSPropertyOp17
 70
     1
102
RTVSPropertyOp18
 70
     1
102
RTVSPropertyOp19
 70
     1
102
RTVSPropertyOp20
 70
     1
102
RTVSPropertyOp21
 70
     1
102
RTVSPropertyOp22
 70
     1
102
RTVSPropertyOp23
 70
     1
102
RTVSPropertyOp24
 70
     1
102
RTVSPropertyOp25
 70
     1
102
RTVSPropertyOp26
 70
     1
102
RTVSPropertyOp27
 70
     1
102
RTVSPropertyOp28
 70
     1
102
RTVSPropertyOp29
 70
     1
102
RTVSPropertyOp30
 70
     1
102
RTVSPropertyOp31
 70
     1
102
RTVSPropertyOp32
 70
     1
  0
XRECORD
  5
41E
102
{ACAD_REACTORS
330
41D
102
}
330
41D
100
AcDbXrecord
280
     1
102
RTVSPropertyOp0
 70
     1
102
RTVSPropertyOp1
 70
     1
102
RTVSPropertyOp2
 70
     1
102
RTVSPropertyOp3
 70
     1
102
RTVSPropertyOp4
 70
     1
102
RTVSPropertyOp5
 70
     1
102
RTVSPropertyOp6
 70
     1
102
RTVSPropertyOp7
 70
     1
102
RTVSPropertyOp8
 70
     1
102
RTVSPropertyOp9
 70
     1
102
RTVSPropertyOp10
 70
     1
102
RTVSPropertyOp11
 70
     1
102
RTVSPropertyOp12
 70
     1
102
RTVSPropertyOp13
 70
     1
102
RTVSPropertyOp14
 70
     1
102
RTVSPropertyOp15
 70
     1
102
RTVSPropertyOp16
 70
     1
102
RTVSPropertyOp17
 70
     1
102
RTVSPropertyOp18
 70
     1
102
RTVSPropertyOp19
 70
     1
102
RTVSPropertyOp20
 70
     1
102
RTVSPropertyOp21
 70
     1
102
RTVSPropertyOp22
 70
     1
102
RTVSPropertyOp23
 70
     1
102
RTVSPropertyOp24
 70
     1
102
RTVSPropertyOp25
 70
     1
102
RTVSPropertyOp26
 70
     1
102
RTVSPropertyOp27
 70
     1
102
RTVSPropertyOp28
 70
     1
102
RTVSPropertyOp29
 70
     1
102
RTVSPropertyOp30
 70
     1
102
RTVSPropertyOp31
 70
     1
102
RTVSPropertyOp32
 70
     1
  0
XRECORD
  5
414
102
{ACAD_REACTORS
330
413
102
}
330
413
100
AcDbXrecord
280
     1
102
RTVSPropertyOp0
 70
     1
102
RTVSPropertyOp1
 70
     1
102
RTVSPropertyOp2
 70
     1
102
RTVSPropertyOp3
 70
     1
102
RTVSPropertyOp4
 70
     1
102
RTVSPropertyOp5
 70
     1
102
RTVSPropertyOp6
 70
     1
102
RTVSPropertyOp7
 70
     1
102
RTVSPropertyOp8
 70
     1
102
RTVSPropertyOp9
 70
     1
102
RTVSPropertyOp10
 70
     1
102
RTVSPropertyOp11
 70
     1
102
RTVSPropertyOp12
 70
     1
102
RTVSPropertyOp13
 70
     1
102
RTVSPropertyOp14
 70
     1
102
RTVSPropertyOp15
 70
     1
102
RTVSPropertyOp16
 70
     1
102
RTVSPropertyOp17
 70
     1
102
RTVSPropertyOp18
 70
     1
102
RTVSPropertyOp19
 70
     1
102
RTVSPropertyOp20
 70
     1
102
RTVSPropertyOp21
 70
     1
102
RTVSPropertyOp22
 70
     1
102
RTVSPropertyOp23
 70
     1
102
RTVSPropertyOp24
 70
     1
102
RTVSPropertyOp25
 70
     1
102
RTVSPropertyOp26
 70
     1
102
RTVSPropertyOp27
 70
     1
102
RTVSPropertyOp28
 70
     1
102
RTVSPropertyOp29
 70
     1
102
RTVSPropertyOp30
 70
     1
102
RTVSPropertyOp31
 70
     1
102
RTVSPropertyOp32
 70
     1
  0
XRECORD
  5
41C
102
{ACAD_REACTORS
330
41B
102
}
330
41B
100
AcDbXrecord
280
     1
102
RTVSPropertyOp0
 70
     1
102
RTVSPropertyOp1
 70
     1
102
RTVSPropertyOp2
 70
     1
102
RTVSPropertyOp3
 70
     1
102
RTVSPropertyOp4
 70
     1
102
RTVSPropertyOp5
 70
     1
102
RTVSPropertyOp6
 70
     1
102
RTVSPropertyOp7
 70
     1
102
RTVSPropertyOp8
 70
     1
102
RTVSPropertyOp9
 70
     1
102
RTVSPropertyOp10
 70
     1
102
RTVSPropertyOp11
 70
     1
102
RTVSPropertyOp12
 70
     1
102
RTVSPropertyOp13
 70
     1
102
RTVSPropertyOp14
 70
     1
102
RTVSPropertyOp15
 70
     1
102
RTVSPropertyOp16
 70
     1
102
RTVSPropertyOp17
 70
     1
102
RTVSPropertyOp18
 70
     1
102
RTVSPropertyOp19
 70
     1
102
RTVSPropertyOp20
 70
     1
102
RTVSPropertyOp21
 70
     1
102
RTVSPropertyOp22
 70
     1
102
RTVSPropertyOp23
 70
     1
102
RTVSPropertyOp24
 70
     1
102
RTVSPropertyOp25
 70
     1
102
RTVSPropertyOp26
 70
     1
102
RTVSPropertyOp27
 70
     1
102
RTVSPropertyOp28
 70
     1
102
RTVSPropertyOp29
 70
     1
102
RTVSPropertyOp30
 70
     1
102
RTVSPropertyOp31
 70
     1
102
RTVSPropertyOp32
 70
     1
  0
ENDSEC
  0
EOF
