  0
SECTION
  2
HEADER
  9
$ACADVER
  1
AC1015
  9
$ACADMAINTVER
 70
     6
  9
$DWGCODEPAGE
  3
ANSI_932
  9
$INSBASE
 10
0.0
 20
0.0
 30
0.0
  9
$EXTMIN
 10
0.0
 20
0.0
 30
0.0
  9
$EXTMAX
 10
420.0
 20
594.0
 30
0.0
  9
$LIMMIN
 10
0.0
 20
0.0
  9
$LIMMAX
 10
12.0
 20
9.0
  9
$ORTHOMODE
 70
     0
  9
$REGENMODE
 70
     1
  9
$FILLMODE
 70
     1
  9
$QTEXTMODE
 70
     0
  9
$MIRRTEXT
 70
     1
  9
$LTSCALE
 40
1.0
  9
$ATTMODE
 70
     1
  9
$TEXTSIZE
 40
0.2
  9
$TRACEWID
 40
0.05
  9
$TEXTSTYLE
  7
Standard
  9
$CLAYER
  8
0
  9
$CELTYPE
  6
ByLayer
  9
$CECOLOR
 62
   256
  9
$CELTSCALE
 40
1.0
  9
$DISPSILH
 70
     0
  9
$DIMSCALE
 40
1.0
  9
$DIMASZ
 40
0.18
  9
$DIMEXO
 40
0.0625
  9
$DIMDLI
 40
0.38
  9
$DIMRND
 40
0.0
  9
$DIMDLE
 40
0.0
  9
$DIMEXE
 40
0.18
  9
$DIMTP
 40
0.0
  9
$DIMTM
 40
0.0
  9
$DIMTXT
 40
0.18
  9
$DIMCEN
 40
0.09
  9
$DIMTSZ
 40
0.0
  9
$DIMTOL
 70
     0
  9
$DIMLIM
 70
     0
  9
$DIMTIH
 70
     1
  9
$DIMTOH
 70
     1
  9
$DIMSE1
 70
     0
  9
$DIMSE2
 70
     0
  9
$DIMTAD
 70
     0
  9
$DIMZIN
 70
     0
  9
$DIMBLK
  1

  9
$DIMASO
 70
     1
  9
$DIMSHO
 70
     1
  9
$DIMPOST
  1

  9
$DIMAPOST
  1

  9
$DIMALT
 70
     0
  9
$DIMALTD
 70
     2
  9
$DIMALTF
 40
25.4
  9
$DIMLFAC
 40
1.0
  9
$DIMTOFL
 70
     0
  9
$DIMTVP
 40
0.0
  9
$DIMTIX
 70
     0
  9
$DIMSOXD
 70
     0
  9
$DIMSAH
 70
     0
  9
$DIMBLK1
  1

  9
$DIMBLK2
  1

  9
$DIMSTYLE
  2
Standard
  9
$DIMCLRD
 70
     0
  9
$DIMCLRE
 70
     0
  9
$DIMCLRT
 70
     0
  9
$DIMTFAC
 40
1.0
  9
$DIMGAP
 40
0.09
  9
$DIMJUST
 70
     0
  9
$DIMSD1
 70
     0
  9
$DIMSD2
 70
     0
  9
$DIMTOLJ
 70
     1
  9
$DIMTZIN
 70
     0
  9
$DIMALTZ
 70
     0
  9
$DIMALTTZ
 70
     0
  9
$DIMUPT
 70
     0
  9
$DIMDEC
 70
     4
  9
$DIMTDEC
 70
     4
  9
$DIMALTU
 70
     2
  9
$DIMALTTD
 70
     2
  9
$DIMTXSTY
  7
Standard
  9
$DIMAUNIT
 70
     0
  9
$DIMADEC
 70
     0
  9
$DIMALTRND
 40
0.0
  9
$DIMAZIN
 70
     0
  9
$DIMDSEP
 70
    46
  9
$DIMATFIT
 70
     3
  9
$DIMFRAC
 70
     0
  9
$DIMLDRBLK
  1

  9
$DIMLUNIT
 70
     2
  9
$DIMLWD
 70
    -2
  9
$DIMLWE
 70
    -2
  9
$DIMTMOVE
 70
     0
  9
$LUNITS
 70
     2
  9
$LUPREC
 70
     4
  9
$SKETCHINC
 40
0.1
  9
$FILLETRAD
 40
0.5
  9
$AUNITS
 70
     0
  9
$AUPREC
 70
     0
  9
$MENU
  1
.
  9
$ELEVATION
 40
0.0
  9
$PELEVATION
 40
0.0
  9
$THICKNESS
 40
0.0
  9
$LIMCHECK
 70
     0
  9
$CHAMFERA
 40
0.5
  9
$CHAMFERB
 40
0.5
  9
$CHAMFERC
 40
1.0
  9
$CHAMFERD
 40
0.0
  9
$SKPOLY
 70
     0
  9
$TDCREATE
 40
2456496.684795926
  9
$TDUCREATE
 40
2456496.309795926
  9
$TDUPDATE
 40
2456496.684797373
  9
$TDUUPDATE
 40
2456496.309797373
  9
$TDINDWG
 40
0.0000000116
  9
$TDUSRTIMER
 40
0.0000000116
  9
$USRTIMER
 70
     1
  9
$ANGBASE
 50
0.0
  9
$ANGDIR
 70
     0
  9
$PDMODE
 70
     0
  9
$PDSIZE
 40
0.0
  9
$PLINEWID
 40
0.0
  9
$SPLFRAME
 70
     0
  9
$SPLINETYPE
 70
     6
  9
$SPLINESEGS
 70
     8
  9
$HANDSEED
  5
2C0
  9
$SURFTAB1
 70
     6
  9
$SURFTAB2
 70
     6
  9
$SURFTYPE
 70
     6
  9
$SURFU
 70
     6
  9
$SURFV
 70
     6
  9
$UCSBASE
  2

  9
$UCSNAME
  2

  9
$UCSORG
 10
0.0
 20
0.0
 30
0.0
  9
$UCSXDIR
 10
1.0
 20
0.0
 30
0.0
  9
$UCSYDIR
 10
0.0
 20
1.0
 30
0.0
  9
$UCSORTHOREF
  2

  9
$UCSORTHOVIEW
 70
     0
  9
$UCSORGTOP
 10
0.0
 20
0.0
 30
0.0
  9
$UCSORGBOTTOM
 10
0.0
 20
0.0
 30
0.0
  9
$UCSORGLEFT
 10
0.0
 20
0.0
 30
0.0
  9
$UCSORGRIGHT
 10
0.0
 20
0.0
 30
0.0
  9
$UCSORGFRONT
 10
0.0
 20
0.0
 30
0.0
  9
$UCSORGBACK
 10
0.0
 20
0.0
 30
0.0
  9
$PUCSBASE
  2

  9
$PUCSNAME
  2

  9
$PUCSORG
 10
0.0
 20
0.0
 30
0.0
  9
$PUCSXDIR
 10
1.0
 20
0.0
 30
0.0
  9
$PUCSYDIR
 10
0.0
 20
1.0
 30
0.0
  9
$PUCSORTHOREF
  2

  9
$PUCSORTHOVIEW
 70
     0
  9
$PUCSORGTOP
 10
0.0
 20
0.0
 30
0.0
  9
$PUCSORGBOTTOM
 10
0.0
 20
0.0
 30
0.0
  9
$PUCSORGLEFT
 10
0.0
 20
0.0
 30
0.0
  9
$PUCSORGRIGHT
 10
0.0
 20
0.0
 30
0.0
  9
$PUCSORGFRONT
 10
0.0
 20
0.0
 30
0.0
  9
$PUCSORGBACK
 10
0.0
 20
0.0
 30
0.0
  9
$USERI1
 70
     0
  9
$USERI2
 70
     0
  9
$USERI3
 70
     0
  9
$USERI4
 70
     0
  9
$USERI5
 70
     0
  9
$USERR1
 40
18.1
  9
$USERR2
 40
0.0
  9
$USERR3
 40
0.0
  9
$USERR4
 40
0.0
  9
$USERR5
 40
0.0
  9
$WORLDVIEW
 70
     1
  9
$SHADEDGE
 70
     3
  9
$SHADEDIF
 70
    70
  9
$TILEMODE
 70
     1
  9
$MAXACTVP
 70
    64
  9
$PINSBASE
 10
0.0
 20
0.0
 30
0.0
  9
$PLIMCHECK
 70
     0
  9
$PEXTMIN
 10
1.00000000000000E+20
 20
1.00000000000000E+20
 30
1.00000000000000E+20
  9
$PEXTMAX
 10
-1.00000000000000E+20
 20
-1.00000000000000E+20
 30
-1.00000000000000E+20
  9
$PLIMMIN
 10
0.0
 20
0.0
  9
$PLIMMAX
 10
12.0
 20
9.0
  9
$UNITMODE
 70
     0
  9
$VISRETAIN
 70
     1
  9
$PLINEGEN
 70
     0
  9
$PSLTSCALE
 70
     1
  9
$TREEDEPTH
 70
  3020
  9
$CMLSTYLE
  2
Standard
  9
$CMLJUST
 70
     0
  9
$CMLSCALE
 40
1.0
  9
$PROXYGRAPHICS
 70
     1
  9
$MEASUREMENT
 70
     1
  9
$CELWEIGHT
370
    -1
  9
$ENDCAPS
280
     0
  9
$JOINSTYLE
280
     0
  9
$LWDISPLAY
290
     0
  9
$INSUNITS
 70
     4
  9
$HYPERLINKBASE
  1

  9
$STYLESHEET
  1

  9
$XEDIT
290
     1
  9
$CEPSNTYPE
380
     0
  9
$PSTYLEMODE
290
     1
  9
$FINGERPRINTGUID
  2
{931A48F3-47DA-4784-8D98-0B2689214B0E}
  9
$VERSIONGUID
  2
{FAEB1C32-E019-11D5-929B-00C0DF256EC4}
  9
$EXTNAMES
290
     1
  9
$PSVPSCALE
 40
0.0
  9
$OLESTARTUP
290
     0
  0
ENDSEC
  0
SECTION
  2
CLASSES
  0
CLASS
  1
ACDBDICTIONARYWDFLT
  2
AcDbDictionaryWithDefault
  3
ObjectDBX Classes
 90
        0
280
     0
281
     0
  0
CLASS
  1
VISUALSTYLE
  2
AcDbVisualStyle
  3
ObjectDBX Classes
 90
     4095
280
     0
281
     0
  0
CLASS
  1
MATERIAL
  2
AcDbMaterial
  3
ObjectDBX Classes
 90
     1153
280
     0
281
     0
  0
CLASS
  1
DICTIONARYVAR
  2
AcDbDictionaryVar
  3
ObjectDBX Classes
 90
        0
280
     0
281
     0
  0
CLASS
  1
ACDBPLACEHOLDER
  2
AcDbPlaceHolder
  3
ObjectDBX Classes
 90
        0
280
     0
281
     0
  0
CLASS
  1
LAYOUT
  2
AcDbLayout
  3
ObjectDBX Classes
 90
        0
280
     0
281
     0
  0
ENDSEC
  0
SECTION
  2
TABLES
  0
TABLE
  2
VPORT
  5
8
330
0
100
AcDbSymbolTable
 70
     1
  0
VPORT
  5
29
330
8
100
AcDbSymbolTableRecord
100
AcDbViewportTableRecord
  2
*Active
 70
     0
 10
0.0
 20
0.0
 11
1.0
 21
1.0
 12
210.0
 22
297.0
 13
0.0
 23
0.0
 14
0.5
 24
0.5
 15
0.5
 25
0.5
 16
0.0
 26
0.0
 36
1.0
 17
0.0
 27
0.0
 37
0.0
 40
653.4000000000001
 41
1.60267857142857
 42
50.0
 43
0.0
 44
0.0
 50
0.0
 51
0.0
 71
     0
 72
   100
 73
     1
 74
     3
 75
     0
 76
     0
 77
     0
 78
     0
281
     0
 65
     1
110
0.0
120
0.0
130
0.0
111
1.0
121
0.0
131
0.0
112
0.0
122
1.0
132
0.0
 79
     0
146
0.0
  0
ENDTAB
  0
TABLE
  2
LTYPE
  5
5
330
0
100
AcDbSymbolTable
 70
     8
  0
LTYPE
  5
14
330
5
100
AcDbSymbolTableRecord
100
AcDbLinetypeTableRecord
  2
ByBlock
 70
     0
  3

 72
    65
 73
     0
 40
0.0
  0
LTYPE
  5
15
330
5
100
AcDbSymbolTableRecord
100
AcDbLinetypeTableRecord
  2
ByLayer
 70
     0
  3

 72
    65
 73
     0
 40
0.0
  0
LTYPE
  5
16
330
5
100
AcDbSymbolTableRecord
100
AcDbLinetypeTableRecord
  2
Continuous
 70
     0
  3
Solid line
 72
    65
 73
     0
 40
0.0
  0
LTYPE
  5
3F
330
5
100
AcDbSymbolTableRecord
100
AcDbLinetypeTableRecord
  2
DASHED
 70
     0
  3
Dashed
 72
    65
 73
     2
 40
15.0
 49
7.0
 74
     0
 49
-8.0
 74
     0
  0
LTYPE
  5
40
330
5
100
AcDbSymbolTableRecord
100
AcDbLinetypeTableRecord
  2
DOTTED
 70
     0
  3
Dotted
 72
    65
 73
     2
 40
1.0
 49
0.0
 74
     0
 49
-1.0
 74
     0
  0
LTYPE
  5
41
330
5
100
AcDbSymbolTableRecord
100
AcDbLinetypeTableRecord
  2
DOT_CENTER
 70
     0
  3
Dot_Center
 72
    65
 73
     4
 40
14.0
 49
12.0
 74
     0
 49
-1.0
 74
     0
 49
0.0
 74
     0
 49
-1.0
 74
     0
  0
LTYPE
  5
42
330
5
100
AcDbSymbolTableRecord
100
AcDbLinetypeTableRecord
  2
LONG_DASHED
 70
     0
  3
Long_Dashed
 72
    65
 73
     2
 40
15.0
 49
10.0
 74
     0
 49
-5.0
 74
     0
  0
LTYPE
  5
43
330
5
100
AcDbSymbolTableRecord
100
AcDbLinetypeTableRecord
  2
DASH_CENTER
 70
     0
  3
Dash_Center
 72
    65
 73
     4
 40
14.0
 49
11.0
 74
     0
 49
-1.0
 74
     0
 49
1.0
 74
     0
 49
-1.0
 74
     0
  0
LTYPE
  5
44
330
5
100
AcDbSymbolTableRecord
100
AcDbLinetypeTableRecord
  2
PHANTOM
 70
     0
  3
Phantom
 72
    65
 73
     6
 40
13.0
 49
10.0
 74
     0
 49
-1.0
 74
     0
 49
0.0
 74
     0
 49
-1.0
 74
     0
 49
0.0
 74
     0
 49
-1.0
 74
     0
  0
LTYPE
  5
45
330
5
100
AcDbSymbolTableRecord
100
AcDbLinetypeTableRecord
  2
CENTER_DASH_DASH
 70
     0
  3
Center_Dash_Dash
 72
    65
 73
     6
 40
14.0
 49
9.0
 74
     0
 49
-1.0
 74
     0
 49
1.0
 74
     0
 49
-1.0
 74
     0
 49
1.0
 74
     0
 49
-1.0
 74
     0
  0
ENDTAB
  0
TABLE
  2
LAYER
  5
2
330
0
100
AcDbSymbolTable
 70
     2
  0
LAYER
  5
10
330
2
100
AcDbSymbolTableRecord
100
AcDbLayerTableRecord
  2
0
 70
     0
 62
     7
  6
Continuous
370
    -3
390
F
  0
LAYER
  5
46
330
2
100
AcDbSymbolTableRecord
100
AcDbLayerTableRecord
  2
1
 70
     0
 62
     7
  6
Continuous
370
    -3
390
F
  0
ENDTAB
  0
TABLE
  2
STYLE
  5
3
330
0
100
AcDbSymbolTable
 70
     3
  0
STYLE
  5
11
330
3
100
AcDbSymbolTableRecord
100
AcDbTextStyleTableRecord
  2
Standard
 70
     0
 40
0.0
 41
1.0
 50
0.0
 71
     0
 42
0.2
  3
txt
  4

  0
STYLE
  5
224
330
3
100
AcDbSymbolTableRecord
100
AcDbTextStyleTableRecord
  2
CONVERTER_11
 70
     0
 40
0.0
 41
0.89
 50
0.0
 71
     0
 42
0.2
  3
MS Mincho.ttf
  4

1001
ACAD
1000
MS Mincho
1071
    32785
  0
STYLE
  5
23B
330
3
100
AcDbSymbolTableRecord
100
AcDbTextStyleTableRecord
  2
CONVERTER_12
 70
     0
 40
0.0
 41
0.9
 50
0.0
 71
     0
 42
0.2
  3
txt.shx
  4

  0
ENDTAB
  0
TABLE
  2
VIEW
  5
6
330
0
100
AcDbSymbolTable
 70
     0
  0
ENDTAB
  0
TABLE
  2
UCS
  5
7
330
0
100
AcDbSymbolTable
 70
     0
  0
ENDTAB
  0
TABLE
  2
APPID
  5
9
330
0
100
AcDbSymbolTable
 70
     1
  0
APPID
  5
12
330
9
100
AcDbSymbolTableRecord
100
AcDbRegAppTableRecord
  2
ACAD
 70
     0
  0
ENDTAB
  0
TABLE
  2
DIMSTYLE
  5
A
330
0
100
AcDbSymbolTable
 70
     7
100
AcDbDimStyleTable
  0
DIMSTYLE
105
27
330
A
100
AcDbSymbolTableRecord
100
AcDbDimStyleTableRecord
  2
Standard
 70
     0
178
     0
340
11
  0
DIMSTYLE
105
24B
102
{ACAD_REACTORS
330
24C
102
}
330
A
100
AcDbSymbolTableRecord
100
AcDbDimStyleTableRecord
  2
ME10_DIM_10
 70
     0
 41
7.0
 42
0.0
 44
2.0
 73
     0
 74
     0
 77
     1
 78
     8
140
7.0
147
2.0
172
     1
173
     1
174
     1
175
     1
176
     2
177
     2
271
     2
178
     7
271
     2
340
23B
  0
DIMSTYLE
105
257
102
{ACAD_REACTORS
330
258
102
}
330
A
100
AcDbSymbolTableRecord
100
AcDbDimStyleTableRecord
  2
ME10_DIM_11
 70
     0
 41
7.0
 42
0.0
 44
2.0
 73
     0
 74
     0
 77
     1
 78
     8
140
7.0
147
2.0
172
     1
173
     1
174
     1
175
     1
176
     2
177
     2
271
     2
178
     7
271
     2
340
224
  0
DIMSTYLE
105
262
102
{ACAD_REACTORS
330
263
102
}
330
A
100
AcDbSymbolTableRecord
100
AcDbDimStyleTableRecord
  2
ME10_DIM_12
 70
     0
  3
{\Fgdt;n}<>
 41
7.0
 42
0.0
 44
2.0
 73
     0
 74
     0
 77
     1
 78
     8
140
7.0
147
2.0
172
     1
173
     1
174
     1
175
     1
176
     2
177
     2
271
     2
178
     7
271
     2
340
23B
  0
DIMSTYLE
105
26D
102
{ACAD_REACTORS
330
26E
102
}
330
A
100
AcDbSymbolTableRecord
100
AcDbDimStyleTableRecord
  2
ME10_DIM_13
 70
     0
 41
7.0
 42
0.0
 44
2.0
 73
     0
 74
     0
 77
     1
 78
     8
140
7.0
147
2.0
172
     1
173
     1
174
     1
175
     1
176
     2
177
     2
271
     2
178
     7
271
     2
340
23B
  0
DIMSTYLE
105
278
102
{ACAD_REACTORS
330
279
102
}
330
A
100
AcDbSymbolTableRecord
100
AcDbDimStyleTableRecord
  2
ME10_DIM_14
 70
     0
 41
7.0
 42
0.0
 44
2.0
 73
     0
 74
     0
 77
     1
 78
     8
140
7.0
147
2.0
172
     1
173
     1
174
     1
175
     1
176
     2
177
     2
271
     2
178
     7
271
     2
340
23B
  0
DIMSTYLE
105
283
102
{ACAD_REACTORS
330
284
102
}
330
A
100
AcDbSymbolTableRecord
100
AcDbDimStyleTableRecord
  2
ME10_DIM_15
 70
     0
 41
7.0
 42
0.0
 44
2.0
 73
     0
 74
     0
 77
     1
 78
     8
140
7.0
147
2.0
172
     1
173
     1
174
     1
175
     1
176
     2
177
     2
271
     2
178
     7
271
     2
340
23B
  0
ENDTAB
  0
TABLE
  2
BLOCK_RECORD
  5
1
330
0
100
AcDbSymbolTable
 70
    16
  0
BLOCK_RECORD
  5
1F
330
1
100
AcDbSymbolTableRecord
100
AcDbBlockTableRecord
  2
*Model_Space
340
22
  0
BLOCK_RECORD
  5
1B
330
1
100
AcDbSymbolTableRecord
100
AcDbBlockTableRecord
  2
*Paper_Space
340
1E
  0
BLOCK_RECORD
  5
23
330
1
100
AcDbSymbolTableRecord
100
AcDbBlockTableRecord
  2
*Paper_Space0
340
26
  0
BLOCK_RECORD
  5
47
330
1
100
AcDbSymbolTableRecord
100
AcDbBlockTableRecord
  2
04
340
0
102
{BLKREFS
331
5C
102
}
  0
BLOCK_RECORD
  5
4A
330
1
100
AcDbSymbolTableRecord
100
AcDbBlockTableRecord
  2
07
340
0
102
{BLKREFS
331
5D
102
}
  0
BLOCK_RECORD
  5
4D
330
1
100
AcDbSymbolTableRecord
100
AcDbBlockTableRecord
  2
05
340
0
102
{BLKREFS
331
5E
102
}
  0
BLOCK_RECORD
  5
50
330
1
100
AcDbSymbolTableRecord
100
AcDbBlockTableRecord
  2
06
340
0
102
{BLKREFS
331
5F
102
}
  0
BLOCK_RECORD
  5
53
330
1
100
AcDbSymbolTableRecord
100
AcDbBlockTableRecord
  2
02
340
0
102
{BLKREFS
331
60
102
}
  0
BLOCK_RECORD
  5
56
330
1
100
AcDbSymbolTableRecord
100
AcDbBlockTableRecord
  2
ring
340
0
102
{BLKREFS
331
61
102
}
  0
BLOCK_RECORD
  5
59
330
1
100
AcDbSymbolTableRecord
100
AcDbBlockTableRecord
  2
開示A4
340
0
102
{BLKREFS
331
62
102
}
  0
BLOCK_RECORD
  5
242
330
1
100
AcDbSymbolTableRecord
100
AcDbBlockTableRecord
  2
*D8
340
0
  0
BLOCK_RECORD
  5
24D
330
1
100
AcDbSymbolTableRecord
100
AcDbBlockTableRecord
  2
*D9
340
0
  0
BLOCK_RECORD
  5
259
330
1
100
AcDbSymbolTableRecord
100
AcDbBlockTableRecord
  2
*D10
340
0
  0
BLOCK_RECORD
  5
264
330
1
100
AcDbSymbolTableRecord
100
AcDbBlockTableRecord
  2
*D11
340
0
  0
BLOCK_RECORD
  5
26F
330
1
100
AcDbSymbolTableRecord
100
AcDbBlockTableRecord
  2
*D12
340
0
  0
BLOCK_RECORD
  5
27A
330
1
100
AcDbSymbolTableRecord
100
AcDbBlockTableRecord
  2
*D13
340
0
  0
BLOCK_RECORD
  5
285
330
1
100
AcDbSymbolTableRecord
100
AcDbBlockTableRecord
  2
*D14
340
0
102
{BLKREFS
331
28C
102
}
  0
BLOCK_RECORD
  5
28D
330
1
100
AcDbSymbolTableRecord
100
AcDbBlockTableRecord
  2
*D15
340
0
102
{BLKREFS
331
294
102
}
  0
ENDTAB
  0
ENDSEC
  0
SECTION
  2
BLOCKS
  0
BLOCK
  5
20
330
1F
100
AcDbEntity
  8
0
100
AcDbBlockBegin
  2
*Model_Space
 70
     0
 10
0.0
 20
0.0
 30
0.0
  3
*Model_Space
  1

  0
ENDBLK
  5
21
330
1F
100
AcDbEntity
  8
0
100
AcDbBlockEnd
  0
BLOCK
  5
1C
330
1B
100
AcDbEntity
 67
     1
  8
0
100
AcDbBlockBegin
  2
*Paper_Space
 70
     0
 10
0.0
 20
0.0
 30
0.0
  3
*Paper_Space
  1

  0
ENDBLK
  5
1D
330
1B
100
AcDbEntity
 67
     1
  8
0
100
AcDbBlockEnd
  0
BLOCK
  5
24
330
23
100
AcDbEntity
  8
0
100
AcDbBlockBegin
  2
*Paper_Space0
 70
     0
 10
0.0
 20
0.0
 30
0.0
  3
*Paper_Space0
  1

  0
ENDBLK
  5
25
330
23
100
AcDbEntity
  8
0
100
AcDbBlockEnd
  0
BLOCK
  5
48
330
47
100
AcDbEntity
  8
0
100
AcDbBlockBegin
  2
04
 70
     0
 10
361.1676658686026
 20
246.918456612231
 30
0.0
  3
04
  1

  0
LINE
  5
63
330
47
100
AcDbEntity
  8
1
  6
Continuous
 62
     7
100
AcDbLine
 10
158.9703703361877
 20
246.918456612231
 30
0.0
 11
118.2398704923645
 21
246.918456612231
 31
0.0
  0
LINE
  5
64
330
47
100
AcDbEntity
  8
1
  6
Continuous
 62
     7
100
AcDbLine
 10
117.6944276816579
 20
248.9179402833209
 30
0.0
 11
158.9703703361877
 21
248.9179402833209
 31
0.0
  0
LINE
  5
65
330
47
100
AcDbEntity
  8
1
  6
Continuous
 62
     7
100
AcDbLine
 10
117.2398704923645
 20
268.918456612231
 30
0.0
 11
117.6944276816579
 21
248.9179402833209
 31
0.0
  0
LINE
  5
66
330
47
100
AcDbEntity
  8
1
  6
Continuous
 62
     7
100
AcDbLine
 10
153.9703703361877
 20
268.8984628593028
 30
0.0
 11
153.9703703361877
 21
265.8984628593028
 31
0.0
  0
LINE
  5
67
330
47
100
AcDbEntity
  8
1
  6
Continuous
 62
     7
100
AcDbLine
 10
153.9703703361877
 20
265.8984628593028
 30
0.0
 11
158.9703703361877
 21
265.8984628593028
 31
0.0
  0
LINE
  5
68
330
47
100
AcDbEntity
  8
1
  6
Continuous
 62
     7
100
AcDbLine
 10
117.6944276816579
 20
248.9179402833209
 30
0.0
 11
118.2398704923645
 21
246.918456612231
 31
0.0
  0
LINE
  5
69
330
47
100
AcDbEntity
  8
1
  6
Continuous
 62
     7
100
AcDbLine
 10
199.7008701800108
 20
246.918456612231
 30
0.0
 11
158.9703703361877
 21
246.918456612231
 31
0.0
  0
LINE
  5
6A
330
47
100
AcDbEntity
  8
1
  6
Continuous
 62
     7
100
AcDbLine
 10
158.9703703361877
 20
248.9179402833209
 30
0.0
 11
200.2463129907174
 21
248.9179402833208
 31
0.0
  0
LINE
  5
6B
330
47
100
AcDbEntity
  8
1
  6
Continuous
 62
     7
100
AcDbLine
 10
200.2463129907174
 20
248.9179402833208
 30
0.0
 11
200.7008701800108
 21
268.918456612231
 31
0.0
  0
LINE
  5
6C
330
47
100
AcDbEntity
  8
1
  6
Continuous
 62
     7
100
AcDbLine
 10
163.9703703361877
 20
265.8984628593028
 30
0.0
 11
163.9703703361877
 21
268.8984628593028
 31
0.0
  0
LINE
  5
6D
330
47
100
AcDbEntity
  8
1
  6
Continuous
 62
     7
100
AcDbLine
 10
158.9703703361877
 20
265.8984628593028
 30
0.0
 11
163.9703703361877
 21
265.8984628593028
 31
0.0
  0
LINE
  5
6E
330
47
100
AcDbEntity
  8
1
  6
Continuous
 62
     7
100
AcDbLine
 10
199.7008701800108
 20
246.918456612231
 30
0.0
 11
200.2463129907174
 21
248.9179402833208
 31
0.0
  0
LINE
  5
6F
330
47
100
AcDbEntity
  8
1
  6
Continuous
 62
     7
100
AcDbLine
 10
309.4371660247795
 20
246.918456612231
 30
0.0
 11
268.7066661809563
 21
246.918456612231
 31
0.0
  0
LINE
  5
70
330
47
100
AcDbEntity
  8
1
  6
Continuous
 62
     7
100
AcDbLine
 10
268.1612233702497
 20
248.9179402833208
 30
0.0
 11
309.4371660247795
 21
248.9179402833209
 31
0.0
  0
LINE
  5
71
330
47
100
AcDbEntity
  8
1
  6
Continuous
 62
     7
100
AcDbLine
 10
267.7066661809563
 20
268.918456612231
 30
0.0
 11
268.1612233702497
 21
248.9179402833208
 31
0.0
  0
LINE
  5
72
330
47
100
AcDbEntity
  8
1
  6
Continuous
 62
     7
100
AcDbLine
 10
268.1612233702497
 20
248.9179402833208
 30
0.0
 11
268.7066661809563
 21
246.918456612231
 31
0.0
  0
LINE
  5
73
330
47
100
AcDbEntity
  8
1
  6
Continuous
 62
     7
100
AcDbLine
 10
350.1676658686026
 20
246.918456612231
 30
0.0
 11
309.4371660247795
 21
246.918456612231
 31
0.0
  0
LINE
  5
74
330
47
100
AcDbEntity
  8
1
  6
Continuous
 62
     7
100
AcDbLine
 10
309.4371660247795
 20
248.9179402833209
 30
0.0
 11
350.7131086793093
 21
248.9179402833208
 31
0.0
  0
LINE
  5
75
330
47
100
AcDbEntity
  8
1
  6
Continuous
 62
     7
100
AcDbLine
 10
350.7131086793093
 20
248.9179402833208
 30
0.0
 11
351.1676658686026
 21
268.918456612231
 31
0.0
  0
LINE
  5
76
330
47
100
AcDbEntity
  8
1
  6
Continuous
 62
     7
100
AcDbLine
 10
350.1676658686026
 20
246.918456612231
 30
0.0
 11
350.7131086793093
 21
248.9179402833208
 31
0.0
  0
ENDBLK
  5
49
330
47
100
AcDbEntity
  8
0
100
AcDbBlockEnd
  0
BLOCK
  5
4B
330
4A
100
AcDbEntity
  8
0
100
AcDbBlockBegin
  2
07
 70
     0
 10
381.9371660247794
 20
268.8984628593028
 30
0.0
  3
07
  1

  0
LINE
  5
77
330
4A
100
AcDbEntity
  8
1
  6
Continuous
 62
     7
100
AcDbLine
 10
96.77037033618777
 20
268.8984628593029
 30
0.0
 11
158.9703703361877
 21
268.8984628593028
 31
0.0
  0
LINE
  5
78
330
4A
100
AcDbEntity
  8
1
  6
Continuous
 62
     7
100
AcDbLine
 10
96.6703703361878
 20
270.7154520682259
 30
0.0
 11
158.9703703361877
 21
270.7154520682259
 31
0.0
  0
LINE
  5
79
330
4A
100
AcDbEntity
  8
1
  6
Continuous
 62
     7
100
AcDbLine
 10
123.9703703361877
 20
272.3984628593028
 30
0.0
 11
96.652662378131
 21
270.9146665963645
 31
0.0
  0
LINE
  5
7A
330
4A
100
AcDbEntity
  8
1
  6
Continuous
 62
     7
100
AcDbLine
 10
96.47037033618776
 20
270.7154520682259
 30
0.0
 11
96.47037033618776
 21
269.1984628593029
 31
0.0
  0
LINE
  5
7B
330
4A
100
AcDbEntity
  8
1
  6
Continuous
 62
     7
100
AcDbLine
 10
134.5500504196757
 20
272.3946573214327
 30
0.0
 11
158.9703703361877
 21
272.3946573214326
 31
0.0
  0
LINE
  5
7C
330
4A
100
AcDbEntity
  8
1
  6
Continuous
 62
     7
100
AcDbLine
 10
134.5500504196757
 20
272.3946573214327
 30
0.0
 11
123.9703703361877
 21
272.3946573214327
 31
0.0
  0
LINE
  5
7D
330
4A
100
AcDbEntity
  8
1
  6
Continuous
 62
     7
100
AcDbLine
 10
158.9703703361877
 20
268.8984628593028
 30
0.0
 11
221.1703703361875
 21
268.8984628593029
 31
0.0
  0
LINE
  5
7E
330
4A
100
AcDbEntity
  8
1
  6
Continuous
 62
     7
100
AcDbLine
 10
158.9703703361877
 20
270.7154520682259
 30
0.0
 11
221.2703703361876
 21
270.7154520682259
 31
0.0
  0
LINE
  5
7F
330
4A
100
AcDbEntity
  8
1
  6
Continuous
 62
     7
100
AcDbLine
 10
221.2880782942443
 20
270.9146665963645
 30
0.0
 11
193.9703703361877
 21
272.3984628593028
 31
0.0
  0
LINE
  5
80
330
4A
100
AcDbEntity
  8
1
  6
Continuous
 62
     7
100
AcDbLine
 10
221.4703703361875
 20
269.1984628593029
 30
0.0
 11
221.4703703361875
 21
270.7154520682259
 31
0.0
  0
LINE
  5
81
330
4A
100
AcDbEntity
  8
1
  6
Continuous
 62
     7
100
AcDbLine
 10
158.9703703361877
 20
272.3946573214326
 30
0.0
 11
183.3906902526996
 21
272.3946573214327
 31
0.0
  0
LINE
  5
82
330
4A
100
AcDbEntity
  8
1
  6
Continuous
 62
     7
100
AcDbLine
 10
193.9703703361877
 20
272.3946573214327
 30
0.0
 11
183.3906902526996
 21
272.3946573214327
 31
0.0
  0
LINE
  5
83
330
4A
100
AcDbEntity
  8
1
  6
Continuous
 62
     7
100
AcDbLine
 10
247.2371660247797
 20
268.8984628593029
 30
0.0
 11
309.4371660247795
 21
268.8984628593028
 31
0.0
  0
LINE
  5
84
330
4A
100
AcDbEntity
  8
1
  6
Continuous
 62
     7
100
AcDbLine
 10
247.1371660247796
 20
270.7154520682259
 30
0.0
 11
309.4371660247795
 21
270.7154520682259
 31
0.0
  0
LINE
  5
85
330
4A
100
AcDbEntity
  8
1
  6
Continuous
 62
     7
100
AcDbLine
 10
274.4371660247795
 20
272.3984628593028
 30
0.0
 11
247.1194580667229
 21
270.9146665963645
 31
0.0
  0
LINE
  5
86
330
4A
100
AcDbEntity
  8
1
  6
Continuous
 62
     7
100
AcDbLine
 10
246.9371660247796
 20
270.7154520682259
 30
0.0
 11
246.9371660247797
 21
269.1984628593029
 31
0.0
  0
LINE
  5
87
330
4A
100
AcDbEntity
  8
1
  6
Continuous
 62
     7
100
AcDbLine
 10
285.0168461082675
 20
272.3946573214327
 30
0.0
 11
309.4371660247795
 21
272.3946573214326
 31
0.0
  0
LINE
  5
88
330
4A
100
AcDbEntity
  8
1
  6
Continuous
 62
     7
100
AcDbLine
 10
285.0168461082675
 20
272.3946573214327
 30
0.0
 11
274.4371660247795
 21
272.3946573214327
 31
0.0
  0
LINE
  5
89
330
4A
100
AcDbEntity
  8
1
  6
Continuous
 62
     7
100
AcDbLine
 10
309.4371660247795
 20
268.8984628593028
 30
0.0
 11
371.6371660247793
 21
268.8984628593028
 31
0.0
  0
LINE
  5
8A
330
4A
100
AcDbEntity
  8
1
  6
Continuous
 62
     7
100
AcDbLine
 10
309.4371660247795
 20
270.7154520682259
 30
0.0
 11
371.7371660247794
 21
270.7154520682259
 31
0.0
  0
LINE
  5
8B
330
4A
100
AcDbEntity
  8
1
  6
Continuous
 62
     7
100
AcDbLine
 10
371.7548739828361
 20
270.9146665963645
 30
0.0
 11
344.4371660247795
 21
272.3984628593028
 31
0.0
  0
LINE
  5
8C
330
4A
100
AcDbEntity
  8
1
  6
Continuous
 62
     7
100
AcDbLine
 10
371.9371660247793
 20
269.1984628593028
 30
0.0
 11
371.9371660247794
 21
270.7154520682259
 31
0.0
  0
LINE
  5
8D
330
4A
100
AcDbEntity
  8
1
  6
Continuous
 62
     7
100
AcDbLine
 10
309.4371660247795
 20
272.3946573214326
 30
0.0
 11
333.8574859412914
 21
272.3946573214327
 31
0.0
  0
LINE
  5
8E
330
4A
100
AcDbEntity
  8
1
  6
Continuous
 62
     7
100
AcDbLine
 10
344.4371660247795
 20
272.3946573214327
 30
0.0
 11
333.8574859412914
 21
272.3946573214327
 31
0.0
  0
ARC
  5
8F
330
4A
100
AcDbEntity
  8
1
  6
Continuous
 62
     7
100
AcDbCircle
 10
96.77037033618777
 20
269.1984628593029
 30
0.0
 40
0.3000000000000114
100
AcDbArc
 50
180.0
 51
270.0
  0
ARC
  5
90
330
4A
100
AcDbEntity
  8
1
  6
Continuous
 62
     7
100
AcDbCircle
 10
96.6703703361878
 20
270.7154520682259
 30
0.0
 40
0.2000000000000779
100
AcDbArc
 50
95.07960786002538
 51
180.0
  0
ARC
  5
91
330
4A
100
AcDbEntity
  8
1
  6
Continuous
 62
     7
100
AcDbCircle
 10
221.1703703361875
 20
269.1984628593029
 30
0.0
 40
0.2999999999999545
100
AcDbArc
 50
270.0
 51
0.0
  0
ARC
  5
92
330
4A
100
AcDbEntity
  8
1
  6
Continuous
 62
     7
100
AcDbCircle
 10
221.2703703361876
 20
270.7154520682259
 30
0.0
 40
0.1999999999999034
100
AcDbArc
 50
0.0
 51
84.92039214000705
  0
ARC
  5
93
330
4A
100
AcDbEntity
  8
1
  6
Continuous
 62
     7
100
AcDbCircle
 10
158.9703703361876
 20
449.2848264956665
 30
0.0
 40
34.9999999999999
100
AcDbArc
 50
29.76583007476732
 51
330.7096702726532
  0
ARC
  5
94
330
4A
100
AcDbEntity
  8
1
  6
Continuous
 62
     7
100
AcDbCircle
 10
158.9703703361876
 20
449.2848264956665
 30
0.0
 40
25.50000000000002
100
AcDbArc
 50
48.16752044510872
 51
311.832479554891
  0
ARC
  5
95
330
4A
100
AcDbEntity
  8
1
  6
Continuous
 62
     7
100
AcDbCircle
 10
247.2371660247797
 20
269.1984628593029
 30
0.0
 40
0.2999999999999829
100
AcDbArc
 50
180.0
 51
270.0
  0
ARC
  5
96
330
4A
100
AcDbEntity
  8
1
  6
Continuous
 62
     7
100
AcDbCircle
 10
247.1371660247796
 20
270.7154520682259
 30
0.0
 40
0.2000000000000678
100
AcDbArc
 50
95.07960785999295
 51
180.0
  0
ARC
  5
97
330
4A
100
AcDbEntity
  8
1
  6
Continuous
 62
     7
100
AcDbCircle
 10
371.6371660247793
 20
269.1984628593028
 30
0.0
 40
0.3000000000000114
100
AcDbArc
 50
270.0
 51
0.0
  0
ARC
  5
98
330
4A
100
AcDbEntity
  8
1
  6
Continuous
 62
     7
100
AcDbCircle
 10
371.7371660247794
 20
270.7154520682259
 30
0.0
 40
0.1999999999999886
100
AcDbArc
 50
0.0
 51
84.92039214000705
  0
ARC
  5
99
330
4A
100
AcDbEntity
  8
1
  6
Continuous
 62
     7
100
AcDbCircle
 10
158.9703703361876
 20
449.2848264956665
 30
0.0
 40
62.50000000000001
100
AcDbArc
 50
17.35275592205217
 51
340.8012246138769
  0
ENDBLK
  5
4C
330
4A
100
AcDbEntity
  8
0
100
AcDbBlockEnd
  0
BLOCK
  5
4E
330
4D
100
AcDbEntity
  8
0
100
AcDbBlockBegin
  2
05
 70
     0
 10
347.4892487514342
 20
241.8984628593027
 30
0.0
  3
05
  1

  0
LINE
  5
9A
330
4D
100
AcDbEntity
  8
1
  6
Continuous
 62
     7
100
AcDbLine
 10
132.1439836324583
 20
241.8984628593028
 30
0.0
 11
158.9703703361877
 21
241.8984628593034
 31
0.0
  0
LINE
  5
9B
330
4D
100
AcDbEntity
  8
1
  6
Continuous
 62
     7
100
AcDbLine
 10
131.1471324369855
 20
242.8191678778447
 30
0.0
 11
158.9703703361877
 21
242.8191678778447
 31
0.0
  0
LINE
  5
9C
330
4D
100
AcDbEntity
  8
1
  6
Continuous
 62
     7
100
AcDbLine
 10
130.9182876095329
 20
246.918456612231
 30
0.0
 11
131.1471324369855
 21
242.8191678778447
 31
0.0
  0
LINE
  5
9D
330
4D
100
AcDbEntity
  8
1
  6
Continuous
 62
     7
100
AcDbLine
 10
158.9703703361877
 20
241.8984628593034
 30
0.0
 11
185.796757039917
 21
241.8984628593027
 31
0.0
  0
LINE
  5
9E
330
4D
100
AcDbEntity
  8
1
  6
Continuous
 62
     7
100
AcDbLine
 10
158.9703703361877
 20
242.8191678778447
 30
0.0
 11
186.7936082353898
 21
242.8191678778447
 31
0.0
  0
LINE
  5
9F
330
4D
100
AcDbEntity
  8
1
  6
Continuous
 62
     7
100
AcDbLine
 10
186.7936082353898
 20
242.8191678778447
 30
0.0
 11
187.0224530628424
 21
246.918456612231
 31
0.0
  0
LINE
  5
A0
330
4D
100
AcDbEntity
  8
1
  6
Continuous
 62
     7
100
AcDbLine
 10
282.6107793210501
 20
241.8984628593027
 30
0.0
 11
309.4371660247795
 21
241.8984628593034
 31
0.0
  0
LINE
  5
A1
330
4D
100
AcDbEntity
  8
1
  6
Continuous
 62
     7
100
AcDbLine
 10
281.6139281255773
 20
242.8191678778447
 30
0.0
 11
309.4371660247795
 21
242.8191678778447
 31
0.0
  0
LINE
  5
A2
330
4D
100
AcDbEntity
  8
1
  6
Continuous
 62
     7
100
AcDbLine
 10
281.3850832981248
 20
246.918456612231
 30
0.0
 11
281.6139281255773
 21
242.8191678778447
 31
0.0
  0
LINE
  5
A3
330
4D
100
AcDbEntity
  8
1
  6
Continuous
 62
     7
100
AcDbLine
 10
309.4371660247795
 20
241.8984628593034
 30
0.0
 11
336.2635527285089
 21
241.8984628593027
 31
0.0
  0
LINE
  5
A4
330
4D
100
AcDbEntity
  8
1
  6
Continuous
 62
     7
100
AcDbLine
 10
309.4371660247795
 20
242.8191678778447
 30
0.0
 11
337.2604039239817
 21
242.8191678778447
 31
0.0
  0
LINE
  5
A5
330
4D
100
AcDbEntity
  8
1
  6
Continuous
 62
     7
100
AcDbLine
 10
337.2604039239817
 20
242.8191678778447
 30
0.0
 11
337.4892487514342
 21
246.918456612231
 31
0.0
  0
ARC
  5
A6
330
4D
100
AcDbEntity
  8
1
  6
Continuous
 62
     7
100
AcDbCircle
 10
132.1439836324583
 20
242.8984628593028
 30
0.0
 40
0.9999999999999959
100
AcDbArc
 50
184.5480424091278
 51
270.0
  0
ARC
  5
A7
330
4D
100
AcDbEntity
  8
1
  6
Continuous
 62
     7
100
AcDbCircle
 10
185.796757039917
 20
242.8984628593027
 30
0.0
 40
1.0
100
AcDbArc
 50
270.0
 51
355.4519575908787
  0
ARC
  5
A8
330
4D
100
AcDbEntity
  8
1
  6
Continuous
 62
     7
100
AcDbCircle
 10
282.6107793210501
 20
242.8984628593027
 30
0.0
 40
0.9999999999999869
100
AcDbArc
 50
184.5480424091213
 51
270.0
  0
ARC
  5
A9
330
4D
100
AcDbEntity
  8
1
  6
Continuous
 62
     7
100
AcDbCircle
 10
336.2635527285089
 20
242.8984628593027
 30
0.0
 40
1.0
100
AcDbArc
 50
270.0
 51
355.4519575908787
  0
ENDBLK
  5
4F
330
4D
100
AcDbEntity
  8
0
100
AcDbBlockEnd
  0
BLOCK
  5
51
330
50
100
AcDbEntity
  8
0
100
AcDbBlockBegin
  2
06
 70
     0
 10
342.443917451623
 20
154.3984628593028
 30
0.0
  3
06
  1

  0
LINE
  5
AA
330
50
100
AcDbEntity
  8
1
  6
Continuous
 62
     7
100
AcDbLine
 10
152.4703703361877
 20
154.3984628593028
 30
0.0
 11
165.4703703361877
 21
154.3984628593028
 31
0.0
  0
LINE
  5
AB
330
50
100
AcDbEntity
  8
1
  6
Continuous
 62
     7
100
AcDbLine
 10
135.9703703361877
 20
241.8984628593028
 30
0.0
 11
135.9703703361877
 21
170.8984628593028
 31
0.0
  0
LINE
  5
AC
330
50
100
AcDbEntity
  8
1
  6
Continuous
 62
     7
100
AcDbLine
 10
181.9703703361878
 20
241.8984628593028
 30
0.0
 11
181.9703703361878
 21
239.8984628593028
 31
0.0
  0
LINE
  5
AD
330
50
100
AcDbEntity
  8
1
  6
Continuous
 62
     7
100
AcDbLine
 10
164.0049176119654
 20
237.5179154774875
 30
0.0
 11
180.4703703361878
 21
239.8984628593028
 31
0.0
  0
LINE
  5
AE
330
50
100
AcDbEntity
  8
1
  6
Continuous
 62
     7
100
AcDbLine
 10
180.4703703361878
 20
239.8984628593028
 30
0.0
 11
181.9703703361878
 21
239.8984628593028
 31
0.0
  0
LINE
  5
AF
330
50
100
AcDbEntity
  8
1
  6
Continuous
 62
     7
100
AcDbLine
 10
159.7203703361878
 20
232.5693674682829
 30
0.0
 11
159.7203703361878
 21
224.8984628593028
 31
0.0
  0
LINE
  5
B0
330
50
100
AcDbEntity
  8
1
  6
Continuous
 62
     7
100
AcDbLine
 10
181.9703703361878
 20
224.8984628593028
 30
0.0
 11
159.7203703361878
 21
224.8984628593028
 31
0.0
  0
LINE
  5
B1
330
50
100
AcDbEntity
  8
1
  6
Continuous
 62
     7
100
AcDbLine
 10
181.9703703361878
 20
224.8984628593028
 30
0.0
 11
181.9703703361877
 21
170.8984628593028
 31
0.0
  0
LINE
  5
B2
330
50
100
AcDbEntity
  8
1
  6
Continuous
 62
     7
100
AcDbLine
 10
302.9371660247795
 20
154.3984628593028
 30
0.0
 11
315.9371660247795
 21
154.3984628593028
 31
0.0
  0
LINE
  5
B3
330
50
100
AcDbEntity
  8
1
  6
Continuous
 62
     7
100
AcDbLine
 10
332.4371660247796
 20
241.8984628593028
 30
0.0
 11
332.4371660247796
 21
239.8984628593028
 31
0.0
  0
LINE
  5
B4
330
50
100
AcDbEntity
  8
1
  6
Continuous
 62
     7
100
AcDbLine
 10
332.4371660247796
 20
239.8984628593028
 30
0.0
 11
332.4371660247796
 21
232.8808828665111
 31
0.0
  0
LINE
  5
B5
330
50
100
AcDbEntity
  8
1
  6
Continuous
 62
     7
100
AcDbLine
 10
286.4371660247795
 20
241.8984628593028
 30
0.0
 11
286.4371660247795
 21
232.8808828665111
 31
0.0
  0
LINE
  5
B6
330
50
100
AcDbEntity
  8
1
  6
Continuous
 62
     7
100
AcDbLine
 10
286.4371660247795
 20
224.8984628593028
 30
0.0
 11
332.4371660247796
 21
224.8984628593028
 31
0.0
  0
LINE
  5
B7
330
50
100
AcDbEntity
  8
1
  6
Continuous
 62
     7
100
AcDbLine
 10
332.4371660247796
 20
224.8984628593028
 30
0.0
 11
332.4371660247795
 21
170.8984628593028
 31
0.0
  0
LINE
  5
B8
330
50
100
AcDbEntity
  8
1
  6
Continuous
 62
     7
100
AcDbLine
 10
286.4371660247795
 20
224.8984628593028
 30
0.0
 11
286.4371660247795
 21
170.8984628593028
 31
0.0
  0
LINE
  5
B9
330
50
100
AcDbEntity
  8
1
  6
Continuous
 62
     7
100
AcDbLine
 10
292.3935100306371
 20
239.8984628593028
 30
0.0
 11
326.4808220189218
 21
239.8984628593028
 31
0.0
  0
LINE
  5
BA
330
50
100
AcDbEntity
  8
1
  6
Continuous
 62
     7
100
AcDbLine
 10
286.4371660247795
 20
232.8808828665111
 30
0.0
 11
286.4371660247795
 21
224.8984628593028
 31
0.0
  0
LINE
  5
BB
330
50
100
AcDbEntity
  8
1
  6
Continuous
 62
     7
100
AcDbLine
 10
332.4371660247796
 20
232.8808828665111
 30
0.0
 11
332.4371660247796
 21
224.8984628593028
 31
0.0
  0
ARC
  5
BC
330
50
100
AcDbEntity
  8
1
  6
Continuous
 62
     7
100
AcDbCircle
 10
165.4703703361877
 20
170.8984628593028
 30
0.0
 40
16.5
100
AcDbArc
 50
270.0
 51
0.0
  0
ARC
  5
BD
330
50
100
AcDbEntity
  8
1
  6
Continuous
 62
     7
100
AcDbCircle
 10
152.4703703361877
 20
170.8984628593028
 30
0.0
 40
16.5
100
AcDbArc
 50
180.0
 51
270.0
  0
ARC
  5
BE
330
50
100
AcDbEntity
  8
1
  6
Continuous
 62
     7
100
AcDbCircle
 10
164.7203703361878
 20
232.5693674682829
 30
0.0
 40
4.999999999999995
100
AcDbArc
 50
98.22672246410893
 51
180.0
  0
ARC
  5
BF
330
50
100
AcDbEntity
  8
1
  6
Continuous
 62
     7
100
AcDbCircle
 10
315.9371660247795
 20
170.8984628593028
 30
0.0
 40
16.5
100
AcDbArc
 50
270.0
 51
0.0
  0
ARC
  5
C0
330
50
100
AcDbEntity
  8
1
  6
Continuous
 62
     7
100
AcDbCircle
 10
302.9371660247795
 20
170.8984628593028
 30
0.0
 40
16.5
100
AcDbArc
 50
180.0
 51
270.0
  0
ARC
  5
C1
330
50
100
AcDbEntity
  8
1
  6
Continuous
 62
     7
100
AcDbCircle
 10
293.4304145979361
 20
233.1882497385735
 30
0.0
 40
7.000000000000064
100
AcDbArc
 50
121.2284908931221
 51
182.5166412193228
  0
ARC
  5
C2
330
50
100
AcDbEntity
  8
1
  6
Continuous
 62
     7
100
AcDbCircle
 10
325.443917451623
 20
233.1882497385735
 30
0.0
 40
6.999999999999838
100
AcDbArc
 50
357.4833587806772
 51
58.77150910687991
  0
ARC
  5
C3
330
50
100
AcDbEntity
  8
1
  6
Continuous
 62
     7
100
AcDbCircle
 10
326.4808220189218
 20
234.8984628593028
 30
0.0
 40
4.999999999999963
100
AcDbArc
 50
58.77150910687887
 51
90.0
  0
ARC
  5
C4
330
50
100
AcDbEntity
  8
1
  6
Continuous
 62
     7
100
AcDbCircle
 10
292.3935100306371
 20
234.8984628593028
 30
0.0
 40
5.0
100
AcDbArc
 50
90.0
 51
121.2284908931223
  0
ENDBLK
  5
52
330
50
100
AcDbEntity
  8
0
100
AcDbBlockEnd
  0
BLOCK
  5
54
330
53
100
AcDbEntity
  8
0
100
AcDbBlockBegin
  2
02
 70
     0
 10
338.4703703361876
 20
272.3946573214327
 30
0.0
  3
02
  1

  0
LINE
  5
C5
330
53
100
AcDbEntity
  8
1
  6
Continuous
 62
     7
100
AcDbLine
 10
139.9371660247795
 20
302.3946573214327
 30
0.0
 11
139.9371660247795
 21
272.3946573214327
 31
0.0
  0
LINE
  5
C6
330
53
100
AcDbEntity
  8
1
  6
Continuous
 62
     7
100
AcDbLine
 10
175.9371660247795
 20
322.3946573214327
 30
0.0
 11
159.9371660247795
 21
322.3946573214327
 31
0.0
  0
LINE
  5
C7
330
53
100
AcDbEntity
  8
1
  6
Continuous
 62
     7
100
AcDbLine
 10
173.5696174551872
 20
322.3946573214327
 30
0.0
 11
182.7729524624065
 21
322.3946573214327
 31
0.0
  0
LINE
  5
C8
330
53
100
AcDbEntity
  8
1
  6
Continuous
 62
     7
100
AcDbLine
 10
192.8055813045108
 20
320.7091469648762
 30
0.0
 11
186.4371660247795
 21
320.3946573214327
 31
0.0
  0
LINE
  5
C9
330
53
100
AcDbEntity
  8
1
  6
Continuous
 62
     7
100
AcDbLine
 10
202.6226887563889
 20
321.1939423945985
 30
0.0
 11
196.5347017752248
 21
320.8933010621954
 31
0.0
  0
LINE
  5
CA
330
53
100
AcDbEntity
  8
1
  6
Continuous
 62
     7
100
AcDbLine
 10
182.7729524624065
 20
322.3946573214327
 30
0.0
 11
182.7729524624065
 21
303.1918062026713
 31
0.0
  0
LINE
  5
CB
330
53
100
AcDbEntity
  8
1
  6
Continuous
 62
     7
100
AcDbLine
 10
186.4371660247795
 20
320.3946573214327
 30
0.0
 11
186.4371660247794
 21
303.1918062026713
 31
0.0
  0
LINE
  5
CC
330
53
100
AcDbEntity
  8
1
  6
Continuous
 62
     7
100
AcDbLine
 10
186.4371660247795
 20
320.6446573214327
 30
0.0
 11
186.4371660247795
 21
320.3946573214327
 31
0.0
  0
LINE
  5
CD
330
53
100
AcDbEntity
  8
1
  6
Continuous
 62
     7
100
AcDbLine
 10
196.5347017752248
 20
285.8960135806699
 30
0.0
 11
202.6226887563889
 21
285.5953722482668
 31
0.0
  0
LINE
  5
CE
330
53
100
AcDbEntity
  8
1
  6
Continuous
 62
     7
100
AcDbLine
 10
186.4371660247795
 20
286.3946573214327
 30
0.0
 11
194.6178233162186
 21
285.9906742453122
 31
0.0
  0
LINE
  5
CF
330
53
100
AcDbEntity
  8
1
  6
Continuous
 62
     7
100
AcDbLine
 10
186.4371660247794
 20
303.5975084401941
 30
0.0
 11
186.4371660247795
 21
286.3946573214327
 31
0.0
  0
LINE
  5
D0
330
53
100
AcDbEntity
  8
1
  6
Continuous
 62
     7
100
AcDbLine
 10
182.7729524624065
 20
303.5975084401941
 30
0.0
 11
182.7729524624065
 21
284.3946573214327
 31
0.0
  0
LINE
  5
D1
330
53
100
AcDbEntity
  8
1
  6
Continuous
 62
     7
100
AcDbLine
 10
186.4371660247795
 20
286.3946573214327
 30
0.0
 11
186.4371660247795
 21
286.1446573214327
 31
0.0
  0
LINE
  5
D2
330
53
100
AcDbEntity
  8
1
  6
Continuous
 62
     7
100
AcDbLine
 10
182.7729524624065
 20
284.3946573214327
 30
0.0
 11
178.0035746475958
 21
284.3946573214327
 31
0.0
  0
LINE
  5
D3
330
53
100
AcDbEntity
  8
1
  6
Continuous
 62
     7
100
AcDbLine
 10
178.0035746475958
 20
272.3946573214327
 30
0.0
 11
178.0035746475958
 21
284.3946573214327
 31
0.0
  0
LINE
  5
D4
330
53
100
AcDbEntity
  8
1
  6
Continuous
 62
     7
100
AcDbLine
 10
226.9371660247794
 20
468.2848264956665
 30
0.0
 11
217.348011800082
 21
467.8704803254635
 31
0.0
  0
LINE
  5
D5
330
53
100
AcDbEntity
  8
1
  6
Continuous
 62
     7
100
AcDbLine
 10
226.9371660247794
 20
430.2848264956665
 30
0.0
 11
219.0337514244917
 21
430.680987628513
 31
0.0
  0
LINE
  5
D6
330
53
100
AcDbEntity
  8
1
  6
Continuous
 62
     7
100
AcDbLine
 10
186.4371660247794
 20
466.5348264956665
 30
0.0
 11
186.4371660247794
 21
432.2848264956665
 31
0.0
  0
LINE
  5
D7
330
53
100
AcDbEntity
  8
1
  6
Continuous
 62
     7
100
AcDbLine
 10
182.7729524624063
 20
468.2848264956665
 30
0.0
 11
182.7729524624063
 21
430.2848264956665
 31
0.0
  0
LINE
  5
D8
330
53
100
AcDbEntity
  8
1
  6
Continuous
 62
     7
100
AcDbLine
 10
186.4371660247794
 20
432.2848264956665
 30
0.0
 11
186.4371660247794
 21
432.0348264956665
 31
0.0
  0
LINE
  5
D9
330
53
100
AcDbEntity
  8
1
  6
Continuous
 62
     7
100
AcDbLine
 10
158.9703703361876
 20
430.2848264956665
 30
0.0
 11
182.7729524624063
 21
430.2848264956665
 31
0.0
  0
LINE
  5
DA
330
53
100
AcDbEntity
  8
1
  6
Continuous
 62
     7
100
AcDbLine
 10
181.9729524624063
 20
468.2848264956665
 30
0.0
 11
170.9549271128052
 21
468.2848264956664
 31
0.0
  0
LINE
  5
DB
330
53
100
AcDbEntity
  8
1
  6
Continuous
 62
     7
100
AcDbLine
 10
158.9703703361876
 20
468.2848264956665
 30
0.0
 11
182.7729524624063
 21
468.2848264956665
 31
0.0
  0
LINE
  5
DC
330
53
100
AcDbEntity
  8
1
  6
Continuous
 62
     7
100
AcDbLine
 10
226.9371660247794
 20
468.2848264956665
 30
0.0
 11
226.9371660247794
 21
430.2848264956665
 31
0.0
  0
LINE
  5
DD
330
53
100
AcDbEntity
  8
1
  6
Continuous
 62
     7
100
AcDbLine
 10
328.4703703361876
 20
272.3946573214327
 30
0.0
 11
328.4703703361876
 21
293.8190535956163
 31
0.0
  0
LINE
  5
DE
330
53
100
AcDbEntity
  8
1
  6
Continuous
 62
     7
100
AcDbLine
 10
290.4039617133713
 20
293.832903630807
 30
0.0
 11
290.4039617133713
 21
272.3946573214327
 31
0.0
  0
LINE
  5
DF
330
53
100
AcDbEntity
  8
1
  6
Continuous
 62
     7
100
AcDbLine
 10
194.6178233162186
 20
285.9906742453122
 30
0.0
 11
196.5347017752248
 21
285.8960135806699
 31
0.0
  0
LINE
  5
E0
330
53
100
AcDbEntity
  8
1
  6
Continuous
 62
     7
100
AcDbLine
 10
192.8055813045108
 20
320.7091469648762
 30
0.0
 11
196.5347017752248
 21
320.8933010621954
 31
0.0
  0
LINE
  5
E1
330
53
100
AcDbEntity
  8
1
  6
Continuous
 62
     7
100
AcDbLine
 10
187.0371660247794
 20
432.2848264956665
 30
0.0
 11
186.4371660247794
 21
432.2848264956665
 31
0.0
  0
LINE
  5
E2
330
53
100
AcDbEntity
  8
1
  6
Continuous
 62
     7
100
AcDbLine
 10
204.83229518773
 20
431.3928400714584
 30
0.0
 11
187.0371660247794
 21
432.2848264956665
 31
0.0
  0
LINE
  5
E3
330
53
100
AcDbEntity
  8
1
  6
Continuous
 62
     7
100
AcDbLine
 10
216.7359833887972
 20
430.7961639711543
 30
0.0
 11
207.1361908961231
 21
431.2773565773034
 31
0.0
  0
LINE
  5
E4
330
53
100
AcDbEntity
  8
1
  6
Continuous
 62
     7
100
AcDbLine
 10
206.5188914971396
 20
467.4025553741018
 30
0.0
 11
186.4371660247794
 21
466.5348264956665
 31
0.0
  0
LINE
  5
E5
330
53
100
AcDbEntity
  8
1
  6
Continuous
 62
     7
100
AcDbLine
 10
202.6226887563889
 20
321.1939423945985
 30
0.0
 11
204.3513640624928
 21
321.2793090763815
 31
0.0
  0
LINE
  5
E6
330
53
100
AcDbEntity
  8
1
  6
Continuous
 62
     7
100
AcDbLine
 10
202.6226887563889
 20
285.5953722482668
 30
0.0
 11
204.6178233162186
 21
285.4968470848184
 31
0.0
  0
LINE
  5
E7
330
53
100
AcDbEntity
  8
1
  6
Continuous
 62
     7
100
AcDbLine
 10
204.6178233162186
 20
285.4968470848184
 30
0.0
 11
205.3734711275498
 21
285.4595311435181
 31
0.0
  0
LINE
  5
E8
330
53
100
AcDbEntity
  8
1
  6
Continuous
 62
     7
100
AcDbLine
 10
226.9371660247795
 20
322.3946573214327
 30
0.0
 11
226.9371660247795
 21
284.3946573214327
 31
0.0
  0
LINE
  5
E9
330
53
100
AcDbEntity
  8
1
  6
Continuous
 62
     7
100
AcDbLine
 10
207.6776541754257
 20
285.345744326339
 30
0.0
 11
216.1846904255599
 21
284.9256437707768
 31
0.0
  0
LINE
  5
EA
330
53
100
AcDbEntity
  8
1
  6
Continuous
 62
     7
100
AcDbLine
 10
218.4823888628124
 20
284.8121771812829
 30
0.0
 11
226.9371660247795
 21
284.3946573214327
 31
0.0
  0
LINE
  5
EB
330
53
100
AcDbEntity
  8
1
  6
Continuous
 62
     7
100
AcDbLine
 10
217.2401937416665
 20
321.915794492637
 30
0.0
 11
206.6178233162186
 21
321.3912329901457
 31
0.0
  0
LINE
  5
EC
330
53
100
AcDbEntity
  8
1
  6
Continuous
 62
     7
100
AcDbLine
 10
226.9371660247795
 20
322.3946573214327
 30
0.0
 11
219.5443767895425
 21
322.029581309816
 31
0.0
  0
ARC
  5
ED
330
53
100
AcDbEntity
  8
1
  6
Continuous
 62
     7
100
AcDbCircle
 10
159.9371660247795
 20
302.3946573214327
 30
0.0
 40
20.0
100
AcDbArc
 50
90.0
 51
180.0
  0
ARC
  5
EE
330
53
100
AcDbEntity
  8
1
  6
Continuous
 62
     7
100
AcDbCircle
 10
184.1871660247795
 20
320.6446573214326
 30
0.0
 40
2.25
100
AcDbArc
 50
0.0000000000029
 51
90.0
  0
ARC
  5
EF
330
53
100
AcDbEntity
  8
1
  6
Continuous
 62
     7
100
AcDbCircle
 10
184.1871660247795
 20
320.6446573214326
 30
0.0
 40
2.25
100
AcDbArc
 50
90.0
 51
128.9424412689775
  0
ARC
  5
F0
330
53
100
AcDbEntity
  8
1
  6
Continuous
 62
     7
100
AcDbCircle
 10
184.1871660247795
 20
286.1446573214327
 30
0.0
 40
2.25
100
AcDbArc
 50
270.0
 51
0.0
  0
ARC
  5
F1
330
53
100
AcDbEntity
  8
1
  6
Continuous
 62
     7
100
AcDbCircle
 10
184.1871660247795
 20
286.1446573214327
 30
0.0
 40
2.249999999999936
100
AcDbArc
 50
231.0575587310207
 51
270.0
  0
ARC
  5
F2
330
53
100
AcDbEntity
  8
1
  6
Continuous
 62
     7
100
AcDbCircle
 10
184.1871660247794
 20
466.5348264956665
 30
0.0
 40
2.25
100
AcDbArc
 50
90.0
 51
128.9424412689816
  0
ARC
  5
F3
330
53
100
AcDbEntity
  8
1
  6
Continuous
 62
     7
100
AcDbCircle
 10
184.1871660247794
 20
466.5348264956665
 30
0.0
 40
2.25
100
AcDbArc
 50
0.0
 51
90.0
  0
ARC
  5
F4
330
53
100
AcDbEntity
  8
1
  6
Continuous
 62
     7
100
AcDbCircle
 10
184.1871660247794
 20
432.0348264956665
 30
0.0
 40
2.25
100
AcDbArc
 50
270.0
 51
0.0
  0
ARC
  5
F5
330
53
100
AcDbEntity
  8
1
  6
Continuous
 62
     7
100
AcDbCircle
 10
184.1871660247794
 20
432.0348264956665
 30
0.0
 40
2.250000000000007
100
AcDbArc
 50
231.0575587310184
 51
270.0
  0
ARC
  5
F6
330
53
100
AcDbEntity
  8
1
  6
Continuous
 62
     7
100
AcDbCircle
 10
158.9703703361876
 20
449.2848264956665
 30
0.0
 40
19.00000000000002
100
AcDbArc
 50
86.59223725263274
 51
274.5079260498673
  0
CIRCLE
  5
F7
330
53
100
AcDbEntity
  8
1
  6
Continuous
 62
     7
100
AcDbCircle
 10
309.4371660247795
 20
303.3946573214327
 30
0.0
 40
19.0
  0
CIRCLE
  5
F8
330
53
100
AcDbEntity
  8
1
  6
Continuous
 62
     7
100
AcDbCircle
 10
309.4371660247795
 20
303.3946573214327
 30
0.0
 40
17.0
  0
ENDBLK
  5
55
330
53
100
AcDbEntity
  8
0
100
AcDbBlockEnd
  0
BLOCK
  5
57
330
56
100
AcDbEntity
  8
0
100
AcDbBlockBegin
  2
ring
 70
     0
 10
-231.3300751312508
 20
297.4012437219993
 30
0.0
  3
ring
  1

  0
LINE
  5
F9
330
56
100
AcDbEntity
  8
1
  6
Continuous
 62
     7
100
AcDbLine
 10
217.1801991369218
 20
447.708432365295
 30
0.0
 11
217.2537436234308
 21
450.5084323652951
 31
0.0
  0
LINE
  5
FA
330
56
100
AcDbEntity
  8
1
  6
Continuous
 62
     7
100
AcDbLine
 10
206.7667067808637
 20
445.1373735724213
 30
0.0
 11
207.1617571314788
 21
430.3183208788873
 31
0.0
  0
LINE
  5
FB
330
56
100
AcDbEntity
  8
1
  6
Continuous
 62
     7
100
AcDbLine
 10
204.3573622667366
 20
449.208432365295
 30
0.0
 11
206.4240429999499
 21
449.208432365295
 31
0.0
  0
LINE
  5
FC
330
56
100
AcDbEntity
  8
1
  6
Continuous
 62
     7
100
AcDbLine
 10
206.6235236298769
 20
450.5084323652951
 30
0.0
 11
206.6981667939576
 21
447.708432365295
 31
0.0
  0
LINE
  5
FD
330
56
100
AcDbEntity
  8
1
  6
Continuous
 62
     7
100
AcDbLine
 10
217.3719401196059
 20
455.0084323652951
 30
0.0
 11
217.4502175971922
 21
457.9886277224944
 31
0.0
  0
LINE
  5
FE
330
56
100
AcDbEntity
  8
1
  6
Continuous
 62
     7
100
AcDbLine
 10
219.5203912135951
 20
449.208432365295
 30
0.0
 11
219.0117700186668
 21
429.8441072690036
 31
0.0
  0
LINE
  5
FF
330
56
100
AcDbEntity
  8
1
  6
Continuous
 62
     7
100
AcDbLine
 10
207.9508011445683
 20
445.0084323652951
 30
0.0
 11
215.9290754679719
 21
445.0084323652951
 31
0.0
  0
LINE
  5
100
330
56
100
AcDbEntity
  8
1
  6
Continuous
 62
     7
100
AcDbLine
 10
207.9508011445683
 20
442.708432365295
 30
0.0
 11
215.9290754679719
 21
442.708432365295
 31
0.0
  0
LINE
  5
101
330
56
100
AcDbEntity
  8
1
  6
Continuous
 62
     7
100
AcDbLine
 10
217.079075467972
 20
443.858432365295
 30
0.0
 11
217.1127601207218
 21
445.1408810188476
 31
0.0
  0
LINE
  5
102
330
56
100
AcDbEntity
  8
1
  6
Continuous
 62
     7
100
AcDbLine
 10
216.7125629897948
 20
429.9044979834023
 30
0.0
 11
217.079075467972
 21
443.858432365295
 31
0.0
  0
LINE
  5
103
330
56
100
AcDbEntity
  8
1
  6
Continuous
 62
     7
100
AcDbLine
 10
206.4241025240814
 20
457.9890784915061
 30
0.0
 11
206.5035614018903
 21
455.0084323652951
 31
0.0
  0
LINE
  5
104
330
56
100
AcDbEntity
  8
1
  6
Continuous
 62
     7
100
AcDbLine
 10
204.8625739591776
 20
430.2570286264653
 30
0.0
 11
204.3573622667366
 21
449.208432365295
 31
0.0
  0
LINE
  5
105
330
56
100
AcDbEntity
  8
1
  6
Continuous
 62
     7
100
AcDbLine
 10
204.1249788759118
 20
455.0084323652951
 30
0.0
 11
204.1249788759118
 21
457.9256293411926
 31
0.0
  0
LINE
  5
106
330
56
100
AcDbEntity
  8
1
  6
Continuous
 62
     7
100
AcDbLine
 10
206.4240429999499
 20
455.0084323652951
 30
0.0
 11
206.4240429999499
 21
457.9256293411926
 31
0.0
  0
LINE
  5
107
330
56
100
AcDbEntity
  8
1
  6
Continuous
 62
     7
100
AcDbLine
 10
219.7493531736473
 20
455.0084323652951
 30
0.0
 11
219.7493531736473
 21
457.9256293411926
 31
0.0
  0
LINE
  5
108
330
56
100
AcDbEntity
  8
1
  6
Continuous
 62
     7
100
AcDbLine
 10
217.4502890496091
 20
455.0084323652951
 30
0.0
 11
217.4502890496091
 21
457.9256293411926
 31
0.0
  0
LINE
  5
109
330
56
100
AcDbEntity
  8
1
  6
Continuous
 62
     7
100
AcDbLine
 10
204.1249788759118
 20
449.208432365295
 30
0.0
 11
204.1249788759118
 21
450.5084323652951
 31
0.0
  0
LINE
  5
10A
330
56
100
AcDbEntity
  8
1
  6
Continuous
 62
     7
100
AcDbLine
 10
206.4240429999499
 20
449.208432365295
 30
0.0
 11
206.4240429999499
 21
450.5084323652951
 31
0.0
  0
LINE
  5
10B
330
56
100
AcDbEntity
  8
1
  6
Continuous
 62
     7
100
AcDbLine
 10
219.7493531736473
 20
449.208432365295
 30
0.0
 11
219.7493531736473
 21
450.5084323652951
 31
0.0
  0
LINE
  5
10C
330
56
100
AcDbEntity
  8
1
  6
Continuous
 62
     7
100
AcDbLine
 10
217.4502890496091
 20
449.208432365295
 30
0.0
 11
217.4502890496091
 21
450.5084323652951
 31
0.0
  0
LINE
  5
10D
330
56
100
AcDbEntity
  8
1
  6
Continuous
 62
     7
100
AcDbLine
 10
217.4502890496091
 20
449.208432365295
 30
0.0
 11
219.7493531736473
 21
449.208432365295
 31
0.0
  0
LINE
  5
10E
330
56
100
AcDbEntity
  8
1
  6
Continuous
 62
     7
100
AcDbLine
 10
204.1249788759118
 20
449.208432365295
 30
0.0
 11
204.3573622667366
 21
449.208432365295
 31
0.0
  0
LINE
  5
10F
330
56
100
AcDbEntity
  8
1
  6
Continuous
 62
     7
100
AcDbLine
 10
302.4371660247795
 20
334.3446573214326
 30
0.0
 11
302.4371660247795
 21
326.6946573214327
 31
0.0
  0
LINE
  5
110
330
56
100
AcDbEntity
  8
1
  6
Continuous
 62
     7
100
AcDbLine
 10
314.7371660247795
 20
324.6946573214327
 30
0.0
 11
309.4371660247795
 21
324.6946573214327
 31
0.0
  0
LINE
  5
111
330
56
100
AcDbEntity
  8
1
  6
Continuous
 62
     7
100
AcDbLine
 10
314.7371660247795
 20
322.3946573214327
 30
0.0
 11
309.56335650097
 21
322.3946573214327
 31
0.0
  0
LINE
  5
112
330
56
100
AcDbEntity
  8
1
  6
Continuous
 62
     7
100
AcDbLine
 10
304.7371660247795
 20
326.6946573214327
 30
0.0
 11
304.7371660247795
 21
334.3446573214326
 31
0.0
  0
LINE
  5
113
330
56
100
AcDbEntity
  8
1
  6
Continuous
 62
     7
100
AcDbLine
 10
308.9371660247795
 20
330.5946573214326
 30
0.0
 11
308.9371660247795
 21
328.2946573214327
 31
0.0
  0
LINE
  5
114
330
56
100
AcDbEntity
  8
1
  6
Continuous
 62
     7
100
AcDbLine
 10
308.9371660247795
 20
328.2946573214327
 30
0.0
 11
310.2371660247795
 21
328.2946573214327
 31
0.0
  0
LINE
  5
115
330
56
100
AcDbEntity
  8
1
  6
Continuous
 62
     7
100
AcDbLine
 10
309.4371660247795
 20
324.6946573214327
 30
0.0
 11
306.7371660247795
 21
324.6946573214327
 31
0.0
  0
LINE
  5
116
330
56
100
AcDbEntity
  8
1
  6
Continuous
 62
     7
100
AcDbLine
 10
310.2371660247795
 20
330.5946573214326
 30
0.0
 11
308.9371660247795
 21
330.5946573214326
 31
0.0
  0
LINE
  5
117
330
56
100
AcDbEntity
  8
1
  6
Continuous
 62
     7
100
AcDbLine
 10
216.1376339627604
 20
283.2109423338312
 30
0.0
 11
216.0930628086688
 21
284.7729399917621
 31
0.0
  0
LINE
  5
118
330
56
100
AcDbEntity
  8
1
  6
Continuous
 62
     7
100
AcDbLine
 10
217.2876339212133
 20
323.5783372482388
 30
0.0
 11
217.2442096155892
 21
322.0565309350656
 31
0.0
  0
LINE
  5
119
330
56
100
AcDbEntity
  8
1
  6
Continuous
 62
     7
100
AcDbLine
 10
218.4366981283456
 20
283.2109437898509
 30
0.0
 11
219.5474384162688
 21
322.136876125787
 31
0.0
  0
LINE
  5
11A
330
56
100
AcDbEntity
  8
1
  6
Continuous
 62
     7
100
AcDbLine
 10
207.4123041463264
 20
331.4222816308249
 30
0.0
 11
206.5935196159398
 21
323.6662539122005
 31
0.0
  0
LINE
  5
11B
330
56
100
AcDbEntity
  8
1
  6
Continuous
 62
     7
100
AcDbLine
 10
208.8866980867986
 20
323.512732656054
 30
0.0
 11
208.8367770566447
 21
321.7632484039396
 31
0.0
  0
LINE
  5
11C
330
56
100
AcDbEntity
  8
1
  6
Continuous
 62
     7
100
AcDbLine
 10
207.7366981283456
 20
283.2765469260159
 30
0.0
 11
206.640677157812
 21
321.6866402679338
 31
0.0
  0
LINE
  5
11D
330
56
100
AcDbEntity
  8
1
  6
Continuous
 62
     7
100
AcDbLine
 10
204.2876339212134
 20
323.5127341120738
 30
0.0
 11
204.3420290513591
 21
321.6064548688715
 31
0.0
  0
LINE
  5
11E
330
56
100
AcDbEntity
  8
1
  6
Continuous
 62
     7
100
AcDbLine
 10
209.699596964006
 20
331.1808451667366
 30
0.0
 11
208.8808124336193
 21
323.4248174481121
 31
0.0
  0
LINE
  5
11F
330
56
100
AcDbEntity
  8
1
  6
DASH_CENTER
 62
     2
100
AcDbLine
 10
211.9371660247795
 20
280.8805308774647
 30
0.0
 11
211.9371660247795
 21
342.6063367736169
 31
0.0
  0
LINE
  5
120
330
56
100
AcDbEntity
  8
1
  6
Continuous
 62
     7
100
AcDbLine
 10
219.7210197158492
 20
328.4189513849292
 30
0.0
 11
219.7493531736473
 21
329.4118542973304
 31
0.0
  0
LINE
  5
121
330
56
100
AcDbEntity
  8
1
  6
Continuous
 62
     7
100
AcDbLine
 10
217.4109987387056
 20
328.1005911895231
 30
0.0
 11
217.4502890496092
 21
329.477460345535
 31
0.0
  0
LINE
  5
122
330
56
100
AcDbEntity
  8
1
  6
Continuous
 62
     7
100
AcDbLine
 10
214.9935196159396
 20
323.4248174481121
 30
0.0
 11
214.1747350855531
 21
331.1808451667366
 31
0.0
  0
LINE
  5
123
330
56
100
AcDbEntity
  8
1
  6
Continuous
 62
     7
100
AcDbLine
 10
217.2808124336192
 20
323.6662539122005
 30
0.0
 11
216.4620279032326
 21
331.4222816308249
 31
0.0
  0
LINE
  5
124
330
56
100
AcDbEntity
  8
1
  6
Continuous
 62
     7
100
AcDbLine
 10
204.1249788759118
 20
329.4118542973304
 30
0.0
 11
204.1533123337098
 21
328.4189513849292
 31
0.0
  0
LINE
  5
125
330
56
100
AcDbEntity
  8
1
  6
Continuous
 62
     7
100
AcDbLine
 10
206.4240429999499
 20
329.477460345535
 30
0.0
 11
206.4633333108534
 21
328.1005911895231
 31
0.0
  0
LINE
  5
126
330
56
100
AcDbEntity
  8
1
  6
Continuous
 62
     7
100
AcDbLine
 10
219.5474384162688
 20
322.136876125787
 30
0.0
 11
219.5866981283456
 21
323.5127341120738
 31
0.0
  0
LINE
  5
127
330
56
100
AcDbEntity
  8
1
  6
Continuous
 62
     7
100
AcDbLine
 10
215.0313888951986
 20
321.9793395145869
 30
0.0
 11
214.9876339627604
 21
323.512732656054
 31
0.0
  0
LINE
  5
128
330
56
100
AcDbEntity
  8
1
  6
Continuous
 62
     7
100
AcDbLine
 10
206.640677157812
 20
321.6866402679338
 30
0.0
 11
206.5866981283456
 21
323.5783372482388
 31
0.0
  0
LINE
  5
129
330
56
100
AcDbEntity
  8
1
  6
Continuous
 62
     7
100
AcDbLine
 10
217.2442096155892
 20
322.0565309350656
 30
0.0
 11
216.1376339212133
 21
283.2765469260159
 31
0.0
  0
LINE
  5
12A
330
56
100
AcDbEntity
  8
1
  6
Continuous
 62
     7
100
AcDbLine
 10
204.3420290513591
 20
321.6064548688715
 30
0.0
 11
205.4376339212134
 21
283.2109437898509
 31
0.0
  0
LINE
  5
12B
330
56
100
AcDbEntity
  8
1
  6
Continuous
 62
     7
100
AcDbLine
 10
207.7895345475757
 20
285.0625979543584
 30
0.0
 11
207.7366980867985
 21
283.2109423338312
 31
0.0
  0
LINE
  5
12C
330
56
100
AcDbEntity
  8
1
  6
Continuous
 62
     7
100
AcDbLine
 10
217.3313283102599
 20
469.4957346353738
 30
0.0
 11
217.4498816965669
 21
457.9466280572492
 31
0.0
  0
LINE
  5
12D
330
56
100
AcDbEntity
  8
1
  6
Continuous
 62
     7
100
AcDbLine
 10
206.5368344087251
 20
469.1990917138686
 30
0.0
 11
206.4244535858503
 21
457.9469473099675
 31
0.0
  0
LINE
  5
12E
330
56
100
AcDbEntity
  8
1
  6
Continuous
 62
     7
100
AcDbLine
 10
208.8350479729841
 20
469.12456776032
 30
0.0
 11
208.6940630322865
 21
455.0084323652951
 31
0.0
  0
LINE
  5
12F
330
56
100
AcDbEntity
  8
1
  6
Continuous
 62
     7
100
AcDbLine
 10
215.0320879598001
 20
469.4438384342326
 30
0.0
 11
215.1802696620479
 21
455.0084323652951
 31
0.0
  0
LINE
  5
130
330
56
100
AcDbEntity
  8
1
  6
Continuous
 62
     7
100
AcDbLine
 10
209.9371660247795
 20
337.4369202779398
 30
0.0
 11
209.9371660247795
 21
337.1946573214327
 31
0.0
  0
LINE
  5
131
330
56
100
AcDbEntity
  8
1
  6
Continuous
 62
     7
100
AcDbLine
 10
213.9371660247795
 20
337.4369202779398
 30
0.0
 11
213.9371660247795
 21
337.1946573214327
 31
0.0
  0
LINE
  5
132
330
56
100
AcDbEntity
  8
1
  6
Continuous
 62
     7
100
AcDbLine
 10
209.0148662665944
 20
324.6946573214327
 30
0.0
 11
214.8594657829645
 21
324.6946573214327
 31
0.0
  0
LINE
  5
133
330
56
100
AcDbEntity
  8
1
  6
Continuous
 62
     7
100
AcDbLine
 10
217.1722464468765
 20
324.6946573214327
 30
0.0
 11
220.6871660247795
 21
324.6946573214327
 31
0.0
  0
LINE
  5
134
330
56
100
AcDbEntity
  8
1
  6
Continuous
 62
     7
100
AcDbLine
 10
200.6871660247795
 20
334.6946573214327
 30
0.0
 11
200.6871660247795
 21
327.1946573214327
 31
0.0
  0
LINE
  5
135
330
56
100
AcDbEntity
  8
1
  6
DASH_CENTER
 62
     2
100
AcDbLine
 10
224.0380205786995
 20
330.9446573214327
 30
0.0
 11
199.8408529911743
 21
330.9446573214327
 31
0.0
  0
LINE
  5
136
330
56
100
AcDbEntity
  8
1
  6
Continuous
 62
     7
100
AcDbLine
 10
223.1871660247795
 20
327.1946573214327
 30
0.0
 11
223.1871660247795
 21
334.6946573214327
 31
0.0
  0
LINE
  5
137
330
56
100
AcDbEntity
  8
1
  6
Continuous
 62
     7
100
AcDbLine
 10
203.1871660247795
 20
324.6946573214327
 30
0.0
 11
206.7020856026825
 21
324.6946573214327
 31
0.0
  0
LINE
  5
138
330
56
100
AcDbEntity
  8
1
  6
Continuous
 62
     7
100
AcDbLine
 10
220.6871660247795
 20
337.1946573214327
 30
0.0
 11
203.1871660247795
 21
337.1946573214327
 31
0.0
  0
LINE
  5
139
330
56
100
AcDbEntity
  8
1
  6
Continuous
 62
     7
100
AcDbLine
 10
221.5871660247796
 20
327.1946573214327
 30
0.0
 11
221.5871660247796
 21
334.6946573214327
 31
0.0
  0
LINE
  5
13A
330
56
100
AcDbEntity
  8
1
  6
Continuous
 62
     7
100
AcDbLine
 10
202.2871660247795
 20
334.6946573214327
 30
0.0
 11
202.2871660247795
 21
327.1946573214327
 31
0.0
  0
LINE
  5
13B
330
56
100
AcDbEntity
  8
1
  6
Continuous
 62
     7
100
AcDbLine
 10
220.6871660247795
 20
335.5946573214327
 30
0.0
 11
214.8744266533244
 21
335.5946573214327
 31
0.0
  0
LINE
  5
13C
330
56
100
AcDbEntity
  8
1
  6
Continuous
 62
     7
100
AcDbLine
 10
203.1871660247795
 20
326.2946573214327
 30
0.0
 11
206.8709936179894
 21
326.2946573214327
 31
0.0
  0
LINE
  5
13D
330
56
100
AcDbEntity
  8
1
  6
Continuous
 62
     7
100
AcDbLine
 10
217.0033384315696
 20
326.2946573214327
 30
0.0
 11
220.6871660247795
 21
326.2946573214327
 31
0.0
  0
LINE
  5
13E
330
56
100
AcDbEntity
  8
1
  6
Continuous
 62
     7
100
AcDbLine
 10
208.9999053962347
 20
335.5946573214327
 30
0.0
 11
203.1871660247795
 21
335.5946573214327
 31
0.0
  0
LINE
  5
13F
330
56
100
AcDbEntity
  8
1
  6
DASH_CENTER
 62
     2
100
AcDbLine
 10
207.1771393957334
 20
329.1946573214327
 30
0.0
 11
202.8346966153256
 21
329.1946573214327
 31
0.0
  0
LINE
  5
140
330
56
100
AcDbEntity
  8
1
  6
DASH_CENTER
 62
     2
100
AcDbLine
 10
221.0573002204779
 20
329.1946573214327
 30
0.0
 11
216.6971926538258
 21
329.1946573214327
 31
0.0
  0
LINE
  5
141
330
56
100
AcDbEntity
  8
1
  6
DASH_CENTER
 62
     2
100
AcDbLine
 10
205.4371660247795
 20
331.9049436922563
 30
0.0
 11
205.4371660247795
 21
326.8141845898646
 31
0.0
  0
LINE
  5
142
330
56
100
AcDbEntity
  8
1
  6
DASH_CENTER
 62
     2
100
AcDbLine
 10
218.4371660247795
 20
326.6984855193557
 30
0.0
 11
218.4371660247795
 21
331.9627932275108
 31
0.0
  0
LINE
  5
143
330
56
100
AcDbEntity
  8
1
  6
Continuous
 62
     7
100
AcDbLine
 10
217.4371660247795
 20
447.708432365295
 30
0.0
 11
217.4371660247795
 21
445.7584323652951
 31
0.0
  0
LINE
  5
144
330
56
100
AcDbEntity
  8
1
  6
Continuous
 62
     7
100
AcDbLine
 10
206.4371660247795
 20
447.708432365295
 30
0.0
 11
217.4371660247795
 21
447.708432365295
 31
0.0
  0
LINE
  5
145
330
56
100
AcDbEntity
  8
1
  6
Continuous
 62
     7
100
AcDbLine
 10
216.6871660247795
 20
445.0084323652951
 30
0.0
 11
207.1871660247795
 21
445.0084323652951
 31
0.0
  0
LINE
  5
146
330
56
100
AcDbEntity
  8
1
  6
Continuous
 62
     7
100
AcDbLine
 10
206.4371660247795
 20
445.7584323652951
 30
0.0
 11
206.4371660247795
 21
447.708432365295
 31
0.0
  0
LINE
  5
147
330
56
100
AcDbEntity
  8
1
  6
Continuous
 62
     2
100
AcDbLine
 10
214.4371660247795
 20
450.5084323652951
 30
0.0
 11
214.4371660247795
 21
447.708432365295
 31
0.0
  0
LINE
  5
148
330
56
100
AcDbEntity
  8
1
  6
Continuous
 62
     7
100
AcDbLine
 10
214.9371660247795
 20
448.208432365295
 30
0.0
 11
211.9371660247795
 21
448.208432365295
 31
0.0
  0
LINE
  5
149
330
56
100
AcDbEntity
  8
1
  6
Continuous
 62
     7
100
AcDbLine
 10
214.1871660247795
 20
439.708432365295
 30
0.0
 11
214.1871660247795
 21
442.708432365295
 31
0.0
  0
LINE
  5
14A
330
56
100
AcDbEntity
  8
1
  6
Continuous
 62
     7
100
AcDbLine
 10
211.9371660247795
 20
439.708432365295
 30
0.0
 11
214.1871660247795
 21
439.708432365295
 31
0.0
  0
LINE
  5
14B
330
56
100
AcDbEntity
  8
1
  6
Continuous
 62
     7
100
AcDbLine
 10
214.9371660247795
 20
448.208432365295
 30
0.0
 11
214.4371660247795
 21
447.708432365295
 31
0.0
  0
LINE
  5
14C
330
56
100
AcDbEntity
  8
1
  6
Continuous
 62
     7
100
AcDbLine
 10
214.9371660247795
 20
450.5084323652951
 30
0.0
 11
214.9371660247795
 21
448.208432365295
 31
0.0
  0
LINE
  5
14D
330
56
100
AcDbEntity
  8
1
  6
Continuous
 62
     7
100
AcDbLine
 10
211.9371660247795
 20
448.208432365295
 30
0.0
 11
208.9371660247795
 21
448.208432365295
 31
0.0
  0
LINE
  5
14E
330
56
100
AcDbEntity
  8
1
  6
Continuous
 62
     7
100
AcDbLine
 10
209.6871660247795
 20
442.708432365295
 30
0.0
 11
209.6871660247795
 21
439.708432365295
 31
0.0
  0
LINE
  5
14F
330
56
100
AcDbEntity
  8
1
  6
Continuous
 62
     7
100
AcDbLine
 10
209.6871660247795
 20
439.708432365295
 30
0.0
 11
211.9371660247795
 21
439.708432365295
 31
0.0
  0
LINE
  5
150
330
56
100
AcDbEntity
  8
1
  6
Continuous
 62
     7
100
AcDbLine
 10
209.4371660247795
 20
447.708432365295
 30
0.0
 11
208.9371660247795
 21
448.208432365295
 31
0.0
  0
LINE
  5
151
330
56
100
AcDbEntity
  8
1
  6
Continuous
 62
     7
100
AcDbLine
 10
208.9371660247795
 20
448.208432365295
 30
0.0
 11
208.9371660247795
 21
450.5084323652951
 31
0.0
  0
LINE
  5
152
330
56
100
AcDbEntity
  8
1
  6
Continuous
 62
     2
100
AcDbLine
 10
209.4371660247795
 20
447.708432365295
 30
0.0
 11
209.4371660247795
 21
450.5084323652951
 31
0.0
  0
LINE
  5
153
330
56
100
AcDbEntity
  8
1
  6
Continuous
 62
     7
100
AcDbLine
 10
200.6871660247795
 20
453.0084323652951
 30
0.0
 11
200.6871660247795
 21
450.5084323652951
 31
0.0
  0
LINE
  5
154
330
56
100
AcDbEntity
  8
1
  6
Continuous
 62
     7
100
AcDbLine
 10
223.1871660247795
 20
450.5084323652951
 30
0.0
 11
223.1871660247795
 21
453.0084323652951
 31
0.0
  0
LINE
  5
155
330
56
100
AcDbEntity
  8
1
  6
DASH_CENTER
 62
     2
100
AcDbLine
 10
205.4371660247795
 20
447.8889050968631
 30
0.0
 11
205.4371660247795
 21
456.7981459944715
 31
0.0
  0
LINE
  5
156
330
56
100
AcDbEntity
  8
1
  6
DASH_CENTER
 62
     2
100
AcDbLine
 10
218.4371660247795
 20
456.740296459217
 30
0.0
 11
218.4371660247795
 21
448.004604167372
 31
0.0
  0
LINE
  5
157
330
56
100
AcDbEntity
  8
1
  6
Continuous
 62
     7
100
AcDbLine
 10
221.1871660247795
 20
455.0084323652951
 30
0.0
 11
202.6871660247795
 21
455.0084323652951
 31
0.0
  0
LINE
  5
158
330
56
100
AcDbEntity
  8
1
  6
Continuous
 62
     7
100
AcDbLine
 10
223.1871660247795
 20
450.5084323652951
 30
0.0
 11
200.6871660247795
 21
450.5084323652951
 31
0.0
  0
LINE
  5
159
330
56
100
AcDbEntity
  8
1
  6
Continuous
 62
     7
100
AcDbLine
 10
213.9371660247795
 20
479.7084323652952
 30
0.0
 11
213.9371660247795
 21
471.4404831728641
 31
0.0
  0
LINE
  5
15A
330
56
100
AcDbEntity
  8
1
  6
Continuous
 62
     7
100
AcDbLine
 10
209.9371660247795
 20
479.7084323652952
 30
0.0
 11
209.9371660247795
 21
471.4404831728641
 31
0.0
  0
LINE
  5
15B
330
56
100
AcDbEntity
  8
1
  6
Continuous
 62
     7
100
AcDbLine
 10
208.9371660247795
 20
455.0084323652951
 30
0.0
 11
208.9371660247795
 21
469.7084323652952
 31
0.0
  0
LINE
  5
15C
330
56
100
AcDbEntity
  8
1
  6
Continuous
 62
     2
100
AcDbLine
 10
214.4371660247795
 20
455.0084323652951
 30
0.0
 11
214.4371660247795
 21
470.1176075173318
 31
0.0
  0
LINE
  5
15D
330
56
100
AcDbEntity
  8
1
  6
Continuous
 62
     7
100
AcDbLine
 10
214.9371660247795
 20
469.7084323652952
 30
0.0
 11
214.9371660247795
 21
455.0084323652951
 31
0.0
  0
LINE
  5
15E
330
56
100
AcDbEntity
  8
1
  6
Continuous
 62
     2
100
AcDbLine
 10
209.4371660247795
 20
470.1176075173318
 30
0.0
 11
209.4371660247795
 21
455.0084323652951
 31
0.0
  0
LINE
  5
15F
330
56
100
AcDbEntity
  8
1
  6
DASH_CENTER
 62
     2
100
AcDbLine
 10
211.9371660247795
 20
475.9815619591103
 30
0.0
 11
211.9371660247795
 21
427.6014934252862
 31
0.0
  0
LINE
  5
160
330
56
100
AcDbEntity
  8
1
  6
Continuous
 62
     2
100
AcDbLine
 10
336.3718009591478
 20
330.1654829502101
 30
0.0
 11
337.7427825562314
 21
332.9931324941953
 31
0.0
  0
LINE
  5
161
330
56
100
AcDbEntity
  8
1
  6
Continuous
 62
     2
100
AcDbLine
 10
337.4831416149594
 20
330.1654829502101
 30
0.0
 11
338.1491196475244
 21
331.5390626423755
 31
0.0
  0
LINE
  5
162
330
56
100
AcDbEntity
  8
1
  6
Continuous
 62
     2
100
AcDbLine
 10
335.2604603033361
 20
330.1654829502101
 30
0.0
 11
337.1871122283257
 21
334.139202545501
 31
0.0
  0
LINE
  5
163
330
56
100
AcDbEntity
  8
1
  6
Continuous
 62
     2
100
AcDbLine
 10
335.1158691947252
 20
337.7951417012737
 30
0.0
 11
338.2594273521836
 21
331.3115530015159
 31
0.0
  0
LINE
  5
164
330
56
100
AcDbEntity
  8
1
  6
Continuous
 62
     2
100
AcDbLine
 10
334.5068455357683
 20
336.7591128952608
 30
0.0
 11
337.7037570242778
 21
330.1654829502101
 31
0.0
  0
LINE
  5
165
330
56
100
AcDbEntity
  8
1
  6
Continuous
 62
     2
100
AcDbLine
 10
333.9511752078626
 20
335.6130428439552
 30
0.0
 11
336.5924163684661
 21
330.1654829502101
 31
0.0
  0
LINE
  5
166
330
56
100
AcDbEntity
  8
1
  6
Continuous
 62
     2
100
AcDbLine
 10
333.3955048799566
 20
334.4669727926492
 30
0.0
 11
335.4810757126545
 21
330.1654829502101
 31
0.0
  0
LINE
  5
167
330
56
100
AcDbEntity
  8
1
  6
Continuous
 62
     2
100
AcDbLine
 10
333.3706929370004
 20
333.1442580649774
 30
0.0
 11
335.5201012446081
 21
337.5774126994184
 31
0.0
  0
LINE
  5
168
330
56
100
AcDbEntity
  8
1
  6
Continuous
 62
     2
100
AcDbLine
 10
333.9263632649062
 20
331.9981880136717
 30
0.0
 11
336.0757715725139
 21
336.4313426481127
 31
0.0
  0
LINE
  5
169
330
56
100
AcDbEntity
  8
1
  6
Continuous
 62
     2
100
AcDbLine
 10
334.482033592812
 20
330.8521179623658
 30
0.0
 11
336.6314419004197
 21
335.2852725968069
 31
0.0
  0
LINE
  5
16A
330
56
100
AcDbEntity
  8
1
  6
Continuous
 62
     7
100
AcDbLine
 10
334.9371660247796
 20
322.6946573214327
 30
0.0
 11
330.9371660247796
 21
330.9446573214327
 31
0.0
  0
LINE
  5
16B
330
56
100
AcDbEntity
  8
1
  6
Continuous
 62
     7
100
AcDbLine
 10
338.9371660247795
 20
330.9446573214327
 30
0.0
 11
334.9371660247796
 21
322.6946573214327
 31
0.0
  0
LINE
  5
16C
330
56
100
AcDbEntity
  8
1
  6
Continuous
 62
     7
100
AcDbLine
 10
330.4371660247786
 20
327.8538705840514
 30
0.0
 11
330.4371660247791
 21
329.2559716468255
 31
0.0
  0
LINE
  5
16D
330
56
100
AcDbEntity
  8
1
  6
Continuous
 62
     7
100
AcDbLine
 10
330.9371660247796
 20
330.9446573214327
 30
0.0
 11
334.9371660247796
 21
339.1946573214327
 31
0.0
  0
LINE
  5
16E
330
56
100
AcDbEntity
  8
1
  6
Continuous
 62
     7
100
AcDbLine
 10
334.9371660247796
 20
339.1946573214327
 30
0.0
 11
338.9371660247795
 21
330.9446573214327
 31
0.0
  0
LINE
  5
16F
330
56
100
AcDbEntity
  8
1
  6
Continuous
 62
     7
100
AcDbLine
 10
330.4371660247791
 20
332.6333429960397
 30
0.0
 11
330.4371660247786
 21
334.0354440588139
 31
0.0
  0
LINE
  5
170
330
56
100
AcDbEntity
  8
1
  6
Continuous
 62
     7
100
AcDbLine
 10
305.4871660247795
 20
336.4446573214327
 30
0.0
 11
307.4371660247795
 21
336.4446573214327
 31
0.0
  0
LINE
  5
171
330
56
100
AcDbEntity
  8
1
  6
Continuous
 62
     7
100
AcDbLine
 10
315.8037024751646
 20
327.9446573214327
 30
0.0
 11
314.7371660247795
 21
327.9446573214327
 31
0.0
  0
LINE
  5
172
330
56
100
AcDbEntity
  8
1
  6
Continuous
 62
     2
100
AcDbLine
 10
308.9371660247795
 20
328.4446573214327
 30
0.0
 11
307.4371660247795
 21
328.4446573214327
 31
0.0
  0
LINE
  5
173
330
56
100
AcDbEntity
  8
1
  6
Continuous
 62
     7
100
AcDbLine
 10
314.7371660247795
 20
333.9446573214327
 30
0.0
 11
329.8414272247658
 21
333.9446573214327
 31
0.0
  0
LINE
  5
174
330
56
100
AcDbEntity
  8
1
  6
Continuous
 62
     2
100
AcDbLine
 10
318.3437572131456
 20
328.4446573214327
 30
0.0
 11
330.4371660247786
 21
328.4446573214327
 31
0.0
  0
LINE
  5
175
330
56
100
AcDbEntity
  8
1
  6
Continuous
 62
     7
100
AcDbLine
 10
307.9371660247795
 20
327.9446573214327
 30
0.0
 11
307.9371660247795
 21
330.9446573214327
 31
0.0
  0
LINE
  5
176
330
56
100
AcDbEntity
  8
1
  6
Continuous
 62
     7
100
AcDbLine
 10
299.4371660247795
 20
328.6946573214327
 30
0.0
 11
302.4371660247795
 21
328.6946573214327
 31
0.0
  0
LINE
  5
177
330
56
100
AcDbEntity
  8
1
  6
Continuous
 62
     7
100
AcDbLine
 10
299.4371660247795
 20
330.9446573214327
 30
0.0
 11
299.4371660247795
 21
328.6946573214327
 31
0.0
  0
LINE
  5
178
330
56
100
AcDbEntity
  8
1
  6
Continuous
 62
     7
100
AcDbLine
 10
307.9371660247795
 20
327.9446573214327
 30
0.0
 11
307.4371660247795
 21
328.4446573214327
 31
0.0
  0
LINE
  5
179
330
56
100
AcDbEntity
  8
1
  6
Continuous
 62
     7
100
AcDbLine
 10
310.2371660247795
 20
327.9446573214327
 30
0.0
 11
307.9371660247795
 21
327.9446573214327
 31
0.0
  0
LINE
  5
17A
330
56
100
AcDbEntity
  8
1
  6
Continuous
 62
     7
100
AcDbLine
 10
329.8414272247658
 20
327.9446573214327
 30
0.0
 11
318.5722018785885
 21
327.9446573214327
 31
0.0
  0
LINE
  5
17B
330
56
100
AcDbEntity
  8
1
  6
Continuous
 62
     7
100
AcDbLine
 10
307.9371660247795
 20
330.9446573214327
 30
0.0
 11
307.9371660247795
 21
333.9446573214327
 31
0.0
  0
LINE
  5
17C
330
56
100
AcDbEntity
  8
1
  6
Continuous
 62
     7
100
AcDbLine
 10
302.4371660247795
 20
333.1946573214327
 30
0.0
 11
299.4371660247795
 21
333.1946573214327
 31
0.0
  0
LINE
  5
17D
330
56
100
AcDbEntity
  8
1
  6
Continuous
 62
     7
100
AcDbLine
 10
299.4371660247795
 20
333.1946573214327
 30
0.0
 11
299.4371660247795
 21
330.9446573214327
 31
0.0
  0
LINE
  5
17E
330
56
100
AcDbEntity
  8
1
  6
Continuous
 62
     7
100
AcDbLine
 10
307.4371660247795
 20
333.4446573214327
 30
0.0
 11
307.9371660247795
 21
333.9446573214327
 31
0.0
  0
LINE
  5
17F
330
56
100
AcDbEntity
  8
1
  6
Continuous
 62
     7
100
AcDbLine
 10
307.9371660247795
 20
333.9446573214327
 30
0.0
 11
310.2371660247795
 21
333.9446573214327
 31
0.0
  0
LINE
  5
180
330
56
100
AcDbEntity
  8
1
  6
Continuous
 62
     2
100
AcDbLine
 10
307.4371660247795
 20
333.4446573214327
 30
0.0
 11
310.2371660247796
 21
333.4446573214327
 31
0.0
  0
LINE
  5
181
330
56
100
AcDbEntity
  8
1
  6
Continuous
 62
     2
100
AcDbLine
 10
330.4371660247786
 20
333.4446573214327
 30
0.0
 11
314.7371660247795
 21
333.4446573214327
 31
0.0
  0
LINE
  5
182
330
56
100
AcDbEntity
  8
1
  6
Continuous
 62
     7
100
AcDbLine
 10
310.2371660247795
 20
337.1946573214327
 30
0.0
 11
312.7371660247795
 21
337.1946573214327
 31
0.0
  0
LINE
  5
183
330
56
100
AcDbEntity
  8
1
  6
Continuous
 62
     7
100
AcDbLine
 10
314.7371660247795
 20
326.6946573214327
 30
0.0
 11
314.7371660247795
 21
335.1946573214327
 31
0.0
  0
LINE
  5
184
330
56
100
AcDbEntity
  8
1
  6
Continuous
 62
     7
100
AcDbLine
 10
307.4371660247795
 20
325.4446573214327
 30
0.0
 11
305.4871660247795
 21
325.4446573214327
 31
0.0
  0
LINE
  5
185
330
56
100
AcDbEntity
  8
1
  6
Continuous
 62
     7
100
AcDbLine
 10
307.4371660247795
 20
336.4446573214327
 30
0.0
 11
307.4371660247795
 21
325.4446573214327
 31
0.0
  0
LINE
  5
186
330
56
100
AcDbEntity
  8
1
  6
Continuous
 62
     7
100
AcDbLine
 10
304.7371660247795
 20
326.1946573214327
 30
0.0
 11
304.7371660247795
 21
335.6946573214327
 31
0.0
  0
LINE
  5
187
330
56
100
AcDbEntity
  8
1
  6
Continuous
 62
     7
100
AcDbLine
 10
310.2371660247795
 20
324.6946573214327
 30
0.0
 11
310.2371660247795
 21
337.1946573214327
 31
0.0
  0
LINE
  5
188
330
56
100
AcDbEntity
  8
1
  6
DASH_CENTER
 62
     2
100
AcDbLine
 10
297.0570974909555
 20
330.9446573214327
 30
0.0
 11
344.1116097103916
 21
330.9446573214327
 31
0.0
  0
LINE
  5
189
330
56
100
AcDbEntity
  8
1
  6
DASH_CENTER
 62
     2
100
AcDbLine
 10
309.4371660247795
 20
335.9413151567039
 30
0.0
 11
309.4371660247795
 21
305.0581148169951
 31
0.0
  0
ARC
  5
18A
330
56
100
AcDbEntity
  8
1
  6
Continuous
 62
     7
100
AcDbCircle
 10
215.9290754679719
 20
443.858432365295
 30
0.0
 40
1.150000000000091
100
AcDbArc
 50
0.0
 51
90.0
  0
ARC
  5
18B
330
56
100
AcDbEntity
  8
1
  6
Continuous
 62
     7
100
AcDbCircle
 10
218.5998211116281
 20
457.958432365295
 30
0.0
 40
1.150000000000169
100
AcDbArc
 50
358.3654523487888
 51
178.4954214079256
  0
ARC
  5
18C
330
56
100
AcDbEntity
  8
1
  6
Continuous
 62
     7
100
AcDbCircle
 10
217.8621665042307
 20
429.8743026262031
 30
0.0
 40
1.149999999999877
100
AcDbArc
 50
178.4954214079369
 51
358.495421407923
  0
ARC
  5
18D
330
56
100
AcDbEntity
  8
1
  6
Continuous
 62
     7
100
AcDbCircle
 10
205.2745109379309
 20
457.958432365295
 30
0.0
 40
1.149999999999892
100
AcDbArc
 50
0.0
 51
1.52704485565387
  0
ARC
  5
18E
330
56
100
AcDbEntity
  8
1
  6
Continuous
 62
     7
100
AcDbCircle
 10
206.0121655453282
 20
430.2876747526764
 30
0.0
 40
1.149999999999993
100
AcDbArc
 50
181.5270448556537
 51
1.5270448556396
  0
ARC
  5
18F
330
56
100
AcDbEntity
  8
1
  6
Continuous
 62
     7
100
AcDbCircle
 10
205.2745109379309
 20
457.958432365295
 30
0.0
 40
1.149999999999908
100
AcDbArc
 50
1.52704485565387
 51
181.6345476512114
  0
ARC
  5
190
330
56
100
AcDbEntity
  8
1
  6
Continuous
 62
     7
100
AcDbCircle
 10
205.2745109379309
 20
457.958432365295
 30
0.0
 40
1.149999999999897
100
AcDbArc
 50
359.4277772720332
 51
0.0
  0
ARC
  5
191
330
56
100
AcDbEntity
  8
1
  6
Continuous
 62
     7
100
AcDbCircle
 10
218.5998211116281
 20
457.958432365295
 30
0.0
 40
1.149999999999882
100
AcDbArc
 50
180.5881294855655
 51
181.6345476512115
  0
ARC
  5
192
330
56
100
AcDbEntity
  8
1
  6
Continuous
 62
     7
100
AcDbCircle
 10
218.4371660247795
 20
323.5455356801563
 30
0.0
 40
1.150000000000006
100
AcDbArc
 50
0.0
 51
178.3655249207463
  0
ARC
  5
193
330
56
100
AcDbEntity
  8
1
  6
Continuous
 62
     7
100
AcDbCircle
 10
218.4371660247795
 20
323.5455356801563
 30
0.0
 40
1.149999999999049
100
AcDbArc
 50
358.3655249207463
 51
0.0
  0
ARC
  5
194
330
56
100
AcDbEntity
  8
1
  6
Continuous
 62
     7
100
AcDbCircle
 10
217.2871660247794
 20
283.2437453579334
 30
0.0
 40
1.14999999999902
100
AcDbArc
 50
178.3655249207462
 51
358.3655249207463
  0
ARC
  5
195
330
56
100
AcDbEntity
  8
1
  6
Continuous
 62
     7
100
AcDbCircle
 10
217.2871660247794
 20
283.2437453579334
 30
0.0
 40
1.149999999999134
100
AcDbArc
 50
358.3655249207463
 51
0.0
  0
ARC
  5
196
330
56
100
AcDbEntity
  8
1
  6
Continuous
 62
     7
100
AcDbCircle
 10
206.5871660247795
 20
283.2437453579334
 30
0.0
 40
1.150000000000119
100
AcDbArc
 50
0.0
 51
1.63447507925375
  0
ARC
  5
197
330
56
100
AcDbEntity
  8
1
  6
Continuous
 62
     7
100
AcDbCircle
 10
206.5871660247795
 20
283.2437453579334
 30
0.0
 40
1.14999999999902
100
AcDbArc
 50
181.6344750792538
 51
0.0
  0
ARC
  5
198
330
56
100
AcDbEntity
  8
1
  6
Continuous
 62
     7
100
AcDbCircle
 10
205.4371660247795
 20
323.5455356801563
 30
0.0
 40
1.150000000000006
100
AcDbArc
 50
0.0
 51
1.63447507925375
  0
ARC
  5
199
330
56
100
AcDbEntity
  8
1
  6
Continuous
 62
     7
100
AcDbCircle
 10
205.4371660247795
 20
323.5455356801563
 30
0.0
 40
1.149999999999049
100
AcDbArc
 50
1.63447507925375
 51
181.6344750792538
  0
ARC
  5
19A
330
56
100
AcDbEntity
  8
1
  6
Continuous
 62
     7
100
AcDbCircle
 10
303.5871660247796
 20
334.3446573214326
 30
0.0
 40
1.150000000000148
100
AcDbArc
 50
90.0
 51
180.0
  0
ARC
  5
19B
330
56
100
AcDbEntity
  8
1
  6
Continuous
 62
     7
100
AcDbCircle
 10
303.5871660247796
 20
334.3446573214326
 30
0.0
 40
1.14999999999992
100
AcDbArc
 50
0.0
 51
90.0
  0
ARC
  5
19C
330
56
100
AcDbEntity
  8
1
  6
Continuous
 62
     7
100
AcDbCircle
 10
314.7371660247795
 20
326.4946573214326
 30
0.0
 40
1.799999999999898
100
AcDbArc
 50
270.0
 51
90.0
  0
ARC
  5
19D
330
56
100
AcDbEntity
  8
1
  6
Continuous
 62
     7
100
AcDbCircle
 10
314.7371660247795
 20
326.4946573214326
 30
0.0
 40
4.099999999999909
100
AcDbArc
 50
270.0
 51
90.0
  0
ARC
  5
19E
330
56
100
AcDbEntity
  8
1
  6
Continuous
 62
     7
100
AcDbCircle
 10
309.4371660247795
 20
303.3946573214327
 30
0.0
 40
21.30000000000001
100
AcDbArc
 50
0.0
 51
68.59358694480842
  0
ARC
  5
19F
330
56
100
AcDbEntity
  8
1
  6
Continuous
 62
     7
100
AcDbCircle
 10
309.4371660247795
 20
303.3946573214327
 30
0.0
 40
21.30000000000001
100
AcDbArc
 50
90.0
 51
0.0
  0
ARC
  5
1A0
330
56
100
AcDbEntity
  8
1
  6
Continuous
 62
     7
100
AcDbCircle
 10
216.1371660247794
 20
323.5455356801563
 30
0.0
 40
1.150000000000023
100
AcDbArc
 50
186.0255750083679
 51
6.02557500836508
  0
ARC
  5
1A1
330
56
100
AcDbEntity
  8
1
  6
Continuous
 62
     7
100
AcDbCircle
 10
211.9371660247795
 20
330.9446573214327
 30
0.0
 40
4.550000000000011
100
AcDbArc
 50
90.0
 51
173.9744249916344
  0
ARC
  5
1A2
330
56
100
AcDbEntity
  8
1
  6
Continuous
 62
     7
100
AcDbCircle
 10
207.7371660247796
 20
323.5455356801563
 30
0.0
 40
1.150000000000017
100
AcDbArc
 50
173.9744249916349
 51
353.9744249916315
  0
ARC
  5
1A3
330
56
100
AcDbEntity
  8
1
  6
Continuous
 62
     7
100
AcDbCircle
 10
211.9371660247795
 20
330.9446573214327
 30
0.0
 40
2.25
100
AcDbArc
 50
90.0
 51
173.9744249916325
  0
ARC
  5
1A4
330
56
100
AcDbEntity
  8
1
  6
Continuous
 62
     7
100
AcDbCircle
 10
211.9371660247795
 20
330.9446573214327
 30
0.0
 40
2.250000000000131
100
AcDbArc
 50
6.02557500836723
 51
90.0
  0
ARC
  5
1A5
330
56
100
AcDbEntity
  8
1
  6
Continuous
 62
     7
100
AcDbCircle
 10
211.9371660247795
 20
330.9446573214327
 30
0.0
 40
4.550000000000075
100
AcDbArc
 50
6.02557500836554
 51
90.0
  0
ARC
  5
1A6
330
56
100
AcDbEntity
  8
1
  6
Continuous
 62
     7
100
AcDbCircle
 10
207.9508011445683
 20
443.858432365295
 30
0.0
 40
1.150000000000091
100
AcDbArc
 50
90.0
 51
270.0
  0
ARC
  5
1A7
330
56
100
AcDbEntity
  8
1
  6
Continuous
 62
     7
100
AcDbCircle
 10
215.9290754679719
 20
443.858432365295
 30
0.0
 40
1.150000000000034
100
AcDbArc
 50
270.0
 51
0.0
  0
ARC
  5
1A8
330
56
100
AcDbEntity
  8
1
  6
Continuous
 62
     7
100
AcDbCircle
 10
218.5998211116281
 20
457.958432365295
 30
0.0
 40
1.149999999999912
100
AcDbArc
 50
178.4954214079256
 51
180.5881294855655
  0
ARC
  5
1A9
330
56
100
AcDbEntity
  8
1
  6
Continuous
 62
     7
100
AcDbCircle
 10
205.2745109379309
 20
457.958432365295
 30
0.0
 40
1.14999999999997
100
AcDbArc
 50
358.3654523487885
 51
359.4277772720332
  0
ARC
  5
1AA
330
56
100
AcDbEntity
  8
1
  6
Continuous
 62
     7
100
AcDbCircle
 10
216.1813888951986
 20
469.4839303273278
 30
0.0
 40
1.14999999999997
100
AcDbArc
 50
0.58812948557683
 51
181.997879856473
  0
ARC
  5
1AB
330
56
100
AcDbEntity
  8
1
  6
Continuous
 62
     7
100
AcDbCircle
 10
207.6867770566446
 20
469.1876066585411
 30
0.0
 40
1.150000000000062
100
AcDbArc
 50
356.8576746875842
 51
179.4277772720304
  0
ARC
  5
1AC
330
56
100
AcDbEntity
  8
1
  6
Continuous
 62
     7
100
AcDbCircle
 10
211.9371660247795
 20
330.9446573214327
 30
0.0
 40
2.499999999999944
100
AcDbArc
 50
199.8156803967261
 51
340.1843196032748
  0
ARC
  5
1AD
330
56
100
AcDbEntity
  8
1
  6
Continuous
 62
     7
100
AcDbCircle
 10
211.9371660247795
 20
330.9446573214327
 30
0.0
 40
5.5
100
AcDbArc
 50
0.0
 51
208.1541556508434
  0
ARC
  5
1AE
330
56
100
AcDbEntity
  8
1
  6
Continuous
 62
     7
100
AcDbCircle
 10
211.9371660247795
 20
330.9446573214327
 30
0.0
 40
5.500000000000018
100
AcDbArc
 50
238.3437999470562
 51
299.1495811472925
  0
ARC
  5
1AF
330
56
100
AcDbEntity
  8
1
  6
Continuous
 62
     7
100
AcDbCircle
 10
211.9371660247795
 20
330.9446573214327
 30
0.0
 40
5.499999999999961
100
AcDbArc
 50
331.8458443491567
 51
0.0
  0
ARC
  5
1B0
330
56
100
AcDbEntity
  8
1
  6
Continuous
 62
     7
100
AcDbCircle
 10
211.9371660247795
 20
337.4369202779398
 30
0.0
 40
2.0
100
AcDbArc
 50
0.0
 51
180.0
  0
ARC
  5
1B1
330
56
100
AcDbEntity
  8
1
  6
Continuous
 62
     7
100
AcDbCircle
 10
205.4371660247795
 20
329.1946573214327
 30
0.0
 40
1.500000000000072
100
AcDbArc
 50
46.05444862194602
 51
344.0825276970377
  0
ARC
  5
1B2
330
56
100
AcDbEntity
  8
1
  6
Continuous
 62
     7
100
AcDbCircle
 10
218.4371660247795
 20
329.1946573214327
 30
0.0
 40
1.499999999999903
100
AcDbArc
 50
195.9174723029596
 51
0.0
  0
ARC
  5
1B3
330
56
100
AcDbEntity
  8
1
  6
Continuous
 62
     7
100
AcDbCircle
 10
218.4371660247795
 20
329.1946573214327
 30
0.0
 40
1.5
100
AcDbArc
 50
0.0
 51
133.9455513780562
  0
ARC
  5
1B4
330
56
100
AcDbEntity
  8
1
  6
Continuous
 62
     7
100
AcDbCircle
 10
216.6871660247795
 20
445.7584323652951
 30
0.0
 40
0.75
100
AcDbArc
 50
270.0
 51
0.0
  0
ARC
  5
1B5
330
56
100
AcDbEntity
  8
1
  6
Continuous
 62
     7
100
AcDbCircle
 10
211.9371660247795
 20
479.7084323652952
 30
0.0
 40
2.0
100
AcDbArc
 50
0.0
 51
180.0
  0
ARC
  5
1B6
330
56
100
AcDbEntity
  8
1
  6
Continuous
 62
     7
100
AcDbCircle
 10
211.9371660247795
 20
468.3248645047465
 30
0.0
 40
3.702307346118512
100
AcDbArc
 50
57.30249567031368
 51
122.6975043296863
  0
ARC
  5
1B7
330
56
100
AcDbEntity
  8
1
  6
Continuous
 62
     7
100
AcDbCircle
 10
207.9371660247795
 20
471.4404831728641
 30
0.0
 40
2.000000000000003
100
AcDbArc
 50
318.590377890729
 51
0.0
  0
ARC
  5
1B8
330
56
100
AcDbEntity
  8
1
  6
Continuous
 62
     7
100
AcDbCircle
 10
207.9371660247795
 20
471.4404831728641
 30
0.0
 40
2.000000000000016
100
AcDbArc
 50
299.9999999999997
 51
318.590377890729
  0
ARC
  5
1B9
330
56
100
AcDbEntity
  8
1
  6
Continuous
 62
     7
100
AcDbCircle
 10
215.9371660247795
 20
471.4404831728641
 30
0.0
 40
2.0
100
AcDbArc
 50
180.0
 51
221.4096221092709
  0
ARC
  5
1BA
330
56
100
AcDbEntity
  8
1
  6
Continuous
 62
     7
100
AcDbCircle
 10
215.9371660247795
 20
471.4404831728641
 30
0.0
 40
2.000000000000003
100
AcDbArc
 50
221.4096221092709
 51
240.0000000000002
  0
ARC
  5
1BB
330
56
100
AcDbEntity
  8
1
  6
Continuous
 62
     7
100
AcDbCircle
 10
341.3282969382676
 20
329.4162310546307
 30
0.0
 40
9.99999999999989
100
AcDbArc
 50
196.8159216729897
 51
218.3511648632169
  0
ARC
  5
1BC
330
56
100
AcDbEntity
  8
1
  6
Continuous
 62
     7
100
AcDbCircle
 10
332.4371660247796
 20
330.9446573214327
 30
0.0
 40
8.999999999999947
100
AcDbArc
 50
291.9567848398846
 51
0.0
  0
ARC
  5
1BD
330
56
100
AcDbEntity
  8
1
  6
Continuous
 62
     7
100
AcDbCircle
 10
341.3282969382676
 20
332.4730835882347
 30
0.0
 40
9.999999999999828
100
AcDbArc
 50
141.6488351367836
 51
163.1840783270115
  0
ARC
  5
1BE
330
56
100
AcDbEntity
  8
1
  6
Continuous
 62
     7
100
AcDbCircle
 10
332.4371660247796
 20
330.9446573214327
 30
0.0
 40
9.0
100
AcDbArc
 50
0.0
 51
68.04321516011545
  0
ARC
  5
1BF
330
56
100
AcDbEntity
  8
1
  6
Continuous
 62
     7
100
AcDbCircle
 10
305.4871660247795
 20
326.1946573214327
 30
0.0
 40
0.75
100
AcDbArc
 50
180.0
 51
270.0
  0
CIRCLE
  5
1C0
330
56
100
AcDbEntity
  8
1
  6
Continuous
 62
     7
100
AcDbCircle
 10
218.5998211116281
 20
329.4446573214327
 30
0.0
 40
1.150000000000006
  0
CIRCLE
  5
1C1
330
56
100
AcDbEntity
  8
1
  6
Continuous
 62
     7
100
AcDbCircle
 10
205.274510937931
 20
329.4446573214327
 30
0.0
 40
1.149999999999892
  0
CIRCLE
  5
1C2
330
56
100
AcDbEntity
  8
1
  6
Continuous
 62
     7
100
AcDbCircle
 10
211.9371660247795
 20
330.9446573214327
 30
0.0
 40
2.25
  0
SPLINE
  5
1C3
330
56
100
AcDbEntity
  8
1
  6
Continuous
 62
     7
100
AcDbSpline
210
0.0
220
0.0
230
1.0
 70
     8
 71
     3
 72
    17
 73
    13
 74
    11
 42
0.000000001
 43
0.0000000001
 44
0.00000001
 40
0.0
 40
0.0
 40
0.0
 40
0.0
 40
0.6350751316820195
 40
1.268716390570801
 40
1.816539087195689
 40
2.362199142396152
 40
3.035910213736603
 40
3.719374615474663
 40
4.086712278726953
 40
4.444560295654607
 40
4.774084020410358
 40
5.112575113701323
 40
5.112575113701323
 40
5.112575113701323
 40
5.112575113701323
 10
331.7559055103494
 20
335.3660616992329
 30
0.0
 10
331.7135514556279
 20
335.1586552517986
 30
0.0
 10
331.6289389591558
 20
334.7443106423196
 30
0.0
 10
331.4607122414563
 20
334.1609083097321
 30
0.0
 10
331.2214893737009
 20
333.6352540846482
 30
0.0
 10
330.9045956236262
 20
333.1358129591628
 30
0.0
 10
330.4764830607905
 20
332.6651166396724
 30
0.0
 10
330.0671393982122
 20
332.2618239716855
 30
0.0
 10
329.7524591335899
 20
331.9131044962502
 30
0.0
 10
329.5617368318225
 20
331.6123459608802
 30
0.0
 10
329.4751516553974
 20
331.2778470860047
 30
0.0
 10
329.4499407071842
 20
331.0567100842046
 30
0.0
 10
329.4371660247796
 20
330.9446573214327
 30
0.0
 11
331.7559055103494
 21
335.3660616992329
 31
0.0
 11
331.6206044359061
 21
334.7455666993835
 31
0.0
 11
331.4371660247796
 21
334.1390589956214
 31
0.0
 11
331.2099891488601
 21
333.6405608770181
 31
0.0
 11
330.9164070212017
 21
333.1806104120414
 31
0.0
 11
330.4745367912838
 21
332.6720464465841
 31
0.0
 11
329.9983141674568
 21
332.1818060986263
 31
0.0
 11
329.7582588700814
 21
331.9037586018378
 31
0.0
 11
329.5745790041898
 21
331.5966480160197
 31
0.0
 11
329.4834934576805
 21
331.2799631397679
 31
0.0
 11
329.4371660247796
 21
330.9446573214327
 31
0.0
  0
SPLINE
  5
1C4
330
56
100
AcDbEntity
  8
1
  6
Continuous
 62
     7
100
AcDbSpline
210
0.0
220
0.0
230
1.0
 70
     8
 71
     3
 72
    17
 73
    13
 74
    11
 42
0.000000001
 43
0.0000000001
 44
0.00000001
 40
0.0
 40
0.0
 40
0.0
 40
0.0
 40
0.6350751316820195
 40
1.268716390570855
 40
1.816539087195796
 40
2.362199142396258
 40
3.03591021373658
 40
3.719374615474721
 40
4.086712278727012
 40
4.444560295654763
 40
4.774084020410514
 40
5.112575113701535
 40
5.112575113701535
 40
5.112575113701535
 40
5.112575113701535
 10
331.7559055103494
 20
326.5232529436323
 30
0.0
 10
331.7135514556279
 20
326.7306593910665
 30
0.0
 10
331.6289389591559
 20
327.1450040005457
 30
0.0
 10
331.4607122414561
 20
327.728406333133
 30
0.0
 10
331.2214893737011
 20
328.2540605582171
 30
0.0
 10
330.9045956236261
 20
328.7535016837026
 30
0.0
 10
330.4764830607904
 20
329.2241980031929
 30
0.0
 10
330.0671393982124
 20
329.6274906711797
 30
0.0
 10
329.7524591335899
 20
329.9762101466151
 30
0.0
 10
329.5617368318225
 20
330.276968681985
 30
0.0
 10
329.4751516553975
 20
330.6114675568608
 30
0.0
 10
329.4499407071841
 20
330.8326045586608
 30
0.0
 10
329.4371660247796
 20
330.9446573214327
 30
0.0
 11
331.7559055103494
 21
326.5232529436323
 31
0.0
 11
331.6206044359061
 21
327.1437479434817
 31
0.0
 11
331.4371660247796
 21
327.7502556472439
 31
0.0
 11
331.2099891488601
 21
328.2487537658473
 31
0.0
 11
330.9164070212017
 21
328.7087042308239
 31
0.0
 11
330.4745367912838
 21
329.2172681962811
 31
0.0
 11
329.9983141674568
 21
329.707508544239
 31
0.0
 11
329.7582588700814
 21
329.9855560410275
 31
0.0
 11
329.5745790041898
 21
330.2926666268457
 31
0.0
 11
329.4834934576805
 21
330.6093515030975
 31
0.0
 11
329.4371660247796
 21
330.9446573214327
 31
0.0
  0
ARC
  5
1C5
330
56
100
AcDbEntity
  8
1
  6
Continuous
 62
     7
100
AcDbCircle
 10
306.7371660247795
 20
326.6946573214327
 30
0.0
 40
2.0
100
AcDbArc
 50
180.0
 51
270.0
  0
ARC
  5
1C6
330
56
100
AcDbEntity
  8
1
  6
Continuous
 62
     7
100
AcDbCircle
 10
306.7371660247795
 20
326.6946573214327
 30
0.0
 40
4.300000000000011
100
AcDbArc
 50
180.0
 51
221.3598582798485
  0
ARC
  5
1C7
330
56
100
AcDbEntity
  8
1
  6
Continuous
 62
     7
100
AcDbCircle
 10
203.1871660247795
 20
334.6946573214327
 30
0.0
 40
2.5
100
AcDbArc
 50
90.0
 51
180.0
  0
ARC
  5
1C8
330
56
100
AcDbEntity
  8
1
  6
Continuous
 62
     7
100
AcDbCircle
 10
220.6871660247795
 20
334.6946573214327
 30
0.0
 40
2.5
100
AcDbArc
 50
0.0
 51
90.0
  0
ARC
  5
1C9
330
56
100
AcDbEntity
  8
1
  6
Continuous
 62
     7
100
AcDbCircle
 10
220.6871660247795
 20
327.1946573214327
 30
0.0
 40
2.5
100
AcDbArc
 50
270.0
 51
0.0
  0
ARC
  5
1CA
330
56
100
AcDbEntity
  8
1
  6
Continuous
 62
     7
100
AcDbCircle
 10
203.1871660247795
 20
327.1946573214327
 30
0.0
 40
2.5
100
AcDbArc
 50
180.0
 51
270.0
  0
ARC
  5
1CB
330
56
100
AcDbEntity
  8
1
  6
Continuous
 62
     7
100
AcDbCircle
 10
220.6871660247795
 20
334.6946573214327
 30
0.0
 40
0.9000000000001194
100
AcDbArc
 50
0.0
 51
90.0
  0
ARC
  5
1CC
330
56
100
AcDbEntity
  8
1
  6
Continuous
 62
     7
100
AcDbCircle
 10
203.1871660247795
 20
334.6946573214327
 30
0.0
 40
0.8999999999999773
100
AcDbArc
 50
90.0
 51
180.0
  0
ARC
  5
1CD
330
56
100
AcDbEntity
  8
1
  6
Continuous
 62
     7
100
AcDbCircle
 10
220.6871660247795
 20
327.1946573214327
 30
0.0
 40
0.9000000000000341
100
AcDbArc
 50
270.0
 51
0.0
  0
ARC
  5
1CE
330
56
100
AcDbEntity
  8
1
  6
Continuous
 62
     7
100
AcDbCircle
 10
203.1871660247795
 20
327.1946573214327
 30
0.0
 40
0.8999999999999773
100
AcDbArc
 50
180.0
 51
270.0
  0
ARC
  5
1CF
330
56
100
AcDbEntity
  8
1
  6
Continuous
 62
     7
100
AcDbCircle
 10
207.1871660247795
 20
445.7584323652951
 30
0.0
 40
0.75
100
AcDbArc
 50
180.0
 51
270.0
  0
ARC
  5
1D0
330
56
100
AcDbEntity
  8
1
  6
Continuous
 62
     7
100
AcDbCircle
 10
202.6871660247795
 20
453.0084323652951
 30
0.0
 40
2.0
100
AcDbArc
 50
90.0
 51
180.0
  0
ARC
  5
1D1
330
56
100
AcDbEntity
  8
1
  6
Continuous
 62
     7
100
AcDbCircle
 10
221.1871660247795
 20
453.0084323652951
 30
0.0
 40
2.0
100
AcDbArc
 50
0.0
 51
90.0
  0
ARC
  5
1D2
330
56
100
AcDbEntity
  8
1
  6
Continuous
 62
     7
100
AcDbCircle
 10
329.8414272247658
 20
325.9446573214327
 30
0.0
 40
1.999999999999901
100
AcDbArc
 50
16.81592167298801
 51
90.0
  0
ARC
  5
1D3
330
56
100
AcDbEntity
  8
1
  6
Continuous
 62
     7
100
AcDbCircle
 10
335.0545161548855
 20
324.4523943649255
 30
0.0
 40
2.000000000000015
100
AcDbArc
 50
218.351164863216
 51
291.9567848398856
  0
ARC
  5
1D4
330
56
100
AcDbEntity
  8
1
  6
Continuous
 62
     7
100
AcDbCircle
 10
329.8414272247658
 20
335.9446573214327
 30
0.0
 40
2.0
100
AcDbArc
 50
270.0
 51
343.1840783270058
  0
ARC
  5
1D5
330
56
100
AcDbEntity
  8
1
  6
Continuous
 62
     7
100
AcDbCircle
 10
335.0545161548855
 20
337.4369202779398
 30
0.0
 40
1.999999999999966
100
AcDbArc
 50
68.04321516011558
 51
141.648835136784
  0
ARC
  5
1D6
330
56
100
AcDbEntity
  8
1
  6
Continuous
 62
     7
100
AcDbCircle
 10
305.4871660247795
 20
335.6946573214327
 30
0.0
 40
0.75
100
AcDbArc
 50
90.0
 51
180.0
  0
ARC
  5
1D7
330
56
100
AcDbEntity
  8
1
  6
Continuous
 62
     7
100
AcDbCircle
 10
312.7371660247795
 20
335.1946573214327
 30
0.0
 40
2.0
100
AcDbArc
 50
0.0
 51
90.0
  0
ARC
  5
1D8
330
56
100
AcDbEntity
  8
1
  6
Continuous
 62
     7
100
AcDbCircle
 10
312.7371660247795
 20
326.6946573214327
 30
0.0
 40
2.0
100
AcDbArc
 50
270.0
 51
0.0
  0
ENDBLK
  5
58
330
56
100
AcDbEntity
  8
0
100
AcDbBlockEnd
  0
BLOCK
  5
5A
330
59
100
AcDbEntity
  8
0
100
AcDbBlockBegin
  2
開示A4
 70
     0
 10
0.0
 20
0.0
 30
0.0
  3
開示A4
  1

  0
POINT
  5
1D9
330
59
100
AcDbEntity
  8
1
 62
     4
100
AcDbPoint
 10
93.75
 20
17.0
 30
0.0
  0
POINT
  5
1DA
330
59
100
AcDbEntity
  8
1
 62
     4
100
AcDbPoint
 10
85.25
 20
17.0
 30
0.0
  0
POINT
  5
1DB
330
59
100
AcDbEntity
  8
1
 62
     4
100
AcDbPoint
 10
106.5
 20
19.00000000000001
 30
0.0
  0
POINT
  5
1DC
330
59
100
AcDbEntity
  8
1
 62
     4
100
AcDbPoint
 10
106.5
 20
12.5
 30
0.0
  0
POINT
  5
1DD
330
59
100
AcDbEntity
  8
1
 62
     4
100
AcDbPoint
 10
112.25
 20
12.5
 30
0.0
  0
POINT
  5
1DE
330
59
100
AcDbEntity
  8
1
 62
     4
100
AcDbPoint
 10
100.75
 20
12.5
 30
0.0
  0
POINT
  5
1DF
330
59
100
AcDbEntity
  8
1
 62
     4
100
AcDbPoint
 10
123.5
 20
19.00000000000001
 30
0.0
  0
POINT
  5
1E0
330
59
100
AcDbEntity
  8
1
 62
     4
100
AcDbPoint
 10
123.5
 20
12.5
 30
0.0
  0
POINT
  5
1E1
330
59
100
AcDbEntity
  8
1
 62
     4
100
AcDbPoint
 10
129.25
 20
12.5
 30
0.0
  0
POINT
  5
1E2
330
59
100
AcDbEntity
  8
1
 62
     4
100
AcDbPoint
 10
117.75
 20
12.5
 30
0.0
  0
POINT
  5
1E3
330
59
100
AcDbEntity
  8
1
 62
     4
100
AcDbPoint
 10
140.5
 20
19.00000000000001
 30
0.0
  0
POINT
  5
1E4
330
59
100
AcDbEntity
  8
1
 62
     4
100
AcDbPoint
 10
140.5
 20
12.5
 30
0.0
  0
POINT
  5
1E5
330
59
100
AcDbEntity
  8
1
 62
     4
100
AcDbPoint
 10
146.25
 20
12.5
 30
0.0
  0
POINT
  5
1E6
330
59
100
AcDbEntity
  8
1
 62
     4
100
AcDbPoint
 10
134.75
 20
12.5
 30
0.0
  0
POINT
  5
1E7
330
59
100
AcDbEntity
  8
1
 62
     4
100
AcDbPoint
 10
151.75
 20
12.5
 30
0.0
  0
POINT
  5
1E8
330
59
100
AcDbEntity
  8
1
 62
     4
100
AcDbPoint
 10
163.25
 20
12.5
 30
0.0
  0
POINT
  5
1E9
330
59
100
AcDbEntity
  8
1
 62
     4
100
AcDbPoint
 10
157.5
 20
12.5
 30
0.0
  0
POINT
  5
1EA
330
59
100
AcDbEntity
  8
1
 62
     4
100
AcDbPoint
 10
57.0
 20
14.25
 30
0.0
  0
POINT
  5
1EB
330
59
100
AcDbEntity
  8
1
 62
     4
100
AcDbPoint
 10
57.0
 20
22.75000000000001
 30
0.0
  0
POINT
  5
1EC
330
59
100
AcDbEntity
  8
1
 62
     4
100
AcDbPoint
 10
47.5
 20
282.0000000000003
 30
0.0
  0
POINT
  5
1ED
330
59
100
AcDbEntity
  8
1
 62
     4
100
AcDbPoint
 10
157.5
 20
19.00000000000001
 30
0.0
  0
POINT
  5
1EE
330
59
100
AcDbEntity
  8
1
 62
     4
100
AcDbPoint
 10
57.0
 20
16.25
 30
0.0
  0
POINT
  5
1EF
330
59
100
AcDbEntity
  8
1
 62
     4
100
AcDbPoint
 10
57.0
 20
24.75000000000001
 30
0.0
  0
POINT
  5
1F0
330
59
100
AcDbEntity
  8
1
 62
     4
100
AcDbPoint
 10
57.0
 20
20.75000000000001
 30
0.0
  0
POINT
  5
1F1
330
59
100
AcDbEntity
  8
1
 62
     4
100
AcDbPoint
 10
57.0
 20
12.25
 30
0.0
  0
POINT
  5
1F2
330
59
100
AcDbEntity
  8
1
 62
     4
100
AcDbPoint
 10
34.0
 20
34.00000000000001
 30
0.0
  0
LINE
  5
1F3
330
59
100
AcDbEntity
  8
1
  6
Continuous
 62
     7
100
AcDbLine
 10
105.0
 20
10.0
 30
0.0
 11
200.0
 21
10.0
 31
0.0
  0
LINE
  5
1F4
330
59
100
AcDbEntity
  8
1
  6
Continuous
 62
     2
100
AcDbLine
 10
105.0
 20
10.0
 30
0.0
 11
105.0
 21
5.0
 31
0.0
  0
LINE
  5
1F5
330
59
100
AcDbEntity
  8
1
  6
Continuous
 62
     7
100
AcDbLine
 10
200.0
 20
148.5
 30
0.0
 11
200.0
 21
287.0000000000003
 31
0.0
  0
LINE
  5
1F6
330
59
100
AcDbEntity
  8
1
  6
Continuous
 62
     2
100
AcDbLine
 10
200.0
 20
148.5
 30
0.0
 11
205.0
 21
148.5
 31
0.0
  0
LINE
  5
1F7
330
59
100
AcDbEntity
  8
1
  6
Continuous
 62
     7
100
AcDbLine
 10
25.0
 20
148.5
 30
0.0
 11
25.0
 21
287.0000000000003
 31
0.0
  0
LINE
  5
1F8
330
59
100
AcDbEntity
  8
1
  6
Continuous
 62
     2
100
AcDbLine
 10
25.0
 20
148.5
 30
0.0
 11
20.0
 21
148.5
 31
0.0
  0
LINE
  5
1F9
330
59
100
AcDbEntity
  8
1
  6
Continuous
 62
     7
100
AcDbLine
 10
105.0
 20
287.0000000000003
 30
0.0
 11
25.0
 21
287.0000000000003
 31
0.0
  0
LINE
  5
1FA
330
59
100
AcDbEntity
  8
1
  6
Continuous
 62
     2
100
AcDbLine
 10
105.0
 20
287.0000000000003
 30
0.0
 11
105.0
 21
292.0000000000003
 31
0.0
  0
LINE
  5
1FB
330
59
100
AcDbEntity
  8
1
  6
Continuous
 62
     2
100
AcDbLine
 10
166.0
 20
20.00000000000001
 30
0.0
 11
200.0
 21
20.00000000000001
 31
0.0
  0
LINE
  5
1FC
330
59
100
AcDbEntity
  8
1
  6
Continuous
 62
     2
100
AcDbLine
 10
98.0
 20
27.00000000000001
 30
0.0
 11
98.0
 21
9.99999999999999
 31
0.0
  0
LINE
  5
1FD
330
59
100
AcDbEntity
  8
1
  6
Continuous
 62
     2
100
AcDbLine
 10
115.0
 20
27.00000000000001
 30
0.0
 11
115.0
 21
9.99999999999999
 31
0.0
  0
LINE
  5
1FE
330
59
100
AcDbEntity
  8
1
  6
Continuous
 62
     2
100
AcDbLine
 10
149.0
 20
27.00000000000001
 30
0.0
 11
149.0
 21
10.0
 31
0.0
  0
LINE
  5
1FF
330
59
100
AcDbEntity
  8
1
  6
Continuous
 62
     2
100
AcDbLine
 10
132.0
 20
27.00000000000001
 30
0.0
 11
132.0
 21
9.99999999999999
 31
0.0
  0
LINE
  5
200
330
59
100
AcDbEntity
  8
1
  6
Continuous
 62
     2
100
AcDbLine
 10
166.0
 20
27.00000000000001
 30
0.0
 11
166.0
 21
10.0
 31
0.0
  0
LINE
  5
201
330
59
100
AcDbEntity
  8
1
  6
Continuous
 62
     2
100
AcDbLine
 10
55.0
 20
277.0000000000003
 30
0.0
 11
25.0
 21
277.0000000000003
 31
0.0
  0
LINE
  5
202
330
59
100
AcDbEntity
  8
1
  6
Continuous
 62
     7
100
AcDbLine
 10
25.0
 20
10.0
 30
0.0
 11
25.0
 21
148.5
 31
0.0
  0
LINE
  5
203
330
59
100
AcDbEntity
  8
1
  6
Continuous
 62
     2
100
AcDbLine
 10
40.0
 20
287.0000000000003
 30
0.0
 11
40.0
 21
277.0000000000003
 31
0.0
  0
LINE
  5
204
330
59
100
AcDbEntity
  8
1
  6
Continuous
 62
     2
100
AcDbLine
 10
55.0
 20
287.0000000000003
 30
0.0
 11
55.0
 21
277.0000000000003
 31
0.0
  0
LINE
  5
205
330
59
100
AcDbEntity
  8
1
  6
Continuous
 62
     2
100
AcDbLine
 10
33.0
 20
41.00000000000001
 30
0.0
 11
33.0
 21
27.0
 31
0.0
  0
LINE
  5
206
330
59
100
AcDbEntity
  8
1
  6
Continuous
 62
     7
100
AcDbLine
 10
200.0
 20
27.00000000000001
 30
0.0
 11
25.0
 21
27.00000000000001
 31
0.0
  0
LINE
  5
207
330
59
100
AcDbEntity
  8
1
  6
Continuous
 62
     7
100
AcDbLine
 10
25.0
 20
41.0
 30
0.0
 11
200.0
 21
41.0
 31
0.0
  0
LINE
  5
208
330
59
100
AcDbEntity
  8
1
  6
PHANTOM
 62
     4
100
AcDbLine
 10
0.0
 20
0.0
 30
0.0
 11
210.0
 21
0.0
 31
0.0
  0
LINE
  5
209
330
59
100
AcDbEntity
  8
1
  6
PHANTOM
 62
     4
100
AcDbLine
 10
210.0
 20
0.0
 30
0.0
 11
210.0
 21
297.0
 31
0.0
  0
LINE
  5
20A
330
59
100
AcDbEntity
  8
1
  6
PHANTOM
 62
     4
100
AcDbLine
 10
210.0
 20
297.0
 30
0.0
 11
0.0
 21
297.0
 31
0.0
  0
LINE
  5
20B
330
59
100
AcDbEntity
  8
1
  6
PHANTOM
 62
     4
100
AcDbLine
 10
0.0
 20
297.0
 30
0.0
 11
0.0
 21
0.0
 31
0.0
  0
LINE
  5
20C
330
59
100
AcDbEntity
  8
1
  6
Continuous
 62
     7
100
AcDbLine
 10
25.0
 20
10.0
 30
0.0
 11
105.0
 21
10.0
 31
0.0
  0
LINE
  5
20D
330
59
100
AcDbEntity
  8
1
  6
Continuous
 62
     7
100
AcDbLine
 10
200.0
 20
10.0
 30
0.0
 11
200.0
 21
148.5
 31
0.0
  0
LINE
  5
20E
330
59
100
AcDbEntity
  8
1
  6
Continuous
 62
     7
100
AcDbLine
 10
200.0
 20
287.0000000000003
 30
0.0
 11
105.0
 21
287.0000000000003
 31
0.0
  0
LINE
  5
20F
330
59
100
AcDbEntity
  8
1
  6
Continuous
 62
     2
100
AcDbLine
 10
25.0
 20
18.50000000000001
 30
0.0
 11
81.0
 21
18.50000000000001
 31
0.0
  0
LINE
  5
210
330
59
100
AcDbEntity
  8
1
  6
Continuous
 62
     2
100
AcDbLine
 10
33.0
 20
27.0
 30
0.0
 11
33.0
 21
10.0
 31
0.0
  0
LINE
  5
211
330
59
100
AcDbEntity
  8
1
  6
Continuous
 62
     7
100
AcDbLine
 10
191.0
 20
24.70000000000001
 30
0.0
 11
191.0
 21
22.30000000000001
 31
0.0
  0
LINE
  5
212
330
59
100
AcDbEntity
  8
1
  6
Continuous
 62
     7
100
AcDbLine
 10
191.0
 20
24.70000000000001
 30
0.0
 11
196.0
 21
25.50000000000001
 31
0.0
  0
LINE
  5
213
330
59
100
AcDbEntity
  8
1
  6
Continuous
 62
     7
100
AcDbLine
 10
196.0
 20
25.50000000000001
 30
0.0
 11
196.0
 21
21.50000000000001
 31
0.0
  0
LINE
  5
214
330
59
100
AcDbEntity
  8
1
  6
Continuous
 62
     7
100
AcDbLine
 10
196.0
 20
21.50000000000001
 30
0.0
 11
191.0
 21
22.30000000000001
 31
0.0
  0
LINE
  5
215
330
59
100
AcDbEntity
  8
1
  6
DOT_CENTER
 62
     2
100
AcDbLine
 10
184.0
 20
23.50000000000001
 30
0.0
 11
197.0
 21
23.50000000000001
 31
0.0
  0
LINE
  5
216
330
59
100
AcDbEntity
  8
1
  6
DOT_CENTER
 62
     2
100
AcDbLine
 10
187.0
 20
26.50000000000001
 30
0.0
 11
187.0
 21
20.50000000000001
 31
0.0
  0
LINE
  5
217
330
59
100
AcDbEntity
  8
1
  6
Continuous
 62
     2
100
AcDbLine
 10
81.0
 20
27.00000000000001
 30
0.0
 11
81.0
 21
10.0
 31
0.0
  0
CIRCLE
  5
218
330
59
100
AcDbEntity
  8
1
  6
Continuous
 62
     7
100
AcDbCircle
 10
103.5
 20
12.5
 30
0.0
 40
0.2999999999999972
  0
CIRCLE
  5
219
330
59
100
AcDbEntity
  8
1
  6
Continuous
 62
     7
100
AcDbCircle
 10
109.5
 20
12.5
 30
0.0
 40
0.2999999999999972
  0
CIRCLE
  5
21A
330
59
100
AcDbEntity
  8
1
  6
Continuous
 62
     7
100
AcDbCircle
 10
120.5
 20
12.5
 30
0.0
 40
0.2999999999999972
  0
CIRCLE
  5
21B
330
59
100
AcDbEntity
  8
1
  6
Continuous
 62
     7
100
AcDbCircle
 10
126.5
 20
12.5
 30
0.0
 40
0.2999999999999972
  0
CIRCLE
  5
21C
330
59
100
AcDbEntity
  8
1
  6
Continuous
 62
     7
100
AcDbCircle
 10
137.5
 20
12.5
 30
0.0
 40
0.3000000000000114
  0
CIRCLE
  5
21D
330
59
100
AcDbEntity
  8
1
  6
Continuous
 62
     7
100
AcDbCircle
 10
143.5
 20
12.5
 30
0.0
 40
0.3000000000000114
  0
CIRCLE
  5
21E
330
59
100
AcDbEntity
  8
1
  6
Continuous
 62
     7
100
AcDbCircle
 10
160.5
 20
12.5
 30
0.0
 40
0.3000000000000114
  0
CIRCLE
  5
21F
330
59
100
AcDbEntity
  8
1
  6
Continuous
 62
     7
100
AcDbCircle
 10
154.5
 20
12.5
 30
0.0
 40
0.3000000000000114
  0
CIRCLE
  5
220
330
59
100
AcDbEntity
  8
1
  6
Continuous
 62
     7
100
AcDbCircle
 10
187.0
 20
23.50000000000001
 30
0.0
 40
1.200000000000102
  0
CIRCLE
  5
221
330
59
100
AcDbEntity
  8
1
  6
Continuous
 62
     7
100
AcDbCircle
 10
187.0
 20
23.50000000000001
 30
0.0
 40
2.0
  0
CIRCLE
  5
222
330
59
100
AcDbEntity
  8
1
  6
DOT_CENTER
 62
     7
100
AcDbCircle
 10
89.5
 20
16.0
 30
0.0
 40
0.1000000000000227
  0
CIRCLE
  5
223
330
59
100
AcDbEntity
  8
1
  6
DOT_CENTER
 62
     7
100
AcDbCircle
 10
89.5
 20
18.0
 30
0.0
 40
0.1000000000000227
  0
MTEXT
  5
225
330
59
100
AcDbEntity
  8
1
 62
     7
100
AcDbMText
 10
188.5
 20
15.0
 30
0.0
 40
3.0
 41
0.0
 71
     5
 72
     1
  1
三栄水栓製作所
  7
CONVERTER_11
 73
     1
 44
1.0
  0
MTEXT
  5
226
330
59
100
AcDbEntity
  8
1
 62
     7
100
AcDbMText
 10
171.5
 20
15.0
 30
0.0
 40
2.5
 41
0.0
 71
     5
 72
     1
  1
株式会社
  7
CONVERTER_11
 73
     1
 44
1.0
  0
MTEXT
  5
227
330
59
100
AcDbEntity
  8
1
 62
     2
100
AcDbMText
 10
32.5
 20
282.0000000000003
 30
0.0
 40
5.0
 41
0.0
 71
     5
 72
     1
  1
図番
  7
CONVERTER_11
 73
     1
 44
0.45454545454545
  0
MTEXT
  5
228
330
59
100
AcDbEntity
  8
1
 62
     2
100
AcDbMText
 10
29.0
 20
34.00000000000001
 30
0.0
 40
3.5
 41
0.0
 71
     5
 72
     1
  1
備考
  7
CONVERTER_11
 73
     1
 44
0.45454545454545
  0
MTEXT
  5
229
330
59
100
AcDbEntity
  8
1
 62
     2
100
AcDbMText
 10
29.0
 20
22.75
 30
0.0
 40
3.5
 41
0.0
 71
     5
 72
     1
  1
品名
  7
CONVERTER_11
 73
     1
 44
0.72727272727273
  0
MTEXT
  5
22A
330
59
100
AcDbEntity
  8
1
 62
     2
100
AcDbMText
 10
29.0
 20
14.25
 30
0.0
 40
3.5
 41
0.0
 71
     5
 72
     1
  1
品番
  7
CONVERTER_11
 73
     1
 44
0.72727272727273
  0
MTEXT
  5
22B
330
59
100
AcDbEntity
  8
1
 62
     2
100
AcDbMText
 10
101.5
 20
25.00000000000001
 30
0.0
 40
3.0
 41
0.0
 71
     5
 72
     1
  1
承認
  7
CONVERTER_11
 73
     1
 44
0.59090909090909
  0
MTEXT
  5
22C
330
59
100
AcDbEntity
  8
1
 62
     2
100
AcDbMText
 10
175.0
 20
23.50000000000001
 30
0.0
 40
3.5
 41
0.0
 71
     5
 72
     1
  1
第三角法
  7
CONVERTER_11
 73
     1
 44
0.54545454545455
  0
MTEXT
  5
22D
330
59
100
AcDbEntity
  8
1
 62
     2
100
AcDbMText
 10
118.5
 20
25.00000000000001
 30
0.0
 40
3.0
 41
0.0
 71
     5
 72
     1
  1
検図
  7
CONVERTER_11
 73
     1
 44
0.59090909090909
  0
MTEXT
  5
22E
330
59
100
AcDbEntity
  8
1
 62
     2
100
AcDbMText
 10
152.5
 20
25.00000000000001
 30
0.0
 40
3.0
 41
0.0
 71
     5
 72
     1
  1
設計
  7
CONVERTER_11
 73
     1
 44
0.59090909090909
  0
MTEXT
  5
22F
330
59
100
AcDbEntity
  8
1
 62
     2
100
AcDbMText
 10
135.5
 20
25.00000000000001
 30
0.0
 40
3.0
 41
0.0
 71
     5
 72
     1
  1
製図
  7
CONVERTER_11
 73
     1
 44
0.59090909090909
  0
MTEXT
  5
230
330
59
100
AcDbEntity
  8
1
 62
     2
100
AcDbMText
 10
89.5
 20
24.00000000000001
 30
0.0
 40
3.5
 41
0.0
 71
     5
 72
     1
  1
尺度
  7
CONVERTER_11
 73
     1
 44
0.54545454545455
  0
MTEXT
  5
231
330
59
100
AcDbEntity
  8
1
 62
   250
100
AcDbMText
 10
25.0
 20
5.0
 30
0.0
 40
3.5
 41
0.0
 71
     4
 72
     1
  1
備考欄の文字列 原点位置=4
  7
CONVERTER_11
 73
     1
 44
0.54545454545455
  0
ENDBLK
  5
5B
330
59
100
AcDbEntity
  8
0
100
AcDbBlockEnd
  0
BLOCK
  5
249
330
242
100
AcDbEntity
  8
0
100
AcDbBlockBegin
  2
*D8
 70
     1
 10
0.0
 20
0.0
 30
0.0
  3
*D8
  1

  0
LINE
  5
243
330
242
100
AcDbEntity
  8
1
  6
Continuous
 62
     2
100
AcDbLine
 10
158.9703703361877
 20
359.4369202779398
 30
0.0
 11
226.9371660247795
 21
359.4369202779398
 31
0.0
  0
LINE
  5
244
330
242
100
AcDbEntity
  8
1
  6
Continuous
 62
     2
100
AcDbLine
 10
158.9703703361877
 20
329.3796150363686
 30
0.0
 11
158.9703703361877
 21
361.4369202779398
 31
0.0
  0
LINE
  5
245
330
242
100
AcDbEntity
  8
1
  6
Continuous
 62
     2
100
AcDbLine
 10
226.9371660247795
 20
322.3946573214327
 30
0.0
 11
226.9371660247795
 21
361.4369202779398
 31
0.0
  0
SOLID
  5
246
330
242
100
AcDbEntity
  8
1
 62
     2
100
AcDbTrace
 10
165.9703703361877
 20
360.3584877610515
 30
0.0
 11
165.9703703361877
 21
358.5153527948281
 31
0.0
 12
158.9703703361877
 22
359.4369202779398
 32
0.0
 13
158.9703703361877
 23
359.4369202779398
 33
0.0
  0
SOLID
  5
247
330
242
100
AcDbEntity
  8
1
 62
     2
100
AcDbTrace
 10
219.9371660247795
 20
358.5153527948281
 30
0.0
 11
219.9371660247795
 21
360.3584877610515
 31
0.0
 12
226.9371660247795
 22
359.4369202779398
 32
0.0
 13
226.9371660247795
 23
359.4369202779398
 33
0.0
  0
MTEXT
  5
248
330
242
100
AcDbEntity
  8
1
 62
     7
100
AcDbMText
 10
187.7037681804836
 20
361.4369202779398
 30
0.0
 40
7.0
 41
0.0
 71
     7
 72
     1
  1
68
  7
CONVERTER_12
 11
0.9999999999970619
 21
2.424068405545306E-6
 31
0.0
 73
     1
 44
0.60024009603842
  0
ENDBLK
  5
24A
330
242
100
AcDbEntity
  8
0
100
AcDbBlockEnd
  0
BLOCK
  5
255
330
24D
100
AcDbEntity
  8
0
100
AcDbBlockBegin
  2
*D9
 70
     1
 10
0.0
 20
0.0
 30
0.0
  3
*D9
  1

  0
LINE
  5
24E
330
24D
100
AcDbEntity
  8
1
  6
Continuous
 62
     2
100
AcDbLine
 10
200.7008701800108
 20
118.3984628593028
 30
0.0
 11
294.200182800116
 21
118.3984628593028
 31
0.0
  0
LINE
  5
24F
330
24D
100
AcDbEntity
  8
1
  6
Continuous
 62
     2
100
AcDbLine
 10
117.2398704923645
 20
118.3984628593028
 30
0.0
 11
200.7008701800108
 21
118.3984628593028
 31
0.0
  0
LINE
  5
250
330
24D
100
AcDbEntity
  8
1
  6
Continuous
 62
     2
100
AcDbLine
 10
200.7008701800108
 20
268.918456612231
 30
0.0
 11
200.7008701800108
 21
116.3984628593028
 31
0.0
  0
LINE
  5
251
330
24D
100
AcDbEntity
  8
1
  6
Continuous
 62
     2
100
AcDbLine
 10
117.2398704923645
 20
268.918456612231
 30
0.0
 11
117.2398704923645
 21
116.3984628593028
 31
0.0
  0
SOLID
  5
252
330
24D
100
AcDbEntity
  8
1
 62
     2
100
AcDbTrace
 10
124.2398704923645
 20
119.3200303424146
 30
0.0
 11
124.2398704923645
 21
117.476895376191
 31
0.0
 12
117.2398704923645
 22
118.3984628593028
 32
0.0
 13
117.2398704923645
 23
118.3984628593028
 33
0.0
  0
SOLID
  5
253
330
24D
100
AcDbEntity
  8
1
 62
     2
100
AcDbTrace
 10
193.7008701800108
 20
117.476895376191
 30
0.0
 11
193.7008701800108
 21
119.3200303424146
 31
0.0
 12
200.7008701800108
 22
118.3984628593028
 32
0.0
 13
200.7008701800108
 23
118.3984628593028
 33
0.0
  0
MTEXT
  5
254
330
24D
100
AcDbEntity
  8
1
 62
     7
100
AcDbMText
 10
209.500182800116
 20
120.3984628593028
 30
0.0
 40
7.0
 41
0.0
 71
     7
 72
     1
  1
{\Fgdt;n}77(VP)・{\Fgdt;n}83(VU)
  7
CONVERTER_11
 11
0.9999999999970619
 21
2.424068405545306E-6
 31
0.0
 73
     1
 44
0.45454545454545
  0
ENDBLK
  5
256
330
24D
100
AcDbEntity
  8
0
100
AcDbBlockEnd
  0
BLOCK
  5
260
330
259
100
AcDbEntity
  8
0
100
AcDbBlockBegin
  2
*D10
 70
     1
 10
0.0
 20
0.0
 30
0.0
  3
*D10
  1

  0
LINE
  5
25A
330
259
100
AcDbEntity
  8
1
  6
Continuous
 62
     2
100
AcDbLine
 10
135.9703703361877
 20
134.3984628593028
 30
0.0
 11
181.9703703361877
 21
134.3984628593028
 31
0.0
  0
LINE
  5
25B
330
259
100
AcDbEntity
  8
1
  6
Continuous
 62
     2
100
AcDbLine
 10
135.9703703361877
 20
170.8984628593028
 30
0.0
 11
135.9703703361877
 21
132.3984628593028
 31
0.0
  0
LINE
  5
25C
330
259
100
AcDbEntity
  8
1
  6
Continuous
 62
     2
100
AcDbLine
 10
181.9703703361877
 20
170.8984628593028
 30
0.0
 11
181.9703703361877
 21
132.3984628593028
 31
0.0
  0
SOLID
  5
25D
330
259
100
AcDbEntity
  8
1
 62
     2
100
AcDbTrace
 10
142.9703703361877
 20
135.3200303424146
 30
0.0
 11
142.9703703361877
 21
133.476895376191
 31
0.0
 12
135.9703703361877
 22
134.3984628593028
 32
0.0
 13
135.9703703361877
 23
134.3984628593028
 33
0.0
  0
SOLID
  5
25E
330
259
100
AcDbEntity
  8
1
 62
     2
100
AcDbTrace
 10
174.9703703361877
 20
133.476895376191
 30
0.0
 11
174.9703703361877
 21
135.3200303424146
 31
0.0
 12
181.9703703361877
 22
134.3984628593028
 32
0.0
 13
181.9703703361877
 23
134.3984628593028
 33
0.0
  0
MTEXT
  5
25F
330
259
100
AcDbEntity
  8
1
 62
     7
100
AcDbMText
 10
152.1803703362046
 20
136.3984489451502
 30
0.0
 40
7.0
 41
0.0
 71
     7
 72
     1
  1
\C7;{\Fgdt;n}\C7;46
  7
CONVERTER_12
 11
0.9999999999970619
 21
2.424068405545306E-6
 31
0.0
 73
     1
 44
0.60024009603842
  0
ENDBLK
  5
261
330
259
100
AcDbEntity
  8
0
100
AcDbBlockEnd
  0
BLOCK
  5
26B
330
264
100
AcDbEntity
  8
0
100
AcDbBlockBegin
  2
*D11
 70
     1
 10
0.0
 20
0.0
 30
0.0
  3
*D11
  1

  0
LINE
  5
265
330
264
100
AcDbEntity
  8
1
  6
Continuous
 62
     2
100
AcDbLine
 10
76.47037033618776
 20
303.3946573214328
 30
0.0
 11
76.47037033618776
 21
268.8984628593029
 31
0.0
  0
LINE
  5
266
330
264
100
AcDbEntity
  8
1
  6
Continuous
 62
     2
100
AcDbLine
 10
133.4703703361877
 20
303.3946573214328
 30
0.0
 11
74.47037033618776
 21
303.3946573214328
 31
0.0
  0
LINE
  5
267
330
264
100
AcDbEntity
  8
1
  6
Continuous
 62
     2
100
AcDbLine
 10
96.77037033618777
 20
268.8984628593029
 30
0.0
 11
74.47037033618776
 21
268.8984628593029
 31
0.0
  0
SOLID
  5
268
330
264
100
AcDbEntity
  8
1
 62
     2
100
AcDbTrace
 10
77.39193781929953
 20
296.3946573214328
 30
0.0
 11
75.54880285307598
 21
296.3946573214328
 31
0.0
 12
76.47037033618776
 22
303.3946573214328
 32
0.0
 13
76.47037033618776
 23
303.3946573214328
 33
0.0
  0
SOLID
  5
269
330
264
100
AcDbEntity
  8
1
 62
     2
100
AcDbTrace
 10
75.54880285307598
 20
275.8984628593029
 30
0.0
 11
77.39193781929953
 21
275.8984628593029
 31
0.0
 12
76.47037033618776
 22
268.8984628593029
 32
0.0
 13
76.47037033618776
 23
268.8984628593029
 33
0.0
  0
MTEXT
  5
26A
330
264
100
AcDbEntity
  8
1
 62
     7
100
AcDbMText
 10
74.47037033618776
 20
280.8965600903678
 30
0.0
 40
7.0
 41
0.0
 71
     7
 72
     1
  1
35
  7
CONVERTER_12
 11
0.0
 21
1.0
 31
0.0
 73
     1
 44
0.60024009603842
  0
ENDBLK
  5
26C
330
264
100
AcDbEntity
  8
0
100
AcDbBlockEnd
  0
BLOCK
  5
276
330
26F
100
AcDbEntity
  8
0
100
AcDbBlockBegin
  2
*D12
 70
     1
 10
0.0
 20
0.0
 30
0.0
  3
*D12
  1

  0
LINE
  5
270
330
26F
100
AcDbEntity
  8
1
  6
Continuous
 62
     2
100
AcDbLine
 10
76.47037033618776
 20
246.918456612231
 30
0.0
 11
76.47037033618776
 21
154.3984628593028
 31
0.0
  0
LINE
  5
271
330
26F
100
AcDbEntity
  8
1
  6
Continuous
 62
     2
100
AcDbLine
 10
118.2398704923645
 20
246.918456612231
 30
0.0
 11
74.47037033618776
 21
246.918456612231
 31
0.0
  0
LINE
  5
272
330
26F
100
AcDbEntity
  8
1
  6
Continuous
 62
     2
100
AcDbLine
 10
152.4703703361877
 20
154.3984628593028
 30
0.0
 11
74.47037033618776
 21
154.3984628593028
 31
0.0
  0
SOLID
  5
273
330
26F
100
AcDbEntity
  8
1
 62
     2
100
AcDbTrace
 10
77.39193781929953
 20
239.918456612231
 30
0.0
 11
75.54880285307598
 21
239.918456612231
 31
0.0
 12
76.47037033618776
 22
246.918456612231
 32
0.0
 13
76.47037033618776
 23
246.918456612231
 33
0.0
  0
SOLID
  5
274
330
26F
100
AcDbEntity
  8
1
 62
     2
100
AcDbTrace
 10
75.54880285307598
 20
161.3984628593028
 30
0.0
 11
77.39193781929953
 21
161.3984628593028
 31
0.0
 12
76.47037033618776
 22
154.3984628593028
 32
0.0
 13
76.47037033618776
 23
154.3984628593028
 33
0.0
  0
MTEXT
  5
275
330
26F
100
AcDbEntity
  8
1
 62
     7
100
AcDbMText
 10
74.47037033618776
 20
195.4084597357669
 30
0.0
 40
7.0
 41
0.0
 71
     7
 72
     1
  1
93
  7
CONVERTER_12
 11
0.0
 21
1.0
 31
0.0
 73
     1
 44
0.60024009603842
  0
ENDBLK
  5
277
330
26F
100
AcDbEntity
  8
0
100
AcDbBlockEnd
  0
BLOCK
  5
281
330
27A
100
AcDbEntity
  8
0
100
AcDbBlockBegin
  2
*D13
 70
     1
 10
0.0
 20
0.0
 30
0.0
  3
*D13
  1

  0
LINE
  5
27B
330
27A
100
AcDbEntity
  8
1
  6
Continuous
 62
     2
100
AcDbLine
 10
76.47037033618776
 20
268.8984628593029
 30
0.0
 11
76.47037033618776
 21
246.918456612231
 31
0.0
  0
LINE
  5
27C
330
27A
100
AcDbEntity
  8
1
  6
Continuous
 62
     2
100
AcDbLine
 10
96.77037033618777
 20
268.8984628593029
 30
0.0
 11
74.47037033618776
 21
268.8984628593029
 31
0.0
  0
LINE
  5
27D
330
27A
100
AcDbEntity
  8
1
  6
Continuous
 62
     2
100
AcDbLine
 10
118.2398704923645
 20
246.918456612231
 30
0.0
 11
74.47037033618776
 21
246.918456612231
 31
0.0
  0
SOLID
  5
27E
330
27A
100
AcDbEntity
  8
1
 62
     2
100
AcDbTrace
 10
77.39193781929953
 20
261.8984628593029
 30
0.0
 11
75.54880285307598
 21
261.8984628593029
 31
0.0
 12
76.47037033618776
 22
268.8984628593029
 32
0.0
 13
76.47037033618776
 23
268.8984628593029
 33
0.0
  0
SOLID
  5
27F
330
27A
100
AcDbEntity
  8
1
 62
     2
100
AcDbTrace
 10
75.54880285307598
 20
253.918456612231
 30
0.0
 11
77.39193781929953
 21
253.918456612231
 31
0.0
 12
76.47037033618776
 22
246.918456612231
 32
0.0
 13
76.47037033618776
 23
246.918456612231
 33
0.0
  0
MTEXT
  5
280
330
27A
100
AcDbEntity
  8
1
 62
     7
100
AcDbMText
 10
74.47037033618776
 20
252.6584597357669
 30
0.0
 40
7.0
 41
0.0
 71
     7
 72
     1
  1
22
  7
CONVERTER_12
 11
0.0
 21
1.0
 31
0.0
 73
     1
 44
0.60024009603842
  0
ENDBLK
  5
282
330
27A
100
AcDbEntity
  8
0
100
AcDbBlockEnd
  0
BLOCK
  5
28A
330
285
100
AcDbEntity
  8
0
100
AcDbBlockBegin
  2
*D14
 70
     1
 10
0.0
 20
0.0
 30
0.0
  3
*D14
  1

  0
LINE
  5
286
330
285
100
AcDbEntity
  8
1
  6
Continuous
 62
     2
100
AcDbLine
 10
108.2553047176806
 20
396.7778543937586
 30
0.0
 11
227.0658633929534
 21
519.7863256180988
 31
0.0
  0
SOLID
  5
287
330
285
100
AcDbEntity
  8
1
 62
     2
100
AcDbTrace
 10
206.5910325603035
 20
499.9145787759472
 30
0.0
 11
207.9167508651193
 21
498.6341032861418
 31
0.0
 12
202.3908032287449
 22
494.2394258979849
 32
0.0
 13
202.3908032287449
 23
494.2394258979849
 33
0.0
  0
SOLID
  5
288
330
285
100
AcDbEntity
  8
1
 62
     2
100
AcDbTrace
 10
111.3497081120715
 20
398.6550742153859
 30
0.0
 11
110.0239898072558
 21
399.9355497051913
 31
0.0
 12
115.5499374436302
 22
404.3302270933482
 32
0.0
 13
115.5499374436302
 23
404.3302270933482
 33
0.0
  0
MTEXT
  5
289
330
285
100
AcDbEntity
  8
1
 62
     7
100
AcDbMText
 10
211.4270978388973
 20
506.4738272821264
 30
0.0
 40
7.0
 41
0.0
 71
     7
 72
     1
  1
\C7;{\Fgdt;n}\C7;125
  7
CONVERTER_12
 11
0.6947269262809175
 21
0.7192735904370942
 31
0.0
 73
     1
 44
0.60024009603842
  0
ENDBLK
  5
28B
330
285
100
AcDbEntity
  8
0
100
AcDbBlockEnd
  0
BLOCK
  5
292
330
28D
100
AcDbEntity
  8
0
100
AcDbBlockBegin
  2
*D15
 70
     1
 10
0.0
 20
0.0
 30
0.0
  3
*D15
  1

  0
LINE
  5
28E
330
28D
100
AcDbEntity
  8
1
  6
Continuous
 62
     2
100
AcDbLine
 10
328.8826025074096
 20
283.9492208388027
 30
0.0
 11
264.7586289582619
 21
348.0731943879503
 31
0.0
  0
SOLID
  5
28F
330
28D
100
AcDbEntity
  8
1
 62
     2
100
AcDbTrace
 10
291.814956659673
 20
319.7135734532805
 30
0.0
 11
293.1182498929317
 21
321.0168666865392
 31
0.0
 12
297.4163507446082
 22
315.415472601604
 32
0.0
 13
297.4163507446082
 23
315.415472601604
 33
0.0
  0
SOLID
  5
290
330
28D
100
AcDbEntity
  8
1
 62
     2
100
AcDbTrace
 10
327.059375389886
 20
287.0757411895849
 30
0.0
 11
325.7560821566273
 21
285.7724479563262
 31
0.0
 12
321.4579813049508
 22
291.3738420412614
 32
0.0
 13
321.4579813049508
 23
291.3738420412614
 33
0.0
  0
MTEXT
  5
291
330
28D
100
AcDbEntity
  8
1
 62
     7
100
AcDbMText
 10
269.8356556471813
 20
345.8245948237771
 30
0.0
 40
7.0
 41
0.0
 71
     7
 72
     1
  1
\C7;内径{\Fgdt;n}\C7;34
  7
CONVERTER_11
 11
0.7071067811865476
 21
-0.7071067811865475
 31
0.0
 73
     1
 44
0.45454545454545
  0
ENDBLK
  5
293
330
28D
100
AcDbEntity
  8
0
100
AcDbBlockEnd
  0
ENDSEC
  0
SECTION
  2
ENTITIES
  0
INSERT
  5
5C
330
1F
100
AcDbEntity
  8
1
100
AcDbBlockReference
  2
04
 10
361.1676658686026
 20
246.918456612231
 30
0.0
  0
INSERT
  5
5D
330
1F
100
AcDbEntity
  8
1
100
AcDbBlockReference
  2
07
 10
381.9371660247794
 20
268.8984628593028
 30
0.0
  0
INSERT
  5
5E
330
1F
100
AcDbEntity
  8
1
100
AcDbBlockReference
  2
05
 10
347.4892487514342
 20
241.8984628593027
 30
0.0
  0
INSERT
  5
5F
330
1F
100
AcDbEntity
  8
1
100
AcDbBlockReference
  2
06
 10
342.443917451623
 20
154.3984628593028
 30
0.0
  0
INSERT
  5
60
330
1F
100
AcDbEntity
  8
1
100
AcDbBlockReference
  2
02
 10
338.4703703361876
 20
272.3946573214327
 30
0.0
  0
INSERT
  5
61
330
1F
100
AcDbEntity
  8
1
100
AcDbBlockReference
  2
ring
 10
-231.3300751312508
 20
297.4012437219993
 30
0.0
  0
INSERT
  5
62
330
1F
100
AcDbEntity
  8
1
100
AcDbBlockReference
  2
開示A4
 10
0.0
 20
0.0
 30
0.0
 41
2.0
 42
2.0
 43
2.0
  0
LINE
  5
232
330
1F
100
AcDbEntity
  8
1
  6
DASH_CENTER
 62
     2
100
AcDbLine
 10
133.4703703361877
 20
303.3946573214327
 30
0.0
 11
232.9371660247795
 21
303.3946573214327
 31
0.0
  0
LINE
  5
233
330
1F
100
AcDbEntity
  8
1
  6
DASH_CENTER
 62
     2
100
AcDbLine
 10
231.9793301286424
 20
449.2848264956665
 30
0.0
 11
88.56456800448049
 21
449.2848264956665
 31
0.0
  0
LINE
  5
234
330
1F
100
AcDbEntity
  8
1
  6
DASH_CENTER
 62
     2
100
AcDbLine
 10
158.9703703361876
 20
519.971985441446
 30
0.0
 11
158.9703703361877
 21
380.2761767801202
 31
0.0
  0
LINE
  5
235
330
1F
100
AcDbEntity
  8
1
  6
DASH_CENTER
 62
     2
100
AcDbLine
 10
158.9703703361877
 20
329.3796150363686
 30
0.0
 11
158.9703703361877
 21
151.7122260278641
 31
0.0
  0
LINE
  5
236
330
1F
100
AcDbEntity
  8
1
  6
Continuous
 62
     3
100
AcDbLine
 10
159.7203703361878
 20
224.8984628593028
 30
0.0
 11
159.6979811306596
 21
224.8984628593028
 31
0.0
  0
LINE
  5
237
330
1F
100
AcDbEntity
  8
1
  6
DASH_CENTER
 62
     2
100
AcDbLine
 10
309.4371660247795
 20
148.9079610998751
 30
0.0
 11
309.4371660247795
 21
340.9079610998751
 31
0.0
  0
LINE
  5
238
330
1F
100
AcDbEntity
  8
1
  6
DASH_CENTER
 62
     2
100
AcDbLine
 10
283.5679540412491
 20
303.3946573214327
 30
0.0
 11
334.2179069814801
 21
303.3946573214327
 31
0.0
  0
SOLID
  5
239
330
1F
100
AcDbEntity
  8
1
 62
     2
100
AcDbTrace
 10
323.9316398413211
 20
340.4676188894796
 30
0.0
 11
325.527841544674
 21
339.5460514063678
 31
0.0
 12
321.2297406929975
 22
333.9446573214327
 32
0.0
 13
321.2297406929975
 23
333.9446573214327
 33
0.0
  0
LEADER
  5
23A
330
1F
100
AcDbEntity
  8
1
  6
Continuous
 62
     2
100
AcDbLeader
  3
Standard
 71
     0
 76
     3
 10
321.2297406929975
 20
333.9446573214327
 30
0.0
 10
337.7995610448779
 20
362.6444280431783
 30
0.0
 10
362.138005880357
 20
362.6444280431783
 30
0.0
  0
MTEXT
  5
23C
330
1F
100
AcDbEntity
  8
0
 62
     7
100
AcDbMText
 10
349.9929028379613
 20
367.5682849647301
 30
0.0
 40
6.0
 41
0.0
 71
     5
 72
     1
  1
M6X1
  7
CONVERTER_12
 73
     1
 44
1.32052821128451
  0
MTEXT
  5
23D
330
1F
100
AcDbEntity
  8
1
 62
     7
100
AcDbMText
 10
114.0
 20
45.50000000000002
 30
0.0
 40
7.0
 41
0.0
 71
     5
 72
     1
  1
洗濯機排水トラップ
  7
CONVERTER_11
 73
     1
 44
1.0
  0
MTEXT
  5
23E
330
1F
100
AcDbEntity
  8
1
 62
     7
100
AcDbMText
 10
114.0
 20
28.5
 30
0.0
 40
7.0
 41
0.0
 71
     5
 72
     1
  1
H553-75
  7
CONVERTER_12
 73
     1
 44
0.90036014405762
  0
MTEXT
  5
23F
330
1F
100
AcDbEntity
  8
1
 62
     7
100
AcDbMText
 10
170.5
 20
34.0
 30
0.0
 40
7.0
 41
0.0
 71
     5
 72
     1
  1
1
  7
CONVERTER_12
 73
     1
 44
1.32052821128451
  0
MTEXT
  5
240
330
1F
100
AcDbEntity
  8
1
 62
     7
100
AcDbMText
 10
187.5
 20
34.0
 30
0.0
 40
7.0
 41
0.0
 71
     5
 72
     1
  1
2
  7
CONVERTER_12
 73
     1
 44
1.32052821128451
  0
MTEXT
  5
241
330
1F
100
AcDbEntity
  8
1
 62
     7
100
AcDbMText
 10
68.0
 20
68.00000000000001
 30
0.0
 40
7.0
 41
0.0
 71
     4
 72
     1
  1
VP・VUパイプ兼用
  7
CONVERTER_11
 73
     1
 44
0.54545454545455
  0
DIMENSION
  5
24C
330
1F
100
AcDbEntity
  8
1
100
AcDbDimension
  2
*D8
 10
158.9703703361877
 20
359.4369202779398
 30
0.0
 11
192.9537681804836
 21
364.9369202779398
 31
0.0
 70
    32
  1
68
 71
     5
 42
-1.0
 53
0.00013888888889
  3
ME10_DIM_10
100
AcDbAlignedDimension
 13
226.9371660247795
 23
322.3946573214327
 33
0.0
 14
158.9703703361877
 24
329.3796150363686
 34
0.0
100
AcDbRotatedDimension
  0
DIMENSION
  5
258
330
1F
100
AcDbEntity
  8
1
100
AcDbDimension
  2
*D9
 10
117.2398704923645
 20
118.3984628593028
 30
0.0
 11
251.850182800116
 21
123.8984628593028
 31
0.0
 70
    32
  1
77(VP)・83(VU)
 71
     5
 42
-1.0
 53
0.00013888888889
  3
ME10_DIM_11
100
AcDbAlignedDimension
 13
200.7008701800108
 23
268.918456612231
 33
0.0
 14
117.2398704923645
 24
268.918456612231
 34
0.0
100
AcDbRotatedDimension
  0
DIMENSION
  5
263
330
1F
100
AcDbEntity
  8
1
100
AcDbDimension
  2
*D10
 10
135.9703703361877
 20
134.3984628593028
 30
0.0
 11
158.9703703361877
 21
139.8984628593028
 31
0.0
 70
    32
  1
<>
 71
     5
 42
-1.0
 53
0.00013888888889
  3
ME10_DIM_12
100
AcDbAlignedDimension
 13
181.9703703361877
 23
170.8984628593028
 33
0.0
 14
135.9703703361877
 24
170.8984628593028
 34
0.0
100
AcDbRotatedDimension
  0
DIMENSION
  5
26E
330
1F
100
AcDbEntity
  8
1
100
AcDbDimension
  2
*D11
 10
76.47037033618776
 20
303.3946573214328
 30
0.0
 11
70.97037033618776
 21
286.1465600903678
 31
0.0
 70
    32
  1
35
 71
     5
 42
-1.0
 53
90.0
  3
ME10_DIM_13
100
AcDbAlignedDimension
 13
96.77037033618777
 23
268.8984628593029
 33
0.0
 14
133.4703703361877
 24
303.3946573214327
 34
0.0
 50
90.0
100
AcDbRotatedDimension
  0
DIMENSION
  5
279
330
1F
100
AcDbEntity
  8
1
100
AcDbDimension
  2
*D12
 10
76.47037033618776
 20
246.918456612231
 30
0.0
 11
70.97037033618776
 21
200.6584597357669
 31
0.0
 70
    32
  1
93
 71
     5
 42
-1.0
 53
90.0
  3
ME10_DIM_14
100
AcDbAlignedDimension
 13
152.4703703361877
 23
154.3984628593028
 33
0.0
 14
118.2398704923645
 24
246.918456612231
 34
0.0
 50
90.0
100
AcDbRotatedDimension
  0
DIMENSION
  5
284
330
1F
100
AcDbEntity
  8
1
100
AcDbDimension
  2
*D13
 10
76.47037033618776
 20
268.8984628593029
 30
0.0
 11
70.97037033618776
 21
257.9084597357669
 31
0.0
 70
    32
  1
22
 71
     5
 42
-1.0
 53
90.0
  3
ME10_DIM_15
100
AcDbAlignedDimension
 13
118.2398704923645
 23
246.918456612231
 33
0.0
 14
96.77037033618777
 24
268.8984628593029
 34
0.0
 50
90.0
100
AcDbRotatedDimension
  0
INSERT
  5
28C
330
1F
100
AcDbEntity
  8
1
100
AcDbBlockReference
  2
*D14
 10
0.0
 20
0.0
 30
0.0
  0
INSERT
  5
294
330
1F
100
AcDbEntity
  8
1
100
AcDbBlockReference
  2
*D15
 10
0.0
 20
0.0
 30
0.0
  0
ENDSEC
  0
SECTION
  2
OBJECTS
  0
DICTIONARY
  5
C
330
0
100
AcDbDictionary
281
     1
  3
ACAD_GROUP
350
D
  3
ACAD_LAYOUT
350
1A
  3
ACAD_MATERIAL
350
3B
  3
ACAD_MLEADERSTYLE
350
297
  3
ACAD_MLINESTYLE
350
17
  3
ACAD_PLOTSETTINGS
350
19
  3
ACAD_PLOTSTYLENAME
350
E
  3
ACAD_VISUALSTYLE
350
2A
  3
AcDbVariableDictionary
350
295
  0
DICTIONARY
  5
D
102
{ACAD_REACTORS
330
C
102
}
330
C
100
AcDbDictionary
281
     1
  0
DICTIONARY
  5
1A
102
{ACAD_REACTORS
330
C
102
}
330
C
100
AcDbDictionary
281
     1
  3
Layout1
350
1E
  3
Layout2
350
26
  3
Model
350
22
  0
DICTIONARY
  5
3B
102
{ACAD_REACTORS
330
C
102
}
330
C
100
AcDbDictionary
281
     1
  3
ByBlock
350
3D
  3
ByLayer
350
3C
  3
Global
350
3E
  0
DICTIONARY
  5
297
102
{ACAD_REACTORS
330
C
102
}
330
C
100
AcDbDictionary
281
     1
  0
DICTIONARY
  5
17
102
{ACAD_REACTORS
330
C
102
}
330
C
100
AcDbDictionary
281
     1
  3
Standard
350
18
  0
DICTIONARY
  5
19
102
{ACAD_REACTORS
330
C
102
}
330
C
100
AcDbDictionary
281
     1
  0
ACDBDICTIONARYWDFLT
  5
E
102
{ACAD_REACTORS
330
C
102
}
330
C
100
AcDbDictionary
281
     1
  3
Normal
350
F
100
AcDbDictionaryWithDefault
340
F
  0
DICTIONARY
  5
2A
102
{ACAD_REACTORS
330
C
102
}
330
C
100
AcDbDictionary
281
     1
  3
2dWireframe
350
2F
  3
3D Hidden
350
31
  3
3dWireframe
350
30
  3
Basic
350
32
  3
Brighten
350
36
  3
ColorChange
350
3A
  3
Conceptual
350
34
  3
Dim
350
35
  3
Facepattern
350
39
  3
Flat
350
2B
  3
FlatWithEdges
350
2C
  3
Gouraud
350
2D
  3
GouraudWithEdges
350
2E
  3
Linepattern
350
38
  3
Realistic
350
33
  3
Thicken
350
37
  0
DICTIONARY
  5
295
102
{ACAD_REACTORS
330
C
102
}
330
C
100
AcDbDictionary
281
     1
  3
DIMASSOC
350
298
  3
HIDETEXT
350
299
  0
LAYOUT
  5
1E
102
{ACAD_REACTORS
330
1A
102
}
330
1A
100
AcDbPlotSettings
  1

  2
none_device
  4

  6

 40
0.0
 41
0.0
 42
0.0
 43
0.0
 44
0.0
 45
0.0
 46
0.0
 47
0.0
 48
0.0
 49
0.0
140
0.0
141
0.0
142
1.0
143
1.0
 70
   688
 72
     0
 73
     0
 74
     5
  7

 75
    16
147
1.0
148
0.0
149
0.0
100
AcDbLayout
  1
Layout1
 70
     1
 71
     1
 10
0.0
 20
0.0
 11
12.0
 21
9.0
 12
0.0
 22
0.0
 32
0.0
 14
1.00000000000000E+20
 24
1.00000000000000E+20
 34
1.00000000000000E+20
 15
-1.00000000000000E+20
 25
-1.00000000000000E+20
 35
-1.00000000000000E+20
146
0.0
 13
0.0
 23
0.0
 33
0.0
 16
1.0
 26
0.0
 36
0.0
 17
0.0
 27
1.0
 37
0.0
 76
     0
330
1B
  0
LAYOUT
  5
26
102
{ACAD_REACTORS
330
1A
102
}
330
1A
100
AcDbPlotSettings
  1

  2
none_device
  4

  6

 40
0.0
 41
0.0
 42
0.0
 43
0.0
 44
0.0
 45
0.0
 46
0.0
 47
0.0
 48
0.0
 49
0.0
140
0.0
141
0.0
142
1.0
143
1.0
 70
   688
 72
     0
 73
     0
 74
     5
  7

 75
    16
147
1.0
148
0.0
149
0.0
100
AcDbLayout
  1
Layout2
 70
     1
 71
     2
 10
0.0
 20
0.0
 11
0.0
 21
0.0
 12
0.0
 22
0.0
 32
0.0
 14
0.0
 24
0.0
 34
0.0
 15
0.0
 25
0.0
 35
0.0
146
0.0
 13
0.0
 23
0.0
 33
0.0
 16
1.0
 26
0.0
 36
0.0
 17
0.0
 27
1.0
 37
0.0
 76
     0
330
23
  0
LAYOUT
  5
22
102
{ACAD_REACTORS
330
1A
102
}
330
1A
100
AcDbPlotSettings
  1

  2
none_device
  4

  6

 40
0.0
 41
0.0
 42
0.0
 43
0.0
 44
0.0
 45
0.0
 46
0.0
 47
0.0
 48
0.0
 49
0.0
140
0.0
141
0.0
142
1.0
143
1.0
 70
  1712
 72
     0
 73
     0
 74
     0
  7

 75
     0
147
1.0
148
0.0
149
0.0
100
AcDbLayout
  1
Model
 70
     1
 71
     0
 10
0.0
 20
0.0
 11
12.0
 21
9.0
 12
0.0
 22
0.0
 32
0.0
 14
0.0
 24
0.0
 34
0.0
 15
420.0
 25
594.0
 35
0.0
146
0.0
 13
0.0
 23
0.0
 33
0.0
 16
1.0
 26
0.0
 36
0.0
 17
0.0
 27
1.0
 37
0.0
 76
     0
330
1F
331
29
  0
MATERIAL
  5
3D
102
{ACAD_REACTORS
330
3B
102
}
102
{ACAD_XDICTIONARY
360
2BC
102
}
330
3B
100
AcDbMaterial
  1
ByBlock
  0
MATERIAL
  5
3C
102
{ACAD_REACTORS
330
3B
102
}
102
{ACAD_XDICTIONARY
360
2BA
102
}
330
3B
100
AcDbMaterial
  1
ByLayer
  0
MATERIAL
  5
3E
102
{ACAD_REACTORS
330
3B
102
}
102
{ACAD_XDICTIONARY
360
2BE
102
}
330
3B
100
AcDbMaterial
  1
Global
  0
MLINESTYLE
  5
18
102
{ACAD_REACTORS
330
17
102
}
330
17
100
AcDbMlineStyle
  2
Standard
 70
     0
  3

 62
   256
 51
90.0
 52
90.0
 71
     2
 49
0.5
 62
   256
  6
BYLAYER
 49
-0.5
 62
   256
  6
BYLAYER
  0
ACDBPLACEHOLDER
  5
F
102
{ACAD_REACTORS
330
E
102
}
330
E
  0
VISUALSTYLE
  5
2F
102
{ACAD_REACTORS
330
2A
102
}
102
{ACAD_XDICTIONARY
360
2A2
102
}
330
2A
100
AcDbVisualStyle
  2
2dWireframe
 70
     4
 71
     0
 72
     2
 73
     0
 90
        0
 40
-0.6
 41
-30.0
 62
     5
 63
     7
 74
     1
 91
        4
 64
     7
 65
   257
 75
     1
175
     1
 42
1.0
 92
        0
 66
   257
 43
1.0
 76
     1
 77
     6
 78
     2
 67
     7
 79
     5
170
     0
171
     0
290
     0
174
     0
 93
        1
 44
0.0
173
     0
291
     0
 45
0.0
1001
ACAD
1000
AcDbSavedByObjectVersion
1070
     0
  0
VISUALSTYLE
  5
31
102
{ACAD_REACTORS
330
2A
102
}
102
{ACAD_XDICTIONARY
360
2A6
102
}
330
2A
100
AcDbVisualStyle
  2
3D Hidden
 70
     6
 71
     1
 72
     2
 73
     2
 90
        0
 40
-0.6
 41
-30.0
 62
     5
 63
     7
 74
     2
 91
        2
 64
     7
 65
   257
 75
     2
175
     1
 42
40.0
 92
        0
 66
   257
 43
1.0
 76
     1
 77
     6
 78
     2
 67
     7
 79
     3
170
     0
171
     0
290
     0
174
     0
 93
        1
 44
0.0
173
     0
291
     0
 45
0.0
1001
ACAD
1000
AcDbSavedByObjectVersion
1070
     0
  0
VISUALSTYLE
  5
30
102
{ACAD_REACTORS
330
2A
102
}
102
{ACAD_XDICTIONARY
360
2A4
102
}
330
2A
100
AcDbVisualStyle
  2
3dWireframe
 70
     5
 71
     0
 72
     2
 73
     0
 90
        0
 40
-0.6
 41
-30.0
 62
     5
 63
     7
 74
     1
 91
        4
 64
     7
 65
   257
 75
     1
175
     1
 42
1.0
 92
        0
 66
   257
 43
1.0
 76
     1
 77
     6
 78
     2
 67
     7
 79
     5
170
     0
171
     0
290
     0
174
     0
 93
        1
 44
0.0
173
     0
291
     0
 45
0.0
1001
ACAD
1000
AcDbSavedByObjectVersion
1070
     0
  0
VISUALSTYLE
  5
32
102
{ACAD_REACTORS
330
2A
102
}
102
{ACAD_XDICTIONARY
360
2A8
102
}
330
2A
100
AcDbVisualStyle
  2
Basic
 70
     7
 71
     1
 72
     0
 73
     1
 90
        0
 40
-0.6
 41
-30.0
 62
     5
 63
     7
 74
     0
 91
        4
 64
     7
 65
   257
 75
     1
175
     1
 42
1.0
 92
        8
 66
     7
 43
1.0
 76
     1
 77
     6
 78
     2
 67
     7
 79
     5
170
     0
171
     0
290
     0
174
     0
 93
        1
 44
0.0
173
     0
291
     1
 45
0.0
1001
ACAD
1000
AcDbSavedByObjectVersion
1070
     0
  0
VISUALSTYLE
  5
36
102
{ACAD_REACTORS
330
2A
102
}
102
{ACAD_XDICTIONARY
360
2B0
102
}
330
2A
100
AcDbVisualStyle
  2
Brighten
 70
    12
 71
     2
 72
     2
 73
     0
 90
        0
 40
-0.6
 41
-30.0
 62
     5
 63
     7
 74
     1
 91
        4
 64
     7
 65
   257
 75
     1
175
     1
 42
1.0
 92
        8
 66
     7
 43
1.0
 76
     1
 77
     6
 78
     2
 67
     7
 79
     5
170
     0
171
     0
290
     0
174
     0
 93
        1
 44
50.0
173
     0
291
     1
 45
0.0
1001
ACAD
1000
AcDbSavedByObjectVersion
1070
     0
  0
VISUALSTYLE
  5
3A
102
{ACAD_REACTORS
330
2A
102
}
102
{ACAD_XDICTIONARY
360
2B8
102
}
330
2A
100
AcDbVisualStyle
  2
ColorChange
 70
    16
 71
     2
 72
     2
 73
     3
 90
        0
 40
-0.6
 41
-30.0
 62
     5
 63
     8
 74
     1
 91
        4
 64
     7
 65
   257
 75
     1
175
     1
 42
1.0
 92
        8
 66
     8
 43
1.0
 76
     1
 77
     6
 78
     2
 67
     7
 79
     5
170
     0
171
     0
290
     0
174
     0
 93
        1
 44
0.0
173
     0
291
     1
 45
0.0
1001
ACAD
1000
AcDbSavedByObjectVersion
1070
     0
  0
VISUALSTYLE
  5
34
102
{ACAD_REACTORS
330
2A
102
}
102
{ACAD_XDICTIONARY
360
2AC
102
}
330
2A
100
AcDbVisualStyle
  2
Conceptual
 70
     9
 71
     3
 72
     2
 73
     0
 90
        0
 40
-0.6
 41
-30.0
 62
     5
 63
     7
 74
     2
 91
        2
 64
     7
 65
   257
 75
     1
175
     1
 42
40.0
 92
        8
 66
     7
 43
1.0
 76
     1
 77
     6
 78
     2
 67
     7
 79
     3
170
     0
171
     0
290
     0
174
     0
 93
        1
 44
0.0
173
     0
291
     0
 45
0.0
1001
ACAD
1000
AcDbSavedByObjectVersion
1070
     0
  0
VISUALSTYLE
  5
35
102
{ACAD_REACTORS
330
2A
102
}
102
{ACAD_XDICTIONARY
360
2AE
102
}
330
2A
100
AcDbVisualStyle
  2
Dim
 70
    11
 71
     2
 72
     2
 73
     0
 90
        0
 40
-0.6
 41
-30.0
 62
     5
 63
     7
 74
     1
 91
        4
 64
     7
 65
   257
 75
     1
175
     1
 42
1.0
 92
        8
 66
     7
 43
1.0
 76
     1
 77
     6
 78
     2
 67
     7
 79
     5
170
     0
171
     0
290
     0
174
     0
 93
        1
 44
-50.0
173
     0
291
     1
 45
0.0
1001
ACAD
1000
AcDbSavedByObjectVersion
1070
     0
  0
VISUALSTYLE
  5
39
102
{ACAD_REACTORS
330
2A
102
}
102
{ACAD_XDICTIONARY
360
2B6
102
}
330
2A
100
AcDbVisualStyle
  2
Facepattern
 70
    15
 71
     2
 72
     2
 73
     0
 90
        0
 40
-0.6
 41
-30.0
 62
     5
 63
     7
 74
     1
 91
        4
 64
     7
 65
   257
 75
     1
175
     1
 42
1.0
 92
        8
 66
     7
 43
1.0
 76
     1
 77
     6
 78
     2
 67
     7
 79
     5
170
     0
171
     0
290
     0
174
     0
 93
        1
 44
0.0
173
     0
291
     1
 45
0.0
1001
ACAD
1000
AcDbSavedByObjectVersion
1070
     0
  0
VISUALSTYLE
  5
2B
102
{ACAD_REACTORS
330
2A
102
}
102
{ACAD_XDICTIONARY
360
29A
102
}
330
2A
100
AcDbVisualStyle
  2
Flat
 70
     0
 71
     2
 72
     1
 73
     1
 90
        2
 40
-0.6
 41
30.0
 62
     5
 63
     7
 74
     0
 91
        4
 64
     7
 65
   257
 75
     1
175
     1
 42
1.0
 92
        8
 66
     7
 43
1.0
 76
     1
 77
     6
 78
     2
 67
     7
 79
     5
170
     0
171
     0
290
     0
174
     0
 93
       13
 44
0.0
173
     0
291
     1
 45
0.0
1001
ACAD
1000
AcDbSavedByObjectVersion
1070
     0
  0
VISUALSTYLE
  5
2C
102
{ACAD_REACTORS
330
2A
102
}
102
{ACAD_XDICTIONARY
360
29C
102
}
330
2A
100
AcDbVisualStyle
  2
FlatWithEdges
 70
     1
 71
     2
 72
     1
 73
     1
 90
        2
 40
-0.6
 41
30.0
 62
     5
 63
     7
 74
     1
 91
        4
 64
     7
 65
   257
 75
     1
175
     1
 42
1.0
 92
        0
 66
   257
 43
1.0
 76
     1
 77
     6
 78
     2
 67
     7
 79
     5
170
     0
171
     0
290
     0
174
     0
 93
       13
 44
0.0
173
     0
291
     1
 45
0.0
1001
ACAD
1000
AcDbSavedByObjectVersion
1070
     0
  0
VISUALSTYLE
  5
2D
102
{ACAD_REACTORS
330
2A
102
}
102
{ACAD_XDICTIONARY
360
29E
102
}
330
2A
100
AcDbVisualStyle
  2
Gouraud
 70
     2
 71
     2
 72
     2
 73
     1
 90
        2
 40
-0.6
 41
30.0
 62
     5
 63
     7
 74
     0
 91
        4
 64
     7
 65
   257
 75
     1
175
     1
 42
1.0
 92
        0
 66
     7
 43
1.0
 76
     1
 77
     6
 78
     2
 67
     7
 79
     5
170
     0
171
     0
290
     0
174
     0
 93
       13
 44
0.0
173
     0
291
     1
 45
0.0
1001
ACAD
1000
AcDbSavedByObjectVersion
1070
     0
  0
VISUALSTYLE
  5
2E
102
{ACAD_REACTORS
330
2A
102
}
102
{ACAD_XDICTIONARY
360
2A0
102
}
330
2A
100
AcDbVisualStyle
  2
GouraudWithEdges
 70
     3
 71
     2
 72
     2
 73
     1
 90
        2
 40
-0.6
 41
30.0
 62
     5
 63
     7
 74
     1
 91
        4
 64
     7
 65
   257
 75
     1
175
     1
 42
1.0
 92
        0
 66
   257
 43
1.0
 76
     1
 77
     6
 78
     2
 67
     7
 79
     5
170
     0
171
     0
290
     0
174
     0
 93
       13
 44
0.0
173
     0
291
     1
 45
0.0
1001
ACAD
1000
AcDbSavedByObjectVersion
1070
     0
  0
VISUALSTYLE
  5
38
102
{ACAD_REACTORS
330
2A
102
}
102
{ACAD_XDICTIONARY
360
2B4
102
}
330
2A
100
AcDbVisualStyle
  2
Linepattern
 70
    14
 71
     2
 72
     2
 73
     0
 90
        0
 40
-0.6
 41
-30.0
 62
     5
 63
     7
 74
     1
 91
        4
 64
     7
 65
   257
 75
     7
175
     7
 42
1.0
 92
        8
 66
     7
 43
1.0
 76
     1
 77
     6
 78
     2
 67
     7
 79
     5
170
     0
171
     0
290
     0
174
     0
 93
        1
 44
0.0
173
     0
291
     1
 45
0.0
1001
ACAD
1000
AcDbSavedByObjectVersion
1070
     0
  0
VISUALSTYLE
  5
33
102
{ACAD_REACTORS
330
2A
102
}
102
{ACAD_XDICTIONARY
360
2AA
102
}
330
2A
100
AcDbVisualStyle
  2
Realistic
 70
     8
 71
     2
 72
     2
 73
     0
 90
        0
 40
-0.6
 41
-30.0
 62
     5
 63
     7
 74
     1
 91
        0
 64
     7
 65
   257
 75
     1
175
     1
 42
1.0
 92
        8
 66
     8
 43
1.0
 76
     1
 77
     6
 78
     2
 67
     7
 79
     5
170
     0
171
     0
290
     0
174
     0
 93
       13
 44
0.0
173
     0
291
     0
 45
0.0
1001
ACAD
1000
AcDbSavedByObjectVersion
1070
     0
  0
VISUALSTYLE
  5
37
102
{ACAD_REACTORS
330
2A
102
}
102
{ACAD_XDICTIONARY
360
2B2
102
}
330
2A
100
AcDbVisualStyle
  2
Thicken
 70
    13
 71
     2
 72
     2
 73
     0
 90
        0
 40
-0.6
 41
-30.0
 62
     5
 63
     7
 74
     1
 91
        4
 64
     7
 65
   257
 75
     1
175
     1
 42
1.0
 92
       12
 66
     7
 43
1.0
 76
     1
 77
     6
 78
     2
 67
     7
 79
     5
170
     0
171
     0
290
     0
174
     0
 93
        1
 44
0.0
173
     0
291
     1
 45
0.0
1001
ACAD
1000
AcDbSavedByObjectVersion
1070
     0
  0
DICTIONARYVAR
  5
298
102
{ACAD_REACTORS
330
295
102
}
330
295
100
DictionaryVariables
280
     0
  1
2
  0
DICTIONARYVAR
  5
299
102
{ACAD_REACTORS
330
295
102
}
330
295
100
DictionaryVariables
280
     0
  1
1
  0
DICTIONARY
  5
2BC
330
3D
100
AcDbDictionary
280
     1
281
     1
  3
ACAD_XREC_ROUNDTRIP
360
2BD
  0
DICTIONARY
  5
2BA
330
3C
100
AcDbDictionary
280
     1
281
     1
  3
ACAD_XREC_ROUNDTRIP
360
2BB
  0
DICTIONARY
  5
2BE
330
3E
100
AcDbDictionary
280
     1
281
     1
  3
ACAD_XREC_ROUNDTRIP
360
2BF
  0
DICTIONARY
  5
2A2
330
2F
100
AcDbDictionary
280
     1
281
     1
  3
ACAD_XREC_ROUNDTRIP
360
2A3
  0
DICTIONARY
  5
2A6
330
31
100
AcDbDictionary
280
     1
281
     1
  3
ACAD_XREC_ROUNDTRIP
360
2A7
  0
DICTIONARY
  5
2A4
330
30
100
AcDbDictionary
280
     1
281
     1
  3
ACAD_XREC_ROUNDTRIP
360
2A5
  0
DICTIONARY
  5
2A8
330
32
100
AcDbDictionary
280
     1
281
     1
  3
ACAD_XREC_ROUNDTRIP
360
2A9
  0
DICTIONARY
  5
2B0
330
36
100
AcDbDictionary
280
     1
281
     1
  3
ACAD_XREC_ROUNDTRIP
360
2B1
  0
DICTIONARY
  5
2B8
330
3A
100
AcDbDictionary
280
     1
281
     1
  3
ACAD_XREC_ROUNDTRIP
360
2B9
  0
DICTIONARY
  5
2AC
330
34
100
AcDbDictionary
280
     1
281
     1
  3
ACAD_XREC_ROUNDTRIP
360
2AD
  0
DICTIONARY
  5
2AE
330
35
100
AcDbDictionary
280
     1
281
     1
  3
ACAD_XREC_ROUNDTRIP
360
2AF
  0
DICTIONARY
  5
2B6
330
39
100
AcDbDictionary
280
     1
281
     1
  3
ACAD_XREC_ROUNDTRIP
360
2B7
  0
DICTIONARY
  5
29A
330
2B
100
AcDbDictionary
280
     1
281
     1
  3
ACAD_XREC_ROUNDTRIP
360
29B
  0
DICTIONARY
  5
29C
330
2C
100
AcDbDictionary
280
     1
281
     1
  3
ACAD_XREC_ROUNDTRIP
360
29D
  0
DICTIONARY
  5
29E
330
2D
100
AcDbDictionary
280
     1
281
     1
  3
ACAD_XREC_ROUNDTRIP
360
29F
  0
DICTIONARY
  5
2A0
330
2E
100
AcDbDictionary
280
     1
281
     1
  3
ACAD_XREC_ROUNDTRIP
360
2A1
  0
DICTIONARY
  5
2B4
330
38
100
AcDbDictionary
280
     1
281
     1
  3
ACAD_XREC_ROUNDTRIP
360
2B5
  0
DICTIONARY
  5
2AA
330
33
100
AcDbDictionary
280
     1
281
     1
  3
ACAD_XREC_ROUNDTRIP
360
2AB
  0
DICTIONARY
  5
2B2
330
37
100
AcDbDictionary
280
     1
281
     1
  3
ACAD_XREC_ROUNDTRIP
360
2B3
  0
XRECORD
  5
2BD
102
{ACAD_REACTORS
330
2BC
102
}
330
2BC
100
AcDbXrecord
280
     1
102
MATERIAL
148
0.0
149
0.0
149
0.0
 93
        0
 94
      127
282
     0
 72
     1
 77
     1
171
     1
175
     1
179
     1
273
     0
  0
XRECORD
  5
2BB
102
{ACAD_REACTORS
330
2BA
102
}
330
2BA
100
AcDbXrecord
280
     1
102
MATERIAL
148
0.0
149
0.0
149
0.0
 93
        0
 94
      127
282
     0
 72
     1
 77
     1
171
     1
175
     1
179
     1
273
     0
  0
XRECORD
  5
2BF
102
{ACAD_REACTORS
330
2BE
102
}
330
2BE
100
AcDbXrecord
280
     1
102
MATERIAL
148
0.0
149
0.0
149
0.0
 93
        0
 94
      127
282
     0
 72
     1
 77
     1
171
     1
175
     1
179
     1
273
     0
  0
XRECORD
  5
2A3
102
{ACAD_REACTORS
330
2A2
102
}
330
2A2
100
AcDbXrecord
280
     1
102
RTVSPropertyOp0
 70
     1
102
RTVSPropertyOp1
 70
     1
102
RTVSPropertyOp2
 70
     1
102
RTVSPropertyOp3
 70
     1
102
RTVSPropertyOp4
 70
     1
102
RTVSPropertyOp5
 70
     1
102
RTVSPropertyOp6
 70
     1
102
RTVSPropertyOp7
 70
     1
102
RTVSPropertyOp8
 70
     1
102
RTVSPropertyOp9
 70
     1
102
RTVSPropertyOp10
 70
     1
102
RTVSPropertyOp11
 70
     1
102
RTVSPropertyOp12
 70
     1
102
RTVSPropertyOp13
 70
     1
102
RTVSPropertyOp14
 70
     1
102
RTVSPropertyOp15
 70
     1
102
RTVSPropertyOp16
 70
     1
102
RTVSPropertyOp17
 70
     1
102
RTVSPropertyOp18
 70
     1
102
RTVSPropertyOp19
 70
     1
102
RTVSPropertyOp20
 70
     1
102
RTVSPropertyOp21
 70
     1
102
RTVSPropertyOp22
 70
     1
102
RTVSPropertyOp23
 70
     1
102
RTVSPropertyOp24
 70
     1
102
RTVSPropertyOp25
 70
     1
102
RTVSPropertyOp26
 70
     1
102
RTVSPropertyOp27
 70
     1
102
RTVSPropertyOp28
 70
     1
102
RTVSPropertyOp29
 70
     1
102
RTVSPropertyOp30
 70
     1
102
RTVSPropertyOp31
 70
     1
102
RTVSPropertyOp32
 70
     1
  0
XRECORD
  5
2A7
102
{ACAD_REACTORS
330
2A6
102
}
330
2A6
100
AcDbXrecord
280
     1
102
RTVSPropertyOp0
 70
     1
102
RTVSPropertyOp1
 70
     1
102
RTVSPropertyOp2
 70
     1
102
RTVSPropertyOp3
 70
     1
102
RTVSPropertyOp4
 70
     1
102
RTVSPropertyOp5
 70
     1
102
RTVSPropertyOp6
 70
     1
102
RTVSPropertyOp7
 70
     1
102
RTVSPropertyOp8
 70
     1
102
RTVSPropertyOp9
 70
     1
102
RTVSPropertyOp10
 70
     1
102
RTVSPropertyOp11
 70
     1
102
RTVSPropertyOp12
 70
     1
102
RTVSPropertyOp13
 70
     1
102
RTVSPropertyOp14
 70
     1
102
RTVSPropertyOp15
 70
     1
102
RTVSPropertyOp16
 70
     1
102
RTVSPropertyOp17
 70
     1
102
RTVSPropertyOp18
 70
     1
102
RTVSPropertyOp19
 70
     1
102
RTVSPropertyOp20
 70
     1
102
RTVSPropertyOp21
 70
     1
102
RTVSPropertyOp22
 70
     1
102
RTVSPropertyOp23
 70
     1
102
RTVSPropertyOp24
 70
     1
102
RTVSPropertyOp25
 70
     1
102
RTVSPropertyOp26
 70
     1
102
RTVSPropertyOp27
 70
     1
102
RTVSPropertyOp28
 70
     1
102
RTVSPropertyOp29
 70
     1
102
RTVSPropertyOp30
 70
     1
102
RTVSPropertyOp31
 70
     1
102
RTVSPropertyOp32
 70
     1
  0
XRECORD
  5
2A5
102
{ACAD_REACTORS
330
2A4
102
}
330
2A4
100
AcDbXrecord
280
     1
102
RTVSPropertyOp0
 70
     1
102
RTVSPropertyOp1
 70
     1
102
RTVSPropertyOp2
 70
     1
102
RTVSPropertyOp3
 70
     1
102
RTVSPropertyOp4
 70
     1
102
RTVSPropertyOp5
 70
     1
102
RTVSPropertyOp6
 70
     1
102
RTVSPropertyOp7
 70
     1
102
RTVSPropertyOp8
 70
     1
102
RTVSPropertyOp9
 70
     1
102
RTVSPropertyOp10
 70
     1
102
RTVSPropertyOp11
 70
     1
102
RTVSPropertyOp12
 70
     1
102
RTVSPropertyOp13
 70
     1
102
RTVSPropertyOp14
 70
     1
102
RTVSPropertyOp15
 70
     1
102
RTVSPropertyOp16
 70
     1
102
RTVSPropertyOp17
 70
     1
102
RTVSPropertyOp18
 70
     1
102
RTVSPropertyOp19
 70
     1
102
RTVSPropertyOp20
 70
     1
102
RTVSPropertyOp21
 70
     1
102
RTVSPropertyOp22
 70
     1
102
RTVSPropertyOp23
 70
     1
102
RTVSPropertyOp24
 70
     1
102
RTVSPropertyOp25
 70
     1
102
RTVSPropertyOp26
 70
     1
102
RTVSPropertyOp27
 70
     1
102
RTVSPropertyOp28
 70
     1
102
RTVSPropertyOp29
 70
     1
102
RTVSPropertyOp30
 70
     1
102
RTVSPropertyOp31
 70
     1
102
RTVSPropertyOp32
 70
     1
  0
XRECORD
  5
2A9
102
{ACAD_REACTORS
330
2A8
102
}
330
2A8
100
AcDbXrecord
280
     1
102
RTVSPropertyOp0
 70
     1
102
RTVSPropertyOp1
 70
     1
102
RTVSPropertyOp2
 70
     1
102
RTVSPropertyOp3
 70
     1
102
RTVSPropertyOp4
 70
     1
102
RTVSPropertyOp5
 70
     1
102
RTVSPropertyOp6
 70
     1
102
RTVSPropertyOp7
 70
     1
102
RTVSPropertyOp8
 70
     1
102
RTVSPropertyOp9
 70
     1
102
RTVSPropertyOp10
 70
     1
102
RTVSPropertyOp11
 70
     1
102
RTVSPropertyOp12
 70
     1
102
RTVSPropertyOp13
 70
     1
102
RTVSPropertyOp14
 70
     1
102
RTVSPropertyOp15
 70
     1
102
RTVSPropertyOp16
 70
     1
102
RTVSPropertyOp17
 70
     1
102
RTVSPropertyOp18
 70
     1
102
RTVSPropertyOp19
 70
     1
102
RTVSPropertyOp20
 70
     1
102
RTVSPropertyOp21
 70
     1
102
RTVSPropertyOp22
 70
     1
102
RTVSPropertyOp23
 70
     1
102
RTVSPropertyOp24
 70
     1
102
RTVSPropertyOp25
 70
     1
102
RTVSPropertyOp26
 70
     1
102
RTVSPropertyOp27
 70
     1
102
RTVSPropertyOp28
 70
     1
102
RTVSPropertyOp29
 70
     1
102
RTVSPropertyOp30
 70
     1
102
RTVSPropertyOp31
 70
     1
102
RTVSPropertyOp32
 70
     1
  0
XRECORD
  5
2B1
102
{ACAD_REACTORS
330
2B0
102
}
330
2B0
100
AcDbXrecord
280
     1
102
RTVSPropertyOp0
 70
     1
102
RTVSPropertyOp1
 70
     1
102
RTVSPropertyOp2
 70
     1
102
RTVSPropertyOp3
 70
     1
102
RTVSPropertyOp4
 70
     1
102
RTVSPropertyOp5
 70
     1
102
RTVSPropertyOp6
 70
     1
102
RTVSPropertyOp7
 70
     1
102
RTVSPropertyOp8
 70
     1
102
RTVSPropertyOp9
 70
     1
102
RTVSPropertyOp10
 70
     1
102
RTVSPropertyOp11
 70
     1
102
RTVSPropertyOp12
 70
     1
102
RTVSPropertyOp13
 70
     1
102
RTVSPropertyOp14
 70
     1
102
RTVSPropertyOp15
 70
     1
102
RTVSPropertyOp16
 70
     1
102
RTVSPropertyOp17
 70
     1
102
RTVSPropertyOp18
 70
     1
102
RTVSPropertyOp19
 70
     1
102
RTVSPropertyOp20
 70
     1
102
RTVSPropertyOp21
 70
     1
102
RTVSPropertyOp22
 70
     1
102
RTVSPropertyOp23
 70
     1
102
RTVSPropertyOp24
 70
     1
102
RTVSPropertyOp25
 70
     1
102
RTVSPropertyOp26
 70
     1
102
RTVSPropertyOp27
 70
     1
102
RTVSPropertyOp28
 70
     1
102
RTVSPropertyOp29
 70
     1
102
RTVSPropertyOp30
 70
     1
102
RTVSPropertyOp31
 70
     1
102
RTVSPropertyOp32
 70
     1
  0
XRECORD
  5
2B9
102
{ACAD_REACTORS
330
2B8
102
}
330
2B8
100
AcDbXrecord
280
     1
102
RTVSPropertyOp0
 70
     1
102
RTVSPropertyOp1
 70
     1
102
RTVSPropertyOp2
 70
     1
102
RTVSPropertyOp3
 70
     1
102
RTVSPropertyOp4
 70
     1
102
RTVSPropertyOp5
 70
     1
102
RTVSPropertyOp6
 70
     1
102
RTVSPropertyOp7
 70
     1
102
RTVSPropertyOp8
 70
     1
102
RTVSPropertyOp9
 70
     1
102
RTVSPropertyOp10
 70
     1
102
RTVSPropertyOp11
 70
     1
102
RTVSPropertyOp12
 70
     1
102
RTVSPropertyOp13
 70
     1
102
RTVSPropertyOp14
 70
     1
102
RTVSPropertyOp15
 70
     1
102
RTVSPropertyOp16
 70
     1
102
RTVSPropertyOp17
 70
     1
102
RTVSPropertyOp18
 70
     1
102
RTVSPropertyOp19
 70
     1
102
RTVSPropertyOp20
 70
     1
102
RTVSPropertyOp21
 70
     1
102
RTVSPropertyOp22
 70
     1
102
RTVSPropertyOp23
 70
     1
102
RTVSPropertyOp24
 70
     1
102
RTVSPropertyOp25
 70
     1
102
RTVSPropertyOp26
 70
     1
102
RTVSPropertyOp27
 70
     1
102
RTVSPropertyOp28
 70
     1
102
RTVSPropertyOp29
 70
     1
102
RTVSPropertyOp30
 70
     1
102
RTVSPropertyOp31
 70
     1
102
RTVSPropertyOp32
 70
     1
  0
XRECORD
  5
2AD
102
{ACAD_REACTORS
330
2AC
102
}
330
2AC
100
AcDbXrecord
280
     1
102
RTVSPropertyOp0
 70
     1
102
RTVSPropertyOp1
 70
     1
102
RTVSPropertyOp2
 70
     1
102
RTVSPropertyOp3
 70
     1
102
RTVSPropertyOp4
 70
     1
102
RTVSPropertyOp5
 70
     1
102
RTVSPropertyOp6
 70
     1
102
RTVSPropertyOp7
 70
     1
102
RTVSPropertyOp8
 70
     1
102
RTVSPropertyOp9
 70
     1
102
RTVSPropertyOp10
 70
     1
102
RTVSPropertyOp11
 70
     1
102
RTVSPropertyOp12
 70
     1
102
RTVSPropertyOp13
 70
     1
102
RTVSPropertyOp14
 70
     1
102
RTVSPropertyOp15
 70
     1
102
RTVSPropertyOp16
 70
     1
102
RTVSPropertyOp17
 70
     1
102
RTVSPropertyOp18
 70
     1
102
RTVSPropertyOp19
 70
     1
102
RTVSPropertyOp20
 70
     1
102
RTVSPropertyOp21
 70
     1
102
RTVSPropertyOp22
 70
     1
102
RTVSPropertyOp23
 70
     1
102
RTVSPropertyOp24
 70
     1
102
RTVSPropertyOp25
 70
     1
102
RTVSPropertyOp26
 70
     1
102
RTVSPropertyOp27
 70
     1
102
RTVSPropertyOp28
 70
     1
102
RTVSPropertyOp29
 70
     1
102
RTVSPropertyOp30
 70
     1
102
RTVSPropertyOp31
 70
     1
102
RTVSPropertyOp32
 70
     1
  0
XRECORD
  5
2AF
102
{ACAD_REACTORS
330
2AE
102
}
330
2AE
100
AcDbXrecord
280
     1
102
RTVSPropertyOp0
 70
     1
102
RTVSPropertyOp1
 70
     1
102
RTVSPropertyOp2
 70
     1
102
RTVSPropertyOp3
 70
     1
102
RTVSPropertyOp4
 70
     1
102
RTVSPropertyOp5
 70
     1
102
RTVSPropertyOp6
 70
     1
102
RTVSPropertyOp7
 70
     1
102
RTVSPropertyOp8
 70
     1
102
RTVSPropertyOp9
 70
     1
102
RTVSPropertyOp10
 70
     1
102
RTVSPropertyOp11
 70
     1
102
RTVSPropertyOp12
 70
     1
102
RTVSPropertyOp13
 70
     1
102
RTVSPropertyOp14
 70
     1
102
RTVSPropertyOp15
 70
     1
102
RTVSPropertyOp16
 70
     1
102
RTVSPropertyOp17
 70
     1
102
RTVSPropertyOp18
 70
     1
102
RTVSPropertyOp19
 70
     1
102
RTVSPropertyOp20
 70
     1
102
RTVSPropertyOp21
 70
     1
102
RTVSPropertyOp22
 70
     1
102
RTVSPropertyOp23
 70
     1
102
RTVSPropertyOp24
 70
     1
102
RTVSPropertyOp25
 70
     1
102
RTVSPropertyOp26
 70
     1
102
RTVSPropertyOp27
 70
     1
102
RTVSPropertyOp28
 70
     1
102
RTVSPropertyOp29
 70
     1
102
RTVSPropertyOp30
 70
     1
102
RTVSPropertyOp31
 70
     1
102
RTVSPropertyOp32
 70
     1
  0
XRECORD
  5
2B7
102
{ACAD_REACTORS
330
2B6
102
}
330
2B6
100
AcDbXrecord
280
     1
102
RTVSPropertyOp0
 70
     1
102
RTVSPropertyOp1
 70
     1
102
RTVSPropertyOp2
 70
     1
102
RTVSPropertyOp3
 70
     1
102
RTVSPropertyOp4
 70
     1
102
RTVSPropertyOp5
 70
     1
102
RTVSPropertyOp6
 70
     1
102
RTVSPropertyOp7
 70
     1
102
RTVSPropertyOp8
 70
     1
102
RTVSPropertyOp9
 70
     1
102
RTVSPropertyOp10
 70
     1
102
RTVSPropertyOp11
 70
     1
102
RTVSPropertyOp12
 70
     1
102
RTVSPropertyOp13
 70
     1
102
RTVSPropertyOp14
 70
     1
102
RTVSPropertyOp15
 70
     1
102
RTVSPropertyOp16
 70
     1
102
RTVSPropertyOp17
 70
     1
102
RTVSPropertyOp18
 70
     1
102
RTVSPropertyOp19
 70
     1
102
RTVSPropertyOp20
 70
     1
102
RTVSPropertyOp21
 70
     1
102
RTVSPropertyOp22
 70
     1
102
RTVSPropertyOp23
 70
     1
102
RTVSPropertyOp24
 70
     1
102
RTVSPropertyOp25
 70
     1
102
RTVSPropertyOp26
 70
     1
102
RTVSPropertyOp27
 70
     1
102
RTVSPropertyOp28
 70
     1
102
RTVSPropertyOp29
 70
     1
102
RTVSPropertyOp30
 70
     1
102
RTVSPropertyOp31
 70
     1
102
RTVSPropertyOp32
 70
     1
  0
XRECORD
  5
29B
102
{ACAD_REACTORS
330
29A
102
}
330
29A
100
AcDbXrecord
280
     1
102
RTVSPropertyOp0
 70
     1
102
RTVSPropertyOp1
 70
     1
102
RTVSPropertyOp2
 70
     1
102
RTVSPropertyOp3
 70
     1
102
RTVSPropertyOp4
 70
     1
102
RTVSPropertyOp5
 70
     1
102
RTVSPropertyOp6
 70
     1
102
RTVSPropertyOp7
 70
     1
102
RTVSPropertyOp8
 70
     1
102
RTVSPropertyOp9
 70
     1
102
RTVSPropertyOp10
 70
     1
102
RTVSPropertyOp11
 70
     1
102
RTVSPropertyOp12
 70
     1
102
RTVSPropertyOp13
 70
     1
102
RTVSPropertyOp14
 70
     1
102
RTVSPropertyOp15
 70
     1
102
RTVSPropertyOp16
 70
     1
102
RTVSPropertyOp17
 70
     1
102
RTVSPropertyOp18
 70
     1
102
RTVSPropertyOp19
 70
     1
102
RTVSPropertyOp20
 70
     1
102
RTVSPropertyOp21
 70
     1
102
RTVSPropertyOp22
 70
     1
102
RTVSPropertyOp23
 70
     1
102
RTVSPropertyOp24
 70
     1
102
RTVSPropertyOp25
 70
     1
102
RTVSPropertyOp26
 70
     1
102
RTVSPropertyOp27
 70
     1
102
RTVSPropertyOp28
 70
     1
102
RTVSPropertyOp29
 70
     1
102
RTVSPropertyOp30
 70
     1
102
RTVSPropertyOp31
 70
     1
102
RTVSPropertyOp32
 70
     1
  0
XRECORD
  5
29D
102
{ACAD_REACTORS
330
29C
102
}
330
29C
100
AcDbXrecord
280
     1
102
RTVSPropertyOp0
 70
     1
102
RTVSPropertyOp1
 70
     1
102
RTVSPropertyOp2
 70
     1
102
RTVSPropertyOp3
 70
     1
102
RTVSPropertyOp4
 70
     1
102
RTVSPropertyOp5
 70
     1
102
RTVSPropertyOp6
 70
     1
102
RTVSPropertyOp7
 70
     1
102
RTVSPropertyOp8
 70
     1
102
RTVSPropertyOp9
 70
     1
102
RTVSPropertyOp10
 70
     1
102
RTVSPropertyOp11
 70
     1
102
RTVSPropertyOp12
 70
     1
102
RTVSPropertyOp13
 70
     1
102
RTVSPropertyOp14
 70
     1
102
RTVSPropertyOp15
 70
     1
102
RTVSPropertyOp16
 70
     1
102
RTVSPropertyOp17
 70
     1
102
RTVSPropertyOp18
 70
     1
102
RTVSPropertyOp19
 70
     1
102
RTVSPropertyOp20
 70
     1
102
RTVSPropertyOp21
 70
     1
102
RTVSPropertyOp22
 70
     1
102
RTVSPropertyOp23
 70
     1
102
RTVSPropertyOp24
 70
     1
102
RTVSPropertyOp25
 70
     1
102
RTVSPropertyOp26
 70
     1
102
RTVSPropertyOp27
 70
     1
102
RTVSPropertyOp28
 70
     1
102
RTVSPropertyOp29
 70
     1
102
RTVSPropertyOp30
 70
     1
102
RTVSPropertyOp31
 70
     1
102
RTVSPropertyOp32
 70
     1
  0
XRECORD
  5
29F
102
{ACAD_REACTORS
330
29E
102
}
330
29E
100
AcDbXrecord
280
     1
102
RTVSPropertyOp0
 70
     1
102
RTVSPropertyOp1
 70
     1
102
RTVSPropertyOp2
 70
     1
102
RTVSPropertyOp3
 70
     1
102
RTVSPropertyOp4
 70
     1
102
RTVSPropertyOp5
 70
     1
102
RTVSPropertyOp6
 70
     1
102
RTVSPropertyOp7
 70
     1
102
RTVSPropertyOp8
 70
     1
102
RTVSPropertyOp9
 70
     1
102
RTVSPropertyOp10
 70
     1
102
RTVSPropertyOp11
 70
     1
102
RTVSPropertyOp12
 70
     1
102
RTVSPropertyOp13
 70
     1
102
RTVSPropertyOp14
 70
     1
102
RTVSPropertyOp15
 70
     1
102
RTVSPropertyOp16
 70
     1
102
RTVSPropertyOp17
 70
     1
102
RTVSPropertyOp18
 70
     1
102
RTVSPropertyOp19
 70
     1
102
RTVSPropertyOp20
 70
     1
102
RTVSPropertyOp21
 70
     1
102
RTVSPropertyOp22
 70
     1
102
RTVSPropertyOp23
 70
     1
102
RTVSPropertyOp24
 70
     1
102
RTVSPropertyOp25
 70
     1
102
RTVSPropertyOp26
 70
     1
102
RTVSPropertyOp27
 70
     1
102
RTVSPropertyOp28
 70
     1
102
RTVSPropertyOp29
 70
     1
102
RTVSPropertyOp30
 70
     1
102
RTVSPropertyOp31
 70
     1
102
RTVSPropertyOp32
 70
     1
  0
XRECORD
  5
2A1
102
{ACAD_REACTORS
330
2A0
102
}
330
2A0
100
AcDbXrecord
280
     1
102
RTVSPropertyOp0
 70
     1
102
RTVSPropertyOp1
 70
     1
102
RTVSPropertyOp2
 70
     1
102
RTVSPropertyOp3
 70
     1
102
RTVSPropertyOp4
 70
     1
102
RTVSPropertyOp5
 70
     1
102
RTVSPropertyOp6
 70
     1
102
RTVSPropertyOp7
 70
     1
102
RTVSPropertyOp8
 70
     1
102
RTVSPropertyOp9
 70
     1
102
RTVSPropertyOp10
 70
     1
102
RTVSPropertyOp11
 70
     1
102
RTVSPropertyOp12
 70
     1
102
RTVSPropertyOp13
 70
     1
102
RTVSPropertyOp14
 70
     1
102
RTVSPropertyOp15
 70
     1
102
RTVSPropertyOp16
 70
     1
102
RTVSPropertyOp17
 70
     1
102
RTVSPropertyOp18
 70
     1
102
RTVSPropertyOp19
 70
     1
102
RTVSPropertyOp20
 70
     1
102
RTVSPropertyOp21
 70
     1
102
RTVSPropertyOp22
 70
     1
102
RTVSPropertyOp23
 70
     1
102
RTVSPropertyOp24
 70
     1
102
RTVSPropertyOp25
 70
     1
102
RTVSPropertyOp26
 70
     1
102
RTVSPropertyOp27
 70
     1
102
RTVSPropertyOp28
 70
     1
102
RTVSPropertyOp29
 70
     1
102
RTVSPropertyOp30
 70
     1
102
RTVSPropertyOp31
 70
     1
102
RTVSPropertyOp32
 70
     1
  0
XRECORD
  5
2B5
102
{ACAD_REACTORS
330
2B4
102
}
330
2B4
100
AcDbXrecord
280
     1
102
RTVSPropertyOp0
 70
     1
102
RTVSPropertyOp1
 70
     1
102
RTVSPropertyOp2
 70
     1
102
RTVSPropertyOp3
 70
     1
102
RTVSPropertyOp4
 70
     1
102
RTVSPropertyOp5
 70
     1
102
RTVSPropertyOp6
 70
     1
102
RTVSPropertyOp7
 70
     1
102
RTVSPropertyOp8
 70
     1
102
RTVSPropertyOp9
 70
     1
102
RTVSPropertyOp10
 70
     1
102
RTVSPropertyOp11
 70
     1
102
RTVSPropertyOp12
 70
     1
102
RTVSPropertyOp13
 70
     1
102
RTVSPropertyOp14
 70
     1
102
RTVSPropertyOp15
 70
     1
102
RTVSPropertyOp16
 70
     1
102
RTVSPropertyOp17
 70
     1
102
RTVSPropertyOp18
 70
     1
102
RTVSPropertyOp19
 70
     1
102
RTVSPropertyOp20
 70
     1
102
RTVSPropertyOp21
 70
     1
102
RTVSPropertyOp22
 70
     1
102
RTVSPropertyOp23
 70
     1
102
RTVSPropertyOp24
 70
     1
102
RTVSPropertyOp25
 70
     1
102
RTVSPropertyOp26
 70
     1
102
RTVSPropertyOp27
 70
     1
102
RTVSPropertyOp28
 70
     1
102
RTVSPropertyOp29
 70
     1
102
RTVSPropertyOp30
 70
     1
102
RTVSPropertyOp31
 70
     1
102
RTVSPropertyOp32
 70
     1
  0
XRECORD
  5
2AB
102
{ACAD_REACTORS
330
2AA
102
}
330
2AA
100
AcDbXrecord
280
     1
102
RTVSPropertyOp0
 70
     1
102
RTVSPropertyOp1
 70
     1
102
RTVSPropertyOp2
 70
     1
102
RTVSPropertyOp3
 70
     1
102
RTVSPropertyOp4
 70
     1
102
RTVSPropertyOp5
 70
     1
102
RTVSPropertyOp6
 70
     1
102
RTVSPropertyOp7
 70
     1
102
RTVSPropertyOp8
 70
     1
102
RTVSPropertyOp9
 70
     1
102
RTVSPropertyOp10
 70
     1
102
RTVSPropertyOp11
 70
     1
102
RTVSPropertyOp12
 70
     1
102
RTVSPropertyOp13
 70
     1
102
RTVSPropertyOp14
 70
     1
102
RTVSPropertyOp15
 70
     1
102
RTVSPropertyOp16
 70
     1
102
RTVSPropertyOp17
 70
     1
102
RTVSPropertyOp18
 70
     1
102
RTVSPropertyOp19
 70
     1
102
RTVSPropertyOp20
 70
     1
102
RTVSPropertyOp21
 70
     1
102
RTVSPropertyOp22
 70
     1
102
RTVSPropertyOp23
 70
     1
102
RTVSPropertyOp24
 70
     1
102
RTVSPropertyOp25
 70
     1
102
RTVSPropertyOp26
 70
     1
102
RTVSPropertyOp27
 70
     1
102
RTVSPropertyOp28
 70
     1
102
RTVSPropertyOp29
 70
     1
102
RTVSPropertyOp30
 70
     1
102
RTVSPropertyOp31
 70
     1
102
RTVSPropertyOp32
 70
     1
  0
XRECORD
  5
2B3
102
{ACAD_REACTORS
330
2B2
102
}
330
2B2
100
AcDbXrecord
280
     1
102
RTVSPropertyOp0
 70
     1
102
RTVSPropertyOp1
 70
     1
102
RTVSPropertyOp2
 70
     1
102
RTVSPropertyOp3
 70
     1
102
RTVSPropertyOp4
 70
     1
102
RTVSPropertyOp5
 70
     1
102
RTVSPropertyOp6
 70
     1
102
RTVSPropertyOp7
 70
     1
102
RTVSPropertyOp8
 70
     1
102
RTVSPropertyOp9
 70
     1
102
RTVSPropertyOp10
 70
     1
102
RTVSPropertyOp11
 70
     1
102
RTVSPropertyOp12
 70
     1
102
RTVSPropertyOp13
 70
     1
102
RTVSPropertyOp14
 70
     1
102
RTVSPropertyOp15
 70
     1
102
RTVSPropertyOp16
 70
     1
102
RTVSPropertyOp17
 70
     1
102
RTVSPropertyOp18
 70
     1
102
RTVSPropertyOp19
 70
     1
102
RTVSPropertyOp20
 70
     1
102
RTVSPropertyOp21
 70
     1
102
RTVSPropertyOp22
 70
     1
102
RTVSPropertyOp23
 70
     1
102
RTVSPropertyOp24
 70
     1
102
RTVSPropertyOp25
 70
     1
102
RTVSPropertyOp26
 70
     1
102
RTVSPropertyOp27
 70
     1
102
RTVSPropertyOp28
 70
     1
102
RTVSPropertyOp29
 70
     1
102
RTVSPropertyOp30
 70
     1
102
RTVSPropertyOp31
 70
     1
102
RTVSPropertyOp32
 70
     1
  0
ENDSEC
  0
EOF
