  0
SECTION
  2
HEADER
  9
$ACADVER
  1
AC1015
  9
$ACADMAINTVER
 70
     6
  9
$DWGCODEPAGE
  3
ANSI_932
  9
$INSBASE
 10
0.0
 20
0.0
 30
0.0
  9
$EXTMIN
 10
0.0
 20
0.0
 30
0.0
  9
$EXTMAX
 10
210.0
 20
297.0
 30
0.0
  9
$LIMMIN
 10
0.0
 20
0.0
  9
$LIMMAX
 10
12.0
 20
9.0
  9
$ORTHOMODE
 70
     0
  9
$REGENMODE
 70
     1
  9
$FILLMODE
 70
     1
  9
$QTEXTMODE
 70
     0
  9
$MIRRTEXT
 70
     1
  9
$LTSCALE
 40
1.0
  9
$ATTMODE
 70
     1
  9
$TEXTSIZE
 40
0.2
  9
$TRACEWID
 40
0.05
  9
$TEXTSTYLE
  7
Standard
  9
$CLAYER
  8
0
  9
$CELTYPE
  6
ByLayer
  9
$CECOLOR
 62
   256
  9
$CELTSCALE
 40
1.0
  9
$DISPSILH
 70
     0
  9
$DIMSCALE
 40
1.0
  9
$DIMASZ
 40
0.18
  9
$DIMEXO
 40
0.0625
  9
$DIMDLI
 40
0.38
  9
$DIMRND
 40
0.0
  9
$DIMDLE
 40
0.0
  9
$DIMEXE
 40
0.18
  9
$DIMTP
 40
0.0
  9
$DIMTM
 40
0.0
  9
$DIMTXT
 40
0.18
  9
$DIMCEN
 40
0.09
  9
$DIMTSZ
 40
0.0
  9
$DIMTOL
 70
     0
  9
$DIMLIM
 70
     0
  9
$DIMTIH
 70
     1
  9
$DIMTOH
 70
     1
  9
$DIMSE1
 70
     0
  9
$DIMSE2
 70
     0
  9
$DIMTAD
 70
     0
  9
$DIMZIN
 70
     0
  9
$DIMBLK
  1

  9
$DIMASO
 70
     1
  9
$DIMSHO
 70
     1
  9
$DIMPOST
  1

  9
$DIMAPOST
  1

  9
$DIMALT
 70
     0
  9
$DIMALTD
 70
     2
  9
$DIMALTF
 40
25.4
  9
$DIMLFAC
 40
1.0
  9
$DIMTOFL
 70
     0
  9
$DIMTVP
 40
0.0
  9
$DIMTIX
 70
     0
  9
$DIMSOXD
 70
     0
  9
$DIMSAH
 70
     0
  9
$DIMBLK1
  1

  9
$DIMBLK2
  1

  9
$DIMSTYLE
  2
Standard
  9
$DIMCLRD
 70
     0
  9
$DIMCLRE
 70
     0
  9
$DIMCLRT
 70
     0
  9
$DIMTFAC
 40
1.0
  9
$DIMGAP
 40
0.09
  9
$DIMJUST
 70
     0
  9
$DIMSD1
 70
     0
  9
$DIMSD2
 70
     0
  9
$DIMTOLJ
 70
     1
  9
$DIMTZIN
 70
     0
  9
$DIMALTZ
 70
     0
  9
$DIMALTTZ
 70
     0
  9
$DIMUPT
 70
     0
  9
$DIMDEC
 70
     4
  9
$DIMTDEC
 70
     4
  9
$DIMALTU
 70
     2
  9
$DIMALTTD
 70
     2
  9
$DIMTXSTY
  7
Standard
  9
$DIMAUNIT
 70
     0
  9
$DIMADEC
 70
     0
  9
$DIMALTRND
 40
0.0
  9
$DIMAZIN
 70
     0
  9
$DIMDSEP
 70
    46
  9
$DIMATFIT
 70
     3
  9
$DIMFRAC
 70
     0
  9
$DIMLDRBLK
  1

  9
$DIMLUNIT
 70
     2
  9
$DIMLWD
 70
    -2
  9
$DIMLWE
 70
    -2
  9
$DIMTMOVE
 70
     0
  9
$LUNITS
 70
     2
  9
$LUPREC
 70
     4
  9
$SKETCHINC
 40
0.1
  9
$FILLETRAD
 40
0.5
  9
$AUNITS
 70
     0
  9
$AUPREC
 70
     0
  9
$MENU
  1
.
  9
$ELEVATION
 40
0.0
  9
$PELEVATION
 40
0.0
  9
$THICKNESS
 40
0.0
  9
$LIMCHECK
 70
     0
  9
$CHAMFERA
 40
0.5
  9
$CHAMFERB
 40
0.5
  9
$CHAMFERC
 40
1.0
  9
$CHAMFERD
 40
0.0
  9
$SKPOLY
 70
     0
  9
$TDCREATE
 40
2456496.689179525
  9
$TDUCREATE
 40
2456496.314179525
  9
$TDUPDATE
 40
2456496.689180428
  9
$TDUUPDATE
 40
2456496.314180428
  9
$TDINDWG
 40
0.0000000116
  9
$TDUSRTIMER
 40
0.0000000116
  9
$USRTIMER
 70
     1
  9
$ANGBASE
 50
0.0
  9
$ANGDIR
 70
     0
  9
$PDMODE
 70
     0
  9
$PDSIZE
 40
0.0
  9
$PLINEWID
 40
0.0
  9
$SPLFRAME
 70
     0
  9
$SPLINETYPE
 70
     6
  9
$SPLINESEGS
 70
     8
  9
$HANDSEED
  5
23E
  9
$SURFTAB1
 70
     6
  9
$SURFTAB2
 70
     6
  9
$SURFTYPE
 70
     6
  9
$SURFU
 70
     6
  9
$SURFV
 70
     6
  9
$UCSBASE
  2

  9
$UCSNAME
  2

  9
$UCSORG
 10
0.0
 20
0.0
 30
0.0
  9
$UCSXDIR
 10
1.0
 20
0.0
 30
0.0
  9
$UCSYDIR
 10
0.0
 20
1.0
 30
0.0
  9
$UCSORTHOREF
  2

  9
$UCSORTHOVIEW
 70
     0
  9
$UCSORGTOP
 10
0.0
 20
0.0
 30
0.0
  9
$UCSORGBOTTOM
 10
0.0
 20
0.0
 30
0.0
  9
$UCSORGLEFT
 10
0.0
 20
0.0
 30
0.0
  9
$UCSORGRIGHT
 10
0.0
 20
0.0
 30
0.0
  9
$UCSORGFRONT
 10
0.0
 20
0.0
 30
0.0
  9
$UCSORGBACK
 10
0.0
 20
0.0
 30
0.0
  9
$PUCSBASE
  2

  9
$PUCSNAME
  2

  9
$PUCSORG
 10
0.0
 20
0.0
 30
0.0
  9
$PUCSXDIR
 10
1.0
 20
0.0
 30
0.0
  9
$PUCSYDIR
 10
0.0
 20
1.0
 30
0.0
  9
$PUCSORTHOREF
  2

  9
$PUCSORTHOVIEW
 70
     0
  9
$PUCSORGTOP
 10
0.0
 20
0.0
 30
0.0
  9
$PUCSORGBOTTOM
 10
0.0
 20
0.0
 30
0.0
  9
$PUCSORGLEFT
 10
0.0
 20
0.0
 30
0.0
  9
$PUCSORGRIGHT
 10
0.0
 20
0.0
 30
0.0
  9
$PUCSORGFRONT
 10
0.0
 20
0.0
 30
0.0
  9
$PUCSORGBACK
 10
0.0
 20
0.0
 30
0.0
  9
$USERI1
 70
     0
  9
$USERI2
 70
     0
  9
$USERI3
 70
     0
  9
$USERI4
 70
     0
  9
$USERI5
 70
     0
  9
$USERR1
 40
18.1
  9
$USERR2
 40
0.0
  9
$USERR3
 40
0.0
  9
$USERR4
 40
0.0
  9
$USERR5
 40
0.0
  9
$WORLDVIEW
 70
     1
  9
$SHADEDGE
 70
     3
  9
$SHADEDIF
 70
    70
  9
$TILEMODE
 70
     1
  9
$MAXACTVP
 70
    64
  9
$PINSBASE
 10
0.0
 20
0.0
 30
0.0
  9
$PLIMCHECK
 70
     0
  9
$PEXTMIN
 10
1.00000000000000E+20
 20
1.00000000000000E+20
 30
1.00000000000000E+20
  9
$PEXTMAX
 10
-1.00000000000000E+20
 20
-1.00000000000000E+20
 30
-1.00000000000000E+20
  9
$PLIMMIN
 10
0.0
 20
0.0
  9
$PLIMMAX
 10
12.0
 20
9.0
  9
$UNITMODE
 70
     0
  9
$VISRETAIN
 70
     1
  9
$PLINEGEN
 70
     0
  9
$PSLTSCALE
 70
     1
  9
$TREEDEPTH
 70
  3020
  9
$CMLSTYLE
  2
Standard
  9
$CMLJUST
 70
     0
  9
$CMLSCALE
 40
1.0
  9
$PROXYGRAPHICS
 70
     1
  9
$MEASUREMENT
 70
     1
  9
$CELWEIGHT
370
    -1
  9
$ENDCAPS
280
     0
  9
$JOINSTYLE
280
     0
  9
$LWDISPLAY
290
     0
  9
$INSUNITS
 70
     4
  9
$HYPERLINKBASE
  1

  9
$STYLESHEET
  1

  9
$XEDIT
290
     1
  9
$CEPSNTYPE
380
     0
  9
$PSTYLEMODE
290
     1
  9
$FINGERPRINTGUID
  2
{D02BF0E0-4DB8-4BE3-8499-2BD7890EF443}
  9
$VERSIONGUID
  2
{FAEB1C32-E019-11D5-929B-00C0DF256EC4}
  9
$EXTNAMES
290
     1
  9
$PSVPSCALE
 40
0.0
  9
$OLESTARTUP
290
     0
  0
ENDSEC
  0
SECTION
  2
CLASSES
  0
CLASS
  1
ACDBDICTIONARYWDFLT
  2
AcDbDictionaryWithDefault
  3
ObjectDBX Classes
 90
        0
280
     0
281
     0
  0
CLASS
  1
VISUALSTYLE
  2
AcDbVisualStyle
  3
ObjectDBX Classes
 90
     4095
280
     0
281
     0
  0
CLASS
  1
MATERIAL
  2
AcDbMaterial
  3
ObjectDBX Classes
 90
     1153
280
     0
281
     0
  0
CLASS
  1
DICTIONARYVAR
  2
AcDbDictionaryVar
  3
ObjectDBX Classes
 90
        0
280
     0
281
     0
  0
CLASS
  1
ACDBPLACEHOLDER
  2
AcDbPlaceHolder
  3
ObjectDBX Classes
 90
        0
280
     0
281
     0
  0
CLASS
  1
LAYOUT
  2
AcDbLayout
  3
ObjectDBX Classes
 90
        0
280
     0
281
     0
  0
ENDSEC
  0
SECTION
  2
TABLES
  0
TABLE
  2
VPORT
  5
8
330
0
100
AcDbSymbolTable
 70
     1
  0
VPORT
  5
29
330
8
100
AcDbSymbolTableRecord
100
AcDbViewportTableRecord
  2
*Active
 70
     0
 10
0.0
 20
0.0
 11
1.0
 21
1.0
 12
105.0
 22
148.5
 13
0.0
 23
0.0
 14
0.5
 24
0.5
 15
0.5
 25
0.5
 16
0.0
 26
0.0
 36
1.0
 17
0.0
 27
0.0
 37
0.0
 40
326.7
 41
1.60267857142857
 42
50.0
 43
0.0
 44
0.0
 50
0.0
 51
0.0
 71
     0
 72
   100
 73
     1
 74
     3
 75
     0
 76
     0
 77
     0
 78
     0
281
     0
 65
     1
110
0.0
120
0.0
130
0.0
111
1.0
121
0.0
131
0.0
112
0.0
122
1.0
132
0.0
 79
     0
146
0.0
  0
ENDTAB
  0
TABLE
  2
LTYPE
  5
5
330
0
100
AcDbSymbolTable
 70
     9
  0
LTYPE
  5
14
330
5
100
AcDbSymbolTableRecord
100
AcDbLinetypeTableRecord
  2
ByBlock
 70
     0
  3

 72
    65
 73
     0
 40
0.0
  0
LTYPE
  5
15
330
5
100
AcDbSymbolTableRecord
100
AcDbLinetypeTableRecord
  2
ByLayer
 70
     0
  3

 72
    65
 73
     0
 40
0.0
  0
LTYPE
  5
16
330
5
100
AcDbSymbolTableRecord
100
AcDbLinetypeTableRecord
  2
Continuous
 70
     0
  3
Solid line
 72
    65
 73
     0
 40
0.0
  0
LTYPE
  5
3F
330
5
100
AcDbSymbolTableRecord
100
AcDbLinetypeTableRecord
  2
DASHED
 70
     0
  3
Dashed
 72
    65
 73
     2
 40
15.0
 49
7.0
 74
     0
 49
-8.0
 74
     0
  0
LTYPE
  5
40
330
5
100
AcDbSymbolTableRecord
100
AcDbLinetypeTableRecord
  2
DOTTED
 70
     0
  3
Dotted
 72
    65
 73
     2
 40
1.0
 49
0.0
 74
     0
 49
-1.0
 74
     0
  0
LTYPE
  5
41
330
5
100
AcDbSymbolTableRecord
100
AcDbLinetypeTableRecord
  2
DOT_CENTER
 70
     0
  3
Dot_Center
 72
    65
 73
     4
 40
14.0
 49
12.0
 74
     0
 49
-1.0
 74
     0
 49
0.0
 74
     0
 49
-1.0
 74
     0
  0
LTYPE
  5
42
330
5
100
AcDbSymbolTableRecord
100
AcDbLinetypeTableRecord
  2
LONG_DASHED
 70
     0
  3
Long_Dashed
 72
    65
 73
     2
 40
15.0
 49
10.0
 74
     0
 49
-5.0
 74
     0
  0
LTYPE
  5
43
330
5
100
AcDbSymbolTableRecord
100
AcDbLinetypeTableRecord
  2
DASH_CENTER
 70
     0
  3
Dash_Center
 72
    65
 73
     4
 40
14.0
 49
11.0
 74
     0
 49
-1.0
 74
     0
 49
1.0
 74
     0
 49
-1.0
 74
     0
  0
LTYPE
  5
44
330
5
100
AcDbSymbolTableRecord
100
AcDbLinetypeTableRecord
  2
PHANTOM
 70
     0
  3
Phantom
 72
    65
 73
     6
 40
13.0
 49
10.0
 74
     0
 49
-1.0
 74
     0
 49
0.0
 74
     0
 49
-1.0
 74
     0
 49
0.0
 74
     0
 49
-1.0
 74
     0
  0
LTYPE
  5
45
330
5
100
AcDbSymbolTableRecord
100
AcDbLinetypeTableRecord
  2
CENTER_DASH_DASH
 70
     0
  3
Center_Dash_Dash
 72
    65
 73
     6
 40
14.0
 49
9.0
 74
     0
 49
-1.0
 74
     0
 49
1.0
 74
     0
 49
-1.0
 74
     0
 49
1.0
 74
     0
 49
-1.0
 74
     0
  0
LTYPE
  5
46
330
5
100
AcDbSymbolTableRecord
100
AcDbLinetypeTableRecord
  2
JIS_08_11
 70
     0
  3
JIS_08_11
 72
    65
 73
     4
 40
14.0
 49
11.0
 74
     0
 49
-1.0
 74
     0
 49
1.0
 74
     0
 49
-1.0
 74
     0
  0
ENDTAB
  0
TABLE
  2
LAYER
  5
2
330
0
100
AcDbSymbolTable
 70
     7
  0
LAYER
  5
10
330
2
100
AcDbSymbolTableRecord
100
AcDbLayerTableRecord
  2
0
 70
     0
 62
     7
  6
Continuous
370
    -3
390
F
  0
LAYER
  5
47
330
2
100
AcDbSymbolTableRecord
100
AcDbLayerTableRecord
  2
1
 70
     0
 62
     7
  6
Continuous
370
    -3
390
F
  0
LAYER
  5
48
330
2
100
AcDbSymbolTableRecord
100
AcDbLayerTableRecord
  2
LAYER002
 70
     0
 62
     7
  6
Continuous
370
    -3
390
F
  0
LAYER
  5
49
330
2
100
AcDbSymbolTableRecord
100
AcDbLayerTableRecord
  2
中心線
 70
     0
 62
     7
  6
Continuous
370
    -3
390
F
  0
LAYER
  5
4A
330
2
100
AcDbSymbolTableRecord
100
AcDbLayerTableRecord
  2
実線
 70
     0
 62
     7
  6
Continuous
370
    -3
390
F
  0
LAYER
  5
4B
330
2
100
AcDbSymbolTableRecord
100
AcDbLayerTableRecord
  2
寸法線
 70
     0
 62
     7
  6
Continuous
370
    -3
390
F
  0
LAYER
  5
4C
330
2
100
AcDbSymbolTableRecord
100
AcDbLayerTableRecord
  2
ﾚｲﾔｰ1
 70
     0
 62
     7
  6
Continuous
370
    -3
390
F
  0
ENDTAB
  0
TABLE
  2
STYLE
  5
3
330
0
100
AcDbSymbolTable
 70
     3
  0
STYLE
  5
11
330
3
100
AcDbSymbolTableRecord
100
AcDbTextStyleTableRecord
  2
Standard
 70
     0
 40
0.0
 41
1.0
 50
0.0
 71
     0
 42
0.2
  3
txt
  4

  0
STYLE
  5
191
330
3
100
AcDbSymbolTableRecord
100
AcDbTextStyleTableRecord
  2
CONVERTER_11
 70
     0
 40
0.0
 41
0.89
 50
0.0
 71
     0
 42
0.2
  3
MS Mincho.ttf
  4

1001
ACAD
1000
MS Mincho
1071
    32785
  0
STYLE
  5
1AF
330
3
100
AcDbSymbolTableRecord
100
AcDbTextStyleTableRecord
  2
CONVERTER_12
 70
     0
 40
0.0
 41
0.9
 50
0.0
 71
     0
 42
0.2
  3
txt.shx
  4

  0
ENDTAB
  0
TABLE
  2
VIEW
  5
6
330
0
100
AcDbSymbolTable
 70
     0
  0
ENDTAB
  0
TABLE
  2
UCS
  5
7
330
0
100
AcDbSymbolTable
 70
     0
  0
ENDTAB
  0
TABLE
  2
APPID
  5
9
330
0
100
AcDbSymbolTable
 70
     1
  0
APPID
  5
12
330
9
100
AcDbSymbolTableRecord
100
AcDbRegAppTableRecord
  2
ACAD
 70
     0
  0
ENDTAB
  0
TABLE
  2
DIMSTYLE
  5
A
330
0
100
AcDbSymbolTable
 70
     9
100
AcDbDimStyleTable
  0
DIMSTYLE
105
27
330
A
100
AcDbSymbolTableRecord
100
AcDbDimStyleTableRecord
  2
Standard
 70
     0
178
     0
340
11
  0
DIMSTYLE
105
1C1
102
{ACAD_REACTORS
330
1C2
102
}
330
A
100
AcDbSymbolTableRecord
100
AcDbDimStyleTableRecord
  2
ME10_DIM_10
 70
     0
  3
{\Fgdt;n}<>
 41
3.5
 42
0.0
 44
1.0
 73
     0
 74
     0
 77
     1
 78
     8
140
3.5
147
1.0
172
     1
173
     1
174
     1
175
     1
176
     2
177
     2
271
     2
178
     7
271
     2
340
1AF
  0
DIMSTYLE
105
1CC
102
{ACAD_REACTORS
330
1CD
102
}
330
A
100
AcDbSymbolTableRecord
100
AcDbDimStyleTableRecord
  2
ME10_DIM_11
 70
     0
 41
3.5
 42
0.0
 44
1.0
 73
     0
 74
     0
 77
     1
 78
     8
140
3.5
147
1.0
172
     1
173
     1
174
     1
175
     1
176
     2
177
     2
271
     2
178
     7
271
     2
340
1AF
  0
DIMSTYLE
105
1D7
102
{ACAD_REACTORS
330
1D8
102
}
330
A
100
AcDbSymbolTableRecord
100
AcDbDimStyleTableRecord
  2
ME10_DIM_12
 70
     0
  3
{\Fgdt;n}<>
 41
3.5
 42
0.0
 44
1.0
 73
     0
 74
     0
 77
     1
 78
     8
140
3.5
147
1.0
172
     1
173
     1
174
     1
175
     1
176
     2
177
     2
271
     2
178
     7
271
     2
340
1AF
  0
DIMSTYLE
105
1E2
102
{ACAD_REACTORS
330
1E3
102
}
330
A
100
AcDbSymbolTableRecord
100
AcDbDimStyleTableRecord
  2
ME10_DIM_13
 70
     0
  3
{\Fgdt;n}<>
 41
3.5
 42
0.0
 44
1.0
 73
     0
 74
     0
 77
     1
 78
     8
140
3.5
147
1.0
172
     1
173
     1
174
     1
175
     1
176
     2
177
     2
271
     2
178
     7
271
     2
340
1AF
  0
DIMSTYLE
105
1ED
102
{ACAD_REACTORS
330
1EE
102
}
330
A
100
AcDbSymbolTableRecord
100
AcDbDimStyleTableRecord
  2
ME10_DIM_14
 70
     0
 41
3.5
 42
0.0
 44
1.0
 73
     0
 74
     0
 77
     1
 78
     8
140
3.5
147
1.0
172
     1
173
     1
174
     1
175
     1
176
     2
177
     2
271
     2
178
     7
271
     2
340
1AF
  0
DIMSTYLE
105
1F8
102
{ACAD_REACTORS
330
1F9
102
}
330
A
100
AcDbSymbolTableRecord
100
AcDbDimStyleTableRecord
  2
ME10_DIM_15
 70
     0
 41
3.5
 42
0.0
 44
1.0
 73
     0
 74
     0
 77
     1
 78
     8
140
3.5
147
1.0
172
     1
173
     1
174
     1
175
     1
176
     2
177
     2
271
     2
178
     7
271
     2
340
1AF
  0
DIMSTYLE
105
204
102
{ACAD_REACTORS
330
205
102
}
330
A
100
AcDbSymbolTableRecord
100
AcDbDimStyleTableRecord
  2
ME10_DIM_16
 70
     0
  3
内径{\Fgdt;n}<>
 41
3.5
 42
0.0
 44
1.0
 73
     0
 74
     0
 77
     1
 78
     8
140
3.5
147
1.0
172
     1
173
     1
174
     1
175
     1
176
     2
177
     2
271
     2
178
     7
271
     2
340
191
  0
DIMSTYLE
105
211
102
{ACAD_REACTORS
330
212
102
}
330
A
100
AcDbSymbolTableRecord
100
AcDbDimStyleTableRecord
  2
ME10_DIM_17
 70
     0
 41
3.5
 42
0.0
 44
1.0
 73
     0
 74
     0
 77
     1
 78
     8
140
3.5
147
1.0
172
     1
173
     1
174
     1
175
     1
176
     2
177
     2
271
     2
178
     7
271
     2
340
1AF
  0
ENDTAB
  0
TABLE
  2
BLOCK_RECORD
  5
1
330
0
100
AcDbSymbolTable
 70
    12
  0
BLOCK_RECORD
  5
1F
330
1
100
AcDbSymbolTableRecord
100
AcDbBlockTableRecord
  2
*Model_Space
340
22
  0
BLOCK_RECORD
  5
1B
330
1
100
AcDbSymbolTableRecord
100
AcDbBlockTableRecord
  2
*Paper_Space
340
1E
  0
BLOCK_RECORD
  5
23
330
1
100
AcDbSymbolTableRecord
100
AcDbBlockTableRecord
  2
*Paper_Space0
340
26
  0
BLOCK_RECORD
  5
4D
330
1
100
AcDbSymbolTableRecord
100
AcDbBlockTableRecord
  2
本体
340
0
102
{BLKREFS
331
56
102
}
  0
BLOCK_RECORD
  5
50
330
1
100
AcDbSymbolTableRecord
100
AcDbBlockTableRecord
  2
バンド
340
0
102
{BLKREFS
331
57
102
}
  0
BLOCK_RECORD
  5
53
330
1
100
AcDbSymbolTableRecord
100
AcDbBlockTableRecord
  2
開示A4
340
0
102
{BLKREFS
331
58
102
}
  0
BLOCK_RECORD
  5
1B7
330
1
100
AcDbSymbolTableRecord
100
AcDbBlockTableRecord
  2
*D4
340
0
  0
BLOCK_RECORD
  5
1C3
330
1
100
AcDbSymbolTableRecord
100
AcDbBlockTableRecord
  2
*D5
340
0
  0
BLOCK_RECORD
  5
1CE
330
1
100
AcDbSymbolTableRecord
100
AcDbBlockTableRecord
  2
*D6
340
0
  0
BLOCK_RECORD
  5
1D9
330
1
100
AcDbSymbolTableRecord
100
AcDbBlockTableRecord
  2
*D7
340
0
  0
BLOCK_RECORD
  5
1E4
330
1
100
AcDbSymbolTableRecord
100
AcDbBlockTableRecord
  2
*D8
340
0
  0
BLOCK_RECORD
  5
1EF
330
1
100
AcDbSymbolTableRecord
100
AcDbBlockTableRecord
  2
*D9
340
0
  0
BLOCK_RECORD
  5
1FA
330
1
100
AcDbSymbolTableRecord
100
AcDbBlockTableRecord
  2
*D10
340
0
  0
BLOCK_RECORD
  5
206
330
1
100
AcDbSymbolTableRecord
100
AcDbBlockTableRecord
  2
*D11
340
0
  0
ENDTAB
  0
ENDSEC
  0
SECTION
  2
BLOCKS
  0
BLOCK
  5
20
330
1F
100
AcDbEntity
  8
0
100
AcDbBlockBegin
  2
*Model_Space
 70
     0
 10
0.0
 20
0.0
 30
0.0
  3
*Model_Space
  1

  0
ENDBLK
  5
21
330
1F
100
AcDbEntity
  8
0
100
AcDbBlockEnd
  0
BLOCK
  5
1C
330
1B
100
AcDbEntity
 67
     1
  8
0
100
AcDbBlockBegin
  2
*Paper_Space
 70
     0
 10
0.0
 20
0.0
 30
0.0
  3
*Paper_Space
  1

  0
ENDBLK
  5
1D
330
1B
100
AcDbEntity
 67
     1
  8
0
100
AcDbBlockEnd
  0
BLOCK
  5
24
330
23
100
AcDbEntity
  8
0
100
AcDbBlockBegin
  2
*Paper_Space0
 70
     0
 10
0.0
 20
0.0
 30
0.0
  3
*Paper_Space0
  1

  0
ENDBLK
  5
25
330
23
100
AcDbEntity
  8
0
100
AcDbBlockEnd
  0
BLOCK
  5
4E
330
4D
100
AcDbEntity
  8
0
100
AcDbBlockBegin
  2
本体
 70
     0
 10
26.99084700000003
 20
96.16284
 30
0.0
  3
本体
  1

  0
LINE
  5
59
330
4D
100
AcDbEntity
  8
LAYER002
  6
Continuous
 62
     7
100
AcDbLine
 10
50.67188499999998
 20
157.43265
 30
0.0
 11
41.92060500000002
 21
160.06546
 31
0.0
  0
LINE
  5
5A
330
4D
100
AcDbEntity
  8
LAYER002
  6
Continuous
 62
     7
100
AcDbLine
 10
51.70625500000006
 20
159.65148
 30
0.0
 11
44.26627499999995
 21
164.5282
 31
0.0
  0
LINE
  5
5B
330
4D
100
AcDbEntity
  8
LAYER002
  6
Continuous
 62
     7
100
AcDbLine
 10
54.42461500000002
 20
163.15786
 30
0.0
 11
48.69947500000001
 21
169.91919
 31
0.0
  0
LINE
  5
5C
330
4D
100
AcDbEntity
  8
LAYER002
  6
Continuous
 62
     7
100
AcDbLine
 10
61.49835499999995
 20
177.13796
 30
0.0
 11
75.62968999999998
 21
178.87307
 31
0.0
  0
LINE
  5
5D
330
4D
100
AcDbEntity
  8
LAYER002
  6
Continuous
 62
     7
100
AcDbLine
 10
62.79863499999999
 20
167.34194
 30
0.0
 11
61.325065
 21
176.909
 31
0.0
  0
LINE
  5
5E
330
4D
100
AcDbEntity
  8
LAYER002
  6
Continuous
 62
     7
100
AcDbLine
 10
58.02690499999994
 20
165.74778
 30
0.0
 11
54.34553500000004
 21
174.11189
 31
0.0
  0
LINE
  5
5F
330
4D
100
AcDbEntity
  8
LAYER002
  6
Continuous
 62
     7
100
AcDbLine
 10
59.85743500000001
 20
166.55347
 30
0.0
 11
56.13358500000004
 21
175.0141
 31
0.0
  0
LINE
  5
60
330
4D
100
AcDbEntity
  8
LAYER002
  6
Continuous
 62
     7
100
AcDbLine
 10
84.64084000000003
 20
126.76284
 30
0.0
 11
90.59083999999996
 21
120.86284
 31
0.0
  0
LINE
  5
61
330
4D
100
AcDbEntity
  8
LAYER002
  6
Continuous
 62
     7
100
AcDbLine
 10
90.59083999999996
 20
120.86284
 30
0.0
 11
90.59083999999996
 21
119.66284
 31
0.0
  0
LINE
  5
62
330
4D
100
AcDbEntity
  8
LAYER002
  6
Continuous
 62
     7
100
AcDbLine
 10
125.49878
 20
147.72829
 30
0.0
 11
125.3171775928962
 21
149.2073244393428
 31
0.0
  0
LINE
  5
63
330
4D
100
AcDbEntity
  8
LAYER002
  6
Continuous
 62
     7
100
AcDbLine
 10
119.79036
 20
146.62775
 30
0.0
 11
95.71317999999997
 21
144.14731
 31
0.0
  0
LINE
  5
64
330
4D
100
AcDbEntity
  8
LAYER002
  6
Continuous
 62
     7
100
AcDbLine
 10
83.93775000000005
 20
141.6078
 30
0.0
 11
95.3492
 21
143.00895
 31
0.0
  0
LINE
  5
65
330
4D
100
AcDbEntity
  8
LAYER002
  6
Continuous
 62
     7
100
AcDbLine
 10
84.64084000000003
 20
126.76284
 30
0.0
 11
84.64084000000003
 21
133.73052
 31
0.0
  0
LINE
  5
66
330
4D
100
AcDbEntity
  8
LAYER002
  6
Continuous
 62
     7
100
AcDbLine
 10
95.78453999999999
 20
143.56615
 30
0.0
 11
95.71317999999997
 21
144.14731
 31
0.0
  0
LINE
  5
67
330
4D
100
AcDbEntity
  8
LAYER002
  6
Continuous
 62
     7
100
AcDbLine
 10
95.78453999999999
 20
143.56615
 30
0.0
 11
95.71317999999997
 21
144.14731
 31
0.0
  0
LINE
  5
68
330
4D
100
AcDbEntity
  8
LAYER002
  6
Continuous
 62
     7
100
AcDbLine
 10
95.78453999999999
 20
143.56615
 30
0.0
 11
95.71317999999997
 21
144.14731
 31
0.0
  0
LINE
  5
69
330
4D
100
AcDbEntity
  8
LAYER002
  6
Continuous
 62
     7
100
AcDbLine
 10
125.05375
 20
147.16999
 30
0.0
 11
121.28274
 21
146.7815
 31
0.0
  0
LINE
  5
6A
330
4D
100
AcDbEntity
  8
LAYER002
  6
Continuous
 62
     7
100
AcDbLine
 10
91.34668999999997
 20
179.70951
 30
0.0
 11
115.3087800000001
 21
183.1273
 31
0.0
  0
LINE
  5
6B
330
4D
100
AcDbEntity
  8
LAYER002
  6
Continuous
 62
     7
100
AcDbLine
 10
79.00725
 20
181.81295
 30
0.0
 11
79.94038999999998
 21
185.31349
 31
0.0
  0
LINE
  5
6C
330
4D
100
AcDbEntity
  8
LAYER002
  6
Continuous
 62
     7
100
AcDbLine
 10
91.34668999999997
 20
179.70951
 30
0.0
 11
90.48321999999996
 21
186.74191
 31
0.0
  0
LINE
  5
6D
330
4D
100
AcDbEntity
  8
LAYER002
  6
Continuous
 62
     7
100
AcDbLine
 10
88.29773
 20
179.92475
 30
0.0
 11
87.56651999999997
 21
185.88003
 31
0.0
  0
LINE
  5
6E
330
4D
100
AcDbEntity
  8
LAYER002
  6
Continuous
 62
     7
100
AcDbLine
 10
86.43451000000005
 20
178.68847
 30
0.0
 11
87.42705000000001
 21
178.81034
 31
0.0
  0
LINE
  5
6F
330
4D
100
AcDbEntity
  8
LAYER002
  6
Continuous
 62
     7
100
AcDbLine
 10
85.45955000000004
 20
186.62884
 30
0.0
 11
86.45209999999997
 21
186.75071
 31
0.0
  0
LINE
  5
70
330
4D
100
AcDbEntity
  8
LAYER002
  6
Continuous
 62
     7
100
AcDbLine
 10
116.79403
 20
183.33915
 30
0.0
 11
120.54701
 21
183.87445
 31
0.0
  0
LINE
  5
71
330
4D
100
AcDbEntity
  8
LAYER002
  6
Continuous
 62
     7
100
AcDbLine
 10
26.99084700000003
 20
120.86284
 30
0.0
 11
90.59083999999996
 21
120.86284
 31
0.0
  0
LINE
  5
72
330
4D
100
AcDbEntity
  8
LAYER002
  6
Continuous
 62
     7
100
AcDbLine
 10
32.94084699999996
 20
126.76284
 30
0.0
 11
84.64084000000003
 21
126.76284
 31
0.0
  0
LINE
  5
73
330
4D
100
AcDbEntity
  8
LAYER002
  6
Continuous
 62
     7
100
AcDbLine
 10
32.94084699999996
 20
133.73052
 30
0.0
 11
84.64084000000003
 21
133.73052
 31
0.0
  0
LINE
  5
74
330
4D
100
AcDbEntity
  8
LAYER002
  6
Continuous
 62
     7
100
AcDbLine
 10
77.80872999999997
 20
135.16022
 30
0.0
 11
39.79084499999999
 21
135.16283
 31
0.0
  0
LINE
  5
75
330
4D
100
AcDbEntity
  8
LAYER002
  6
Continuous
 62
     7
100
AcDbLine
 10
115.3087800000001
 20
183.1273
 30
0.0
 11
119.79036
 21
146.62775
 31
0.0
  0
LINE
  5
76
330
4D
100
AcDbEntity
  8
LAYER002
  6
Continuous
 62
     7
100
AcDbLine
 10
116.79403
 20
183.33915
 30
0.0
 11
121.28274
 21
146.7815
 31
0.0
  0
LINE
  5
77
330
4D
100
AcDbEntity
  8
LAYER002
  6
Continuous
 62
     7
100
AcDbLine
 10
84.21306000000004
 20
134.22528
 30
0.0
 11
77.79084
 21
135.16283
 31
0.0
  0
LINE
  5
78
330
4D
100
AcDbEntity
  8
LAYER002
  6
Continuous
 62
     7
100
AcDbLine
 10
39.60709499999996
 20
119.66284
 30
0.0
 11
39.94864499999994
 21
100.14534
 31
0.0
  0
LINE
  5
79
330
4D
100
AcDbEntity
  8
LAYER002
  6
Continuous
 62
     7
100
AcDbLine
 10
77.97459000000003
 20
119.66284
 30
0.0
 11
77.63302999999996
 21
100.14534
 31
0.0
  0
LINE
  5
7A
330
4D
100
AcDbEntity
  8
LAYER002
  6
Continuous
 62
     7
100
AcDbLine
 10
32.94084699999996
 20
126.76284
 30
0.0
 11
26.99084700000003
 21
120.86284
 31
0.0
  0
LINE
  5
7B
330
4D
100
AcDbEntity
  8
LAYER002
  6
Continuous
 62
     7
100
AcDbLine
 10
40.94849499999998
 20
99.16284
 30
0.0
 11
76.63318000000004
 21
99.16284
 31
0.0
  0
LINE
  5
7C
330
4D
100
AcDbEntity
  8
LAYER002
  6
Continuous
 62
     7
100
AcDbLine
 10
26.99084700000003
 20
119.66284
 30
0.0
 11
90.59083999999996
 21
119.66284
 31
0.0
  0
LINE
  5
7D
330
4D
100
AcDbEntity
  8
LAYER002
  6
Continuous
 62
     7
100
AcDbLine
 10
26.99084700000003
 20
120.86284
 30
0.0
 11
26.99084700000003
 21
119.66284
 31
0.0
  0
LINE
  5
7E
330
4D
100
AcDbEntity
  8
LAYER002
  6
Continuous
 62
     7
100
AcDbLine
 10
55.95094500000005
 20
164.45027
 30
0.0
 11
50.20250499999997
 21
171.23912
 31
0.0
  0
LINE
  5
7F
330
4D
100
AcDbEntity
  8
LAYER002
  6
Continuous
 62
     7
100
AcDbLine
 10
52.80266500000005
 20
161.32417
 30
0.0
 11
45.39288499999998
 21
166.1811
 31
0.0
  0
LINE
  5
80
330
4D
100
AcDbEntity
  8
LAYER002
  6
Continuous
 62
     7
100
AcDbLine
 10
39.79084499999999
 20
135.16283
 30
0.0
 11
39.79084499999999
 21
152.59665
 31
0.0
  0
LINE
  5
81
330
4D
100
AcDbEntity
  8
LAYER002
  6
Continuous
 62
     7
100
AcDbLine
 10
33.36861999999996
 20
134.22528
 30
0.0
 11
39.79084499999999
 21
135.16283
 31
0.0
  0
LINE
  5
82
330
4D
100
AcDbEntity
  8
LAYER002
  6
Continuous
 62
     7
100
AcDbLine
 10
32.94084699999996
 20
126.76284
 30
0.0
 11
32.94084699999996
 21
133.73052
 31
0.0
  0
LINE
  5
83
330
4D
100
AcDbEntity
  8
LAYER002
  6
Continuous
 62
     7
100
AcDbLine
 10
49.67220499999996
 20
152.50199
 30
0.0
 11
39.99692500000003
 21
152.79656
 31
0.0
  0
LINE
  5
84
330
4D
100
AcDbEntity
  8
LAYER002
  6
Continuous
 62
     7
100
AcDbLine
 10
50.09570499999995
 20
155.51744
 30
0.0
 11
41.24338499999999
 21
158.18065
 31
0.0
  0
LINE
  5
85
330
4D
100
AcDbEntity
  8
LAYER002
  6
Continuous
 62
     7
100
AcDbLine
 10
85.32008999999994
 20
179.55915
 30
0.0
 11
84.58888000000002
 21
185.51442
 31
0.0
  0
LINE
  5
86
330
4D
100
AcDbEntity
  8
1
  6
PHANTOM
 62
     4
100
AcDbLine
 10
58.79084499999999
 20
96.16284
 30
0.0
 11
58.79084499999999
 21
177.7453264641711
 31
0.0
  0
LINE
  5
87
330
4D
100
AcDbEntity
  8
1
  6
PHANTOM
 62
     4
100
AcDbLine
 10
126.2839739223547
 20
165.9499442232942
 30
0.0
 11
38.8580407268197
 21
155.215389372489
 31
0.0
  0
LINE
  5
88
330
4D
100
AcDbEntity
  8
LAYER002
  6
Continuous
 62
     7
100
AcDbLine
 10
84.16233
 20
188.98833
 30
0.0
 11
87.13996999999995
 21
189.35394
 31
0.0
  0
LINE
  5
89
330
4D
100
AcDbEntity
  8
1
  6
PHANTOM
 62
     4
100
AcDbLine
 10
131.8415868606023
 20
170.1798734533544
 30
0.0
 11
176.5061637523477
 21
175.6639933536815
 31
0.0
  0
LINE
  5
8A
330
4D
100
AcDbEntity
  8
1
  6
PHANTOM
 62
     4
100
AcDbLine
 10
156.9159355326518
 20
150.5896516874653
 30
0.0
 11
150.3959222087609
 21
203.690867932159
 31
0.0
  0
LINE
  5
8B
330
4D
100
AcDbEntity
  8
LAYER002
  6
Continuous
 62
     7
100
AcDbLine
 10
148.6632288045133
 20
193.1860094930886
 30
0.0
 11
148.3201195025988
 21
195.9804144857505
 31
0.0
  0
LINE
  5
8C
330
4D
100
AcDbEntity
  8
LAYER002
  6
Continuous
 62
     7
100
AcDbLine
 10
121.2954933422276
 20
181.9613479446764
 30
0.0
 11
121.11389
 21
183.44039
 31
0.0
  0
LINE
  5
8D
330
4D
100
AcDbEntity
  8
LAYER002
  6
Continuous
 62
     7
100
AcDbLine
 10
125.3171775928962
 20
149.2073244393428
 30
0.0
 11
121.2954933422276
 21
181.9613479446764
 31
0.0
  0
ARC
  5
8E
330
4D
100
AcDbEntity
  8
LAYER002
  6
Continuous
 62
     7
100
AcDbCircle
 10
42.22754499999996
 20
157.67571
 30
0.0
 40
0.2000000000000063
100
AcDbArc
 50
341.8200799999801
 51
73.25617100001219
  0
ARC
  5
8F
330
4D
100
AcDbEntity
  8
LAYER002
  6
Continuous
 62
     7
100
AcDbCircle
 10
44.37591499999996
 20
164.69547
 30
0.0
 40
0.2000000000002376
100
AcDbArc
 50
147.0554599999154
 51
236.7561700000205
  0
ARC
  5
90
330
4D
100
AcDbEntity
  8
LAYER002
  6
Continuous
 62
     7
100
AcDbCircle
 10
41.86298499999998
 20
159.87394
 30
0.0
 40
0.2000000000002077
100
AcDbArc
 50
73.25617100001219
 51
157.8883500001228
  0
ARC
  5
91
330
4D
100
AcDbEntity
  8
LAYER002
  6
Continuous
 62
     7
100
AcDbCircle
 10
68.54480000000001
 20
149.03326
 30
0.0
 40
27.49999999999996
100
AcDbArc
 50
147.8948000000003
 51
156.8425899999994
  0
ARC
  5
92
330
4D
100
AcDbEntity
  8
LAYER002
  6
Continuous
 62
     7
100
AcDbCircle
 10
43.07665499999996
 20
159.92652
 30
0.0
 40
0.1999999999998547
100
AcDbArc
 50
253.2561699999987
 51
336.8425900000581
  0
ARC
  5
93
330
4D
100
AcDbEntity
  8
LAYER002
  6
Continuous
 62
     7
100
AcDbCircle
 10
45.08086500000002
 20
163.75513
 30
0.0
 40
0.1999999999998333
100
AcDbArc
 50
327.8948000000518
 51
56.75617100007173
  0
ARC
  5
94
330
4D
100
AcDbEntity
  8
LAYER002
  6
Continuous
 62
     7
100
AcDbCircle
 10
68.54480000000001
 20
149.03326
 30
0.0
 40
28.99999999999983
100
AcDbArc
 50
143.8711400000004
 51
147.0554599999998
  0
ARC
  5
95
330
4D
100
AcDbEntity
  8
LAYER002
  6
Continuous
 62
     7
100
AcDbCircle
 10
45.28324499999997
 20
166.01383
 30
0.0
 40
0.2000000000003329
100
AcDbArc
 50
56.75617100004619
 51
143.8711400000109
  0
ARC
  5
96
330
4D
100
AcDbEntity
  8
LAYER002
  6
Continuous
 62
     7
100
AcDbCircle
 10
68.54480000000001
 20
149.03326
 30
0.0
 40
27.49999999999995
100
AcDbArc
 50
134.0827200000001
 51
142.9276199999998
  0
ARC
  5
97
330
4D
100
AcDbEntity
  8
LAYER002
  6
Continuous
 62
     7
100
AcDbCircle
 10
46.44367499999999
 20
165.73146
 30
0.0
 40
0.1999999999999819
100
AcDbArc
 50
236.7561699999837
 51
322.9276200001228
  0
ARC
  5
98
330
4D
100
AcDbEntity
  8
LAYER002
  6
Continuous
 62
     7
100
AcDbCircle
 10
49.27401499999996
 20
168.93117
 30
0.0
 40
0.1999999999999921
100
AcDbArc
 50
314.0827200000019
 51
40.25617099998733
  0
ARC
  5
99
330
4D
100
AcDbEntity
  8
LAYER002
  6
Continuous
 62
     7
100
AcDbCircle
 10
48.85210499999994
 20
170.04844
 30
0.0
 40
0.1999999999999312
100
AcDbArc
 50
133.1392699999916
 51
220.2561700000023
  0
ARC
  5
9A
330
4D
100
AcDbEntity
  8
LAYER002
  6
Continuous
 62
     7
100
AcDbCircle
 10
51.069255
 20
170.525
 30
0.0
 40
0.2000000000000342
100
AcDbArc
 50
220.2561699999826
 51
309.1155399999915
  0
ARC
  5
9B
330
4D
100
AcDbEntity
  8
LAYER002
  6
Continuous
 62
     7
100
AcDbCircle
 10
50.04986499999995
 20
171.10988
 30
0.0
 40
0.2000000000000988
100
AcDbArc
 50
40.25617099998733
 51
129.9549500000148
  0
ARC
  5
9C
330
4D
100
AcDbEntity
  8
LAYER002
  6
Continuous
 62
     7
100
AcDbCircle
 10
68.54480000000001
 20
149.03326
 30
0.0
 40
27.49999999999998
100
AcDbArc
 50
105.1652900000002
 51
115.1904300000005
  0
ARC
  5
9D
330
4D
100
AcDbEntity
  8
LAYER002
  6
Continuous
 62
     7
100
AcDbCircle
 10
54.62456499999996
 20
172.98147
 30
0.0
 40
0.199999999999635
100
AcDbArc
 50
300.1679100000881
 51
23.75617099996754
  0
ARC
  5
9E
330
4D
100
AcDbEntity
  8
LAYER002
  6
Continuous
 62
     7
100
AcDbCircle
 10
56.75490500000001
 20
174.09893
 30
0.0
 40
0.1999999999998409
100
AcDbArc
 50
203.7561699999447
 51
295.1904300000316
  0
ARC
  5
9F
330
4D
100
AcDbEntity
  8
LAYER002
  6
Continuous
 62
     7
100
AcDbCircle
 10
68.54480000000001
 20
149.03326
 30
0.0
 40
29.0000000000001
100
AcDbArc
 50
115.9317999999999
 51
119.1222200000003
  0
ARC
  5
A0
330
4D
100
AcDbEntity
  8
LAYER002
  6
Continuous
 62
     7
100
AcDbCircle
 10
54.52858500000002
 20
174.19246
 30
0.0
 40
0.200000000000198
100
AcDbArc
 50
119.1222199999889
 51
203.7561699999522
  0
ARC
  5
A1
330
4D
100
AcDbEntity
  8
LAYER002
  6
Continuous
 62
     7
100
AcDbCircle
 10
55.95053499999995
 20
174.93353
 30
0.0
 40
0.1999999999999901
100
AcDbArc
 50
23.75617099996918
 51
115.9317999999349
  0
ARC
  5
A2
330
4D
100
AcDbEntity
  8
LAYER002
  6
Continuous
 62
     7
100
AcDbCircle
 10
61.29835500000002
 20
175.76861
 30
0.0
 40
0.2000000000001493
100
AcDbArc
 50
285.1652900000062
 51
8.75617139997605
  0
ARC
  5
A3
330
4D
100
AcDbEntity
  8
LAYER002
  6
Continuous
 62
     7
100
AcDbCircle
 10
61.52273500000001
 20
176.93945
 30
0.0
 40
0.1999999999997316
100
AcDbArc
 50
96.99999999999574
 51
188.7561699999607
  0
ARC
  5
A4
330
4D
100
AcDbEntity
  8
LAYER002
  6
Continuous
 62
     7
100
AcDbCircle
 10
84.14084000000003
 20
133.73052
 30
0.0
 40
0.5
100
AcDbArc
 50
0.0
 51
81.6943230000388
  0
ARC
  5
A5
330
4D
100
AcDbEntity
  8
LAYER002
  6
Continuous
 62
     7
100
AcDbCircle
 10
95.28826000000004
 20
143.50522
 30
0.0
 40
0.5000000000003787
100
AcDbArc
 50
277.00000000004
 51
7.00000000004445
  0
ARC
  5
A6
330
4D
100
AcDbEntity
  8
LAYER002
  6
Continuous
 62
     7
100
AcDbCircle
 10
125.00251
 20
147.66735
 30
0.0
 40
0.5000000000003505
100
AcDbArc
 50
275.881880000051
 51
7.00000000004465
  0
ARC
  5
A7
330
4D
100
AcDbEntity
  8
LAYER002
  6
Continuous
 62
     7
100
AcDbCircle
 10
86.31263999999999
 20
179.68102
 30
0.0
 40
0.9999999999996839
100
AcDbArc
 50
186.9999999999934
 51
276.9999999999953
  0
ARC
  5
A8
330
4D
100
AcDbEntity
  8
LAYER002
  6
Continuous
 62
     7
100
AcDbCircle
 10
87.30519000000004
 20
179.80289
 30
0.0
 40
0.9999999999996593
100
AcDbArc
 50
276.9999999999953
 51
6.99999999999423
  0
ARC
  5
A9
330
4D
100
AcDbEntity
  8
LAYER002
  6
Continuous
 62
     7
100
AcDbCircle
 10
86.57397000000003
 20
185.75816
 30
0.0
 40
0.9999999999996839
100
AcDbArc
 50
6.99999999999344
 51
96.99999999999525
  0
ARC
  5
AA
330
4D
100
AcDbEntity
  8
LAYER002
  6
Continuous
 62
     7
100
AcDbCircle
 10
84.77168000000006
 20
184.0256
 30
0.0
 40
5.000000000000438
100
AcDbArc
 50
97.00000000000276
 51
165.0736899999961
  0
ARC
  5
AB
330
4D
100
AcDbEntity
  8
LAYER002
  6
Continuous
 62
     7
100
AcDbCircle
 10
85.58141999999998
 20
185.63629
 30
0.0
 40
0.9999999999996593
100
AcDbArc
 50
96.99999999999525
 51
186.9999999999934
  0
ARC
  5
AC
330
4D
100
AcDbEntity
  8
LAYER002
  6
Continuous
 62
     7
100
AcDbCircle
 10
87.50558000000001
 20
186.3763
 30
0.0
 40
2.999999999999958
100
AcDbArc
 50
6.99999999999186
 51
96.99999999999288
  0
ARC
  5
AD
330
4D
100
AcDbEntity
  8
LAYER002
  6
Continuous
 62
     7
100
AcDbCircle
 10
120.61762
 20
183.37946
 30
0.0
 40
0.5000000000003821
100
AcDbArc
 50
7.00000000004326
 51
98.11753699995192
  0
ARC
  5
AE
330
4D
100
AcDbEntity
  8
LAYER002
  6
Continuous
 62
     7
100
AcDbCircle
 10
65.15696500000001
 20
152.03056
 30
0.0
 40
15.00000000000028
100
AcDbArc
 50
100.6047399999998
 51
108.2027199999999
  0
ARC
  5
AF
330
4D
100
AcDbEntity
  8
LAYER002
  6
Continuous
 62
     7
100
AcDbCircle
 10
65.15696500000001
 20
152.03056
 30
0.0
 40
14.99999999999995
100
AcDbArc
 50
168.8096100000013
 51
176.4075899999994
  0
ARC
  5
B0
330
4D
100
AcDbEntity
  8
LAYER002
  6
Continuous
 62
     7
100
AcDbCircle
 10
65.15696500000001
 20
152.03056
 30
0.0
 40
14.99999999999988
100
AcDbArc
 50
152.3096100000009
 51
157.7027199999984
  0
ARC
  5
B1
330
4D
100
AcDbEntity
  8
LAYER002
  6
Continuous
 62
     7
100
AcDbCircle
 10
65.15696500000001
 20
152.03056
 30
0.0
 40
15.00000000000038
100
AcDbArc
 50
135.809609999999
 51
141.2027200000003
  0
ARC
  5
B2
330
4D
100
AcDbEntity
  8
LAYER002
  6
Continuous
 62
     7
100
AcDbCircle
 10
65.15696500000001
 20
152.03056
 30
0.0
 40
15.00000000000016
100
AcDbArc
 50
119.3096100000001
 51
124.7027200000004
  0
ARC
  5
B3
330
4D
100
AcDbEntity
  8
LAYER002
  6
Continuous
 62
     7
100
AcDbCircle
 10
62.30445499999996
 20
167.26582
 30
0.0
 40
0.5000000000004837
100
AcDbArc
 50
280.6047399999989
 51
8.75617139997375
  0
ARC
  5
B4
330
4D
100
AcDbEntity
  8
LAYER002
  6
Continuous
 62
     7
100
AcDbCircle
 10
60.31507499999998
 20
166.7549
 30
0.0
 40
0.5000000000002284
100
AcDbArc
 50
203.7561700000431
 51
288.2027200000202
  0
ARC
  5
B5
330
4D
100
AcDbEntity
  8
LAYER002
  6
Continuous
 62
     7
100
AcDbCircle
 10
57.56926499999997
 20
165.54636
 30
0.0
 40
0.5000000000001218
100
AcDbArc
 50
299.309610000003
 51
23.75617100002314
  0
ARC
  5
B6
330
4D
100
AcDbEntity
  8
LAYER002
  6
Continuous
 62
     7
100
AcDbCircle
 10
56.33252500000003
 20
164.77337
 30
0.0
 40
0.499999999999978
100
AcDbArc
 50
220.2561699999952
 51
304.7027200000241
  0
ARC
  5
B7
330
4D
100
AcDbEntity
  8
LAYER002
  6
Continuous
 62
     7
100
AcDbCircle
 10
54.04303500000003
 20
162.83476
 30
0.0
 40
0.5000000000002697
100
AcDbArc
 50
315.8096099999556
 51
40.25617100001638
  0
ARC
  5
B8
330
4D
100
AcDbEntity
  8
LAYER002
  6
Continuous
 62
     7
100
AcDbCircle
 10
53.07676500000002
 20
161.74235
 30
0.0
 40
0.4999999999999433
100
AcDbArc
 50
236.7561699999887
 51
321.2027199999885
  0
ARC
  5
B9
330
4D
100
AcDbEntity
  8
LAYER002
  6
Continuous
 62
     7
100
AcDbCircle
 10
51.43215499999997
 20
159.23331
 30
0.0
 40
0.4999999999999087
100
AcDbArc
 50
332.3096100000351
 51
56.75617099998922
  0
ARC
  5
BA
330
4D
100
AcDbEntity
  8
LAYER002
  6
Continuous
 62
     7
100
AcDbCircle
 10
50.81593499999997
 20
157.91145
 30
0.0
 40
0.4999999999996602
100
AcDbArc
 50
253.2561699999898
 51
337.7027199999748
  0
ARC
  5
BB
330
4D
100
AcDbEntity
  8
LAYER002
  6
Continuous
 62
     7
100
AcDbCircle
 10
49.95165499999996
 20
155.03864
 30
0.0
 40
0.4999999999999699
100
AcDbArc
 50
348.8096099999889
 51
73.25617099997646
  0
ARC
  5
BC
330
4D
100
AcDbEntity
  8
LAYER002
  6
Continuous
 62
     7
100
AcDbCircle
 10
49.68742499999996
 20
153.00176
 30
0.0
 40
0.4999999999997845
100
AcDbArc
 50
268.2561700000043
 51
356.4075900000461
  0
ARC
  5
BD
330
4D
100
AcDbEntity
  8
LAYER002
  6
Continuous
 62
     7
100
AcDbCircle
 10
116.14478
 20
182.57858
 30
0.0
 40
1.00000000000027
100
AcDbArc
 50
49.51479800001167
 51
146.720270000005
  0
ARC
  5
BE
330
4D
100
AcDbEntity
  8
LAYER002
  6
Continuous
 62
     7
100
AcDbCircle
 10
120.46878
 20
147.36242
 30
0.0
 40
0.9999999999998205
100
AcDbArc
 50
227.2791299999792
 51
324.4846299999978
  0
ARC
  5
BF
330
4D
100
AcDbEntity
  8
LAYER002
  6
Continuous
 62
     7
100
AcDbCircle
 10
75.14221999999995
 20
182.84325
 30
0.0
 40
3.999999999999763
100
AcDbArc
 50
277.0000000000064
 51
345.0736900000032
  0
ARC
  5
C0
330
4D
100
AcDbEntity
  8
LAYER002
  6
Continuous
 62
     7
100
AcDbCircle
 10
84.79084
 20
134.65997
 30
0.0
 40
6.999999999999742
100
AcDbArc
 50
96.99999999999967
 51
175.9019500000032
  0
ARC
  5
C1
330
4D
100
AcDbEntity
  8
LAYER002
  6
Continuous
 62
     7
100
AcDbCircle
 10
76.63318000000004
 20
100.16284
 30
0.0
 40
1.0
100
AcDbArc
 50
270.0
 51
358.9974200000037
  0
ARC
  5
C2
330
4D
100
AcDbEntity
  8
LAYER002
  6
Continuous
 62
     7
100
AcDbCircle
 10
68.54480000000001
 20
149.03326
 30
0.0
 40
27.49999999999969
100
AcDbArc
 50
120.1679100000005
 51
129.1155399999996
  0
ARC
  5
C3
330
4D
100
AcDbEntity
  8
LAYER002
  6
Continuous
 62
     7
100
AcDbCircle
 10
68.54480000000001
 20
149.03326
 30
0.0
 40
29.0000000000002
100
AcDbArc
 50
129.9549499999995
 51
133.1392700000005
  0
ARC
  5
C4
330
4D
100
AcDbEntity
  8
LAYER002
  6
Continuous
 62
     7
100
AcDbCircle
 10
33.44084699999996
 20
133.73052
 30
0.0
 40
0.4999999999997154
100
AcDbArc
 50
98.3056760000008
 51
180.0
  0
ARC
  5
C5
330
4D
100
AcDbEntity
  8
LAYER002
  6
Continuous
 62
     7
100
AcDbCircle
 10
68.54480000000001
 20
149.03326
 30
0.0
 40
29.00000000000001
100
AcDbArc
 50
157.8883500000002
 51
161.0787699999997
  0
ARC
  5
C6
330
4D
100
AcDbEntity
  8
LAYER002
  6
Continuous
 62
     7
100
AcDbCircle
 10
68.54480000000001
 20
149.03326
 30
0.0
 40
27.50000000000002
100
AcDbArc
 50
161.8200799999995
 51
171.8454799999992
  0
ARC
  5
C7
330
4D
100
AcDbEntity
  8
LAYER002
  6
Continuous
 62
     7
100
AcDbCircle
 10
41.12487499999998
 20
152.96231
 30
0.0
 40
0.1999999999997093
100
AcDbArc
 50
268.2561700000025
 51
351.8454800000193
  0
ARC
  5
C8
330
4D
100
AcDbEntity
  8
LAYER002
  6
Continuous
 62
     7
100
AcDbCircle
 10
41.30100500000003
 20
158.37217
 30
0.0
 40
0.2000000000001102
100
AcDbArc
 50
161.0787699999432
 51
253.2561699999656
  0
ARC
  5
C9
330
4D
100
AcDbEntity
  8
LAYER002
  6
Continuous
 62
     7
100
AcDbCircle
 10
40.94849499999998
 20
100.16284
 30
0.0
 40
0.9999999999999885
100
AcDbArc
 50
181.0025700000085
 51
270.0
  0
ARC
  5
CA
330
4D
100
AcDbEntity
  8
LAYER002
  6
Continuous
 62
     7
100
AcDbCircle
 10
39.99084500000004
 20
152.59665
 30
0.0
 40
0.2000000000004926
100
AcDbArc
 50
88.25617100001138
 51
180.0
  0
CIRCLE
  5
CB
330
4D
100
AcDbEntity
  8
LAYER002
  6
Continuous
 62
     7
100
AcDbCircle
 10
154.1738744965289
 20
172.92194
 30
0.0
 40
18.5
  0
CIRCLE
  5
CC
330
4D
100
AcDbEntity
  8
LAYER002
  6
Continuous
 62
     7
100
AcDbCircle
 10
154.1738744965289
 20
172.92194
 30
0.0
 40
16.5
  0
CIRCLE
  5
CD
330
4D
100
AcDbEntity
  8
LAYER002
  6
Continuous
 62
     7
100
AcDbCircle
 10
154.1738744965289
 20
172.92194
 30
0.0
 40
19.5
  0
ENDBLK
  5
4F
330
4D
100
AcDbEntity
  8
0
100
AcDbBlockEnd
  0
BLOCK
  5
51
330
50
100
AcDbEntity
  8
0
100
AcDbBlockBegin
  2
バンド
 70
     0
 10
176.0
 20
296.0
 30
0.0
  3
バンド
  1

  0
POINT
  5
CE
330
50
100
AcDbEntity
  8
寸法線
 62
     7
100
AcDbPoint
 10
193.6005624434246
 20
204.6542202966672
 30
0.0
  0
LINE
  5
CF
330
50
100
AcDbEntity
  8
ﾚｲﾔｰ1
  6
Continuous
 62
     7
100
AcDbLine
 10
154.2952416918308
 20
204.7555165802023
 30
0.0
 11
155.5139350030144
 21
194.830055048703
 31
0.0
  0
LINE
  5
D0
330
50
100
AcDbEntity
  8
ﾚｲﾔｰ1
  6
Continuous
 62
     7
100
AcDbLine
 10
151.7529416433968
 20
204.9471163289813
 30
0.0
 11
153.7380339496967
 21
205.1908549912181
 31
0.0
  0
LINE
  5
D1
330
50
100
AcDbEntity
  8
ﾚｲﾔｰ1
  6
Continuous
 62
     7
100
AcDbLine
 10
155.1819739707574
 20
199.9248798379633
 30
0.0
 11
156.2271549567838
 21
196.5062467216697
 31
0.0
  0
LINE
  5
D2
330
50
100
AcDbEntity
  8
ﾚｲﾔｰ1
  6
Continuous
 62
     7
100
AcDbLine
 10
156.8492594142581
 20
201.3120421545219
 30
0.0
 11
158.3417709195215
 21
196.4302567732732
 31
0.0
  0
LINE
  5
D3
330
50
100
AcDbEntity
  8
ﾚｲﾔｰ1
  6
Continuous
 62
     7
100
AcDbLine
 10
139.733843186011
 20
200.2659544931363
 30
0.0
 11
140.3188159753794
 21
195.5017329580155
 31
0.0
  0
LINE
  5
D4
330
50
100
AcDbEntity
  8
ﾚｲﾔｰ1
  6
Continuous
 62
     7
100
AcDbLine
 10
139.733843186011
 20
200.2659544931363
 30
0.0
 11
142.2152085688859
 21
200.5706278209322
 31
0.0
  0
LINE
  5
D5
330
50
100
AcDbEntity
  8
ﾚｲﾔｰ1
  6
Continuous
 62
     7
100
AcDbLine
 10
140.3188159753794
 20
195.5017329580155
 30
0.0
 11
142.8001813582542
 21
195.8064062858115
 31
0.0
  0
LINE
  5
D6
330
50
100
AcDbEntity
  8
ﾚｲﾔｰ1
  6
Continuous
 62
     7
100
AcDbLine
 10
145.6281854393515
 20
201.4934435564214
 30
0.0
 11
148.6058238988014
 21
201.8590515497765
 31
0.0
  0
LINE
  5
D7
330
50
100
AcDbEntity
  8
ﾚｲﾔｰ1
  6
Continuous
 62
     7
100
AcDbLine
 10
146.3350275598382
 20
195.7366758681508
 30
0.0
 11
152.2903044787378
 21
196.4678918548609
 31
0.0
  0
LINE
  5
D8
330
50
100
AcDbEntity
  8
ﾚｲﾔｰ1
  6
Continuous
 62
     7
100
AcDbLine
 10
155.2679429381878
 20
196.8334998482161
 30
0.0
 11
156.0960185093248
 21
196.9351747332072
 31
0.0
  0
LINE
  5
D9
330
50
100
AcDbEntity
  8
ﾚｲﾔｰ1
  6
Continuous
 62
     7
100
AcDbLine
 10
173.4194777275501
 20
204.9057848277359
 30
0.0
 11
174.1263198480367
 21
199.1490171394653
 31
0.0
  0
LINE
  5
DA
330
50
100
AcDbEntity
  8
ﾚｲﾔｰ1
  6
Continuous
 62
     7
100
AcDbLine
 10
155.8849208468277
 20
202.7528121808428
 30
0.0
 11
177.101713700204
 21
205.3606943347563
 31
0.0
  0
LINE
  5
DB
330
50
100
AcDbEntity
  8
ﾚｲﾔｰ1
  6
Continuous
 62
     7
100
AcDbLine
 10
158.111734064192
 20
197.182673457188
 30
0.0
 11
177.8076630863563
 21
199.6010292062566
 31
0.0
  0
LINE
  5
DC
330
50
100
AcDbEntity
  8
ﾚｲﾔｰ1
  6
Continuous
 62
     7
100
AcDbLine
 10
141.9980996211042
 20
202.3388384852365
 30
0.0
 11
143.3051961948645
 21
191.6933900842672
 31
0.0
  0
LINE
  5
DD
330
50
100
AcDbEntity
  8
ﾚｲﾔｰ1
  6
Continuous
 62
     7
100
AcDbLine
 10
145.3013916479221
 20
204.154965676712
 30
0.0
 11
143.8125724181971
 21
203.9721616800344
 31
0.0
  0
LINE
  5
DE
330
50
100
AcDbEntity
  8
ﾚｲﾔｰ1
  6
Continuous
 62
     7
100
AcDbLine
 10
145.3013916479221
 20
204.154965676712
 30
0.0
 11
146.6418402576828
 21
193.237886712679
 31
0.0
  0
LINE
  5
DF
330
50
100
AcDbEntity
  8
ﾚｲﾔｰ1
  6
Continuous
 62
     7
100
AcDbLine
 10
143.8125724181971
 20
203.9721616800344
 30
0.0
 11
145.2347840447809
 21
192.3891763138497
 31
0.0
  0
LINE
  5
E0
330
50
100
AcDbEntity
  8
ﾚｲﾔｰ1
  6
Continuous
 62
     7
100
AcDbLine
 10
145.1530210279579
 20
193.0550827160014
 30
0.0
 11
146.6418402576828
 21
193.237886712679
 31
0.0
  0
LINE
  5
E1
330
50
100
AcDbEntity
  8
ﾚｲﾔｰ1
  6
Continuous
 62
     7
100
AcDbLine
 10
148.7360390925253
 20
200.7985337933701
 30
0.0
 11
151.7136775519752
 21
201.1641417867252
 31
0.0
  0
LINE
  5
E2
330
50
100
AcDbEntity
  8
ﾚｲﾔｰ1
  6
Continuous
 62
     7
100
AcDbLine
 10
148.4923024433694
 20
202.7836097044402
 30
0.0
 11
151.4699409028193
 21
203.1492176977954
 31
0.0
  0
LINE
  5
E3
330
50
100
AcDbEntity
  8
ﾚｲﾔｰ1
  6
Continuous
 62
     7
100
AcDbLine
 10
148.4923024433694
 20
202.7836097044402
 30
0.0
 11
148.7360390925253
 21
200.7985337933701
 31
0.0
  0
LINE
  5
E4
330
50
100
AcDbEntity
  8
ﾚｲﾔｰ1
  6
Continuous
 62
     7
100
AcDbLine
 10
151.317603232381
 20
204.3899085868472
 30
0.0
 11
152.5362965435647
 21
194.4644470553479
 31
0.0
  0
LINE
  5
E5
330
50
100
AcDbEntity
  8
ﾚｲﾔｰ1
  6
Continuous
 62
     7
100
AcDbLine
 10
153.0935042856988
 20
194.0291086443322
 30
0.0
 11
155.0785965919988
 21
194.2728473065689
 31
0.0
  0
LINE
  5
E6
330
50
100
AcDbEntity
  8
ﾚｲﾔｰ1
  6
Continuous
 62
     7
100
AcDbLine
 10
95.43777523073055
 20
183.3202134913162
 30
0.0
 11
95.14991593737753
 21
188.9548381534813
 31
0.0
  0
LINE
  5
E7
330
50
100
AcDbEntity
  8
ﾚｲﾔｰ1
  6
Continuous
 62
     7
100
AcDbLine
 10
106.3545424373243
 20
184.6606237324681
 30
0.0
 11
105.2707122268042
 21
190.1975154716121
 31
0.0
  0
LINE
  5
E8
330
50
100
AcDbEntity
  8
ﾚｲﾔｰ1
  6
Continuous
 62
     7
100
AcDbLine
 10
104.3713732448939
 20
184.4171212151785
 30
0.0
 11
103.298158881683
 21
189.8630496615232
 31
0.0
  0
LINE
  5
E9
330
50
100
AcDbEntity
  8
ﾚｲﾔｰ1
  6
Continuous
 62
     7
100
AcDbLine
 10
97.42094442316093
 20
183.5637160086059
 30
0.0
 11
97.14479062703913
 21
189.1075111701363
 31
0.0
  0
LINE
  5
EA
330
50
100
AcDbEntity
  8
ﾚｲﾔｰ1
  6
Continuous
 62
     7
100
AcDbLine
 10
106.3545424373243
 20
184.6606237324681
 30
0.0
 11
110.259155427658
 21
144.864855481113
 31
0.0
  0
LINE
  5
EB
330
50
100
AcDbEntity
  8
ﾚｲﾔｰ1
  6
Continuous
 62
     7
100
AcDbLine
 10
108.4397362931209
 20
183.8839636001136
 30
0.0
 11
112.2497192480548
 21
145.0589061882163
 31
0.0
  0
LINE
  5
EC
330
50
100
AcDbEntity
  8
ﾚｲﾔｰ1
  6
Continuous
 62
     7
100
AcDbLine
 10
104.368829884605
 20
184.416808929855
 30
0.0
 11
110.2543041599805
 21
144.914619576623
 31
0.0
  0
LINE
  5
ED
330
50
100
AcDbEntity
  8
ﾚｲﾔｰ1
  6
Continuous
 62
     7
100
AcDbLine
 10
101.2766147256877
 20
143.7619196745958
 30
0.0
 11
97.42094442316093
 21
183.5637160086059
 31
0.0
  0
LINE
  5
EE
330
50
100
AcDbEntity
  8
ﾚｲﾔｰ1
  6
Continuous
 62
     7
100
AcDbLine
 10
93.6024115839564
 20
182.0621695089611
 30
0.0
 11
99.29823403096805
 21
143.4686453546147
 31
0.0
  0
LINE
  5
EF
330
50
100
AcDbEntity
  8
ﾚｲﾔｰ1
  6
Continuous
 62
     7
100
AcDbLine
 10
95.43777523073055
 20
183.3202134913162
 30
0.0
 11
101.2766147256877
 21
143.7619196745958
 31
0.0
  0
LINE
  5
F0
330
50
100
AcDbEntity
  8
ﾚｲﾔｰ1
  6
Continuous
 62
     7
100
AcDbLine
 10
89.87387338484623
 20
191.7046407681923
 30
0.0
 11
90.72695864648891
 21
184.7568176892439
 31
0.0
  0
LINE
  5
F1
330
50
100
AcDbEntity
  8
ﾚｲﾔｰ1
  6
Continuous
 62
     7
100
AcDbLine
 10
91.61522704693301
 20
193.9334717226469
 30
0.0
 11
107.4959655131008
 21
195.8833808921169
 31
0.0
  0
LINE
  5
F2
330
50
100
AcDbEntity
  8
ﾚｲﾔｰ1
  6
Continuous
 62
     7
100
AcDbLine
 10
109.7247964675555
 20
194.1420272300297
 30
0.0
 11
110.5778817291986
 21
187.1942041510813
 31
0.0
  0
LINE
  5
F3
330
50
100
AcDbEntity
  8
ﾚｲﾔｰ1
  6
Continuous
 62
     7
100
AcDbLine
 10
92.95578960094355
 20
183.0154640271571
 30
0.0
 11
95.43777523073055
 21
183.3202134913162
 31
0.0
  0
LINE
  5
F4
330
50
100
AcDbEntity
  8
中心線
  6
JIS_08_11
 62
     7
100
AcDbLine
 10
90.70968499276631
 20
191.0516331449095
 30
0.0
 11
94.67986960930835
 21
191.539110437277
 31
0.0
  0
LINE
  5
F5
330
50
100
AcDbEntity
  8
中心線
  6
JIS_08_11
 62
     7
100
AcDbLine
 10
92.45103865485363
 20
193.2804640993643
 30
0.0
 11
92.93851594722112
 21
189.3102794828223
 31
0.0
  0
LINE
  5
F6
330
50
100
AcDbEntity
  8
中心線
  6
JIS_08_11
 62
     7
100
AcDbLine
 10
105.1016042277308
 20
192.8187383297417
 30
0.0
 11
109.0717888442728
 21
193.3062156221092
 31
0.0
  0
LINE
  5
F7
330
50
100
AcDbEntity
  8
中心線
  6
JIS_08_11
 62
     7
100
AcDbLine
 10
106.8429578898181
 20
195.0475692841964
 30
0.0
 11
107.3304351821856
 21
191.0773846676545
 31
0.0
  0
LINE
  5
F8
330
50
100
AcDbEntity
  8
寸法線
  6
Continuous
 62
     7
100
AcDbLine
 10
141.244983353291
 20
156.3737076437106
 30
0.0
 11
142.4763063234518
 21
157.9497291356813
 31
0.0
  0
LINE
  5
F9
330
50
100
AcDbEntity
  8
寸法線
  6
Continuous
 62
     7
100
AcDbLine
 10
178.9243896054897
 20
209.3049301024468
 30
0.0
 11
180.5319618078956
 21
196.2123038381817
 31
0.0
  0
LINE
  5
FA
330
50
100
AcDbEntity
  8
寸法線
  6
Continuous
 62
     7
100
AcDbLine
 10
188.8936591690261
 20
210.1668355878643
 30
0.0
 11
190.4136153073575
 21
197.7877849751293
 31
0.0
  0
LINE
  5
FB
330
50
100
AcDbEntity
  8
ﾚｲﾔｰ1
  6
Continuous
 62
     7
100
AcDbLine
 10
106.3545424373243
 20
184.6606237324681
 30
0.0
 11
108.8365280671113
 21
184.965373196627
 31
0.0
  0
LINE
  5
FC
330
50
100
AcDbEntity
  8
ﾚｲﾔｰ1
  6
Continuous
 62
     7
100
AcDbLine
 10
97.42094442316093
 20
183.5637160086059
 30
0.0
 11
104.3713732448939
 21
184.4171212151785
 31
0.0
  0
LINE
  5
FD
330
50
100
AcDbEntity
  8
1
  6
PHANTOM
 62
     4
100
AcDbLine
 10
130.3527668643829
 20
169.9970693625634
 30
0.0
 11
177.9949822155801
 21
175.8467972562453
 31
0.0
  0
LINE
  5
FE
330
50
100
AcDbEntity
  8
1
  6
PHANTOM
 62
     4
100
AcDbLine
 10
157.0987384868225
 20
149.1008256338057
 30
0.0
 11
150.1117867563142
 21
206.0049868261268
 31
0.0
  0
LINE
  5
FF
330
50
100
AcDbEntity
  8
1
  6
PHANTOM
 62
     4
100
AcDbLine
 10
196.601460310242
 20
204.8303955993226
 30
0.0
 11
137.0486911212453
 21
197.5182357322202
 31
0.0
  0
LINE
  5
100
330
50
100
AcDbEntity
  8
1
  6
PHANTOM
 62
     4
100
AcDbLine
 10
93.54205768198135
 20
161.9297424024106
 30
0.0
 11
113.3687715619732
 21
164.3641563484254
 31
0.0
  0
LINE
  5
101
330
50
100
AcDbEntity
  8
1
  6
PHANTOM
 62
     4
100
AcDbLine
 10
106.2584067908535
 20
140.3184062297746
 30
0.0
 11
99.23873603997805
 21
197.4890463081343
 31
0.0
  0
LINE
  5
102
330
50
100
AcDbEntity
  8
1
  6
PHANTOM
 62
     4
100
AcDbLine
 10
113.1289775607835
 20
191.0337236598311
 30
0.0
 11
87.32277755326098
 21
187.8651212594425
 31
0.0
  0
ARC
  5
103
330
50
100
AcDbEntity
  8
実線
  6
Continuous
 62
     7
100
AcDbCircle
 10
184.5084926444463
 20
193.2708100902162
 30
0.0
 40
1.000000000000031
100
AcDbArc
 50
88.38410130822771
 51
93.42052376556518
  0
ARC
  5
104
330
50
100
AcDbEntity
  8
ﾚｲﾔｰ1
  6
Continuous
 62
     7
100
AcDbCircle
 10
94.5916019313162
 20
182.2088066689515
 30
0.0
 40
1.000000000000034
100
AcDbArc
 50
96.9999988273952
 51
188.4320950115518
  0
ARC
  5
105
330
50
100
AcDbEntity
  8
ﾚｲﾔｰ1
  6
Continuous
 62
     7
100
AcDbCircle
 10
153.7989686152559
 20
204.6945819146431
 30
0.0
 40
0.4999999999999386
100
AcDbArc
 50
6.99999929073721
 51
96.99999929073279
  0
ARC
  5
106
330
50
100
AcDbEntity
  8
ﾚｲﾔｰ1
  6
Continuous
 62
     7
100
AcDbCircle
 10
154.314545502244
 20
195.9215031245194
 30
0.0
 40
1.999999999999651
100
AcDbArc
 50
269.6495694483787
 51
16.99998662615749
  0
ARC
  5
107
330
50
100
AcDbEntity
  8
ﾚｲﾔｰ1
  6
Continuous
 62
     7
100
AcDbCircle
 10
154.994704260983
 20
195.406955848177
 30
0.0
 40
3.499999999999805
100
AcDbArc
 50
267.9093103592697
 51
16.99999929073255
  0
ARC
  5
108
330
50
100
AcDbEntity
  8
実線
  6
Continuous
 62
     7
100
AcDbCircle
 10
174.1970816633815
 20
208.0645463939531
 30
0.0
 40
4.000000000000204
100
AcDbArc
 50
285.0790560654165
 51
312.9038458046223
  0
ARC
  5
109
330
50
100
AcDbEntity
  8
ﾚｲﾔｰ1
  6
Continuous
 62
     7
100
AcDbCircle
 10
175.7579910940934
 20
202.2711396458369
 30
0.0
 40
2.000000000000082
100
AcDbArc
 50
105.079056065433
 51
268.9209425160314
  0
ARC
  5
10A
330
50
100
AcDbEntity
  8
実線
  6
Continuous
 62
     7
100
AcDbCircle
 10
175.6449991383316
 20
196.2722036720221
 30
0.0
 40
4.000000000000376
100
AcDbArc
 50
61.04872721792886
 51
88.92094251604817
  0
ARC
  5
10B
330
50
100
AcDbEntity
  8
ﾚｲﾔｰ1
  6
Continuous
 62
     7
100
AcDbCircle
 10
96.582165751713
 20
182.4028573760547
 30
0.0
 40
0.9999999999999943
100
AcDbArc
 50
185.5679026432472
 51
275.455044494034
  0
ARC
  5
10C
330
50
100
AcDbEntity
  8
ﾚｲﾔｰ1
  6
Continuous
 62
     7
100
AcDbCircle
 10
94.5916019313162
 20
182.2088066689515
 30
0.0
 40
1.000000000000005
100
AcDbArc
 50
276.9999988273954
 51
5.56790264321447
  0
ARC
  5
10D
330
50
100
AcDbEntity
  8
ﾚｲﾔｰ1
  6
Continuous
 62
     7
100
AcDbCircle
 10
94.5916019313162
 20
182.2088066689515
 30
0.0
 40
0.9999999999999474
100
AcDbArc
 50
185.5679026432196
 51
276.9999988273954
  0
ARC
  5
10E
330
50
100
AcDbEntity
  8
ﾚｲﾔｰ1
  6
Continuous
 62
     7
100
AcDbCircle
 10
151.8138763089559
 20
204.4508432524064
 30
0.0
 40
0.4999999999999248
100
AcDbArc
 50
96.99999929072428
 51
186.999999290734
  0
ARC
  5
10F
330
50
100
AcDbEntity
  8
ﾚｲﾔｰ1
  6
Continuous
 62
     7
100
AcDbCircle
 10
142.9906457742542
 20
202.4607078163549
 30
0.0
 40
0.9999999999999722
100
AcDbArc
 50
96.99999929074146
 51
186.9999992907342
  0
ARC
  5
110
330
50
100
AcDbEntity
  8
ﾚｲﾔｰ1
  6
Continuous
 62
     7
100
AcDbCircle
 10
142.9906457742542
 20
202.4607078163549
 30
0.0
 40
0.9999999999998317
100
AcDbArc
 50
6.99999929072932
 51
96.99999929074146
  0
ARC
  5
111
330
50
100
AcDbEntity
  8
ﾚｲﾔｰ1
  6
Continuous
 62
     7
100
AcDbCircle
 10
145.532547890726
 20
192.4257371131852
 30
0.0
 40
0.3000000000001107
100
AcDbArc
 50
186.9999992907261
 51
294.7833561141476
  0
ARC
  5
112
330
50
100
AcDbEntity
  8
ﾚｲﾔｰ1
  6
Continuous
 62
     7
100
AcDbCircle
 10
143.8014692714395
 20
191.7543247498265
 30
0.0
 40
0.5000000000000336
100
AcDbArc
 50
186.9999992907457
 51
299.969675863032
  0
ARC
  5
113
330
50
100
AcDbEntity
  8
ﾚｲﾔｰ1
  6
Continuous
 62
     7
100
AcDbCircle
 10
153.2693644515923
 20
199.3401364521939
 30
0.0
 40
2.000000000000506
100
AcDbArc
 50
16.9999992907347
 51
39.95483461743579
  0
ARC
  5
114
330
50
100
AcDbEntity
  8
ﾚｲﾔｰ1
  6
Continuous
 62
     7
100
AcDbCircle
 10
153.9803451355107
 20
200.4349270758679
 30
0.0
 40
3.000000000000494
100
AcDbArc
 50
16.99999929073397
 51
80.75776397440086
  0
ARC
  5
115
330
50
100
AcDbEntity
  8
ﾚｲﾔｰ1
  6
Continuous
 62
     7
100
AcDbCircle
 10
153.0325696201397
 20
194.5253817209071
 30
0.0
 40
0.5000000000000198
100
AcDbArc
 50
186.9999992907328
 51
276.9999992907246
  0
ARC
  5
116
330
50
100
AcDbEntity
  8
ﾚｲﾔｰ1
  6
Continuous
 62
     7
100
AcDbCircle
 10
155.0176619264396
 20
194.7691203831439
 30
0.0
 40
0.5000000000000232
100
AcDbArc
 50
276.999999290736
 51
6.99999929072547
  0
ARC
  5
117
330
50
100
AcDbEntity
  8
ﾚｲﾔｰ1
  6
Continuous
 62
     7
100
AcDbCircle
 10
94.5916019313162
 20
182.2088066689515
 30
0.0
 40
0.9999999999999957
100
AcDbArc
 50
8.43209501156944
 51
96.9999988273952
  0
ARC
  5
118
330
50
100
AcDbEntity
  8
ﾚｲﾔｰ1
  6
Continuous
 62
     7
100
AcDbCircle
 10
107.4444543829223
 20
183.7869382465619
 30
0.0
 40
1.000000000000023
100
AcDbArc
 50
96.99999882739034
 51
185.5679026432195
  0
ARC
  5
119
330
50
100
AcDbEntity
  8
ﾚｲﾔｰ1
  6
Continuous
 62
     7
100
AcDbCircle
 10
107.4444543829223
 20
183.7869382465619
 30
0.0
 40
1.000000000000201
100
AcDbArc
 50
5.56790264323459
 51
96.99999882739034
  0
ARC
  5
11A
330
50
100
AcDbEntity
  8
ﾚｲﾔｰ1
  6
Continuous
 62
     7
100
AcDbCircle
 10
107.4444543829223
 20
183.7869382465619
 30
0.0
 40
1.000000000000035
100
AcDbArc
 50
276.999998827396
 51
8.43209501156639
  0
ARC
  5
11B
330
50
100
AcDbEntity
  8
ﾚｲﾔｰ1
  6
Continuous
 62
     7
100
AcDbCircle
 10
107.4444543829223
 20
183.7869382465619
 30
0.0
 40
0.9999999999999357
100
AcDbArc
 50
188.4320950115518
 51
276.999998827396
  0
ARC
  5
11C
330
50
100
AcDbEntity
  8
ﾚｲﾔｰ1
  6
Continuous
 62
     7
100
AcDbCircle
 10
100.2258775570222
 20
189.4494224596368
 30
0.0
 40
5.499999999999795
100
AcDbArc
 50
348.9388423385996
 51
205.0611553161901
  0
ARC
  5
11D
330
50
100
AcDbEntity
  8
ﾚｲﾔｰ1
  6
Continuous
 62
     7
100
AcDbCircle
 10
100.2258775570222
 20
189.4494224596368
 30
0.0
 40
5.49999999999972
100
AcDbArc
 50
238.6161555785472
 51
315.3838420762414
  0
ARC
  5
11E
330
50
100
AcDbEntity
  8
ﾚｲﾔｰ1
  6
Continuous
 62
     7
100
AcDbCircle
 10
100.2258775570222
 20
189.4494224596368
 30
0.0
 40
5.100000000000078
100
AcDbArc
 50
8.43486046285105
 51
185.5651371919265
  0
ARC
  5
11F
330
50
100
AcDbEntity
  8
ﾚｲﾔｰ1
  6
Continuous
 62
     7
100
AcDbCircle
 10
100.2258775570222
 20
189.4494224596368
 30
0.0
 40
3.099999999999977
100
AcDbArc
 50
7.66773605714157
 51
186.3322615976281
  0
ARC
  5
120
330
50
100
AcDbEntity
  8
ﾚｲﾔｰ1
  6
Continuous
 62
     7
100
AcDbCircle
 10
105.4660736882026
 20
183.4936639265808
 30
0.0
 40
1.000000000000045
100
AcDbArc
 50
278.5449531607579
 51
8.43209501156723
  0
ARC
  5
121
330
50
100
AcDbEntity
  8
ﾚｲﾔｰ1
  6
Continuous
 62
     7
100
AcDbCircle
 10
105.5195943027388
 20
183.500235430624
 30
0.0
 40
1.000000000000003
100
AcDbArc
 50
188.4320950115447
 51
275.4550444940328
  0
ARC
  5
122
330
50
100
AcDbEntity
  8
ﾚｲﾔｰ1
  6
Continuous
 62
     7
100
AcDbCircle
 10
96.52864513717688
 20
182.3962858720115
 30
0.0
 40
1.000000000000123
100
AcDbArc
 50
278.5449531607547
 51
5.56790264324234
  0
ARC
  5
123
330
50
100
AcDbEntity
  8
ﾚｲﾔｰ1
  6
Continuous
 62
     7
100
AcDbCircle
 10
154.1738745399815
 20
172.9219333094043
 30
0.0
 40
20.99999999999987
100
AcDbArc
 50
89.64956944835812
 51
79.56663302553808
  0
ARC
  5
124
330
50
100
AcDbEntity
  8
ﾚｲﾔｰ1
  6
Continuous
 62
     7
100
AcDbCircle
 10
111.2544373378563
 20
144.9618808346648
 30
0.0
 40
0.9999999999999224
100
AcDbArc
 50
276.9999988273968
 51
5.5679026432238
  0
ARC
  5
125
330
50
100
AcDbEntity
  8
ﾚｲﾔｰ1
  6
Continuous
 62
     7
100
AcDbCircle
 10
111.2544373378563
 20
144.9618808346648
 30
0.0
 40
0.9999999999999153
100
AcDbArc
 50
185.5679026432427
 51
276.9999988273968
  0
ARC
  5
126
330
50
100
AcDbEntity
  8
ﾚｲﾔｰ1
  6
Continuous
 62
     7
100
AcDbCircle
 10
100.2874243783279
 20
143.6152825146051
 30
0.0
 40
1.000000000000035
100
AcDbArc
 50
276.999998827396
 51
8.43209501156806
  0
ARC
  5
127
330
50
100
AcDbEntity
  8
ﾚｲﾔｰ1
  6
Continuous
 62
     7
100
AcDbCircle
 10
100.2874243783279
 20
143.6152825146051
 30
0.0
 40
0.9999999999999779
100
AcDbArc
 50
188.4320950115515
 51
276.999998827396
  0
ARC
  5
128
330
50
100
AcDbEntity
  8
ﾚｲﾔｰ1
  6
Continuous
 62
     7
100
AcDbCircle
 10
92.71205095475985
 20
185.0005563354276
 30
0.0
 40
1.999999999999975
100
AcDbArc
 50
186.9999988273939
 51
276.999998827395
  0
ARC
  5
129
330
50
100
AcDbEntity
  8
ﾚｲﾔｰ1
  6
Continuous
 62
     7
100
AcDbCircle
 10
91.85896569311676
 20
191.948379414376
 30
0.0
 40
1.999999999999951
100
AcDbArc
 50
96.99999882739478
 51
186.9999988273953
  0
ARC
  5
12A
330
50
100
AcDbEntity
  8
ﾚｲﾔｰ1
  6
Continuous
 62
     7
100
AcDbCircle
 10
107.7397041592845
 20
193.8982885838459
 30
0.0
 40
2.000000000000056
100
AcDbArc
 50
6.99999882739605
 51
96.99999882739328
  0
ARC
  5
12B
330
50
100
AcDbEntity
  8
ﾚｲﾔｰ1
  6
Continuous
 62
     7
100
AcDbCircle
 10
108.5927894209276
 20
186.9504655048976
 30
0.0
 40
1.999999999999635
100
AcDbArc
 50
276.9999988273946
 51
6.99999882739287
  0
ARC
  5
12C
330
50
100
AcDbEntity
  8
実線
  6
Continuous
 62
     7
100
AcDbCircle
 10
176.2393917747884
 20
205.8670547764837
 30
0.0
 40
0.9999999999987916
100
AcDbArc
 50
312.9038458046173
 51
346.2527477444535
  0
ARC
  5
12D
330
50
100
AcDbEntity
  8
実線
  6
Continuous
 62
     7
100
AcDbCircle
 10
177.097196011362
 20
198.8972987640071
 30
0.0
 40
0.9999999999997075
100
AcDbArc
 50
28.0143802609617
 51
61.04872721792086
  0
ARC
  5
12E
330
50
100
AcDbEntity
  8
実線
  6
Continuous
 62
     7
100
AcDbCircle
 10
193.0179722334742
 20
200.4968082309541
 30
0.0
 40
16.61962942411489
100
AcDbArc
 50
138.3034178120391
 51
162.0113843135914
  0
ARC
  5
12F
330
50
100
AcDbEntity
  8
実線
  6
Continuous
 62
     7
100
AcDbCircle
 10
187.1340292640504
 20
203.6679413544051
 30
0.0
 40
6.538529786393984
100
AcDbArc
 50
309.2814927877501
 51
64.71850579371342
  0
ARC
  5
130
330
50
100
AcDbEntity
  8
実線
  6
Continuous
 62
     7
100
AcDbCircle
 10
176.6506026389897
 20
187.4104149184412
 30
0.0
 40
25.84080329404447
100
AcDbArc
 50
59.08581052754387
 51
74.02353922070024
  0
ARC
  5
131
330
50
100
AcDbEntity
  8
実線
  6
Continuous
 62
     7
100
AcDbCircle
 10
184.2013873300166
 20
201.7158487962169
 30
0.0
 40
10.60243762871749
100
AcDbArc
 50
100.5794748159378
 51
107.2420319668142
  0
ARC
  5
132
330
50
100
AcDbEntity
  8
実線
  6
Continuous
 62
     7
100
AcDbCircle
 10
183.4878452235149
 20
211.2917386282718
 30
0.0
 40
1.000000000000084
100
AcDbArc
 50
74.02353922071228
 51
92.78237048913229
  0
ARC
  5
133
330
50
100
AcDbEntity
  8
実線
  6
Continuous
 62
     7
100
AcDbCircle
 10
183.3046106906249
 20
208.7081655621822
 30
0.0
 40
3.582025257170097
100
AcDbArc
 50
88.92268115237758
 51
105.6158972732363
  0
ARC
  5
134
330
50
100
AcDbEntity
  8
実線
  6
Continuous
 62
     7
100
AcDbCircle
 10
181.3551407091189
 20
210.8867641587331
 30
0.0
 40
0.9999999999999304
100
AcDbArc
 50
107.2420319668024
 51
138.30341781204
  0
ARC
  5
135
330
50
100
AcDbEntity
  8
実線
  6
Continuous
 62
     7
100
AcDbCircle
 10
182.0711888326755
 20
213.1210587149424
 30
0.0
 40
0.9999999999995234
100
AcDbArc
 50
280.5794748159068
 51
285.6158972732451
  0
ARC
  5
136
330
50
100
AcDbEntity
  8
実線
  6
Continuous
 62
     7
100
AcDbCircle
 10
183.3907603398729
 20
213.2893808698576
 30
0.0
 40
1.000000000000051
100
AcDbArc
 50
268.9226811523864
 51
272.7823704891238
  0
ARC
  5
137
330
50
100
AcDbEntity
  8
実線
  6
Continuous
 62
     7
100
AcDbCircle
 10
192.076027555933
 20
208.1683327859501
 30
0.0
 40
16.61962942411444
100
AcDbArc
 50
211.988614267876
 51
235.696580769444
  0
ARC
  5
138
330
50
100
AcDbEntity
  8
実線
  6
Continuous
 62
     7
100
AcDbCircle
 10
183.2731894853711
 20
195.2655088605406
 30
0.0
 40
1.000000000000235
100
AcDbArc
 50
235.6965807696816
 51
266.7579666146125
  0
ARC
  5
139
330
50
100
AcDbEntity
  8
実線
  6
Continuous
 62
     7
100
AcDbCircle
 10
173.0289539276374
 20
216.9063796827393
 30
0.0
 40
25.84080329404252
100
AcDbArc
 50
299.9764593607717
 51
314.9141880539175
  0
ARC
  5
13A
330
50
100
AcDbEntity
  8
実線
  6
Continuous
 62
     7
100
AcDbCircle
 10
183.8162454260291
 20
204.8525782072562
 30
0.0
 40
10.60243762871809
100
AcDbArc
 50
266.7579666146472
 51
273.4205237655222
  0
ARC
  5
13B
330
50
100
AcDbEntity
  8
実線
  6
Continuous
 62
     7
100
AcDbCircle
 10
185.4405157554837
 20
195.3885117287137
 30
0.0
 40
0.9999999999999969
100
AcDbArc
 50
281.2176280923385
 51
299.9764593609536
  0
ARC
  5
13C
330
50
100
AcDbEntity
  8
実線
  6
Continuous
 62
     7
100
AcDbCircle
 10
184.6377012387134
 20
197.8510132076029
 30
0.0
 40
3.582025257170791
100
AcDbArc
 50
268.3841013082149
 51
285.0773174290727
  0
ARC
  5
13D
330
50
100
AcDbEntity
  8
実線
  6
Continuous
 62
     7
100
AcDbCircle
 10
185.8295880570441
 20
193.4267210303574
 30
0.0
 40
0.9999999999996902
100
AcDbArc
 50
101.217628092342
 51
105.0773174290853
  0
CIRCLE
  5
13E
330
50
100
AcDbEntity
  8
ﾚｲﾔｰ1
  6
Continuous
 62
     7
100
AcDbCircle
 10
100.2258775570222
 20
189.4494224596368
 30
0.0
 40
2.900000000000014
  0
CIRCLE
  5
13F
330
50
100
AcDbEntity
  8
ﾚｲﾔｰ1
  6
Continuous
 62
     7
100
AcDbCircle
 10
100.2258775570222
 20
189.4494224596368
 30
0.0
 40
2.400000000000059
  0
CIRCLE
  5
140
330
50
100
AcDbEntity
  8
ﾚｲﾔｰ1
  6
Continuous
 62
     7
100
AcDbCircle
 10
107.0866965360018
 20
193.0624769759254
 30
0.0
 40
1.500000000000091
  0
CIRCLE
  5
141
330
50
100
AcDbEntity
  8
ﾚｲﾔｰ1
  6
Continuous
 62
     7
100
AcDbCircle
 10
92.69477730103738
 20
191.2953717910933
 30
0.0
 40
1.000000000000009
  0
CIRCLE
  5
142
330
50
100
AcDbEntity
  8
ﾚｲﾔｰ1
  6
Continuous
 62
     7
100
AcDbCircle
 10
107.0866965360018
 20
193.0624769759254
 30
0.0
 40
1.000000000000037
  0
CIRCLE
  5
143
330
50
100
AcDbEntity
  8
ﾚｲﾔｰ1
  6
Continuous
 62
     7
100
AcDbCircle
 10
100.2258775570222
 20
189.4494224596368
 30
0.0
 40
3.000000000000065
  0
CIRCLE
  5
144
330
50
100
AcDbEntity
  8
ﾚｲﾔｰ1
  6
Continuous
 62
     7
100
AcDbCircle
 10
154.1738745399815
 20
172.9219333094043
 30
0.0
 40
19.00000000000008
  0
CIRCLE
  5
145
330
50
100
AcDbEntity
  8
ﾚｲﾔｰ1
  6
Continuous
 62
     7
100
AcDbCircle
 10
92.69477730103738
 20
191.2953717910933
 30
0.0
 40
1.499999999999992
  0
ENDBLK
  5
52
330
50
100
AcDbEntity
  8
0
100
AcDbBlockEnd
  0
BLOCK
  5
54
330
53
100
AcDbEntity
  8
0
100
AcDbBlockBegin
  2
開示A4
 70
     0
 10
0.0
 20
0.0
 30
0.0
  3
開示A4
  1

  0
POINT
  5
146
330
53
100
AcDbEntity
  8
1
 62
     4
100
AcDbPoint
 10
93.75
 20
17.0
 30
0.0
  0
POINT
  5
147
330
53
100
AcDbEntity
  8
1
 62
     4
100
AcDbPoint
 10
85.25
 20
17.0
 30
0.0
  0
POINT
  5
148
330
53
100
AcDbEntity
  8
1
 62
     4
100
AcDbPoint
 10
106.5
 20
19.00000000000001
 30
0.0
  0
POINT
  5
149
330
53
100
AcDbEntity
  8
1
 62
     4
100
AcDbPoint
 10
106.5
 20
12.5
 30
0.0
  0
POINT
  5
14A
330
53
100
AcDbEntity
  8
1
 62
     4
100
AcDbPoint
 10
112.25
 20
12.5
 30
0.0
  0
POINT
  5
14B
330
53
100
AcDbEntity
  8
1
 62
     4
100
AcDbPoint
 10
100.75
 20
12.5
 30
0.0
  0
POINT
  5
14C
330
53
100
AcDbEntity
  8
1
 62
     4
100
AcDbPoint
 10
123.5
 20
19.0
 30
0.0
  0
POINT
  5
14D
330
53
100
AcDbEntity
  8
1
 62
     4
100
AcDbPoint
 10
123.5
 20
12.5
 30
0.0
  0
POINT
  5
14E
330
53
100
AcDbEntity
  8
1
 62
     4
100
AcDbPoint
 10
129.25
 20
12.5
 30
0.0
  0
POINT
  5
14F
330
53
100
AcDbEntity
  8
1
 62
     4
100
AcDbPoint
 10
117.75
 20
12.5
 30
0.0
  0
POINT
  5
150
330
53
100
AcDbEntity
  8
1
 62
     4
100
AcDbPoint
 10
140.5
 20
19.00000000000001
 30
0.0
  0
POINT
  5
151
330
53
100
AcDbEntity
  8
1
 62
     4
100
AcDbPoint
 10
140.5
 20
12.5
 30
0.0
  0
POINT
  5
152
330
53
100
AcDbEntity
  8
1
 62
     4
100
AcDbPoint
 10
146.25
 20
12.5
 30
0.0
  0
POINT
  5
153
330
53
100
AcDbEntity
  8
1
 62
     4
100
AcDbPoint
 10
134.75
 20
12.5
 30
0.0
  0
POINT
  5
154
330
53
100
AcDbEntity
  8
1
 62
     4
100
AcDbPoint
 10
151.75
 20
12.5
 30
0.0
  0
POINT
  5
155
330
53
100
AcDbEntity
  8
1
 62
     4
100
AcDbPoint
 10
163.25
 20
12.5
 30
0.0
  0
POINT
  5
156
330
53
100
AcDbEntity
  8
1
 62
     4
100
AcDbPoint
 10
157.5
 20
12.5
 30
0.0
  0
POINT
  5
157
330
53
100
AcDbEntity
  8
1
 62
     4
100
AcDbPoint
 10
57.0
 20
14.25
 30
0.0
  0
POINT
  5
158
330
53
100
AcDbEntity
  8
1
 62
     4
100
AcDbPoint
 10
57.0
 20
22.75000000000001
 30
0.0
  0
POINT
  5
159
330
53
100
AcDbEntity
  8
1
 62
     4
100
AcDbPoint
 10
47.5
 20
282.0000000000003
 30
0.0
  0
POINT
  5
15A
330
53
100
AcDbEntity
  8
1
 62
     4
100
AcDbPoint
 10
157.5
 20
19.00000000000001
 30
0.0
  0
POINT
  5
15B
330
53
100
AcDbEntity
  8
1
 62
     4
100
AcDbPoint
 10
57.0
 20
16.25
 30
0.0
  0
POINT
  5
15C
330
53
100
AcDbEntity
  8
1
 62
     4
100
AcDbPoint
 10
57.0
 20
24.75000000000001
 30
0.0
  0
POINT
  5
15D
330
53
100
AcDbEntity
  8
1
 62
     4
100
AcDbPoint
 10
57.0
 20
20.75000000000001
 30
0.0
  0
POINT
  5
15E
330
53
100
AcDbEntity
  8
1
 62
     4
100
AcDbPoint
 10
57.0
 20
12.25
 30
0.0
  0
POINT
  5
15F
330
53
100
AcDbEntity
  8
1
 62
     4
100
AcDbPoint
 10
34.0
 20
34.00000000000001
 30
0.0
  0
LINE
  5
160
330
53
100
AcDbEntity
  8
1
  6
Continuous
 62
     7
100
AcDbLine
 10
105.0
 20
10.0
 30
0.0
 11
200.0
 21
10.0
 31
0.0
  0
LINE
  5
161
330
53
100
AcDbEntity
  8
1
  6
Continuous
 62
     2
100
AcDbLine
 10
105.0
 20
10.0
 30
0.0
 11
105.0
 21
5.0
 31
0.0
  0
LINE
  5
162
330
53
100
AcDbEntity
  8
1
  6
Continuous
 62
     7
100
AcDbLine
 10
200.0
 20
148.5
 30
0.0
 11
200.0
 21
287.0000000000003
 31
0.0
  0
LINE
  5
163
330
53
100
AcDbEntity
  8
1
  6
Continuous
 62
     2
100
AcDbLine
 10
200.0
 20
148.5
 30
0.0
 11
205.0
 21
148.5
 31
0.0
  0
LINE
  5
164
330
53
100
AcDbEntity
  8
1
  6
Continuous
 62
     7
100
AcDbLine
 10
25.0
 20
148.5
 30
0.0
 11
25.0
 21
287.0000000000003
 31
0.0
  0
LINE
  5
165
330
53
100
AcDbEntity
  8
1
  6
Continuous
 62
     2
100
AcDbLine
 10
25.0
 20
148.5
 30
0.0
 11
20.0
 21
148.5
 31
0.0
  0
LINE
  5
166
330
53
100
AcDbEntity
  8
1
  6
Continuous
 62
     7
100
AcDbLine
 10
105.0
 20
287.0000000000003
 30
0.0
 11
25.0
 21
287.0000000000003
 31
0.0
  0
LINE
  5
167
330
53
100
AcDbEntity
  8
1
  6
Continuous
 62
     2
100
AcDbLine
 10
105.0
 20
287.0000000000003
 30
0.0
 11
105.0
 21
292.0000000000003
 31
0.0
  0
LINE
  5
168
330
53
100
AcDbEntity
  8
1
  6
Continuous
 62
     2
100
AcDbLine
 10
166.0
 20
20.00000000000001
 30
0.0
 11
200.0
 21
20.00000000000001
 31
0.0
  0
LINE
  5
169
330
53
100
AcDbEntity
  8
1
  6
Continuous
 62
     2
100
AcDbLine
 10
98.0
 20
27.00000000000001
 30
0.0
 11
98.0
 21
9.99999999999999
 31
0.0
  0
LINE
  5
16A
330
53
100
AcDbEntity
  8
1
  6
Continuous
 62
     2
100
AcDbLine
 10
115.0
 20
27.00000000000001
 30
0.0
 11
115.0
 21
9.99999999999999
 31
0.0
  0
LINE
  5
16B
330
53
100
AcDbEntity
  8
1
  6
Continuous
 62
     2
100
AcDbLine
 10
149.0
 20
27.00000000000001
 30
0.0
 11
149.0
 21
10.0
 31
0.0
  0
LINE
  5
16C
330
53
100
AcDbEntity
  8
1
  6
Continuous
 62
     2
100
AcDbLine
 10
132.0
 20
27.00000000000001
 30
0.0
 11
132.0
 21
9.99999999999999
 31
0.0
  0
LINE
  5
16D
330
53
100
AcDbEntity
  8
1
  6
Continuous
 62
     2
100
AcDbLine
 10
166.0
 20
27.00000000000001
 30
0.0
 11
166.0
 21
10.0
 31
0.0
  0
LINE
  5
16E
330
53
100
AcDbEntity
  8
1
  6
Continuous
 62
     2
100
AcDbLine
 10
55.0
 20
277.0000000000003
 30
0.0
 11
25.0
 21
277.0000000000003
 31
0.0
  0
LINE
  5
16F
330
53
100
AcDbEntity
  8
1
  6
Continuous
 62
     7
100
AcDbLine
 10
25.0
 20
10.0
 30
0.0
 11
25.0
 21
148.5
 31
0.0
  0
LINE
  5
170
330
53
100
AcDbEntity
  8
1
  6
Continuous
 62
     2
100
AcDbLine
 10
40.0
 20
287.0000000000003
 30
0.0
 11
40.0
 21
277.0000000000003
 31
0.0
  0
LINE
  5
171
330
53
100
AcDbEntity
  8
1
  6
Continuous
 62
     2
100
AcDbLine
 10
55.0
 20
287.0000000000003
 30
0.0
 11
55.0
 21
277.0000000000003
 31
0.0
  0
LINE
  5
172
330
53
100
AcDbEntity
  8
1
  6
Continuous
 62
     2
100
AcDbLine
 10
33.0
 20
41.00000000000001
 30
0.0
 11
33.0
 21
27.0
 31
0.0
  0
LINE
  5
173
330
53
100
AcDbEntity
  8
1
  6
Continuous
 62
     7
100
AcDbLine
 10
200.0
 20
27.00000000000001
 30
0.0
 11
25.0
 21
27.00000000000001
 31
0.0
  0
LINE
  5
174
330
53
100
AcDbEntity
  8
1
  6
Continuous
 62
     7
100
AcDbLine
 10
25.0
 20
41.0
 30
0.0
 11
200.0
 21
41.0
 31
0.0
  0
LINE
  5
175
330
53
100
AcDbEntity
  8
1
  6
PHANTOM
 62
     4
100
AcDbLine
 10
0.0
 20
0.0
 30
0.0
 11
210.0
 21
0.0
 31
0.0
  0
LINE
  5
176
330
53
100
AcDbEntity
  8
1
  6
PHANTOM
 62
     4
100
AcDbLine
 10
210.0
 20
0.0
 30
0.0
 11
210.0
 21
297.0
 31
0.0
  0
LINE
  5
177
330
53
100
AcDbEntity
  8
1
  6
PHANTOM
 62
     4
100
AcDbLine
 10
210.0
 20
297.0
 30
0.0
 11
0.0
 21
297.0
 31
0.0
  0
LINE
  5
178
330
53
100
AcDbEntity
  8
1
  6
PHANTOM
 62
     4
100
AcDbLine
 10
0.0
 20
297.0
 30
0.0
 11
0.0
 21
0.0
 31
0.0
  0
LINE
  5
179
330
53
100
AcDbEntity
  8
1
  6
Continuous
 62
     7
100
AcDbLine
 10
25.0
 20
10.0
 30
0.0
 11
105.0
 21
10.0
 31
0.0
  0
LINE
  5
17A
330
53
100
AcDbEntity
  8
1
  6
Continuous
 62
     7
100
AcDbLine
 10
200.0
 20
10.0
 30
0.0
 11
200.0
 21
148.5
 31
0.0
  0
LINE
  5
17B
330
53
100
AcDbEntity
  8
1
  6
Continuous
 62
     7
100
AcDbLine
 10
200.0
 20
287.0000000000003
 30
0.0
 11
105.0
 21
287.0000000000003
 31
0.0
  0
LINE
  5
17C
330
53
100
AcDbEntity
  8
1
  6
Continuous
 62
     2
100
AcDbLine
 10
25.0
 20
18.50000000000001
 30
0.0
 11
81.0
 21
18.50000000000001
 31
0.0
  0
LINE
  5
17D
330
53
100
AcDbEntity
  8
1
  6
Continuous
 62
     2
100
AcDbLine
 10
33.0
 20
27.0
 30
0.0
 11
33.0
 21
10.0
 31
0.0
  0
LINE
  5
17E
330
53
100
AcDbEntity
  8
1
  6
Continuous
 62
     7
100
AcDbLine
 10
191.0
 20
24.70000000000001
 30
0.0
 11
191.0
 21
22.30000000000001
 31
0.0
  0
LINE
  5
17F
330
53
100
AcDbEntity
  8
1
  6
Continuous
 62
     7
100
AcDbLine
 10
191.0
 20
24.70000000000001
 30
0.0
 11
196.0
 21
25.50000000000001
 31
0.0
  0
LINE
  5
180
330
53
100
AcDbEntity
  8
1
  6
Continuous
 62
     7
100
AcDbLine
 10
196.0
 20
25.50000000000001
 30
0.0
 11
196.0
 21
21.50000000000001
 31
0.0
  0
LINE
  5
181
330
53
100
AcDbEntity
  8
1
  6
Continuous
 62
     7
100
AcDbLine
 10
196.0
 20
21.50000000000001
 30
0.0
 11
191.0
 21
22.30000000000001
 31
0.0
  0
LINE
  5
182
330
53
100
AcDbEntity
  8
1
  6
DOT_CENTER
 62
     2
100
AcDbLine
 10
184.0
 20
23.50000000000001
 30
0.0
 11
197.0
 21
23.50000000000001
 31
0.0
  0
LINE
  5
183
330
53
100
AcDbEntity
  8
1
  6
DOT_CENTER
 62
     2
100
AcDbLine
 10
187.0
 20
26.50000000000001
 30
0.0
 11
187.0
 21
20.50000000000001
 31
0.0
  0
LINE
  5
184
330
53
100
AcDbEntity
  8
1
  6
Continuous
 62
     2
100
AcDbLine
 10
81.0
 20
27.00000000000001
 30
0.0
 11
81.0
 21
10.0
 31
0.0
  0
CIRCLE
  5
185
330
53
100
AcDbEntity
  8
1
  6
Continuous
 62
     7
100
AcDbCircle
 10
103.5
 20
12.5
 30
0.0
 40
0.2999999999999972
  0
CIRCLE
  5
186
330
53
100
AcDbEntity
  8
1
  6
Continuous
 62
     7
100
AcDbCircle
 10
109.5
 20
12.5
 30
0.0
 40
0.2999999999999972
  0
CIRCLE
  5
187
330
53
100
AcDbEntity
  8
1
  6
Continuous
 62
     7
100
AcDbCircle
 10
120.5
 20
12.5
 30
0.0
 40
0.2999999999999972
  0
CIRCLE
  5
188
330
53
100
AcDbEntity
  8
1
  6
Continuous
 62
     7
100
AcDbCircle
 10
126.5
 20
12.5
 30
0.0
 40
0.2999999999999972
  0
CIRCLE
  5
189
330
53
100
AcDbEntity
  8
1
  6
Continuous
 62
     7
100
AcDbCircle
 10
137.5
 20
12.5
 30
0.0
 40
0.3000000000000114
  0
CIRCLE
  5
18A
330
53
100
AcDbEntity
  8
1
  6
Continuous
 62
     7
100
AcDbCircle
 10
143.5
 20
12.5
 30
0.0
 40
0.3000000000000114
  0
CIRCLE
  5
18B
330
53
100
AcDbEntity
  8
1
  6
Continuous
 62
     7
100
AcDbCircle
 10
160.5
 20
12.5
 30
0.0
 40
0.3000000000000114
  0
CIRCLE
  5
18C
330
53
100
AcDbEntity
  8
1
  6
Continuous
 62
     7
100
AcDbCircle
 10
154.5
 20
12.5
 30
0.0
 40
0.3000000000000114
  0
CIRCLE
  5
18D
330
53
100
AcDbEntity
  8
1
  6
Continuous
 62
     7
100
AcDbCircle
 10
187.0
 20
23.50000000000001
 30
0.0
 40
1.200000000000102
  0
CIRCLE
  5
18E
330
53
100
AcDbEntity
  8
1
  6
Continuous
 62
     7
100
AcDbCircle
 10
187.0
 20
23.50000000000001
 30
0.0
 40
2.0
  0
CIRCLE
  5
18F
330
53
100
AcDbEntity
  8
1
  6
DOT_CENTER
 62
     7
100
AcDbCircle
 10
89.5
 20
16.0
 30
0.0
 40
0.1000000000000227
  0
CIRCLE
  5
190
330
53
100
AcDbEntity
  8
1
  6
DOT_CENTER
 62
     7
100
AcDbCircle
 10
89.5
 20
18.0
 30
0.0
 40
0.1000000000000227
  0
MTEXT
  5
192
330
53
100
AcDbEntity
  8
1
 62
     7
100
AcDbMText
 10
188.5
 20
15.0
 30
0.0
 40
3.0
 41
0.0
 71
     5
 72
     1
  1
三栄水栓製作所
  7
CONVERTER_11
 73
     1
 44
1.0
  0
MTEXT
  5
193
330
53
100
AcDbEntity
  8
1
 62
     7
100
AcDbMText
 10
171.5
 20
15.0
 30
0.0
 40
2.5
 41
0.0
 71
     5
 72
     1
  1
株式会社
  7
CONVERTER_11
 73
     1
 44
1.0
  0
MTEXT
  5
194
330
53
100
AcDbEntity
  8
1
 62
     2
100
AcDbMText
 10
32.5
 20
282.0000000000003
 30
0.0
 40
5.0
 41
0.0
 71
     5
 72
     1
  1
図番
  7
CONVERTER_11
 73
     1
 44
0.45454545454545
  0
MTEXT
  5
195
330
53
100
AcDbEntity
  8
1
 62
     2
100
AcDbMText
 10
29.0
 20
34.00000000000001
 30
0.0
 40
3.5
 41
0.0
 71
     5
 72
     1
  1
備考
  7
CONVERTER_11
 73
     1
 44
0.45454545454545
  0
MTEXT
  5
196
330
53
100
AcDbEntity
  8
1
 62
     2
100
AcDbMText
 10
29.0
 20
22.75
 30
0.0
 40
3.5
 41
0.0
 71
     5
 72
     1
  1
品名
  7
CONVERTER_11
 73
     1
 44
0.72727272727273
  0
MTEXT
  5
197
330
53
100
AcDbEntity
  8
1
 62
     2
100
AcDbMText
 10
29.0
 20
14.25
 30
0.0
 40
3.5
 41
0.0
 71
     5
 72
     1
  1
品番
  7
CONVERTER_11
 73
     1
 44
0.72727272727273
  0
MTEXT
  5
198
330
53
100
AcDbEntity
  8
1
 62
     2
100
AcDbMText
 10
101.5
 20
25.00000000000001
 30
0.0
 40
3.0
 41
0.0
 71
     5
 72
     1
  1
承認
  7
CONVERTER_11
 73
     1
 44
0.59090909090909
  0
MTEXT
  5
199
330
53
100
AcDbEntity
  8
1
 62
     2
100
AcDbMText
 10
175.0
 20
23.50000000000001
 30
0.0
 40
3.5
 41
0.0
 71
     5
 72
     1
  1
第三角法
  7
CONVERTER_11
 73
     1
 44
0.54545454545455
  0
MTEXT
  5
19A
330
53
100
AcDbEntity
  8
1
 62
     2
100
AcDbMText
 10
118.5
 20
25.00000000000001
 30
0.0
 40
3.0
 41
0.0
 71
     5
 72
     1
  1
検図
  7
CONVERTER_11
 73
     1
 44
0.59090909090909
  0
MTEXT
  5
19B
330
53
100
AcDbEntity
  8
1
 62
     2
100
AcDbMText
 10
152.5
 20
25.00000000000001
 30
0.0
 40
3.0
 41
0.0
 71
     5
 72
     1
  1
担当
  7
CONVERTER_11
 73
     1
 44
0.59090909090909
  0
MTEXT
  5
19C
330
53
100
AcDbEntity
  8
1
 62
     2
100
AcDbMText
 10
135.5
 20
25.00000000000001
 30
0.0
 40
3.0
 41
0.0
 71
     5
 72
     1
  1
製図
  7
CONVERTER_11
 73
     1
 44
0.59090909090909
  0
MTEXT
  5
19D
330
53
100
AcDbEntity
  8
1
 62
     2
100
AcDbMText
 10
89.5
 20
24.00000000000001
 30
0.0
 40
3.5
 41
0.0
 71
     5
 72
     1
  1
尺度
  7
CONVERTER_11
 73
     1
 44
0.54545454545455
  0
MTEXT
  5
19E
330
53
100
AcDbEntity
  8
1
 62
   250
100
AcDbMText
 10
25.0
 20
5.0
 30
0.0
 40
3.5
 41
0.0
 71
     4
 72
     1
  1
備考欄の文字列 原点位置=4
  7
CONVERTER_11
 73
     1
 44
0.54545454545455
  0
ENDBLK
  5
55
330
53
100
AcDbEntity
  8
0
100
AcDbBlockEnd
  0
BLOCK
  5
1BF
330
1B7
100
AcDbEntity
  8
0
100
AcDbBlockBegin
  2
*D4
 70
     1
 10
0.0
 20
0.0
 30
0.0
  3
*D4
  1

  0
LINE
  5
1B8
330
1B7
100
AcDbEntity
  8
1
  6
Continuous
 62
     2
100
AcDbLine
 10
127.3462913871775
 20
184.7092966383291
 30
0.0
 11
131.853031625353
 21
148.0048366675733
 31
0.0
  0
LINE
  5
1B9
330
1B7
100
AcDbEntity
  8
1
  6
Continuous
 62
     2
100
AcDbLine
 10
124.0391830952689
 20
211.6435367995621
 30
0.0
 11
127.3462913871775
 21
184.7092966383291
 31
0.0
  0
LINE
  5
1BA
330
1B7
100
AcDbEntity
  8
1
  6
Continuous
 62
     2
100
AcDbLine
 10
120.54701
 20
183.87445
 30
0.0
 11
128.338837541313
 21
184.8311659614209
 31
0.0
  0
LINE
  5
1BB
330
1B7
100
AcDbEntity
  8
1
  6
Continuous
 62
     2
100
AcDbLine
 10
125.05375
 20
147.16999
 30
0.0
 11
132.8455777794885
 21
148.1267059906652
 31
0.0
  0
SOLID
  5
1BC
330
1B7
100
AcDbEntity
  8
1
 62
     2
100
AcDbTrace
 10
128.2301831485685
 20
181.29154050153
 30
0.0
 11
127.3154848874296
 21
181.1792296961797
 31
0.0
 12
127.3462913871775
 22
184.7092966383291
 32
0.0
 13
127.3462913871775
 23
184.7092966383291
 33
0.0
  0
SOLID
  5
1BD
330
1B7
100
AcDbEntity
  8
1
 62
     2
100
AcDbTrace
 10
130.9691398639619
 20
151.4225928043723
 30
0.0
 11
131.8838381251008
 21
151.5349036097226
 31
0.0
 12
131.853031625353
 22
148.0048366675733
 32
0.0
 13
131.853031625353
 23
148.0048366675733
 33
0.0
  0
MTEXT
  5
1BE
330
1B7
100
AcDbEntity
  8
1
 62
     7
100
AcDbMText
 10
125.1938154491166
 20
210.4453197376538
 30
0.0
 40
3.5
 41
0.0
 71
     7
 72
     1
  1
\C7;{\Fgdt;n}\C7;37
  7
CONVERTER_12
 11
0.1218693230918716
 21
-0.9925461541354785
 31
0.0
 73
     1
 44
0.60024009603842
  0
ENDBLK
  5
1C0
330
1B7
100
AcDbEntity
  8
0
100
AcDbBlockEnd
  0
BLOCK
  5
1CA
330
1C3
100
AcDbEntity
  8
0
100
AcDbBlockBegin
  2
*D5
 70
     1
 10
0.0
 20
0.0
 30
0.0
  3
*D5
  1

  0
LINE
  5
1C4
330
1C3
100
AcDbEntity
  8
1
  6
Continuous
 62
     2
100
AcDbLine
 10
108.59084
 20
157.66283
 30
0.0
 11
108.59084
 21
119.66284
 31
0.0
  0
LINE
  5
1C5
330
1C3
100
AcDbEntity
  8
1
  6
Continuous
 62
     2
100
AcDbLine
 10
58.79084500000005
 20
157.66283
 30
0.0
 11
109.59084
 21
157.66283
 31
0.0
  0
LINE
  5
1C6
330
1C3
100
AcDbEntity
  8
1
  6
Continuous
 62
     2
100
AcDbLine
 10
90.59084
 20
119.66284
 30
0.0
 11
109.59084
 21
119.66284
 31
0.0
  0
SOLID
  5
1C7
330
1C3
100
AcDbEntity
  8
1
 62
     2
100
AcDbTrace
 10
109.0516237415559
 20
154.16283
 30
0.0
 11
108.1300562584441
 21
154.16283
 31
0.0
 12
108.59084
 22
157.66283
 32
0.0
 13
108.59084
 23
157.66283
 33
0.0
  0
SOLID
  5
1C8
330
1C3
100
AcDbEntity
  8
1
 62
     2
100
AcDbTrace
 10
108.1300562584441
 20
123.16284
 30
0.0
 11
109.0516237415559
 21
123.16284
 31
0.0
 12
108.59084
 22
119.66284
 32
0.0
 13
108.59084
 23
119.66284
 33
0.0
  0
MTEXT
  5
1C9
330
1C3
100
AcDbEntity
  8
1
 62
     7
100
AcDbMText
 10
107.59084
 20
126.5378375
 30
0.0
 40
3.5
 41
0.0
 71
     7
 72
     1
  1
38
  7
CONVERTER_12
 11
0.0
 21
1.0
 31
0.0
 73
     1
 44
0.60024009603842
  0
ENDBLK
  5
1CB
330
1C3
100
AcDbEntity
  8
0
100
AcDbBlockEnd
  0
BLOCK
  5
1D5
330
1CE
100
AcDbEntity
  8
0
100
AcDbBlockBegin
  2
*D6
 70
     1
 10
0.0
 20
0.0
 30
0.0
  3
*D6
  1

  0
LINE
  5
1CF
330
1CE
100
AcDbEntity
  8
1
  6
Continuous
 62
     2
100
AcDbLine
 10
26.99084700000003
 20
81.16284
 30
0.0
 11
90.59083999999996
 21
81.16284
 31
0.0
  0
LINE
  5
1D0
330
1CE
100
AcDbEntity
  8
1
  6
Continuous
 62
     2
100
AcDbLine
 10
26.99084700000003
 20
119.66284
 30
0.0
 11
26.99084700000003
 21
80.16284
 31
0.0
  0
LINE
  5
1D1
330
1CE
100
AcDbEntity
  8
1
  6
Continuous
 62
     2
100
AcDbLine
 10
90.59083999999996
 20
119.66284
 30
0.0
 11
90.59083999999996
 21
80.16284
 31
0.0
  0
SOLID
  5
1D2
330
1CE
100
AcDbEntity
  8
1
 62
     2
100
AcDbTrace
 10
30.49084700000003
 20
81.62362374155589
 30
0.0
 11
30.49084700000003
 21
80.70205625844412
 31
0.0
 12
26.99084700000003
 22
81.16284
 32
0.0
 13
26.99084700000003
 23
81.16284
 33
0.0
  0
SOLID
  5
1D3
330
1CE
100
AcDbEntity
  8
1
 62
     2
100
AcDbTrace
 10
87.09083999999996
 20
80.70205625844412
 30
0.0
 11
87.09083999999996
 21
81.62362374155589
 31
0.0
 12
90.59083999999996
 22
81.16284
 32
0.0
 13
90.59083999999996
 23
81.16284
 33
0.0
  0
MTEXT
  5
1D4
330
1CE
100
AcDbEntity
  8
1
 62
     7
100
AcDbMText
 10
55.39584500000842
 20
82.16283304292368
 30
0.0
 40
3.5
 41
0.0
 71
     7
 72
     1
  1
\C7;{\Fgdt;n}\C7;63
  7
CONVERTER_12
 11
0.9999999999970619
 21
2.424068405545306E-6
 31
0.0
 73
     1
 44
0.60024009603842
  0
ENDBLK
  5
1D6
330
1CE
100
AcDbEntity
  8
0
100
AcDbBlockEnd
  0
BLOCK
  5
1E0
330
1D9
100
AcDbEntity
  8
0
100
AcDbBlockBegin
  2
*D7
 70
     1
 10
0.0
 20
0.0
 30
0.0
  3
*D7
  1

  0
LINE
  5
1DA
330
1D9
100
AcDbEntity
  8
1
  6
Continuous
 62
     2
100
AcDbLine
 10
39.94864808867646
 20
89.16284
 30
0.0
 11
77.63302690827004
 21
89.16284
 31
0.0
  0
LINE
  5
1DB
330
1D9
100
AcDbEntity
  8
1
  6
Continuous
 62
     2
100
AcDbLine
 10
39.94864808867646
 20
100.14534274545
 30
0.0
 11
39.94864808867646
 21
88.16284
 31
0.0
  0
LINE
  5
1DC
330
1D9
100
AcDbEntity
  8
1
  6
Continuous
 62
     2
100
AcDbLine
 10
77.63302690827004
 20
100.145342570944
 30
0.0
 11
77.63302690827004
 21
88.16284
 31
0.0
  0
SOLID
  5
1DD
330
1D9
100
AcDbEntity
  8
1
 62
     2
100
AcDbTrace
 10
43.44864808867646
 20
89.62362374155589
 30
0.0
 11
43.44864808867646
 21
88.70205625844412
 31
0.0
 12
39.94864808867646
 22
89.16284
 32
0.0
 13
39.94864808867646
 23
89.16284
 33
0.0
  0
SOLID
  5
1DE
330
1D9
100
AcDbEntity
  8
1
 62
     2
100
AcDbTrace
 10
74.13302690827004
 20
88.70205625844412
 30
0.0
 11
74.13302690827004
 21
89.62362374155589
 31
0.0
 12
77.63302690827004
 22
89.16284
 32
0.0
 13
77.63302690827004
 23
89.16284
 33
0.0
  0
MTEXT
  5
1DF
330
1D9
100
AcDbEntity
  8
1
 62
     7
100
AcDbMText
 10
55.39584500000842
 20
90.16283304292368
 30
0.0
 40
3.5
 41
0.0
 71
     7
 72
     1
  1
\C7;{\Fgdt;n}\C7;38
  7
CONVERTER_12
 11
0.9999999999970619
 21
2.424068405545306E-6
 31
0.0
 73
     1
 44
0.60024009603842
  0
ENDBLK
  5
1E1
330
1D9
100
AcDbEntity
  8
0
100
AcDbBlockEnd
  0
BLOCK
  5
1EB
330
1E4
100
AcDbEntity
  8
0
100
AcDbBlockBegin
  2
*D8
 70
     1
 10
0.0
 20
0.0
 30
0.0
  3
*D8
  1

  0
LINE
  5
1E5
330
1E4
100
AcDbEntity
  8
1
  6
Continuous
 62
     2
100
AcDbLine
 10
108.59084
 20
119.66284
 30
0.0
 11
108.59084
 21
99.16284
 31
0.0
  0
LINE
  5
1E6
330
1E4
100
AcDbEntity
  8
1
  6
Continuous
 62
     2
100
AcDbLine
 10
90.59084
 20
119.66284
 30
0.0
 11
109.59084
 21
119.66284
 31
0.0
  0
LINE
  5
1E7
330
1E4
100
AcDbEntity
  8
1
  6
Continuous
 62
     2
100
AcDbLine
 10
76.63318000000008
 20
99.16284
 30
0.0
 11
109.59084
 21
99.16284
 31
0.0
  0
SOLID
  5
1E8
330
1E4
100
AcDbEntity
  8
1
 62
     2
100
AcDbTrace
 10
109.0516237415559
 20
116.16284
 30
0.0
 11
108.1300562584441
 21
116.16284
 31
0.0
 12
108.59084
 22
119.66284
 32
0.0
 13
108.59084
 23
119.66284
 33
0.0
  0
SOLID
  5
1E9
330
1E4
100
AcDbEntity
  8
1
 62
     2
100
AcDbTrace
 10
108.1300562584441
 20
102.66284
 30
0.0
 11
109.0516237415559
 21
102.66284
 31
0.0
 12
108.59084
 22
99.16284
 32
0.0
 13
108.59084
 23
99.16284
 33
0.0
  0
MTEXT
  5
1EA
330
1E4
100
AcDbEntity
  8
1
 62
     7
100
AcDbMText
 10
107.59084
 20
107.31284
 30
0.0
 40
3.5
 41
0.0
 71
     7
 72
     1
  1
21
  7
CONVERTER_12
 11
0.0
 21
1.0
 31
0.0
 73
     1
 44
0.60024009603842
  0
ENDBLK
  5
1EC
330
1E4
100
AcDbEntity
  8
0
100
AcDbBlockEnd
  0
BLOCK
  5
1F6
330
1EF
100
AcDbEntity
  8
0
100
AcDbBlockBegin
  2
*D9
 70
     1
 10
0.0
 20
0.0
 30
0.0
  3
*D9
  1

  0
LINE
  5
1F0
330
1EF
100
AcDbEntity
  8
1
  6
Continuous
 62
     2
100
AcDbLine
 10
53.67232385025898
 20
199.3497673498809
 30
0.0
 11
118.1878252548084
 21
207.2712748847837
 31
0.0
  0
LINE
  5
1F1
330
1EF
100
AcDbEntity
  8
1
  6
Continuous
 62
     2
100
AcDbLine
 10
56.43114219072412
 20
176.8809951199798
 30
0.0
 11
53.55045450649744
 21
200.3423135014785
 31
0.0
  0
LINE
  5
1F2
330
1EF
100
AcDbEntity
  8
1
  6
Continuous
 62
     2
100
AcDbLine
 10
121.11389
 20
183.44039
 30
0.0
 11
118.0659559110468
 21
208.2638210363812
 31
0.0
  0
SOLID
  5
1F3
330
1EF
100
AcDbEntity
  8
1
 62
     2
100
AcDbTrace
 10
57.09007996865104
 20
200.2336591824464
 30
0.0
 11
57.20239079304985
 21
199.3189609236463
 31
0.0
 12
53.67232385025898
 22
199.3497673498809
 32
0.0
 13
53.67232385025898
 23
199.3497673498809
 33
0.0
  0
SOLID
  5
1F4
330
1EF
100
AcDbEntity
  8
1
 62
     2
100
AcDbTrace
 10
114.7700691364163
 20
206.3873830522182
 30
0.0
 11
114.6577583120175
 21
207.3020813110183
 31
0.0
 12
118.1878252548084
 22
207.2712748847837
 32
0.0
 13
118.1878252548084
 23
207.2712748847837
 33
0.0
  0
MTEXT
  5
1F5
330
1EF
100
AcDbEntity
  8
1
 62
     7
100
AcDbMText
 10
83.2027765957351
 20
203.9831608597646
 30
0.0
 40
3.5
 41
0.0
 71
     7
 72
     1
  1
65
  7
CONVERTER_12
 11
0.9925461515975632
 21
0.1218693437615351
 31
0.0
 73
     1
 44
0.60024009603842
  0
ENDBLK
  5
1F7
330
1EF
100
AcDbEntity
  8
0
100
AcDbBlockEnd
  0
BLOCK
  5
202
330
1FA
100
AcDbEntity
  8
0
100
AcDbBlockBegin
  2
*D10
 70
     1
 10
0.0
 20
0.0
 30
0.0
  3
*D10
  1

  0
LINE
  5
1FB
330
1FA
100
AcDbEntity
  8
1
  6
Continuous
 62
     2
100
AcDbLine
 10
119.2038881831054
 20
181.7045311228689
 30
0.0
 11
123.2255765272361
 21
148.9505081201494
 31
0.0
  0
LINE
  5
1FC
330
1FA
100
AcDbEntity
  8
1
  6
Continuous
 62
     2
100
AcDbLine
 10
123.2255765272361
 20
148.9505081201494
 30
0.0
 11
125.7583012583066
 21
128.323120564843
 31
0.0
  0
LINE
  5
1FD
330
1FA
100
AcDbEntity
  8
1
  6
Continuous
 62
     2
100
AcDbLine
 10
121.2954933422276
 20
181.9613479446763
 30
0.0
 11
118.2113420315079
 21
181.5826617791074
 31
0.0
  0
LINE
  5
1FE
330
1FA
100
AcDbEntity
  8
1
  6
Continuous
 62
     2
100
AcDbLine
 10
125.3171775928962
 20
149.2073244393428
 30
0.0
 11
122.2330303756385
 21
148.8286387763878
 31
0.0
  0
SOLID
  5
1FF
330
1FA
100
AcDbEntity
  8
1
 62
     2
100
AcDbTrace
 10
120.0877800156708
 20
178.2867750044769
 30
0.0
 11
119.1730817568708
 21
178.174464180078
 31
0.0
 12
119.2038881831054
 22
181.7045311228689
 32
0.0
 13
119.2038881831054
 23
181.7045311228689
 33
0.0
  0
SOLID
  5
200
330
1FA
100
AcDbEntity
  8
1
 62
     2
100
AcDbTrace
 10
122.3416846946707
 20
152.3682642385414
 30
0.0
 11
123.2563829534707
 21
152.4805750629402
 31
0.0
 12
123.2255765272361
 22
148.9505081201494
 32
0.0
 13
123.2255765272361
 23
148.9505081201494
 33
0.0
  0
MTEXT
  5
201
330
1FA
100
AcDbEntity
  8
1
 62
     7
100
AcDbMText
 10
125.0617383053693
 20
142.2016795697468
 30
0.0
 40
3.5
 41
0.0
 71
     7
 72
     1
  1
\C7;内径{\Fgdt;n}\C7;33
  7
CONVERTER_11
 11
0.1218693437615354
 21
-0.9925461515975631
 31
0.0
 73
     1
 44
0.45454545454545
  0
ENDBLK
  5
203
330
1FA
100
AcDbEntity
  8
0
100
AcDbBlockEnd
  0
BLOCK
  5
20F
330
206
100
AcDbEntity
  8
0
100
AcDbBlockBegin
  2
*D11
 70
     1
 10
0.0
 20
0.0
 30
0.0
  3
*D11
  1

  0
LINE
  5
207
330
206
100
AcDbEntity
  8
1
  6
Continuous
 62
     2
100
AcDbLine
 10
45.70164505877153
 20
169.2431653023766
 30
0.0
 11
40.01006355011365
 21
174.2786466585334
 31
0.0
  0
LINE
  5
208
330
206
100
AcDbEntity
  8
1
  6
Continuous
 62
     2
100
AcDbLine
 10
56.4311421907241
 20
176.8809951199798
 30
0.0
 11
55.73484452764085
 21
182.5518632518427
 31
0.0
  0
LINE
  5
209
330
206
100
AcDbEntity
  8
1
  6
Continuous
 62
     2
100
AcDbLine
 10
40.01006355011365
 20
174.2786466585334
 30
0.0
 11
39.26110752893432
 21
174.9412663672195
 31
0.0
  0
LINE
  5
20A
330
206
100
AcDbEntity
  8
1
  6
Continuous
 62
     2
100
AcDbLine
 10
55.73484452764085
 20
182.5518632518427
 30
0.0
 11
55.61297473427749
 21
183.544409348236
 31
0.0
  0
ARC
  5
20B
330
206
100
AcDbEntity
  8
1
  6
Continuous
 62
     2
100
AcDbCircle
 10
58.790845
 20
157.66283
 30
0.0
 40
25.07594694320421
100
AcDbArc
 50
97.00002597431649
 51
138.5000259743163
  0
SOLID
  5
20C
330
206
100
AcDbEntity
  8
1
 62
     2
100
AcDbTrace
 10
52.38704337469073
 20
181.4317966927543
 30
0.0
 11
52.21122237545149
 21
182.3364367328562
 31
0.0
 12
55.73484452764085
 22
182.5518632518427
 32
0.0
 13
55.73484452764085
 23
182.5518632518427
 33
0.0
  0
SOLID
  5
20D
330
206
100
AcDbEntity
  8
1
 62
     2
100
AcDbTrace
 10
42.18340122743023
 20
177.0605389995198
 30
0.0
 11
42.82935326115293
 21
176.4032471343195
 31
0.0
 12
40.01006355011365
 22
174.2786466585334
 32
0.0
 13
40.01006355011365
 23
174.2786466585334
 33
0.0
  0
MTEXT
  5
20E
330
206
100
AcDbEntity
  8
1
 62
     7
100
AcDbMText
 10
41.79769283134514
 20
178.6378415010215
 30
0.0
 40
3.5
 41
0.0
 71
     7
 72
     1
  1
41,5{\Fgdt;~}
  7
CONVERTER_12
 11
0.8891766096821589
 21
0.457564155932413
 31
0.0
 73
     1
 44
0.60024009603842
  0
ENDBLK
  5
210
330
206
100
AcDbEntity
  8
0
100
AcDbBlockEnd
  0
ENDSEC
  0
SECTION
  2
ENTITIES
  0
INSERT
  5
56
330
1F
100
AcDbEntity
  8
1
100
AcDbBlockReference
  2
本体
 10
26.99084700000003
 20
96.16284
 30
0.0
  0
INSERT
  5
57
330
1F
100
AcDbEntity
  8
0
100
AcDbBlockReference
  2
バンド
 10
176.0
 20
296.0
 30
0.0
  0
INSERT
  5
58
330
1F
100
AcDbEntity
  8
1
100
AcDbBlockReference
  2
開示A4
 10
0.0
 20
0.0
 30
0.0
  0
LINE
  5
19F
330
1F
100
AcDbEntity
  8
1
  6
DASH_CENTER
 62
     2
100
AcDbLine
 10
58.790845
 20
157.66283
 30
0.0
 11
58.79084499999999
 21
96.16284
 31
0.0
  0
LINE
  5
1A0
330
1F
100
AcDbEntity
  8
1
  6
DASH_CENTER
 62
     2
100
AcDbLine
 10
45.70164505877153
 20
169.2431653023766
 30
0.0
 11
61.03771306353796
 21
155.6749708739418
 31
0.0
  0
LINE
  5
1A1
330
1F
100
AcDbEntity
  8
1
  6
DASH_CENTER
 62
     2
100
AcDbLine
 10
59.1564543800901
 20
154.6851917108202
 30
0.0
 11
56.43114219072412
 21
176.8809951199798
 31
0.0
  0
LINE
  5
1A2
330
1F
100
AcDbEntity
  8
1
  6
DASH_CENTER
 62
     2
100
AcDbLine
 10
58.79084499999999
 20
177.7453264641711
 30
0.0
 11
58.790845
 21
157.66283
 31
0.0
  0
LINE
  5
1A3
330
1F
100
AcDbEntity
  8
1
  6
DASH_CENTER
 62
     2
100
AcDbLine
 10
126.2839739223547
 20
165.9499442232942
 30
0.0
 11
38.85804072681978
 21
155.215389372489
 31
0.0
  0
LINE
  5
1A4
330
1F
100
AcDbEntity
  8
1
  6
DASH_CENTER
 62
     2
100
AcDbLine
 10
196.6014603102415
 20
204.8303955993257
 30
0.0
 11
137.0486911212454
 21
197.5182357322201
 31
0.0
  0
LINE
  5
1A5
330
1F
100
AcDbEntity
  8
1
  6
DASH_CENTER
 62
     2
100
AcDbLine
 10
130.3527668643829
 20
169.9970693625634
 30
0.0
 11
177.9949822155801
 21
175.8467972562453
 31
0.0
  0
LINE
  5
1A6
330
1F
100
AcDbEntity
  8
1
  6
DASH_CENTER
 62
     2
100
AcDbLine
 10
157.0987404627729
 20
149.100825876422
 30
0.0
 11
150.1117840120894
 21
206.0049864891784
 31
0.0
  0
LINE
  5
1A7
330
1F
100
AcDbEntity
  8
1
  6
DASH_CENTER
 62
     2
100
AcDbLine
 10
87.32277755326113
 20
187.8651212594425
 30
0.0
 11
113.1289775607835
 21
191.0337236598311
 31
0.0
  0
LINE
  5
1A8
330
1F
100
AcDbEntity
  8
1
  6
DASH_CENTER
 62
     2
100
AcDbLine
 10
106.0280334926104
 20
142.1946464958694
 30
0.0
 11
99.18998831074133
 21
197.8860647697884
 31
0.0
  0
LINE
  5
1A9
330
1F
100
AcDbEntity
  8
1
  6
Continuous
 62
     7
100
AcDbLine
 10
147.0
 20
275.0000000000003
 30
0.0
 11
147.0
 21
255.0000000000003
 31
0.0
  0
LINE
  5
1AA
330
1F
100
AcDbEntity
  8
1
  6
Continuous
 62
     7
100
AcDbLine
 10
188.0
 20
275.0000000000003
 30
0.0
 11
187.9999999999999
 21
255.0000000000003
 31
0.0
  0
LINE
  5
1AB
330
1F
100
AcDbEntity
  8
1
  6
Continuous
 62
     2
100
AcDbLine
 10
147.0
 20
261.0000000000003
 30
0.0
 11
187.9999999999999
 21
261.0000000000003
 31
0.0
  0
LINE
  5
1AC
330
1F
100
AcDbEntity
  8
1
  6
Continuous
 62
     7
100
AcDbLine
 10
147.0
 20
255.0000000000003
 30
0.0
 11
187.9999999999999
 21
255.0000000000003
 31
0.0
  0
LINE
  5
1AD
330
1F
100
AcDbEntity
  8
1
  6
Continuous
 62
     7
100
AcDbLine
 10
147.0
 20
275.0000000000003
 30
0.0
 11
188.0
 21
275.0000000000003
 31
0.0
  0
LINE
  5
1AE
330
1F
100
AcDbEntity
  8
1
  6
Continuous
 62
     7
100
AcDbLine
 10
147.0
 20
267.0000000000003
 30
0.0
 11
187.9999999999999
 21
267.0000000000003
 31
0.0
  0
MTEXT
  5
1B0
330
1F
100
AcDbEntity
  8
1
 62
     7
100
AcDbMText
 10
93.75
 20
17.0
 30
0.0
 40
3.5
 41
0.0
 71
     5
 72
     1
  1
1
  7
CONVERTER_12
 73
     1
 44
0.7202881152461
  0
MTEXT
  5
1B1
330
1F
100
AcDbEntity
  8
1
 62
     7
100
AcDbMText
 10
85.25
 20
17.0
 30
0.0
 40
3.5
 41
0.0
 71
     5
 72
     1
  1
1
  7
CONVERTER_12
 73
     1
 44
0.7202881152461
  0
MTEXT
  5
1B2
330
1F
100
AcDbEntity
  8
1
 62
     7
100
AcDbMText
 10
57.0
 20
22.75000000000001
 30
0.0
 40
3.5
 41
0.0
 71
     5
 72
     1
  1
洗濯機排水トラップエルボ
  7
CONVERTER_11
 73
     1
 44
0.54545454545455
  0
MTEXT
  5
1B3
330
1F
100
AcDbEntity
  8
1
 62
     7
100
AcDbMText
 10
57.0
 20
14.25
 30
0.0
 40
3.5
 41
0.0
 71
     5
 72
     1
  1
H5540F
  7
CONVERTER_12
 73
     1
 44
0.7202881152461
  0
MTEXT
  5
1B4
330
1F
100
AcDbEntity
  8
1
 62
     7
100
AcDbMText
 10
149.0
 20
258.0000000000003
 30
0.0
 40
3.5
 41
0.0
 71
     4
 72
     1
  1
H5500M-50
  7
CONVERTER_12
 73
     1
 44
0.7202881152461
  0
MTEXT
  5
1B5
330
1F
100
AcDbEntity
  8
1
 62
     7
100
AcDbMText
 10
149.0
 20
264.0000000000003
 30
0.0
 40
3.5
 41
0.0
 71
     4
 72
     1
  1
H5550-50
  7
CONVERTER_12
 73
     1
 44
0.7202881152461
  0
MTEXT
  5
1B6
330
1F
100
AcDbEntity
  8
1
 62
     7
100
AcDbMText
 10
167.5
 20
271.0000000000003
 30
0.0
 40
3.5
 41
0.0
 71
     5
 72
     1
  1
取付可能製品
  7
CONVERTER_11
 73
     1
 44
0.54545454545455
  0
DIMENSION
  5
1C2
330
1F
100
AcDbEntity
  8
1
100
AcDbDimension
  2
*D4
 10
127.3462913871775
 20
184.7092966383291
 30
0.0
 11
127.3445175707506
 21
207.2888968597746
 31
0.0
 70
    32
  1
{\Fgdt;n}37
 71
     5
 42
-1.0
 53
-83.0000011726054
  3
ME10_DIM_10
100
AcDbAlignedDimension
 13
125.05375
 23
147.16999
 33
0.0
 14
120.54701
 24
183.87445
 34
0.0
 50
-83.0000011726054
100
AcDbRotatedDimension
  0
DIMENSION
  5
1CD
330
1F
100
AcDbEntity
  8
1
100
AcDbDimension
  2
*D5
 10
108.59084
 20
157.66283
 30
0.0
 11
105.84084
 21
129.1628375
 31
0.0
 70
    32
  1
<>
 71
     5
 42
-1.0
 53
90.0
  3
ME10_DIM_11
100
AcDbAlignedDimension
 13
90.59083999999996
 23
119.66284
 33
0.0
 14
58.790845
 24
157.66283
 34
0.0
 50
90.0
100
AcDbRotatedDimension
  0
DIMENSION
  5
1D8
330
1F
100
AcDbEntity
  8
1
100
AcDbDimension
  2
*D6
 10
26.99084700000003
 20
81.16284
 30
0.0
 11
58.79084499999999
 21
83.91284
 31
0.0
 70
    32
  1
{\Fgdt;n}63
 71
     5
 42
-1.0
 53
0.00013888888889
  3
ME10_DIM_12
100
AcDbAlignedDimension
 13
90.59083999999996
 23
119.66284
 33
0.0
 14
26.99084700000003
 24
119.66284
 34
0.0
100
AcDbRotatedDimension
  0
DIMENSION
  5
1E3
330
1F
100
AcDbEntity
  8
1
100
AcDbDimension
  2
*D7
 10
39.94864808867646
 20
89.16284
 30
0.0
 11
58.79084499999999
 21
91.91284
 31
0.0
 70
    32
  1
{\Fgdt;n}38
 71
     5
 42
-1.0
 53
0.00013888888889
  3
ME10_DIM_13
100
AcDbAlignedDimension
 13
77.63302690827004
 23
100.145342570944
 33
0.0
 14
39.94864808867646
 24
100.14534274545
 34
0.0
100
AcDbRotatedDimension
  0
DIMENSION
  5
1EE
330
1F
100
AcDbEntity
  8
1
100
AcDbDimension
  2
*D8
 10
108.59084
 20
119.66284
 30
0.0
 11
105.84084
 21
109.41284
 31
0.0
 70
    32
  1
21
 71
     5
 42
-1.0
 53
90.0
  3
ME10_DIM_14
100
AcDbAlignedDimension
 13
76.63318000000004
 23
99.16284
 33
0.0
 14
90.59083999999996
 24
119.66284
 34
0.0
 50
90.0
100
AcDbRotatedDimension
  0
DIMENSION
  5
1F9
330
1F
100
AcDbEntity
  8
1
100
AcDbDimension
  2
*D9
 10
53.67232385025898
 20
199.3497673498809
 30
0.0
 11
85.59493889209602
 21
206.0400236524344
 31
0.0
 70
    32
  1
<>
 71
     5
 42
-1.0
 53
7.00000002057286
  3
ME10_DIM_15
100
AcDbAlignedDimension
 13
121.11389
 23
183.44039
 33
0.0
 14
56.43114219072412
 24
176.8809951199798
 34
0.0
 50
7.00000002057286
100
AcDbRotatedDimension
  0
DIMENSION
  5
205
330
1F
100
AcDbEntity
  8
1
100
AcDbDimension
  2
*D10
 10
119.2038881831054
 20
181.7045311228689
 30
0.0
 11
127.4854278227613
 21
136.8219533570772
 31
0.0
 70
    32
  1
<>
 71
     5
 42
-1.0
 53
-82.99999997942716
  3
ME10_DIM_16
100
AcDbAlignedDimension
 13
125.3171775928962
 23
149.2073244393428
 33
0.0
 14
121.2954933422276
 24
181.9613479446764
 34
0.0
 50
-82.99999997942716
100
AcDbRotatedDimension
  0
DIMENSION
  5
212
330
1F
100
AcDbEntity
  8
1
100
AcDbDimension
  2
*D11
 10
47.11510993192489
 20
179.8547277493705
 30
0.0
 11
45.97861534662449
 21
182.5606170708483
 31
0.0
 70
    37
  1
<>
 71
     5
 42
-1.0
  3
ME10_DIM_17
100
AcDb3PointAngularDimension
 13
56.43114219072412
 23
176.8809951199798
 33
0.0
 14
45.70164505877153
 24
169.2431653023766
 34
0.0
 15
58.790845
 25
157.66283
 35
0.0
  0
ENDSEC
  0
SECTION
  2
OBJECTS
  0
DICTIONARY
  5
C
330
0
100
AcDbDictionary
281
     1
  3
ACAD_GROUP
350
D
  3
ACAD_LAYOUT
350
1A
  3
ACAD_MATERIAL
350
3B
  3
ACAD_MLEADERSTYLE
350
215
  3
ACAD_MLINESTYLE
350
17
  3
ACAD_PLOTSETTINGS
350
19
  3
ACAD_PLOTSTYLENAME
350
E
  3
ACAD_VISUALSTYLE
350
2A
  3
AcDbVariableDictionary
350
213
  0
DICTIONARY
  5
D
102
{ACAD_REACTORS
330
C
102
}
330
C
100
AcDbDictionary
281
     1
  0
DICTIONARY
  5
1A
102
{ACAD_REACTORS
330
C
102
}
330
C
100
AcDbDictionary
281
     1
  3
Layout1
350
1E
  3
Layout2
350
26
  3
Model
350
22
  0
DICTIONARY
  5
3B
102
{ACAD_REACTORS
330
C
102
}
330
C
100
AcDbDictionary
281
     1
  3
ByBlock
350
3D
  3
ByLayer
350
3C
  3
Global
350
3E
  0
DICTIONARY
  5
215
102
{ACAD_REACTORS
330
C
102
}
330
C
100
AcDbDictionary
281
     1
  0
DICTIONARY
  5
17
102
{ACAD_REACTORS
330
C
102
}
330
C
100
AcDbDictionary
281
     1
  3
Standard
350
18
  0
DICTIONARY
  5
19
102
{ACAD_REACTORS
330
C
102
}
330
C
100
AcDbDictionary
281
     1
  0
ACDBDICTIONARYWDFLT
  5
E
102
{ACAD_REACTORS
330
C
102
}
330
C
100
AcDbDictionary
281
     1
  3
Normal
350
F
100
AcDbDictionaryWithDefault
340
F
  0
DICTIONARY
  5
2A
102
{ACAD_REACTORS
330
C
102
}
330
C
100
AcDbDictionary
281
     1
  3
2dWireframe
350
2F
  3
3D Hidden
350
31
  3
3dWireframe
350
30
  3
Basic
350
32
  3
Brighten
350
36
  3
ColorChange
350
3A
  3
Conceptual
350
34
  3
Dim
350
35
  3
Facepattern
350
39
  3
Flat
350
2B
  3
FlatWithEdges
350
2C
  3
Gouraud
350
2D
  3
GouraudWithEdges
350
2E
  3
Linepattern
350
38
  3
Realistic
350
33
  3
Thicken
350
37
  0
DICTIONARY
  5
213
102
{ACAD_REACTORS
330
C
102
}
330
C
100
AcDbDictionary
281
     1
  3
DIMASSOC
350
216
  3
HIDETEXT
350
217
  0
LAYOUT
  5
1E
102
{ACAD_REACTORS
330
1A
102
}
330
1A
100
AcDbPlotSettings
  1

  2
none_device
  4

  6

 40
0.0
 41
0.0
 42
0.0
 43
0.0
 44
0.0
 45
0.0
 46
0.0
 47
0.0
 48
0.0
 49
0.0
140
0.0
141
0.0
142
1.0
143
1.0
 70
   688
 72
     0
 73
     0
 74
     5
  7

 75
    16
147
1.0
148
0.0
149
0.0
100
AcDbLayout
  1
Layout1
 70
     1
 71
     1
 10
0.0
 20
0.0
 11
12.0
 21
9.0
 12
0.0
 22
0.0
 32
0.0
 14
1.00000000000000E+20
 24
1.00000000000000E+20
 34
1.00000000000000E+20
 15
-1.00000000000000E+20
 25
-1.00000000000000E+20
 35
-1.00000000000000E+20
146
0.0
 13
0.0
 23
0.0
 33
0.0
 16
1.0
 26
0.0
 36
0.0
 17
0.0
 27
1.0
 37
0.0
 76
     0
330
1B
  0
LAYOUT
  5
26
102
{ACAD_REACTORS
330
1A
102
}
330
1A
100
AcDbPlotSettings
  1

  2
none_device
  4

  6

 40
0.0
 41
0.0
 42
0.0
 43
0.0
 44
0.0
 45
0.0
 46
0.0
 47
0.0
 48
0.0
 49
0.0
140
0.0
141
0.0
142
1.0
143
1.0
 70
   688
 72
     0
 73
     0
 74
     5
  7

 75
    16
147
1.0
148
0.0
149
0.0
100
AcDbLayout
  1
Layout2
 70
     1
 71
     2
 10
0.0
 20
0.0
 11
0.0
 21
0.0
 12
0.0
 22
0.0
 32
0.0
 14
0.0
 24
0.0
 34
0.0
 15
0.0
 25
0.0
 35
0.0
146
0.0
 13
0.0
 23
0.0
 33
0.0
 16
1.0
 26
0.0
 36
0.0
 17
0.0
 27
1.0
 37
0.0
 76
     0
330
23
  0
LAYOUT
  5
22
102
{ACAD_REACTORS
330
1A
102
}
330
1A
100
AcDbPlotSettings
  1

  2
none_device
  4

  6

 40
0.0
 41
0.0
 42
0.0
 43
0.0
 44
0.0
 45
0.0
 46
0.0
 47
0.0
 48
0.0
 49
0.0
140
0.0
141
0.0
142
1.0
143
1.0
 70
  1712
 72
     0
 73
     0
 74
     0
  7

 75
     0
147
1.0
148
0.0
149
0.0
100
AcDbLayout
  1
Model
 70
     1
 71
     0
 10
0.0
 20
0.0
 11
12.0
 21
9.0
 12
0.0
 22
0.0
 32
0.0
 14
0.0
 24
0.0
 34
0.0
 15
210.0
 25
297.0
 35
0.0
146
0.0
 13
0.0
 23
0.0
 33
0.0
 16
1.0
 26
0.0
 36
0.0
 17
0.0
 27
1.0
 37
0.0
 76
     0
330
1F
331
29
  0
MATERIAL
  5
3D
102
{ACAD_REACTORS
330
3B
102
}
102
{ACAD_XDICTIONARY
360
23A
102
}
330
3B
100
AcDbMaterial
  1
ByBlock
  0
MATERIAL
  5
3C
102
{ACAD_REACTORS
330
3B
102
}
102
{ACAD_XDICTIONARY
360
238
102
}
330
3B
100
AcDbMaterial
  1
ByLayer
  0
MATERIAL
  5
3E
102
{ACAD_REACTORS
330
3B
102
}
102
{ACAD_XDICTIONARY
360
23C
102
}
330
3B
100
AcDbMaterial
  1
Global
  0
MLINESTYLE
  5
18
102
{ACAD_REACTORS
330
17
102
}
330
17
100
AcDbMlineStyle
  2
Standard
 70
     0
  3

 62
   256
 51
90.0
 52
90.0
 71
     2
 49
0.5
 62
   256
  6
BYLAYER
 49
-0.5
 62
   256
  6
BYLAYER
  0
ACDBPLACEHOLDER
  5
F
102
{ACAD_REACTORS
330
E
102
}
330
E
  0
VISUALSTYLE
  5
2F
102
{ACAD_REACTORS
330
2A
102
}
102
{ACAD_XDICTIONARY
360
220
102
}
330
2A
100
AcDbVisualStyle
  2
2dWireframe
 70
     4
 71
     0
 72
     2
 73
     0
 90
        0
 40
-0.6
 41
-30.0
 62
     5
 63
     7
 74
     1
 91
        4
 64
     7
 65
   257
 75
     1
175
     1
 42
1.0
 92
        0
 66
   257
 43
1.0
 76
     1
 77
     6
 78
     2
 67
     7
 79
     5
170
     0
171
     0
290
     0
174
     0
 93
        1
 44
0.0
173
     0
291
     0
 45
0.0
1001
ACAD
1000
AcDbSavedByObjectVersion
1070
     0
  0
VISUALSTYLE
  5
31
102
{ACAD_REACTORS
330
2A
102
}
102
{ACAD_XDICTIONARY
360
224
102
}
330
2A
100
AcDbVisualStyle
  2
3D Hidden
 70
     6
 71
     1
 72
     2
 73
     2
 90
        0
 40
-0.6
 41
-30.0
 62
     5
 63
     7
 74
     2
 91
        2
 64
     7
 65
   257
 75
     2
175
     1
 42
40.0
 92
        0
 66
   257
 43
1.0
 76
     1
 77
     6
 78
     2
 67
     7
 79
     3
170
     0
171
     0
290
     0
174
     0
 93
        1
 44
0.0
173
     0
291
     0
 45
0.0
1001
ACAD
1000
AcDbSavedByObjectVersion
1070
     0
  0
VISUALSTYLE
  5
30
102
{ACAD_REACTORS
330
2A
102
}
102
{ACAD_XDICTIONARY
360
222
102
}
330
2A
100
AcDbVisualStyle
  2
3dWireframe
 70
     5
 71
     0
 72
     2
 73
     0
 90
        0
 40
-0.6
 41
-30.0
 62
     5
 63
     7
 74
     1
 91
        4
 64
     7
 65
   257
 75
     1
175
     1
 42
1.0
 92
        0
 66
   257
 43
1.0
 76
     1
 77
     6
 78
     2
 67
     7
 79
     5
170
     0
171
     0
290
     0
174
     0
 93
        1
 44
0.0
173
     0
291
     0
 45
0.0
1001
ACAD
1000
AcDbSavedByObjectVersion
1070
     0
  0
VISUALSTYLE
  5
32
102
{ACAD_REACTORS
330
2A
102
}
102
{ACAD_XDICTIONARY
360
226
102
}
330
2A
100
AcDbVisualStyle
  2
Basic
 70
     7
 71
     1
 72
     0
 73
     1
 90
        0
 40
-0.6
 41
-30.0
 62
     5
 63
     7
 74
     0
 91
        4
 64
     7
 65
   257
 75
     1
175
     1
 42
1.0
 92
        8
 66
     7
 43
1.0
 76
     1
 77
     6
 78
     2
 67
     7
 79
     5
170
     0
171
     0
290
     0
174
     0
 93
        1
 44
0.0
173
     0
291
     1
 45
0.0
1001
ACAD
1000
AcDbSavedByObjectVersion
1070
     0
  0
VISUALSTYLE
  5
36
102
{ACAD_REACTORS
330
2A
102
}
102
{ACAD_XDICTIONARY
360
22E
102
}
330
2A
100
AcDbVisualStyle
  2
Brighten
 70
    12
 71
     2
 72
     2
 73
     0
 90
        0
 40
-0.6
 41
-30.0
 62
     5
 63
     7
 74
     1
 91
        4
 64
     7
 65
   257
 75
     1
175
     1
 42
1.0
 92
        8
 66
     7
 43
1.0
 76
     1
 77
     6
 78
     2
 67
     7
 79
     5
170
     0
171
     0
290
     0
174
     0
 93
        1
 44
50.0
173
     0
291
     1
 45
0.0
1001
ACAD
1000
AcDbSavedByObjectVersion
1070
     0
  0
VISUALSTYLE
  5
3A
102
{ACAD_REACTORS
330
2A
102
}
102
{ACAD_XDICTIONARY
360
236
102
}
330
2A
100
AcDbVisualStyle
  2
ColorChange
 70
    16
 71
     2
 72
     2
 73
     3
 90
        0
 40
-0.6
 41
-30.0
 62
     5
 63
     8
 74
     1
 91
        4
 64
     7
 65
   257
 75
     1
175
     1
 42
1.0
 92
        8
 66
     8
 43
1.0
 76
     1
 77
     6
 78
     2
 67
     7
 79
     5
170
     0
171
     0
290
     0
174
     0
 93
        1
 44
0.0
173
     0
291
     1
 45
0.0
1001
ACAD
1000
AcDbSavedByObjectVersion
1070
     0
  0
VISUALSTYLE
  5
34
102
{ACAD_REACTORS
330
2A
102
}
102
{ACAD_XDICTIONARY
360
22A
102
}
330
2A
100
AcDbVisualStyle
  2
Conceptual
 70
     9
 71
     3
 72
     2
 73
     0
 90
        0
 40
-0.6
 41
-30.0
 62
     5
 63
     7
 74
     2
 91
        2
 64
     7
 65
   257
 75
     1
175
     1
 42
40.0
 92
        8
 66
     7
 43
1.0
 76
     1
 77
     6
 78
     2
 67
     7
 79
     3
170
     0
171
     0
290
     0
174
     0
 93
        1
 44
0.0
173
     0
291
     0
 45
0.0
1001
ACAD
1000
AcDbSavedByObjectVersion
1070
     0
  0
VISUALSTYLE
  5
35
102
{ACAD_REACTORS
330
2A
102
}
102
{ACAD_XDICTIONARY
360
22C
102
}
330
2A
100
AcDbVisualStyle
  2
Dim
 70
    11
 71
     2
 72
     2
 73
     0
 90
        0
 40
-0.6
 41
-30.0
 62
     5
 63
     7
 74
     1
 91
        4
 64
     7
 65
   257
 75
     1
175
     1
 42
1.0
 92
        8
 66
     7
 43
1.0
 76
     1
 77
     6
 78
     2
 67
     7
 79
     5
170
     0
171
     0
290
     0
174
     0
 93
        1
 44
-50.0
173
     0
291
     1
 45
0.0
1001
ACAD
1000
AcDbSavedByObjectVersion
1070
     0
  0
VISUALSTYLE
  5
39
102
{ACAD_REACTORS
330
2A
102
}
102
{ACAD_XDICTIONARY
360
234
102
}
330
2A
100
AcDbVisualStyle
  2
Facepattern
 70
    15
 71
     2
 72
     2
 73
     0
 90
        0
 40
-0.6
 41
-30.0
 62
     5
 63
     7
 74
     1
 91
        4
 64
     7
 65
   257
 75
     1
175
     1
 42
1.0
 92
        8
 66
     7
 43
1.0
 76
     1
 77
     6
 78
     2
 67
     7
 79
     5
170
     0
171
     0
290
     0
174
     0
 93
        1
 44
0.0
173
     0
291
     1
 45
0.0
1001
ACAD
1000
AcDbSavedByObjectVersion
1070
     0
  0
VISUALSTYLE
  5
2B
102
{ACAD_REACTORS
330
2A
102
}
102
{ACAD_XDICTIONARY
360
218
102
}
330
2A
100
AcDbVisualStyle
  2
Flat
 70
     0
 71
     2
 72
     1
 73
     1
 90
        2
 40
-0.6
 41
30.0
 62
     5
 63
     7
 74
     0
 91
        4
 64
     7
 65
   257
 75
     1
175
     1
 42
1.0
 92
        8
 66
     7
 43
1.0
 76
     1
 77
     6
 78
     2
 67
     7
 79
     5
170
     0
171
     0
290
     0
174
     0
 93
       13
 44
0.0
173
     0
291
     1
 45
0.0
1001
ACAD
1000
AcDbSavedByObjectVersion
1070
     0
  0
VISUALSTYLE
  5
2C
102
{ACAD_REACTORS
330
2A
102
}
102
{ACAD_XDICTIONARY
360
21A
102
}
330
2A
100
AcDbVisualStyle
  2
FlatWithEdges
 70
     1
 71
     2
 72
     1
 73
     1
 90
        2
 40
-0.6
 41
30.0
 62
     5
 63
     7
 74
     1
 91
        4
 64
     7
 65
   257
 75
     1
175
     1
 42
1.0
 92
        0
 66
   257
 43
1.0
 76
     1
 77
     6
 78
     2
 67
     7
 79
     5
170
     0
171
     0
290
     0
174
     0
 93
       13
 44
0.0
173
     0
291
     1
 45
0.0
1001
ACAD
1000
AcDbSavedByObjectVersion
1070
     0
  0
VISUALSTYLE
  5
2D
102
{ACAD_REACTORS
330
2A
102
}
102
{ACAD_XDICTIONARY
360
21C
102
}
330
2A
100
AcDbVisualStyle
  2
Gouraud
 70
     2
 71
     2
 72
     2
 73
     1
 90
        2
 40
-0.6
 41
30.0
 62
     5
 63
     7
 74
     0
 91
        4
 64
     7
 65
   257
 75
     1
175
     1
 42
1.0
 92
        0
 66
     7
 43
1.0
 76
     1
 77
     6
 78
     2
 67
     7
 79
     5
170
     0
171
     0
290
     0
174
     0
 93
       13
 44
0.0
173
     0
291
     1
 45
0.0
1001
ACAD
1000
AcDbSavedByObjectVersion
1070
     0
  0
VISUALSTYLE
  5
2E
102
{ACAD_REACTORS
330
2A
102
}
102
{ACAD_XDICTIONARY
360
21E
102
}
330
2A
100
AcDbVisualStyle
  2
GouraudWithEdges
 70
     3
 71
     2
 72
     2
 73
     1
 90
        2
 40
-0.6
 41
30.0
 62
     5
 63
     7
 74
     1
 91
        4
 64
     7
 65
   257
 75
     1
175
     1
 42
1.0
 92
        0
 66
   257
 43
1.0
 76
     1
 77
     6
 78
     2
 67
     7
 79
     5
170
     0
171
     0
290
     0
174
     0
 93
       13
 44
0.0
173
     0
291
     1
 45
0.0
1001
ACAD
1000
AcDbSavedByObjectVersion
1070
     0
  0
VISUALSTYLE
  5
38
102
{ACAD_REACTORS
330
2A
102
}
102
{ACAD_XDICTIONARY
360
232
102
}
330
2A
100
AcDbVisualStyle
  2
Linepattern
 70
    14
 71
     2
 72
     2
 73
     0
 90
        0
 40
-0.6
 41
-30.0
 62
     5
 63
     7
 74
     1
 91
        4
 64
     7
 65
   257
 75
     7
175
     7
 42
1.0
 92
        8
 66
     7
 43
1.0
 76
     1
 77
     6
 78
     2
 67
     7
 79
     5
170
     0
171
     0
290
     0
174
     0
 93
        1
 44
0.0
173
     0
291
     1
 45
0.0
1001
ACAD
1000
AcDbSavedByObjectVersion
1070
     0
  0
VISUALSTYLE
  5
33
102
{ACAD_REACTORS
330
2A
102
}
102
{ACAD_XDICTIONARY
360
228
102
}
330
2A
100
AcDbVisualStyle
  2
Realistic
 70
     8
 71
     2
 72
     2
 73
     0
 90
        0
 40
-0.6
 41
-30.0
 62
     5
 63
     7
 74
     1
 91
        0
 64
     7
 65
   257
 75
     1
175
     1
 42
1.0
 92
        8
 66
     8
 43
1.0
 76
     1
 77
     6
 78
     2
 67
     7
 79
     5
170
     0
171
     0
290
     0
174
     0
 93
       13
 44
0.0
173
     0
291
     0
 45
0.0
1001
ACAD
1000
AcDbSavedByObjectVersion
1070
     0
  0
VISUALSTYLE
  5
37
102
{ACAD_REACTORS
330
2A
102
}
102
{ACAD_XDICTIONARY
360
230
102
}
330
2A
100
AcDbVisualStyle
  2
Thicken
 70
    13
 71
     2
 72
     2
 73
     0
 90
        0
 40
-0.6
 41
-30.0
 62
     5
 63
     7
 74
     1
 91
        4
 64
     7
 65
   257
 75
     1
175
     1
 42
1.0
 92
       12
 66
     7
 43
1.0
 76
     1
 77
     6
 78
     2
 67
     7
 79
     5
170
     0
171
     0
290
     0
174
     0
 93
        1
 44
0.0
173
     0
291
     1
 45
0.0
1001
ACAD
1000
AcDbSavedByObjectVersion
1070
     0
  0
DICTIONARYVAR
  5
216
102
{ACAD_REACTORS
330
213
102
}
330
213
100
DictionaryVariables
280
     0
  1
2
  0
DICTIONARYVAR
  5
217
102
{ACAD_REACTORS
330
213
102
}
330
213
100
DictionaryVariables
280
     0
  1
1
  0
DICTIONARY
  5
23A
330
3D
100
AcDbDictionary
280
     1
281
     1
  3
ACAD_XREC_ROUNDTRIP
360
23B
  0
DICTIONARY
  5
238
330
3C
100
AcDbDictionary
280
     1
281
     1
  3
ACAD_XREC_ROUNDTRIP
360
239
  0
DICTIONARY
  5
23C
330
3E
100
AcDbDictionary
280
     1
281
     1
  3
ACAD_XREC_ROUNDTRIP
360
23D
  0
DICTIONARY
  5
220
330
2F
100
AcDbDictionary
280
     1
281
     1
  3
ACAD_XREC_ROUNDTRIP
360
221
  0
DICTIONARY
  5
224
330
31
100
AcDbDictionary
280
     1
281
     1
  3
ACAD_XREC_ROUNDTRIP
360
225
  0
DICTIONARY
  5
222
330
30
100
AcDbDictionary
280
     1
281
     1
  3
ACAD_XREC_ROUNDTRIP
360
223
  0
DICTIONARY
  5
226
330
32
100
AcDbDictionary
280
     1
281
     1
  3
ACAD_XREC_ROUNDTRIP
360
227
  0
DICTIONARY
  5
22E
330
36
100
AcDbDictionary
280
     1
281
     1
  3
ACAD_XREC_ROUNDTRIP
360
22F
  0
DICTIONARY
  5
236
330
3A
100
AcDbDictionary
280
     1
281
     1
  3
ACAD_XREC_ROUNDTRIP
360
237
  0
DICTIONARY
  5
22A
330
34
100
AcDbDictionary
280
     1
281
     1
  3
ACAD_XREC_ROUNDTRIP
360
22B
  0
DICTIONARY
  5
22C
330
35
100
AcDbDictionary
280
     1
281
     1
  3
ACAD_XREC_ROUNDTRIP
360
22D
  0
DICTIONARY
  5
234
330
39
100
AcDbDictionary
280
     1
281
     1
  3
ACAD_XREC_ROUNDTRIP
360
235
  0
DICTIONARY
  5
218
330
2B
100
AcDbDictionary
280
     1
281
     1
  3
ACAD_XREC_ROUNDTRIP
360
219
  0
DICTIONARY
  5
21A
330
2C
100
AcDbDictionary
280
     1
281
     1
  3
ACAD_XREC_ROUNDTRIP
360
21B
  0
DICTIONARY
  5
21C
330
2D
100
AcDbDictionary
280
     1
281
     1
  3
ACAD_XREC_ROUNDTRIP
360
21D
  0
DICTIONARY
  5
21E
330
2E
100
AcDbDictionary
280
     1
281
     1
  3
ACAD_XREC_ROUNDTRIP
360
21F
  0
DICTIONARY
  5
232
330
38
100
AcDbDictionary
280
     1
281
     1
  3
ACAD_XREC_ROUNDTRIP
360
233
  0
DICTIONARY
  5
228
330
33
100
AcDbDictionary
280
     1
281
     1
  3
ACAD_XREC_ROUNDTRIP
360
229
  0
DICTIONARY
  5
230
330
37
100
AcDbDictionary
280
     1
281
     1
  3
ACAD_XREC_ROUNDTRIP
360
231
  0
XRECORD
  5
23B
102
{ACAD_REACTORS
330
23A
102
}
330
23A
100
AcDbXrecord
280
     1
102
MATERIAL
148
0.0
149
0.0
149
0.0
 93
        0
 94
      127
282
     0
 72
     1
 77
     1
171
     1
175
     1
179
     1
273
     0
  0
XRECORD
  5
239
102
{ACAD_REACTORS
330
238
102
}
330
238
100
AcDbXrecord
280
     1
102
MATERIAL
148
0.0
149
0.0
149
0.0
 93
        0
 94
      127
282
     0
 72
     1
 77
     1
171
     1
175
     1
179
     1
273
     0
  0
XRECORD
  5
23D
102
{ACAD_REACTORS
330
23C
102
}
330
23C
100
AcDbXrecord
280
     1
102
MATERIAL
148
0.0
149
0.0
149
0.0
 93
        0
 94
      127
282
     0
 72
     1
 77
     1
171
     1
175
     1
179
     1
273
     0
  0
XRECORD
  5
221
102
{ACAD_REACTORS
330
220
102
}
330
220
100
AcDbXrecord
280
     1
102
RTVSPropertyOp0
 70
     1
102
RTVSPropertyOp1
 70
     1
102
RTVSPropertyOp2
 70
     1
102
RTVSPropertyOp3
 70
     1
102
RTVSPropertyOp4
 70
     1
102
RTVSPropertyOp5
 70
     1
102
RTVSPropertyOp6
 70
     1
102
RTVSPropertyOp7
 70
     1
102
RTVSPropertyOp8
 70
     1
102
RTVSPropertyOp9
 70
     1
102
RTVSPropertyOp10
 70
     1
102
RTVSPropertyOp11
 70
     1
102
RTVSPropertyOp12
 70
     1
102
RTVSPropertyOp13
 70
     1
102
RTVSPropertyOp14
 70
     1
102
RTVSPropertyOp15
 70
     1
102
RTVSPropertyOp16
 70
     1
102
RTVSPropertyOp17
 70
     1
102
RTVSPropertyOp18
 70
     1
102
RTVSPropertyOp19
 70
     1
102
RTVSPropertyOp20
 70
     1
102
RTVSPropertyOp21
 70
     1
102
RTVSPropertyOp22
 70
     1
102
RTVSPropertyOp23
 70
     1
102
RTVSPropertyOp24
 70
     1
102
RTVSPropertyOp25
 70
     1
102
RTVSPropertyOp26
 70
     1
102
RTVSPropertyOp27
 70
     1
102
RTVSPropertyOp28
 70
     1
102
RTVSPropertyOp29
 70
     1
102
RTVSPropertyOp30
 70
     1
102
RTVSPropertyOp31
 70
     1
102
RTVSPropertyOp32
 70
     1
  0
XRECORD
  5
225
102
{ACAD_REACTORS
330
224
102
}
330
224
100
AcDbXrecord
280
     1
102
RTVSPropertyOp0
 70
     1
102
RTVSPropertyOp1
 70
     1
102
RTVSPropertyOp2
 70
     1
102
RTVSPropertyOp3
 70
     1
102
RTVSPropertyOp4
 70
     1
102
RTVSPropertyOp5
 70
     1
102
RTVSPropertyOp6
 70
     1
102
RTVSPropertyOp7
 70
     1
102
RTVSPropertyOp8
 70
     1
102
RTVSPropertyOp9
 70
     1
102
RTVSPropertyOp10
 70
     1
102
RTVSPropertyOp11
 70
     1
102
RTVSPropertyOp12
 70
     1
102
RTVSPropertyOp13
 70
     1
102
RTVSPropertyOp14
 70
     1
102
RTVSPropertyOp15
 70
     1
102
RTVSPropertyOp16
 70
     1
102
RTVSPropertyOp17
 70
     1
102
RTVSPropertyOp18
 70
     1
102
RTVSPropertyOp19
 70
     1
102
RTVSPropertyOp20
 70
     1
102
RTVSPropertyOp21
 70
     1
102
RTVSPropertyOp22
 70
     1
102
RTVSPropertyOp23
 70
     1
102
RTVSPropertyOp24
 70
     1
102
RTVSPropertyOp25
 70
     1
102
RTVSPropertyOp26
 70
     1
102
RTVSPropertyOp27
 70
     1
102
RTVSPropertyOp28
 70
     1
102
RTVSPropertyOp29
 70
     1
102
RTVSPropertyOp30
 70
     1
102
RTVSPropertyOp31
 70
     1
102
RTVSPropertyOp32
 70
     1
  0
XRECORD
  5
223
102
{ACAD_REACTORS
330
222
102
}
330
222
100
AcDbXrecord
280
     1
102
RTVSPropertyOp0
 70
     1
102
RTVSPropertyOp1
 70
     1
102
RTVSPropertyOp2
 70
     1
102
RTVSPropertyOp3
 70
     1
102
RTVSPropertyOp4
 70
     1
102
RTVSPropertyOp5
 70
     1
102
RTVSPropertyOp6
 70
     1
102
RTVSPropertyOp7
 70
     1
102
RTVSPropertyOp8
 70
     1
102
RTVSPropertyOp9
 70
     1
102
RTVSPropertyOp10
 70
     1
102
RTVSPropertyOp11
 70
     1
102
RTVSPropertyOp12
 70
     1
102
RTVSPropertyOp13
 70
     1
102
RTVSPropertyOp14
 70
     1
102
RTVSPropertyOp15
 70
     1
102
RTVSPropertyOp16
 70
     1
102
RTVSPropertyOp17
 70
     1
102
RTVSPropertyOp18
 70
     1
102
RTVSPropertyOp19
 70
     1
102
RTVSPropertyOp20
 70
     1
102
RTVSPropertyOp21
 70
     1
102
RTVSPropertyOp22
 70
     1
102
RTVSPropertyOp23
 70
     1
102
RTVSPropertyOp24
 70
     1
102
RTVSPropertyOp25
 70
     1
102
RTVSPropertyOp26
 70
     1
102
RTVSPropertyOp27
 70
     1
102
RTVSPropertyOp28
 70
     1
102
RTVSPropertyOp29
 70
     1
102
RTVSPropertyOp30
 70
     1
102
RTVSPropertyOp31
 70
     1
102
RTVSPropertyOp32
 70
     1
  0
XRECORD
  5
227
102
{ACAD_REACTORS
330
226
102
}
330
226
100
AcDbXrecord
280
     1
102
RTVSPropertyOp0
 70
     1
102
RTVSPropertyOp1
 70
     1
102
RTVSPropertyOp2
 70
     1
102
RTVSPropertyOp3
 70
     1
102
RTVSPropertyOp4
 70
     1
102
RTVSPropertyOp5
 70
     1
102
RTVSPropertyOp6
 70
     1
102
RTVSPropertyOp7
 70
     1
102
RTVSPropertyOp8
 70
     1
102
RTVSPropertyOp9
 70
     1
102
RTVSPropertyOp10
 70
     1
102
RTVSPropertyOp11
 70
     1
102
RTVSPropertyOp12
 70
     1
102
RTVSPropertyOp13
 70
     1
102
RTVSPropertyOp14
 70
     1
102
RTVSPropertyOp15
 70
     1
102
RTVSPropertyOp16
 70
     1
102
RTVSPropertyOp17
 70
     1
102
RTVSPropertyOp18
 70
     1
102
RTVSPropertyOp19
 70
     1
102
RTVSPropertyOp20
 70
     1
102
RTVSPropertyOp21
 70
     1
102
RTVSPropertyOp22
 70
     1
102
RTVSPropertyOp23
 70
     1
102
RTVSPropertyOp24
 70
     1
102
RTVSPropertyOp25
 70
     1
102
RTVSPropertyOp26
 70
     1
102
RTVSPropertyOp27
 70
     1
102
RTVSPropertyOp28
 70
     1
102
RTVSPropertyOp29
 70
     1
102
RTVSPropertyOp30
 70
     1
102
RTVSPropertyOp31
 70
     1
102
RTVSPropertyOp32
 70
     1
  0
XRECORD
  5
22F
102
{ACAD_REACTORS
330
22E
102
}
330
22E
100
AcDbXrecord
280
     1
102
RTVSPropertyOp0
 70
     1
102
RTVSPropertyOp1
 70
     1
102
RTVSPropertyOp2
 70
     1
102
RTVSPropertyOp3
 70
     1
102
RTVSPropertyOp4
 70
     1
102
RTVSPropertyOp5
 70
     1
102
RTVSPropertyOp6
 70
     1
102
RTVSPropertyOp7
 70
     1
102
RTVSPropertyOp8
 70
     1
102
RTVSPropertyOp9
 70
     1
102
RTVSPropertyOp10
 70
     1
102
RTVSPropertyOp11
 70
     1
102
RTVSPropertyOp12
 70
     1
102
RTVSPropertyOp13
 70
     1
102
RTVSPropertyOp14
 70
     1
102
RTVSPropertyOp15
 70
     1
102
RTVSPropertyOp16
 70
     1
102
RTVSPropertyOp17
 70
     1
102
RTVSPropertyOp18
 70
     1
102
RTVSPropertyOp19
 70
     1
102
RTVSPropertyOp20
 70
     1
102
RTVSPropertyOp21
 70
     1
102
RTVSPropertyOp22
 70
     1
102
RTVSPropertyOp23
 70
     1
102
RTVSPropertyOp24
 70
     1
102
RTVSPropertyOp25
 70
     1
102
RTVSPropertyOp26
 70
     1
102
RTVSPropertyOp27
 70
     1
102
RTVSPropertyOp28
 70
     1
102
RTVSPropertyOp29
 70
     1
102
RTVSPropertyOp30
 70
     1
102
RTVSPropertyOp31
 70
     1
102
RTVSPropertyOp32
 70
     1
  0
XRECORD
  5
237
102
{ACAD_REACTORS
330
236
102
}
330
236
100
AcDbXrecord
280
     1
102
RTVSPropertyOp0
 70
     1
102
RTVSPropertyOp1
 70
     1
102
RTVSPropertyOp2
 70
     1
102
RTVSPropertyOp3
 70
     1
102
RTVSPropertyOp4
 70
     1
102
RTVSPropertyOp5
 70
     1
102
RTVSPropertyOp6
 70
     1
102
RTVSPropertyOp7
 70
     1
102
RTVSPropertyOp8
 70
     1
102
RTVSPropertyOp9
 70
     1
102
RTVSPropertyOp10
 70
     1
102
RTVSPropertyOp11
 70
     1
102
RTVSPropertyOp12
 70
     1
102
RTVSPropertyOp13
 70
     1
102
RTVSPropertyOp14
 70
     1
102
RTVSPropertyOp15
 70
     1
102
RTVSPropertyOp16
 70
     1
102
RTVSPropertyOp17
 70
     1
102
RTVSPropertyOp18
 70
     1
102
RTVSPropertyOp19
 70
     1
102
RTVSPropertyOp20
 70
     1
102
RTVSPropertyOp21
 70
     1
102
RTVSPropertyOp22
 70
     1
102
RTVSPropertyOp23
 70
     1
102
RTVSPropertyOp24
 70
     1
102
RTVSPropertyOp25
 70
     1
102
RTVSPropertyOp26
 70
     1
102
RTVSPropertyOp27
 70
     1
102
RTVSPropertyOp28
 70
     1
102
RTVSPropertyOp29
 70
     1
102
RTVSPropertyOp30
 70
     1
102
RTVSPropertyOp31
 70
     1
102
RTVSPropertyOp32
 70
     1
  0
XRECORD
  5
22B
102
{ACAD_REACTORS
330
22A
102
}
330
22A
100
AcDbXrecord
280
     1
102
RTVSPropertyOp0
 70
     1
102
RTVSPropertyOp1
 70
     1
102
RTVSPropertyOp2
 70
     1
102
RTVSPropertyOp3
 70
     1
102
RTVSPropertyOp4
 70
     1
102
RTVSPropertyOp5
 70
     1
102
RTVSPropertyOp6
 70
     1
102
RTVSPropertyOp7
 70
     1
102
RTVSPropertyOp8
 70
     1
102
RTVSPropertyOp9
 70
     1
102
RTVSPropertyOp10
 70
     1
102
RTVSPropertyOp11
 70
     1
102
RTVSPropertyOp12
 70
     1
102
RTVSPropertyOp13
 70
     1
102
RTVSPropertyOp14
 70
     1
102
RTVSPropertyOp15
 70
     1
102
RTVSPropertyOp16
 70
     1
102
RTVSPropertyOp17
 70
     1
102
RTVSPropertyOp18
 70
     1
102
RTVSPropertyOp19
 70
     1
102
RTVSPropertyOp20
 70
     1
102
RTVSPropertyOp21
 70
     1
102
RTVSPropertyOp22
 70
     1
102
RTVSPropertyOp23
 70
     1
102
RTVSPropertyOp24
 70
     1
102
RTVSPropertyOp25
 70
     1
102
RTVSPropertyOp26
 70
     1
102
RTVSPropertyOp27
 70
     1
102
RTVSPropertyOp28
 70
     1
102
RTVSPropertyOp29
 70
     1
102
RTVSPropertyOp30
 70
     1
102
RTVSPropertyOp31
 70
     1
102
RTVSPropertyOp32
 70
     1
  0
XRECORD
  5
22D
102
{ACAD_REACTORS
330
22C
102
}
330
22C
100
AcDbXrecord
280
     1
102
RTVSPropertyOp0
 70
     1
102
RTVSPropertyOp1
 70
     1
102
RTVSPropertyOp2
 70
     1
102
RTVSPropertyOp3
 70
     1
102
RTVSPropertyOp4
 70
     1
102
RTVSPropertyOp5
 70
     1
102
RTVSPropertyOp6
 70
     1
102
RTVSPropertyOp7
 70
     1
102
RTVSPropertyOp8
 70
     1
102
RTVSPropertyOp9
 70
     1
102
RTVSPropertyOp10
 70
     1
102
RTVSPropertyOp11
 70
     1
102
RTVSPropertyOp12
 70
     1
102
RTVSPropertyOp13
 70
     1
102
RTVSPropertyOp14
 70
     1
102
RTVSPropertyOp15
 70
     1
102
RTVSPropertyOp16
 70
     1
102
RTVSPropertyOp17
 70
     1
102
RTVSPropertyOp18
 70
     1
102
RTVSPropertyOp19
 70
     1
102
RTVSPropertyOp20
 70
     1
102
RTVSPropertyOp21
 70
     1
102
RTVSPropertyOp22
 70
     1
102
RTVSPropertyOp23
 70
     1
102
RTVSPropertyOp24
 70
     1
102
RTVSPropertyOp25
 70
     1
102
RTVSPropertyOp26
 70
     1
102
RTVSPropertyOp27
 70
     1
102
RTVSPropertyOp28
 70
     1
102
RTVSPropertyOp29
 70
     1
102
RTVSPropertyOp30
 70
     1
102
RTVSPropertyOp31
 70
     1
102
RTVSPropertyOp32
 70
     1
  0
XRECORD
  5
235
102
{ACAD_REACTORS
330
234
102
}
330
234
100
AcDbXrecord
280
     1
102
RTVSPropertyOp0
 70
     1
102
RTVSPropertyOp1
 70
     1
102
RTVSPropertyOp2
 70
     1
102
RTVSPropertyOp3
 70
     1
102
RTVSPropertyOp4
 70
     1
102
RTVSPropertyOp5
 70
     1
102
RTVSPropertyOp6
 70
     1
102
RTVSPropertyOp7
 70
     1
102
RTVSPropertyOp8
 70
     1
102
RTVSPropertyOp9
 70
     1
102
RTVSPropertyOp10
 70
     1
102
RTVSPropertyOp11
 70
     1
102
RTVSPropertyOp12
 70
     1
102
RTVSPropertyOp13
 70
     1
102
RTVSPropertyOp14
 70
     1
102
RTVSPropertyOp15
 70
     1
102
RTVSPropertyOp16
 70
     1
102
RTVSPropertyOp17
 70
     1
102
RTVSPropertyOp18
 70
     1
102
RTVSPropertyOp19
 70
     1
102
RTVSPropertyOp20
 70
     1
102
RTVSPropertyOp21
 70
     1
102
RTVSPropertyOp22
 70
     1
102
RTVSPropertyOp23
 70
     1
102
RTVSPropertyOp24
 70
     1
102
RTVSPropertyOp25
 70
     1
102
RTVSPropertyOp26
 70
     1
102
RTVSPropertyOp27
 70
     1
102
RTVSPropertyOp28
 70
     1
102
RTVSPropertyOp29
 70
     1
102
RTVSPropertyOp30
 70
     1
102
RTVSPropertyOp31
 70
     1
102
RTVSPropertyOp32
 70
     1
  0
XRECORD
  5
219
102
{ACAD_REACTORS
330
218
102
}
330
218
100
AcDbXrecord
280
     1
102
RTVSPropertyOp0
 70
     1
102
RTVSPropertyOp1
 70
     1
102
RTVSPropertyOp2
 70
     1
102
RTVSPropertyOp3
 70
     1
102
RTVSPropertyOp4
 70
     1
102
RTVSPropertyOp5
 70
     1
102
RTVSPropertyOp6
 70
     1
102
RTVSPropertyOp7
 70
     1
102
RTVSPropertyOp8
 70
     1
102
RTVSPropertyOp9
 70
     1
102
RTVSPropertyOp10
 70
     1
102
RTVSPropertyOp11
 70
     1
102
RTVSPropertyOp12
 70
     1
102
RTVSPropertyOp13
 70
     1
102
RTVSPropertyOp14
 70
     1
102
RTVSPropertyOp15
 70
     1
102
RTVSPropertyOp16
 70
     1
102
RTVSPropertyOp17
 70
     1
102
RTVSPropertyOp18
 70
     1
102
RTVSPropertyOp19
 70
     1
102
RTVSPropertyOp20
 70
     1
102
RTVSPropertyOp21
 70
     1
102
RTVSPropertyOp22
 70
     1
102
RTVSPropertyOp23
 70
     1
102
RTVSPropertyOp24
 70
     1
102
RTVSPropertyOp25
 70
     1
102
RTVSPropertyOp26
 70
     1
102
RTVSPropertyOp27
 70
     1
102
RTVSPropertyOp28
 70
     1
102
RTVSPropertyOp29
 70
     1
102
RTVSPropertyOp30
 70
     1
102
RTVSPropertyOp31
 70
     1
102
RTVSPropertyOp32
 70
     1
  0
XRECORD
  5
21B
102
{ACAD_REACTORS
330
21A
102
}
330
21A
100
AcDbXrecord
280
     1
102
RTVSPropertyOp0
 70
     1
102
RTVSPropertyOp1
 70
     1
102
RTVSPropertyOp2
 70
     1
102
RTVSPropertyOp3
 70
     1
102
RTVSPropertyOp4
 70
     1
102
RTVSPropertyOp5
 70
     1
102
RTVSPropertyOp6
 70
     1
102
RTVSPropertyOp7
 70
     1
102
RTVSPropertyOp8
 70
     1
102
RTVSPropertyOp9
 70
     1
102
RTVSPropertyOp10
 70
     1
102
RTVSPropertyOp11
 70
     1
102
RTVSPropertyOp12
 70
     1
102
RTVSPropertyOp13
 70
     1
102
RTVSPropertyOp14
 70
     1
102
RTVSPropertyOp15
 70
     1
102
RTVSPropertyOp16
 70
     1
102
RTVSPropertyOp17
 70
     1
102
RTVSPropertyOp18
 70
     1
102
RTVSPropertyOp19
 70
     1
102
RTVSPropertyOp20
 70
     1
102
RTVSPropertyOp21
 70
     1
102
RTVSPropertyOp22
 70
     1
102
RTVSPropertyOp23
 70
     1
102
RTVSPropertyOp24
 70
     1
102
RTVSPropertyOp25
 70
     1
102
RTVSPropertyOp26
 70
     1
102
RTVSPropertyOp27
 70
     1
102
RTVSPropertyOp28
 70
     1
102
RTVSPropertyOp29
 70
     1
102
RTVSPropertyOp30
 70
     1
102
RTVSPropertyOp31
 70
     1
102
RTVSPropertyOp32
 70
     1
  0
XRECORD
  5
21D
102
{ACAD_REACTORS
330
21C
102
}
330
21C
100
AcDbXrecord
280
     1
102
RTVSPropertyOp0
 70
     1
102
RTVSPropertyOp1
 70
     1
102
RTVSPropertyOp2
 70
     1
102
RTVSPropertyOp3
 70
     1
102
RTVSPropertyOp4
 70
     1
102
RTVSPropertyOp5
 70
     1
102
RTVSPropertyOp6
 70
     1
102
RTVSPropertyOp7
 70
     1
102
RTVSPropertyOp8
 70
     1
102
RTVSPropertyOp9
 70
     1
102
RTVSPropertyOp10
 70
     1
102
RTVSPropertyOp11
 70
     1
102
RTVSPropertyOp12
 70
     1
102
RTVSPropertyOp13
 70
     1
102
RTVSPropertyOp14
 70
     1
102
RTVSPropertyOp15
 70
     1
102
RTVSPropertyOp16
 70
     1
102
RTVSPropertyOp17
 70
     1
102
RTVSPropertyOp18
 70
     1
102
RTVSPropertyOp19
 70
     1
102
RTVSPropertyOp20
 70
     1
102
RTVSPropertyOp21
 70
     1
102
RTVSPropertyOp22
 70
     1
102
RTVSPropertyOp23
 70
     1
102
RTVSPropertyOp24
 70
     1
102
RTVSPropertyOp25
 70
     1
102
RTVSPropertyOp26
 70
     1
102
RTVSPropertyOp27
 70
     1
102
RTVSPropertyOp28
 70
     1
102
RTVSPropertyOp29
 70
     1
102
RTVSPropertyOp30
 70
     1
102
RTVSPropertyOp31
 70
     1
102
RTVSPropertyOp32
 70
     1
  0
XRECORD
  5
21F
102
{ACAD_REACTORS
330
21E
102
}
330
21E
100
AcDbXrecord
280
     1
102
RTVSPropertyOp0
 70
     1
102
RTVSPropertyOp1
 70
     1
102
RTVSPropertyOp2
 70
     1
102
RTVSPropertyOp3
 70
     1
102
RTVSPropertyOp4
 70
     1
102
RTVSPropertyOp5
 70
     1
102
RTVSPropertyOp6
 70
     1
102
RTVSPropertyOp7
 70
     1
102
RTVSPropertyOp8
 70
     1
102
RTVSPropertyOp9
 70
     1
102
RTVSPropertyOp10
 70
     1
102
RTVSPropertyOp11
 70
     1
102
RTVSPropertyOp12
 70
     1
102
RTVSPropertyOp13
 70
     1
102
RTVSPropertyOp14
 70
     1
102
RTVSPropertyOp15
 70
     1
102
RTVSPropertyOp16
 70
     1
102
RTVSPropertyOp17
 70
     1
102
RTVSPropertyOp18
 70
     1
102
RTVSPropertyOp19
 70
     1
102
RTVSPropertyOp20
 70
     1
102
RTVSPropertyOp21
 70
     1
102
RTVSPropertyOp22
 70
     1
102
RTVSPropertyOp23
 70
     1
102
RTVSPropertyOp24
 70
     1
102
RTVSPropertyOp25
 70
     1
102
RTVSPropertyOp26
 70
     1
102
RTVSPropertyOp27
 70
     1
102
RTVSPropertyOp28
 70
     1
102
RTVSPropertyOp29
 70
     1
102
RTVSPropertyOp30
 70
     1
102
RTVSPropertyOp31
 70
     1
102
RTVSPropertyOp32
 70
     1
  0
XRECORD
  5
233
102
{ACAD_REACTORS
330
232
102
}
330
232
100
AcDbXrecord
280
     1
102
RTVSPropertyOp0
 70
     1
102
RTVSPropertyOp1
 70
     1
102
RTVSPropertyOp2
 70
     1
102
RTVSPropertyOp3
 70
     1
102
RTVSPropertyOp4
 70
     1
102
RTVSPropertyOp5
 70
     1
102
RTVSPropertyOp6
 70
     1
102
RTVSPropertyOp7
 70
     1
102
RTVSPropertyOp8
 70
     1
102
RTVSPropertyOp9
 70
     1
102
RTVSPropertyOp10
 70
     1
102
RTVSPropertyOp11
 70
     1
102
RTVSPropertyOp12
 70
     1
102
RTVSPropertyOp13
 70
     1
102
RTVSPropertyOp14
 70
     1
102
RTVSPropertyOp15
 70
     1
102
RTVSPropertyOp16
 70
     1
102
RTVSPropertyOp17
 70
     1
102
RTVSPropertyOp18
 70
     1
102
RTVSPropertyOp19
 70
     1
102
RTVSPropertyOp20
 70
     1
102
RTVSPropertyOp21
 70
     1
102
RTVSPropertyOp22
 70
     1
102
RTVSPropertyOp23
 70
     1
102
RTVSPropertyOp24
 70
     1
102
RTVSPropertyOp25
 70
     1
102
RTVSPropertyOp26
 70
     1
102
RTVSPropertyOp27
 70
     1
102
RTVSPropertyOp28
 70
     1
102
RTVSPropertyOp29
 70
     1
102
RTVSPropertyOp30
 70
     1
102
RTVSPropertyOp31
 70
     1
102
RTVSPropertyOp32
 70
     1
  0
XRECORD
  5
229
102
{ACAD_REACTORS
330
228
102
}
330
228
100
AcDbXrecord
280
     1
102
RTVSPropertyOp0
 70
     1
102
RTVSPropertyOp1
 70
     1
102
RTVSPropertyOp2
 70
     1
102
RTVSPropertyOp3
 70
     1
102
RTVSPropertyOp4
 70
     1
102
RTVSPropertyOp5
 70
     1
102
RTVSPropertyOp6
 70
     1
102
RTVSPropertyOp7
 70
     1
102
RTVSPropertyOp8
 70
     1
102
RTVSPropertyOp9
 70
     1
102
RTVSPropertyOp10
 70
     1
102
RTVSPropertyOp11
 70
     1
102
RTVSPropertyOp12
 70
     1
102
RTVSPropertyOp13
 70
     1
102
RTVSPropertyOp14
 70
     1
102
RTVSPropertyOp15
 70
     1
102
RTVSPropertyOp16
 70
     1
102
RTVSPropertyOp17
 70
     1
102
RTVSPropertyOp18
 70
     1
102
RTVSPropertyOp19
 70
     1
102
RTVSPropertyOp20
 70
     1
102
RTVSPropertyOp21
 70
     1
102
RTVSPropertyOp22
 70
     1
102
RTVSPropertyOp23
 70
     1
102
RTVSPropertyOp24
 70
     1
102
RTVSPropertyOp25
 70
     1
102
RTVSPropertyOp26
 70
     1
102
RTVSPropertyOp27
 70
     1
102
RTVSPropertyOp28
 70
     1
102
RTVSPropertyOp29
 70
     1
102
RTVSPropertyOp30
 70
     1
102
RTVSPropertyOp31
 70
     1
102
RTVSPropertyOp32
 70
     1
  0
XRECORD
  5
231
102
{ACAD_REACTORS
330
230
102
}
330
230
100
AcDbXrecord
280
     1
102
RTVSPropertyOp0
 70
     1
102
RTVSPropertyOp1
 70
     1
102
RTVSPropertyOp2
 70
     1
102
RTVSPropertyOp3
 70
     1
102
RTVSPropertyOp4
 70
     1
102
RTVSPropertyOp5
 70
     1
102
RTVSPropertyOp6
 70
     1
102
RTVSPropertyOp7
 70
     1
102
RTVSPropertyOp8
 70
     1
102
RTVSPropertyOp9
 70
     1
102
RTVSPropertyOp10
 70
     1
102
RTVSPropertyOp11
 70
     1
102
RTVSPropertyOp12
 70
     1
102
RTVSPropertyOp13
 70
     1
102
RTVSPropertyOp14
 70
     1
102
RTVSPropertyOp15
 70
     1
102
RTVSPropertyOp16
 70
     1
102
RTVSPropertyOp17
 70
     1
102
RTVSPropertyOp18
 70
     1
102
RTVSPropertyOp19
 70
     1
102
RTVSPropertyOp20
 70
     1
102
RTVSPropertyOp21
 70
     1
102
RTVSPropertyOp22
 70
     1
102
RTVSPropertyOp23
 70
     1
102
RTVSPropertyOp24
 70
     1
102
RTVSPropertyOp25
 70
     1
102
RTVSPropertyOp26
 70
     1
102
RTVSPropertyOp27
 70
     1
102
RTVSPropertyOp28
 70
     1
102
RTVSPropertyOp29
 70
     1
102
RTVSPropertyOp30
 70
     1
102
RTVSPropertyOp31
 70
     1
102
RTVSPropertyOp32
 70
     1
  0
ENDSEC
  0
EOF
