  0
SECTION
  2
HEADER
  9
$ACADVER
  1
AC1015
  9
$ACADMAINTVER
 70
     6
  9
$DWGCODEPAGE
  3
ANSI_932
  9
$INSBASE
 10
0.0
 20
0.0
 30
0.0
  9
$EXTMIN
 10
0.0
 20
0.0
 30
0.0
  9
$EXTMAX
 10
210.0
 20
297.0
 30
0.0
  9
$LIMMIN
 10
0.0
 20
0.0
  9
$LIMMAX
 10
12.0
 20
9.0
  9
$ORTHOMODE
 70
     0
  9
$REGENMODE
 70
     1
  9
$FILLMODE
 70
     1
  9
$QTEXTMODE
 70
     0
  9
$MIRRTEXT
 70
     1
  9
$LTSCALE
 40
1.0
  9
$ATTMODE
 70
     1
  9
$TEXTSIZE
 40
0.2
  9
$TRACEWID
 40
0.05
  9
$TEXTSTYLE
  7
Standard
  9
$CLAYER
  8
0
  9
$CELTYPE
  6
ByLayer
  9
$CECOLOR
 62
   256
  9
$CELTSCALE
 40
1.0
  9
$DISPSILH
 70
     0
  9
$DIMSCALE
 40
1.0
  9
$DIMASZ
 40
0.18
  9
$DIMEXO
 40
0.0625
  9
$DIMDLI
 40
0.38
  9
$DIMRND
 40
0.0
  9
$DIMDLE
 40
0.0
  9
$DIMEXE
 40
0.18
  9
$DIMTP
 40
0.0
  9
$DIMTM
 40
0.0
  9
$DIMTXT
 40
0.18
  9
$DIMCEN
 40
0.09
  9
$DIMTSZ
 40
0.0
  9
$DIMTOL
 70
     0
  9
$DIMLIM
 70
     0
  9
$DIMTIH
 70
     1
  9
$DIMTOH
 70
     1
  9
$DIMSE1
 70
     0
  9
$DIMSE2
 70
     0
  9
$DIMTAD
 70
     0
  9
$DIMZIN
 70
     0
  9
$DIMBLK
  1

  9
$DIMASO
 70
     1
  9
$DIMSHO
 70
     1
  9
$DIMPOST
  1

  9
$DIMAPOST
  1

  9
$DIMALT
 70
     0
  9
$DIMALTD
 70
     2
  9
$DIMALTF
 40
25.4
  9
$DIMLFAC
 40
1.0
  9
$DIMTOFL
 70
     0
  9
$DIMTVP
 40
0.0
  9
$DIMTIX
 70
     0
  9
$DIMSOXD
 70
     0
  9
$DIMSAH
 70
     0
  9
$DIMBLK1
  1

  9
$DIMBLK2
  1

  9
$DIMSTYLE
  2
Standard
  9
$DIMCLRD
 70
     0
  9
$DIMCLRE
 70
     0
  9
$DIMCLRT
 70
     0
  9
$DIMTFAC
 40
1.0
  9
$DIMGAP
 40
0.09
  9
$DIMJUST
 70
     0
  9
$DIMSD1
 70
     0
  9
$DIMSD2
 70
     0
  9
$DIMTOLJ
 70
     1
  9
$DIMTZIN
 70
     0
  9
$DIMALTZ
 70
     0
  9
$DIMALTTZ
 70
     0
  9
$DIMUPT
 70
     0
  9
$DIMDEC
 70
     4
  9
$DIMTDEC
 70
     4
  9
$DIMALTU
 70
     2
  9
$DIMALTTD
 70
     2
  9
$DIMTXSTY
  7
Standard
  9
$DIMAUNIT
 70
     0
  9
$DIMADEC
 70
     0
  9
$DIMALTRND
 40
0.0
  9
$DIMAZIN
 70
     0
  9
$DIMDSEP
 70
    46
  9
$DIMATFIT
 70
     3
  9
$DIMFRAC
 70
     0
  9
$DIMLDRBLK
  1

  9
$DIMLUNIT
 70
     2
  9
$DIMLWD
 70
    -2
  9
$DIMLWE
 70
    -2
  9
$DIMTMOVE
 70
     0
  9
$LUNITS
 70
     2
  9
$LUPREC
 70
     4
  9
$SKETCHINC
 40
0.1
  9
$FILLETRAD
 40
0.5
  9
$AUNITS
 70
     0
  9
$AUPREC
 70
     0
  9
$MENU
  1
.
  9
$ELEVATION
 40
0.0
  9
$PELEVATION
 40
0.0
  9
$THICKNESS
 40
0.0
  9
$LIMCHECK
 70
     0
  9
$CHAMFERA
 40
0.5
  9
$CHAMFERB
 40
0.5
  9
$CHAMFERC
 40
1.0
  9
$CHAMFERD
 40
0.0
  9
$SKPOLY
 70
     0
  9
$TDCREATE
 40
2457186.580342824
  9
$TDUCREATE
 40
2457186.205342824
  9
$TDUPDATE
 40
2457186.580343727
  9
$TDUUPDATE
 40
2457186.205343727
  9
$TDINDWG
 40
0.0000000116
  9
$TDUSRTIMER
 40
0.0000000116
  9
$USRTIMER
 70
     1
  9
$ANGBASE
 50
0.0
  9
$ANGDIR
 70
     0
  9
$PDMODE
 70
     0
  9
$PDSIZE
 40
0.0
  9
$PLINEWID
 40
0.0
  9
$SPLFRAME
 70
     0
  9
$SPLINETYPE
 70
     6
  9
$SPLINESEGS
 70
     8
  9
$HANDSEED
  5
1F6
  9
$SURFTAB1
 70
     6
  9
$SURFTAB2
 70
     6
  9
$SURFTYPE
 70
     6
  9
$SURFU
 70
     6
  9
$SURFV
 70
     6
  9
$UCSBASE
  2

  9
$UCSNAME
  2

  9
$UCSORG
 10
0.0
 20
0.0
 30
0.0
  9
$UCSXDIR
 10
1.0
 20
0.0
 30
0.0
  9
$UCSYDIR
 10
0.0
 20
1.0
 30
0.0
  9
$UCSORTHOREF
  2

  9
$UCSORTHOVIEW
 70
     0
  9
$UCSORGTOP
 10
0.0
 20
0.0
 30
0.0
  9
$UCSORGBOTTOM
 10
0.0
 20
0.0
 30
0.0
  9
$UCSORGLEFT
 10
0.0
 20
0.0
 30
0.0
  9
$UCSORGRIGHT
 10
0.0
 20
0.0
 30
0.0
  9
$UCSORGFRONT
 10
0.0
 20
0.0
 30
0.0
  9
$UCSORGBACK
 10
0.0
 20
0.0
 30
0.0
  9
$PUCSBASE
  2

  9
$PUCSNAME
  2

  9
$PUCSORG
 10
0.0
 20
0.0
 30
0.0
  9
$PUCSXDIR
 10
1.0
 20
0.0
 30
0.0
  9
$PUCSYDIR
 10
0.0
 20
1.0
 30
0.0
  9
$PUCSORTHOREF
  2

  9
$PUCSORTHOVIEW
 70
     0
  9
$PUCSORGTOP
 10
0.0
 20
0.0
 30
0.0
  9
$PUCSORGBOTTOM
 10
0.0
 20
0.0
 30
0.0
  9
$PUCSORGLEFT
 10
0.0
 20
0.0
 30
0.0
  9
$PUCSORGRIGHT
 10
0.0
 20
0.0
 30
0.0
  9
$PUCSORGFRONT
 10
0.0
 20
0.0
 30
0.0
  9
$PUCSORGBACK
 10
0.0
 20
0.0
 30
0.0
  9
$USERI1
 70
     0
  9
$USERI2
 70
     0
  9
$USERI3
 70
     0
  9
$USERI4
 70
     0
  9
$USERI5
 70
     0
  9
$USERR1
 40
18.1
  9
$USERR2
 40
0.0
  9
$USERR3
 40
0.0
  9
$USERR4
 40
0.0
  9
$USERR5
 40
0.0
  9
$WORLDVIEW
 70
     1
  9
$SHADEDGE
 70
     3
  9
$SHADEDIF
 70
    70
  9
$TILEMODE
 70
     1
  9
$MAXACTVP
 70
    64
  9
$PINSBASE
 10
0.0
 20
0.0
 30
0.0
  9
$PLIMCHECK
 70
     0
  9
$PEXTMIN
 10
1.00000000000000E+20
 20
1.00000000000000E+20
 30
1.00000000000000E+20
  9
$PEXTMAX
 10
-1.00000000000000E+20
 20
-1.00000000000000E+20
 30
-1.00000000000000E+20
  9
$PLIMMIN
 10
0.0
 20
0.0
  9
$PLIMMAX
 10
12.0
 20
9.0
  9
$UNITMODE
 70
     0
  9
$VISRETAIN
 70
     1
  9
$PLINEGEN
 70
     0
  9
$PSLTSCALE
 70
     1
  9
$TREEDEPTH
 70
  3020
  9
$CMLSTYLE
  2
Standard
  9
$CMLJUST
 70
     0
  9
$CMLSCALE
 40
1.0
  9
$PROXYGRAPHICS
 70
     1
  9
$MEASUREMENT
 70
     1
  9
$CELWEIGHT
370
    -1
  9
$ENDCAPS
280
     0
  9
$JOINSTYLE
280
     0
  9
$LWDISPLAY
290
     0
  9
$INSUNITS
 70
     4
  9
$HYPERLINKBASE
  1

  9
$STYLESHEET
  1

  9
$XEDIT
290
     1
  9
$CEPSNTYPE
380
     0
  9
$PSTYLEMODE
290
     1
  9
$FINGERPRINTGUID
  2
{FA6CC3EE-FDDB-487C-AB2D-805DF66155C6}
  9
$VERSIONGUID
  2
{FAEB1C32-E019-11D5-929B-00C0DF256EC4}
  9
$EXTNAMES
290
     1
  9
$PSVPSCALE
 40
0.0
  9
$OLESTARTUP
290
     0
  0
ENDSEC
  0
SECTION
  2
CLASSES
  0
CLASS
  1
ACDBDICTIONARYWDFLT
  2
AcDbDictionaryWithDefault
  3
ObjectDBX Classes
 90
        0
280
     0
281
     0
  0
CLASS
  1
VISUALSTYLE
  2
AcDbVisualStyle
  3
ObjectDBX Classes
 90
     4095
280
     0
281
     0
  0
CLASS
  1
MATERIAL
  2
AcDbMaterial
  3
ObjectDBX Classes
 90
     1153
280
     0
281
     0
  0
CLASS
  1
DICTIONARYVAR
  2
AcDbDictionaryVar
  3
ObjectDBX Classes
 90
        0
280
     0
281
     0
  0
CLASS
  1
ACDBPLACEHOLDER
  2
AcDbPlaceHolder
  3
ObjectDBX Classes
 90
        0
280
     0
281
     0
  0
CLASS
  1
LAYOUT
  2
AcDbLayout
  3
ObjectDBX Classes
 90
        0
280
     0
281
     0
  0
ENDSEC
  0
SECTION
  2
TABLES
  0
TABLE
  2
VPORT
  5
8
330
0
100
AcDbSymbolTable
 70
     1
  0
VPORT
  5
29
330
8
100
AcDbSymbolTableRecord
100
AcDbViewportTableRecord
  2
*Active
 70
     0
 10
0.0
 20
0.0
 11
1.0
 21
1.0
 12
105.0
 22
148.5
 13
0.0
 23
0.0
 14
0.5
 24
0.5
 15
0.5
 25
0.5
 16
0.0
 26
0.0
 36
1.0
 17
0.0
 27
0.0
 37
0.0
 40
326.7
 41
1.60267857142857
 42
50.0
 43
0.0
 44
0.0
 50
0.0
 51
0.0
 71
     0
 72
   100
 73
     1
 74
     3
 75
     0
 76
     0
 77
     0
 78
     0
281
     0
 65
     1
110
0.0
120
0.0
130
0.0
111
1.0
121
0.0
131
0.0
112
0.0
122
1.0
132
0.0
 79
     0
146
0.0
  0
ENDTAB
  0
TABLE
  2
LTYPE
  5
5
330
0
100
AcDbSymbolTable
 70
     9
  0
LTYPE
  5
14
330
5
100
AcDbSymbolTableRecord
100
AcDbLinetypeTableRecord
  2
ByBlock
 70
     0
  3

 72
    65
 73
     0
 40
0.0
  0
LTYPE
  5
15
330
5
100
AcDbSymbolTableRecord
100
AcDbLinetypeTableRecord
  2
ByLayer
 70
     0
  3

 72
    65
 73
     0
 40
0.0
  0
LTYPE
  5
16
330
5
100
AcDbSymbolTableRecord
100
AcDbLinetypeTableRecord
  2
Continuous
 70
     0
  3
Solid line
 72
    65
 73
     0
 40
0.0
  0
LTYPE
  5
3F
330
5
100
AcDbSymbolTableRecord
100
AcDbLinetypeTableRecord
  2
DASHED
 70
     0
  3
Dashed
 72
    65
 73
     2
 40
15.0
 49
7.0
 74
     0
 49
-8.0
 74
     0
  0
LTYPE
  5
40
330
5
100
AcDbSymbolTableRecord
100
AcDbLinetypeTableRecord
  2
DOTTED
 70
     0
  3
Dotted
 72
    65
 73
     2
 40
1.0
 49
0.0
 74
     0
 49
-1.0
 74
     0
  0
LTYPE
  5
41
330
5
100
AcDbSymbolTableRecord
100
AcDbLinetypeTableRecord
  2
DOT_CENTER
 70
     0
  3
Dot_Center
 72
    65
 73
     4
 40
14.0
 49
12.0
 74
     0
 49
-1.0
 74
     0
 49
0.0
 74
     0
 49
-1.0
 74
     0
  0
LTYPE
  5
42
330
5
100
AcDbSymbolTableRecord
100
AcDbLinetypeTableRecord
  2
LONG_DASHED
 70
     0
  3
Long_Dashed
 72
    65
 73
     2
 40
15.0
 49
10.0
 74
     0
 49
-5.0
 74
     0
  0
LTYPE
  5
43
330
5
100
AcDbSymbolTableRecord
100
AcDbLinetypeTableRecord
  2
DASH_CENTER
 70
     0
  3
Dash_Center
 72
    65
 73
     4
 40
14.0
 49
11.0
 74
     0
 49
-1.0
 74
     0
 49
1.0
 74
     0
 49
-1.0
 74
     0
  0
LTYPE
  5
44
330
5
100
AcDbSymbolTableRecord
100
AcDbLinetypeTableRecord
  2
PHANTOM
 70
     0
  3
Phantom
 72
    65
 73
     6
 40
13.0
 49
10.0
 74
     0
 49
-1.0
 74
     0
 49
0.0
 74
     0
 49
-1.0
 74
     0
 49
0.0
 74
     0
 49
-1.0
 74
     0
  0
LTYPE
  5
45
330
5
100
AcDbSymbolTableRecord
100
AcDbLinetypeTableRecord
  2
CENTER_DASH_DASH
 70
     0
  3
Center_Dash_Dash
 72
    65
 73
     6
 40
14.0
 49
9.0
 74
     0
 49
-1.0
 74
     0
 49
1.0
 74
     0
 49
-1.0
 74
     0
 49
1.0
 74
     0
 49
-1.0
 74
     0
  0
LTYPE
  5
46
330
5
100
AcDbSymbolTableRecord
100
AcDbLinetypeTableRecord
  2
DASHED2
 70
     0
  3
DASHED2
 72
    65
 73
     2
 40
2.0
 49
1.0
 74
     0
 49
-1.0
 74
     0
  0
ENDTAB
  0
TABLE
  2
LAYER
  5
2
330
0
100
AcDbSymbolTable
 70
     4
  0
LAYER
  5
10
330
2
100
AcDbSymbolTableRecord
100
AcDbLayerTableRecord
  2
0
 70
     0
 62
     7
  6
Continuous
370
    -3
390
F
  0
LAYER
  5
47
330
2
100
AcDbSymbolTableRecord
100
AcDbLayerTableRecord
  2
1
 70
     0
 62
     7
  6
Continuous
370
    -3
390
F
  0
LAYER
  5
48
330
2
100
AcDbSymbolTableRecord
100
AcDbLayerTableRecord
  2
____1
 70
     0
 62
     7
  6
Continuous
370
    -3
390
F
  0
LAYER
  5
49
330
2
100
AcDbSymbolTableRecord
100
AcDbLayerTableRecord
  2
寸法線_1
 70
     0
 62
     7
  6
Continuous
370
    -3
390
F
  0
ENDTAB
  0
TABLE
  2
STYLE
  5
3
330
0
100
AcDbSymbolTable
 70
     3
  0
STYLE
  5
11
330
3
100
AcDbSymbolTableRecord
100
AcDbTextStyleTableRecord
  2
Standard
 70
     0
 40
0.0
 41
1.0
 50
0.0
 71
     0
 42
0.2
  3
txt
  4

  0
STYLE
  5
99
330
3
100
AcDbSymbolTableRecord
100
AcDbTextStyleTableRecord
  2
CONVERTER_11
 70
     0
 40
0.0
 41
0.89
 50
0.0
 71
     0
 42
0.2
  3
MS Mincho.ttf
  4

1001
ACAD
1000
MS Mincho
1071
    32785
  0
STYLE
  5
175
330
3
100
AcDbSymbolTableRecord
100
AcDbTextStyleTableRecord
  2
CONVERTER_12
 70
     0
 40
0.0
 41
0.9
 50
0.0
 71
     0
 42
0.2
  3
txt.shx
  4

  0
ENDTAB
  0
TABLE
  2
VIEW
  5
6
330
0
100
AcDbSymbolTable
 70
     0
  0
ENDTAB
  0
TABLE
  2
UCS
  5
7
330
0
100
AcDbSymbolTable
 70
     0
  0
ENDTAB
  0
TABLE
  2
APPID
  5
9
330
0
100
AcDbSymbolTable
 70
     1
  0
APPID
  5
12
330
9
100
AcDbSymbolTableRecord
100
AcDbRegAppTableRecord
  2
ACAD
 70
     0
  0
ENDTAB
  0
TABLE
  2
DIMSTYLE
  5
A
330
0
100
AcDbSymbolTable
 70
     8
100
AcDbDimStyleTable
  0
DIMSTYLE
105
27
330
A
100
AcDbSymbolTableRecord
100
AcDbDimStyleTableRecord
  2
Standard
 70
     0
178
     0
340
11
  0
DIMSTYLE
105
186
102
{ACAD_REACTORS
330
187
102
}
330
A
100
AcDbSymbolTableRecord
100
AcDbDimStyleTableRecord
  2
ME10_DIM_10
 70
     0
  3
内径{\Fgdt;n}<>
 41
3.5
 42
0.0
 44
1.0
 73
     0
 74
     0
 77
     1
 78
     8
140
3.5
147
1.0
172
     1
173
     1
174
     1
175
     1
176
     2
177
     2
271
     2
178
     7
271
     2
340
99
  0
DIMSTYLE
105
192
102
{ACAD_REACTORS
330
193
102
}
330
A
100
AcDbSymbolTableRecord
100
AcDbDimStyleTableRecord
  2
ME10_DIM_11
 70
     0
 41
3.5
 42
0.0
 44
1.0
 73
     0
 74
     0
 77
     1
 78
     8
140
3.5
147
1.0
172
     1
173
     1
174
     1
175
     1
176
     2
177
     2
271
     2
178
     7
271
     2
340
175
  0
DIMSTYLE
105
19D
102
{ACAD_REACTORS
330
19E
102
}
330
A
100
AcDbSymbolTableRecord
100
AcDbDimStyleTableRecord
  2
ME10_DIM_12
 70
     0
 41
3.5
 42
0.0
 44
1.0
 73
     0
 74
     0
 77
     1
 78
     8
140
3.5
147
1.0
172
     1
173
     1
174
     1
175
     1
176
     2
177
     2
271
     2
178
     7
271
     2
340
175
  0
DIMSTYLE
105
1A8
102
{ACAD_REACTORS
330
1A9
102
}
330
A
100
AcDbSymbolTableRecord
100
AcDbDimStyleTableRecord
  2
ME10_DIM_13
 70
     0
 41
3.5
 42
0.0
 44
1.0
 73
     0
 74
     0
 77
     1
 78
     8
140
3.5
147
1.0
172
     1
173
     1
174
     1
175
     1
176
     2
177
     2
271
     2
178
     7
271
     2
340
175
  0
DIMSTYLE
105
1B3
102
{ACAD_REACTORS
330
1B4
102
}
330
A
100
AcDbSymbolTableRecord
100
AcDbDimStyleTableRecord
  2
ME10_DIM_14
 70
     0
 41
3.5
 42
0.0
 44
1.0
 73
     0
 74
     0
 77
     1
 78
     8
140
3.5
147
1.0
172
     1
173
     1
174
     1
175
     1
176
     2
177
     2
271
     2
178
     7
271
     2
340
175
  0
DIMSTYLE
105
1BE
102
{ACAD_REACTORS
330
1BF
102
}
330
A
100
AcDbSymbolTableRecord
100
AcDbDimStyleTableRecord
  2
ME10_DIM_15
 70
     0
  3
{\Fgdt;n}<>
 41
3.5
 42
0.0
 44
1.0
 73
     0
 74
     0
 77
     1
 78
     8
140
3.5
147
1.0
172
     1
173
     1
174
     1
175
     1
176
     2
177
     2
271
     2
178
     7
271
     2
340
175
  0
DIMSTYLE
105
1C9
102
{ACAD_REACTORS
330
1CA
102
}
330
A
100
AcDbSymbolTableRecord
100
AcDbDimStyleTableRecord
  2
ME10_DIM_16
 70
     0
 41
3.5
 42
0.0
 44
1.0
 73
     0
 74
     0
 77
     1
 78
     8
140
3.5
147
1.0
172
     1
173
     1
174
     1
175
     1
176
     2
177
     2
271
     2
178
     7
271
     2
340
175
  0
ENDTAB
  0
TABLE
  2
BLOCK_RECORD
  5
1
330
0
100
AcDbSymbolTable
 70
     9
  0
BLOCK_RECORD
  5
1F
330
1
100
AcDbSymbolTableRecord
100
AcDbBlockTableRecord
  2
*Model_Space
340
22
  0
BLOCK_RECORD
  5
1B
330
1
100
AcDbSymbolTableRecord
100
AcDbBlockTableRecord
  2
*Paper_Space
340
1E
  0
BLOCK_RECORD
  5
23
330
1
100
AcDbSymbolTableRecord
100
AcDbBlockTableRecord
  2
*Paper_Space0
340
26
  0
BLOCK_RECORD
  5
4A
330
1
100
AcDbSymbolTableRecord
100
AcDbBlockTableRecord
  2
開示A4
340
0
102
{BLKREFS
331
4D
102
}
  0
BLOCK_RECORD
  5
17D
330
1
100
AcDbSymbolTableRecord
100
AcDbBlockTableRecord
  2
*D2
340
0
  0
BLOCK_RECORD
  5
188
330
1
100
AcDbSymbolTableRecord
100
AcDbBlockTableRecord
  2
*D3
340
0
  0
BLOCK_RECORD
  5
194
330
1
100
AcDbSymbolTableRecord
100
AcDbBlockTableRecord
  2
*D4
340
0
  0
BLOCK_RECORD
  5
19F
330
1
100
AcDbSymbolTableRecord
100
AcDbBlockTableRecord
  2
*D5
340
0
  0
BLOCK_RECORD
  5
1AA
330
1
100
AcDbSymbolTableRecord
100
AcDbBlockTableRecord
  2
*D6
340
0
  0
BLOCK_RECORD
  5
1B5
330
1
100
AcDbSymbolTableRecord
100
AcDbBlockTableRecord
  2
*D7
340
0
  0
BLOCK_RECORD
  5
1C0
330
1
100
AcDbSymbolTableRecord
100
AcDbBlockTableRecord
  2
*D8
340
0
  0
ENDTAB
  0
ENDSEC
  0
SECTION
  2
BLOCKS
  0
BLOCK
  5
20
330
1F
100
AcDbEntity
  8
0
100
AcDbBlockBegin
  2
*Model_Space
 70
     0
 10
0.0
 20
0.0
 30
0.0
  3
*Model_Space
  1

  0
ENDBLK
  5
21
330
1F
100
AcDbEntity
  8
0
100
AcDbBlockEnd
  0
BLOCK
  5
1C
330
1B
100
AcDbEntity
 67
     1
  8
0
100
AcDbBlockBegin
  2
*Paper_Space
 70
     0
 10
0.0
 20
0.0
 30
0.0
  3
*Paper_Space
  1

  0
ENDBLK
  5
1D
330
1B
100
AcDbEntity
 67
     1
  8
0
100
AcDbBlockEnd
  0
BLOCK
  5
24
330
23
100
AcDbEntity
  8
0
100
AcDbBlockBegin
  2
*Paper_Space0
 70
     0
 10
0.0
 20
0.0
 30
0.0
  3
*Paper_Space0
  1

  0
ENDBLK
  5
25
330
23
100
AcDbEntity
  8
0
100
AcDbBlockEnd
  0
BLOCK
  5
4B
330
4A
100
AcDbEntity
  8
0
100
AcDbBlockBegin
  2
開示A4
 70
     0
 10
0.0
 20
0.0
 30
0.0
  3
開示A4
  1

  0
POINT
  5
4E
330
4A
100
AcDbEntity
  8
1
 62
     4
100
AcDbPoint
 10
93.75
 20
17.0
 30
0.0
  0
POINT
  5
4F
330
4A
100
AcDbEntity
  8
1
 62
     4
100
AcDbPoint
 10
85.25
 20
17.0
 30
0.0
  0
POINT
  5
50
330
4A
100
AcDbEntity
  8
1
 62
     4
100
AcDbPoint
 10
106.5
 20
19.00000000000001
 30
0.0
  0
POINT
  5
51
330
4A
100
AcDbEntity
  8
1
 62
     4
100
AcDbPoint
 10
106.5
 20
12.5
 30
0.0
  0
POINT
  5
52
330
4A
100
AcDbEntity
  8
1
 62
     4
100
AcDbPoint
 10
112.25
 20
12.5
 30
0.0
  0
POINT
  5
53
330
4A
100
AcDbEntity
  8
1
 62
     4
100
AcDbPoint
 10
100.75
 20
12.5
 30
0.0
  0
POINT
  5
54
330
4A
100
AcDbEntity
  8
1
 62
     4
100
AcDbPoint
 10
123.5
 20
19.00000000000001
 30
0.0
  0
POINT
  5
55
330
4A
100
AcDbEntity
  8
1
 62
     4
100
AcDbPoint
 10
123.5
 20
12.5
 30
0.0
  0
POINT
  5
56
330
4A
100
AcDbEntity
  8
1
 62
     4
100
AcDbPoint
 10
129.25
 20
12.5
 30
0.0
  0
POINT
  5
57
330
4A
100
AcDbEntity
  8
1
 62
     4
100
AcDbPoint
 10
117.75
 20
12.5
 30
0.0
  0
POINT
  5
58
330
4A
100
AcDbEntity
  8
1
 62
     4
100
AcDbPoint
 10
140.5
 20
19.00000000000001
 30
0.0
  0
POINT
  5
59
330
4A
100
AcDbEntity
  8
1
 62
     4
100
AcDbPoint
 10
140.5
 20
12.5
 30
0.0
  0
POINT
  5
5A
330
4A
100
AcDbEntity
  8
1
 62
     4
100
AcDbPoint
 10
146.25
 20
12.5
 30
0.0
  0
POINT
  5
5B
330
4A
100
AcDbEntity
  8
1
 62
     4
100
AcDbPoint
 10
134.75
 20
12.5
 30
0.0
  0
POINT
  5
5C
330
4A
100
AcDbEntity
  8
1
 62
     4
100
AcDbPoint
 10
151.75
 20
12.5
 30
0.0
  0
POINT
  5
5D
330
4A
100
AcDbEntity
  8
1
 62
     4
100
AcDbPoint
 10
163.25
 20
12.5
 30
0.0
  0
POINT
  5
5E
330
4A
100
AcDbEntity
  8
1
 62
     4
100
AcDbPoint
 10
157.5
 20
12.5
 30
0.0
  0
POINT
  5
5F
330
4A
100
AcDbEntity
  8
1
 62
     4
100
AcDbPoint
 10
57.0
 20
14.25
 30
0.0
  0
POINT
  5
60
330
4A
100
AcDbEntity
  8
1
 62
     4
100
AcDbPoint
 10
57.0
 20
22.75000000000001
 30
0.0
  0
POINT
  5
61
330
4A
100
AcDbEntity
  8
1
 62
     4
100
AcDbPoint
 10
47.5
 20
282.0000000000003
 30
0.0
  0
POINT
  5
62
330
4A
100
AcDbEntity
  8
1
 62
     4
100
AcDbPoint
 10
157.5
 20
19.00000000000001
 30
0.0
  0
POINT
  5
63
330
4A
100
AcDbEntity
  8
1
 62
     4
100
AcDbPoint
 10
57.0
 20
16.25
 30
0.0
  0
POINT
  5
64
330
4A
100
AcDbEntity
  8
1
 62
     4
100
AcDbPoint
 10
57.0
 20
24.75000000000001
 30
0.0
  0
POINT
  5
65
330
4A
100
AcDbEntity
  8
1
 62
     4
100
AcDbPoint
 10
57.0
 20
20.75000000000001
 30
0.0
  0
POINT
  5
66
330
4A
100
AcDbEntity
  8
1
 62
     4
100
AcDbPoint
 10
57.0
 20
12.25
 30
0.0
  0
POINT
  5
67
330
4A
100
AcDbEntity
  8
1
 62
     4
100
AcDbPoint
 10
34.0
 20
34.00000000000001
 30
0.0
  0
LINE
  5
68
330
4A
100
AcDbEntity
  8
1
  6
Continuous
 62
     7
100
AcDbLine
 10
105.0
 20
10.0
 30
0.0
 11
200.0
 21
10.0
 31
0.0
  0
LINE
  5
69
330
4A
100
AcDbEntity
  8
1
  6
Continuous
 62
     2
100
AcDbLine
 10
105.0
 20
10.0
 30
0.0
 11
105.0
 21
5.0
 31
0.0
  0
LINE
  5
6A
330
4A
100
AcDbEntity
  8
1
  6
Continuous
 62
     7
100
AcDbLine
 10
200.0
 20
148.5
 30
0.0
 11
200.0
 21
287.0000000000003
 31
0.0
  0
LINE
  5
6B
330
4A
100
AcDbEntity
  8
1
  6
Continuous
 62
     2
100
AcDbLine
 10
200.0
 20
148.5
 30
0.0
 11
205.0
 21
148.5
 31
0.0
  0
LINE
  5
6C
330
4A
100
AcDbEntity
  8
1
  6
Continuous
 62
     7
100
AcDbLine
 10
25.0
 20
148.5
 30
0.0
 11
25.0
 21
287.0000000000003
 31
0.0
  0
LINE
  5
6D
330
4A
100
AcDbEntity
  8
1
  6
Continuous
 62
     2
100
AcDbLine
 10
25.0
 20
148.5
 30
0.0
 11
20.0
 21
148.5
 31
0.0
  0
LINE
  5
6E
330
4A
100
AcDbEntity
  8
1
  6
Continuous
 62
     7
100
AcDbLine
 10
105.0
 20
287.0000000000003
 30
0.0
 11
25.0
 21
287.0000000000003
 31
0.0
  0
LINE
  5
6F
330
4A
100
AcDbEntity
  8
1
  6
Continuous
 62
     2
100
AcDbLine
 10
105.0
 20
287.0000000000003
 30
0.0
 11
105.0
 21
292.0000000000003
 31
0.0
  0
LINE
  5
70
330
4A
100
AcDbEntity
  8
1
  6
Continuous
 62
     2
100
AcDbLine
 10
166.0
 20
20.00000000000001
 30
0.0
 11
200.0
 21
20.00000000000001
 31
0.0
  0
LINE
  5
71
330
4A
100
AcDbEntity
  8
1
  6
Continuous
 62
     2
100
AcDbLine
 10
98.0
 20
27.00000000000001
 30
0.0
 11
98.0
 21
9.99999999999999
 31
0.0
  0
LINE
  5
72
330
4A
100
AcDbEntity
  8
1
  6
Continuous
 62
     2
100
AcDbLine
 10
115.0
 20
27.00000000000001
 30
0.0
 11
115.0
 21
9.99999999999999
 31
0.0
  0
LINE
  5
73
330
4A
100
AcDbEntity
  8
1
  6
Continuous
 62
     2
100
AcDbLine
 10
149.0
 20
27.00000000000001
 30
0.0
 11
149.0
 21
10.0
 31
0.0
  0
LINE
  5
74
330
4A
100
AcDbEntity
  8
1
  6
Continuous
 62
     2
100
AcDbLine
 10
132.0
 20
27.00000000000001
 30
0.0
 11
132.0
 21
9.99999999999999
 31
0.0
  0
LINE
  5
75
330
4A
100
AcDbEntity
  8
1
  6
Continuous
 62
     2
100
AcDbLine
 10
166.0
 20
27.00000000000001
 30
0.0
 11
166.0
 21
10.0
 31
0.0
  0
LINE
  5
76
330
4A
100
AcDbEntity
  8
1
  6
Continuous
 62
     2
100
AcDbLine
 10
55.0
 20
277.0000000000003
 30
0.0
 11
25.0
 21
277.0000000000003
 31
0.0
  0
LINE
  5
77
330
4A
100
AcDbEntity
  8
1
  6
Continuous
 62
     7
100
AcDbLine
 10
25.0
 20
10.0
 30
0.0
 11
25.0
 21
148.5
 31
0.0
  0
LINE
  5
78
330
4A
100
AcDbEntity
  8
1
  6
Continuous
 62
     2
100
AcDbLine
 10
40.0
 20
287.0000000000003
 30
0.0
 11
40.0
 21
277.0000000000003
 31
0.0
  0
LINE
  5
79
330
4A
100
AcDbEntity
  8
1
  6
Continuous
 62
     2
100
AcDbLine
 10
55.0
 20
287.0000000000003
 30
0.0
 11
55.0
 21
277.0000000000003
 31
0.0
  0
LINE
  5
7A
330
4A
100
AcDbEntity
  8
1
  6
Continuous
 62
     2
100
AcDbLine
 10
33.0
 20
41.00000000000001
 30
0.0
 11
33.0
 21
27.0
 31
0.0
  0
LINE
  5
7B
330
4A
100
AcDbEntity
  8
1
  6
Continuous
 62
     7
100
AcDbLine
 10
200.0
 20
27.00000000000001
 30
0.0
 11
25.0
 21
27.00000000000001
 31
0.0
  0
LINE
  5
7C
330
4A
100
AcDbEntity
  8
1
  6
Continuous
 62
     7
100
AcDbLine
 10
25.0
 20
41.0
 30
0.0
 11
200.0
 21
41.0
 31
0.0
  0
LINE
  5
7D
330
4A
100
AcDbEntity
  8
1
  6
PHANTOM
 62
     4
100
AcDbLine
 10
0.0
 20
0.0
 30
0.0
 11
210.0
 21
0.0
 31
0.0
  0
LINE
  5
7E
330
4A
100
AcDbEntity
  8
1
  6
PHANTOM
 62
     4
100
AcDbLine
 10
210.0
 20
0.0
 30
0.0
 11
210.0
 21
297.0
 31
0.0
  0
LINE
  5
7F
330
4A
100
AcDbEntity
  8
1
  6
PHANTOM
 62
     4
100
AcDbLine
 10
210.0
 20
297.0
 30
0.0
 11
0.0
 21
297.0
 31
0.0
  0
LINE
  5
80
330
4A
100
AcDbEntity
  8
1
  6
PHANTOM
 62
     4
100
AcDbLine
 10
0.0
 20
297.0
 30
0.0
 11
0.0
 21
0.0
 31
0.0
  0
LINE
  5
81
330
4A
100
AcDbEntity
  8
1
  6
Continuous
 62
     7
100
AcDbLine
 10
25.0
 20
10.0
 30
0.0
 11
105.0
 21
10.0
 31
0.0
  0
LINE
  5
82
330
4A
100
AcDbEntity
  8
1
  6
Continuous
 62
     7
100
AcDbLine
 10
200.0
 20
10.0
 30
0.0
 11
200.0
 21
148.5
 31
0.0
  0
LINE
  5
83
330
4A
100
AcDbEntity
  8
1
  6
Continuous
 62
     7
100
AcDbLine
 10
200.0
 20
287.0000000000003
 30
0.0
 11
105.0
 21
287.0000000000003
 31
0.0
  0
LINE
  5
84
330
4A
100
AcDbEntity
  8
1
  6
Continuous
 62
     2
100
AcDbLine
 10
25.0
 20
18.50000000000001
 30
0.0
 11
81.0
 21
18.50000000000001
 31
0.0
  0
LINE
  5
85
330
4A
100
AcDbEntity
  8
1
  6
Continuous
 62
     2
100
AcDbLine
 10
33.0
 20
27.0
 30
0.0
 11
33.0
 21
10.0
 31
0.0
  0
LINE
  5
86
330
4A
100
AcDbEntity
  8
1
  6
Continuous
 62
     7
100
AcDbLine
 10
191.0
 20
24.70000000000001
 30
0.0
 11
191.0
 21
22.30000000000001
 31
0.0
  0
LINE
  5
87
330
4A
100
AcDbEntity
  8
1
  6
Continuous
 62
     7
100
AcDbLine
 10
191.0
 20
24.70000000000001
 30
0.0
 11
196.0
 21
25.50000000000001
 31
0.0
  0
LINE
  5
88
330
4A
100
AcDbEntity
  8
1
  6
Continuous
 62
     7
100
AcDbLine
 10
196.0
 20
25.50000000000001
 30
0.0
 11
196.0
 21
21.50000000000001
 31
0.0
  0
LINE
  5
89
330
4A
100
AcDbEntity
  8
1
  6
Continuous
 62
     7
100
AcDbLine
 10
196.0
 20
21.50000000000001
 30
0.0
 11
191.0
 21
22.30000000000001
 31
0.0
  0
LINE
  5
8A
330
4A
100
AcDbEntity
  8
1
  6
DOT_CENTER
 62
     2
100
AcDbLine
 10
184.0
 20
23.50000000000001
 30
0.0
 11
197.0
 21
23.50000000000001
 31
0.0
  0
LINE
  5
8B
330
4A
100
AcDbEntity
  8
1
  6
DOT_CENTER
 62
     2
100
AcDbLine
 10
187.0
 20
26.50000000000001
 30
0.0
 11
187.0
 21
20.50000000000001
 31
0.0
  0
LINE
  5
8C
330
4A
100
AcDbEntity
  8
1
  6
Continuous
 62
     2
100
AcDbLine
 10
81.0
 20
27.00000000000001
 30
0.0
 11
81.0
 21
10.0
 31
0.0
  0
CIRCLE
  5
8D
330
4A
100
AcDbEntity
  8
1
  6
Continuous
 62
     7
100
AcDbCircle
 10
103.5
 20
12.5
 30
0.0
 40
0.2999999999999972
  0
CIRCLE
  5
8E
330
4A
100
AcDbEntity
  8
1
  6
Continuous
 62
     7
100
AcDbCircle
 10
109.5
 20
12.5
 30
0.0
 40
0.2999999999999972
  0
CIRCLE
  5
8F
330
4A
100
AcDbEntity
  8
1
  6
Continuous
 62
     7
100
AcDbCircle
 10
120.5
 20
12.5
 30
0.0
 40
0.2999999999999972
  0
CIRCLE
  5
90
330
4A
100
AcDbEntity
  8
1
  6
Continuous
 62
     7
100
AcDbCircle
 10
126.5
 20
12.5
 30
0.0
 40
0.2999999999999972
  0
CIRCLE
  5
91
330
4A
100
AcDbEntity
  8
1
  6
Continuous
 62
     7
100
AcDbCircle
 10
137.5
 20
12.5
 30
0.0
 40
0.3000000000000114
  0
CIRCLE
  5
92
330
4A
100
AcDbEntity
  8
1
  6
Continuous
 62
     7
100
AcDbCircle
 10
143.5
 20
12.5
 30
0.0
 40
0.3000000000000114
  0
CIRCLE
  5
93
330
4A
100
AcDbEntity
  8
1
  6
Continuous
 62
     7
100
AcDbCircle
 10
160.5
 20
12.5
 30
0.0
 40
0.3000000000000114
  0
CIRCLE
  5
94
330
4A
100
AcDbEntity
  8
1
  6
Continuous
 62
     7
100
AcDbCircle
 10
154.5
 20
12.5
 30
0.0
 40
0.3000000000000114
  0
CIRCLE
  5
95
330
4A
100
AcDbEntity
  8
1
  6
Continuous
 62
     7
100
AcDbCircle
 10
187.0
 20
23.50000000000001
 30
0.0
 40
1.200000000000102
  0
CIRCLE
  5
96
330
4A
100
AcDbEntity
  8
1
  6
Continuous
 62
     7
100
AcDbCircle
 10
187.0
 20
23.50000000000001
 30
0.0
 40
2.0
  0
CIRCLE
  5
97
330
4A
100
AcDbEntity
  8
1
  6
DOT_CENTER
 62
     7
100
AcDbCircle
 10
89.5
 20
16.0
 30
0.0
 40
0.1000000000000227
  0
CIRCLE
  5
98
330
4A
100
AcDbEntity
  8
1
  6
DOT_CENTER
 62
     7
100
AcDbCircle
 10
89.5
 20
18.0
 30
0.0
 40
0.1000000000000227
  0
MTEXT
  5
9A
330
4A
100
AcDbEntity
  8
1
 62
     7
100
AcDbMText
 10
188.5
 20
15.0
 30
0.0
 40
3.0
 41
0.0
 71
     5
 72
     1
  1
三栄水栓製作所
  7
CONVERTER_11
 73
     1
 44
1.0
  0
MTEXT
  5
9B
330
4A
100
AcDbEntity
  8
1
 62
     7
100
AcDbMText
 10
171.5
 20
15.0
 30
0.0
 40
2.5
 41
0.0
 71
     5
 72
     1
  1
株式会社
  7
CONVERTER_11
 73
     1
 44
1.0
  0
MTEXT
  5
9C
330
4A
100
AcDbEntity
  8
1
 62
     2
100
AcDbMText
 10
32.5
 20
282.0000000000003
 30
0.0
 40
5.0
 41
0.0
 71
     5
 72
     1
  1
図番
  7
CONVERTER_11
 73
     1
 44
0.45454545454545
  0
MTEXT
  5
9D
330
4A
100
AcDbEntity
  8
1
 62
     2
100
AcDbMText
 10
29.0
 20
34.00000000000001
 30
0.0
 40
3.5
 41
0.0
 71
     5
 72
     1
  1
備考
  7
CONVERTER_11
 73
     1
 44
0.45454545454545
  0
MTEXT
  5
9E
330
4A
100
AcDbEntity
  8
1
 62
     2
100
AcDbMText
 10
29.0
 20
22.75
 30
0.0
 40
3.5
 41
0.0
 71
     5
 72
     1
  1
品名
  7
CONVERTER_11
 73
     1
 44
0.72727272727273
  0
MTEXT
  5
9F
330
4A
100
AcDbEntity
  8
1
 62
     2
100
AcDbMText
 10
29.0
 20
14.25
 30
0.0
 40
3.5
 41
0.0
 71
     5
 72
     1
  1
品番
  7
CONVERTER_11
 73
     1
 44
0.72727272727273
  0
MTEXT
  5
A0
330
4A
100
AcDbEntity
  8
1
 62
     2
100
AcDbMText
 10
101.5
 20
25.00000000000001
 30
0.0
 40
3.0
 41
0.0
 71
     5
 72
     1
  1
承認
  7
CONVERTER_11
 73
     1
 44
0.59090909090909
  0
MTEXT
  5
A1
330
4A
100
AcDbEntity
  8
1
 62
     2
100
AcDbMText
 10
175.0
 20
23.50000000000001
 30
0.0
 40
3.5
 41
0.0
 71
     5
 72
     1
  1
第三角法
  7
CONVERTER_11
 73
     1
 44
0.54545454545455
  0
MTEXT
  5
A2
330
4A
100
AcDbEntity
  8
1
 62
     2
100
AcDbMText
 10
118.5
 20
25.00000000000001
 30
0.0
 40
3.0
 41
0.0
 71
     5
 72
     1
  1
検図
  7
CONVERTER_11
 73
     1
 44
0.59090909090909
  0
MTEXT
  5
A3
330
4A
100
AcDbEntity
  8
1
 62
     2
100
AcDbMText
 10
152.5
 20
25.00000000000001
 30
0.0
 40
3.0
 41
0.0
 71
     5
 72
     1
  1
担当
  7
CONVERTER_11
 73
     1
 44
0.59090909090909
  0
MTEXT
  5
A4
330
4A
100
AcDbEntity
  8
1
 62
     2
100
AcDbMText
 10
135.5
 20
25.00000000000001
 30
0.0
 40
3.0
 41
0.0
 71
     5
 72
     1
  1
製図
  7
CONVERTER_11
 73
     1
 44
0.59090909090909
  0
MTEXT
  5
A5
330
4A
100
AcDbEntity
  8
1
 62
     2
100
AcDbMText
 10
89.5
 20
24.00000000000001
 30
0.0
 40
3.5
 41
0.0
 71
     5
 72
     1
  1
尺度
  7
CONVERTER_11
 73
     1
 44
0.54545454545455
  0
MTEXT
  5
A6
330
4A
100
AcDbEntity
  8
1
 62
   250
100
AcDbMText
 10
25.0
 20
5.0
 30
0.0
 40
3.5
 41
0.0
 71
     4
 72
     1
  1
備考欄の文字列 原点位置=4
  7
CONVERTER_11
 73
     1
 44
0.54545454545455
  0
ENDBLK
  5
4C
330
4A
100
AcDbEntity
  8
0
100
AcDbBlockEnd
  0
BLOCK
  5
184
330
17D
100
AcDbEntity
  8
0
100
AcDbBlockBegin
  2
*D2
 70
     1
 10
0.0
 20
0.0
 30
0.0
  3
*D2
  1

  0
LINE
  5
17E
330
17D
100
AcDbEntity
  8
1
  6
Continuous
 62
     2
100
AcDbLine
 10
118.0966998409858
 20
132.757356608838
 30
0.0
 11
118.0966998409858
 21
165.193699998376
 31
0.0
  0
LINE
  5
17F
330
17D
100
AcDbEntity
  8
1
  6
Continuous
 62
     2
100
AcDbLine
 10
108.0966998409858
 20
132.757356608838
 30
0.0
 11
119.0966998409858
 21
132.757356608838
 31
0.0
  0
LINE
  5
180
330
17D
100
AcDbEntity
  8
1
  6
Continuous
 62
     2
100
AcDbLine
 10
108.0966998409858
 20
165.193699998376
 30
0.0
 11
119.0966998409858
 21
165.193699998376
 31
0.0
  0
SOLID
  5
181
330
17D
100
AcDbEntity
  8
1
 62
     2
100
AcDbTrace
 10
117.6359160994299
 20
136.257356608838
 30
0.0
 11
118.5574835825417
 21
136.257356608838
 31
0.0
 12
118.0966998409858
 22
132.757356608838
 32
0.0
 13
118.0966998409858
 23
132.757356608838
 33
0.0
  0
SOLID
  5
182
330
17D
100
AcDbEntity
  8
1
 62
     2
100
AcDbTrace
 10
118.5574835825417
 20
161.693699998376
 30
0.0
 11
117.6359160994299
 21
161.693699998376
 31
0.0
 12
118.0966998409858
 22
165.193699998376
 32
0.0
 13
118.0966998409858
 23
165.193699998376
 33
0.0
  0
MTEXT
  5
183
330
17D
100
AcDbEntity
  8
1
 62
     7
100
AcDbMText
 10
117.0966998409858
 20
143.340528303607
 30
0.0
 40
3.5
 41
0.0
 71
     7
 72
     1
  1
\C7;内径{\Fgdt;n}\C7;32
  7
CONVERTER_11
 11
0.0
 21
1.0
 31
0.0
 73
     1
 44
0.45454545454545
  0
ENDBLK
  5
185
330
17D
100
AcDbEntity
  8
0
100
AcDbBlockEnd
  0
BLOCK
  5
190
330
188
100
AcDbEntity
  8
0
100
AcDbBlockBegin
  2
*D3
 70
     1
 10
0.0
 20
0.0
 30
0.0
  3
*D3
  1

  0
LINE
  5
189
330
188
100
AcDbEntity
  8
1
  6
Continuous
 62
     2
100
AcDbLine
 10
106.72932537196
 20
190.498356376465
 30
0.0
 11
106.72932537196
 21
168.475528303607
 31
0.0
  0
LINE
  5
18A
330
188
100
AcDbEntity
  8
1
  6
Continuous
 62
     2
100
AcDbLine
 10
106.72932537196
 20
168.475528303607
 30
0.0
 11
106.72932537196
 21
129.475528303606
 31
0.0
  0
LINE
  5
18B
330
188
100
AcDbEntity
  8
1
  6
Continuous
 62
     2
100
AcDbLine
 10
108.0966998409857
 20
129.475528303606
 30
0.0
 11
105.72932537196
 21
129.475528303606
 31
0.0
  0
LINE
  5
18C
330
188
100
AcDbEntity
  8
1
  6
Continuous
 62
     2
100
AcDbLine
 10
108.0966998409857
 20
168.475528303607
 30
0.0
 11
105.72932537196
 21
168.475528303607
 31
0.0
  0
SOLID
  5
18D
330
188
100
AcDbEntity
  8
1
 62
     2
100
AcDbTrace
 10
107.1901091135159
 20
164.975528303607
 30
0.0
 11
106.2685416304041
 21
164.975528303607
 31
0.0
 12
106.72932537196
 22
168.475528303607
 32
0.0
 13
106.72932537196
 23
168.475528303607
 33
0.0
  0
SOLID
  5
18E
330
188
100
AcDbEntity
  8
1
 62
     2
100
AcDbTrace
 10
106.2685416304041
 20
132.975528303606
 30
0.0
 11
107.1901091135159
 21
132.975528303606
 31
0.0
 12
106.72932537196
 22
129.475528303606
 32
0.0
 13
106.72932537196
 23
129.475528303606
 33
0.0
  0
MTEXT
  5
18F
330
188
100
AcDbEntity
  8
1
 62
     7
100
AcDbMText
 10
105.72932537196
 20
185.248356376465
 30
0.0
 40
3.5
 41
0.0
 71
     7
 72
     1
  1
39
  7
CONVERTER_12
 11
0.0
 21
1.0
 31
0.0
 73
     1
 44
0.60024009603842
  0
ENDBLK
  5
191
330
188
100
AcDbEntity
  8
0
100
AcDbBlockEnd
  0
BLOCK
  5
19B
330
194
100
AcDbEntity
  8
0
100
AcDbBlockBegin
  2
*D4
 70
     1
 10
0.0
 20
0.0
 30
0.0
  3
*D4
  1

  0
LINE
  5
195
330
194
100
AcDbEntity
  8
1
  6
Continuous
 62
     2
100
AcDbLine
 10
99.2228347016598
 20
148.975528303607
 30
0.0
 11
99.2228347016598
 21
89.97552830360698
 31
0.0
  0
LINE
  5
196
330
194
100
AcDbEntity
  8
1
  6
Continuous
 62
     2
100
AcDbLine
 10
73.7603232177758
 20
89.97552830360698
 30
0.0
 11
100.2228347016598
 21
89.97552830360698
 31
0.0
  0
LINE
  5
197
330
194
100
AcDbEntity
  8
1
  6
Continuous
 62
     2
100
AcDbLine
 10
111.0966998409857
 20
148.975528303607
 30
0.0
 11
98.2228347016598
 21
148.975528303607
 31
0.0
  0
SOLID
  5
198
330
194
100
AcDbEntity
  8
1
 62
     2
100
AcDbTrace
 10
99.68361844321569
 20
145.475528303607
 30
0.0
 11
98.76205096010392
 21
145.475528303607
 31
0.0
 12
99.2228347016598
 22
148.975528303607
 32
0.0
 13
99.2228347016598
 23
148.975528303607
 33
0.0
  0
SOLID
  5
199
330
194
100
AcDbEntity
  8
1
 62
     2
100
AcDbTrace
 10
98.76205096010392
 20
93.47552830360698
 30
0.0
 11
99.68361844321569
 21
93.47552830360698
 31
0.0
 12
99.2228347016598
 22
89.97552830360698
 32
0.0
 13
99.2228347016598
 23
89.97552830360698
 33
0.0
  0
MTEXT
  5
19A
330
194
100
AcDbEntity
  8
1
 62
     7
100
AcDbMText
 10
98.2228347016598
 20
109.586306474703
 30
0.0
 40
3.5
 41
0.0
 71
     7
 72
     1
  1
59
  7
CONVERTER_12
 11
0.0
 21
1.0
 31
0.0
 73
     1
 44
0.60024009603842
  0
ENDBLK
  5
19C
330
194
100
AcDbEntity
  8
0
100
AcDbBlockEnd
  0
BLOCK
  5
1A6
330
19F
100
AcDbEntity
  8
0
100
AcDbBlockBegin
  2
*D5
 70
     1
 10
0.0
 20
0.0
 30
0.0
  3
*D5
  1

  0
LINE
  5
1A0
330
19F
100
AcDbEntity
  8
1
  6
Continuous
 62
     2
100
AcDbLine
 10
123.48158390253
 20
89.97552830360698
 30
0.0
 11
123.48158390253
 21
179.975528303607
 31
0.0
  0
LINE
  5
1A1
330
19F
100
AcDbEntity
  8
1
  6
Continuous
 62
     2
100
AcDbLine
 10
74.44669984098178
 20
179.975528303607
 30
0.0
 11
124.48158390253
 21
179.975528303607
 31
0.0
  0
LINE
  5
1A2
330
19F
100
AcDbEntity
  8
1
  6
Continuous
 62
     2
100
AcDbLine
 10
73.76032321777578
 20
89.97552830360698
 30
0.0
 11
124.48158390253
 21
89.97552830360698
 31
0.0
  0
SOLID
  5
1A3
330
19F
100
AcDbEntity
  8
1
 62
     2
100
AcDbTrace
 10
123.0208001609741
 20
93.47552830360698
 30
0.0
 11
123.9423676440859
 21
93.47552830360698
 31
0.0
 12
123.48158390253
 22
89.97552830360698
 32
0.0
 13
123.48158390253
 23
89.97552830360698
 33
0.0
  0
SOLID
  5
1A4
330
19F
100
AcDbEntity
  8
1
 62
     2
100
AcDbTrace
 10
123.9423676440859
 20
176.475528303607
 30
0.0
 11
123.0208001609741
 21
176.475528303607
 31
0.0
 12
123.48158390253
 22
179.975528303607
 32
0.0
 13
123.48158390253
 23
179.975528303607
 33
0.0
  0
MTEXT
  5
1A5
330
19F
100
AcDbEntity
  8
1
 62
     7
100
AcDbMText
 10
122.48158390253
 20
109.058274132916
 30
0.0
 40
3.5
 41
0.0
 71
     7
 72
     1
  1
90
  7
CONVERTER_12
 11
0.0
 21
1.0
 31
0.0
 73
     1
 44
0.60024009603842
  0
ENDBLK
  5
1A7
330
19F
100
AcDbEntity
  8
0
100
AcDbBlockEnd
  0
BLOCK
  5
1B1
330
1AA
100
AcDbEntity
  8
0
100
AcDbBlockBegin
  2
*D6
 70
     1
 10
0.0
 20
0.0
 30
0.0
  3
*D6
  1

  0
LINE
  5
1AB
330
1AA
100
AcDbEntity
  8
1
  6
Continuous
 62
     2
100
AcDbLine
 10
58.09669984098177
 20
79.97552830360698
 30
0.0
 11
108.0966998409857
 21
79.97552830360698
 31
0.0
  0
LINE
  5
1AC
330
1AA
100
AcDbEntity
  8
1
  6
Continuous
 62
     2
100
AcDbLine
 10
108.0966998409857
 20
129.475528303606
 30
0.0
 11
108.0966998409857
 21
78.97552830360698
 31
0.0
  0
LINE
  5
1AD
330
1AA
100
AcDbEntity
  8
1
  6
Continuous
 62
     2
100
AcDbLine
 10
58.09669984098177
 20
86.97552830360698
 30
0.0
 11
58.09669984098177
 21
78.97552830360698
 31
0.0
  0
SOLID
  5
1AE
330
1AA
100
AcDbEntity
  8
1
 62
     2
100
AcDbTrace
 10
61.59669984098177
 20
80.43631204516286
 30
0.0
 11
61.59669984098177
 21
79.51474456205109
 31
0.0
 12
58.09669984098177
 22
79.97552830360698
 32
0.0
 13
58.09669984098177
 23
79.97552830360698
 33
0.0
  0
SOLID
  5
1AF
330
1AA
100
AcDbEntity
  8
1
 62
     2
100
AcDbTrace
 10
104.5966998409857
 20
79.51474456205109
 30
0.0
 11
104.5966998409857
 21
80.43631204516286
 31
0.0
 12
108.0966998409857
 22
79.97552830360698
 32
0.0
 13
108.0966998409857
 23
79.97552830360698
 33
0.0
  0
MTEXT
  5
1B0
330
1AA
100
AcDbEntity
  8
1
 62
     7
100
AcDbMText
 10
80.47169984098376
 20
80.97552830360698
 30
0.0
 40
3.5
 41
0.0
 71
     7
 72
     1
  1
50
  7
CONVERTER_12
 11
0.9999999999970619
 21
2.424068405545306E-6
 31
0.0
 73
     1
 44
0.60024009603842
  0
ENDBLK
  5
1B2
330
1AA
100
AcDbEntity
  8
0
100
AcDbBlockEnd
  0
BLOCK
  5
1BC
330
1B5
100
AcDbEntity
  8
0
100
AcDbBlockBegin
  2
*D7
 70
     1
 10
0.0
 20
0.0
 30
0.0
  3
*D7
  1

  0
LINE
  5
1B6
330
1B5
100
AcDbEntity
  8
1
  6
Continuous
 62
     2
100
AcDbLine
 10
41.99669984098175
 20
71.97552830360698
 30
0.0
 11
74.1966998409818
 21
71.97552830360698
 31
0.0
  0
LINE
  5
1B7
330
1B5
100
AcDbEntity
  8
1
  6
Continuous
 62
     2
100
AcDbLine
 10
74.1966998409818
 20
114.975528303607
 30
0.0
 11
74.1966998409818
 21
70.97552830360698
 31
0.0
  0
LINE
  5
1B8
330
1B5
100
AcDbEntity
  8
1
  6
Continuous
 62
     2
100
AcDbLine
 10
41.99669984098175
 20
114.975528303607
 30
0.0
 11
41.99669984098175
 21
70.97552830360698
 31
0.0
  0
SOLID
  5
1B9
330
1B5
100
AcDbEntity
  8
1
 62
     2
100
AcDbTrace
 10
45.49669984098175
 20
72.43631204516286
 30
0.0
 11
45.49669984098175
 21
71.51474456205109
 31
0.0
 12
41.99669984098175
 22
71.97552830360698
 32
0.0
 13
41.99669984098175
 23
71.97552830360698
 33
0.0
  0
SOLID
  5
1BA
330
1B5
100
AcDbEntity
  8
1
 62
     2
100
AcDbTrace
 10
70.6966998409818
 20
71.51474456205109
 30
0.0
 11
70.6966998409818
 21
72.43631204516286
 31
0.0
 12
74.1966998409818
 22
71.97552830360698
 32
0.0
 13
74.1966998409818
 23
71.97552830360698
 33
0.0
  0
MTEXT
  5
1BB
330
1B5
100
AcDbEntity
  8
1
 62
     7
100
AcDbMText
 10
54.7016998409902
 20
72.97552134653066
 30
0.0
 40
3.5
 41
0.0
 71
     7
 72
     1
  1
\C7;{\Fgdt;n}\C7;32
  7
CONVERTER_12
 11
0.9999999999970619
 21
2.424068405545306E-6
 31
0.0
 73
     1
 44
0.60024009603842
  0
ENDBLK
  5
1BD
330
1B5
100
AcDbEntity
  8
0
100
AcDbBlockEnd
  0
BLOCK
  5
1C7
330
1C0
100
AcDbEntity
  8
0
100
AcDbBlockBegin
  2
*D8
 70
     1
 10
0.0
 20
0.0
 30
0.0
  3
*D8
  1

  0
LINE
  5
1C1
330
1C0
100
AcDbEntity
  8
1
  6
Continuous
 62
     2
100
AcDbLine
 10
32.59669984098177
 20
129.975528303607
 30
0.0
 11
32.59669984098177
 21
89.975528303607
 31
0.0
  0
LINE
  5
1C2
330
1C0
100
AcDbEntity
  8
1
  6
Continuous
 62
     2
100
AcDbLine
 10
42.43307646418673
 20
89.975528303607
 30
0.0
 11
31.59669984098177
 21
89.975528303607
 31
0.0
  0
LINE
  5
1C3
330
1C0
100
AcDbEntity
  8
1
  6
Continuous
 62
     2
100
AcDbLine
 10
37.59669984098177
 20
129.975528303607
 30
0.0
 11
31.59669984098177
 21
129.975528303607
 31
0.0
  0
SOLID
  5
1C4
330
1C0
100
AcDbEntity
  8
1
 62
     2
100
AcDbTrace
 10
33.05748358253766
 20
126.475528303607
 30
0.0
 11
32.13591609942588
 21
126.475528303607
 31
0.0
 12
32.59669984098177
 22
129.975528303607
 32
0.0
 13
32.59669984098177
 23
129.975528303607
 33
0.0
  0
SOLID
  5
1C5
330
1C0
100
AcDbEntity
  8
1
 62
     2
100
AcDbTrace
 10
32.13591609942588
 20
93.475528303607
 30
0.0
 11
33.05748358253766
 21
93.475528303607
 31
0.0
 12
32.59669984098177
 22
89.975528303607
 32
0.0
 13
32.59669984098177
 23
89.975528303607
 33
0.0
  0
MTEXT
  5
1C6
330
1C0
100
AcDbEntity
  8
1
 62
     7
100
AcDbMText
 10
31.59669984098177
 20
107.350528303607
 30
0.0
 40
3.5
 41
0.0
 71
     7
 72
     1
  1
40
  7
CONVERTER_12
 11
0.0
 21
1.0
 31
0.0
 73
     1
 44
0.60024009603842
  0
ENDBLK
  5
1C8
330
1C0
100
AcDbEntity
  8
0
100
AcDbBlockEnd
  0
ENDSEC
  0
SECTION
  2
ENTITIES
  0
INSERT
  5
4D
330
1F
100
AcDbEntity
  8
1
100
AcDbBlockReference
  2
開示A4
 10
0.0
 20
0.0
 30
0.0
  0
POINT
  5
A7
330
1F
100
AcDbEntity
  8
寸法線_1
 62
     7
100
AcDbPoint
 10
37.59669984098177
 20
129.975528303607
 30
0.0
  0
POINT
  5
A8
330
1F
100
AcDbEntity
  8
寸法線_1
 62
     7
100
AcDbPoint
 10
42.43307646418673
 20
89.97552830360698
 30
0.0
  0
POINT
  5
A9
330
1F
100
AcDbEntity
  8
寸法線_1
 62
     7
100
AcDbPoint
 10
108.0966998409858
 20
129.475528303606
 30
0.0
  0
POINT
  5
AA
330
1F
100
AcDbEntity
  8
寸法線_1
 62
     7
100
AcDbPoint
 10
73.76032321777579
 20
89.97552830360698
 30
0.0
  0
POINT
  5
AB
330
1F
100
AcDbEntity
  8
寸法線_1
 62
     7
100
AcDbPoint
 10
41.99669984098175
 20
114.975528303607
 30
0.0
  0
POINT
  5
AC
330
1F
100
AcDbEntity
  8
寸法線_1
 62
     7
100
AcDbPoint
 10
74.1966998409818
 20
114.975528303607
 30
0.0
  0
POINT
  5
AD
330
1F
100
AcDbEntity
  8
寸法線_1
 62
     7
100
AcDbPoint
 10
73.76032321777579
 20
89.97552830360698
 30
0.0
  0
POINT
  5
AE
330
1F
100
AcDbEntity
  8
寸法線_1
 62
     7
100
AcDbPoint
 10
74.4466998409818
 20
179.975528303607
 30
0.0
  0
POINT
  5
AF
330
1F
100
AcDbEntity
  8
寸法線_1
 62
     7
100
AcDbPoint
 10
108.0966998409858
 20
129.475528303606
 30
0.0
  0
POINT
  5
B0
330
1F
100
AcDbEntity
  8
寸法線_1
 62
     7
100
AcDbPoint
 10
108.0966998409858
 20
168.475528303607
 30
0.0
  0
POINT
  5
B1
330
1F
100
AcDbEntity
  8
寸法線_1
 62
     7
100
AcDbPoint
 10
108.0966998409858
 20
132.757356608838
 30
0.0
  0
POINT
  5
B2
330
1F
100
AcDbEntity
  8
寸法線_1
 62
     7
100
AcDbPoint
 10
108.0966998409858
 20
165.193699998376
 30
0.0
  0
LINE
  5
B3
330
1F
100
AcDbEntity
  8
1
  6
DASH_CENTER
 62
     2
100
AcDbLine
 10
58.09669984098177
 20
220.4127841629818
 30
0.0
 11
58.09669984098177
 21
267.4127841629822
 31
0.0
  0
LINE
  5
B4
330
1F
100
AcDbEntity
  8
1
  6
DASH_CENTER
 62
     2
100
AcDbLine
 10
111.0966998409858
 20
243.912784162982
 30
0.0
 11
34.59669984098154
 21
243.912784162982
 31
0.0
  0
LINE
  5
B5
330
1F
100
AcDbEntity
  8
1
  6
DASH_CENTER
 62
     2
100
AcDbLine
 10
111.0966998409858
 20
148.975528303607
 30
0.0
 11
37.59669984098143
 21
148.975528303607
 31
0.0
  0
LINE
  5
B6
330
1F
100
AcDbEntity
  8
1
  6
DASH_CENTER
 62
     2
100
AcDbLine
 10
58.09669984098177
 20
86.97552830360698
 30
0.0
 11
58.09669984098177
 21
169.475528303607
 31
0.0
  0
LINE
  5
B7
330
1F
100
AcDbEntity
  8
____1
  6
Continuous
 62
     7
100
AcDbLine
 10
152.498033850035
 20
170.825528303607
 30
0.0
 11
145.998033850035
 21
170.825528303607
 31
0.0
  0
LINE
  5
B8
330
1F
100
AcDbEntity
  8
____1
  6
Continuous
 62
     7
100
AcDbLine
 10
169.2914494197651
 20
168.175528303607
 30
0.0
 11
152.498033850035
 21
168.175528303607
 31
0.0
  0
LINE
  5
B9
330
1F
100
AcDbEntity
  8
____1
  6
Continuous
 62
     7
100
AcDbLine
 10
144.998033850035
 20
169.825528303607
 30
0.0
 11
144.998033850035
 21
164.997730634653
 31
0.0
  0
LINE
  5
BA
330
1F
100
AcDbEntity
  8
____1
  6
Continuous
 62
     7
100
AcDbLine
 10
165.1987944272451
 20
166.975528303607
 30
0.0
 11
152.498033850035
 21
166.975528303607
 31
0.0
  0
LINE
  5
BB
330
1F
100
AcDbEntity
  8
____1
  6
Continuous
 62
     7
100
AcDbLine
 10
126.248033850035
 20
168.175528303607
 30
0.0
 11
126.248033850035
 21
166.975528303607
 31
0.0
  0
LINE
  5
BC
330
1F
100
AcDbEntity
  8
____1
  6
Continuous
 62
     7
100
AcDbLine
 10
144.998033850035
 20
168.175528303607
 30
0.0
 11
126.248033850035
 21
168.175528303607
 31
0.0
  0
LINE
  5
BD
330
1F
100
AcDbEntity
  8
____1
  6
Continuous
 62
     7
100
AcDbLine
 10
144.998033850035
 20
166.975528303607
 30
0.0
 11
126.248033850035
 21
166.975528303607
 31
0.0
  0
LINE
  5
BE
330
1F
100
AcDbEntity
  8
____1
  6
Continuous
 62
     7
100
AcDbLine
 10
188.798794427245
 20
114.975528303607
 30
0.0
 11
188.362417804045
 21
89.97552830360698
 31
0.0
  0
LINE
  5
BF
330
1F
100
AcDbEntity
  8
____1
  6
Continuous
 62
     7
100
AcDbLine
 10
156.598794427245
 20
114.975528303607
 30
0.0
 11
157.035171050455
 21
89.97552830360698
 31
0.0
  0
LINE
  5
C0
330
1F
100
AcDbEntity
  8
____1
  6
Continuous
 62
     7
100
AcDbLine
 10
167.6987944272451
 20
179.975528303607
 30
0.0
 11
177.6987944272451
 21
179.975528303607
 31
0.0
  0
LINE
  5
C1
330
1F
100
AcDbEntity
  8
____1
  6
Continuous
 62
     7
100
AcDbLine
 10
177.6987944272451
 20
179.975528303607
 30
0.0
 11
177.6987944272451
 21
167.823605128577
 31
0.0
  0
LINE
  5
C2
330
1F
100
AcDbEntity
  8
____1
  6
Continuous
 62
     7
100
AcDbLine
 10
167.6987944272451
 20
179.975528303607
 30
0.0
 11
167.6987944272451
 21
167.823605128577
 31
0.0
  0
LINE
  5
C3
330
1F
100
AcDbEntity
  8
____1
  6
Continuous
 62
     7
100
AcDbLine
 10
173.9487944272451
 20
177.881341402856
 30
0.0
 11
173.9487944272451
 21
168.435422959025
 31
0.0
  0
LINE
  5
C4
330
1F
100
AcDbEntity
  8
____1
  6
Continuous
 62
     7
100
AcDbLine
 10
171.4487944272451
 20
177.881341402856
 30
0.0
 11
171.4487944272451
 21
168.435422959025
 31
0.0
  0
LINE
  5
C5
330
1F
100
AcDbEntity
  8
____1
  6
Continuous
 62
     7
100
AcDbLine
 10
188.798794427245
 20
129.975528303607
 30
0.0
 11
188.798794427245
 21
114.975528303607
 31
0.0
  0
LINE
  5
C6
330
1F
100
AcDbEntity
  8
____1
  6
Continuous
 62
     7
100
AcDbLine
 10
156.598794427245
 20
129.975528303607
 30
0.0
 11
156.598794427245
 21
114.975528303607
 31
0.0
  0
LINE
  5
C7
330
1F
100
AcDbEntity
  8
____1
  6
Continuous
 62
     7
100
AcDbLine
 10
156.598794427245
 20
114.975528303607
 30
0.0
 11
188.798794427245
 21
114.975528303607
 31
0.0
  0
LINE
  5
C8
330
1F
100
AcDbEntity
  8
____1
  6
Continuous
 62
     7
100
AcDbLine
 10
157.035171050455
 20
89.97552830360698
 30
0.0
 11
188.362417804045
 21
89.97552830360698
 31
0.0
  0
LINE
  5
C9
330
1F
100
AcDbEntity
  8
____1
  6
Continuous
 62
     7
100
AcDbLine
 10
190.1987944272451
 20
140.373203036564
 30
0.0
 11
190.1987944272451
 21
131.475528303607
 31
0.0
  0
LINE
  5
CA
330
1F
100
AcDbEntity
  8
____1
  6
Continuous
 62
     7
100
AcDbLine
 10
152.1987944272451
 20
131.475528303607
 30
0.0
 11
164.0964691602051
 21
131.475528303607
 31
0.0
  0
LINE
  5
CB
330
1F
100
AcDbEntity
  8
____1
  6
Continuous
 62
     7
100
AcDbLine
 10
181.3011196942951
 20
131.475528303607
 30
0.0
 11
193.1987944272451
 21
131.475528303607
 31
0.0
  0
LINE
  5
CC
330
1F
100
AcDbEntity
  8
____1
  6
Continuous
 62
     7
100
AcDbLine
 10
152.1987944272451
 20
129.975528303607
 30
0.0
 11
152.1987944272451
 21
131.475528303607
 31
0.0
  0
LINE
  5
CD
330
1F
100
AcDbEntity
  8
____1
  6
Continuous
 62
     7
100
AcDbLine
 10
193.1987944272451
 20
131.475528303607
 30
0.0
 11
193.1987944272451
 21
129.975528303607
 31
0.0
  0
LINE
  5
CE
330
1F
100
AcDbEntity
  8
____1
  6
Continuous
 62
     7
100
AcDbLine
 10
152.1987944272451
 20
129.975528303607
 30
0.0
 11
168.3113122335549
 21
129.975528303607
 31
0.0
  0
LINE
  5
CF
330
1F
100
AcDbEntity
  8
____1
  6
Continuous
 62
     7
100
AcDbLine
 10
177.0862766209451
 20
129.975528303607
 30
0.0
 11
193.1987944272451
 21
129.975528303607
 31
0.0
  0
LINE
  5
D0
330
1F
100
AcDbEntity
  8
____1
  6
Continuous
 62
     7
100
AcDbLine
 10
155.1987944272451
 20
140.373203036564
 30
0.0
 11
155.1987944272451
 21
131.475528303607
 31
0.0
  0
LINE
  5
D1
330
1F
100
AcDbEntity
  8
____1
  6
Continuous
 62
     7
100
AcDbLine
 10
108.0966998409858
 20
224.412784162982
 30
0.0
 11
105.0966998409858
 21
224.412784162982
 31
0.0
  0
LINE
  5
D2
330
1F
100
AcDbEntity
  8
____1
  6
Continuous
 62
     7
100
AcDbLine
 10
91.09669984098177
 20
225.912784162982
 30
0.0
 11
81.89669984098173
 21
225.912784162982
 31
0.0
  0
LINE
  5
D3
330
1F
100
AcDbEntity
  8
____1
  6
Continuous
 62
     7
100
AcDbLine
 10
88.9083268119487
 20
245.162784162982
 30
0.0
 11
88.9083268119487
 21
242.662784162982
 31
0.0
  0
LINE
  5
D4
330
1F
100
AcDbEntity
  8
____1
  6
Continuous
 62
     7
100
AcDbLine
 10
58.09669984098177
 20
226.412784162982
 30
0.0
 11
81.59669984098177
 21
226.412784162982
 31
0.0
  0
LINE
  5
D5
330
1F
100
AcDbEntity
  8
____1
  6
Continuous
 62
     7
100
AcDbLine
 10
81.59669984098177
 20
227.912784162982
 30
0.0
 11
81.59669984098177
 21
226.912784162982
 31
0.0
  0
LINE
  5
D6
330
1F
100
AcDbEntity
  8
____1
  6
Continuous
 62
     7
100
AcDbLine
 10
94.09669984098575
 20
224.412784162982
 30
0.0
 11
91.09669984098177
 21
224.412784162982
 31
0.0
  0
LINE
  5
D7
330
1F
100
AcDbEntity
  8
____1
  6
Continuous
 62
     7
100
AcDbLine
 10
83.59669984098177
 20
238.912784162982
 30
0.0
 11
59.44669984098179
 21
238.912784162982
 31
0.0
  0
LINE
  5
D8
330
1F
100
AcDbEntity
  8
____1
  6
DASHED2
 62
     7
100
AcDbLine
 10
103.3466998409858
 20
225.912784162982
 30
0.0
 11
95.84669984098575
 21
225.912784162982
 31
0.0
  0
LINE
  5
D9
330
1F
100
AcDbEntity
  8
____1
  6
Continuous
 62
     7
100
AcDbLine
 10
95.84669984098575
 20
225.912784162982
 30
0.0
 11
94.09669984098575
 21
225.912784162982
 31
0.0
  0
LINE
  5
DA
330
1F
100
AcDbEntity
  8
____1
  6
Continuous
 62
     7
100
AcDbLine
 10
105.0966998409858
 20
225.912784162982
 30
0.0
 11
103.3466998409858
 21
225.912784162982
 31
0.0
  0
LINE
  5
DB
330
1F
100
AcDbEntity
  8
____1
  6
Continuous
 62
     7
100
AcDbLine
 10
81.59669984098177
 20
261.6127841629821
 30
0.0
 11
81.59669984098177
 21
248.912784162982
 31
0.0
  0
LINE
  5
DC
330
1F
100
AcDbEntity
  8
____1
  6
Continuous
 62
     7
100
AcDbLine
 10
108.0966998409858
 20
263.412784162982
 30
0.0
 11
108.0966998409858
 21
224.412784162982
 31
0.0
  0
LINE
  5
DD
330
1F
100
AcDbEntity
  8
____1
  6
Continuous
 62
     7
100
AcDbLine
 10
105.0966998409858
 20
263.412784162982
 30
0.0
 11
105.0966998409858
 21
224.412784162982
 31
0.0
  0
LINE
  5
DE
330
1F
100
AcDbEntity
  8
____1
  6
Continuous
 62
     7
100
AcDbLine
 10
91.09669984098177
 20
263.412784162982
 30
0.0
 11
91.09669984098177
 21
224.412784162982
 31
0.0
  0
LINE
  5
DF
330
1F
100
AcDbEntity
  8
____1
  6
Continuous
 62
     7
100
AcDbLine
 10
94.09669984098575
 20
263.412784162982
 30
0.0
 11
94.09669984098575
 21
224.412784162982
 31
0.0
  0
LINE
  5
E0
330
1F
100
AcDbEntity
  8
____1
  6
Continuous
 62
     7
100
AcDbLine
 10
59.44669984098179
 20
248.912784162982
 30
0.0
 11
59.44669984098179
 21
238.912784162982
 31
0.0
  0
LINE
  5
E1
330
1F
100
AcDbEntity
  8
____1
  6
Continuous
 62
     7
100
AcDbLine
 10
72.02169962869975
 20
177.0257513894
 30
0.0
 11
63.09669984098177
 21
171.872900359444
 31
0.0
  0
LINE
  5
E2
330
1F
100
AcDbEntity
  8
____1
  6
Continuous
 62
     7
100
AcDbLine
 10
70.87169962869977
 20
179.017609818104
 30
0.0
 11
61.94669984098179
 21
173.864758788148
 31
0.0
  0
LINE
  5
E3
330
1F
100
AcDbEntity
  8
____1
  6
Continuous
 62
     7
100
AcDbLine
 10
58.09669905055868
 20
166.475528303607
 30
0.0
 11
58.74233780449178
 21
166.475528303607
 31
0.0
  0
LINE
  5
E4
330
1F
100
AcDbEntity
  8
____1
  6
Continuous
 62
     7
100
AcDbLine
 10
78.2966998409817
 20
165.746038134855
 30
0.0
 11
81.59669984098177
 21
165.746038134855
 31
0.0
  0
LINE
  5
E5
330
1F
100
AcDbEntity
  8
____1
  6
Continuous
 62
     7
100
AcDbLine
 10
88.09669984098177
 20
166.932073071462
 30
0.0
 11
83.59669978459674
 21
166.932073071462
 31
0.0
  0
LINE
  5
E6
330
1F
100
AcDbEntity
  8
____1
  6
Continuous
 62
     7
100
AcDbLine
 10
94.09669984098575
 20
169.325528303607
 30
0.0
 11
94.09669984098575
 21
164.325528303607
 31
0.0
  0
LINE
  5
E7
330
1F
100
AcDbEntity
  8
____1
  6
Continuous
 62
     7
100
AcDbLine
 10
103.5966998409858
 20
170.825528303607
 30
0.0
 11
95.59669984098575
 21
170.825528303607
 31
0.0
  0
LINE
  5
E8
330
1F
100
AcDbEntity
  8
____1
  6
Continuous
 62
     7
100
AcDbLine
 10
95.84669984098575
 20
168.175528303606
 30
0.0
 11
95.84669984098575
 21
166.975528303607
 31
0.0
  0
LINE
  5
E9
330
1F
100
AcDbEntity
  8
____1
  6
Continuous
 62
     7
100
AcDbLine
 10
103.3466998409858
 20
168.175528303606
 30
0.0
 11
103.3466998409858
 21
166.975528303607
 31
0.0
  0
LINE
  5
EA
330
1F
100
AcDbEntity
  8
____1
  6
Continuous
 62
     7
100
AcDbLine
 10
103.3466998409858
 20
168.175528303606
 30
0.0
 11
95.84669984098575
 21
168.175528303606
 31
0.0
  0
LINE
  5
EB
330
1F
100
AcDbEntity
  8
____1
  6
Continuous
 62
     7
100
AcDbLine
 10
97.84669984098575
 20
166.975528303607
 30
0.0
 11
95.84669984098575
 21
166.975528303607
 31
0.0
  0
LINE
  5
EC
330
1F
100
AcDbEntity
  8
____1
  6
Continuous
 62
     7
100
AcDbLine
 10
103.3466998409858
 20
166.975528303607
 30
0.0
 11
101.3466998409858
 21
166.975528303607
 31
0.0
  0
LINE
  5
ED
330
1F
100
AcDbEntity
  8
____1
  6
Continuous
 62
     7
100
AcDbLine
 10
102.3466998409858
 20
166.675528303606
 30
0.0
 11
101.3466998409858
 21
166.675528303606
 31
0.0
  0
LINE
  5
EE
330
1F
100
AcDbEntity
  8
____1
  6
Continuous
 62
     7
100
AcDbLine
 10
102.3466998409858
 20
165.175528303607
 30
0.0
 11
101.3466998409858
 21
165.175528303607
 31
0.0
  0
LINE
  5
EF
330
1F
100
AcDbEntity
  8
____1
  6
Continuous
 62
     7
100
AcDbLine
 10
102.3466998409858
 20
164.325528303607
 30
0.0
 11
103.5966998409858
 21
164.325528303607
 31
0.0
  0
LINE
  5
F0
330
1F
100
AcDbEntity
  8
____1
  6
Continuous
 62
     7
100
AcDbLine
 10
95.59669984098575
 20
164.325528303607
 30
0.0
 11
96.84669984098575
 21
164.325528303607
 31
0.0
  0
LINE
  5
F1
330
1F
100
AcDbEntity
  8
____1
  6
Continuous
 62
     7
100
AcDbLine
 10
97.84669984098575
 20
165.175528303607
 30
0.0
 11
96.84669984098575
 21
165.175528303607
 31
0.0
  0
LINE
  5
F2
330
1F
100
AcDbEntity
  8
____1
  6
Continuous
 62
     7
100
AcDbLine
 10
97.84669984098575
 20
166.675528303606
 30
0.0
 11
96.84669984098575
 21
166.675528303606
 31
0.0
  0
LINE
  5
F3
330
1F
100
AcDbEntity
  8
____1
  6
Continuous
 62
     7
100
AcDbLine
 10
101.3466998409858
 20
167.475528303607
 30
0.0
 11
97.84669984098575
 21
167.475528303607
 31
0.0
  0
LINE
  5
F4
330
1F
100
AcDbEntity
  8
____1
  6
Continuous
 62
     7
100
AcDbLine
 10
105.0966998409858
 20
164.325528303607
 30
0.0
 11
105.0966998409858
 21
169.325528303607
 31
0.0
  0
LINE
  5
F5
330
1F
100
AcDbEntity
  8
____1
  6
Continuous
 62
     7
100
AcDbLine
 10
88.9083268119487
 20
245.162784162982
 30
0.0
 11
79.50251371269978
 21
245.162784162982
 31
0.0
  0
LINE
  5
F6
330
1F
100
AcDbEntity
  8
____1
  6
Continuous
 62
     7
100
AcDbLine
 10
88.9083268119487
 20
242.662784162982
 30
0.0
 11
79.50251371269978
 21
242.662784162982
 31
0.0
  0
LINE
  5
F7
330
1F
100
AcDbEntity
  8
____1
  6
Continuous
 62
     7
100
AcDbLine
 10
94.09669984098575
 20
223.712023601806
 30
0.0
 11
94.09669984098575
 21
217.212023601806
 31
0.0
  0
LINE
  5
F8
330
1F
100
AcDbEntity
  8
____1
  6
Continuous
 62
     7
100
AcDbLine
 10
81.59669984098177
 20
260.912784162982
 30
0.0
 11
81.59669984098177
 21
259.912784162982
 31
0.0
  0
LINE
  5
F9
330
1F
100
AcDbEntity
  8
____1
  6
Continuous
 62
     7
100
AcDbLine
 10
94.09669984098575
 20
263.412784162982
 30
0.0
 11
91.09669984098177
 21
263.412784162982
 31
0.0
  0
LINE
  5
FA
330
1F
100
AcDbEntity
  8
____1
  6
Continuous
 62
     7
100
AcDbLine
 10
58.09669984098177
 20
261.412784162982
 30
0.0
 11
81.59669984098177
 21
261.412784162982
 31
0.0
  0
LINE
  5
FB
330
1F
100
AcDbEntity
  8
____1
  6
Continuous
 62
     7
100
AcDbLine
 10
108.0966998409858
 20
263.412784162982
 30
0.0
 11
105.0966998409858
 21
263.412784162982
 31
0.0
  0
LINE
  5
FC
330
1F
100
AcDbEntity
  8
____1
  6
Continuous
 62
     7
100
AcDbLine
 10
91.09669984098177
 20
261.912784162982
 30
0.0
 11
81.89669984098173
 21
261.912784162982
 31
0.0
  0
LINE
  5
FD
330
1F
100
AcDbEntity
  8
____1
  6
DASHED2
 62
     7
100
AcDbLine
 10
103.3466998409858
 20
261.912784162982
 30
0.0
 11
95.84669984098575
 21
261.912784162982
 31
0.0
  0
LINE
  5
FE
330
1F
100
AcDbEntity
  8
____1
  6
Continuous
 62
     7
100
AcDbLine
 10
95.84669984098575
 20
261.912784162982
 30
0.0
 11
94.09669984098575
 21
261.912784162982
 31
0.0
  0
LINE
  5
FF
330
1F
100
AcDbEntity
  8
____1
  6
Continuous
 62
     7
100
AcDbLine
 10
105.0966998409858
 20
261.912784162982
 30
0.0
 11
103.3466998409858
 21
261.912784162982
 31
0.0
  0
LINE
  5
100
330
1F
100
AcDbEntity
  8
____1
  6
Continuous
 62
     7
100
AcDbLine
 10
79.2966998409817
 20
172.825528072253
 30
0.0
 11
79.2966998409817
 21
166.746038134855
 31
0.0
  0
LINE
  5
101
330
1F
100
AcDbEntity
  8
____1
  6
Continuous
 62
     7
100
AcDbLine
 10
82.06970052686977
 20
166.975528303607
 30
0.0
 11
81.89669984098173
 21
166.975528303606
 31
0.0
  0
LINE
  5
102
330
1F
100
AcDbEntity
  8
____1
  6
Continuous
 62
     7
100
AcDbLine
 10
91.09669984098177
 20
166.975528303607
 30
0.0
 11
88.09669984098177
 21
166.975528303607
 31
0.0
  0
LINE
  5
103
330
1F
100
AcDbEntity
  8
____1
  6
Continuous
 62
     7
100
AcDbLine
 10
81.59669984098177
 20
172.825528072253
 30
0.0
 11
81.59669984098177
 21
168.2671447693971
 31
0.0
  0
LINE
  5
104
330
1F
100
AcDbEntity
  8
____1
  6
Continuous
 62
     7
100
AcDbLine
 10
88.09669984098177
 20
168.872941712201
 30
0.0
 11
88.09669984098177
 21
166.932073071462
 31
0.0
  0
LINE
  5
105
330
1F
100
AcDbEntity
  8
____1
  6
Continuous
 62
     7
100
AcDbLine
 10
79.50251371269978
 20
177.881341402856
 30
0.0
 11
87.80380662216776
 21
169.580048493388
 31
0.0
  0
LINE
  5
106
330
1F
100
AcDbEntity
  8
____1
  6
Continuous
 62
     7
100
AcDbLine
 10
108.0966998409858
 20
168.475528303607
 30
0.0
 11
105.0966998409858
 21
168.475528303607
 31
0.0
  0
LINE
  5
107
330
1F
100
AcDbEntity
  8
____1
  6
Continuous
 62
     7
100
AcDbLine
 10
62.74669984098175
 20
166.4308283583181
 30
0.0
 11
78.2966998409817
 21
166.4308283583181
 31
0.0
  0
LINE
  5
108
330
1F
100
AcDbEntity
  8
____1
  6
Continuous
 62
     7
100
AcDbLine
 10
94.09669984098575
 20
168.475528303607
 30
0.0
 11
91.09669984098177
 21
168.475528303607
 31
0.0
  0
LINE
  5
109
330
1F
100
AcDbEntity
  8
____1
  6
Continuous
 62
     7
100
AcDbLine
 10
58.44669984098179
 20
165.746038134855
 30
0.0
 11
62.74669984098175
 21
165.746038134855
 31
0.0
  0
LINE
  5
10A
330
1F
100
AcDbEntity
  8
____1
  6
Continuous
 62
     7
100
AcDbLine
 10
59.44669984098179
 20
169.534631769226
 30
0.0
 11
59.44669984098179
 21
166.746038134855
 31
0.0
  0
LINE
  5
10B
330
1F
100
AcDbEntity
  8
____1
  6
Continuous
 62
     7
100
AcDbLine
 10
61.74669984098175
 20
169.534631769226
 30
0.0
 11
61.74669984098175
 21
166.746038134855
 31
0.0
  0
LINE
  5
10C
330
1F
100
AcDbEntity
  8
____1
  6
Continuous
 62
     7
100
AcDbLine
 10
103.3466998409858
 20
263.1127841629821
 30
0.0
 11
103.3466998409858
 21
223.712023601806
 31
0.0
  0
LINE
  5
10D
330
1F
100
AcDbEntity
  8
____1
  6
Continuous
 62
     7
100
AcDbLine
 10
95.84669984098575
 20
223.712023601806
 30
0.0
 11
95.84669984098575
 21
263.1127841629821
 31
0.0
  0
LINE
  5
10E
330
1F
100
AcDbEntity
  8
____1
  6
Continuous
 62
     7
100
AcDbLine
 10
105.0966998409858
 20
223.712023601806
 30
0.0
 11
94.09669984098575
 21
223.712023601806
 31
0.0
  0
LINE
  5
10F
330
1F
100
AcDbEntity
  8
____1
  6
Continuous
 62
     7
100
AcDbLine
 10
103.3466998409858
 20
263.1127841629821
 30
0.0
 11
95.84669984098575
 21
263.1127841629821
 31
0.0
  0
LINE
  5
110
330
1F
100
AcDbEntity
  8
____1
  6
Continuous
 62
     7
100
AcDbLine
 10
95.09669984098575
 20
216.212023601806
 30
0.0
 11
104.0966998409858
 21
216.212023601806
 31
0.0
  0
LINE
  5
111
330
1F
100
AcDbEntity
  8
____1
  6
Continuous
 62
     7
100
AcDbLine
 10
95.84669984098575
 20
216.212023601806
 30
0.0
 11
95.84669984098575
 21
201.212023601806
 31
0.0
  0
LINE
  5
112
330
1F
100
AcDbEntity
  8
____1
  6
Continuous
 62
     7
100
AcDbLine
 10
103.3466998409858
 20
216.212023601806
 30
0.0
 11
103.3466998409858
 21
201.212023601806
 31
0.0
  0
LINE
  5
113
330
1F
100
AcDbEntity
  8
____1
  6
Continuous
 62
     7
100
AcDbLine
 10
105.0966998409858
 20
217.212023601806
 30
0.0
 11
105.0966998409858
 21
223.712023601806
 31
0.0
  0
LINE
  5
114
330
1F
100
AcDbEntity
  8
____1
  6
Continuous
 62
     7
100
AcDbLine
 10
41.99669984098175
 20
114.975528303607
 30
0.0
 11
42.43307646418673
 21
89.97552830360698
 31
0.0
  0
LINE
  5
115
330
1F
100
AcDbEntity
  8
____1
  6
Continuous
 62
     7
100
AcDbLine
 10
42.43307646418673
 20
89.97552830360698
 30
0.0
 11
73.76032321777579
 21
89.97552830360698
 31
0.0
  0
LINE
  5
116
330
1F
100
AcDbEntity
  8
____1
  6
Continuous
 62
     7
100
AcDbLine
 10
40.59669984098177
 20
148.97552498317
 30
0.0
 11
40.59669984098177
 21
131.475528303607
 31
0.0
  0
LINE
  5
117
330
1F
100
AcDbEntity
  8
____1
  6
Continuous
 62
     7
100
AcDbLine
 10
75.59669984098177
 20
131.475528303607
 30
0.0
 11
58.09669984098177
 21
148.975528303607
 31
0.0
  0
LINE
  5
118
330
1F
100
AcDbEntity
  8
____1
  6
Continuous
 62
     7
100
AcDbLine
 10
95.84669984098575
 20
152.325528303607
 30
0.0
 11
95.84669984098575
 21
129.775528303606
 31
0.0
  0
LINE
  5
119
330
1F
100
AcDbEntity
  8
____1
  6
Continuous
 62
     7
100
AcDbLine
 10
103.3466998409858
 20
152.325528303607
 30
0.0
 11
103.3466998409858
 21
129.775528303606
 31
0.0
  0
LINE
  5
11A
330
1F
100
AcDbEntity
  8
____1
  6
Continuous
 62
     7
100
AcDbLine
 10
98.86627400898571
 20
155.825528303607
 30
0.0
 11
100.3271256729758
 21
155.825528303607
 31
0.0
  0
LINE
  5
11B
330
1F
100
AcDbEntity
  8
____1
  6
Continuous
 62
     7
100
AcDbLine
 10
98.2009809895457
 20
154.325528303607
 30
0.0
 11
100.9924186924257
 21
154.325528303607
 31
0.0
  0
LINE
  5
11C
330
1F
100
AcDbEntity
  8
____1
  6
Continuous
 62
     7
100
AcDbLine
 10
91.09669984098177
 20
130.975528303607
 30
0.0
 11
81.89669984098173
 21
130.975528303606
 31
0.0
  0
LINE
  5
11D
330
1F
100
AcDbEntity
  8
____1
  6
Continuous
 62
     7
100
AcDbLine
 10
78.59669984098177
 20
129.975528303607
 30
0.0
 11
78.59669984098177
 21
131.475528303607
 31
0.0
  0
LINE
  5
11E
330
1F
100
AcDbEntity
  8
____1
  6
Continuous
 62
     7
100
AcDbLine
 10
74.1966998409818
 20
129.975528303607
 30
0.0
 11
74.1966998409818
 21
114.975528303607
 31
0.0
  0
LINE
  5
11F
330
1F
100
AcDbEntity
  8
____1
  6
Continuous
 62
     7
100
AcDbLine
 10
94.09669984098575
 20
129.475528303606
 30
0.0
 11
91.09669984098177
 21
129.475528303606
 31
0.0
  0
LINE
  5
120
330
1F
100
AcDbEntity
  8
____1
  6
Continuous
 62
     7
100
AcDbLine
 10
108.0966998409858
 20
129.475528303606
 30
0.0
 11
105.0966998409858
 21
129.475528303606
 31
0.0
  0
LINE
  5
121
330
1F
100
AcDbEntity
  8
____1
  6
Continuous
 62
     7
100
AcDbLine
 10
74.1966998409818
 20
114.975528303607
 30
0.0
 11
73.76032321777579
 21
89.97552830360698
 31
0.0
  0
LINE
  5
122
330
1F
100
AcDbEntity
  8
____1
  6
Continuous
 62
     7
100
AcDbLine
 10
95.84669984098575
 20
129.775528303606
 30
0.0
 11
103.3466998409858
 21
129.775528303606
 31
0.0
  0
LINE
  5
123
330
1F
100
AcDbEntity
  8
____1
  6
Continuous
 62
     7
100
AcDbLine
 10
105.0966998409858
 20
130.975528303607
 30
0.0
 11
103.3466998409858
 21
130.975528303607
 31
0.0
  0
LINE
  5
124
330
1F
100
AcDbEntity
  8
____1
  6
Continuous
 62
     7
100
AcDbLine
 10
95.84669984098575
 20
130.975528303607
 30
0.0
 11
94.09669984098575
 21
130.975528303607
 31
0.0
  0
LINE
  5
125
330
1F
100
AcDbEntity
  8
____1
  6
Continuous
 62
     7
100
AcDbLine
 10
37.59669984098177
 20
129.975528303607
 30
0.0
 11
37.59669984098177
 21
131.475528303607
 31
0.0
  0
LINE
  5
126
330
1F
100
AcDbEntity
  8
____1
  6
Continuous
 62
     7
100
AcDbLine
 10
41.99669984098175
 20
129.975528303607
 30
0.0
 11
41.99669984098175
 21
114.975528303607
 31
0.0
  0
LINE
  5
127
330
1F
100
AcDbEntity
  8
____1
  6
Continuous
 62
     7
100
AcDbLine
 10
37.59669984098177
 20
129.975528303607
 30
0.0
 11
78.59669984098177
 21
129.975528303607
 31
0.0
  0
LINE
  5
128
330
1F
100
AcDbEntity
  8
____1
  6
Continuous
 62
     7
100
AcDbLine
 10
37.59669984098177
 20
131.475528303607
 30
0.0
 11
81.59669984098177
 21
131.475528303607
 31
0.0
  0
LINE
  5
129
330
1F
100
AcDbEntity
  8
____1
  6
Continuous
 62
     7
100
AcDbLine
 10
41.99669984098175
 20
114.975528303607
 30
0.0
 11
74.1966998409818
 21
114.975528303607
 31
0.0
  0
LINE
  5
12A
330
1F
100
AcDbEntity
  8
____1
  6
Continuous
 62
     7
100
AcDbLine
 10
105.0966998409858
 20
168.475528303607
 30
0.0
 11
105.0966998409858
 21
129.475528303606
 31
0.0
  0
LINE
  5
12B
330
1F
100
AcDbEntity
  8
____1
  6
Continuous
 62
     7
100
AcDbLine
 10
95.84669984098575
 20
152.325528303607
 30
0.0
 11
94.09669984098575
 21
164.325528303607
 31
0.0
  0
LINE
  5
12C
330
1F
100
AcDbEntity
  8
____1
  6
Continuous
 62
     7
100
AcDbLine
 10
105.0966998409858
 20
164.325528303607
 30
0.0
 11
103.3466998409858
 21
152.325528303607
 31
0.0
  0
LINE
  5
12D
330
1F
100
AcDbEntity
  8
____1
  6
Continuous
 62
     7
100
AcDbLine
 10
105.0966998409858
 20
168.475528303607
 30
0.0
 11
105.0966998409858
 21
148.975528303607
 31
0.0
  0
LINE
  5
12E
330
1F
100
AcDbEntity
  8
____1
  6
Continuous
 62
     7
100
AcDbLine
 10
94.09669984098575
 20
168.475528303607
 30
0.0
 11
94.09669984098575
 21
148.975528303607
 31
0.0
  0
LINE
  5
12F
330
1F
100
AcDbEntity
  8
____1
  6
Continuous
 62
     7
100
AcDbLine
 10
153.738441732935
 20
153.531296702803
 30
0.0
 11
152.6241453163951
 21
160.481063653461
 31
0.0
  0
LINE
  5
130
330
1F
100
AcDbEntity
  8
____1
  6
Continuous
 62
     7
100
AcDbLine
 10
145.6204867406751
 20
164.071740256617
 30
0.0
 11
152.498033850035
 21
161.267609574275
 31
0.0
  0
LINE
  5
131
330
1F
100
AcDbEntity
  8
____1
  6
Continuous
 62
     7
100
AcDbLine
 10
152.498033850035
 20
170.825528303607
 30
0.0
 11
152.498033850035
 21
162.064201431813
 31
0.0
  0
LINE
  5
132
330
1F
100
AcDbEntity
  8
____1
  6
Continuous
 62
     7
100
AcDbLine
 10
153.2014987821349
 20
149.300278249122
 30
0.0
 11
151.1977011749451
 21
161.797784459808
 31
0.0
  0
LINE
  5
133
330
1F
100
AcDbEntity
  8
____1
  6
Continuous
 62
     7
100
AcDbLine
 10
102.3466998409858
 20
166.975528303607
 30
0.0
 11
102.3466998409858
 21
162.985783984264
 31
0.0
  0
LINE
  5
134
330
1F
100
AcDbEntity
  8
____1
  6
Continuous
 62
     7
100
AcDbLine
 10
96.84669984098575
 20
166.975528303607
 30
0.0
 11
96.84669984098575
 21
162.985783984264
 31
0.0
  0
LINE
  5
135
330
1F
100
AcDbEntity
  8
____1
  6
Continuous
 62
     7
100
AcDbLine
 10
98.56798126281574
 20
156.093568366516
 30
0.0
 11
97.86377237922572
 21
162.666184613361
 31
0.0
  0
LINE
  5
136
330
1F
100
AcDbEntity
  8
____1
  6
Continuous
 62
     7
100
AcDbLine
 10
101.3296273027458
 20
162.666184613361
 30
0.0
 11
100.6254184191458
 21
156.093568366516
 31
0.0
  0
LINE
  5
137
330
1F
100
AcDbEntity
  8
____1
  6
Continuous
 62
     7
100
AcDbLine
 10
102.3239364566658
 20
162.559651489727
 30
0.0
 11
101.4895732693857
 21
154.772261741789
 31
0.0
  0
LINE
  5
138
330
1F
100
AcDbEntity
  8
____1
  6
Continuous
 62
     7
100
AcDbLine
 10
97.70382641258577
 20
154.772261741789
 30
0.0
 11
96.86946322530575
 21
162.559651489727
 31
0.0
  0
LINE
  5
139
330
1F
100
AcDbEntity
  8
____1
  6
Continuous
 62
     7
100
AcDbLine
 10
101.3466998409858
 20
167.475528303607
 30
0.0
 11
101.3466998409858
 21
162.985783984264
 31
0.0
  0
LINE
  5
13A
330
1F
100
AcDbEntity
  8
____1
  6
Continuous
 62
     7
100
AcDbLine
 10
97.84669984098575
 20
167.475528303607
 30
0.0
 11
97.84669984098575
 21
162.985783984264
 31
0.0
  0
LINE
  5
13B
330
1F
100
AcDbEntity
  8
____1
  6
Continuous
 62
     7
100
AcDbLine
 10
108.0966998409858
 20
168.475528303607
 30
0.0
 11
108.0966998409858
 21
165.193699998376
 31
0.0
  0
LINE
  5
13C
330
1F
100
AcDbEntity
  8
____1
  6
Continuous
 62
     7
100
AcDbLine
 10
91.09669984098177
 20
168.475528303607
 30
0.0
 11
91.09669984098177
 21
129.475528303606
 31
0.0
  0
LINE
  5
13D
330
1F
100
AcDbEntity
  8
____1
  6
Continuous
 62
     7
100
AcDbLine
 10
81.59669984098177
 20
166.675528303606
 30
0.0
 11
81.59669984098177
 21
131.275528303606
 31
0.0
  0
LINE
  5
13E
330
1F
100
AcDbEntity
  8
____1
  6
Continuous
 62
     7
100
AcDbLine
 10
94.09669984098575
 20
168.475528303607
 30
0.0
 11
94.09669984098575
 21
129.475528303606
 31
0.0
  0
LINE
  5
13F
330
1F
100
AcDbEntity
  8
1
  6
DASH_CENTER
 62
     2
100
AcDbLine
 10
150.1987944272451
 20
148.975528303607
 30
0.0
 11
195.1987944272451
 21
148.975528303607
 31
0.0
  0
LINE
  5
140
330
1F
100
AcDbEntity
  8
1
  6
DASH_CENTER
 62
     2
100
AcDbLine
 10
172.6987944272451
 20
86.97552830360698
 30
0.0
 11
172.6987944272451
 21
182.975528303607
 31
0.0
  0
LINE
  5
141
330
1F
100
AcDbEntity
  8
____1
  6
Continuous
 62
     7
100
AcDbLine
 10
83.59669984098177
 20
248.912784162982
 30
0.0
 11
59.44669984098179
 21
248.912784162982
 31
0.0
  0
LINE
  5
142
330
1F
100
AcDbEntity
  8
____1
  6
Continuous
 62
     7
100
AcDbLine
 10
108.0966998409858
 20
165.193699998376
 30
0.0
 11
108.0966998409858
 21
132.757356608838
 31
0.0
  0
LINE
  5
143
330
1F
100
AcDbEntity
  8
____1
  6
Continuous
 62
     7
100
AcDbLine
 10
108.0966998409858
 20
132.757356608838
 30
0.0
 11
108.0966998409858
 21
129.475528303606
 31
0.0
  0
LINE
  5
144
330
1F
100
AcDbEntity
  8
____1
  6
Continuous
 62
     7
100
AcDbLine
 10
81.59669984098177
 20
238.912784162982
 30
0.0
 11
81.59669984098177
 21
226.2127841629821
 31
0.0
  0
LINE
  5
145
330
1F
100
AcDbEntity
  8
1
  6
Continuous
 62
     7
100
AcDbLine
 10
147.0
 20
267.0000000000003
 30
0.0
 11
187.9999999999999
 21
267.0000000000003
 31
0.0
  0
LINE
  5
146
330
1F
100
AcDbEntity
  8
1
  6
Continuous
 62
     7
100
AcDbLine
 10
147.0
 20
275.0000000000003
 30
0.0
 11
188.0
 21
275.0000000000003
 31
0.0
  0
LINE
  5
147
330
1F
100
AcDbEntity
  8
1
  6
Continuous
 62
     7
100
AcDbLine
 10
147.0
 20
255.0000000000003
 30
0.0
 11
187.9999999999999
 21
255.0000000000003
 31
0.0
  0
LINE
  5
148
330
1F
100
AcDbEntity
  8
1
  6
Continuous
 62
     2
100
AcDbLine
 10
147.0
 20
261.0000000000003
 30
0.0
 11
187.9999999999999
 21
261.0000000000003
 31
0.0
  0
LINE
  5
149
330
1F
100
AcDbEntity
  8
1
  6
Continuous
 62
     7
100
AcDbLine
 10
188.0
 20
275.0000000000003
 30
0.0
 11
187.9999999999999
 21
255.0000000000003
 31
0.0
  0
LINE
  5
14A
330
1F
100
AcDbEntity
  8
1
  6
Continuous
 62
     7
100
AcDbLine
 10
147.0
 20
275.0000000000003
 30
0.0
 11
147.0
 21
255.0000000000003
 31
0.0
  0
ARC
  5
14B
330
1F
100
AcDbEntity
  8
____1
  6
Continuous
 62
     7
100
AcDbCircle
 10
145.998033850035
 20
164.997730634653
 30
0.0
 40
1.0
100
AcDbArc
 50
180.0
 51
247.8181725076817
  0
ARC
  5
14C
330
1F
100
AcDbEntity
  8
____1
  6
Continuous
 62
     7
100
AcDbCircle
 10
145.998033850035
 20
169.825528303607
 30
0.0
 40
1.0
100
AcDbArc
 50
90.0
 51
180.0
  0
ARC
  5
14D
330
1F
100
AcDbEntity
  8
____1
  6
Continuous
 62
     7
100
AcDbCircle
 10
103.5966998409858
 20
165.825528303607
 30
0.0
 40
1.5
100
AcDbArc
 50
270.0
 51
0.0
  0
ARC
  5
14E
330
1F
100
AcDbEntity
  8
____1
  6
Continuous
 62
     7
100
AcDbCircle
 10
95.59669984098575
 20
169.325528303607
 30
0.0
 40
1.5
100
AcDbArc
 50
90.0
 51
180.0
  0
ARC
  5
14F
330
1F
100
AcDbEntity
  8
____1
  6
Continuous
 62
     7
100
AcDbCircle
 10
103.5966998409858
 20
169.325528303607
 30
0.0
 40
1.5
100
AcDbArc
 50
0.0
 51
90.0
  0
ARC
  5
150
330
1F
100
AcDbEntity
  8
____1
  6
Continuous
 62
     7
100
AcDbCircle
 10
83.59669984098177
 20
168.932073071462
 30
0.0
 40
2.0
100
AcDbArc
 50
180.0
 51
270.0
  0
ARC
  5
151
330
1F
100
AcDbEntity
  8
____1
  6
Continuous
 62
     7
100
AcDbCircle
 10
78.2966998409817
 20
167.4308283583181
 30
0.0
 40
1.0
100
AcDbArc
 50
270.0
 51
0.0
  0
ARC
  5
152
330
1F
100
AcDbEntity
  8
____1
  6
Continuous
 62
     7
100
AcDbCircle
 10
81.89669984098173
 20
226.2127841629821
 30
0.0
 40
0.2999999999999545
100
AcDbArc
 50
180.0
 51
270.0
  0
ARC
  5
153
330
1F
100
AcDbEntity
  8
____1
  6
Continuous
 62
     7
100
AcDbCircle
 10
58.09669984098177
 20
243.912784162982
 30
0.0
 40
20.49999999999932
100
AcDbArc
 50
58.61185017206518
 51
301.3881498279334
  0
ARC
  5
154
330
1F
100
AcDbEntity
  8
____1
  6
Continuous
 62
     7
100
AcDbCircle
 10
58.09669984098177
 20
243.912784162982
 30
0.0
 40
17.5
100
AcDbArc
 50
90.00000142554843
 51
269.9999985870369
  0
ARC
  5
155
330
1F
100
AcDbEntity
  8
____1
  6
Continuous
 62
     7
100
AcDbCircle
 10
104.0966998409858
 20
217.212023601806
 30
0.0
 40
1.0
100
AcDbArc
 50
270.0
 51
0.0
  0
ARC
  5
156
330
1F
100
AcDbEntity
  8
____1
  6
Continuous
 62
     7
100
AcDbCircle
 10
95.09669984098575
 20
217.212023601806
 30
0.0
 40
1.0
100
AcDbArc
 50
180.0
 51
270.0
  0
ARC
  5
157
330
1F
100
AcDbEntity
  8
____1
  6
Continuous
 62
     7
100
AcDbCircle
 10
99.59669984098575
 20
201.212023601806
 30
0.0
 40
3.75
100
AcDbArc
 50
180.0
 51
0.0
  0
ARC
  5
158
330
1F
100
AcDbEntity
  8
____1
  6
Continuous
 62
     7
100
AcDbCircle
 10
78.2966998409817
 20
166.746038134855
 30
0.0
 40
1.0
100
AcDbArc
 50
270.0
 51
0.0
  0
ARC
  5
159
330
1F
100
AcDbEntity
  8
____1
  6
Continuous
 62
     7
100
AcDbCircle
 10
81.89669984098173
 20
261.6127841629821
 30
0.0
 40
0.2999999999998977
100
AcDbArc
 50
90.0
 51
180.0
  0
ARC
  5
15A
330
1F
100
AcDbEntity
  8
____1
  6
Continuous
 62
     7
100
AcDbCircle
 10
64.4466998409818
 20
169.534631769226
 30
0.0
 40
4.999999999999845
100
AcDbArc
 50
120.000000000001
 51
180.0
  0
ARC
  5
15B
330
1F
100
AcDbEntity
  8
____1
  6
Continuous
 62
     7
100
AcDbCircle
 10
64.4466998409818
 20
169.534631769226
 30
0.0
 40
2.700000000000031
100
AcDbArc
 50
120.0000000000002
 51
180.0
  0
ARC
  5
15C
330
1F
100
AcDbEntity
  8
____1
  6
Continuous
 62
     7
100
AcDbCircle
 10
58.44669984098179
 20
167.4308283583181
 30
0.0
 40
1.0
100
AcDbArc
 50
270.0
 51
0.0
  0
ARC
  5
15D
330
1F
100
AcDbEntity
  8
____1
  6
Continuous
 62
     7
100
AcDbCircle
 10
62.74669984098175
 20
167.4308283583181
 30
0.0
 40
1.0
100
AcDbArc
 50
180.0
 51
270.0
  0
ARC
  5
15E
330
1F
100
AcDbEntity
  8
____1
  6
Continuous
 62
     7
100
AcDbCircle
 10
62.74669984098175
 20
166.746038134855
 30
0.0
 40
1.0
100
AcDbArc
 50
180.0
 51
270.0
  0
ARC
  5
15F
330
1F
100
AcDbEntity
  8
____1
  6
Continuous
 62
     7
100
AcDbCircle
 10
58.44669984098179
 20
166.746038134855
 30
0.0
 40
1.0
100
AcDbArc
 50
270.0
 51
0.0
  0
ARC
  5
160
330
1F
100
AcDbEntity
  8
____1
  6
Continuous
 62
     7
100
AcDbCircle
 10
74.4466998409818
 20
172.825528303607
 30
0.0
 40
7.150000000000006
100
AcDbArc
 50
90.0
 51
119.9999989887153
  0
ARC
  5
161
330
1F
100
AcDbEntity
  8
____1
  6
Continuous
 62
     7
100
AcDbCircle
 10
87.09669984098177
 20
168.872941712201
 30
0.0
 40
1.0
100
AcDbArc
 50
0.0
 51
45.00000000004146
  0
ARC
  5
162
330
1F
100
AcDbEntity
  8
____1
  6
Continuous
 62
     7
100
AcDbCircle
 10
83.59669984098177
 20
168.2671447693971
 30
0.0
 40
2.0
100
AcDbArc
 50
180.0
 51
270.0
  0
ARC
  5
163
330
1F
100
AcDbEntity
  8
____1
  6
Continuous
 62
     7
100
AcDbCircle
 10
81.89669984098173
 20
166.675528303606
 30
0.0
 40
0.3000000000000114
100
AcDbArc
 50
90.0
 51
180.0
  0
ARC
  5
164
330
1F
100
AcDbEntity
  8
____1
  6
Continuous
 62
     7
100
AcDbCircle
 10
95.59669984098575
 20
165.825528303607
 30
0.0
 40
1.5
100
AcDbArc
 50
180.0
 51
270.0
  0
ARC
  5
165
330
1F
100
AcDbEntity
  8
____1
  6
Continuous
 62
     7
100
AcDbCircle
 10
162.498033850035
 20
162.064201431813
 30
0.0
 40
10.0
100
AcDbArc
 50
180.0
 51
189.1090353930169
  0
ARC
  5
166
330
1F
100
AcDbEntity
  8
____1
  6
Continuous
 62
     7
100
AcDbCircle
 10
100.9924186924257
 20
154.825528303607
 30
0.0
 40
0.5
100
AcDbArc
 50
270.0
 51
353.8844964336178
  0
ARC
  5
167
330
1F
100
AcDbEntity
  8
____1
  6
Continuous
 62
     7
100
AcDbCircle
 10
98.86627400898571
 20
156.125528303607
 30
0.0
 40
0.2999999999941472
100
AcDbArc
 50
186.1155035665468
 51
270.0
  0
ARC
  5
168
330
1F
100
AcDbEntity
  8
____1
  6
Continuous
 62
     7
100
AcDbCircle
 10
81.89669984098173
 20
131.275528303606
 30
0.0
 40
0.2999999999999545
100
AcDbArc
 50
180.0
 51
270.0
  0
ARC
  5
169
330
1F
100
AcDbEntity
  8
____1
  6
Continuous
 62
     7
100
AcDbCircle
 10
100.3271256729758
 20
156.125528303607
 30
0.0
 40
0.3000000000000114
100
AcDbArc
 50
270.0
 51
353.8844964334538
  0
ARC
  5
16A
330
1F
100
AcDbEntity
  8
____1
  6
Continuous
 62
     7
100
AcDbCircle
 10
98.2009809895457
 20
154.825528303607
 30
0.0
 40
0.5000000000001157
100
AcDbArc
 50
186.115503566383
 51
270.0
  0
ARC
  5
16B
330
1F
100
AcDbEntity
  8
____1
  6
Continuous
 62
     7
100
AcDbCircle
 10
100.8466998409858
 20
162.985783984264
 30
0.0
 40
3.000000000000057
100
AcDbArc
 50
180.0
 51
186.1155035662881
  0
ARC
  5
16C
330
1F
100
AcDbEntity
  8
____1
  6
Continuous
 62
     7
100
AcDbCircle
 10
98.34669984098575
 20
162.985783984264
 30
0.0
 40
3.000000000000648
100
AcDbArc
 50
353.8844964337119
 51
0.0
  0
ARC
  5
16D
330
1F
100
AcDbEntity
  8
____1
  6
Continuous
 62
     7
100
AcDbCircle
 10
100.8466998409858
 20
162.985783984264
 30
0.0
 40
4.000000000000057
100
AcDbArc
 50
180.0
 51
186.1155035662833
  0
ARC
  5
16E
330
1F
100
AcDbEntity
  8
____1
  6
Continuous
 62
     7
100
AcDbCircle
 10
98.34669984098575
 20
162.985783984264
 30
0.0
 40
4.000000000000809
100
AcDbArc
 50
353.8844964337167
 51
0.0
  0
ARC
  5
16F
330
1F
100
AcDbEntity
  8
____1
  6
Continuous
 62
     7
100
AcDbCircle
 10
58.09669984098177
 20
148.975528303607
 30
0.0
 40
17.50000000000002
100
AcDbArc
 50
90.00000258788042
 51
180.0000108712587
  0
ARC
  5
170
330
1F
100
AcDbEntity
  8
____1
  6
Continuous
 62
     7
100
AcDbCircle
 10
74.4466998409818
 20
172.825528303607
 30
0.0
 40
7.149999999999979
100
AcDbArc
 50
359.9999986304146
 51
90.0
  0
CIRCLE
  5
171
330
1F
100
AcDbEntity
  8
____1
  6
Continuous
 62
     7
100
AcDbCircle
 10
74.4466998409818
 20
172.825528303607
 30
0.0
 40
4.849999999999909
  0
CIRCLE
  5
172
330
1F
100
AcDbEntity
  8
____1
  6
Continuous
 62
     7
100
AcDbCircle
 10
172.6987944272451
 20
148.975528303607
 30
0.0
 40
16.0
  0
CIRCLE
  5
173
330
1F
100
AcDbEntity
  8
____1
  6
Continuous
 62
     7
100
AcDbCircle
 10
172.6987944272451
 20
148.975528303607
 30
0.0
 40
16.2199999999998
  0
CIRCLE
  5
174
330
1F
100
AcDbEntity
  8
____1
  6
Continuous
 62
     7
100
AcDbCircle
 10
172.6987944272451
 20
148.975528303607
 30
0.0
 40
19.5
  0
MTEXT
  5
176
330
1F
100
AcDbEntity
  8
1
 62
     7
100
AcDbMText
 10
85.25
 20
17.0
 30
0.0
 40
3.5
 41
0.0
 71
     5
 72
     1
  1
1
  7
CONVERTER_12
 73
     1
 44
0.7202881152461
  0
MTEXT
  5
177
330
1F
100
AcDbEntity
  8
1
 62
     7
100
AcDbMText
 10
93.75
 20
17.0
 30
0.0
 40
3.5
 41
0.0
 71
     5
 72
     1
  1
1
  7
CONVERTER_12
 73
     1
 44
0.7202881152461
  0
MTEXT
  5
178
330
1F
100
AcDbEntity
  8
1
 62
     7
100
AcDbMText
 10
57.0
 20
14.25
 30
0.0
 40
3.5
 41
0.0
 71
     5
 72
     1
  1
H5542F
  7
CONVERTER_12
 73
     1
 44
0.7202881152461
  0
MTEXT
  5
179
330
1F
100
AcDbEntity
  8
1
 62
     7
100
AcDbMText
 10
57.0
 20
22.75000000000001
 30
0.0
 40
3.5
 41
0.0
 71
     5
 72
     1
  1
洗濯機排水トラップエルボ
  7
CONVERTER_11
 73
     1
 44
0.54545454545455
  0
MTEXT
  5
17A
330
1F
100
AcDbEntity
  8
1
 62
     7
100
AcDbMText
 10
167.5
 20
271.0000000000003
 30
0.0
 40
3.5
 41
0.0
 71
     5
 72
     1
  1
取付可能製品
  7
CONVERTER_11
 73
     1
 44
0.54545454545455
  0
MTEXT
  5
17B
330
1F
100
AcDbEntity
  8
1
 62
     7
100
AcDbMText
 10
149.0
 20
264.0000000000003
 30
0.0
 40
3.5
 41
0.0
 71
     4
 72
     1
  1
H5552-50
  7
CONVERTER_12
 73
     1
 44
0.7202881152461
  0
MTEXT
  5
17C
330
1F
100
AcDbEntity
  8
1
 62
     7
100
AcDbMText
 10
149.0
 20
258.0000000000003
 30
0.0
 40
3.5
 41
0.0
 71
     4
 72
     1
  1
H5553-50
  7
CONVERTER_12
 73
     1
 44
0.7202881152461
  0
DIMENSION
  5
187
330
1F
100
AcDbEntity
  8
1
100
AcDbDimension
  2
*D2
 10
118.0966998409858
 20
132.757356608838
 30
0.0
 11
115.3466998409858
 21
148.975528303607
 31
0.0
 70
    32
  1
内径{\Fgdt;n}32
 71
     5
 42
-1.0
 53
90.0
  3
ME10_DIM_10
100
AcDbAlignedDimension
 13
108.0966998409858
 23
165.193699998376
 33
0.0
 14
108.0966998409858
 24
132.757356608838
 34
0.0
 50
90.0
100
AcDbRotatedDimension
  0
DIMENSION
  5
193
330
1F
100
AcDbEntity
  8
1
100
AcDbDimension
  2
*D3
 10
106.72932537196
 20
168.475528303607
 30
0.0
 11
103.97932537196
 21
187.873356376465
 31
0.0
 70
    32
  1
<>
 71
     5
 42
-1.0
 53
90.0
  3
ME10_DIM_11
100
AcDbAlignedDimension
 13
108.0966998409858
 23
129.475528303606
 33
0.0
 14
108.0966998409858
 24
168.475528303607
 34
0.0
 50
90.0
100
AcDbRotatedDimension
  0
DIMENSION
  5
19E
330
1F
100
AcDbEntity
  8
1
100
AcDbDimension
  2
*D4
 10
99.2228347016598
 20
148.975528303607
 30
0.0
 11
96.4728347016598
 21
112.211306474703
 31
0.0
 70
    32
  1
<>
 71
     5
 42
-1.0
 53
90.0
  3
ME10_DIM_12
100
AcDbAlignedDimension
 13
73.76032321777579
 23
89.97552830360698
 33
0.0
 14
111.0966998409858
 24
148.975528303607
 34
0.0
 50
90.0
100
AcDbRotatedDimension
  0
DIMENSION
  5
1A9
330
1F
100
AcDbEntity
  8
1
100
AcDbDimension
  2
*D5
 10
123.48158390253
 20
89.97552830360698
 30
0.0
 11
120.73158390253
 21
111.683274132916
 31
0.0
 70
    32
  1
<>
 71
     5
 42
-1.0
 53
90.0
  3
ME10_DIM_13
100
AcDbAlignedDimension
 13
74.4466998409818
 23
179.975528303607
 33
0.0
 14
73.76032321777579
 24
89.97552830360698
 34
0.0
 50
90.0
100
AcDbRotatedDimension
  0
DIMENSION
  5
1B4
330
1F
100
AcDbEntity
  8
1
100
AcDbDimension
  2
*D6
 10
58.09669984098177
 20
79.97552830360698
 30
0.0
 11
83.09669984098376
 21
82.72552830360698
 31
0.0
 70
    32
  1
<>
 71
     5
 42
-1.0
 53
0.00013888888889
  3
ME10_DIM_14
100
AcDbAlignedDimension
 13
108.0966998409858
 23
129.475528303606
 33
0.0
 14
58.09669984098177
 24
86.97552830360698
 34
0.0
100
AcDbRotatedDimension
  0
DIMENSION
  5
1BF
330
1F
100
AcDbEntity
  8
1
100
AcDbDimension
  2
*D7
 10
41.99669984098175
 20
71.97552830360698
 30
0.0
 11
58.09669984098177
 21
74.72552830360698
 31
0.0
 70
    32
  1
{\Fgdt;n}32
 71
     5
 42
-1.0
 53
0.00013888888889
  3
ME10_DIM_15
100
AcDbAlignedDimension
 13
74.1966998409818
 23
114.975528303607
 33
0.0
 14
41.99669984098175
 24
114.975528303607
 34
0.0
100
AcDbRotatedDimension
  0
DIMENSION
  5
1CA
330
1F
100
AcDbEntity
  8
1
100
AcDbDimension
  2
*D8
 10
32.59669984098177
 20
129.975528303607
 30
0.0
 11
29.84669984098177
 21
109.975528303607
 31
0.0
 70
    32
  1
<>
 71
     5
 42
-1.0
 53
90.0
  3
ME10_DIM_16
100
AcDbAlignedDimension
 13
42.43307646418673
 23
89.97552830360698
 33
0.0
 14
37.59669984098177
 24
129.975528303607
 34
0.0
 50
90.0
100
AcDbRotatedDimension
  0
ENDSEC
  0
SECTION
  2
OBJECTS
  0
DICTIONARY
  5
C
330
0
100
AcDbDictionary
281
     1
  3
ACAD_GROUP
350
D
  3
ACAD_LAYOUT
350
1A
  3
ACAD_MATERIAL
350
3B
  3
ACAD_MLEADERSTYLE
350
1CD
  3
ACAD_MLINESTYLE
350
17
  3
ACAD_PLOTSETTINGS
350
19
  3
ACAD_PLOTSTYLENAME
350
E
  3
ACAD_VISUALSTYLE
350
2A
  3
AcDbVariableDictionary
350
1CB
  0
DICTIONARY
  5
D
102
{ACAD_REACTORS
330
C
102
}
330
C
100
AcDbDictionary
281
     1
  0
DICTIONARY
  5
1A
102
{ACAD_REACTORS
330
C
102
}
330
C
100
AcDbDictionary
281
     1
  3
Layout1
350
1E
  3
Layout2
350
26
  3
Model
350
22
  0
DICTIONARY
  5
3B
102
{ACAD_REACTORS
330
C
102
}
330
C
100
AcDbDictionary
281
     1
  3
ByBlock
350
3D
  3
ByLayer
350
3C
  3
Global
350
3E
  0
DICTIONARY
  5
1CD
102
{ACAD_REACTORS
330
C
102
}
330
C
100
AcDbDictionary
281
     1
  0
DICTIONARY
  5
17
102
{ACAD_REACTORS
330
C
102
}
330
C
100
AcDbDictionary
281
     1
  3
Standard
350
18
  0
DICTIONARY
  5
19
102
{ACAD_REACTORS
330
C
102
}
330
C
100
AcDbDictionary
281
     1
  0
ACDBDICTIONARYWDFLT
  5
E
102
{ACAD_REACTORS
330
C
102
}
330
C
100
AcDbDictionary
281
     1
  3
Normal
350
F
100
AcDbDictionaryWithDefault
340
F
  0
DICTIONARY
  5
2A
102
{ACAD_REACTORS
330
C
102
}
330
C
100
AcDbDictionary
281
     1
  3
2dWireframe
350
2F
  3
3D Hidden
350
31
  3
3dWireframe
350
30
  3
Basic
350
32
  3
Brighten
350
36
  3
ColorChange
350
3A
  3
Conceptual
350
34
  3
Dim
350
35
  3
Facepattern
350
39
  3
Flat
350
2B
  3
FlatWithEdges
350
2C
  3
Gouraud
350
2D
  3
GouraudWithEdges
350
2E
  3
Linepattern
350
38
  3
Realistic
350
33
  3
Thicken
350
37
  0
DICTIONARY
  5
1CB
102
{ACAD_REACTORS
330
C
102
}
330
C
100
AcDbDictionary
281
     1
  3
DIMASSOC
350
1CE
  3
HIDETEXT
350
1CF
  0
LAYOUT
  5
1E
102
{ACAD_REACTORS
330
1A
102
}
330
1A
100
AcDbPlotSettings
  1

  2
none_device
  4

  6

 40
0.0
 41
0.0
 42
0.0
 43
0.0
 44
0.0
 45
0.0
 46
0.0
 47
0.0
 48
0.0
 49
0.0
140
0.0
141
0.0
142
1.0
143
1.0
 70
   688
 72
     0
 73
     0
 74
     5
  7

 75
    16
147
1.0
148
0.0
149
0.0
100
AcDbLayout
  1
Layout1
 70
     1
 71
     1
 10
0.0
 20
0.0
 11
12.0
 21
9.0
 12
0.0
 22
0.0
 32
0.0
 14
1.00000000000000E+20
 24
1.00000000000000E+20
 34
1.00000000000000E+20
 15
-1.00000000000000E+20
 25
-1.00000000000000E+20
 35
-1.00000000000000E+20
146
0.0
 13
0.0
 23
0.0
 33
0.0
 16
1.0
 26
0.0
 36
0.0
 17
0.0
 27
1.0
 37
0.0
 76
     0
330
1B
  0
LAYOUT
  5
26
102
{ACAD_REACTORS
330
1A
102
}
330
1A
100
AcDbPlotSettings
  1

  2
none_device
  4

  6

 40
0.0
 41
0.0
 42
0.0
 43
0.0
 44
0.0
 45
0.0
 46
0.0
 47
0.0
 48
0.0
 49
0.0
140
0.0
141
0.0
142
1.0
143
1.0
 70
   688
 72
     0
 73
     0
 74
     5
  7

 75
    16
147
1.0
148
0.0
149
0.0
100
AcDbLayout
  1
Layout2
 70
     1
 71
     2
 10
0.0
 20
0.0
 11
0.0
 21
0.0
 12
0.0
 22
0.0
 32
0.0
 14
0.0
 24
0.0
 34
0.0
 15
0.0
 25
0.0
 35
0.0
146
0.0
 13
0.0
 23
0.0
 33
0.0
 16
1.0
 26
0.0
 36
0.0
 17
0.0
 27
1.0
 37
0.0
 76
     0
330
23
  0
LAYOUT
  5
22
102
{ACAD_REACTORS
330
1A
102
}
330
1A
100
AcDbPlotSettings
  1

  2
none_device
  4

  6

 40
0.0
 41
0.0
 42
0.0
 43
0.0
 44
0.0
 45
0.0
 46
0.0
 47
0.0
 48
0.0
 49
0.0
140
0.0
141
0.0
142
1.0
143
1.0
 70
  1712
 72
     0
 73
     0
 74
     0
  7

 75
     0
147
1.0
148
0.0
149
0.0
100
AcDbLayout
  1
Model
 70
     1
 71
     0
 10
0.0
 20
0.0
 11
12.0
 21
9.0
 12
0.0
 22
0.0
 32
0.0
 14
0.0
 24
0.0
 34
0.0
 15
210.0
 25
297.0
 35
0.0
146
0.0
 13
0.0
 23
0.0
 33
0.0
 16
1.0
 26
0.0
 36
0.0
 17
0.0
 27
1.0
 37
0.0
 76
     0
330
1F
331
29
  0
MATERIAL
  5
3D
102
{ACAD_REACTORS
330
3B
102
}
102
{ACAD_XDICTIONARY
360
1F2
102
}
330
3B
100
AcDbMaterial
  1
ByBlock
  0
MATERIAL
  5
3C
102
{ACAD_REACTORS
330
3B
102
}
102
{ACAD_XDICTIONARY
360
1F0
102
}
330
3B
100
AcDbMaterial
  1
ByLayer
  0
MATERIAL
  5
3E
102
{ACAD_REACTORS
330
3B
102
}
102
{ACAD_XDICTIONARY
360
1F4
102
}
330
3B
100
AcDbMaterial
  1
Global
  0
MLINESTYLE
  5
18
102
{ACAD_REACTORS
330
17
102
}
330
17
100
AcDbMlineStyle
  2
Standard
 70
     0
  3

 62
   256
 51
90.0
 52
90.0
 71
     2
 49
0.5
 62
   256
  6
BYLAYER
 49
-0.5
 62
   256
  6
BYLAYER
  0
ACDBPLACEHOLDER
  5
F
102
{ACAD_REACTORS
330
E
102
}
330
E
  0
VISUALSTYLE
  5
2F
102
{ACAD_REACTORS
330
2A
102
}
102
{ACAD_XDICTIONARY
360
1D8
102
}
330
2A
100
AcDbVisualStyle
  2
2dWireframe
 70
     4
 71
     0
 72
     2
 73
     0
 90
        0
 40
-0.6
 41
-30.0
 62
     5
 63
     7
 74
     1
 91
        4
 64
     7
 65
   257
 75
     1
175
     1
 42
1.0
 92
        0
 66
   257
 43
1.0
 76
     1
 77
     6
 78
     2
 67
     7
 79
     5
170
     0
171
     0
290
     0
174
     0
 93
        1
 44
0.0
173
     0
291
     0
 45
0.0
1001
ACAD
1000
AcDbSavedByObjectVersion
1070
     0
  0
VISUALSTYLE
  5
31
102
{ACAD_REACTORS
330
2A
102
}
102
{ACAD_XDICTIONARY
360
1DC
102
}
330
2A
100
AcDbVisualStyle
  2
3D Hidden
 70
     6
 71
     1
 72
     2
 73
     2
 90
        0
 40
-0.6
 41
-30.0
 62
     5
 63
     7
 74
     2
 91
        2
 64
     7
 65
   257
 75
     2
175
     1
 42
40.0
 92
        0
 66
   257
 43
1.0
 76
     1
 77
     6
 78
     2
 67
     7
 79
     3
170
     0
171
     0
290
     0
174
     0
 93
        1
 44
0.0
173
     0
291
     0
 45
0.0
1001
ACAD
1000
AcDbSavedByObjectVersion
1070
     0
  0
VISUALSTYLE
  5
30
102
{ACAD_REACTORS
330
2A
102
}
102
{ACAD_XDICTIONARY
360
1DA
102
}
330
2A
100
AcDbVisualStyle
  2
3dWireframe
 70
     5
 71
     0
 72
     2
 73
     0
 90
        0
 40
-0.6
 41
-30.0
 62
     5
 63
     7
 74
     1
 91
        4
 64
     7
 65
   257
 75
     1
175
     1
 42
1.0
 92
        0
 66
   257
 43
1.0
 76
     1
 77
     6
 78
     2
 67
     7
 79
     5
170
     0
171
     0
290
     0
174
     0
 93
        1
 44
0.0
173
     0
291
     0
 45
0.0
1001
ACAD
1000
AcDbSavedByObjectVersion
1070
     0
  0
VISUALSTYLE
  5
32
102
{ACAD_REACTORS
330
2A
102
}
102
{ACAD_XDICTIONARY
360
1DE
102
}
330
2A
100
AcDbVisualStyle
  2
Basic
 70
     7
 71
     1
 72
     0
 73
     1
 90
        0
 40
-0.6
 41
-30.0
 62
     5
 63
     7
 74
     0
 91
        4
 64
     7
 65
   257
 75
     1
175
     1
 42
1.0
 92
        8
 66
     7
 43
1.0
 76
     1
 77
     6
 78
     2
 67
     7
 79
     5
170
     0
171
     0
290
     0
174
     0
 93
        1
 44
0.0
173
     0
291
     1
 45
0.0
1001
ACAD
1000
AcDbSavedByObjectVersion
1070
     0
  0
VISUALSTYLE
  5
36
102
{ACAD_REACTORS
330
2A
102
}
102
{ACAD_XDICTIONARY
360
1E6
102
}
330
2A
100
AcDbVisualStyle
  2
Brighten
 70
    12
 71
     2
 72
     2
 73
     0
 90
        0
 40
-0.6
 41
-30.0
 62
     5
 63
     7
 74
     1
 91
        4
 64
     7
 65
   257
 75
     1
175
     1
 42
1.0
 92
        8
 66
     7
 43
1.0
 76
     1
 77
     6
 78
     2
 67
     7
 79
     5
170
     0
171
     0
290
     0
174
     0
 93
        1
 44
50.0
173
     0
291
     1
 45
0.0
1001
ACAD
1000
AcDbSavedByObjectVersion
1070
     0
  0
VISUALSTYLE
  5
3A
102
{ACAD_REACTORS
330
2A
102
}
102
{ACAD_XDICTIONARY
360
1EE
102
}
330
2A
100
AcDbVisualStyle
  2
ColorChange
 70
    16
 71
     2
 72
     2
 73
     3
 90
        0
 40
-0.6
 41
-30.0
 62
     5
 63
     8
 74
     1
 91
        4
 64
     7
 65
   257
 75
     1
175
     1
 42
1.0
 92
        8
 66
     8
 43
1.0
 76
     1
 77
     6
 78
     2
 67
     7
 79
     5
170
     0
171
     0
290
     0
174
     0
 93
        1
 44
0.0
173
     0
291
     1
 45
0.0
1001
ACAD
1000
AcDbSavedByObjectVersion
1070
     0
  0
VISUALSTYLE
  5
34
102
{ACAD_REACTORS
330
2A
102
}
102
{ACAD_XDICTIONARY
360
1E2
102
}
330
2A
100
AcDbVisualStyle
  2
Conceptual
 70
     9
 71
     3
 72
     2
 73
     0
 90
        0
 40
-0.6
 41
-30.0
 62
     5
 63
     7
 74
     2
 91
        2
 64
     7
 65
   257
 75
     1
175
     1
 42
40.0
 92
        8
 66
     7
 43
1.0
 76
     1
 77
     6
 78
     2
 67
     7
 79
     3
170
     0
171
     0
290
     0
174
     0
 93
        1
 44
0.0
173
     0
291
     0
 45
0.0
1001
ACAD
1000
AcDbSavedByObjectVersion
1070
     0
  0
VISUALSTYLE
  5
35
102
{ACAD_REACTORS
330
2A
102
}
102
{ACAD_XDICTIONARY
360
1E4
102
}
330
2A
100
AcDbVisualStyle
  2
Dim
 70
    11
 71
     2
 72
     2
 73
     0
 90
        0
 40
-0.6
 41
-30.0
 62
     5
 63
     7
 74
     1
 91
        4
 64
     7
 65
   257
 75
     1
175
     1
 42
1.0
 92
        8
 66
     7
 43
1.0
 76
     1
 77
     6
 78
     2
 67
     7
 79
     5
170
     0
171
     0
290
     0
174
     0
 93
        1
 44
-50.0
173
     0
291
     1
 45
0.0
1001
ACAD
1000
AcDbSavedByObjectVersion
1070
     0
  0
VISUALSTYLE
  5
39
102
{ACAD_REACTORS
330
2A
102
}
102
{ACAD_XDICTIONARY
360
1EC
102
}
330
2A
100
AcDbVisualStyle
  2
Facepattern
 70
    15
 71
     2
 72
     2
 73
     0
 90
        0
 40
-0.6
 41
-30.0
 62
     5
 63
     7
 74
     1
 91
        4
 64
     7
 65
   257
 75
     1
175
     1
 42
1.0
 92
        8
 66
     7
 43
1.0
 76
     1
 77
     6
 78
     2
 67
     7
 79
     5
170
     0
171
     0
290
     0
174
     0
 93
        1
 44
0.0
173
     0
291
     1
 45
0.0
1001
ACAD
1000
AcDbSavedByObjectVersion
1070
     0
  0
VISUALSTYLE
  5
2B
102
{ACAD_REACTORS
330
2A
102
}
102
{ACAD_XDICTIONARY
360
1D0
102
}
330
2A
100
AcDbVisualStyle
  2
Flat
 70
     0
 71
     2
 72
     1
 73
     1
 90
        2
 40
-0.6
 41
30.0
 62
     5
 63
     7
 74
     0
 91
        4
 64
     7
 65
   257
 75
     1
175
     1
 42
1.0
 92
        8
 66
     7
 43
1.0
 76
     1
 77
     6
 78
     2
 67
     7
 79
     5
170
     0
171
     0
290
     0
174
     0
 93
       13
 44
0.0
173
     0
291
     1
 45
0.0
1001
ACAD
1000
AcDbSavedByObjectVersion
1070
     0
  0
VISUALSTYLE
  5
2C
102
{ACAD_REACTORS
330
2A
102
}
102
{ACAD_XDICTIONARY
360
1D2
102
}
330
2A
100
AcDbVisualStyle
  2
FlatWithEdges
 70
     1
 71
     2
 72
     1
 73
     1
 90
        2
 40
-0.6
 41
30.0
 62
     5
 63
     7
 74
     1
 91
        4
 64
     7
 65
   257
 75
     1
175
     1
 42
1.0
 92
        0
 66
   257
 43
1.0
 76
     1
 77
     6
 78
     2
 67
     7
 79
     5
170
     0
171
     0
290
     0
174
     0
 93
       13
 44
0.0
173
     0
291
     1
 45
0.0
1001
ACAD
1000
AcDbSavedByObjectVersion
1070
     0
  0
VISUALSTYLE
  5
2D
102
{ACAD_REACTORS
330
2A
102
}
102
{ACAD_XDICTIONARY
360
1D4
102
}
330
2A
100
AcDbVisualStyle
  2
Gouraud
 70
     2
 71
     2
 72
     2
 73
     1
 90
        2
 40
-0.6
 41
30.0
 62
     5
 63
     7
 74
     0
 91
        4
 64
     7
 65
   257
 75
     1
175
     1
 42
1.0
 92
        0
 66
     7
 43
1.0
 76
     1
 77
     6
 78
     2
 67
     7
 79
     5
170
     0
171
     0
290
     0
174
     0
 93
       13
 44
0.0
173
     0
291
     1
 45
0.0
1001
ACAD
1000
AcDbSavedByObjectVersion
1070
     0
  0
VISUALSTYLE
  5
2E
102
{ACAD_REACTORS
330
2A
102
}
102
{ACAD_XDICTIONARY
360
1D6
102
}
330
2A
100
AcDbVisualStyle
  2
GouraudWithEdges
 70
     3
 71
     2
 72
     2
 73
     1
 90
        2
 40
-0.6
 41
30.0
 62
     5
 63
     7
 74
     1
 91
        4
 64
     7
 65
   257
 75
     1
175
     1
 42
1.0
 92
        0
 66
   257
 43
1.0
 76
     1
 77
     6
 78
     2
 67
     7
 79
     5
170
     0
171
     0
290
     0
174
     0
 93
       13
 44
0.0
173
     0
291
     1
 45
0.0
1001
ACAD
1000
AcDbSavedByObjectVersion
1070
     0
  0
VISUALSTYLE
  5
38
102
{ACAD_REACTORS
330
2A
102
}
102
{ACAD_XDICTIONARY
360
1EA
102
}
330
2A
100
AcDbVisualStyle
  2
Linepattern
 70
    14
 71
     2
 72
     2
 73
     0
 90
        0
 40
-0.6
 41
-30.0
 62
     5
 63
     7
 74
     1
 91
        4
 64
     7
 65
   257
 75
     7
175
     7
 42
1.0
 92
        8
 66
     7
 43
1.0
 76
     1
 77
     6
 78
     2
 67
     7
 79
     5
170
     0
171
     0
290
     0
174
     0
 93
        1
 44
0.0
173
     0
291
     1
 45
0.0
1001
ACAD
1000
AcDbSavedByObjectVersion
1070
     0
  0
VISUALSTYLE
  5
33
102
{ACAD_REACTORS
330
2A
102
}
102
{ACAD_XDICTIONARY
360
1E0
102
}
330
2A
100
AcDbVisualStyle
  2
Realistic
 70
     8
 71
     2
 72
     2
 73
     0
 90
        0
 40
-0.6
 41
-30.0
 62
     5
 63
     7
 74
     1
 91
        0
 64
     7
 65
   257
 75
     1
175
     1
 42
1.0
 92
        8
 66
     8
 43
1.0
 76
     1
 77
     6
 78
     2
 67
     7
 79
     5
170
     0
171
     0
290
     0
174
     0
 93
       13
 44
0.0
173
     0
291
     0
 45
0.0
1001
ACAD
1000
AcDbSavedByObjectVersion
1070
     0
  0
VISUALSTYLE
  5
37
102
{ACAD_REACTORS
330
2A
102
}
102
{ACAD_XDICTIONARY
360
1E8
102
}
330
2A
100
AcDbVisualStyle
  2
Thicken
 70
    13
 71
     2
 72
     2
 73
     0
 90
        0
 40
-0.6
 41
-30.0
 62
     5
 63
     7
 74
     1
 91
        4
 64
     7
 65
   257
 75
     1
175
     1
 42
1.0
 92
       12
 66
     7
 43
1.0
 76
     1
 77
     6
 78
     2
 67
     7
 79
     5
170
     0
171
     0
290
     0
174
     0
 93
        1
 44
0.0
173
     0
291
     1
 45
0.0
1001
ACAD
1000
AcDbSavedByObjectVersion
1070
     0
  0
DICTIONARYVAR
  5
1CE
102
{ACAD_REACTORS
330
1CB
102
}
330
1CB
100
DictionaryVariables
280
     0
  1
2
  0
DICTIONARYVAR
  5
1CF
102
{ACAD_REACTORS
330
1CB
102
}
330
1CB
100
DictionaryVariables
280
     0
  1
1
  0
DICTIONARY
  5
1F2
330
3D
100
AcDbDictionary
280
     1
281
     1
  3
ACAD_XREC_ROUNDTRIP
360
1F3
  0
DICTIONARY
  5
1F0
330
3C
100
AcDbDictionary
280
     1
281
     1
  3
ACAD_XREC_ROUNDTRIP
360
1F1
  0
DICTIONARY
  5
1F4
330
3E
100
AcDbDictionary
280
     1
281
     1
  3
ACAD_XREC_ROUNDTRIP
360
1F5
  0
DICTIONARY
  5
1D8
330
2F
100
AcDbDictionary
280
     1
281
     1
  3
ACAD_XREC_ROUNDTRIP
360
1D9
  0
DICTIONARY
  5
1DC
330
31
100
AcDbDictionary
280
     1
281
     1
  3
ACAD_XREC_ROUNDTRIP
360
1DD
  0
DICTIONARY
  5
1DA
330
30
100
AcDbDictionary
280
     1
281
     1
  3
ACAD_XREC_ROUNDTRIP
360
1DB
  0
DICTIONARY
  5
1DE
330
32
100
AcDbDictionary
280
     1
281
     1
  3
ACAD_XREC_ROUNDTRIP
360
1DF
  0
DICTIONARY
  5
1E6
330
36
100
AcDbDictionary
280
     1
281
     1
  3
ACAD_XREC_ROUNDTRIP
360
1E7
  0
DICTIONARY
  5
1EE
330
3A
100
AcDbDictionary
280
     1
281
     1
  3
ACAD_XREC_ROUNDTRIP
360
1EF
  0
DICTIONARY
  5
1E2
330
34
100
AcDbDictionary
280
     1
281
     1
  3
ACAD_XREC_ROUNDTRIP
360
1E3
  0
DICTIONARY
  5
1E4
330
35
100
AcDbDictionary
280
     1
281
     1
  3
ACAD_XREC_ROUNDTRIP
360
1E5
  0
DICTIONARY
  5
1EC
330
39
100
AcDbDictionary
280
     1
281
     1
  3
ACAD_XREC_ROUNDTRIP
360
1ED
  0
DICTIONARY
  5
1D0
330
2B
100
AcDbDictionary
280
     1
281
     1
  3
ACAD_XREC_ROUNDTRIP
360
1D1
  0
DICTIONARY
  5
1D2
330
2C
100
AcDbDictionary
280
     1
281
     1
  3
ACAD_XREC_ROUNDTRIP
360
1D3
  0
DICTIONARY
  5
1D4
330
2D
100
AcDbDictionary
280
     1
281
     1
  3
ACAD_XREC_ROUNDTRIP
360
1D5
  0
DICTIONARY
  5
1D6
330
2E
100
AcDbDictionary
280
     1
281
     1
  3
ACAD_XREC_ROUNDTRIP
360
1D7
  0
DICTIONARY
  5
1EA
330
38
100
AcDbDictionary
280
     1
281
     1
  3
ACAD_XREC_ROUNDTRIP
360
1EB
  0
DICTIONARY
  5
1E0
330
33
100
AcDbDictionary
280
     1
281
     1
  3
ACAD_XREC_ROUNDTRIP
360
1E1
  0
DICTIONARY
  5
1E8
330
37
100
AcDbDictionary
280
     1
281
     1
  3
ACAD_XREC_ROUNDTRIP
360
1E9
  0
XRECORD
  5
1F3
102
{ACAD_REACTORS
330
1F2
102
}
330
1F2
100
AcDbXrecord
280
     1
102
MATERIAL
148
0.0
149
0.0
149
0.0
 93
        0
 94
      127
282
     0
 72
     1
 77
     1
171
     1
175
     1
179
     1
273
     0
  0
XRECORD
  5
1F1
102
{ACAD_REACTORS
330
1F0
102
}
330
1F0
100
AcDbXrecord
280
     1
102
MATERIAL
148
0.0
149
0.0
149
0.0
 93
        0
 94
      127
282
     0
 72
     1
 77
     1
171
     1
175
     1
179
     1
273
     0
  0
XRECORD
  5
1F5
102
{ACAD_REACTORS
330
1F4
102
}
330
1F4
100
AcDbXrecord
280
     1
102
MATERIAL
148
0.0
149
0.0
149
0.0
 93
        0
 94
      127
282
     0
 72
     1
 77
     1
171
     1
175
     1
179
     1
273
     0
  0
XRECORD
  5
1D9
102
{ACAD_REACTORS
330
1D8
102
}
330
1D8
100
AcDbXrecord
280
     1
102
RTVSPropertyOp0
 70
     1
102
RTVSPropertyOp1
 70
     1
102
RTVSPropertyOp2
 70
     1
102
RTVSPropertyOp3
 70
     1
102
RTVSPropertyOp4
 70
     1
102
RTVSPropertyOp5
 70
     1
102
RTVSPropertyOp6
 70
     1
102
RTVSPropertyOp7
 70
     1
102
RTVSPropertyOp8
 70
     1
102
RTVSPropertyOp9
 70
     1
102
RTVSPropertyOp10
 70
     1
102
RTVSPropertyOp11
 70
     1
102
RTVSPropertyOp12
 70
     1
102
RTVSPropertyOp13
 70
     1
102
RTVSPropertyOp14
 70
     1
102
RTVSPropertyOp15
 70
     1
102
RTVSPropertyOp16
 70
     1
102
RTVSPropertyOp17
 70
     1
102
RTVSPropertyOp18
 70
     1
102
RTVSPropertyOp19
 70
     1
102
RTVSPropertyOp20
 70
     1
102
RTVSPropertyOp21
 70
     1
102
RTVSPropertyOp22
 70
     1
102
RTVSPropertyOp23
 70
     1
102
RTVSPropertyOp24
 70
     1
102
RTVSPropertyOp25
 70
     1
102
RTVSPropertyOp26
 70
     1
102
RTVSPropertyOp27
 70
     1
102
RTVSPropertyOp28
 70
     1
102
RTVSPropertyOp29
 70
     1
102
RTVSPropertyOp30
 70
     1
102
RTVSPropertyOp31
 70
     1
102
RTVSPropertyOp32
 70
     1
  0
XRECORD
  5
1DD
102
{ACAD_REACTORS
330
1DC
102
}
330
1DC
100
AcDbXrecord
280
     1
102
RTVSPropertyOp0
 70
     1
102
RTVSPropertyOp1
 70
     1
102
RTVSPropertyOp2
 70
     1
102
RTVSPropertyOp3
 70
     1
102
RTVSPropertyOp4
 70
     1
102
RTVSPropertyOp5
 70
     1
102
RTVSPropertyOp6
 70
     1
102
RTVSPropertyOp7
 70
     1
102
RTVSPropertyOp8
 70
     1
102
RTVSPropertyOp9
 70
     1
102
RTVSPropertyOp10
 70
     1
102
RTVSPropertyOp11
 70
     1
102
RTVSPropertyOp12
 70
     1
102
RTVSPropertyOp13
 70
     1
102
RTVSPropertyOp14
 70
     1
102
RTVSPropertyOp15
 70
     1
102
RTVSPropertyOp16
 70
     1
102
RTVSPropertyOp17
 70
     1
102
RTVSPropertyOp18
 70
     1
102
RTVSPropertyOp19
 70
     1
102
RTVSPropertyOp20
 70
     1
102
RTVSPropertyOp21
 70
     1
102
RTVSPropertyOp22
 70
     1
102
RTVSPropertyOp23
 70
     1
102
RTVSPropertyOp24
 70
     1
102
RTVSPropertyOp25
 70
     1
102
RTVSPropertyOp26
 70
     1
102
RTVSPropertyOp27
 70
     1
102
RTVSPropertyOp28
 70
     1
102
RTVSPropertyOp29
 70
     1
102
RTVSPropertyOp30
 70
     1
102
RTVSPropertyOp31
 70
     1
102
RTVSPropertyOp32
 70
     1
  0
XRECORD
  5
1DB
102
{ACAD_REACTORS
330
1DA
102
}
330
1DA
100
AcDbXrecord
280
     1
102
RTVSPropertyOp0
 70
     1
102
RTVSPropertyOp1
 70
     1
102
RTVSPropertyOp2
 70
     1
102
RTVSPropertyOp3
 70
     1
102
RTVSPropertyOp4
 70
     1
102
RTVSPropertyOp5
 70
     1
102
RTVSPropertyOp6
 70
     1
102
RTVSPropertyOp7
 70
     1
102
RTVSPropertyOp8
 70
     1
102
RTVSPropertyOp9
 70
     1
102
RTVSPropertyOp10
 70
     1
102
RTVSPropertyOp11
 70
     1
102
RTVSPropertyOp12
 70
     1
102
RTVSPropertyOp13
 70
     1
102
RTVSPropertyOp14
 70
     1
102
RTVSPropertyOp15
 70
     1
102
RTVSPropertyOp16
 70
     1
102
RTVSPropertyOp17
 70
     1
102
RTVSPropertyOp18
 70
     1
102
RTVSPropertyOp19
 70
     1
102
RTVSPropertyOp20
 70
     1
102
RTVSPropertyOp21
 70
     1
102
RTVSPropertyOp22
 70
     1
102
RTVSPropertyOp23
 70
     1
102
RTVSPropertyOp24
 70
     1
102
RTVSPropertyOp25
 70
     1
102
RTVSPropertyOp26
 70
     1
102
RTVSPropertyOp27
 70
     1
102
RTVSPropertyOp28
 70
     1
102
RTVSPropertyOp29
 70
     1
102
RTVSPropertyOp30
 70
     1
102
RTVSPropertyOp31
 70
     1
102
RTVSPropertyOp32
 70
     1
  0
XRECORD
  5
1DF
102
{ACAD_REACTORS
330
1DE
102
}
330
1DE
100
AcDbXrecord
280
     1
102
RTVSPropertyOp0
 70
     1
102
RTVSPropertyOp1
 70
     1
102
RTVSPropertyOp2
 70
     1
102
RTVSPropertyOp3
 70
     1
102
RTVSPropertyOp4
 70
     1
102
RTVSPropertyOp5
 70
     1
102
RTVSPropertyOp6
 70
     1
102
RTVSPropertyOp7
 70
     1
102
RTVSPropertyOp8
 70
     1
102
RTVSPropertyOp9
 70
     1
102
RTVSPropertyOp10
 70
     1
102
RTVSPropertyOp11
 70
     1
102
RTVSPropertyOp12
 70
     1
102
RTVSPropertyOp13
 70
     1
102
RTVSPropertyOp14
 70
     1
102
RTVSPropertyOp15
 70
     1
102
RTVSPropertyOp16
 70
     1
102
RTVSPropertyOp17
 70
     1
102
RTVSPropertyOp18
 70
     1
102
RTVSPropertyOp19
 70
     1
102
RTVSPropertyOp20
 70
     1
102
RTVSPropertyOp21
 70
     1
102
RTVSPropertyOp22
 70
     1
102
RTVSPropertyOp23
 70
     1
102
RTVSPropertyOp24
 70
     1
102
RTVSPropertyOp25
 70
     1
102
RTVSPropertyOp26
 70
     1
102
RTVSPropertyOp27
 70
     1
102
RTVSPropertyOp28
 70
     1
102
RTVSPropertyOp29
 70
     1
102
RTVSPropertyOp30
 70
     1
102
RTVSPropertyOp31
 70
     1
102
RTVSPropertyOp32
 70
     1
  0
XRECORD
  5
1E7
102
{ACAD_REACTORS
330
1E6
102
}
330
1E6
100
AcDbXrecord
280
     1
102
RTVSPropertyOp0
 70
     1
102
RTVSPropertyOp1
 70
     1
102
RTVSPropertyOp2
 70
     1
102
RTVSPropertyOp3
 70
     1
102
RTVSPropertyOp4
 70
     1
102
RTVSPropertyOp5
 70
     1
102
RTVSPropertyOp6
 70
     1
102
RTVSPropertyOp7
 70
     1
102
RTVSPropertyOp8
 70
     1
102
RTVSPropertyOp9
 70
     1
102
RTVSPropertyOp10
 70
     1
102
RTVSPropertyOp11
 70
     1
102
RTVSPropertyOp12
 70
     1
102
RTVSPropertyOp13
 70
     1
102
RTVSPropertyOp14
 70
     1
102
RTVSPropertyOp15
 70
     1
102
RTVSPropertyOp16
 70
     1
102
RTVSPropertyOp17
 70
     1
102
RTVSPropertyOp18
 70
     1
102
RTVSPropertyOp19
 70
     1
102
RTVSPropertyOp20
 70
     1
102
RTVSPropertyOp21
 70
     1
102
RTVSPropertyOp22
 70
     1
102
RTVSPropertyOp23
 70
     1
102
RTVSPropertyOp24
 70
     1
102
RTVSPropertyOp25
 70
     1
102
RTVSPropertyOp26
 70
     1
102
RTVSPropertyOp27
 70
     1
102
RTVSPropertyOp28
 70
     1
102
RTVSPropertyOp29
 70
     1
102
RTVSPropertyOp30
 70
     1
102
RTVSPropertyOp31
 70
     1
102
RTVSPropertyOp32
 70
     1
  0
XRECORD
  5
1EF
102
{ACAD_REACTORS
330
1EE
102
}
330
1EE
100
AcDbXrecord
280
     1
102
RTVSPropertyOp0
 70
     1
102
RTVSPropertyOp1
 70
     1
102
RTVSPropertyOp2
 70
     1
102
RTVSPropertyOp3
 70
     1
102
RTVSPropertyOp4
 70
     1
102
RTVSPropertyOp5
 70
     1
102
RTVSPropertyOp6
 70
     1
102
RTVSPropertyOp7
 70
     1
102
RTVSPropertyOp8
 70
     1
102
RTVSPropertyOp9
 70
     1
102
RTVSPropertyOp10
 70
     1
102
RTVSPropertyOp11
 70
     1
102
RTVSPropertyOp12
 70
     1
102
RTVSPropertyOp13
 70
     1
102
RTVSPropertyOp14
 70
     1
102
RTVSPropertyOp15
 70
     1
102
RTVSPropertyOp16
 70
     1
102
RTVSPropertyOp17
 70
     1
102
RTVSPropertyOp18
 70
     1
102
RTVSPropertyOp19
 70
     1
102
RTVSPropertyOp20
 70
     1
102
RTVSPropertyOp21
 70
     1
102
RTVSPropertyOp22
 70
     1
102
RTVSPropertyOp23
 70
     1
102
RTVSPropertyOp24
 70
     1
102
RTVSPropertyOp25
 70
     1
102
RTVSPropertyOp26
 70
     1
102
RTVSPropertyOp27
 70
     1
102
RTVSPropertyOp28
 70
     1
102
RTVSPropertyOp29
 70
     1
102
RTVSPropertyOp30
 70
     1
102
RTVSPropertyOp31
 70
     1
102
RTVSPropertyOp32
 70
     1
  0
XRECORD
  5
1E3
102
{ACAD_REACTORS
330
1E2
102
}
330
1E2
100
AcDbXrecord
280
     1
102
RTVSPropertyOp0
 70
     1
102
RTVSPropertyOp1
 70
     1
102
RTVSPropertyOp2
 70
     1
102
RTVSPropertyOp3
 70
     1
102
RTVSPropertyOp4
 70
     1
102
RTVSPropertyOp5
 70
     1
102
RTVSPropertyOp6
 70
     1
102
RTVSPropertyOp7
 70
     1
102
RTVSPropertyOp8
 70
     1
102
RTVSPropertyOp9
 70
     1
102
RTVSPropertyOp10
 70
     1
102
RTVSPropertyOp11
 70
     1
102
RTVSPropertyOp12
 70
     1
102
RTVSPropertyOp13
 70
     1
102
RTVSPropertyOp14
 70
     1
102
RTVSPropertyOp15
 70
     1
102
RTVSPropertyOp16
 70
     1
102
RTVSPropertyOp17
 70
     1
102
RTVSPropertyOp18
 70
     1
102
RTVSPropertyOp19
 70
     1
102
RTVSPropertyOp20
 70
     1
102
RTVSPropertyOp21
 70
     1
102
RTVSPropertyOp22
 70
     1
102
RTVSPropertyOp23
 70
     1
102
RTVSPropertyOp24
 70
     1
102
RTVSPropertyOp25
 70
     1
102
RTVSPropertyOp26
 70
     1
102
RTVSPropertyOp27
 70
     1
102
RTVSPropertyOp28
 70
     1
102
RTVSPropertyOp29
 70
     1
102
RTVSPropertyOp30
 70
     1
102
RTVSPropertyOp31
 70
     1
102
RTVSPropertyOp32
 70
     1
  0
XRECORD
  5
1E5
102
{ACAD_REACTORS
330
1E4
102
}
330
1E4
100
AcDbXrecord
280
     1
102
RTVSPropertyOp0
 70
     1
102
RTVSPropertyOp1
 70
     1
102
RTVSPropertyOp2
 70
     1
102
RTVSPropertyOp3
 70
     1
102
RTVSPropertyOp4
 70
     1
102
RTVSPropertyOp5
 70
     1
102
RTVSPropertyOp6
 70
     1
102
RTVSPropertyOp7
 70
     1
102
RTVSPropertyOp8
 70
     1
102
RTVSPropertyOp9
 70
     1
102
RTVSPropertyOp10
 70
     1
102
RTVSPropertyOp11
 70
     1
102
RTVSPropertyOp12
 70
     1
102
RTVSPropertyOp13
 70
     1
102
RTVSPropertyOp14
 70
     1
102
RTVSPropertyOp15
 70
     1
102
RTVSPropertyOp16
 70
     1
102
RTVSPropertyOp17
 70
     1
102
RTVSPropertyOp18
 70
     1
102
RTVSPropertyOp19
 70
     1
102
RTVSPropertyOp20
 70
     1
102
RTVSPropertyOp21
 70
     1
102
RTVSPropertyOp22
 70
     1
102
RTVSPropertyOp23
 70
     1
102
RTVSPropertyOp24
 70
     1
102
RTVSPropertyOp25
 70
     1
102
RTVSPropertyOp26
 70
     1
102
RTVSPropertyOp27
 70
     1
102
RTVSPropertyOp28
 70
     1
102
RTVSPropertyOp29
 70
     1
102
RTVSPropertyOp30
 70
     1
102
RTVSPropertyOp31
 70
     1
102
RTVSPropertyOp32
 70
     1
  0
XRECORD
  5
1ED
102
{ACAD_REACTORS
330
1EC
102
}
330
1EC
100
AcDbXrecord
280
     1
102
RTVSPropertyOp0
 70
     1
102
RTVSPropertyOp1
 70
     1
102
RTVSPropertyOp2
 70
     1
102
RTVSPropertyOp3
 70
     1
102
RTVSPropertyOp4
 70
     1
102
RTVSPropertyOp5
 70
     1
102
RTVSPropertyOp6
 70
     1
102
RTVSPropertyOp7
 70
     1
102
RTVSPropertyOp8
 70
     1
102
RTVSPropertyOp9
 70
     1
102
RTVSPropertyOp10
 70
     1
102
RTVSPropertyOp11
 70
     1
102
RTVSPropertyOp12
 70
     1
102
RTVSPropertyOp13
 70
     1
102
RTVSPropertyOp14
 70
     1
102
RTVSPropertyOp15
 70
     1
102
RTVSPropertyOp16
 70
     1
102
RTVSPropertyOp17
 70
     1
102
RTVSPropertyOp18
 70
     1
102
RTVSPropertyOp19
 70
     1
102
RTVSPropertyOp20
 70
     1
102
RTVSPropertyOp21
 70
     1
102
RTVSPropertyOp22
 70
     1
102
RTVSPropertyOp23
 70
     1
102
RTVSPropertyOp24
 70
     1
102
RTVSPropertyOp25
 70
     1
102
RTVSPropertyOp26
 70
     1
102
RTVSPropertyOp27
 70
     1
102
RTVSPropertyOp28
 70
     1
102
RTVSPropertyOp29
 70
     1
102
RTVSPropertyOp30
 70
     1
102
RTVSPropertyOp31
 70
     1
102
RTVSPropertyOp32
 70
     1
  0
XRECORD
  5
1D1
102
{ACAD_REACTORS
330
1D0
102
}
330
1D0
100
AcDbXrecord
280
     1
102
RTVSPropertyOp0
 70
     1
102
RTVSPropertyOp1
 70
     1
102
RTVSPropertyOp2
 70
     1
102
RTVSPropertyOp3
 70
     1
102
RTVSPropertyOp4
 70
     1
102
RTVSPropertyOp5
 70
     1
102
RTVSPropertyOp6
 70
     1
102
RTVSPropertyOp7
 70
     1
102
RTVSPropertyOp8
 70
     1
102
RTVSPropertyOp9
 70
     1
102
RTVSPropertyOp10
 70
     1
102
RTVSPropertyOp11
 70
     1
102
RTVSPropertyOp12
 70
     1
102
RTVSPropertyOp13
 70
     1
102
RTVSPropertyOp14
 70
     1
102
RTVSPropertyOp15
 70
     1
102
RTVSPropertyOp16
 70
     1
102
RTVSPropertyOp17
 70
     1
102
RTVSPropertyOp18
 70
     1
102
RTVSPropertyOp19
 70
     1
102
RTVSPropertyOp20
 70
     1
102
RTVSPropertyOp21
 70
     1
102
RTVSPropertyOp22
 70
     1
102
RTVSPropertyOp23
 70
     1
102
RTVSPropertyOp24
 70
     1
102
RTVSPropertyOp25
 70
     1
102
RTVSPropertyOp26
 70
     1
102
RTVSPropertyOp27
 70
     1
102
RTVSPropertyOp28
 70
     1
102
RTVSPropertyOp29
 70
     1
102
RTVSPropertyOp30
 70
     1
102
RTVSPropertyOp31
 70
     1
102
RTVSPropertyOp32
 70
     1
  0
XRECORD
  5
1D3
102
{ACAD_REACTORS
330
1D2
102
}
330
1D2
100
AcDbXrecord
280
     1
102
RTVSPropertyOp0
 70
     1
102
RTVSPropertyOp1
 70
     1
102
RTVSPropertyOp2
 70
     1
102
RTVSPropertyOp3
 70
     1
102
RTVSPropertyOp4
 70
     1
102
RTVSPropertyOp5
 70
     1
102
RTVSPropertyOp6
 70
     1
102
RTVSPropertyOp7
 70
     1
102
RTVSPropertyOp8
 70
     1
102
RTVSPropertyOp9
 70
     1
102
RTVSPropertyOp10
 70
     1
102
RTVSPropertyOp11
 70
     1
102
RTVSPropertyOp12
 70
     1
102
RTVSPropertyOp13
 70
     1
102
RTVSPropertyOp14
 70
     1
102
RTVSPropertyOp15
 70
     1
102
RTVSPropertyOp16
 70
     1
102
RTVSPropertyOp17
 70
     1
102
RTVSPropertyOp18
 70
     1
102
RTVSPropertyOp19
 70
     1
102
RTVSPropertyOp20
 70
     1
102
RTVSPropertyOp21
 70
     1
102
RTVSPropertyOp22
 70
     1
102
RTVSPropertyOp23
 70
     1
102
RTVSPropertyOp24
 70
     1
102
RTVSPropertyOp25
 70
     1
102
RTVSPropertyOp26
 70
     1
102
RTVSPropertyOp27
 70
     1
102
RTVSPropertyOp28
 70
     1
102
RTVSPropertyOp29
 70
     1
102
RTVSPropertyOp30
 70
     1
102
RTVSPropertyOp31
 70
     1
102
RTVSPropertyOp32
 70
     1
  0
XRECORD
  5
1D5
102
{ACAD_REACTORS
330
1D4
102
}
330
1D4
100
AcDbXrecord
280
     1
102
RTVSPropertyOp0
 70
     1
102
RTVSPropertyOp1
 70
     1
102
RTVSPropertyOp2
 70
     1
102
RTVSPropertyOp3
 70
     1
102
RTVSPropertyOp4
 70
     1
102
RTVSPropertyOp5
 70
     1
102
RTVSPropertyOp6
 70
     1
102
RTVSPropertyOp7
 70
     1
102
RTVSPropertyOp8
 70
     1
102
RTVSPropertyOp9
 70
     1
102
RTVSPropertyOp10
 70
     1
102
RTVSPropertyOp11
 70
     1
102
RTVSPropertyOp12
 70
     1
102
RTVSPropertyOp13
 70
     1
102
RTVSPropertyOp14
 70
     1
102
RTVSPropertyOp15
 70
     1
102
RTVSPropertyOp16
 70
     1
102
RTVSPropertyOp17
 70
     1
102
RTVSPropertyOp18
 70
     1
102
RTVSPropertyOp19
 70
     1
102
RTVSPropertyOp20
 70
     1
102
RTVSPropertyOp21
 70
     1
102
RTVSPropertyOp22
 70
     1
102
RTVSPropertyOp23
 70
     1
102
RTVSPropertyOp24
 70
     1
102
RTVSPropertyOp25
 70
     1
102
RTVSPropertyOp26
 70
     1
102
RTVSPropertyOp27
 70
     1
102
RTVSPropertyOp28
 70
     1
102
RTVSPropertyOp29
 70
     1
102
RTVSPropertyOp30
 70
     1
102
RTVSPropertyOp31
 70
     1
102
RTVSPropertyOp32
 70
     1
  0
XRECORD
  5
1D7
102
{ACAD_REACTORS
330
1D6
102
}
330
1D6
100
AcDbXrecord
280
     1
102
RTVSPropertyOp0
 70
     1
102
RTVSPropertyOp1
 70
     1
102
RTVSPropertyOp2
 70
     1
102
RTVSPropertyOp3
 70
     1
102
RTVSPropertyOp4
 70
     1
102
RTVSPropertyOp5
 70
     1
102
RTVSPropertyOp6
 70
     1
102
RTVSPropertyOp7
 70
     1
102
RTVSPropertyOp8
 70
     1
102
RTVSPropertyOp9
 70
     1
102
RTVSPropertyOp10
 70
     1
102
RTVSPropertyOp11
 70
     1
102
RTVSPropertyOp12
 70
     1
102
RTVSPropertyOp13
 70
     1
102
RTVSPropertyOp14
 70
     1
102
RTVSPropertyOp15
 70
     1
102
RTVSPropertyOp16
 70
     1
102
RTVSPropertyOp17
 70
     1
102
RTVSPropertyOp18
 70
     1
102
RTVSPropertyOp19
 70
     1
102
RTVSPropertyOp20
 70
     1
102
RTVSPropertyOp21
 70
     1
102
RTVSPropertyOp22
 70
     1
102
RTVSPropertyOp23
 70
     1
102
RTVSPropertyOp24
 70
     1
102
RTVSPropertyOp25
 70
     1
102
RTVSPropertyOp26
 70
     1
102
RTVSPropertyOp27
 70
     1
102
RTVSPropertyOp28
 70
     1
102
RTVSPropertyOp29
 70
     1
102
RTVSPropertyOp30
 70
     1
102
RTVSPropertyOp31
 70
     1
102
RTVSPropertyOp32
 70
     1
  0
XRECORD
  5
1EB
102
{ACAD_REACTORS
330
1EA
102
}
330
1EA
100
AcDbXrecord
280
     1
102
RTVSPropertyOp0
 70
     1
102
RTVSPropertyOp1
 70
     1
102
RTVSPropertyOp2
 70
     1
102
RTVSPropertyOp3
 70
     1
102
RTVSPropertyOp4
 70
     1
102
RTVSPropertyOp5
 70
     1
102
RTVSPropertyOp6
 70
     1
102
RTVSPropertyOp7
 70
     1
102
RTVSPropertyOp8
 70
     1
102
RTVSPropertyOp9
 70
     1
102
RTVSPropertyOp10
 70
     1
102
RTVSPropertyOp11
 70
     1
102
RTVSPropertyOp12
 70
     1
102
RTVSPropertyOp13
 70
     1
102
RTVSPropertyOp14
 70
     1
102
RTVSPropertyOp15
 70
     1
102
RTVSPropertyOp16
 70
     1
102
RTVSPropertyOp17
 70
     1
102
RTVSPropertyOp18
 70
     1
102
RTVSPropertyOp19
 70
     1
102
RTVSPropertyOp20
 70
     1
102
RTVSPropertyOp21
 70
     1
102
RTVSPropertyOp22
 70
     1
102
RTVSPropertyOp23
 70
     1
102
RTVSPropertyOp24
 70
     1
102
RTVSPropertyOp25
 70
     1
102
RTVSPropertyOp26
 70
     1
102
RTVSPropertyOp27
 70
     1
102
RTVSPropertyOp28
 70
     1
102
RTVSPropertyOp29
 70
     1
102
RTVSPropertyOp30
 70
     1
102
RTVSPropertyOp31
 70
     1
102
RTVSPropertyOp32
 70
     1
  0
XRECORD
  5
1E1
102
{ACAD_REACTORS
330
1E0
102
}
330
1E0
100
AcDbXrecord
280
     1
102
RTVSPropertyOp0
 70
     1
102
RTVSPropertyOp1
 70
     1
102
RTVSPropertyOp2
 70
     1
102
RTVSPropertyOp3
 70
     1
102
RTVSPropertyOp4
 70
     1
102
RTVSPropertyOp5
 70
     1
102
RTVSPropertyOp6
 70
     1
102
RTVSPropertyOp7
 70
     1
102
RTVSPropertyOp8
 70
     1
102
RTVSPropertyOp9
 70
     1
102
RTVSPropertyOp10
 70
     1
102
RTVSPropertyOp11
 70
     1
102
RTVSPropertyOp12
 70
     1
102
RTVSPropertyOp13
 70
     1
102
RTVSPropertyOp14
 70
     1
102
RTVSPropertyOp15
 70
     1
102
RTVSPropertyOp16
 70
     1
102
RTVSPropertyOp17
 70
     1
102
RTVSPropertyOp18
 70
     1
102
RTVSPropertyOp19
 70
     1
102
RTVSPropertyOp20
 70
     1
102
RTVSPropertyOp21
 70
     1
102
RTVSPropertyOp22
 70
     1
102
RTVSPropertyOp23
 70
     1
102
RTVSPropertyOp24
 70
     1
102
RTVSPropertyOp25
 70
     1
102
RTVSPropertyOp26
 70
     1
102
RTVSPropertyOp27
 70
     1
102
RTVSPropertyOp28
 70
     1
102
RTVSPropertyOp29
 70
     1
102
RTVSPropertyOp30
 70
     1
102
RTVSPropertyOp31
 70
     1
102
RTVSPropertyOp32
 70
     1
  0
XRECORD
  5
1E9
102
{ACAD_REACTORS
330
1E8
102
}
330
1E8
100
AcDbXrecord
280
     1
102
RTVSPropertyOp0
 70
     1
102
RTVSPropertyOp1
 70
     1
102
RTVSPropertyOp2
 70
     1
102
RTVSPropertyOp3
 70
     1
102
RTVSPropertyOp4
 70
     1
102
RTVSPropertyOp5
 70
     1
102
RTVSPropertyOp6
 70
     1
102
RTVSPropertyOp7
 70
     1
102
RTVSPropertyOp8
 70
     1
102
RTVSPropertyOp9
 70
     1
102
RTVSPropertyOp10
 70
     1
102
RTVSPropertyOp11
 70
     1
102
RTVSPropertyOp12
 70
     1
102
RTVSPropertyOp13
 70
     1
102
RTVSPropertyOp14
 70
     1
102
RTVSPropertyOp15
 70
     1
102
RTVSPropertyOp16
 70
     1
102
RTVSPropertyOp17
 70
     1
102
RTVSPropertyOp18
 70
     1
102
RTVSPropertyOp19
 70
     1
102
RTVSPropertyOp20
 70
     1
102
RTVSPropertyOp21
 70
     1
102
RTVSPropertyOp22
 70
     1
102
RTVSPropertyOp23
 70
     1
102
RTVSPropertyOp24
 70
     1
102
RTVSPropertyOp25
 70
     1
102
RTVSPropertyOp26
 70
     1
102
RTVSPropertyOp27
 70
     1
102
RTVSPropertyOp28
 70
     1
102
RTVSPropertyOp29
 70
     1
102
RTVSPropertyOp30
 70
     1
102
RTVSPropertyOp31
 70
     1
102
RTVSPropertyOp32
 70
     1
  0
ENDSEC
  0
EOF
