  0
SECTION
  2
HEADER
  9
$ACADVER
  1
AC1015
  9
$ACADMAINTVER
 70
     6
  9
$DWGCODEPAGE
  3
ANSI_932
  9
$INSBASE
 10
0.0
 20
0.0
 30
0.0
  9
$EXTMIN
 10
0.0
 20
0.0
 30
0.0
  9
$EXTMAX
 10
630.0
 20
891.0
 30
0.0
  9
$LIMMIN
 10
0.0
 20
0.0
  9
$LIMMAX
 10
12.0
 20
9.0
  9
$ORTHOMODE
 70
     0
  9
$REGENMODE
 70
     1
  9
$FILLMODE
 70
     1
  9
$QTEXTMODE
 70
     0
  9
$MIRRTEXT
 70
     1
  9
$LTSCALE
 40
1.0
  9
$ATTMODE
 70
     1
  9
$TEXTSIZE
 40
0.2
  9
$TRACEWID
 40
0.05
  9
$TEXTSTYLE
  7
Standard
  9
$CLAYER
  8
0
  9
$CELTYPE
  6
ByLayer
  9
$CECOLOR
 62
   256
  9
$CELTSCALE
 40
1.0
  9
$DISPSILH
 70
     0
  9
$DIMSCALE
 40
1.0
  9
$DIMASZ
 40
0.18
  9
$DIMEXO
 40
0.0625
  9
$DIMDLI
 40
0.38
  9
$DIMRND
 40
0.0
  9
$DIMDLE
 40
0.0
  9
$DIMEXE
 40
0.18
  9
$DIMTP
 40
0.0
  9
$DIMTM
 40
0.0
  9
$DIMTXT
 40
0.18
  9
$DIMCEN
 40
0.09
  9
$DIMTSZ
 40
0.0
  9
$DIMTOL
 70
     0
  9
$DIMLIM
 70
     0
  9
$DIMTIH
 70
     1
  9
$DIMTOH
 70
     1
  9
$DIMSE1
 70
     0
  9
$DIMSE2
 70
     0
  9
$DIMTAD
 70
     0
  9
$DIMZIN
 70
     0
  9
$DIMBLK
  1

  9
$DIMASO
 70
     1
  9
$DIMSHO
 70
     1
  9
$DIMPOST
  1

  9
$DIMAPOST
  1

  9
$DIMALT
 70
     0
  9
$DIMALTD
 70
     2
  9
$DIMALTF
 40
25.4
  9
$DIMLFAC
 40
1.0
  9
$DIMTOFL
 70
     0
  9
$DIMTVP
 40
0.0
  9
$DIMTIX
 70
     0
  9
$DIMSOXD
 70
     0
  9
$DIMSAH
 70
     0
  9
$DIMBLK1
  1

  9
$DIMBLK2
  1

  9
$DIMSTYLE
  2
Standard
  9
$DIMCLRD
 70
     0
  9
$DIMCLRE
 70
     0
  9
$DIMCLRT
 70
     0
  9
$DIMTFAC
 40
1.0
  9
$DIMGAP
 40
0.09
  9
$DIMJUST
 70
     0
  9
$DIMSD1
 70
     0
  9
$DIMSD2
 70
     0
  9
$DIMTOLJ
 70
     1
  9
$DIMTZIN
 70
     0
  9
$DIMALTZ
 70
     0
  9
$DIMALTTZ
 70
     0
  9
$DIMUPT
 70
     0
  9
$DIMDEC
 70
     4
  9
$DIMTDEC
 70
     4
  9
$DIMALTU
 70
     2
  9
$DIMALTTD
 70
     2
  9
$DIMTXSTY
  7
Standard
  9
$DIMAUNIT
 70
     0
  9
$DIMADEC
 70
     0
  9
$DIMALTRND
 40
0.0
  9
$DIMAZIN
 70
     0
  9
$DIMDSEP
 70
    46
  9
$DIMATFIT
 70
     3
  9
$DIMFRAC
 70
     0
  9
$DIMLDRBLK
  1

  9
$DIMLUNIT
 70
     2
  9
$DIMLWD
 70
    -2
  9
$DIMLWE
 70
    -2
  9
$DIMTMOVE
 70
     0
  9
$LUNITS
 70
     2
  9
$LUPREC
 70
     4
  9
$SKETCHINC
 40
0.1
  9
$FILLETRAD
 40
0.5
  9
$AUNITS
 70
     0
  9
$AUPREC
 70
     0
  9
$MENU
  1
.
  9
$ELEVATION
 40
0.0
  9
$PELEVATION
 40
0.0
  9
$THICKNESS
 40
0.0
  9
$LIMCHECK
 70
     0
  9
$CHAMFERA
 40
0.5
  9
$CHAMFERB
 40
0.5
  9
$CHAMFERC
 40
1.0
  9
$CHAMFERD
 40
0.0
  9
$SKPOLY
 70
     0
  9
$TDCREATE
 40
2456496.586512361
  9
$TDUCREATE
 40
2456496.211512361
  9
$TDUPDATE
 40
2456496.586513449
  9
$TDUUPDATE
 40
2456496.211513449
  9
$TDINDWG
 40
0.0000000116
  9
$TDUSRTIMER
 40
0.0000000116
  9
$USRTIMER
 70
     1
  9
$ANGBASE
 50
0.0
  9
$ANGDIR
 70
     0
  9
$PDMODE
 70
     0
  9
$PDSIZE
 40
0.0
  9
$PLINEWID
 40
0.0
  9
$SPLFRAME
 70
     0
  9
$SPLINETYPE
 70
     6
  9
$SPLINESEGS
 70
     8
  9
$HANDSEED
  5
3E3
  9
$SURFTAB1
 70
     6
  9
$SURFTAB2
 70
     6
  9
$SURFTYPE
 70
     6
  9
$SURFU
 70
     6
  9
$SURFV
 70
     6
  9
$UCSBASE
  2

  9
$UCSNAME
  2

  9
$UCSORG
 10
0.0
 20
0.0
 30
0.0
  9
$UCSXDIR
 10
1.0
 20
0.0
 30
0.0
  9
$UCSYDIR
 10
0.0
 20
1.0
 30
0.0
  9
$UCSORTHOREF
  2

  9
$UCSORTHOVIEW
 70
     0
  9
$UCSORGTOP
 10
0.0
 20
0.0
 30
0.0
  9
$UCSORGBOTTOM
 10
0.0
 20
0.0
 30
0.0
  9
$UCSORGLEFT
 10
0.0
 20
0.0
 30
0.0
  9
$UCSORGRIGHT
 10
0.0
 20
0.0
 30
0.0
  9
$UCSORGFRONT
 10
0.0
 20
0.0
 30
0.0
  9
$UCSORGBACK
 10
0.0
 20
0.0
 30
0.0
  9
$PUCSBASE
  2

  9
$PUCSNAME
  2

  9
$PUCSORG
 10
0.0
 20
0.0
 30
0.0
  9
$PUCSXDIR
 10
1.0
 20
0.0
 30
0.0
  9
$PUCSYDIR
 10
0.0
 20
1.0
 30
0.0
  9
$PUCSORTHOREF
  2

  9
$PUCSORTHOVIEW
 70
     0
  9
$PUCSORGTOP
 10
0.0
 20
0.0
 30
0.0
  9
$PUCSORGBOTTOM
 10
0.0
 20
0.0
 30
0.0
  9
$PUCSORGLEFT
 10
0.0
 20
0.0
 30
0.0
  9
$PUCSORGRIGHT
 10
0.0
 20
0.0
 30
0.0
  9
$PUCSORGFRONT
 10
0.0
 20
0.0
 30
0.0
  9
$PUCSORGBACK
 10
0.0
 20
0.0
 30
0.0
  9
$USERI1
 70
     0
  9
$USERI2
 70
     0
  9
$USERI3
 70
     0
  9
$USERI4
 70
     0
  9
$USERI5
 70
     0
  9
$USERR1
 40
18.1
  9
$USERR2
 40
0.0
  9
$USERR3
 40
0.0
  9
$USERR4
 40
0.0
  9
$USERR5
 40
0.0
  9
$WORLDVIEW
 70
     1
  9
$SHADEDGE
 70
     3
  9
$SHADEDIF
 70
    70
  9
$TILEMODE
 70
     1
  9
$MAXACTVP
 70
    64
  9
$PINSBASE
 10
0.0
 20
0.0
 30
0.0
  9
$PLIMCHECK
 70
     0
  9
$PEXTMIN
 10
1.00000000000000E+20
 20
1.00000000000000E+20
 30
1.00000000000000E+20
  9
$PEXTMAX
 10
-1.00000000000000E+20
 20
-1.00000000000000E+20
 30
-1.00000000000000E+20
  9
$PLIMMIN
 10
0.0
 20
0.0
  9
$PLIMMAX
 10
12.0
 20
9.0
  9
$UNITMODE
 70
     0
  9
$VISRETAIN
 70
     1
  9
$PLINEGEN
 70
     0
  9
$PSLTSCALE
 70
     1
  9
$TREEDEPTH
 70
  3020
  9
$CMLSTYLE
  2
Standard
  9
$CMLJUST
 70
     0
  9
$CMLSCALE
 40
1.0
  9
$PROXYGRAPHICS
 70
     1
  9
$MEASUREMENT
 70
     1
  9
$CELWEIGHT
370
    -1
  9
$ENDCAPS
280
     0
  9
$JOINSTYLE
280
     0
  9
$LWDISPLAY
290
     0
  9
$INSUNITS
 70
     4
  9
$HYPERLINKBASE
  1

  9
$STYLESHEET
  1

  9
$XEDIT
290
     1
  9
$CEPSNTYPE
380
     0
  9
$PSTYLEMODE
290
     1
  9
$FINGERPRINTGUID
  2
{B4FE23B3-C704-4828-A560-BB790A831488}
  9
$VERSIONGUID
  2
{FAEB1C32-E019-11D5-929B-00C0DF256EC4}
  9
$EXTNAMES
290
     1
  9
$PSVPSCALE
 40
0.0
  9
$OLESTARTUP
290
     0
  0
ENDSEC
  0
SECTION
  2
CLASSES
  0
CLASS
  1
ACDBDICTIONARYWDFLT
  2
AcDbDictionaryWithDefault
  3
ObjectDBX Classes
 90
        0
280
     0
281
     0
  0
CLASS
  1
VISUALSTYLE
  2
AcDbVisualStyle
  3
ObjectDBX Classes
 90
     4095
280
     0
281
     0
  0
CLASS
  1
MATERIAL
  2
AcDbMaterial
  3
ObjectDBX Classes
 90
     1153
280
     0
281
     0
  0
CLASS
  1
DICTIONARYVAR
  2
AcDbDictionaryVar
  3
ObjectDBX Classes
 90
        0
280
     0
281
     0
  0
CLASS
  1
ACDBPLACEHOLDER
  2
AcDbPlaceHolder
  3
ObjectDBX Classes
 90
        0
280
     0
281
     0
  0
CLASS
  1
LAYOUT
  2
AcDbLayout
  3
ObjectDBX Classes
 90
        0
280
     0
281
     0
  0
ENDSEC
  0
SECTION
  2
TABLES
  0
TABLE
  2
VPORT
  5
8
330
0
100
AcDbSymbolTable
 70
     1
  0
VPORT
  5
29
330
8
100
AcDbSymbolTableRecord
100
AcDbViewportTableRecord
  2
*Active
 70
     0
 10
0.0
 20
0.0
 11
1.0
 21
1.0
 12
315.0
 22
445.5
 13
0.0
 23
0.0
 14
0.5
 24
0.5
 15
0.5
 25
0.5
 16
0.0
 26
0.0
 36
1.0
 17
0.0
 27
0.0
 37
0.0
 40
980.1
 41
1.60267857142857
 42
50.0
 43
0.0
 44
0.0
 50
0.0
 51
0.0
 71
     0
 72
   100
 73
     1
 74
     3
 75
     0
 76
     0
 77
     0
 78
     0
281
     0
 65
     1
110
0.0
120
0.0
130
0.0
111
1.0
121
0.0
131
0.0
112
0.0
122
1.0
132
0.0
 79
     0
146
0.0
  0
ENDTAB
  0
TABLE
  2
LTYPE
  5
5
330
0
100
AcDbSymbolTable
 70
     8
  0
LTYPE
  5
14
330
5
100
AcDbSymbolTableRecord
100
AcDbLinetypeTableRecord
  2
ByBlock
 70
     0
  3

 72
    65
 73
     0
 40
0.0
  0
LTYPE
  5
15
330
5
100
AcDbSymbolTableRecord
100
AcDbLinetypeTableRecord
  2
ByLayer
 70
     0
  3

 72
    65
 73
     0
 40
0.0
  0
LTYPE
  5
16
330
5
100
AcDbSymbolTableRecord
100
AcDbLinetypeTableRecord
  2
Continuous
 70
     0
  3
Solid line
 72
    65
 73
     0
 40
0.0
  0
LTYPE
  5
3F
330
5
100
AcDbSymbolTableRecord
100
AcDbLinetypeTableRecord
  2
DASHED
 70
     0
  3
Dashed
 72
    65
 73
     2
 40
15.0
 49
7.0
 74
     0
 49
-8.0
 74
     0
  0
LTYPE
  5
40
330
5
100
AcDbSymbolTableRecord
100
AcDbLinetypeTableRecord
  2
DOTTED
 70
     0
  3
Dotted
 72
    65
 73
     2
 40
1.0
 49
0.0
 74
     0
 49
-1.0
 74
     0
  0
LTYPE
  5
41
330
5
100
AcDbSymbolTableRecord
100
AcDbLinetypeTableRecord
  2
DOT_CENTER
 70
     0
  3
Dot_Center
 72
    65
 73
     4
 40
14.0
 49
12.0
 74
     0
 49
-1.0
 74
     0
 49
0.0
 74
     0
 49
-1.0
 74
     0
  0
LTYPE
  5
42
330
5
100
AcDbSymbolTableRecord
100
AcDbLinetypeTableRecord
  2
LONG_DASHED
 70
     0
  3
Long_Dashed
 72
    65
 73
     2
 40
15.0
 49
10.0
 74
     0
 49
-5.0
 74
     0
  0
LTYPE
  5
43
330
5
100
AcDbSymbolTableRecord
100
AcDbLinetypeTableRecord
  2
DASH_CENTER
 70
     0
  3
Dash_Center
 72
    65
 73
     4
 40
14.0
 49
11.0
 74
     0
 49
-1.0
 74
     0
 49
1.0
 74
     0
 49
-1.0
 74
     0
  0
LTYPE
  5
44
330
5
100
AcDbSymbolTableRecord
100
AcDbLinetypeTableRecord
  2
PHANTOM
 70
     0
  3
Phantom
 72
    65
 73
     6
 40
13.0
 49
10.0
 74
     0
 49
-1.0
 74
     0
 49
0.0
 74
     0
 49
-1.0
 74
     0
 49
0.0
 74
     0
 49
-1.0
 74
     0
  0
LTYPE
  5
45
330
5
100
AcDbSymbolTableRecord
100
AcDbLinetypeTableRecord
  2
CENTER_DASH_DASH
 70
     0
  3
Center_Dash_Dash
 72
    65
 73
     6
 40
14.0
 49
9.0
 74
     0
 49
-1.0
 74
     0
 49
1.0
 74
     0
 49
-1.0
 74
     0
 49
1.0
 74
     0
 49
-1.0
 74
     0
  0
ENDTAB
  0
TABLE
  2
LAYER
  5
2
330
0
100
AcDbSymbolTable
 70
     3
  0
LAYER
  5
10
330
2
100
AcDbSymbolTableRecord
100
AcDbLayerTableRecord
  2
0
 70
     0
 62
     7
  6
Continuous
370
    -3
390
F
  0
LAYER
  5
46
330
2
100
AcDbSymbolTableRecord
100
AcDbLayerTableRecord
  2
1
 70
     0
 62
     7
  6
Continuous
370
    -3
390
F
  0
LAYER
  5
47
330
2
100
AcDbSymbolTableRecord
100
AcDbLayerTableRecord
  2
ﾚｲﾔ_1
 70
     0
 62
     7
  6
Continuous
370
    -3
390
F
  0
ENDTAB
  0
TABLE
  2
STYLE
  5
3
330
0
100
AcDbSymbolTable
 70
     3
  0
STYLE
  5
11
330
3
100
AcDbSymbolTableRecord
100
AcDbTextStyleTableRecord
  2
Standard
 70
     0
 40
0.0
 41
1.0
 50
0.0
 71
     0
 42
0.2
  3
txt
  4

  0
STYLE
  5
1FD
330
3
100
AcDbSymbolTableRecord
100
AcDbTextStyleTableRecord
  2
CONVERTER_11
 70
     0
 40
0.0
 41
0.89
 50
0.0
 71
     0
 42
0.2
  3
MS Mincho.ttf
  4

1001
ACAD
1000
MS Mincho
1071
    32785
  0
STYLE
  5
337
330
3
100
AcDbSymbolTableRecord
100
AcDbTextStyleTableRecord
  2
CONVERTER_12
 70
     0
 40
0.0
 41
0.9
 50
0.0
 71
     0
 42
0.2
  3
txt.shx
  4

  0
ENDTAB
  0
TABLE
  2
VIEW
  5
6
330
0
100
AcDbSymbolTable
 70
     0
  0
ENDTAB
  0
TABLE
  2
UCS
  5
7
330
0
100
AcDbSymbolTable
 70
     0
  0
ENDTAB
  0
TABLE
  2
APPID
  5
9
330
0
100
AcDbSymbolTable
 70
     1
  0
APPID
  5
12
330
9
100
AcDbSymbolTableRecord
100
AcDbRegAppTableRecord
  2
ACAD
 70
     0
  0
ENDTAB
  0
TABLE
  2
DIMSTYLE
  5
A
330
0
100
AcDbSymbolTable
 70
    11
100
AcDbDimStyleTable
  0
DIMSTYLE
105
27
330
A
100
AcDbSymbolTableRecord
100
AcDbDimStyleTableRecord
  2
Standard
 70
     0
178
     0
340
11
  0
DIMSTYLE
105
347
102
{ACAD_REACTORS
330
348
102
}
330
A
100
AcDbSymbolTableRecord
100
AcDbDimStyleTableRecord
  2
ME10_DIM_10
 70
     0
 41
10.50000000000001
 42
0.0
 44
3.0
 73
     0
 74
     0
 77
     1
 78
     8
140
10.50000000000001
147
3.0
172
     1
173
     1
174
     1
175
     1
176
     2
177
     2
271
     2
178
     7
271
     2
340
337
  0
DIMSTYLE
105
352
102
{ACAD_REACTORS
330
353
102
}
330
A
100
AcDbSymbolTableRecord
100
AcDbDimStyleTableRecord
  2
ME10_DIM_11
 70
     0
 41
10.50000000000001
 42
0.0
 44
3.0
 73
     0
 74
     0
 77
     1
 78
     8
140
10.50000000000001
147
3.0
172
     1
173
     1
174
     1
175
     1
176
     2
177
     2
271
     2
178
     7
271
     2
340
337
  0
DIMSTYLE
105
35D
102
{ACAD_REACTORS
330
35E
102
}
330
A
100
AcDbSymbolTableRecord
100
AcDbDimStyleTableRecord
  2
ME10_DIM_12
 70
     0
 41
10.50000000000001
 42
0.0
 44
3.0
 73
     0
 74
     0
 77
     1
 78
     8
140
10.50000000000001
147
3.0
172
     1
173
     1
174
     1
175
     1
176
     2
177
     2
271
     2
178
     7
271
     2
340
337
  0
DIMSTYLE
105
369
102
{ACAD_REACTORS
330
36A
102
}
330
A
100
AcDbSymbolTableRecord
100
AcDbDimStyleTableRecord
  2
ME10_DIM_13
 70
     0
  3
内径{\Fgdt;n}<>
 41
10.5
 42
0.0
 44
3.0
 73
     0
 74
     0
 77
     1
 78
     8
140
10.5
147
3.0
172
     1
173
     1
174
     1
175
     1
176
     2
177
     2
271
     2
178
     7
271
     2
340
1FD
  0
DIMSTYLE
105
376
102
{ACAD_REACTORS
330
377
102
}
330
A
100
AcDbSymbolTableRecord
100
AcDbDimStyleTableRecord
  2
ME10_DIM_14
 70
     0
 41
10.5
 42
0.0
 44
3.0
 73
     0
 74
     0
 77
     1
 78
     8
140
10.5
147
3.0
172
     1
173
     1
174
     1
175
     1
176
     2
177
     2
271
     2
178
     7
271
     2
340
337
  0
DIMSTYLE
105
383
102
{ACAD_REACTORS
330
384
102
}
330
A
100
AcDbSymbolTableRecord
100
AcDbDimStyleTableRecord
  2
ME10_DIM_15
 70
     0
 41
10.5
 42
0.0
 44
3.0
 73
     0
 74
     0
 77
     1
 78
     8
140
10.5
147
3.0
172
     1
173
     1
174
     1
175
     1
176
     2
177
     2
271
     2
178
     7
271
     2
340
337
  0
DIMSTYLE
105
38E
102
{ACAD_REACTORS
330
38F
102
}
330
A
100
AcDbSymbolTableRecord
100
AcDbDimStyleTableRecord
  2
ME10_DIM_16
 70
     0
  3
{\Fgdt;n}<>
 41
10.5
 42
0.0
 44
3.0
 73
     0
 74
     0
 77
     1
 78
     8
140
10.5
147
3.0
172
     1
173
     1
174
     1
175
     1
176
     2
177
     2
271
     2
178
     7
271
     2
340
337
  0
DIMSTYLE
105
399
102
{ACAD_REACTORS
330
39A
102
}
330
A
100
AcDbSymbolTableRecord
100
AcDbDimStyleTableRecord
  2
ME10_DIM_17
 70
     0
  3
内径{\Fgdt;n}<>
 41
10.5
 42
0.0
 44
3.0
 73
     0
 74
     0
 77
     1
 78
     8
140
10.5
147
3.0
172
     1
173
     1
174
     1
175
     1
176
     2
177
     2
271
     2
178
     7
271
     2
340
1FD
  0
DIMSTYLE
105
3A4
102
{ACAD_REACTORS
330
3A5
102
}
330
A
100
AcDbSymbolTableRecord
100
AcDbDimStyleTableRecord
  2
ME10_DIM_18
 70
     0
  3
{\Fgdt;n}<>
 41
10.5
 42
0.0
 44
3.0
 73
     0
 74
     0
 77
     1
 78
     8
140
10.5
147
3.0
172
     1
173
     1
174
     1
175
     1
176
     2
177
     2
271
     2
178
     7
271
     2
340
337
  0
DIMSTYLE
105
3AF
102
{ACAD_REACTORS
330
3B0
102
}
330
A
100
AcDbSymbolTableRecord
100
AcDbDimStyleTableRecord
  2
ME10_DIM_19
 70
     0
  3
{\Fgdt;n}<>
 41
10.5
 42
0.0
 44
3.0
 73
     0
 74
     0
 77
     1
 78
     8
140
10.5
147
3.0
172
     1
173
     1
174
     1
175
     1
176
     2
177
     2
271
     2
178
     7
271
     2
340
337
  0
ENDTAB
  0
TABLE
  2
BLOCK_RECORD
  5
1
330
0
100
AcDbSymbolTable
 70
    22
  0
BLOCK_RECORD
  5
1F
330
1
100
AcDbSymbolTableRecord
100
AcDbBlockTableRecord
  2
*Model_Space
340
22
  0
BLOCK_RECORD
  5
1B
330
1
100
AcDbSymbolTableRecord
100
AcDbBlockTableRecord
  2
*Paper_Space
340
1E
  0
BLOCK_RECORD
  5
23
330
1
100
AcDbSymbolTableRecord
100
AcDbBlockTableRecord
  2
*Paper_Space0
340
26
  0
BLOCK_RECORD
  5
48
330
1
100
AcDbSymbolTableRecord
100
AcDbBlockTableRecord
  2
TOP
340
0
102
{BLKREFS
331
66
102
}
  0
BLOCK_RECORD
  5
4B
330
1
100
AcDbSymbolTableRecord
100
AcDbBlockTableRecord
  2
開示A4
340
0
102
{BLKREFS
331
67
102
}
  0
BLOCK_RECORD
  5
4E
330
1
100
AcDbSymbolTableRecord
100
AcDbBlockTableRecord
  2
CLUMP1
340
0
102
{BLKREFS
331
68
102
}
  0
BLOCK_RECORD
  5
51
330
1
100
AcDbSymbolTableRecord
100
AcDbBlockTableRecord
  2
CLUMP4
340
0
102
{BLKREFS
331
69
102
}
  0
BLOCK_RECORD
  5
54
330
1
100
AcDbSymbolTableRecord
100
AcDbBlockTableRecord
  2
CLUMP7
340
0
102
{BLKREFS
331
6A
102
}
  0
BLOCK_RECORD
  5
57
330
1
100
AcDbSymbolTableRecord
100
AcDbBlockTableRecord
  2
CLUMP8
340
0
102
{BLKREFS
331
6B
102
}
  0
BLOCK_RECORD
  5
5A
330
1
100
AcDbSymbolTableRecord
100
AcDbBlockTableRecord
  2
CLUMP9
340
0
102
{BLKREFS
331
6C
102
}
  0
BLOCK_RECORD
  5
5D
330
1
100
AcDbSymbolTableRecord
100
AcDbBlockTableRecord
  2
CLUMP10
340
0
102
{BLKREFS
331
6D
102
}
  0
BLOCK_RECORD
  5
60
330
1
100
AcDbSymbolTableRecord
100
AcDbBlockTableRecord
  2
CLUMP11
340
0
102
{BLKREFS
331
6E
102
}
  0
BLOCK_RECORD
  5
63
330
1
100
AcDbSymbolTableRecord
100
AcDbBlockTableRecord
  2
CLUMP12
340
0
102
{BLKREFS
331
6F
102
}
  0
BLOCK_RECORD
  5
33E
330
1
100
AcDbSymbolTableRecord
100
AcDbBlockTableRecord
  2
*D11
340
0
  0
BLOCK_RECORD
  5
349
330
1
100
AcDbSymbolTableRecord
100
AcDbBlockTableRecord
  2
*D12
340
0
  0
BLOCK_RECORD
  5
354
330
1
100
AcDbSymbolTableRecord
100
AcDbBlockTableRecord
  2
*D13
340
0
  0
BLOCK_RECORD
  5
35F
330
1
100
AcDbSymbolTableRecord
100
AcDbBlockTableRecord
  2
*D14
340
0
  0
BLOCK_RECORD
  5
36B
330
1
100
AcDbSymbolTableRecord
100
AcDbBlockTableRecord
  2
*D15
340
0
  0
BLOCK_RECORD
  5
378
330
1
100
AcDbSymbolTableRecord
100
AcDbBlockTableRecord
  2
*D16
340
0
  0
BLOCK_RECORD
  5
385
330
1
100
AcDbSymbolTableRecord
100
AcDbBlockTableRecord
  2
*D17
340
0
  0
BLOCK_RECORD
  5
390
330
1
100
AcDbSymbolTableRecord
100
AcDbBlockTableRecord
  2
*D18
340
0
  0
BLOCK_RECORD
  5
39B
330
1
100
AcDbSymbolTableRecord
100
AcDbBlockTableRecord
  2
*D19
340
0
  0
BLOCK_RECORD
  5
3A6
330
1
100
AcDbSymbolTableRecord
100
AcDbBlockTableRecord
  2
*D20
340
0
  0
BLOCK_RECORD
  5
3B1
330
1
100
AcDbSymbolTableRecord
100
AcDbBlockTableRecord
  2
*D21
340
0
102
{BLKREFS
331
3B7
102
}
  0
ENDTAB
  0
ENDSEC
  0
SECTION
  2
BLOCKS
  0
BLOCK
  5
20
330
1F
100
AcDbEntity
  8
0
100
AcDbBlockBegin
  2
*Model_Space
 70
     0
 10
0.0
 20
0.0
 30
0.0
  3
*Model_Space
  1

  0
ENDBLK
  5
21
330
1F
100
AcDbEntity
  8
0
100
AcDbBlockEnd
  0
BLOCK
  5
1C
330
1B
100
AcDbEntity
 67
     1
  8
0
100
AcDbBlockBegin
  2
*Paper_Space
 70
     0
 10
0.0
 20
0.0
 30
0.0
  3
*Paper_Space
  1

  0
ENDBLK
  5
1D
330
1B
100
AcDbEntity
 67
     1
  8
0
100
AcDbBlockEnd
  0
BLOCK
  5
24
330
23
100
AcDbEntity
  8
0
100
AcDbBlockBegin
  2
*Paper_Space0
 70
     0
 10
0.0
 20
0.0
 30
0.0
  3
*Paper_Space0
  1

  0
ENDBLK
  5
25
330
23
100
AcDbEntity
  8
0
100
AcDbBlockEnd
  0
BLOCK
  5
49
330
48
100
AcDbEntity
  8
0
100
AcDbBlockBegin
  2
TOP
 70
     0
 10
1085.462534739365
 20
154.63401781068
 30
0.0
  3
TOP
  1

  0
LINE
  5
70
330
48
100
AcDbEntity
  8
ﾚｲﾔ_1
  6
Continuous
 62
     7
100
AcDbLine
 10
209.9698915276652
 20
269.34463694638
 30
0.0
 11
244.6698914969651
 21
269.34463694708
 31
0.0
  0
LINE
  5
71
330
48
100
AcDbEntity
  8
ﾚｲﾔ_1
  6
Continuous
 62
     7
100
AcDbLine
 10
214.36989149653
 20
264.6446369813199
 30
0.0
 11
244.6698914965651
 21
264.64463700758
 31
0.0
  0
LINE
  5
72
330
48
100
AcDbEntity
  8
ﾚｲﾔ_1
  6
Continuous
 62
     7
100
AcDbLine
 10
274.9698914965301
 20
264.64463703384
 30
0.0
 11
277.6698915303651
 21
264.64463703618
 31
0.0
  0
LINE
  5
73
330
48
100
AcDbEntity
  8
ﾚｲﾔ_1
  6
Continuous
 62
     7
100
AcDbLine
 10
244.6698914965651
 20
264.64463700758
 30
0.0
 11
274.9698914965301
 21
264.64463703384
 31
0.0
  0
LINE
  5
74
330
48
100
AcDbEntity
  8
ﾚｲﾔ_1
  6
Continuous
 62
     7
100
AcDbLine
 10
270.1698915101652
 20
722.9867313523799
 30
0.0
 11
246.0198915101651
 21
722.9867313523799
 31
0.0
  0
LINE
  5
75
330
48
100
AcDbEntity
  8
ﾚｲﾔ_1
  6
Continuous
 62
     7
100
AcDbLine
 10
268.1698915101652
 20
733.9867313523799
 30
0.0
 11
268.1698915101652
 21
719.2367313523799
 31
0.0
  0
LINE
  5
76
330
48
100
AcDbEntity
  8
ﾚｲﾔ_1
  6
Continuous
 62
     7
100
AcDbLine
 10
275.481518481165
 20
716.7367313523799
 30
0.0
 11
266.0757053819652
 21
716.7367313523799
 31
0.0
  0
LINE
  5
77
330
48
100
AcDbEntity
  8
ﾚｲﾔ_1
  6
Continuous
 62
     7
100
AcDbLine
 10
277.6698915101651
 20
699.9867313523799
 30
0.0
 11
269.1698915101652
 21
699.9867313523799
 31
0.0
  0
LINE
  5
78
330
48
100
AcDbEntity
  8
ﾚｲﾔ_1
  6
Continuous
 62
     7
100
AcDbLine
 10
257.2755305414761
 20
699.9840130961289
 30
0.0
 11
270.1682511804872
 21
681.5712998139779
 31
0.0
  0
LINE
  5
79
330
48
100
AcDbEntity
  8
ﾚｲﾔ_1
  6
Continuous
 62
     7
100
AcDbLine
 10
260.6698915101652
 20
701.9867313523799
 30
0.0
 11
276.1043471282382
 21
686.552275734353
 31
0.0
  0
LINE
  5
7A
330
48
100
AcDbEntity
  8
ﾚｲﾔ_1
  6
Continuous
 62
     7
100
AcDbLine
 10
244.6698915101652
 20
701.9867313523799
 30
0.0
 11
268.1698915101652
 21
701.9867313523799
 31
0.0
  0
LINE
  5
7B
330
48
100
AcDbEntity
  8
ﾚｲﾔ_1
  6
Continuous
 62
     7
100
AcDbLine
 10
268.1698915101652
 20
701.9867313523799
 30
0.0
 11
268.1698915101652
 21
700.9867313523799
 31
0.0
  0
LINE
  5
7C
330
48
100
AcDbEntity
  8
ﾚｲﾔ_1
  6
Continuous
 62
     7
100
AcDbLine
 10
268.1698915101652
 20
716.7367313523799
 30
0.0
 11
268.1698915101652
 21
701.9867313523799
 31
0.0
  0
LINE
  5
7D
330
48
100
AcDbEntity
  8
ﾚｲﾔ_1
  6
Continuous
 62
     7
100
AcDbLine
 10
267.5202596180651
 20
701.9867313523799
 30
0.0
 11
268.1698915101652
 21
701.5318542043799
 31
0.0
  0
LINE
  5
7E
330
48
100
AcDbEntity
  8
ﾚｲﾔ_1
  6
Continuous
 62
     7
100
AcDbLine
 10
257.2755305414761
 20
735.989449608531
 30
0.0
 11
270.1682511804872
 21
754.4021628906819
 31
0.0
  0
LINE
  5
7F
330
48
100
AcDbEntity
  8
ﾚｲﾔ_1
  6
Continuous
 62
     7
100
AcDbLine
 10
260.6698915101652
 20
733.9867313523799
 30
0.0
 11
276.1043471282382
 21
749.421186970307
 31
0.0
  0
LINE
  5
80
330
48
100
AcDbEntity
  8
ﾚｲﾔ_1
  6
Continuous
 62
     7
100
AcDbLine
 10
267.5202596180651
 20
733.9867313523799
 30
0.0
 11
268.1698915101652
 21
734.4416085002799
 31
0.0
  0
LINE
  5
81
330
48
100
AcDbEntity
  8
ﾚｲﾔ_1
  6
Continuous
 62
     7
100
AcDbLine
 10
270.1698915101652
 20
712.9867313523799
 30
0.0
 11
246.0198915101651
 21
712.9867313523799
 31
0.0
  0
LINE
  5
82
330
48
100
AcDbEntity
  8
ﾚｲﾔ_1
  6
Continuous
 62
     7
100
AcDbLine
 10
275.481518481165
 20
719.2367313523799
 30
0.0
 11
266.0757053819652
 21
719.2367313523799
 31
0.0
  0
LINE
  5
83
330
48
100
AcDbEntity
  8
ﾚｲﾔ_1
  6
Continuous
 62
     7
100
AcDbLine
 10
268.1698915101652
 20
734.9867313523799
 30
0.0
 11
268.1698915101652
 21
733.9867313523799
 31
0.0
  0
LINE
  5
84
330
48
100
AcDbEntity
  8
ﾚｲﾔ_1
  6
Continuous
 62
     7
100
AcDbLine
 10
277.6698915101651
 20
735.9867313523799
 30
0.0
 11
269.1698915101652
 21
735.9867313523799
 31
0.0
  0
LINE
  5
85
330
48
100
AcDbEntity
  8
ﾚｲﾔ_1
  6
Continuous
 62
     7
100
AcDbLine
 10
244.6698915101652
 20
733.9867313523799
 30
0.0
 11
268.1698915101652
 21
733.9867313523799
 31
0.0
  0
LINE
  5
86
330
48
100
AcDbEntity
  8
ﾚｲﾔ_1
  6
Continuous
 62
     7
100
AcDbLine
 10
187.1698915077651
 20
384.64463694088
 30
0.0
 11
187.1698915077651
 21
306.64463703538
 31
0.0
  0
LINE
  5
87
330
48
100
AcDbEntity
  8
ﾚｲﾔ_1
  6
Continuous
 62
     7
100
AcDbLine
 10
291.6698915101651
 20
737.4867313523799
 30
0.0
 11
291.6698915101651
 21
698.4867313523799
 31
0.0
  0
LINE
  5
88
330
48
100
AcDbEntity
  8
ﾚｲﾔ_1
  6
Continuous
 62
     7
100
AcDbLine
 10
280.6698915101651
 20
737.4867313523799
 30
0.0
 11
280.6698915101651
 21
698.4867313523799
 31
0.0
  0
LINE
  5
89
330
48
100
AcDbEntity
  8
ﾚｲﾔ_1
  6
Continuous
 62
     7
100
AcDbLine
 10
277.6698915101651
 20
737.4867313523799
 30
0.0
 11
277.6698915101651
 21
698.4867313523799
 31
0.0
  0
LINE
  5
8A
330
48
100
AcDbEntity
  8
ﾚｲﾔ_1
  6
Continuous
 62
     7
100
AcDbLine
 10
229.1296212422651
 20
702.44646108438
 30
0.0
 11
213.2354358921921
 21
686.552275734353
 31
0.0
  0
LINE
  5
8B
330
48
100
AcDbEntity
  8
ﾚｲﾔ_1
  6
Continuous
 62
     7
100
AcDbLine
 10
226.6671732539651
 20
705.3810923210799
 30
0.0
 11
208.2544599718671
 21
692.488371682002
 31
0.0
  0
LINE
  5
8C
330
48
100
AcDbEntity
  8
ﾚｲﾔ_1
  6
Continuous
 62
     7
100
AcDbLine
 10
224.7517287500241
 20
708.6987395209169
 30
0.0
 11
204.3799485116842
 21
699.199222385553
 31
0.0
  0
LINE
  5
8D
330
48
100
AcDbEntity
  8
ﾚｲﾔ_1
  6
Continuous
 62
     7
100
AcDbLine
 10
302.1028786823651
 20
384.45700102988
 30
0.0
 11
301.423287382014
 21
306.583551286891
 31
0.0
  0
LINE
  5
8E
330
48
100
AcDbEntity
  8
ﾚｲﾔ_1
  6
Continuous
 62
     7
100
AcDbLine
 10
455.343330665065
 20
777.98673135498
 30
0.0
 11
455.343330665065
 21
657.98673135498
 31
0.0
  0
LINE
  5
8F
330
48
100
AcDbEntity
  8
ﾚｲﾔ_1
  6
Continuous
 62
     7
100
AcDbLine
 10
462.343330665065
 20
660.48673135138
 30
0.0
 11
462.343330665065
 21
775.48673135138
 31
0.0
  0
LINE
  5
90
330
48
100
AcDbEntity
  8
ﾚｲﾔ_1
  6
Continuous
 62
     7
100
AcDbLine
 10
425.8426454164651
 20
788.48673137448
 30
0.0
 11
425.8426454164651
 21
647.4867313622799
 31
0.0
  0
LINE
  5
91
330
48
100
AcDbEntity
  8
ﾚｲﾔ_1
  6
Continuous
 62
     7
100
AcDbLine
 10
430.8433306490651
 20
775.4867313622799
 30
0.0
 11
430.8433306490651
 21
660.4867313622799
 31
0.0
  0
LINE
  5
92
330
48
100
AcDbEntity
  8
ﾚｲﾔ_1
  6
Continuous
 62
     7
100
AcDbLine
 10
438.343330642565
 20
643.4867313528244
 30
0.0
 11
438.3433306555651
 21
792.48673132118
 31
0.0
  0
LINE
  5
93
330
48
100
AcDbEntity
  8
ﾚｲﾔ_1
  6
Continuous
 62
     7
100
AcDbLine
 10
442.343330642565
 20
643.4867314840494
 30
0.0
 11
442.3433306555651
 21
792.48673135248
 31
0.0
  0
LINE
  5
94
330
48
100
AcDbEntity
  8
ﾚｲﾔ_1
  6
Continuous
 62
     7
100
AcDbLine
 10
419.8426454164651
 20
700.68673136488
 30
0.0
 11
425.8433306490651
 21
700.6867313637799
 31
0.0
  0
LINE
  5
95
330
48
100
AcDbEntity
  8
ﾚｲﾔ_1
  6
Continuous
 62
     7
100
AcDbLine
 10
425.8433306490651
 20
788.5128993403799
 30
0.0
 11
425.8433306490651
 21
699.79662719558
 31
0.0
  0
LINE
  5
96
330
48
100
AcDbEntity
  8
ﾚｲﾔ_1
  6
Continuous
 62
     7
100
AcDbLine
 10
577.643330659565
 20
683.2867313711799
 30
0.0
 11
577.643330658065
 21
752.68673130708
 31
0.0
  0
LINE
  5
97
330
48
100
AcDbEntity
  8
ﾚｲﾔ_1
  6
Continuous
 62
     7
100
AcDbLine
 10
579.3433306832651
 20
684.9867313016799
 30
0.0
 11
579.3433306259651
 21
750.98673137118
 31
0.0
  0
LINE
  5
98
330
48
100
AcDbEntity
  8
ﾚｲﾔ_1
  6
Continuous
 62
     7
100
AcDbLine
 10
557.343330715265
 20
684.98673128268
 30
0.0
 11
557.343330658065
 21
750.98673135228
 31
0.0
  0
LINE
  5
99
330
48
100
AcDbEntity
  8
ﾚｲﾔ_1
  6
Continuous
 62
     7
100
AcDbLine
 10
582.343330626865
 20
684.9867313042799
 30
0.0
 11
582.3433305696651
 21
750.9867313738799
 31
0.0
  0
LINE
  5
9A
330
48
100
AcDbEntity
  8
ﾚｲﾔ_1
  6
Continuous
 62
     7
100
AcDbLine
 10
547.343330570465
 20
768.48673135138
 30
0.0
 11
547.343330570465
 21
667.48673135138
 31
0.0
  0
LINE
  5
9B
330
48
100
AcDbEntity
  8
ﾚｲﾔ_1
  6
Continuous
 62
     7
100
AcDbLine
 10
559.0433306155651
 20
683.2867313711799
 30
0.0
 11
559.0433306140651
 21
752.68673130708
 31
0.0
  0
LINE
  5
9C
330
48
100
AcDbEntity
  8
ﾚｲﾔ_1
  6
Continuous
 62
     7
100
AcDbLine
 10
294.6698915101651
 20
737.4867313523799
 30
0.0
 11
294.6698915101651
 21
698.4867313523799
 31
0.0
  0
LINE
  5
9D
330
48
100
AcDbEntity
  8
ﾚｲﾔ_1
  6
Continuous
 62
     7
100
AcDbLine
 10
175.4198912043992
 20
415.6446369408799
 30
0.0
 11
244.6698915099651
 21
415.64463694088
 31
0.0
  0
LINE
  5
9E
330
48
100
AcDbEntity
  8
ﾚｲﾔ_1
  6
Continuous
 62
     7
100
AcDbLine
 10
175.4198913267151
 20
414.14463694088
 30
0.0
 11
244.6698915097651
 21
414.14463694088
 31
0.0
  0
LINE
  5
9F
330
48
100
AcDbEntity
  8
ﾚｲﾔ_1
  6
Continuous
 62
     7
100
AcDbLine
 10
178.6698916454651
 20
413.8446369408799
 30
0.0
 11
244.6698915097651
 21
413.8446369408799
 31
0.0
  0
LINE
  5
A0
330
48
100
AcDbEntity
  8
ﾚｲﾔ_1
  6
Continuous
 62
     7
100
AcDbLine
 10
178.6698915705652
 20
410.44463694088
 30
0.0
 11
244.6698915094651
 21
410.44463694088
 31
0.0
  0
LINE
  5
A1
330
48
100
AcDbEntity
  8
ﾚｲﾔ_1
  6
Continuous
 62
     7
100
AcDbLine
 10
175.4198912152711
 20
410.1446369408799
 30
0.0
 11
244.6698915094651
 21
410.14463694088
 31
0.0
  0
LINE
  5
A2
330
48
100
AcDbEntity
  8
ﾚｲﾔ_1
  6
Continuous
 62
     7
100
AcDbLine
 10
244.6698915092651
 20
408.64463694088
 30
0.0
 11
175.4198912829632
 21
408.64463694088
 31
0.0
  0
LINE
  5
A3
330
48
100
AcDbEntity
  8
ﾚｲﾔ_1
  6
Continuous
 62
     7
100
AcDbLine
 10
174.1698915100651
 20
416.14463694088
 30
0.0
 11
244.6698915100651
 21
416.14463694088
 31
0.0
  0
LINE
  5
A4
330
48
100
AcDbEntity
  8
ﾚｲﾔ_1
  6
Continuous
 62
     7
100
AcDbLine
 10
244.6698915055652
 20
421.14463694088
 30
0.0
 11
174.1437235318652
 21
421.14463694088
 31
0.0
  0
LINE
  5
A5
330
48
100
AcDbEntity
  8
ﾚｲﾔ_1
  6
Continuous
 62
     7
100
AcDbLine
 10
209.9698915276652
 20
287.9446369917799
 30
0.0
 11
209.9698915276652
 21
269.34463694778
 31
0.0
  0
LINE
  5
A6
330
48
100
AcDbEntity
  8
ﾚｲﾔ_1
  6
Continuous
 62
     7
100
AcDbLine
 10
211.6698914607651
 20
264.64463697898
 30
0.0
 11
214.36989149653
 21
264.6446369813199
 31
0.0
  0
LINE
  5
A7
330
48
100
AcDbEntity
  8
ﾚｲﾔ_1
  6
Continuous
 62
     7
100
AcDbLine
 10
211.6698915156651
 20
289.64463697988
 30
0.0
 11
209.9698915276652
 21
287.9446369917799
 31
0.0
  0
LINE
  5
A8
330
48
100
AcDbEntity
  8
ﾚｲﾔ_1
  6
Continuous
 62
     7
100
AcDbLine
 10
211.6698914836651
 20
289.6446369477799
 30
0.0
 11
211.6698914635652
 21
267.64463697988
 31
0.0
  0
LINE
  5
A9
330
48
100
AcDbEntity
  8
ﾚｲﾔ_1
  6
Continuous
 62
     7
100
AcDbLine
 10
211.6698914955651
 20
267.64463697988
 30
0.0
 11
209.9698915276652
 21
269.34463694778
 31
0.0
  0
LINE
  5
AA
330
48
100
AcDbEntity
  8
ﾚｲﾔ_1
  6
Continuous
 62
     7
100
AcDbLine
 10
211.6698914635652
 20
267.64463697988
 30
0.0
 11
211.6698914607651
 21
264.64463697898
 31
0.0
  0
LINE
  5
AB
330
48
100
AcDbEntity
  8
ﾚｲﾔ_1
  6
Continuous
 62
     7
100
AcDbLine
 10
211.6698914955651
 20
299.64463703538
 30
0.0
 11
211.6698914836651
 21
289.6446369477799
 31
0.0
  0
LINE
  5
AC
330
48
100
AcDbEntity
  8
ﾚｲﾔ_1
  6
Continuous
 62
     7
100
AcDbLine
 10
244.6698914996651
 20
299.64463703538
 30
0.0
 11
194.1698915077651
 21
299.64463703538
 31
0.0
  0
LINE
  5
AD
330
48
100
AcDbEntity
  8
ﾚｲﾔ_1
  6
Continuous
 62
     7
100
AcDbLine
 10
211.6698914390651
 20
289.6446368905799
 30
0.0
 11
244.6698914987651
 21
289.6446369191801
 31
0.0
  0
LINE
  5
AE
330
48
100
AcDbEntity
  8
ﾚｲﾔ_1
  6
Continuous
 62
     7
100
AcDbLine
 10
209.9698915276652
 20
287.94463699028
 30
0.0
 11
244.6698914985652
 21
287.94463699108
 31
0.0
  0
LINE
  5
AF
330
48
100
AcDbEntity
  8
ﾚｲﾔ_1
  6
Continuous
 62
     7
100
AcDbLine
 10
211.6698914581652
 20
267.64463692268
 30
0.0
 11
244.6698914967651
 21
267.64463695128
 31
0.0
  0
LINE
  5
B0
330
48
100
AcDbEntity
  8
ﾚｲﾔ_1
  6
Continuous
 62
     7
100
AcDbLine
 10
244.6698915097651
 20
427.14463694088
 30
0.0
 11
227.3698915097652
 21
427.14463695308
 31
0.0
  0
LINE
  5
B1
330
48
100
AcDbEntity
  8
ﾚｲﾔ_1
  6
Continuous
 62
     7
100
AcDbLine
 10
227.3698915097652
 20
427.14463695308
 30
0.0
 11
227.3698915055651
 21
421.14463694088
 31
0.0
  0
LINE
  5
B2
330
48
100
AcDbEntity
  8
ﾚｲﾔ_1
  6
Continuous
 62
     7
100
AcDbLine
 10
184.6698915113652
 20
402.64463694088
 30
0.0
 11
184.6698915113652
 21
391.64463694088
 31
0.0
  0
LINE
  5
B3
330
48
100
AcDbEntity
  8
ﾚｲﾔ_1
  6
Continuous
 62
     7
100
AcDbLine
 10
185.1698915440651
 20
413.64463694088
 30
0.0
 11
185.1698915440651
 21
410.64463694088
 31
0.0
  0
LINE
  5
B4
330
48
100
AcDbEntity
  8
ﾚｲﾔ_1
  6
Continuous
 62
     7
100
AcDbLine
 10
173.6698915100651
 20
420.6453221734799
 30
0.0
 11
173.6698915100651
 21
416.64463694088
 31
0.0
  0
LINE
  5
B5
330
48
100
AcDbEntity
  8
ﾚｲﾔ_1
  6
Continuous
 62
     7
100
AcDbLine
 10
184.6698915113652
 20
391.64463694088
 30
0.0
 11
187.1698915077651
 21
384.64463694088
 31
0.0
  0
LINE
  5
B6
330
48
100
AcDbEntity
  8
ﾚｲﾔ_1
  6
Continuous
 62
     7
100
AcDbLine
 10
169.6698915091652
 20
408.14463694088
 30
0.0
 11
169.6698915091652
 21
405.14463694088
 31
0.0
  0
LINE
  5
B7
330
48
100
AcDbEntity
  8
ﾚｲﾔ_1
  6
Continuous
 62
     7
100
AcDbLine
 10
170.1698915091652
 20
408.64463694088
 30
0.0
 11
244.6698915092651
 21
408.64463694088
 31
0.0
  0
LINE
  5
B8
330
48
100
AcDbEntity
  8
ﾚｲﾔ_1
  6
Continuous
 62
     7
100
AcDbLine
 10
170.1698916406652
 20
404.64463694088
 30
0.0
 11
244.6698915089651
 21
404.64463694088
 31
0.0
  0
LINE
  5
B9
330
48
100
AcDbEntity
  8
ﾚｲﾔ_1
  6
Continuous
 62
     7
100
AcDbLine
 10
244.6698915077651
 20
391.64463694088
 30
0.0
 11
184.6698915113652
 21
391.64463694088
 31
0.0
  0
LINE
  5
BA
330
48
100
AcDbEntity
  8
ﾚｲﾔ_1
  6
Continuous
 62
     7
100
AcDbLine
 10
187.1698915077651
 20
384.64463694088
 30
0.0
 11
244.6698915071651
 21
384.64463694088
 31
0.0
  0
LINE
  5
BB
330
48
100
AcDbEntity
  8
ﾚｲﾔ_1
  6
Continuous
 62
     7
100
AcDbLine
 10
277.6698914991652
 20
296.6446370317798
 30
0.0
 11
277.6698915074651
 21
289.6446369477799
 31
0.0
  0
LINE
  5
BC
330
48
100
AcDbEntity
  8
ﾚｲﾔ_1
  6
Continuous
 62
     7
100
AcDbLine
 10
277.6698915090652
 20
287.9446369903799
 30
0.0
 11
279.3698914635651
 21
287.9446369917799
 31
0.0
  0
LINE
  5
BD
330
48
100
AcDbEntity
  8
ﾚｲﾔ_1
  6
Continuous
 62
     7
100
AcDbLine
 10
277.6698914754651
 20
289.64463697988
 30
0.0
 11
279.3698914635651
 21
287.9446369917799
 31
0.0
  0
LINE
  5
BE
330
48
100
AcDbEntity
  8
ﾚｲﾔ_1
  6
Continuous
 62
     7
100
AcDbLine
 10
279.3698914635651
 20
287.9446369917799
 30
0.0
 11
279.3698914635651
 21
269.34463694778
 31
0.0
  0
LINE
  5
BF
330
48
100
AcDbEntity
  8
ﾚｲﾔ_1
  6
Continuous
 62
     7
100
AcDbLine
 10
277.6698915074651
 20
289.6446369477799
 30
0.0
 11
277.6698915276651
 21
267.64463697988
 31
0.0
  0
LINE
  5
C0
330
48
100
AcDbEntity
  8
ﾚｲﾔ_1
  6
Continuous
 62
     7
100
AcDbLine
 10
277.669891526065
 20
269.34463694638
 30
0.0
 11
279.3698914635651
 21
269.34463694778
 31
0.0
  0
LINE
  5
C1
330
48
100
AcDbEntity
  8
ﾚｲﾔ_1
  6
Continuous
 62
     7
100
AcDbLine
 10
277.6698914955651
 20
267.64463697988
 30
0.0
 11
279.3698914635651
 21
269.34463694778
 31
0.0
  0
LINE
  5
C2
330
48
100
AcDbEntity
  8
ﾚｲﾔ_1
  6
Continuous
 62
     7
100
AcDbLine
 10
277.6698915276651
 20
267.64463697988
 30
0.0
 11
277.6698915303651
 21
264.64463703618
 31
0.0
  0
LINE
  5
C3
330
48
100
AcDbEntity
  8
ﾚｲﾔ_1
  6
Continuous
 62
     7
100
AcDbLine
 10
280.6698914991652
 20
299.64463703538
 30
0.0
 11
294.4235539205652
 21
299.64463703538
 31
0.0
  0
LINE
  5
C4
330
48
100
AcDbEntity
  8
ﾚｲﾔ_1
  6
Continuous
 62
     7
100
AcDbLine
 10
232.0642524789651
 20
699.9840130960799
 30
0.0
 11
219.1715318398431
 21
681.5712998139779
 31
0.0
  0
LINE
  5
C5
330
48
100
AcDbEntity
  8
ﾚｲﾔ_1
  6
Continuous
 62
     7
100
AcDbLine
 10
253.9578833416021
 20
698.068568592221
 30
0.0
 11
263.4574004770381
 21
677.6967883538614
 31
0.0
  0
LINE
  5
C6
330
48
100
AcDbEntity
  8
ﾚｲﾔ_1
  6
Continuous
 62
     7
100
AcDbLine
 10
250.3580252099761
 20
696.7583273846769
 30
0.0
 11
256.1757008204872
 21
675.046466423975
 31
0.0
  0
LINE
  5
C7
330
48
100
AcDbEntity
  8
ﾚｲﾔ_1
  6
Continuous
 62
     7
100
AcDbLine
 10
246.5853360140571
 20
696.0931004896279
 30
0.0
 11
248.5444029703481
 21
673.7008627151753
 31
0.0
  0
LINE
  5
C8
330
48
100
AcDbEntity
  8
ﾚｲﾔ_1
  6
Continuous
 62
     7
100
AcDbLine
 10
242.7544470062731
 20
696.0931004896279
 30
0.0
 11
240.7953800500821
 21
673.7008627151753
 31
0.0
  0
LINE
  5
C9
330
48
100
AcDbEntity
  8
ﾚｲﾔ_1
  6
Continuous
 62
     7
100
AcDbLine
 10
238.9817578104541
 20
696.7583273846769
 30
0.0
 11
233.1640821998431
 21
675.046466423975
 31
0.0
  0
LINE
  5
CA
330
48
100
AcDbEntity
  8
ﾚｲﾔ_1
  6
Continuous
 62
     7
100
AcDbLine
 10
223.4414875425671
 20
712.298597652591
 30
0.0
 11
201.7296265818701
 21
706.480922042002
 31
0.0
  0
LINE
  5
CB
330
48
100
AcDbEntity
  8
ﾚｲﾔ_1
  6
Continuous
 62
     7
100
AcDbLine
 10
222.7762606475172
 20
716.0712868484719
 30
0.0
 11
200.3840228730701
 21
714.112219892163
 31
0.0
  0
LINE
  5
CC
330
48
100
AcDbEntity
  8
ﾚｲﾔ_1
  6
Continuous
 62
     7
100
AcDbLine
 10
224.7517287500241
 20
727.2747231837429
 30
0.0
 11
204.3799485116842
 21
736.7742403192069
 31
0.0
  0
LINE
  5
CD
330
48
100
AcDbEntity
  8
ﾚｲﾔ_1
  6
Continuous
 62
     7
100
AcDbLine
 10
222.7762606475172
 20
719.902175856288
 30
0.0
 11
200.3840228730701
 21
721.8612428124969
 31
0.0
  0
LINE
  5
CE
330
48
100
AcDbEntity
  8
ﾚｲﾔ_1
  6
Continuous
 62
     7
100
AcDbLine
 10
223.4414875425671
 20
723.674865052069
 30
0.0
 11
201.7296265818701
 21
729.4925406626579
 31
0.0
  0
LINE
  5
CF
330
48
100
AcDbEntity
  8
ﾚｲﾔ_1
  6
Continuous
 62
     7
100
AcDbLine
 10
229.1296212422781
 20
733.5270016202929
 30
0.0
 11
213.2354358921651
 21
749.42118697038
 31
0.0
  0
LINE
  5
D0
330
48
100
AcDbEntity
  8
ﾚｲﾔ_1
  6
Continuous
 62
     7
100
AcDbLine
 10
226.6671732540162
 20
730.5923703836689
 30
0.0
 11
208.2544599718671
 21
743.4850910226579
 31
0.0
  0
LINE
  5
D1
330
48
100
AcDbEntity
  8
ﾚｲﾔ_1
  6
Continuous
 62
     7
100
AcDbLine
 10
250.6698915101652
 20
665.62940139748
 30
0.0
 11
250.6698915101652
 21
665.32744916958
 31
0.0
  0
LINE
  5
D2
330
48
100
AcDbEntity
  8
ﾚｲﾔ_1
  6
Continuous
 62
     7
100
AcDbLine
 10
238.6698915101652
 20
665.62940139748
 30
0.0
 11
238.6698915101652
 21
665.32744916958
 31
0.0
  0
LINE
  5
D3
330
48
100
AcDbEntity
  8
ﾚｲﾔ_1
  6
Continuous
 62
     7
100
AcDbLine
 10
235.3818996787651
 20
698.0685685921799
 30
0.0
 11
225.8823825433652
 21
677.6967883538799
 31
0.0
  0
LINE
  5
D4
330
48
100
AcDbEntity
  8
ﾚｲﾔ_1
  6
Continuous
 62
     7
100
AcDbLine
 10
220.6698915101652
 20
716.80333460178
 30
0.0
 11
220.6698915101652
 21
719.17012810298
 31
0.0
  0
LINE
  5
D5
330
48
100
AcDbEntity
  8
ﾚｲﾔ_1
  6
Continuous
 62
     7
100
AcDbLine
 10
253.9578833416021
 20
737.9048941124389
 30
0.0
 11
263.4574004770381
 21
758.2766743507989
 31
0.0
  0
LINE
  5
D6
330
48
100
AcDbEntity
  8
ﾚｲﾔ_1
  6
Continuous
 62
     7
100
AcDbLine
 10
235.3818996787283
 20
737.9048941124389
 30
0.0
 11
225.8823825433921
 21
758.2766743507989
 31
0.0
  0
LINE
  5
D7
330
48
100
AcDbEntity
  8
ﾚｲﾔ_1
  6
Continuous
 62
     7
100
AcDbLine
 10
232.0642524789542
 20
735.989449608531
 30
0.0
 11
219.1715318398652
 21
754.40216289068
 31
0.0
  0
LINE
  5
D8
330
48
100
AcDbEntity
  8
ﾚｲﾔ_1
  6
Continuous
 62
     7
100
AcDbLine
 10
192.3125615553651
 20
723.9867313523799
 30
0.0
 11
192.0106093274651
 21
723.9867313523799
 31
0.0
  0
LINE
  5
D9
330
48
100
AcDbEntity
  8
ﾚｲﾔ_1
  6
Continuous
 62
     7
100
AcDbLine
 10
192.3125615553651
 20
711.9867313523799
 30
0.0
 11
192.0106093274651
 21
711.9867313523799
 31
0.0
  0
LINE
  5
DA
330
48
100
AcDbEntity
  8
ﾚｲﾔ_1
  6
Continuous
 62
     7
100
AcDbLine
 10
238.9817578104541
 20
739.2151353199829
 30
0.0
 11
233.1640821998431
 21
760.926996280685
 31
0.0
  0
LINE
  5
DB
330
48
100
AcDbEntity
  8
ﾚｲﾔ_1
  6
Continuous
 62
     7
100
AcDbLine
 10
246.0198915101651
 20
722.9867313523799
 30
0.0
 11
246.0198915101651
 21
712.9867313523799
 31
0.0
  0
LINE
  5
DC
330
48
100
AcDbEntity
  8
ﾚｲﾔ_1
  6
Continuous
 62
     7
100
AcDbLine
 10
250.3580252099761
 20
739.2151353199829
 30
0.0
 11
256.1757008205652
 21
760.92699628068
 31
0.0
  0
LINE
  5
DD
330
48
100
AcDbEntity
  8
ﾚｲﾔ_1
  6
Continuous
 62
     7
100
AcDbLine
 10
282.4198915101651
 20
699.9867313523799
 30
0.0
 11
280.6698915101651
 21
699.9867313523799
 31
0.0
  0
LINE
  5
DE
330
48
100
AcDbEntity
  8
ﾚｲﾔ_1
  6
Continuous
 62
     7
100
AcDbLine
 10
291.6698915101651
 20
699.9867313523799
 30
0.0
 11
289.9198915101651
 21
699.9867313523799
 31
0.0
  0
LINE
  5
DF
330
48
100
AcDbEntity
  8
ﾚｲﾔ_1
  6
Continuous
 62
     7
100
AcDbLine
 10
270.3765556315652
 20
699.9867313523799
 30
0.0
 11
280.6698915101651
 21
692.7792599767799
 31
0.0
  0
LINE
  5
E0
330
48
100
AcDbEntity
  8
ﾚｲﾔ_1
  6
Continuous
 62
     7
100
AcDbLine
 10
280.6698915101651
 20
698.4867313523799
 30
0.0
 11
277.6698915101651
 21
698.4867313523799
 31
0.0
  0
LINE
  5
E1
330
48
100
AcDbEntity
  8
ﾚｲﾔ_1
  6
Continuous
 62
     7
100
AcDbLine
 10
242.7544470062731
 20
739.8803622150319
 30
0.0
 11
240.7953800500821
 21
762.2725999894849
 31
0.0
  0
LINE
  5
E2
330
48
100
AcDbEntity
  8
ﾚｲﾔ_1
  6
Continuous
 62
     7
100
AcDbLine
 10
246.5853360140571
 20
739.8803622150319
 30
0.0
 11
248.5444029703481
 21
762.2725999894849
 31
0.0
  0
LINE
  5
E3
330
48
100
AcDbEntity
  8
ﾚｲﾔ_1
  6
Continuous
 62
     7
100
AcDbLine
 10
297.0272214650652
 20
711.9867313523799
 30
0.0
 11
297.3291736929651
 21
711.9867313523799
 31
0.0
  0
LINE
  5
E4
330
48
100
AcDbEntity
  8
ﾚｲﾔ_1
  6
Continuous
 62
     7
100
AcDbLine
 10
270.3765556315652
 20
735.9867313523799
 30
0.0
 11
281.0853230485651
 21
743.48509102268
 31
0.0
  0
LINE
  5
E5
330
48
100
AcDbEntity
  8
ﾚｲﾔ_1
  6
Continuous
 62
     7
100
AcDbLine
 10
291.6698915101651
 20
735.9867313523799
 30
0.0
 11
289.9198915101651
 21
735.9867313523799
 31
0.0
  0
LINE
  5
E6
330
48
100
AcDbEntity
  8
ﾚｲﾔ_1
  6
Continuous
 62
     7
100
AcDbLine
 10
297.0272214650652
 20
723.9867313523799
 30
0.0
 11
297.3291736929651
 21
723.9867313523799
 31
0.0
  0
LINE
  5
E7
330
48
100
AcDbEntity
  8
ﾚｲﾔ_1
  6
Continuous
 62
     7
100
AcDbLine
 10
280.6698915101651
 20
737.4867313523799
 30
0.0
 11
277.6698915101651
 21
737.4867313523799
 31
0.0
  0
LINE
  5
E8
330
48
100
AcDbEntity
  8
ﾚｲﾔ_1
  6
Continuous
 62
     7
100
AcDbLine
 10
275.481518481165
 20
719.2367313523799
 30
0.0
 11
275.481518481165
 21
716.7367313523799
 31
0.0
  0
LINE
  5
E9
330
48
100
AcDbEntity
  8
ﾚｲﾔ_1
  6
Continuous
 62
     7
100
AcDbLine
 10
294.6698915101651
 20
737.4867313523799
 30
0.0
 11
291.6698915101651
 21
737.4867313523799
 31
0.0
  0
LINE
  5
EA
330
48
100
AcDbEntity
  8
ﾚｲﾔ_1
  6
Continuous
 62
     7
100
AcDbLine
 10
282.4198915101651
 20
735.9867313523799
 30
0.0
 11
280.6698915101651
 21
735.9867313523799
 31
0.0
  0
LINE
  5
EB
330
48
100
AcDbEntity
  8
ﾚｲﾔ_1
  6
Continuous
 62
     7
100
AcDbLine
 10
294.6698915101651
 20
698.4867313523799
 30
0.0
 11
291.6698915101651
 21
698.4867313523799
 31
0.0
  0
LINE
  5
EC
330
48
100
AcDbEntity
  8
ﾚｲﾔ_1
  6
Continuous
 62
     7
100
AcDbLine
 10
438.8433306424652
 20
642.98673135278
 30
0.0
 11
441.8433306424652
 21
642.9867313525799
 31
0.0
  0
LINE
  5
ED
330
48
100
AcDbEntity
  8
ﾚｲﾔ_1
  6
Continuous
 62
     7
100
AcDbLine
 10
455.343330665065
 20
657.98673135498
 30
0.0
 11
462.343330665065
 21
660.48673135138
 31
0.0
  0
LINE
  5
EE
330
48
100
AcDbEntity
  8
ﾚｲﾔ_1
  6
Continuous
 62
     7
100
AcDbLine
 10
547.343330570465
 20
684.9867313390799
 30
0.0
 11
557.343330658065
 21
684.98673132718
 31
0.0
  0
LINE
  5
EF
330
48
100
AcDbEntity
  8
ﾚｲﾔ_1
  6
Continuous
 62
     7
100
AcDbLine
 10
557.3433306259651
 20
684.9867313592799
 30
0.0
 11
559.0433306140651
 21
683.2867313711799
 31
0.0
  0
LINE
  5
F0
330
48
100
AcDbEntity
  8
ﾚｲﾔ_1
  6
Continuous
 62
     7
100
AcDbLine
 10
579.3433306259651
 20
684.9867313070799
 30
0.0
 11
582.343330626865
 21
684.9867313042799
 31
0.0
  0
LINE
  5
F1
330
48
100
AcDbEntity
  8
ﾚｲﾔ_1
  6
Continuous
 62
     7
100
AcDbLine
 10
579.3433306259651
 20
684.9867313390799
 30
0.0
 11
577.643330658065
 21
683.2867313711799
 31
0.0
  0
LINE
  5
F2
330
48
100
AcDbEntity
  8
ﾚｲﾔ_1
  6
Continuous
 62
     7
100
AcDbLine
 10
557.343330658065
 20
684.98673132718
 30
0.0
 11
579.3433306259651
 21
684.9867313070799
 31
0.0
  0
LINE
  5
F3
330
48
100
AcDbEntity
  8
ﾚｲﾔ_1
  6
Continuous
 62
     7
100
AcDbLine
 10
559.0433306140651
 20
683.2867313711799
 30
0.0
 11
577.643330658065
 21
683.2867313711799
 31
0.0
  0
LINE
  5
F4
330
48
100
AcDbEntity
  8
ﾚｲﾔ_1
  6
Continuous
 62
     7
100
AcDbLine
 10
462.343330665065
 20
660.48673135138
 30
0.0
 11
540.343330570465
 21
660.48673135138
 31
0.0
  0
LINE
  5
F5
330
48
100
AcDbEntity
  8
ﾚｲﾔ_1
  6
Continuous
 62
     7
100
AcDbLine
 10
426.3426454164651
 20
646.9867313622799
 30
0.0
 11
430.3433306490651
 21
646.9867313622799
 31
0.0
  0
LINE
  5
F6
330
48
100
AcDbEntity
  8
ﾚｲﾔ_1
  6
Continuous
 62
     7
100
AcDbLine
 10
430.8433306490651
 20
647.4867313622799
 30
0.0
 11
430.8433306490651
 21
660.4867313622799
 31
0.0
  0
LINE
  5
F7
330
48
100
AcDbEntity
  8
ﾚｲﾔ_1
  6
Continuous
 62
     7
100
AcDbLine
 10
444.3433306437651
 20
657.98673136318
 30
0.0
 11
455.3433306437651
 21
657.98673136218
 31
0.0
  0
LINE
  5
F8
330
48
100
AcDbEntity
  8
ﾚｲﾔ_1
  6
Continuous
 62
     7
100
AcDbLine
 10
557.343330658065
 20
750.9867313509799
 30
0.0
 11
579.3433306259651
 21
750.98673137118
 31
0.0
  0
LINE
  5
F9
330
48
100
AcDbEntity
  8
ﾚｲﾔ_1
  6
Continuous
 62
     7
100
AcDbLine
 10
547.343330570465
 20
750.9867313390799
 30
0.0
 11
557.343330658065
 21
750.9867313509799
 31
0.0
  0
LINE
  5
FA
330
48
100
AcDbEntity
  8
ﾚｲﾔ_1
  6
Continuous
 62
     7
100
AcDbLine
 10
557.3433306259651
 20
750.98673131898
 30
0.0
 11
559.0433306140651
 21
752.68673130708
 31
0.0
  0
LINE
  5
FB
330
48
100
AcDbEntity
  8
ﾚｲﾔ_1
  6
Continuous
 62
     7
100
AcDbLine
 10
579.3433306259651
 20
750.98673137118
 30
0.0
 11
582.3433305696651
 21
750.9867313738799
 31
0.0
  0
LINE
  5
FC
330
48
100
AcDbEntity
  8
ﾚｲﾔ_1
  6
Continuous
 62
     7
100
AcDbLine
 10
579.3433306259651
 20
750.9867313390799
 30
0.0
 11
577.643330658065
 21
752.68673130708
 31
0.0
  0
LINE
  5
FD
330
48
100
AcDbEntity
  8
ﾚｲﾔ_1
  6
Continuous
 62
     7
100
AcDbLine
 10
455.343330665065
 20
777.98673135498
 30
0.0
 11
462.343330665065
 21
775.48673135138
 31
0.0
  0
LINE
  5
FE
330
48
100
AcDbEntity
  8
ﾚｲﾔ_1
  6
Continuous
 62
     7
100
AcDbLine
 10
426.3426454164651
 20
788.9867313622799
 30
0.0
 11
430.3433306490651
 21
788.9867313622799
 31
0.0
  0
LINE
  5
FF
330
48
100
AcDbEntity
  8
ﾚｲﾔ_1
  6
Continuous
 62
     7
100
AcDbLine
 10
419.8426454164651
 20
735.28673136228
 30
0.0
 11
425.8433306490651
 21
735.28673136228
 31
0.0
  0
LINE
  5
100
330
48
100
AcDbEntity
  8
ﾚｲﾔ_1
  6
Continuous
 62
     7
100
AcDbLine
 10
430.8433306490651
 20
788.4867313622799
 30
0.0
 11
430.8433306490651
 21
775.4867313622799
 31
0.0
  0
LINE
  5
101
330
48
100
AcDbEntity
  8
ﾚｲﾔ_1
  6
Continuous
 62
     7
100
AcDbLine
 10
444.343330665065
 20
777.98673135788
 30
0.0
 11
455.343330665065
 21
777.98673135498
 31
0.0
  0
LINE
  5
102
330
48
100
AcDbEntity
  8
ﾚｲﾔ_1
  6
Continuous
 62
     7
100
AcDbLine
 10
438.8433306687978
 20
792.9867313530799
 30
0.0
 11
441.8433306687978
 21
792.98673135228
 31
0.0
  0
LINE
  5
103
330
48
100
AcDbEntity
  8
ﾚｲﾔ_1
  6
Continuous
 62
     7
100
AcDbLine
 10
559.0433306140651
 20
752.68673130708
 30
0.0
 11
577.643330658065
 21
752.68673130708
 31
0.0
  0
LINE
  5
104
330
48
100
AcDbEntity
  8
ﾚｲﾔ_1
  6
Continuous
 62
     7
100
AcDbLine
 10
462.343330665065
 20
775.48673135138
 30
0.0
 11
540.343330570465
 21
775.48673135138
 31
0.0
  0
LINE
  5
105
330
48
100
AcDbEntity
  8
ﾚｲﾔ_1
  6
Continuous
 62
     7
100
AcDbLine
 10
244.6698915071419
 20
384.64463694088
 30
0.0
 11
302.1698915065419
 21
384.64463694088
 31
0.0
  0
LINE
  5
106
330
48
100
AcDbEntity
  8
ﾚｲﾔ_1
  6
Continuous
 62
     7
100
AcDbLine
 10
304.6698915029418
 20
391.64463694088
 30
0.0
 11
244.6698915065419
 21
391.64463694088
 31
0.0
  0
LINE
  5
107
330
48
100
AcDbEntity
  8
ﾚｲﾔ_1
  6
Continuous
 62
     7
100
AcDbLine
 10
244.6698915053419
 20
404.64463694088
 30
0.0
 11
319.1698913736418
 21
404.64463694088
 31
0.0
  0
LINE
  5
108
330
48
100
AcDbEntity
  8
ﾚｲﾔ_1
  6
Continuous
 62
     7
100
AcDbLine
 10
244.6698915050419
 20
408.64463694088
 30
0.0
 11
319.1698915051418
 21
408.64463694088
 31
0.0
  0
LINE
  5
109
330
48
100
AcDbEntity
  8
ﾚｲﾔ_1
  6
Continuous
 62
     7
100
AcDbLine
 10
319.6698915051418
 20
405.14463694088
 30
0.0
 11
319.6698915051418
 21
408.14463694088
 31
0.0
  0
LINE
  5
10A
330
48
100
AcDbEntity
  8
ﾚｲﾔ_1
  6
Continuous
 62
     7
100
AcDbLine
 10
302.1698915065419
 20
384.64463694088
 30
0.0
 11
304.6698915029418
 21
391.64463694088
 31
0.0
  0
LINE
  5
10B
330
48
100
AcDbEntity
  8
ﾚｲﾔ_1
  6
Continuous
 62
     7
100
AcDbLine
 10
315.669891504242
 20
416.64463694088
 30
0.0
 11
315.669891504242
 21
420.6453221734799
 31
0.0
  0
LINE
  5
10C
330
48
100
AcDbEntity
  8
ﾚｲﾔ_1
  6
Continuous
 62
     7
100
AcDbLine
 10
304.1698914702419
 20
410.64463694088
 30
0.0
 11
304.1698914702419
 21
413.64463694088
 31
0.0
  0
LINE
  5
10D
330
48
100
AcDbEntity
  8
ﾚｲﾔ_1
  6
Continuous
 62
     7
100
AcDbLine
 10
304.6698915029418
 20
391.64463694088
 30
0.0
 11
304.6698915029418
 21
402.64463694088
 31
0.0
  0
LINE
  5
10E
330
48
100
AcDbEntity
  8
ﾚｲﾔ_1
  6
Continuous
 62
     7
100
AcDbLine
 10
261.9698915087419
 20
421.14463694088
 30
0.0
 11
261.9698915045418
 21
427.14463695308
 31
0.0
  0
LINE
  5
10F
330
48
100
AcDbEntity
  8
ﾚｲﾔ_1
  6
Continuous
 62
     7
100
AcDbLine
 10
261.9698915045418
 20
427.14463695308
 30
0.0
 11
244.6698915045419
 21
427.14463694088
 31
0.0
  0
LINE
  5
110
330
48
100
AcDbEntity
  8
ﾚｲﾔ_1
  6
Continuous
 62
     7
100
AcDbLine
 10
315.1960594824418
 20
421.14463694088
 30
0.0
 11
244.6698915087418
 21
421.14463694088
 31
0.0
  0
LINE
  5
111
330
48
100
AcDbEntity
  8
ﾚｲﾔ_1
  6
Continuous
 62
     7
100
AcDbLine
 10
244.669891504242
 20
416.14463694088
 30
0.0
 11
315.169891504242
 21
416.14463694088
 31
0.0
  0
LINE
  5
112
330
48
100
AcDbEntity
  8
ﾚｲﾔ_1
  6
Continuous
 62
     7
100
AcDbLine
 10
313.9198917313438
 20
408.64463694088
 30
0.0
 11
244.6698915050419
 21
408.64463694088
 31
0.0
  0
LINE
  5
113
330
48
100
AcDbEntity
  8
ﾚｲﾔ_1
  6
Continuous
 62
     7
100
AcDbLine
 10
244.6698915048419
 20
410.14463694088
 30
0.0
 11
313.9198917990359
 21
410.1446369408799
 31
0.0
  0
LINE
  5
114
330
48
100
AcDbEntity
  8
ﾚｲﾔ_1
  6
Continuous
 62
     7
100
AcDbLine
 10
244.6698915048419
 20
410.44463694088
 30
0.0
 11
310.6698914437418
 21
410.44463694088
 31
0.0
  0
LINE
  5
115
330
48
100
AcDbEntity
  8
ﾚｲﾔ_1
  6
Continuous
 62
     7
100
AcDbLine
 10
244.6698915045419
 20
413.8446369408799
 30
0.0
 11
310.669891368842
 21
413.8446369408799
 31
0.0
  0
LINE
  5
116
330
48
100
AcDbEntity
  8
ﾚｲﾔ_1
  6
Continuous
 62
     7
100
AcDbLine
 10
244.6698915045419
 20
414.14463694088
 30
0.0
 11
313.9198916875919
 21
414.14463694088
 31
0.0
  0
LINE
  5
117
330
48
100
AcDbEntity
  8
ﾚｲﾔ_1
  6
Continuous
 62
     7
100
AcDbLine
 10
244.6698915043419
 20
415.64463694088
 30
0.0
 11
313.9198918099078
 21
415.6446369408799
 31
0.0
  0
LINE
  5
118
330
48
100
AcDbEntity
  8
ﾚｲﾔ_1
  6
Continuous
 62
     7
100
AcDbLine
 10
244.6698915004919
 20
289.6446369191801
 30
0.0
 11
277.6698915601919
 21
289.6446368905799
 31
0.0
  0
LINE
  5
119
330
48
100
AcDbEntity
  8
ﾚｲﾔ_1
  6
Continuous
 62
     7
100
AcDbLine
 10
244.6698915006918
 20
287.94463699108
 30
0.0
 11
279.3698914715919
 21
287.94463699028
 31
0.0
  0
LINE
  5
11A
330
48
100
AcDbEntity
  8
ﾚｲﾔ_1
  6
Continuous
 62
     7
100
AcDbLine
 10
244.6698915022919
 20
269.34463694708
 30
0.0
 11
279.3698914715919
 21
269.34463694638
 31
0.0
  0
LINE
  5
11B
330
48
100
AcDbEntity
  8
ﾚｲﾔ_1
  6
Continuous
 62
     7
100
AcDbLine
 10
244.669891502492
 20
267.64463695128
 30
0.0
 11
277.6698915410918
 21
267.64463692268
 31
0.0
  0
LINE
  5
11C
330
48
100
AcDbEntity
  8
ﾚｲﾔ_1
  6
Continuous
 62
     7
100
AcDbLine
 10
295.169891491492
 20
299.64463703538
 30
0.0
 11
244.6698914995919
 21
299.64463703538
 31
0.0
  0
ARC
  5
11D
330
48
100
AcDbEntity
  8
ﾚｲﾔ_1
  6
Continuous
 62
     7
100
AcDbCircle
 10
319.1698915051418
 20
405.14463694088
 30
0.0
 40
0.5000000000000173
100
AcDbArc
 50
269.999984931213
 51
0.0
  0
ARC
  5
11E
330
48
100
AcDbEntity
  8
ﾚｲﾔ_1
  6
Continuous
 62
     7
100
AcDbCircle
 10
244.6698915101652
 20
717.9867313523799
 30
0.0
 40
38.99999999999955
100
AcDbArc
 50
294.9999999999998
 51
305.0
  0
ARC
  5
11F
330
48
100
AcDbEntity
  8
ﾚｲﾔ_1
  6
Continuous
 62
     7
100
AcDbCircle
 10
269.1698915101652
 20
700.9867313523799
 30
0.0
 40
1.0
100
AcDbArc
 50
180.0
 51
270.0
  0
ARC
  5
120
330
48
100
AcDbEntity
  8
ﾚｲﾔ_1
  6
Continuous
 62
     7
100
AcDbCircle
 10
244.6698915101652
 20
717.9867313523799
 30
0.0
 40
52.69999999999945
100
AcDbArc
 50
21.71678754559979
 51
315.7513829312996
  0
ARC
  5
121
330
48
100
AcDbEntity
  8
ﾚｲﾔ_1
  6
Continuous
 62
     7
100
AcDbCircle
 10
244.6698915101652
 20
717.9867313523799
 30
0.0
 40
53.00000000000041
100
AcDbArc
 50
21.58767438720042
 51
315.4194327368996
  0
ARC
  5
122
330
48
100
AcDbEntity
  8
ﾚｲﾔ_1
  6
Continuous
 62
     7
100
AcDbCircle
 10
244.6698915101652
 20
717.9867313523799
 30
0.0
 40
39.00000000000039
100
AcDbArc
 50
55.00000000000006
 51
65.00000000000017
  0
ARC
  5
123
330
48
100
AcDbEntity
  8
ﾚｲﾔ_1
  6
Continuous
 62
     7
100
AcDbCircle
 10
269.1698915101652
 20
734.9867313523799
 30
0.0
 40
1.0
100
AcDbArc
 50
90.0
 51
180.0
  0
ARC
  5
124
330
48
100
AcDbEntity
  8
ﾚｲﾔ_1
  6
Continuous
 62
     7
100
AcDbCircle
 10
244.6698915101652
 20
717.9867313523799
 30
0.0
 40
52.6999999999998
100
AcDbArc
 50
341.5801508425
 51
18.41984915749996
  0
ARC
  5
125
330
48
100
AcDbEntity
  8
ﾚｲﾔ_1
  6
Continuous
 62
     7
100
AcDbCircle
 10
244.6698915101652
 20
717.9867313523799
 30
0.0
 40
52.99999999999956
100
AcDbArc
 50
340.6299617544993
 51
19.37003824550066
  0
ARC
  5
126
330
48
100
AcDbEntity
  8
ﾚｲﾔ_1
  6
Continuous
 62
     7
100
AcDbCircle
 10
244.6698915101652
 20
717.9867313523799
 30
0.0
 40
21.00000000003826
100
AcDbArc
 50
307.6052512650909
 51
310.3675935441981
  0
ARC
  5
127
330
48
100
AcDbEntity
  8
ﾚｲﾔ_1
  6
Continuous
 62
     7
100
AcDbCircle
 10
244.6698915101652
 20
717.9867313523799
 30
0.0
 40
39.00000000000024
100
AcDbArc
 50
194.9999999999994
 51
204.9999999999997
  0
ARC
  5
128
330
48
100
AcDbEntity
  8
ﾚｲﾔ_1
  6
Continuous
 62
     7
100
AcDbCircle
 10
244.6698915101652
 20
717.9867313523799
 30
0.0
 40
19.00000000000053
100
AcDbArc
 50
57.36310249639931
 51
302.6368975036009
  0
ARC
  5
129
330
48
100
AcDbEntity
  8
ﾚｲﾔ_1
  6
Continuous
 62
     7
100
AcDbCircle
 10
226.0935968176652
 20
706.20024436538
 30
0.0
 40
0.9999999999797151
100
AcDbArc
 50
304.9999999972365
 51
32.39474873887766
  0
ARC
  5
12A
330
48
100
AcDbEntity
  8
ﾚｲﾔ_1
  6
Continuous
 62
     7
100
AcDbCircle
 10
229.8367280234651
 20
701.7393543032799
 30
0.0
 40
0.9999999999731974
100
AcDbArc
 50
47.6052512653179
 51
135.0000000040498
  0
ARC
  5
12B
330
48
100
AcDbEntity
  8
ﾚｲﾔ_1
  6
Continuous
 62
     7
100
AcDbCircle
 10
244.6698915101652
 20
717.9867313523799
 30
0.0
 40
16.0
100
AcDbArc
 50
90.0
 51
270.0
  0
ARC
  5
12C
330
48
100
AcDbEntity
  8
ﾚｲﾔ_1
  6
Continuous
 62
     7
100
AcDbCircle
 10
231.2451004346652
 20
700.5575895324799
 30
0.0
 40
1.000000000037014
100
AcDbArc
 50
324.9999999980607
 51
52.39474873959411
  0
ARC
  5
12D
330
48
100
AcDbEntity
  8
ﾚｲﾔ_1
  6
Continuous
 62
     7
100
AcDbCircle
 10
244.6698915101652
 20
717.9867313523799
 30
0.0
 40
20.99999999999941
100
AcDbArc
 50
227.6052512651
 51
232.3947487349008
  0
ARC
  5
12E
330
48
100
AcDbEntity
  8
ﾚｲﾔ_1
  6
Continuous
 62
     7
100
AcDbCircle
 10
258.0946825857651
 20
700.5575895324799
 30
0.0
 40
1.000000000000232
100
AcDbArc
 50
127.605251265112
 51
214.9999999999974
  0
ARC
  5
12F
330
48
100
AcDbEntity
  8
ﾚｲﾔ_1
  6
Continuous
 62
     7
100
AcDbCircle
 10
194.1698915077651
 20
306.64463703538
 30
0.0
 40
7.0
100
AcDbArc
 50
180.0
 51
270.0
  0
ARC
  5
130
330
48
100
AcDbEntity
  8
ﾚｲﾔ_1
  6
Continuous
 62
     7
100
AcDbCircle
 10
175.4198915440651
 20
414.89463694088
 30
0.0
 40
0.7499999999999633
100
AcDbArc
 50
90.00002594856464
 51
269.9999833956815
  0
ARC
  5
131
330
48
100
AcDbEntity
  8
ﾚｲﾔ_1
  6
Continuous
 62
     7
100
AcDbCircle
 10
178.6698915440651
 20
414.3446369408799
 30
0.0
 40
0.5000000000002744
100
AcDbArc
 50
203.5781784781796
 51
269.9999832436076
  0
ARC
  5
132
330
48
100
AcDbEntity
  8
ﾚｲﾔ_1
  6
Continuous
 62
     7
100
AcDbCircle
 10
184.6698915440651
 20
413.64463694088
 30
0.0
 40
0.5
100
AcDbArc
 50
0.0
 51
23.57817847817176
  0
ARC
  5
133
330
48
100
AcDbEntity
  8
ﾚｲﾔ_1
  6
Continuous
 62
     7
100
AcDbCircle
 10
175.4198915440651
 20
409.39463694088
 30
0.0
 40
0.7499999999999584
100
AcDbArc
 50
90.00002511801259
 51
269.9999800532828
  0
ARC
  5
134
330
48
100
AcDbEntity
  8
ﾚｲﾔ_1
  6
Continuous
 62
     7
100
AcDbCircle
 10
178.6698915440651
 20
409.94463694088
 30
0.0
 40
0.5000000000000008
100
AcDbArc
 50
90.00000331994785
 51
156.4218215218145
  0
ARC
  5
135
330
48
100
AcDbEntity
  8
ﾚｲﾔ_1
  6
Continuous
 62
     7
100
AcDbCircle
 10
184.6698915440651
 20
410.64463694088
 30
0.0
 40
0.5000000000004535
100
AcDbArc
 50
336.4218215218223
 51
0.0
  0
ARC
  5
136
330
48
100
AcDbEntity
  8
ﾚｲﾔ_1
  6
Continuous
 62
     7
100
AcDbCircle
 10
174.1698915100651
 20
420.6453221734799
 30
0.0
 40
0.5000000000001205
100
AcDbArc
 50
87.00000000004405
 51
180.0
  0
ARC
  5
137
330
48
100
AcDbEntity
  8
ﾚｲﾔ_1
  6
Continuous
 62
     7
100
AcDbCircle
 10
174.1698915100651
 20
416.64463694088
 30
0.0
 40
0.5
100
AcDbArc
 50
180.0
 51
270.0
  0
ARC
  5
138
330
48
100
AcDbEntity
  8
ﾚｲﾔ_1
  6
Continuous
 62
     7
100
AcDbCircle
 10
182.6698915113652
 20
402.64463694088
 30
0.0
 40
2.0
100
AcDbArc
 50
0.0
 51
90.0
  0
ARC
  5
139
330
48
100
AcDbEntity
  8
ﾚｲﾔ_1
  6
Continuous
 62
     7
100
AcDbCircle
 10
170.1698915091652
 20
405.14463694088
 30
0.0
 40
0.5
100
AcDbArc
 50
180.0
 51
270.0000150687903
  0
ARC
  5
13A
330
48
100
AcDbEntity
  8
ﾚｲﾔ_1
  6
Continuous
 62
     7
100
AcDbCircle
 10
170.1698915091652
 20
408.14463694088
 30
0.0
 40
0.5
100
AcDbArc
 50
90.0
 51
180.0
  0
ARC
  5
13B
330
48
100
AcDbEntity
  8
ﾚｲﾔ_1
  6
Continuous
 62
     7
100
AcDbCircle
 10
280.6698914991652
 20
296.64463703538
 30
0.0
 40
3.0
100
AcDbArc
 50
90.0
 51
180.0000000687594
  0
ARC
  5
13C
330
48
100
AcDbEntity
  8
ﾚｲﾔ_1
  6
Continuous
 62
     7
100
AcDbCircle
 10
294.4235539205652
 20
306.64463703538
 30
0.0
 40
7.0
100
AcDbArc
 50
270.0
 51
359.4999999999968
  0
ARC
  5
13D
330
48
100
AcDbEntity
  8
ﾚｲﾔ_1
  6
Continuous
 62
     7
100
AcDbCircle
 10
244.6698915101652
 20
717.9867313523799
 30
0.0
 40
39.00000000000036
100
AcDbArc
 50
234.9999999999999
 51
245.0
  0
ARC
  5
13E
330
48
100
AcDbEntity
  8
ﾚｲﾔ_1
  6
Continuous
 62
     7
100
AcDbCircle
 10
227.6949981174651
 20
676.85155183038
 30
0.0
 40
2.000000000031943
100
AcDbArc
 50
154.9999999998413
 51
247.5759589271105
  0
ARC
  5
13F
330
48
100
AcDbEntity
  8
ﾚｲﾔ_1
  6
Continuous
 62
     7
100
AcDbCircle
 10
245.5891413159651
 20
696.00594474688
 30
0.0
 40
1.000000000000285
100
AcDbArc
 50
5.00000000001144
 51
92.39474873480063
  0
ARC
  5
140
330
48
100
AcDbEntity
  8
ﾚｲﾔ_1
  6
Continuous
 62
     7
100
AcDbCircle
 10
243.7506417043651
 20
696.00594474688
 30
0.0
 40
1.000000000045591
100
AcDbArc
 50
87.60525126519937
 51
174.9999999999885
  0
ARC
  5
141
330
48
100
AcDbEntity
  8
ﾚｲﾔ_1
  6
Continuous
 62
     7
100
AcDbCircle
 10
253.0515755545651
 20
697.64595033048
 30
0.0
 40
1.000000000000467
100
AcDbArc
 50
25.0000000000088
 51
112.3947487357311
  0
ARC
  5
142
330
48
100
AcDbEntity
  8
ﾚｲﾔ_1
  6
Continuous
 62
     7
100
AcDbCircle
 10
244.6698915101652
 20
717.9867313523799
 30
0.0
 40
21.00000000006819
100
AcDbArc
 50
287.6052512652129
 51
292.3947487348996
  0
ARC
  5
143
330
48
100
AcDbEntity
  8
ﾚｲﾔ_1
  6
Continuous
 62
     7
100
AcDbCircle
 10
251.3239510362651
 20
697.0171464297799
 30
0.0
 40
1.00000000000032
100
AcDbArc
 50
107.6052512651172
 51
195.0000000000272
  0
ARC
  5
144
330
48
100
AcDbEntity
  8
ﾚｲﾔ_1
  6
Continuous
 62
     7
100
AcDbCircle
 10
244.6698915101652
 20
717.9867313523799
 30
0.0
 40
20.99999999999961
100
AcDbArc
 50
267.6052512651
 51
272.3947487348994
  0
ARC
  5
145
330
48
100
AcDbEntity
  8
ﾚｲﾔ_1
  6
Continuous
 62
     7
100
AcDbCircle
 10
238.0158319841651
 20
697.0171464297799
 30
0.0
 40
1.000000000000066
100
AcDbArc
 50
344.9999999999728
 51
72.39474873798476
  0
ARC
  5
146
330
48
100
AcDbEntity
  8
ﾚｲﾔ_1
  6
Continuous
 62
     7
100
AcDbCircle
 10
244.6698915101652
 20
717.9867313523799
 30
0.0
 40
21.00000000002361
100
AcDbArc
 50
247.6052512650609
 51
252.3947487348989
  0
ARC
  5
147
330
48
100
AcDbEntity
  8
ﾚｲﾔ_1
  6
Continuous
 62
     7
100
AcDbCircle
 10
236.2882074657651
 20
697.64595033048
 30
0.0
 40
0.9999999999999366
100
AcDbArc
 50
67.60525126508682
 51
155.0000000012322
  0
ARC
  5
148
330
48
100
AcDbEntity
  8
ﾚｲﾔ_1
  6
Continuous
 62
     7
100
AcDbCircle
 10
244.6698915101652
 20
717.9867313523799
 30
0.0
 40
46.49999999999442
100
AcDbArc
 50
207.5759589276613
 51
212.4240410724491
  0
ARC
  5
149
330
48
100
AcDbEntity
  8
ﾚｲﾔ_1
  6
Continuous
 62
     7
100
AcDbCircle
 10
205.2251850351651
 20
697.38660681148
 30
0.0
 40
1.999999999999514
100
AcDbArc
 50
114.9999999999909
 51
207.5759589276879
  0
ARC
  5
14A
330
48
100
AcDbEntity
  8
ﾚｲﾔ_1
  6
Continuous
 62
     7
100
AcDbCircle
 10
207.1073070991651
 20
694.1266757705799
 30
0.0
 40
2.000000000000465
100
AcDbArc
 50
212.4240410723051
 51
304.9999999999993
  0
ARC
  5
14B
330
48
100
AcDbEntity
  8
ﾚｲﾔ_1
  6
Continuous
 62
     7
100
AcDbCircle
 10
244.6698915101652
 20
717.9867313523799
 30
0.0
 40
39.00000000000037
100
AcDbArc
 50
214.9999999999999
 51
225.0
  0
ARC
  5
14C
330
48
100
AcDbEntity
  8
ﾚｲﾔ_1
  6
Continuous
 62
     7
100
AcDbCircle
 10
217.5332277512651
 20
682.7184526866799
 30
0.0
 40
1.999999999942788
100
AcDbArc
 50
232.424041070543
 51
325.0000000000026
  0
ARC
  5
14D
330
48
100
AcDbEntity
  8
ﾚｲﾔ_1
  6
Continuous
 62
     7
100
AcDbCircle
 10
244.6698915101652
 20
717.9867313523799
 30
0.0
 40
46.50000000000226
100
AcDbArc
 50
227.575958927697
 51
232.4240410723001
  0
ARC
  5
14E
330
48
100
AcDbEntity
  8
ﾚｲﾔ_1
  6
Continuous
 62
     7
100
AcDbCircle
 10
214.6496494545651
 20
685.13806217198
 30
0.0
 40
1.999999999999855
100
AcDbArc
 50
135.0
 51
227.5759589276067
  0
ARC
  5
14F
330
48
100
AcDbEntity
  8
ﾚｲﾔ_1
  6
Continuous
 62
     7
100
AcDbCircle
 10
214.6496494545651
 20
750.83540053268
 30
0.0
 40
2.000000000072004
100
AcDbArc
 50
132.4240410703989
 51
224.9999999979745
  0
ARC
  5
150
330
48
100
AcDbEntity
  8
ﾚｲﾔ_1
  6
Continuous
 62
     7
100
AcDbCircle
 10
244.6698915101652
 20
717.9867313523799
 30
0.0
 40
46.49999999997772
100
AcDbArc
 50
127.575958927699
 51
132.4240410723002
  0
ARC
  5
151
330
48
100
AcDbEntity
  8
ﾚｲﾔ_1
  6
Continuous
 62
     7
100
AcDbCircle
 10
217.5332277512651
 20
753.2550100179799
 30
0.0
 40
2.000000000016967
100
AcDbArc
 50
34.99999999958914
 51
127.575958927689
  0
ARC
  5
152
330
48
100
AcDbEntity
  8
ﾚｲﾔ_1
  6
Continuous
 62
     7
100
AcDbCircle
 10
244.6698915101652
 20
717.9867313523799
 30
0.0
 40
38.99999999999951
100
AcDbArc
 50
135.0
 51
145.0000000000001
  0
ARC
  5
153
330
48
100
AcDbEntity
  8
ﾚｲﾔ_1
  6
Continuous
 62
     7
100
AcDbCircle
 10
244.6698915101652
 20
717.9867313523799
 30
0.0
 40
46.50000000007876
100
AcDbArc
 50
287.5759589276229
 51
292.4240410723881
  0
ARC
  5
154
330
48
100
AcDbEntity
  8
ﾚｲﾔ_1
  6
Continuous
 62
     7
100
AcDbCircle
 10
261.6447849029651
 20
676.85155183038
 30
0.0
 40
2.000000000000054
100
AcDbArc
 50
292.4240410723022
 51
25.00000000000348
  0
ARC
  5
155
330
48
100
AcDbEntity
  8
ﾚｲﾔ_1
  6
Continuous
 62
     7
100
AcDbCircle
 10
258.1075524730651
 20
675.5641045141799
 30
0.0
 40
1.999999999999757
100
AcDbArc
 50
194.9999999999997
 51
287.5759589277031
  0
ARC
  5
156
330
48
100
AcDbEntity
  8
ﾚｲﾔ_1
  6
Continuous
 62
     7
100
AcDbCircle
 10
246.5520135741652
 20
673.52655122968
 30
0.0
 40
1.999999999924465
100
AcDbArc
 50
272.4240410702928
 51
5.00000000000123
  0
ARC
  5
157
330
48
100
AcDbEntity
  8
ﾚｲﾔ_1
  6
Continuous
 62
     7
100
AcDbCircle
 10
244.6698915101652
 20
717.9867313523799
 30
0.0
 40
46.50000000007132
100
AcDbArc
 50
267.5759589277366
 51
272.4240410723001
  0
ARC
  5
158
330
48
100
AcDbEntity
  8
ﾚｲﾔ_1
  6
Continuous
 62
     7
100
AcDbCircle
 10
242.7877694462651
 20
673.52655122968
 30
0.0
 40
1.999999999999511
100
AcDbArc
 50
174.999999999999
 51
267.5759589277036
  0
ARC
  5
159
330
48
100
AcDbEntity
  8
ﾚｲﾔ_1
  6
Continuous
 62
     7
100
AcDbCircle
 10
231.2322305472652
 20
675.5641045141799
 30
0.0
 40
1.999999999921143
100
AcDbArc
 50
252.4240410704968
 51
345.0000000000003
  0
ARC
  5
15A
330
48
100
AcDbEntity
  8
ﾚｲﾔ_1
  6
Continuous
 62
     7
100
AcDbCircle
 10
244.6698915101652
 20
717.9867313523799
 30
0.0
 40
38.99999999999994
100
AcDbArc
 50
255.0000000000003
 51
264.9999999999994
  0
ARC
  5
15B
330
48
100
AcDbEntity
  8
ﾚｲﾔ_1
  6
Continuous
 62
     7
100
AcDbCircle
 10
244.6698915101652
 20
717.9867313523799
 30
0.0
 40
39.00000000000004
100
AcDbArc
 50
275.0000000000005
 51
284.9999999999996
  0
ARC
  5
15C
330
48
100
AcDbEntity
  8
ﾚｲﾔ_1
  6
Continuous
 62
     7
100
AcDbCircle
 10
244.6698915101652
 20
717.9867313523799
 30
0.0
 40
46.49999999999985
100
AcDbArc
 50
247.5759589277003
 51
252.4240410722995
  0
ARC
  5
15D
330
48
100
AcDbEntity
  8
ﾚｲﾔ_1
  6
Continuous
 62
     7
100
AcDbCircle
 10
223.1826684974651
 20
722.7089392257799
 30
0.0
 40
0.999999999934625
100
AcDbArc
 50
347.6052512660212
 51
75.00000000002915
  0
ARC
  5
15E
330
48
100
AcDbEntity
  8
ﾚｲﾔ_1
  6
Continuous
 62
     7
100
AcDbCircle
 10
219.6698915101652
 20
719.17012810298
 30
0.0
 40
1.0
100
AcDbArc
 50
0.0
 51
84.99999999998651
  0
ARC
  5
15F
330
48
100
AcDbEntity
  8
ﾚｲﾔ_1
  6
Continuous
 62
     7
100
AcDbCircle
 10
219.6698915101652
 20
716.80333460178
 30
0.0
 40
1.000000000000316
100
AcDbArc
 50
275.000000000013
 51
0.0
  0
ARC
  5
160
330
48
100
AcDbEntity
  8
ﾚｲﾔ_1
  6
Continuous
 62
     7
100
AcDbCircle
 10
258.1075524730651
 20
760.4093581904799
 30
0.0
 40
2.000000000016483
100
AcDbArc
 50
72.42404107136532
 51
164.9999999995569
  0
ARC
  5
161
330
48
100
AcDbEntity
  8
ﾚｲﾔ_1
  6
Continuous
 62
     7
100
AcDbCircle
 10
244.6698915101652
 20
717.9867313523799
 30
0.0
 40
46.49999999995389
100
AcDbArc
 50
67.57595892756507
 51
72.4240410722998
  0
ARC
  5
162
330
48
100
AcDbEntity
  8
ﾚｲﾔ_1
  6
Continuous
 62
     7
100
AcDbCircle
 10
261.6447849029651
 20
759.1219108742799
 30
0.0
 40
1.999999999999573
100
AcDbArc
 50
335.0000000000053
 51
67.5759589277015
  0
ARC
  5
163
330
48
100
AcDbEntity
  8
ﾚｲﾔ_1
  6
Continuous
 62
     7
100
AcDbCircle
 10
244.6698915101652
 20
717.9867313523799
 30
0.0
 40
46.49999999998332
100
AcDbArc
 50
107.5759589276603
 51
112.424041072321
  0
ARC
  5
164
330
48
100
AcDbEntity
  8
ﾚｲﾔ_1
  6
Continuous
 62
     7
100
AcDbCircle
 10
244.6698915101652
 20
717.9867313523799
 30
0.0
 40
38.99999999999959
100
AcDbArc
 50
115.0
 51
125.0000000000001
  0
ARC
  5
165
330
48
100
AcDbEntity
  8
ﾚｲﾔ_1
  6
Continuous
 62
     7
100
AcDbCircle
 10
244.6698915101652
 20
717.9867313523799
 30
0.0
 40
21.00000000001954
100
AcDbArc
 50
207.6052512651329
 51
212.3947487348997
  0
ARC
  5
166
330
48
100
AcDbEntity
  8
ﾚｲﾔ_1
  6
Continuous
 62
     7
100
AcDbCircle
 10
201.2119884916652
 20
708.41277369458
 30
0.0
 40
2.00000000001514
100
AcDbArc
 50
192.424041069504
 51
284.9999999999969
  0
ARC
  5
167
330
48
100
AcDbEntity
  8
ﾚｲﾔ_1
  6
Continuous
 62
     7
100
AcDbCircle
 10
244.6698915101652
 20
717.9867313523799
 30
0.0
 40
46.49999999997387
100
AcDbArc
 50
187.5759589277449
 51
192.4240410722996
  0
ARC
  5
168
330
48
100
AcDbEntity
  8
ﾚｲﾔ_1
  6
Continuous
 62
     7
100
AcDbCircle
 10
200.5583343585651
 20
712.11983049598
 30
0.0
 40
1.99999999999954
100
AcDbArc
 50
94.99999999999194
 51
187.5759589277047
  0
ARC
  5
169
330
48
100
AcDbEntity
  8
ﾚｲﾔ_1
  6
Continuous
 62
     7
100
AcDbCircle
 10
205.2251850351651
 20
738.58685589328
 30
0.0
 40
2.000000000005007
100
AcDbArc
 50
152.4240410714205
 51
245.0000000000104
  0
ARC
  5
16A
330
48
100
AcDbEntity
  8
ﾚｲﾔ_1
  6
Continuous
 62
     7
100
AcDbCircle
 10
244.6698915101652
 20
717.9867313523799
 30
0.0
 40
46.49999999994793
100
AcDbArc
 50
147.5759589276549
 51
152.4240410723003
  0
ARC
  5
16B
330
48
100
AcDbEntity
  8
ﾚｲﾔ_1
  6
Continuous
 62
     7
100
AcDbCircle
 10
207.1073070991651
 20
741.84678693408
 30
0.0
 40
1.999999999999893
100
AcDbArc
 50
55.00000000000077
 51
147.575958927695
  0
ARC
  5
16C
330
48
100
AcDbEntity
  8
ﾚｲﾔ_1
  6
Continuous
 62
     7
100
AcDbCircle
 10
200.5583343585651
 20
723.85363220868
 30
0.0
 40
2.000000000039295
100
AcDbArc
 50
172.4240410705113
 51
265.0000000000081
  0
ARC
  5
16D
330
48
100
AcDbEntity
  8
ﾚｲﾔ_1
  6
Continuous
 62
     7
100
AcDbCircle
 10
244.6698915101652
 20
717.9867313523799
 30
0.0
 40
46.49999999996362
100
AcDbArc
 50
167.5759589277004
 51
172.4240410723004
  0
ARC
  5
16E
330
48
100
AcDbEntity
  8
ﾚｲﾔ_1
  6
Continuous
 62
     7
100
AcDbCircle
 10
201.2119884916652
 20
727.56068901008
 30
0.0
 40
1.99999999999979
100
AcDbArc
 50
75.00000000000308
 51
167.575958927701
  0
ARC
  5
16F
330
48
100
AcDbEntity
  8
ﾚｲﾔ_1
  6
Continuous
 62
     7
100
AcDbCircle
 10
244.6698915101652
 20
717.9867313523799
 30
0.0
 40
38.99999999999965
100
AcDbArc
 50
155.0000000000002
 51
165.0000000000006
  0
ARC
  5
170
330
48
100
AcDbEntity
  8
ﾚｲﾔ_1
  6
Continuous
 62
     7
100
AcDbCircle
 10
231.2322305472652
 20
760.4093581904799
 30
0.0
 40
1.999999999999786
100
AcDbArc
 50
15.00000000000285
 51
107.5759589277041
  0
ARC
  5
171
330
48
100
AcDbEntity
  8
ﾚｲﾔ_1
  6
Continuous
 62
     7
100
AcDbCircle
 10
236.2882074657651
 20
738.32751237418
 30
0.0
 40
1.000000000000286
100
AcDbArc
 50
205.0000000000136
 51
292.3947487379125
  0
ARC
  5
172
330
48
100
AcDbEntity
  8
ﾚｲﾔ_1
  6
Continuous
 62
     7
100
AcDbCircle
 10
251.3239510362651
 20
738.95631627488
 30
0.0
 40
1.000000000000036
100
AcDbArc
 50
164.9999999999791
 51
252.3947487307952
  0
ARC
  5
173
330
48
100
AcDbEntity
  8
ﾚｲﾔ_1
  6
Continuous
 62
     7
100
AcDbCircle
 10
244.6698915101652
 20
717.9867313523799
 30
0.0
 40
20.99999999993114
100
AcDbArc
 50
67.60525126495757
 51
72.39474873489927
  0
ARC
  5
174
330
48
100
AcDbEntity
  8
ﾚｲﾔ_1
  6
Continuous
 62
     7
100
AcDbCircle
 10
253.0515755545651
 20
738.32751237418
 30
0.0
 40
0.9999999999999366
100
AcDbArc
 50
247.6052512650868
 51
334.9999999999912
  0
ARC
  5
175
330
48
100
AcDbEntity
  8
ﾚｲﾔ_1
  6
Continuous
 62
     7
100
AcDbCircle
 10
225.1743470117652
 20
707.79243173388
 30
0.0
 40
0.9999999999995983
100
AcDbArc
 50
27.60525126508148
 51
115.0000000000145
  0
ARC
  5
176
330
48
100
AcDbEntity
  8
ﾚｲﾔ_1
  6
Continuous
 62
     7
100
AcDbCircle
 10
227.6949981174651
 20
759.1219108742799
 30
0.0
 40
2.000000000000293
100
AcDbArc
 50
112.4240410722932
 51
204.9999999999946
  0
ARC
  5
177
330
48
100
AcDbEntity
  8
ﾚｲﾔ_1
  6
Continuous
 62
     7
100
AcDbCircle
 10
225.1743470117652
 20
728.18103097078
 30
0.0
 40
1.000000000000491
100
AcDbArc
 50
244.9999999999882
 51
332.3947487393029
  0
ARC
  5
178
330
48
100
AcDbEntity
  8
ﾚｲﾔ_1
  6
Continuous
 62
     7
100
AcDbCircle
 10
244.6698915101652
 20
717.9867313523799
 30
0.0
 40
20.99999999993933
100
AcDbArc
 50
147.6052512649117
 51
152.3947487348999
  0
ARC
  5
179
330
48
100
AcDbEntity
  8
ﾚｲﾔ_1
  6
Continuous
 62
     7
100
AcDbCircle
 10
226.0935968176652
 20
729.7732183393799
 30
0.0
 40
0.9999999999998419
100
AcDbArc
 50
327.6052512650829
 51
55.00000000000264
  0
ARC
  5
17A
330
48
100
AcDbEntity
  8
ﾚｲﾔ_1
  6
Continuous
 62
     7
100
AcDbCircle
 10
229.8367280234651
 20
734.23410840148
 30
0.0
 40
1.000000000000651
100
AcDbArc
 50
225.0
 51
312.3947487346821
  0
ARC
  5
17B
330
48
100
AcDbEntity
  8
ﾚｲﾔ_1
  6
Continuous
 62
     7
100
AcDbCircle
 10
222.8634163902652
 20
715.07509215038
 30
0.0
 40
0.9999999999417598
100
AcDbArc
 50
7.6052512646007
 51
95.00000000001836
  0
ARC
  5
17C
330
48
100
AcDbEntity
  8
ﾚｲﾔ_1
  6
Continuous
 62
     7
100
AcDbCircle
 10
223.1826684974651
 20
713.2645234788799
 30
0.0
 40
0.9999999999997808
100
AcDbArc
 50
284.9999999999725
 51
12.39474873958368
  0
ARC
  5
17D
330
48
100
AcDbEntity
  8
ﾚｲﾔ_1
  6
Continuous
 62
     7
100
AcDbCircle
 10
244.6698915101652
 20
717.9867313523799
 30
0.0
 40
21.00000000000007
100
AcDbArc
 50
187.6052512651005
 51
192.3947487349
  0
ARC
  5
17E
330
48
100
AcDbEntity
  8
ﾚｲﾔ_1
  6
Continuous
 62
     7
100
AcDbCircle
 10
244.6698915101652
 20
717.9867313523799
 30
0.0
 40
20.99999999994275
100
AcDbArc
 50
107.6052512650358
 51
112.3947487349001
  0
ARC
  5
17F
330
48
100
AcDbEntity
  8
ﾚｲﾔ_1
  6
Continuous
 62
     7
100
AcDbCircle
 10
238.0158319841651
 20
738.95631627488
 30
0.0
 40
1.000000000000329
100
AcDbArc
 50
287.6052512651188
 51
15.00000000002088
  0
ARC
  5
180
330
48
100
AcDbEntity
  8
ﾚｲﾔ_1
  6
Continuous
 62
     7
100
AcDbCircle
 10
244.6698915101652
 20
717.9867313523799
 30
0.0
 40
20.99999999989809
100
AcDbArc
 50
127.6052512650418
 51
132.3947487348999
  0
ARC
  5
181
330
48
100
AcDbEntity
  8
ﾚｲﾔ_1
  6
Continuous
 62
     7
100
AcDbCircle
 10
231.2451004346652
 20
735.41587317218
 30
0.0
 40
1.00000000000027
100
AcDbArc
 50
307.6052512651041
 51
34.9999999999983
  0
ARC
  5
182
330
48
100
AcDbEntity
  8
ﾚｲﾔ_1
  6
Continuous
 62
     7
100
AcDbCircle
 10
222.8634163902652
 20
720.8983705543799
 30
0.0
 40
1.00000000000021
100
AcDbArc
 50
264.9999999999816
 51
352.3947487353993
  0
ARC
  5
183
330
48
100
AcDbEntity
  8
ﾚｲﾔ_1
  6
Continuous
 62
     7
100
AcDbCircle
 10
244.6698915101652
 20
717.9867313523799
 30
0.0
 40
20.99999999999968
100
AcDbArc
 50
167.6052512650997
 51
172.3947487348995
  0
ARC
  5
184
330
48
100
AcDbEntity
  8
ﾚｲﾔ_1
  6
Continuous
 62
     7
100
AcDbCircle
 10
244.6698915101652
 20
717.9867313523799
 30
0.0
 40
46.50000000005694
100
AcDbArc
 50
307.5759589276237
 51
312.4240410723894
  0
ARC
  5
185
330
48
100
AcDbEntity
  8
ﾚｲﾔ_1
  6
Continuous
 62
     7
100
AcDbCircle
 10
274.6901335658652
 20
685.13806217198
 30
0.0
 40
1.999999999999729
100
AcDbArc
 50
312.4240410722901
 51
45.0
  0
ARC
  5
186
330
48
100
AcDbEntity
  8
ﾚｲﾔ_1
  6
Continuous
 62
     7
100
AcDbCircle
 10
244.6698915101652
 20
717.9867313523799
 30
0.0
 40
38.99999999999951
100
AcDbArc
 50
315.0
 51
325.0
  0
ARC
  5
187
330
48
100
AcDbEntity
  8
ﾚｲﾔ_1
  6
Continuous
 62
     7
100
AcDbCircle
 10
244.6698915101652
 20
717.9867313523799
 30
0.0
 40
52.70000000000005
100
AcDbArc
 50
333.1054558073996
 51
338.2832124544002
  0
ARC
  5
188
330
48
100
AcDbEntity
  8
ﾚｲﾔ_1
  6
Continuous
 62
     7
100
AcDbCircle
 10
244.6698915101652
 20
717.9867313523799
 30
0.0
 40
53.00000000000007
100
AcDbArc
 50
332.4729147121001
 51
338.4123256127996
  0
ARC
  5
189
330
48
100
AcDbEntity
  8
ﾚｲﾔ_1
  6
Continuous
 62
     7
100
AcDbCircle
 10
242.7877694462651
 20
762.44691147498
 30
0.0
 40
2.000000000029103
100
AcDbArc
 50
92.42404107303292
 51
184.9999999999945
  0
ARC
  5
18A
330
48
100
AcDbEntity
  8
ﾚｲﾔ_1
  6
Continuous
 62
     7
100
AcDbCircle
 10
244.6698915101652
 20
717.9867313523799
 30
0.0
 40
46.49999999997569
100
AcDbArc
 50
87.57595892760858
 51
92.42404107230023
  0
ARC
  5
18B
330
48
100
AcDbEntity
  8
ﾚｲﾔ_1
  6
Continuous
 62
     7
100
AcDbCircle
 10
246.5520135741652
 20
762.44691147498
 30
0.0
 40
1.999999999999406
100
AcDbArc
 50
355.0000000000052
 51
87.5759589277052
  0
ARC
  5
18C
330
48
100
AcDbEntity
  8
ﾚｲﾔ_1
  6
Continuous
 62
     7
100
AcDbCircle
 10
243.7506417043651
 20
739.9675179577799
 30
0.0
 40
1.000000000000295
100
AcDbArc
 50
185.0000000000179
 51
272.3947487350399
  0
ARC
  5
18D
330
48
100
AcDbEntity
  8
ﾚｲﾔ_1
  6
Continuous
 62
     7
100
AcDbCircle
 10
244.6698915101652
 20
717.9867313523799
 30
0.0
 40
20.99999999994564
100
AcDbArc
 50
87.6052512650945
 51
92.39474873489992
  0
ARC
  5
18E
330
48
100
AcDbEntity
  8
ﾚｲﾔ_1
  6
Continuous
 62
     7
100
AcDbCircle
 10
245.5891413159651
 20
739.9675179577799
 30
0.0
 40
0.9999999999997018
100
AcDbArc
 50
267.6052512650894
 51
354.9999999999821
  0
ARC
  5
18F
330
48
100
AcDbEntity
  8
ﾚｲﾔ_1
  6
Continuous
 62
     7
100
AcDbCircle
 10
258.0946825857651
 20
735.41587317218
 30
0.0
 40
0.9999999999999929
100
AcDbArc
 50
145.0000000000026
 51
232.3947487348919
  0
ARC
  5
190
330
48
100
AcDbEntity
  8
ﾚｲﾔ_1
  6
Continuous
 62
     7
100
AcDbCircle
 10
244.6698915101652
 20
717.9867313523799
 30
0.0
 40
39.00000000000005
100
AcDbArc
 50
95.00000000000063
 51
104.9999999999996
  0
ARC
  5
191
330
48
100
AcDbEntity
  8
ﾚｲﾔ_1
  6
Continuous
 62
     7
100
AcDbCircle
 10
244.6698915101652
 20
717.9867313523799
 30
0.0
 40
39.00000000000024
100
AcDbArc
 50
75.00000000000057
 51
84.9999999999995
  0
ARC
  5
192
330
48
100
AcDbEntity
  8
ﾚｲﾔ_1
  6
Continuous
 62
     7
100
AcDbCircle
 10
244.6698915101652
 20
717.9867313523799
 30
0.0
 40
39.0000000000003
100
AcDbArc
 50
35.00000000000003
 51
45.0
  0
ARC
  5
193
330
48
100
AcDbEntity
  8
ﾚｲﾔ_1
  6
Continuous
 62
     7
100
AcDbCircle
 10
274.6901335658652
 20
750.83540053268
 30
0.0
 40
1.999999999999855
100
AcDbArc
 50
315.0
 51
47.57595893171852
  0
ARC
  5
194
330
48
100
AcDbEntity
  8
ﾚｲﾔ_1
  6
Continuous
 62
     7
100
AcDbCircle
 10
244.6698915101652
 20
717.9867313523799
 30
0.0
 40
46.49999999999432
100
AcDbArc
 50
27.57595892766135
 51
32.42404107227921
  0
ARC
  5
195
330
48
100
AcDbEntity
  8
ﾚｲﾔ_1
  6
Continuous
 62
     7
100
AcDbCircle
 10
282.2324759212651
 20
741.84678693408
 30
0.0
 40
2.000000000000441
100
AcDbArc
 50
32.42404107230549
 51
124.9999999995901
  0
ARC
  5
196
330
48
100
AcDbEntity
  8
ﾚｲﾔ_1
  6
Continuous
 62
     7
100
AcDbCircle
 10
244.6698915101652
 20
717.9867313523799
 30
0.0
 40
46.50000000000009
100
AcDbArc
 50
47.57595892769996
 51
52.42404107230111
  0
ARC
  5
197
330
48
100
AcDbEntity
  8
ﾚｲﾔ_1
  6
Continuous
 62
     7
100
AcDbCircle
 10
271.8065552690651
 20
753.2550100179799
 30
0.0
 40
2.000000000000087
100
AcDbArc
 50
52.42404107230848
 51
145.0000000000008
  0
ARC
  5
198
330
48
100
AcDbEntity
  8
ﾚｲﾔ_1
  6
Continuous
 62
     7
100
AcDbCircle
 10
284.1145979851652
 20
738.58685589328
 30
0.0
 40
2.000000000000227
100
AcDbArc
 50
315.5679998188954
 51
27.57595892768504
  0
ARC
  5
199
330
48
100
AcDbEntity
  8
ﾚｲﾔ_1
  6
Continuous
 62
     7
100
AcDbCircle
 10
271.8065552690651
 20
682.7184526866799
 30
0.0
 40
1.999999999999893
100
AcDbArc
 50
214.9999999999992
 51
307.5759589276915
  0
ARC
  5
19A
330
48
100
AcDbEntity
  8
ﾚｲﾔ_1
  6
Continuous
 62
     7
100
AcDbCircle
 10
444.343330643565
 20
655.98673136318
 30
0.0
 40
2.0
100
AcDbArc
 50
89.99999999426788
 51
179.999999994903
  0
ARC
  5
19B
330
48
100
AcDbEntity
  8
ﾚｲﾔ_1
  6
Continuous
 62
     7
100
AcDbCircle
 10
441.843330642565
 20
643.4867313525799
 30
0.0
 40
0.5
100
AcDbArc
 50
269.9999999885683
 51
0.0000150652956
  0
ARC
  5
19C
330
48
100
AcDbEntity
  8
ﾚｲﾔ_1
  6
Continuous
 62
     7
100
AcDbCircle
 10
438.843330642565
 20
643.48673135278
 30
0.0
 40
0.5
100
AcDbArc
 50
179.9999999949062
 51
269.9999999885683
  0
ARC
  5
19D
330
48
100
AcDbEntity
  8
ﾚｲﾔ_1
  6
Continuous
 62
     7
100
AcDbCircle
 10
540.343330570465
 20
667.48673135138
 30
0.0
 40
7.0
100
AcDbArc
 50
270.0
 51
0.0
  0
ARC
  5
19E
330
48
100
AcDbEntity
  8
ﾚｲﾔ_1
  6
Continuous
 62
     7
100
AcDbCircle
 10
426.3426454164651
 20
647.4867313622799
 30
0.0
 40
0.5000000000000008
100
AcDbArc
 50
179.9999967258896
 51
270.0
  0
ARC
  5
19F
330
48
100
AcDbEntity
  8
ﾚｲﾔ_1
  6
Continuous
 62
     7
100
AcDbCircle
 10
430.3433306490651
 20
647.4867313622799
 30
0.0
 40
0.5
100
AcDbArc
 50
270.0
 51
0.0
  0
ARC
  5
1A0
330
48
100
AcDbEntity
  8
ﾚｲﾔ_1
  6
Continuous
 62
     7
100
AcDbCircle
 10
540.343330570465
 20
768.48673135138
 30
0.0
 40
7.0
100
AcDbArc
 50
0.0
 51
90.0
  0
ARC
  5
1A1
330
48
100
AcDbEntity
  8
ﾚｲﾔ_1
  6
Continuous
 62
     7
100
AcDbCircle
 10
426.3426454164651
 20
788.4867313622799
 30
0.0
 40
0.5
100
AcDbArc
 50
90.0
 51
182.9999999999411
  0
ARC
  5
1A2
330
48
100
AcDbEntity
  8
ﾚｲﾔ_1
  6
Continuous
 62
     7
100
AcDbCircle
 10
430.3433306490651
 20
788.4867313622799
 30
0.0
 40
0.5
100
AcDbArc
 50
0.0
 51
90.0
  0
ARC
  5
1A3
330
48
100
AcDbEntity
  8
ﾚｲﾔ_1
  6
Continuous
 62
     7
100
AcDbCircle
 10
444.3433306655652
 20
779.98673135788
 30
0.0
 40
2.0
100
AcDbArc
 50
179.9999999847903
 51
269.9999999856713
  0
ARC
  5
1A4
330
48
100
AcDbEntity
  8
ﾚｲﾔ_1
  6
Continuous
 62
     7
100
AcDbCircle
 10
438.8433306686652
 20
792.4867313530799
 30
0.0
 40
0.5
100
AcDbArc
 50
89.99999998480335
 51
179.9999999847578
  0
ARC
  5
1A5
330
48
100
AcDbEntity
  8
ﾚｲﾔ_1
  6
Continuous
 62
     7
100
AcDbCircle
 10
441.8433306686652
 20
792.48673135228
 30
0.0
 40
0.5000000000000173
100
AcDbArc
 50
359.9999849143554
 51
89.99999998480335
  0
ARC
  5
1A6
330
48
100
AcDbEntity
  8
ﾚｲﾔ_1
  6
Continuous
 62
     7
100
AcDbCircle
 10
319.1698915051418
 20
408.14463694088
 30
0.0
 40
0.5
100
AcDbArc
 50
0.0
 51
90.0
  0
ARC
  5
1A7
330
48
100
AcDbEntity
  8
ﾚｲﾔ_1
  6
Continuous
 62
     7
100
AcDbCircle
 10
306.6698915029418
 20
402.64463694088
 30
0.0
 40
2.0
100
AcDbArc
 50
90.0
 51
180.0
  0
ARC
  5
1A8
330
48
100
AcDbEntity
  8
ﾚｲﾔ_1
  6
Continuous
 62
     7
100
AcDbCircle
 10
315.169891504242
 20
416.64463694088
 30
0.0
 40
0.5
100
AcDbArc
 50
270.0
 51
0.0
  0
ARC
  5
1A9
330
48
100
AcDbEntity
  8
ﾚｲﾔ_1
  6
Continuous
 62
     7
100
AcDbCircle
 10
315.169891504242
 20
420.6453221734799
 30
0.0
 40
0.5
100
AcDbArc
 50
0.0
 51
92.99999999996572
  0
ARC
  5
1AA
330
48
100
AcDbEntity
  8
ﾚｲﾔ_1
  6
Continuous
 62
     7
100
AcDbCircle
 10
304.6698914702419
 20
410.64463694088
 30
0.0
 40
0.5
100
AcDbArc
 50
180.0
 51
203.5781784781777
  0
ARC
  5
1AB
330
48
100
AcDbEntity
  8
ﾚｲﾔ_1
  6
Continuous
 62
     7
100
AcDbCircle
 10
310.6698914702419
 20
409.94463694088
 30
0.0
 40
0.5000000000002972
100
AcDbArc
 50
23.57817847818555
 51
89.99999668005215
  0
ARC
  5
1AC
330
48
100
AcDbEntity
  8
ﾚｲﾔ_1
  6
Continuous
 62
     7
100
AcDbCircle
 10
313.9198914702419
 20
409.39463694088
 30
0.0
 40
0.7500000000000454
100
AcDbArc
 50
270.000019946715
 51
89.99997488198957
  0
ARC
  5
1AD
330
48
100
AcDbEntity
  8
ﾚｲﾔ_1
  6
Continuous
 62
     7
100
AcDbCircle
 10
304.6698914702419
 20
413.64463694088
 30
0.0
 40
0.5000000000004308
100
AcDbArc
 50
156.4218215218283
 51
180.0
  0
ARC
  5
1AE
330
48
100
AcDbEntity
  8
ﾚｲﾔ_1
  6
Continuous
 62
     7
100
AcDbCircle
 10
310.6698914702419
 20
414.3446369408799
 30
0.0
 40
0.5000000000000213
100
AcDbArc
 50
270.0000167563891
 51
336.4218215218204
  0
ARC
  5
1AF
330
48
100
AcDbEntity
  8
ﾚｲﾔ_1
  6
Continuous
 62
     7
100
AcDbCircle
 10
313.9198914702419
 20
414.89463694088
 30
0.0
 40
0.7500000000000315
100
AcDbArc
 50
270.0000166043185
 51
89.99997405143537
  0
CIRCLE
  5
1B0
330
48
100
AcDbEntity
  8
ﾚｲﾔ_1
  6
Continuous
 62
     7
100
AcDbCircle
 10
244.6698915101652
 20
717.9867313523799
 30
0.0
 40
70.99999999999989
  0
CIRCLE
  5
1B1
330
48
100
AcDbEntity
  8
ﾚｲﾔ_1
  6
Continuous
 62
     7
100
AcDbCircle
 10
244.6698915101652
 20
717.9867313523799
 30
0.0
 40
74.99999999999989
  0
ENDBLK
  5
4A
330
48
100
AcDbEntity
  8
0
100
AcDbBlockEnd
  0
BLOCK
  5
4C
330
4B
100
AcDbEntity
  8
0
100
AcDbBlockBegin
  2
開示A4
 70
     0
 10
0.0
 20
0.0
 30
0.0
  3
開示A4
  1

  0
POINT
  5
1B2
330
4B
100
AcDbEntity
  8
1
 62
     4
100
AcDbPoint
 10
34.0
 20
34.00000000000001
 30
0.0
  0
POINT
  5
1B3
330
4B
100
AcDbEntity
  8
1
 62
     4
100
AcDbPoint
 10
57.0
 20
12.25
 30
0.0
  0
POINT
  5
1B4
330
4B
100
AcDbEntity
  8
1
 62
     4
100
AcDbPoint
 10
57.0
 20
20.75000000000001
 30
0.0
  0
POINT
  5
1B5
330
4B
100
AcDbEntity
  8
1
 62
     4
100
AcDbPoint
 10
57.0
 20
24.75000000000001
 30
0.0
  0
POINT
  5
1B6
330
4B
100
AcDbEntity
  8
1
 62
     4
100
AcDbPoint
 10
57.0
 20
16.25
 30
0.0
  0
POINT
  5
1B7
330
4B
100
AcDbEntity
  8
1
 62
     4
100
AcDbPoint
 10
157.5
 20
19.00000000000001
 30
0.0
  0
POINT
  5
1B8
330
4B
100
AcDbEntity
  8
1
 62
     4
100
AcDbPoint
 10
47.5
 20
282.0000000000003
 30
0.0
  0
POINT
  5
1B9
330
4B
100
AcDbEntity
  8
1
 62
     4
100
AcDbPoint
 10
57.0
 20
22.75000000000001
 30
0.0
  0
POINT
  5
1BA
330
4B
100
AcDbEntity
  8
1
 62
     4
100
AcDbPoint
 10
57.0
 20
14.25
 30
0.0
  0
POINT
  5
1BB
330
4B
100
AcDbEntity
  8
1
 62
     4
100
AcDbPoint
 10
157.5
 20
12.5
 30
0.0
  0
POINT
  5
1BC
330
4B
100
AcDbEntity
  8
1
 62
     4
100
AcDbPoint
 10
163.25
 20
12.5
 30
0.0
  0
POINT
  5
1BD
330
4B
100
AcDbEntity
  8
1
 62
     4
100
AcDbPoint
 10
151.75
 20
12.5
 30
0.0
  0
POINT
  5
1BE
330
4B
100
AcDbEntity
  8
1
 62
     4
100
AcDbPoint
 10
134.75
 20
12.5
 30
0.0
  0
POINT
  5
1BF
330
4B
100
AcDbEntity
  8
1
 62
     4
100
AcDbPoint
 10
146.25
 20
12.5
 30
0.0
  0
POINT
  5
1C0
330
4B
100
AcDbEntity
  8
1
 62
     4
100
AcDbPoint
 10
140.5
 20
12.5
 30
0.0
  0
POINT
  5
1C1
330
4B
100
AcDbEntity
  8
1
 62
     4
100
AcDbPoint
 10
140.5
 20
19.00000000000001
 30
0.0
  0
POINT
  5
1C2
330
4B
100
AcDbEntity
  8
1
 62
     4
100
AcDbPoint
 10
117.75
 20
12.5
 30
0.0
  0
POINT
  5
1C3
330
4B
100
AcDbEntity
  8
1
 62
     4
100
AcDbPoint
 10
129.25
 20
12.5
 30
0.0
  0
POINT
  5
1C4
330
4B
100
AcDbEntity
  8
1
 62
     4
100
AcDbPoint
 10
123.5
 20
12.5
 30
0.0
  0
POINT
  5
1C5
330
4B
100
AcDbEntity
  8
1
 62
     4
100
AcDbPoint
 10
123.5
 20
19.00000000000001
 30
0.0
  0
POINT
  5
1C6
330
4B
100
AcDbEntity
  8
1
 62
     4
100
AcDbPoint
 10
100.75
 20
12.5
 30
0.0
  0
POINT
  5
1C7
330
4B
100
AcDbEntity
  8
1
 62
     4
100
AcDbPoint
 10
112.25
 20
12.5
 30
0.0
  0
POINT
  5
1C8
330
4B
100
AcDbEntity
  8
1
 62
     4
100
AcDbPoint
 10
106.5
 20
12.5
 30
0.0
  0
POINT
  5
1C9
330
4B
100
AcDbEntity
  8
1
 62
     4
100
AcDbPoint
 10
106.5
 20
19.00000000000001
 30
0.0
  0
POINT
  5
1CA
330
4B
100
AcDbEntity
  8
1
 62
     4
100
AcDbPoint
 10
85.25
 20
17.0
 30
0.0
  0
POINT
  5
1CB
330
4B
100
AcDbEntity
  8
1
 62
     4
100
AcDbPoint
 10
93.75
 20
17.0
 30
0.0
  0
LINE
  5
1CC
330
4B
100
AcDbEntity
  8
1
  6
Continuous
 62
     2
100
AcDbLine
 10
81.0
 20
27.00000000000001
 30
0.0
 11
81.0
 21
10.0
 31
0.0
  0
LINE
  5
1CD
330
4B
100
AcDbEntity
  8
1
  6
DOT_CENTER
 62
     2
100
AcDbLine
 10
187.0
 20
26.50000000000001
 30
0.0
 11
187.0
 21
20.50000000000001
 31
0.0
  0
LINE
  5
1CE
330
4B
100
AcDbEntity
  8
1
  6
DOT_CENTER
 62
     2
100
AcDbLine
 10
184.0
 20
23.50000000000001
 30
0.0
 11
197.0
 21
23.50000000000001
 31
0.0
  0
LINE
  5
1CF
330
4B
100
AcDbEntity
  8
1
  6
Continuous
 62
     7
100
AcDbLine
 10
196.0
 20
21.50000000000001
 30
0.0
 11
191.0
 21
22.30000000000001
 31
0.0
  0
LINE
  5
1D0
330
4B
100
AcDbEntity
  8
1
  6
Continuous
 62
     7
100
AcDbLine
 10
196.0
 20
25.50000000000001
 30
0.0
 11
196.0
 21
21.50000000000001
 31
0.0
  0
LINE
  5
1D1
330
4B
100
AcDbEntity
  8
1
  6
Continuous
 62
     7
100
AcDbLine
 10
191.0
 20
24.70000000000001
 30
0.0
 11
196.0
 21
25.50000000000001
 31
0.0
  0
LINE
  5
1D2
330
4B
100
AcDbEntity
  8
1
  6
Continuous
 62
     7
100
AcDbLine
 10
191.0
 20
24.70000000000001
 30
0.0
 11
191.0
 21
22.30000000000001
 31
0.0
  0
LINE
  5
1D3
330
4B
100
AcDbEntity
  8
1
  6
Continuous
 62
     2
100
AcDbLine
 10
33.0
 20
27.0
 30
0.0
 11
33.0
 21
10.0
 31
0.0
  0
LINE
  5
1D4
330
4B
100
AcDbEntity
  8
1
  6
Continuous
 62
     2
100
AcDbLine
 10
25.0
 20
18.50000000000001
 30
0.0
 11
81.0
 21
18.50000000000001
 31
0.0
  0
LINE
  5
1D5
330
4B
100
AcDbEntity
  8
1
  6
Continuous
 62
     7
100
AcDbLine
 10
200.0
 20
287.0000000000003
 30
0.0
 11
105.0
 21
287.0000000000003
 31
0.0
  0
LINE
  5
1D6
330
4B
100
AcDbEntity
  8
1
  6
Continuous
 62
     7
100
AcDbLine
 10
200.0
 20
10.0
 30
0.0
 11
200.0
 21
148.5
 31
0.0
  0
LINE
  5
1D7
330
4B
100
AcDbEntity
  8
1
  6
Continuous
 62
     7
100
AcDbLine
 10
25.0
 20
10.0
 30
0.0
 11
105.0
 21
10.0
 31
0.0
  0
LINE
  5
1D8
330
4B
100
AcDbEntity
  8
1
  6
PHANTOM
 62
     4
100
AcDbLine
 10
0.0
 20
297.0
 30
0.0
 11
0.0
 21
0.0
 31
0.0
  0
LINE
  5
1D9
330
4B
100
AcDbEntity
  8
1
  6
PHANTOM
 62
     4
100
AcDbLine
 10
210.0
 20
297.0
 30
0.0
 11
0.0
 21
297.0
 31
0.0
  0
LINE
  5
1DA
330
4B
100
AcDbEntity
  8
1
  6
PHANTOM
 62
     4
100
AcDbLine
 10
210.0
 20
0.0
 30
0.0
 11
210.0
 21
297.0
 31
0.0
  0
LINE
  5
1DB
330
4B
100
AcDbEntity
  8
1
  6
PHANTOM
 62
     4
100
AcDbLine
 10
0.0
 20
0.0
 30
0.0
 11
210.0
 21
0.0
 31
0.0
  0
LINE
  5
1DC
330
4B
100
AcDbEntity
  8
1
  6
Continuous
 62
     7
100
AcDbLine
 10
25.0
 20
41.0
 30
0.0
 11
200.0
 21
41.0
 31
0.0
  0
LINE
  5
1DD
330
4B
100
AcDbEntity
  8
1
  6
Continuous
 62
     7
100
AcDbLine
 10
200.0
 20
27.00000000000001
 30
0.0
 11
25.0
 21
27.00000000000001
 31
0.0
  0
LINE
  5
1DE
330
4B
100
AcDbEntity
  8
1
  6
Continuous
 62
     2
100
AcDbLine
 10
33.0
 20
41.00000000000001
 30
0.0
 11
33.0
 21
27.0
 31
0.0
  0
LINE
  5
1DF
330
4B
100
AcDbEntity
  8
1
  6
Continuous
 62
     2
100
AcDbLine
 10
55.0
 20
287.0000000000003
 30
0.0
 11
55.0
 21
277.0000000000003
 31
0.0
  0
LINE
  5
1E0
330
4B
100
AcDbEntity
  8
1
  6
Continuous
 62
     2
100
AcDbLine
 10
40.0
 20
287.0000000000003
 30
0.0
 11
40.0
 21
277.0000000000003
 31
0.0
  0
LINE
  5
1E1
330
4B
100
AcDbEntity
  8
1
  6
Continuous
 62
     7
100
AcDbLine
 10
25.0
 20
10.0
 30
0.0
 11
25.0
 21
148.5
 31
0.0
  0
LINE
  5
1E2
330
4B
100
AcDbEntity
  8
1
  6
Continuous
 62
     2
100
AcDbLine
 10
55.0
 20
277.0000000000003
 30
0.0
 11
25.0
 21
277.0000000000003
 31
0.0
  0
LINE
  5
1E3
330
4B
100
AcDbEntity
  8
1
  6
Continuous
 62
     2
100
AcDbLine
 10
166.0
 20
27.00000000000001
 30
0.0
 11
166.0
 21
10.0
 31
0.0
  0
LINE
  5
1E4
330
4B
100
AcDbEntity
  8
1
  6
Continuous
 62
     2
100
AcDbLine
 10
132.0
 20
27.00000000000001
 30
0.0
 11
132.0
 21
9.99999999999999
 31
0.0
  0
LINE
  5
1E5
330
4B
100
AcDbEntity
  8
1
  6
Continuous
 62
     2
100
AcDbLine
 10
149.0
 20
27.00000000000001
 30
0.0
 11
149.0
 21
10.0
 31
0.0
  0
LINE
  5
1E6
330
4B
100
AcDbEntity
  8
1
  6
Continuous
 62
     2
100
AcDbLine
 10
115.0
 20
27.00000000000001
 30
0.0
 11
115.0
 21
9.99999999999999
 31
0.0
  0
LINE
  5
1E7
330
4B
100
AcDbEntity
  8
1
  6
Continuous
 62
     2
100
AcDbLine
 10
98.0
 20
27.00000000000001
 30
0.0
 11
98.0
 21
9.99999999999999
 31
0.0
  0
LINE
  5
1E8
330
4B
100
AcDbEntity
  8
1
  6
Continuous
 62
     2
100
AcDbLine
 10
166.0
 20
20.00000000000001
 30
0.0
 11
200.0
 21
20.00000000000001
 31
0.0
  0
LINE
  5
1E9
330
4B
100
AcDbEntity
  8
1
  6
Continuous
 62
     2
100
AcDbLine
 10
105.0
 20
287.0000000000003
 30
0.0
 11
105.0
 21
292.0000000000003
 31
0.0
  0
LINE
  5
1EA
330
4B
100
AcDbEntity
  8
1
  6
Continuous
 62
     7
100
AcDbLine
 10
105.0
 20
287.0000000000003
 30
0.0
 11
25.0
 21
287.0000000000003
 31
0.0
  0
LINE
  5
1EB
330
4B
100
AcDbEntity
  8
1
  6
Continuous
 62
     2
100
AcDbLine
 10
25.0
 20
148.5
 30
0.0
 11
20.0
 21
148.5
 31
0.0
  0
LINE
  5
1EC
330
4B
100
AcDbEntity
  8
1
  6
Continuous
 62
     7
100
AcDbLine
 10
25.0
 20
148.5
 30
0.0
 11
25.0
 21
287.0000000000003
 31
0.0
  0
LINE
  5
1ED
330
4B
100
AcDbEntity
  8
1
  6
Continuous
 62
     2
100
AcDbLine
 10
200.0
 20
148.5
 30
0.0
 11
205.0
 21
148.5
 31
0.0
  0
LINE
  5
1EE
330
4B
100
AcDbEntity
  8
1
  6
Continuous
 62
     7
100
AcDbLine
 10
200.0
 20
148.5
 30
0.0
 11
200.0
 21
287.0000000000003
 31
0.0
  0
LINE
  5
1EF
330
4B
100
AcDbEntity
  8
1
  6
Continuous
 62
     2
100
AcDbLine
 10
105.0
 20
10.0
 30
0.0
 11
105.0
 21
5.0
 31
0.0
  0
LINE
  5
1F0
330
4B
100
AcDbEntity
  8
1
  6
Continuous
 62
     7
100
AcDbLine
 10
105.0
 20
10.0
 30
0.0
 11
200.0
 21
10.0
 31
0.0
  0
CIRCLE
  5
1F1
330
4B
100
AcDbEntity
  8
1
  6
DOT_CENTER
 62
     7
100
AcDbCircle
 10
89.5
 20
18.0
 30
0.0
 40
0.1000000000000227
  0
CIRCLE
  5
1F2
330
4B
100
AcDbEntity
  8
1
  6
DOT_CENTER
 62
     7
100
AcDbCircle
 10
89.5
 20
16.0
 30
0.0
 40
0.1000000000000227
  0
CIRCLE
  5
1F3
330
4B
100
AcDbEntity
  8
1
  6
Continuous
 62
     7
100
AcDbCircle
 10
187.0
 20
23.50000000000001
 30
0.0
 40
2.0
  0
CIRCLE
  5
1F4
330
4B
100
AcDbEntity
  8
1
  6
Continuous
 62
     7
100
AcDbCircle
 10
187.0
 20
23.50000000000001
 30
0.0
 40
1.200000000000102
  0
CIRCLE
  5
1F5
330
4B
100
AcDbEntity
  8
1
  6
Continuous
 62
     7
100
AcDbCircle
 10
154.5
 20
12.5
 30
0.0
 40
0.3000000000000114
  0
CIRCLE
  5
1F6
330
4B
100
AcDbEntity
  8
1
  6
Continuous
 62
     7
100
AcDbCircle
 10
160.5
 20
12.5
 30
0.0
 40
0.3000000000000114
  0
CIRCLE
  5
1F7
330
4B
100
AcDbEntity
  8
1
  6
Continuous
 62
     7
100
AcDbCircle
 10
143.5
 20
12.5
 30
0.0
 40
0.3000000000000114
  0
CIRCLE
  5
1F8
330
4B
100
AcDbEntity
  8
1
  6
Continuous
 62
     7
100
AcDbCircle
 10
137.5
 20
12.5
 30
0.0
 40
0.3000000000000114
  0
CIRCLE
  5
1F9
330
4B
100
AcDbEntity
  8
1
  6
Continuous
 62
     7
100
AcDbCircle
 10
126.5
 20
12.5
 30
0.0
 40
0.2999999999999972
  0
CIRCLE
  5
1FA
330
4B
100
AcDbEntity
  8
1
  6
Continuous
 62
     7
100
AcDbCircle
 10
120.5
 20
12.5
 30
0.0
 40
0.2999999999999972
  0
CIRCLE
  5
1FB
330
4B
100
AcDbEntity
  8
1
  6
Continuous
 62
     7
100
AcDbCircle
 10
109.5
 20
12.5
 30
0.0
 40
0.2999999999999972
  0
CIRCLE
  5
1FC
330
4B
100
AcDbEntity
  8
1
  6
Continuous
 62
     7
100
AcDbCircle
 10
103.5
 20
12.5
 30
0.0
 40
0.2999999999999972
  0
MTEXT
  5
1FE
330
4B
100
AcDbEntity
  8
1
 62
   250
100
AcDbMText
 10
25.0
 20
5.0
 30
0.0
 40
3.5
 41
0.0
 71
     4
 72
     1
  1
備考欄の文字列 原点位置=4
  7
CONVERTER_11
 73
     1
 44
0.54545454545455
  0
MTEXT
  5
1FF
330
4B
100
AcDbEntity
  8
1
 62
     2
100
AcDbMText
 10
89.5
 20
24.00000000000001
 30
0.0
 40
3.5
 41
0.0
 71
     5
 72
     1
  1
尺度
  7
CONVERTER_11
 73
     1
 44
0.54545454545455
  0
MTEXT
  5
200
330
4B
100
AcDbEntity
  8
1
 62
     2
100
AcDbMText
 10
135.5
 20
25.00000000000001
 30
0.0
 40
3.0
 41
0.0
 71
     5
 72
     1
  1
製図
  7
CONVERTER_11
 73
     1
 44
0.59090909090909
  0
MTEXT
  5
201
330
4B
100
AcDbEntity
  8
1
 62
     2
100
AcDbMText
 10
152.5
 20
25.00000000000001
 30
0.0
 40
3.0
 41
0.0
 71
     5
 72
     1
  1
担当
  7
CONVERTER_11
 73
     1
 44
0.59090909090909
  0
MTEXT
  5
202
330
4B
100
AcDbEntity
  8
1
 62
     2
100
AcDbMText
 10
118.5
 20
25.00000000000001
 30
0.0
 40
3.0
 41
0.0
 71
     5
 72
     1
  1
検図
  7
CONVERTER_11
 73
     1
 44
0.59090909090909
  0
MTEXT
  5
203
330
4B
100
AcDbEntity
  8
1
 62
     2
100
AcDbMText
 10
175.0
 20
23.50000000000001
 30
0.0
 40
3.5
 41
0.0
 71
     5
 72
     1
  1
第三角法
  7
CONVERTER_11
 73
     1
 44
0.54545454545455
  0
MTEXT
  5
204
330
4B
100
AcDbEntity
  8
1
 62
     2
100
AcDbMText
 10
101.5
 20
25.00000000000001
 30
0.0
 40
3.0
 41
0.0
 71
     5
 72
     1
  1
承認
  7
CONVERTER_11
 73
     1
 44
0.59090909090909
  0
MTEXT
  5
205
330
4B
100
AcDbEntity
  8
1
 62
     2
100
AcDbMText
 10
29.0
 20
14.25
 30
0.0
 40
3.5
 41
0.0
 71
     5
 72
     1
  1
品番
  7
CONVERTER_11
 73
     1
 44
0.72727272727273
  0
MTEXT
  5
206
330
4B
100
AcDbEntity
  8
1
 62
     2
100
AcDbMText
 10
29.0
 20
22.75
 30
0.0
 40
3.5
 41
0.0
 71
     5
 72
     1
  1
品名
  7
CONVERTER_11
 73
     1
 44
0.72727272727273
  0
MTEXT
  5
207
330
4B
100
AcDbEntity
  8
1
 62
     2
100
AcDbMText
 10
29.0
 20
34.00000000000001
 30
0.0
 40
3.5
 41
0.0
 71
     5
 72
     1
  1
備考
  7
CONVERTER_11
 73
     1
 44
0.45454545454545
  0
MTEXT
  5
208
330
4B
100
AcDbEntity
  8
1
 62
     2
100
AcDbMText
 10
32.5
 20
282.0000000000003
 30
0.0
 40
5.0
 41
0.0
 71
     5
 72
     1
  1
図番
  7
CONVERTER_11
 73
     1
 44
0.45454545454545
  0
MTEXT
  5
209
330
4B
100
AcDbEntity
  8
1
 62
     7
100
AcDbMText
 10
171.5
 20
15.0
 30
0.0
 40
2.5
 41
0.0
 71
     5
 72
     1
  1
株式会社
  7
CONVERTER_11
 73
     1
 44
1.0
  0
MTEXT
  5
20A
330
4B
100
AcDbEntity
  8
1
 62
     7
100
AcDbMText
 10
188.5
 20
15.0
 30
0.0
 40
3.0
 41
0.0
 71
     5
 72
     1
  1
三栄水栓製作所
  7
CONVERTER_11
 73
     1
 44
1.0
  0
ENDBLK
  5
4D
330
4B
100
AcDbEntity
  8
0
100
AcDbBlockEnd
  0
BLOCK
  5
4F
330
4E
100
AcDbEntity
  8
0
100
AcDbBlockBegin
  2
CLUMP1
 70
     0
 10
435.4625347393651
 20
480.63401781068
 30
0.0
  3
CLUMP1
  1

  0
LINE
  5
20B
330
4E
100
AcDbEntity
  8
ﾚｲﾔ_1
  6
Continuous
 62
     7
100
AcDbLine
 10
433.3433306701879
 20
777.4867313285799
 30
0.0
 11
436.3433306701652
 21
777.48673132758
 31
0.0
  0
LINE
  5
20C
330
4E
100
AcDbEntity
  8
ﾚｲﾔ_1
  6
Continuous
 62
     7
100
AcDbLine
 10
430.843330673865
 20
787.98673136358
 30
0.0
 11
431.343330673865
 21
787.9867313633799
 31
0.0
  0
LINE
  5
20D
330
4E
100
AcDbEntity
  8
ﾚｲﾔ_1
  6
Continuous
 62
     7
100
AcDbLine
 10
438.3433306490651
 20
717.9867313615799
 30
0.0
 11
438.3433306736652
 21
787.23673158798
 31
0.0
  0
LINE
  5
20E
330
4E
100
AcDbEntity
  8
ﾚｲﾔ_1
  6
Continuous
 62
     7
100
AcDbLine
 10
436.8433306736652
 20
787.2367316561799
 30
0.0
 11
436.8433306490651
 21
717.98673136198
 31
0.0
  0
LINE
  5
20F
330
4E
100
AcDbEntity
  8
ﾚｲﾔ_1
  6
Continuous
 62
     7
100
AcDbLine
 10
436.5433306724651
 20
783.98673130098
 30
0.0
 11
436.5433306490652
 21
717.9867313620799
 31
0.0
  0
LINE
  5
210
330
4E
100
AcDbEntity
  8
ﾚｲﾔ_1
  6
Continuous
 62
     7
100
AcDbLine
 10
433.143330672465
 20
783.98673122728
 30
0.0
 11
433.1433306490651
 21
717.98673136298
 31
0.0
  0
LINE
  5
211
330
4E
100
AcDbEntity
  8
ﾚｲﾔ_1
  6
Continuous
 62
     7
100
AcDbLine
 10
432.8433306736652
 20
787.23673154618
 30
0.0
 11
432.8433306490651
 21
717.98673136298
 31
0.0
  0
LINE
  5
212
330
4E
100
AcDbEntity
  8
ﾚｲﾔ_1
  6
Continuous
 62
     7
100
AcDbLine
 10
431.3433306736652
 20
787.2367316689799
 30
0.0
 11
431.3433306490651
 21
717.9867313633799
 31
0.0
  0
LINE
  5
213
330
4E
100
AcDbEntity
  8
ﾚｲﾔ_1
  6
Continuous
 62
     7
100
AcDbLine
 10
430.8433306490651
 20
717.98673136348
 30
0.0
 11
430.843330673865
 21
787.98673136358
 31
0.0
  0
LINE
  5
214
330
4E
100
AcDbEntity
  8
ﾚｲﾔ_1
  6
Continuous
 62
     7
100
AcDbLine
 10
431.343330673865
 20
787.9867313633799
 30
0.0
 11
431.3433306490651
 21
717.9867313633799
 31
0.0
  0
ARC
  5
215
330
4E
100
AcDbEntity
  8
ﾚｲﾔ_1
  6
Continuous
 62
     7
100
AcDbCircle
 10
436.3433306703651
 20
777.98673132758
 30
0.0
 40
0.5
100
AcDbArc
 50
269.999999977091
 51
293.5781784579261
  0
ARC
  5
216
330
4E
100
AcDbEntity
  8
ﾚｲﾔ_1
  6
Continuous
 62
     7
100
AcDbCircle
 10
437.0433306724651
 20
783.9867313272799
 30
0.0
 40
0.4999999999996708
100
AcDbArc
 50
113.5781784579261
 51
179.9999966596575
  0
ARC
  5
217
330
4E
100
AcDbEntity
  8
ﾚｲﾔ_1
  6
Continuous
 62
     7
100
AcDbCircle
 10
437.5933306736652
 20
787.23673132708
 30
0.0
 40
0.7500000000000454
100
AcDbArc
 50
0.0000199312947
 51
179.9999748586138
  0
ARC
  5
218
330
4E
100
AcDbEntity
  8
ﾚｲﾔ_1
  6
Continuous
 62
     7
100
AcDbCircle
 10
433.3433306703651
 20
777.9867313285799
 30
0.0
 40
0.5000000000002397
100
AcDbArc
 50
246.4218215015065
 51
269.9999999796966
  0
ARC
  5
219
330
4E
100
AcDbEntity
  8
ﾚｲﾔ_1
  6
Continuous
 62
     7
100
AcDbCircle
 10
432.643330672465
 20
783.98673132888
 30
0.0
 40
0.5000000000000213
100
AcDbArc
 50
0.00001673609217
 51
66.42182150150656
  0
ARC
  5
21A
330
4E
100
AcDbEntity
  8
ﾚｲﾔ_1
  6
Continuous
 62
     7
100
AcDbCircle
 10
432.0933306736652
 20
787.2367313290799
 30
0.0
 40
0.7500000000000314
100
AcDbArc
 50
0.00001658522009
 51
179.9999740335529
  0
ENDBLK
  5
50
330
4E
100
AcDbEntity
  8
0
100
AcDbBlockEnd
  0
BLOCK
  5
52
330
51
100
AcDbEntity
  8
0
100
AcDbBlockBegin
  2
CLUMP4
 70
     0
 10
128.4625347393652
 20
374.63401781068
 30
0.0
  3
CLUMP4
  1

  0
LINE
  5
21B
330
51
100
AcDbEntity
  8
ﾚｲﾔ_1
  6
Continuous
 62
     7
100
AcDbLine
 10
484.3507183331651
 20
458.3931323939799
 30
0.0
 11
484.3507183331651
 21
485.3931323939799
 31
0.0
  0
LINE
  5
21C
330
51
100
AcDbEntity
  8
ﾚｲﾔ_1
  6
Continuous
 62
     7
100
AcDbLine
 10
460.3983139207242
 20
521.6767288620899
 30
0.0
 11
460.051272249144
 21
524.354332656191
 31
0.0
  0
LINE
  5
21D
330
51
100
AcDbEntity
  8
ﾚｲﾔ_1
  6
Continuous
 62
     7
100
AcDbLine
 10
473.3031227454062
 20
521.6767288620899
 30
0.0
 11
473.6501644169862
 21
524.354332656191
 31
0.0
  0
LINE
  5
21E
330
51
100
AcDbEntity
  8
ﾚｲﾔ_1
  6
Continuous
 62
     7
100
AcDbLine
 10
461.8507183331651
 20
501.8931323939799
 30
0.0
 11
461.8507183331651
 21
518.5258462330798
 31
0.0
  0
LINE
  5
21F
330
51
100
AcDbEntity
  8
ﾚｲﾔ_1
  6
Continuous
 62
     7
100
AcDbLine
 10
516.6343148011752
 20
478.3455368063209
 30
0.0
 11
519.311918595276
 21
478.6925784779009
 31
0.0
  0
LINE
  5
220
330
51
100
AcDbEntity
  8
ﾚｲﾔ_1
  6
Continuous
 62
     7
100
AcDbLine
 10
513.3444202063531
 20
490.8239455333509
 30
0.0
 11
515.8450774784651
 21
491.8421366782799
 31
0.0
  0
LINE
  5
221
330
51
100
AcDbEntity
  8
ﾚｲﾔ_1
  6
Continuous
 62
     7
100
AcDbLine
 10
509.1737370879032
 20
494.5243516161059
 30
0.0
 11
510.948438603567
 21
495.2469557842629
 31
0.0
  0
LINE
  5
222
330
51
100
AcDbEntity
  8
ﾚｲﾔ_1
  6
Continuous
 62
     7
100
AcDbLine
 10
516.6343148011752
 20
465.4407279816388
 30
0.0
 11
519.311918595276
 21
465.0936863100586
 31
0.0
  0
LINE
  5
223
330
51
100
AcDbEntity
  8
ﾚｲﾔ_1
  6
Continuous
 62
     7
100
AcDbLine
 10
460.3983139207242
 20
422.1095359258702
 30
0.0
 11
460.051272249144
 21
419.4319321317685
 31
0.0
  0
LINE
  5
224
330
51
100
AcDbEntity
  8
ﾚｲﾔ_1
  6
Continuous
 62
     7
100
AcDbLine
 10
473.3031227454062
 20
422.1095359258702
 30
0.0
 11
473.6501644169862
 21
419.4319321317685
 31
0.0
  0
LINE
  5
225
330
51
100
AcDbEntity
  8
ﾚｲﾔ_1
  6
Continuous
 62
     7
100
AcDbLine
 10
485.7815314724362
 20
425.3994305206915
 30
0.0
 11
486.7997226173652
 21
422.8987732486799
 31
0.0
  0
LINE
  5
226
330
51
100
AcDbEntity
  8
ﾚｲﾔ_1
  6
Continuous
 62
     7
100
AcDbLine
 10
477.944515595065
 20
518.5872183397798
 30
0.0
 11
478.1908089945091
 21
520.4874977441949
 31
0.0
  0
LINE
  5
227
330
51
100
AcDbEntity
  8
ﾚｲﾔ_1
  6
Continuous
 62
     7
100
AcDbLine
 10
496.8507183331651
 20
476.8931323939799
 30
0.0
 11
513.4834321722651
 21
476.8931323939799
 31
0.0
  0
LINE
  5
228
330
51
100
AcDbEntity
  8
ﾚｲﾔ_1
  6
Continuous
 62
     7
100
AcDbLine
 10
466.8507183331651
 20
496.8931323939799
 30
0.0
 11
510.036479875565
 21
496.8931323939799
 31
0.0
  0
LINE
  5
229
330
51
100
AcDbEntity
  8
ﾚｲﾔ_1
  6
Continuous
 62
     7
100
AcDbLine
 10
444.219499111065
 20
514.2161511488798
 30
0.0
 11
443.4968949427821
 21
515.990852664482
 31
0.0
  0
LINE
  5
22A
330
51
100
AcDbEntity
  8
ﾚｲﾔ_1
  6
Continuous
 62
     7
100
AcDbLine
 10
471.8507183330651
 20
441.8931323939799
 30
0.0
 11
471.8507183330651
 21
425.2604185548799
 31
0.0
  0
LINE
  5
22B
330
51
100
AcDbEntity
  8
ﾚｲﾔ_1
  6
Continuous
 62
     7
100
AcDbLine
 10
489.4819375551651
 20
429.5701136391799
 30
0.0
 11
490.2045417234651
 21
427.7954121235799
 31
0.0
  0
LINE
  5
22C
330
51
100
AcDbEntity
  8
ﾚｲﾔ_1
  6
Continuous
 62
     7
100
AcDbLine
 10
491.8507183331651
 20
471.8931323939799
 30
0.0
 11
491.8507183330651
 21
428.7073708515799
 31
0.0
  0
LINE
  5
22D
330
51
100
AcDbEntity
  8
ﾚｲﾔ_1
  6
Continuous
 62
     7
100
AcDbLine
 10
447.9199051936942
 20
518.3868342672678
 30
0.0
 11
446.901714048865
 21
520.8874915393799
 31
0.0
  0
LINE
  5
22E
330
51
100
AcDbEntity
  8
ﾚｲﾔ_1
  6
Continuous
 62
     7
100
AcDbLine
 10
417.067121864955
 20
465.4407279816388
 30
0.0
 11
414.3895180708541
 21
465.0936863100585
 31
0.0
  0
LINE
  5
22F
330
51
100
AcDbEntity
  8
ﾚｲﾔ_1
  6
Continuous
 62
     7
100
AcDbLine
 10
424.5276995782651
 20
449.2619131719799
 30
0.0
 11
422.7529980625632
 21
448.5393090036968
 31
0.0
  0
LINE
  5
230
330
51
100
AcDbEntity
  8
ﾚｲﾔ_1
  6
Continuous
 62
     7
100
AcDbLine
 10
436.8507183331651
 20
466.8931323939799
 30
0.0
 11
420.2180044939651
 21
466.8931323939799
 31
0.0
  0
LINE
  5
231
330
51
100
AcDbEntity
  8
ﾚｲﾔ_1
  6
Continuous
 62
     7
100
AcDbLine
 10
481.3507183331651
 20
475.8931323939799
 30
0.0
 11
484.3507183331651
 21
475.8931323939799
 31
0.0
  0
LINE
  5
232
330
51
100
AcDbEntity
  8
ﾚｲﾔ_1
  6
Continuous
 62
     7
100
AcDbLine
 10
481.3507183331651
 20
467.8931323939799
 30
0.0
 11
484.3507183331651
 21
467.8931323939799
 31
0.0
  0
LINE
  5
233
330
51
100
AcDbEntity
  8
ﾚｲﾔ_1
  6
Continuous
 62
     7
100
AcDbLine
 10
481.3507183331651
 20
458.3931323939799
 30
0.0
 11
481.3507183331651
 21
485.3931323939799
 31
0.0
  0
LINE
  5
234
330
51
100
AcDbEntity
  8
ﾚｲﾔ_1
  6
Continuous
 62
     7
100
AcDbLine
 10
453.3507183331651
 20
457.3931323939799
 30
0.0
 11
480.3507183330651
 21
457.3931323939799
 31
0.0
  0
LINE
  5
235
330
51
100
AcDbEntity
  8
ﾚｲﾔ_1
  6
Continuous
 62
     7
100
AcDbLine
 10
480.3507183331651
 20
486.3931323939799
 30
0.0
 11
453.3507183331651
 21
486.3931323939799
 31
0.0
  0
LINE
  5
236
330
51
100
AcDbEntity
  8
ﾚｲﾔ_1
  6
Continuous
 62
     7
100
AcDbLine
 10
453.3507183331651
 20
454.3931323939799
 30
0.0
 11
480.3507183330651
 21
454.3931323939799
 31
0.0
  0
LINE
  5
237
330
51
100
AcDbEntity
  8
ﾚｲﾔ_1
  6
Continuous
 62
     7
100
AcDbLine
 10
480.3507183331651
 20
489.3931323939799
 30
0.0
 11
453.3507183331651
 21
489.3931323939799
 31
0.0
  0
LINE
  5
238
330
51
100
AcDbEntity
  8
ﾚｲﾔ_1
  6
Continuous
 62
     7
100
AcDbLine
 10
423.6649567906652
 20
446.8931323939799
 30
0.0
 11
466.8507183330651
 21
446.8931323939799
 31
0.0
  0
LINE
  5
239
330
51
100
AcDbEntity
  8
ﾚｲﾔ_1
  6
Continuous
 62
     7
100
AcDbLine
 10
455.7569210711652
 20
425.1990464482798
 30
0.0
 11
455.5106276716651
 21
423.2987670437798
 31
0.0
  0
LINE
  5
23A
330
51
100
AcDbEntity
  8
ﾚｲﾔ_1
  6
Continuous
 62
     7
100
AcDbLine
 10
513.5448042788651
 20
460.7993351320799
 30
0.0
 11
515.445083683365
 21
460.55304173258
 31
0.0
  0
LINE
  5
23B
330
51
100
AcDbEntity
  8
ﾚｲﾔ_1
  6
Continuous
 62
     7
100
AcDbLine
 10
420.357016459765
 20
452.9623192546799
 30
0.0
 11
417.8563591877651
 21
451.9441281097799
 31
0.0
  0
LINE
  5
23C
330
51
100
AcDbEntity
  8
ﾚｲﾔ_1
  6
Continuous
 62
     7
100
AcDbLine
 10
417.067121864955
 20
478.3455368063209
 30
0.0
 11
414.3895180708651
 21
478.6925784779799
 31
0.0
  0
LINE
  5
23D
330
51
100
AcDbEntity
  8
ﾚｲﾔ_1
  6
Continuous
 62
     7
100
AcDbLine
 10
441.8507183331651
 20
471.8931323939799
 30
0.0
 11
441.8507183331651
 21
515.07889393648
 31
0.0
  0
LINE
  5
23E
330
51
100
AcDbEntity
  8
ﾚｲﾔ_1
  6
Continuous
 62
     7
100
AcDbLine
 10
420.1566323873651
 20
482.98692965598
 30
0.0
 11
418.2563529828651
 21
483.2332230554799
 31
0.0
  0
LINE
  5
23F
330
51
100
AcDbEntity
  8
ﾚｲﾔ_1
  6
Continuous
 62
     7
100
AcDbLine
 10
449.3507183331651
 20
467.8931323939799
 30
0.0
 11
452.3507183331651
 21
467.8931323939799
 31
0.0
  0
LINE
  5
240
330
51
100
AcDbEntity
  8
ﾚｲﾔ_1
  6
Continuous
 62
     7
100
AcDbLine
 10
449.3507183331651
 20
475.8931323939799
 30
0.0
 11
452.3507183331651
 21
475.8931323939799
 31
0.0
  0
LINE
  5
241
330
51
100
AcDbEntity
  8
ﾚｲﾔ_1
  6
Continuous
 62
     7
100
AcDbLine
 10
452.3507183331651
 20
485.3931323939799
 30
0.0
 11
452.3507183331651
 21
458.3931323939799
 31
0.0
  0
LINE
  5
242
330
51
100
AcDbEntity
  8
ﾚｲﾔ_1
  6
Continuous
 62
     7
100
AcDbLine
 10
449.3507183331651
 20
485.3931323939799
 30
0.0
 11
449.3507183331651
 21
458.3931323939799
 31
0.0
  0
ARC
  5
243
330
51
100
AcDbEntity
  8
ﾚｲﾔ_1
  6
Continuous
 62
     7
100
AcDbCircle
 10
480.3507183331651
 20
485.3931323939799
 30
0.0
 40
4.0
100
AcDbArc
 50
0.0
 51
90.0
  0
ARC
  5
244
330
51
100
AcDbEntity
  8
ﾚｲﾔ_1
  6
Continuous
 62
     7
100
AcDbCircle
 10
466.8507183330651
 20
471.8931323939799
 30
0.0
 40
50.20000000000017
100
AcDbArc
 50
82.61511675330021
 51
97.38488324669962
  0
ARC
  5
245
330
51
100
AcDbEntity
  8
ﾚｲﾔ_1
  6
Continuous
 62
     7
100
AcDbCircle
 10
466.8507183330651
 20
471.8931323939799
 30
0.0
 40
50.20000000000016
100
AcDbArc
 50
7.38488324669973
 51
22.15464974020031
  0
ARC
  5
246
330
51
100
AcDbEntity
  8
ﾚｲﾔ_1
  6
Continuous
 62
     7
100
AcDbCircle
 10
466.8507183330651
 20
471.8931323939799
 30
0.0
 40
50.20000000000017
100
AcDbArc
 50
352.6151167533002
 51
7.38488324669973
  0
ARC
  5
247
330
51
100
AcDbEntity
  8
ﾚｲﾔ_1
  6
Continuous
 62
     7
100
AcDbCircle
 10
466.8507183330651
 20
471.8931323939799
 30
0.0
 40
50.1999999999998
100
AcDbArc
 50
262.6151167533004
 51
277.3848832466998
  0
ARC
  5
248
330
51
100
AcDbEntity
  8
ﾚｲﾔ_1
  6
Continuous
 62
     7
100
AcDbCircle
 10
496.8507183331651
 20
471.8931323939799
 30
0.0
 40
5.0
100
AcDbArc
 50
90.0
 51
180.0
  0
ARC
  5
249
330
51
100
AcDbEntity
  8
ﾚｲﾔ_1
  6
Continuous
 62
     7
100
AcDbCircle
 10
466.8507183331651
 20
501.8931323939799
 30
0.0
 40
5.0
100
AcDbArc
 50
180.0
 51
270.0
  0
ARC
  5
24A
330
51
100
AcDbEntity
  8
ﾚｲﾔ_1
  6
Continuous
 62
     7
100
AcDbCircle
 10
476.9528104861652
 20
518.71575229218
 30
0.0
 40
1.000000000010517
100
AcDbArc
 50
257.8249220831887
 51
352.6151167552001
  0
ARC
  5
24B
330
51
100
AcDbEntity
  8
ﾚｲﾔ_1
  6
Continuous
 62
     7
100
AcDbCircle
 10
466.8507183330651
 20
471.8931323939799
 30
0.0
 40
52.89999999999945
100
AcDbArc
 50
7.3848832466997
 51
82.61511675330028
  0
ARC
  5
24C
330
51
100
AcDbEntity
  8
ﾚｲﾔ_1
  6
Continuous
 62
     7
100
AcDbCircle
 10
466.8507183330651
 20
471.8931323939799
 30
0.0
 40
49.89999999999964
100
AcDbArc
 50
27.90536029920009
 51
76.86440619420036
  0
ARC
  5
24D
330
51
100
AcDbEntity
  8
ﾚｲﾔ_1
  6
Continuous
 62
     7
100
AcDbCircle
 10
466.8507183330651
 20
471.8931323939799
 30
0.0
 40
46.90000000008706
100
AcDbArc
 50
347.8249220902961
 51
26.94484440324081
  0
ARC
  5
24E
330
51
100
AcDbEntity
  8
ﾚｲﾔ_1
  6
Continuous
 62
     7
100
AcDbCircle
 10
445.1456684710652
 20
514.5932589802799
 30
0.0
 40
0.9999999999532568
100
AcDbArc
 50
202.1546497374848
 51
296.9448444000301
  0
ARC
  5
24F
330
51
100
AcDbEntity
  8
ﾚｲﾔ_1
  6
Continuous
 62
     7
100
AcDbCircle
 10
453.3507183331651
 20
458.3931323939799
 30
0.0
 40
1.0
100
AcDbArc
 50
180.0
 51
270.0
  0
ARC
  5
250
330
51
100
AcDbEntity
  8
ﾚｲﾔ_1
  6
Continuous
 62
     7
100
AcDbCircle
 10
466.8507183330651
 20
471.8931323939799
 30
0.0
 40
52.89999999999997
100
AcDbArc
 50
277.3848832466997
 51
352.6151167533
  0
ARC
  5
251
330
51
100
AcDbEntity
  8
ﾚｲﾔ_1
  6
Continuous
 62
     7
100
AcDbCircle
 10
466.8507183330651
 20
471.8931323939799
 30
0.0
 40
49.89999999999981
100
AcDbArc
 50
297.9053602991997
 51
346.8644061942719
  0
ARC
  5
252
330
51
100
AcDbEntity
  8
ﾚｲﾔ_1
  6
Continuous
 62
     7
100
AcDbCircle
 10
488.555768195165
 20
429.1930058076799
 30
0.0
 40
0.9999999999907835
100
AcDbArc
 50
22.15464974279132
 51
116.944844405137
  0
ARC
  5
253
330
51
100
AcDbEntity
  8
ﾚｲﾔ_1
  6
Continuous
 62
     7
100
AcDbCircle
 10
424.1505917468651
 20
450.1880825319799
 30
0.0
 40
0.9999999999529936
100
AcDbArc
 50
292.1546497374908
 51
26.94484440262169
  0
ARC
  5
254
330
51
100
AcDbEntity
  8
ﾚｲﾔ_1
  6
Continuous
 62
     7
100
AcDbCircle
 10
466.8507183330651
 20
471.8931323939799
 30
0.0
 40
50.20000000000022
100
AcDbArc
 50
187.3848832466998
 51
202.15464974012
  0
ARC
  5
255
330
51
100
AcDbEntity
  8
ﾚｲﾔ_1
  6
Continuous
 62
     7
100
AcDbCircle
 10
466.8507183330651
 20
471.8931323939799
 30
0.0
 40
49.89999999999979
100
AcDbArc
 50
117.9053602992
 51
166.8644061941338
  0
ARC
  5
256
330
51
100
AcDbEntity
  8
ﾚｲﾔ_1
  6
Continuous
 62
     7
100
AcDbCircle
 10
509.5508449193651
 20
493.59818225608
 30
0.0
 40
1.000000000000323
100
AcDbArc
 50
112.1546497402127
 51
206.9448444032103
  0
ARC
  5
257
330
51
100
AcDbEntity
  8
ﾚｲﾔ_1
  6
Continuous
 62
     7
100
AcDbCircle
 10
513.673338231365
 20
461.7910402409801
 30
0.0
 40
1.000000000000336
100
AcDbArc
 50
167.8249220902163
 51
262.6151167495318
  0
ARC
  5
258
330
51
100
AcDbEntity
  8
ﾚｲﾔ_1
  6
Continuous
 62
     7
100
AcDbCircle
 10
466.8507183330651
 20
441.8931323939799
 30
0.0
 40
5.0
100
AcDbArc
 50
0.0
 51
90.0
  0
ARC
  5
259
330
51
100
AcDbEntity
  8
ﾚｲﾔ_1
  6
Continuous
 62
     7
100
AcDbCircle
 10
480.3507183331651
 20
458.3931323939799
 30
0.0
 40
1.0
100
AcDbArc
 50
269.9999999942711
 51
0.0
  0
ARC
  5
25A
330
51
100
AcDbEntity
  8
ﾚｲﾔ_1
  6
Continuous
 62
     7
100
AcDbCircle
 10
480.3507183331651
 20
485.3931323939799
 30
0.0
 40
1.0
100
AcDbArc
 50
0.0
 51
90.0
  0
ARC
  5
25B
330
51
100
AcDbEntity
  8
ﾚｲﾔ_1
  6
Continuous
 62
     7
100
AcDbCircle
 10
480.3507183331651
 20
458.3931323939799
 30
0.0
 40
4.0
100
AcDbArc
 50
269.9999999985678
 51
0.0
  0
ARC
  5
25C
330
51
100
AcDbEntity
  8
ﾚｲﾔ_1
  6
Continuous
 62
     7
100
AcDbCircle
 10
466.8507183330651
 20
471.8931323939799
 30
0.0
 40
52.89999999999969
100
AcDbArc
 50
97.38488324669979
 51
172.6151167532139
  0
ARC
  5
25D
330
51
100
AcDbEntity
  8
ﾚｲﾔ_1
  6
Continuous
 62
     7
100
AcDbCircle
 10
466.8507183330651
 20
471.8931323939799
 30
0.0
 40
46.90000000000047
100
AcDbArc
 50
77.8249220903004
 51
116.9448444031995
  0
ARC
  5
25E
330
51
100
AcDbEntity
  8
ﾚｲﾔ_1
  6
Continuous
 62
     7
100
AcDbCircle
 10
466.8507183330651
 20
471.8931323939799
 30
0.0
 40
52.89999999999967
100
AcDbArc
 50
187.3848832467001
 51
262.6151167533002
  0
ARC
  5
25F
330
51
100
AcDbEntity
  8
ﾚｲﾔ_1
  6
Continuous
 62
     7
100
AcDbCircle
 10
466.8507183330651
 20
471.8931323939799
 30
0.0
 40
46.89999999998967
100
AcDbArc
 50
257.8249220902683
 51
296.9448444031995
  0
ARC
  5
260
330
51
100
AcDbEntity
  8
ﾚｲﾔ_1
  6
Continuous
 62
     7
100
AcDbCircle
 10
466.8507183330651
 20
471.8931323939799
 30
0.0
 40
49.89999999999967
100
AcDbArc
 50
207.9053602992001
 51
256.8644061942456
  0
ARC
  5
261
330
51
100
AcDbEntity
  8
ﾚｲﾔ_1
  6
Continuous
 62
     7
100
AcDbCircle
 10
456.748626180065
 20
425.0705124957798
 30
0.0
 40
1.000000000000227
100
AcDbArc
 50
77.82492209029154
 51
172.6151167495285
  0
ARC
  5
262
330
51
100
AcDbEntity
  8
ﾚｲﾔ_1
  6
Continuous
 62
     7
100
AcDbCircle
 10
466.8507183330651
 20
471.8931323939799
 30
0.0
 40
50.19999999999983
100
AcDbArc
 50
277.3848832466998
 51
292.1546497402002
  0
ARC
  5
263
330
51
100
AcDbEntity
  8
ﾚｲﾔ_1
  6
Continuous
 62
     7
100
AcDbCircle
 10
466.8507183330651
 20
471.8931323939799
 30
0.0
 40
50.20000000000022
100
AcDbArc
 50
172.6151167533003
 51
187.3848832466998
  0
ARC
  5
264
330
51
100
AcDbEntity
  8
ﾚｲﾔ_1
  6
Continuous
 62
     7
100
AcDbCircle
 10
436.8507183331651
 20
471.8931323939799
 30
0.0
 40
5.0
100
AcDbArc
 50
270.0
 51
0.0
  0
ARC
  5
265
330
51
100
AcDbEntity
  8
ﾚｲﾔ_1
  6
Continuous
 62
     7
100
AcDbCircle
 10
420.0280984348651
 20
481.9952245469798
 30
0.0
 40
0.9999999999890561
100
AcDbArc
 50
347.8249220888107
 51
82.61511675026817
  0
ARC
  5
266
330
51
100
AcDbEntity
  8
ﾚｲﾔ_1
  6
Continuous
 62
     7
100
AcDbCircle
 10
453.3507183331651
 20
485.3931323939799
 30
0.0
 40
1.0
100
AcDbArc
 50
90.0
 51
180.0
  0
ARC
  5
267
330
51
100
AcDbEntity
  8
ﾚｲﾔ_1
  6
Continuous
 62
     7
100
AcDbCircle
 10
453.3507183331651
 20
458.3931323939799
 30
0.0
 40
4.0
100
AcDbArc
 50
180.0
 51
270.0
  0
ARC
  5
268
330
51
100
AcDbEntity
  8
ﾚｲﾔ_1
  6
Continuous
 62
     7
100
AcDbCircle
 10
453.3507183331651
 20
485.3931323939799
 30
0.0
 40
4.0
100
AcDbArc
 50
90.0
 51
180.0
  0
ARC
  5
269
330
51
100
AcDbEntity
  8
ﾚｲﾔ_1
  6
Continuous
 62
     7
100
AcDbCircle
 10
466.8507183330651
 20
471.8931323939799
 30
0.0
 40
46.90000000000069
100
AcDbArc
 50
167.8249220903002
 51
206.9448444031997
  0
ARC
  5
26A
330
51
100
AcDbEntity
  8
ﾚｲﾔ_1
  6
Continuous
 62
     7
100
AcDbCircle
 10
466.8507183330651
 20
471.8931323939799
 30
0.0
 40
50.20000000000014
100
AcDbArc
 50
97.38488324669962
 51
112.1546497402003
  0
ENDBLK
  5
53
330
51
100
AcDbEntity
  8
0
100
AcDbBlockEnd
  0
BLOCK
  5
55
330
54
100
AcDbEntity
  8
0
100
AcDbBlockBegin
  2
CLUMP7
 70
     0
 10
435.4625347393651
 20
480.63401781068
 30
0.0
  3
CLUMP7
  1

  0
LINE
  5
26B
330
54
100
AcDbEntity
  8
ﾚｲﾔ_1
  6
Continuous
 62
     7
100
AcDbLine
 10
289.9198915101651
 20
737.18673135238
 30
0.0
 11
289.9198915101651
 21
697.7859707911799
 31
0.0
  0
LINE
  5
26C
330
54
100
AcDbEntity
  8
ﾚｲﾔ_1
  6
Continuous
 62
     7
100
AcDbLine
 10
282.4198915101651
 20
697.7859707911799
 30
0.0
 11
282.4198915101651
 21
737.18673135238
 31
0.0
  0
LINE
  5
26D
330
54
100
AcDbEntity
  8
ﾚｲﾔ_1
  6
Continuous
 62
     7
100
AcDbLine
 10
291.6698915101651
 20
697.7859707911799
 30
0.0
 11
280.6698915101651
 21
697.7859707911799
 31
0.0
  0
LINE
  5
26E
330
54
100
AcDbEntity
  8
ﾚｲﾔ_1
  6
Continuous
 62
     7
100
AcDbLine
 10
289.9198915101651
 20
737.18673135238
 30
0.0
 11
282.4198915101651
 21
737.18673135238
 31
0.0
  0
LINE
  5
26F
330
54
100
AcDbEntity
  8
ﾚｲﾔ_1
  6
Continuous
 62
     7
100
AcDbLine
 10
281.6698915101651
 20
690.2859707911799
 30
0.0
 11
290.6698915101651
 21
690.2859707911799
 31
0.0
  0
LINE
  5
270
330
54
100
AcDbEntity
  8
ﾚｲﾔ_1
  6
Continuous
 62
     7
100
AcDbLine
 10
282.4198915101651
 20
690.2859707911799
 30
0.0
 11
282.4198915101651
 21
675.2859707911799
 31
0.0
  0
LINE
  5
271
330
54
100
AcDbEntity
  8
ﾚｲﾔ_1
  6
Continuous
 62
     7
100
AcDbLine
 10
289.9198915101651
 20
690.2859707911799
 30
0.0
 11
289.9198915101651
 21
675.2859707911799
 31
0.0
  0
LINE
  5
272
330
54
100
AcDbEntity
  8
ﾚｲﾔ_1
  6
Continuous
 62
     7
100
AcDbLine
 10
291.6698915101651
 20
691.2859707911799
 30
0.0
 11
291.6698915101651
 21
697.7859707911799
 31
0.0
  0
LINE
  5
273
330
54
100
AcDbEntity
  8
ﾚｲﾔ_1
  6
Continuous
 62
     7
100
AcDbLine
 10
280.6698915101651
 20
697.7859707911799
 30
0.0
 11
280.6698915101651
 21
691.2859707911799
 31
0.0
  0
ARC
  5
274
330
54
100
AcDbEntity
  8
ﾚｲﾔ_1
  6
Continuous
 62
     7
100
AcDbCircle
 10
290.6698915101651
 20
691.2859707911799
 30
0.0
 40
1.0
100
AcDbArc
 50
270.0
 51
0.0
  0
ARC
  5
275
330
54
100
AcDbEntity
  8
ﾚｲﾔ_1
  6
Continuous
 62
     7
100
AcDbCircle
 10
281.6698915101651
 20
691.2859707911799
 30
0.0
 40
1.0
100
AcDbArc
 50
180.0
 51
270.0
  0
ARC
  5
276
330
54
100
AcDbEntity
  8
ﾚｲﾔ_1
  6
Continuous
 62
     7
100
AcDbCircle
 10
286.1698915101651
 20
675.2859707911799
 30
0.0
 40
3.75
100
AcDbArc
 50
180.0
 51
0.0
  0
ENDBLK
  5
56
330
54
100
AcDbEntity
  8
0
100
AcDbBlockEnd
  0
BLOCK
  5
58
330
57
100
AcDbEntity
  8
0
100
AcDbBlockBegin
  2
CLUMP8
 70
     0
 10
435.4625347393651
 20
480.63401781068
 30
0.0
  3
CLUMP8
  1

  0
LINE
  5
277
330
57
100
AcDbEntity
  8
ﾚｲﾔ_1
  6
Continuous
 62
     7
100
AcDbLine
 10
433.3433306490651
 20
658.48673139628
 30
0.0
 11
436.3433306490651
 21
658.48673139628
 31
0.0
  0
LINE
  5
278
330
57
100
AcDbEntity
  8
ﾚｲﾔ_1
  6
Continuous
 62
     7
100
AcDbLine
 10
430.8433306490651
 20
647.9867313622799
 30
0.0
 11
431.3433306490651
 21
647.9867313622799
 31
0.0
  0
LINE
  5
279
330
57
100
AcDbEntity
  8
ﾚｲﾔ_1
  6
Continuous
 62
     7
100
AcDbLine
 10
438.3433306490651
 20
717.9867313615799
 30
0.0
 11
438.3433306490651
 21
648.73673113518
 31
0.0
  0
LINE
  5
27A
330
57
100
AcDbEntity
  8
ﾚｲﾔ_1
  6
Continuous
 62
     7
100
AcDbLine
 10
436.8433306490651
 20
648.7367310674799
 30
0.0
 11
436.8433306490651
 21
717.98673136168
 31
0.0
  0
LINE
  5
27B
330
57
100
AcDbEntity
  8
ﾚｲﾔ_1
  6
Continuous
 62
     7
100
AcDbLine
 10
436.5433306490652
 20
651.9867314227799
 30
0.0
 11
436.5433306490652
 21
717.98673136168
 31
0.0
  0
LINE
  5
27C
330
57
100
AcDbEntity
  8
ﾚｲﾔ_1
  6
Continuous
 62
     7
100
AcDbLine
 10
433.1433306490651
 20
651.98673149768
 30
0.0
 11
433.1433306490651
 21
717.98673136198
 31
0.0
  0
LINE
  5
27D
330
57
100
AcDbEntity
  8
ﾚｲﾔ_1
  6
Continuous
 62
     7
100
AcDbLine
 10
432.8433306490651
 20
648.7367311789799
 30
0.0
 11
432.8433306490651
 21
717.9867313620799
 31
0.0
  0
LINE
  5
27E
330
57
100
AcDbEntity
  8
ﾚｲﾔ_1
  6
Continuous
 62
     7
100
AcDbLine
 10
431.3433306490651
 20
648.73673105658
 30
0.0
 11
431.3433306490651
 21
717.9867313622799
 31
0.0
  0
LINE
  5
27F
330
57
100
AcDbEntity
  8
ﾚｲﾔ_1
  6
Continuous
 62
     7
100
AcDbLine
 10
430.8433306490651
 20
717.9867313622799
 30
0.0
 11
430.8433306490651
 21
647.9867313622799
 31
0.0
  0
LINE
  5
280
330
57
100
AcDbEntity
  8
ﾚｲﾔ_1
  6
Continuous
 62
     7
100
AcDbLine
 10
431.3433306490651
 20
647.9867313622799
 30
0.0
 11
431.3433306490651
 21
717.9867313622799
 31
0.0
  0
ARC
  5
281
330
57
100
AcDbEntity
  8
ﾚｲﾔ_1
  6
Continuous
 62
     7
100
AcDbCircle
 10
436.3433306490651
 20
657.98673139628
 30
0.0
 40
0.5000000000000301
100
AcDbArc
 50
66.42182152178688
 51
90.0
  0
ARC
  5
282
330
57
100
AcDbEntity
  8
ﾚｲﾔ_1
  6
Continuous
 62
     7
100
AcDbCircle
 10
437.0433306490652
 20
651.98673139628
 30
0.0
 40
0.5000000000000008
100
AcDbArc
 50
180.0000033200065
 51
246.4218215217869
  0
ARC
  5
283
330
57
100
AcDbEntity
  8
ﾚｲﾔ_1
  6
Continuous
 62
     7
100
AcDbCircle
 10
437.5933306490651
 20
648.73673139628
 30
0.0
 40
0.750000000000072
100
AcDbArc
 50
180.0000251184751
 51
359.9999800534283
  0
ARC
  5
284
330
57
100
AcDbEntity
  8
ﾚｲﾔ_1
  6
Continuous
 62
     7
100
AcDbCircle
 10
433.3433306490651
 20
657.98673139628
 30
0.0
 40
0.5
100
AcDbArc
 50
90.0
 51
113.5781784782012
  0
ARC
  5
285
330
57
100
AcDbEntity
  8
ﾚｲﾔ_1
  6
Continuous
 62
     7
100
AcDbCircle
 10
432.6433306490651
 20
651.98673139628
 30
0.0
 40
0.4999999999999846
100
AcDbArc
 50
293.5781784782012
 51
359.9999832435979
  0
ARC
  5
286
330
57
100
AcDbEntity
  8
ﾚｲﾔ_1
  6
Continuous
 62
     7
100
AcDbCircle
 10
432.0933306490651
 20
648.73673139628
 30
0.0
 40
0.7500000000000769
100
AcDbArc
 50
180.0000259511701
 51
359.9999833994943
  0
ENDBLK
  5
59
330
57
100
AcDbEntity
  8
0
100
AcDbBlockEnd
  0
BLOCK
  5
5B
330
5A
100
AcDbEntity
  8
0
100
AcDbBlockBegin
  2
CLUMP9
 70
     0
 10
435.4625347393651
 20
480.63401781068
 30
0.0
  3
CLUMP9
  1

  0
LINE
  5
287
330
5A
100
AcDbEntity
  8
ﾚｲﾔ_1
  6
Continuous
 62
     7
100
AcDbLine
 10
419.8426454164651
 20
726.58905663538
 30
0.0
 11
419.8426454164651
 21
736.98673136838
 31
0.0
  0
LINE
  5
288
330
5A
100
AcDbEntity
  8
ﾚｲﾔ_1
  6
Continuous
 62
     7
100
AcDbLine
 10
419.8426454164651
 20
698.9867313683799
 30
0.0
 11
419.8426454164651
 21
709.3844061013799
 31
0.0
  0
LINE
  5
289
330
5A
100
AcDbEntity
  8
ﾚｲﾔ_1
  6
Continuous
 62
     7
100
AcDbLine
 10
418.3426454164651
 20
729.1334797731799
 30
0.0
 11
418.3426454164651
 21
736.98673136838
 31
0.0
  0
LINE
  5
28A
330
5A
100
AcDbEntity
  8
ﾚｲﾔ_1
  6
Continuous
 62
     7
100
AcDbLine
 10
418.3426454164651
 20
698.9867313683799
 30
0.0
 11
418.3426454164651
 21
706.8399829635799
 31
0.0
  0
LINE
  5
28B
330
5A
100
AcDbEntity
  8
ﾚｲﾔ_1
  6
Continuous
 62
     7
100
AcDbLine
 10
372.8426454164651
 20
712.98673136838
 30
0.0
 11
383.142645416465
 21
712.98673136838
 31
0.0
  0
LINE
  5
28C
330
5A
100
AcDbEntity
  8
ﾚｲﾔ_1
  6
Continuous
 62
     7
100
AcDbLine
 10
381.4926454164652
 20
690.2859707911799
 30
0.0
 11
386.320443085365
 21
690.2859707911799
 31
0.0
  0
LINE
  5
28D
330
5A
100
AcDbEntity
  8
ﾚｲﾔ_1
  6
Continuous
 62
     7
100
AcDbLine
 10
383.142645416465
 20
690.2859707911799
 30
0.0
 11
383.142645416465
 21
671.5359707911799
 31
0.0
  0
LINE
  5
28E
330
5A
100
AcDbEntity
  8
ﾚｲﾔ_1
  6
Continuous
 62
     7
100
AcDbLine
 10
384.3426454164651
 20
690.2859707911799
 30
0.0
 11
384.3426454164651
 21
671.5359707911799
 31
0.0
  0
LINE
  5
28F
330
5A
100
AcDbEntity
  8
ﾚｲﾔ_1
  6
Continuous
 62
     7
100
AcDbLine
 10
383.142645416465
 20
671.5359707911799
 30
0.0
 11
384.3426454164651
 21
671.5359707911799
 31
0.0
  0
LINE
  5
290
330
5A
100
AcDbEntity
  8
ﾚｲﾔ_1
  6
Continuous
 62
     7
100
AcDbLine
 10
380.4926454164652
 20
697.7859707911799
 30
0.0
 11
380.4926454164652
 21
691.2859707911799
 31
0.0
  0
LINE
  5
291
330
5A
100
AcDbEntity
  8
ﾚｲﾔ_1
  6
Continuous
 62
     7
100
AcDbLine
 10
387.2464334634651
 20
690.9084236817799
 30
0.0
 11
390.0505641457651
 21
697.7859707911799
 31
0.0
  0
LINE
  5
292
330
5A
100
AcDbEntity
  8
ﾚｲﾔ_1
  6
Continuous
 62
     7
100
AcDbLine
 10
419.8426454164651
 20
700.68673136488
 30
0.0
 11
425.8433306490651
 21
700.6867313637799
 31
0.0
  0
LINE
  5
293
330
5A
100
AcDbEntity
  8
ﾚｲﾔ_1
  6
Continuous
 62
     7
100
AcDbLine
 10
419.8426454164651
 20
735.28673136228
 30
0.0
 11
425.8433306490651
 21
735.28673136228
 31
0.0
  0
LINE
  5
294
330
5A
100
AcDbEntity
  8
ﾚｲﾔ_1
  6
Continuous
 62
     7
100
AcDbLine
 10
380.4926454164652
 20
697.7859707911799
 30
0.0
 11
389.253972288265
 21
697.7859707911799
 31
0.0
  0
LINE
  5
295
330
5A
100
AcDbEntity
  8
ﾚｲﾔ_1
  6
Continuous
 62
     7
100
AcDbLine
 10
384.3426454164651
 20
710.48673136838
 30
0.0
 11
384.3426454164651
 21
697.7859707911799
 31
0.0
  0
LINE
  5
296
330
5A
100
AcDbEntity
  8
ﾚｲﾔ_1
  6
Continuous
 62
     7
100
AcDbLine
 10
402.0178954709652
 20
698.4894357232799
 30
0.0
 11
389.5203892602651
 21
696.4856381160799
 31
0.0
  0
LINE
  5
297
330
5A
100
AcDbEntity
  8
ﾚｲﾔ_1
  6
Continuous
 62
     7
100
AcDbLine
 10
397.7868770172652
 20
699.02637867408
 30
0.0
 11
390.8371100665652
 21
697.91208225758
 31
0.0
  0
LINE
  5
298
330
5A
100
AcDbEntity
  8
ﾚｲﾔ_1
  6
Continuous
 62
     7
100
AcDbLine
 10
383.142645416465
 20
714.5793863608799
 30
0.0
 11
383.142645416465
 21
697.7859707911799
 31
0.0
  0
LINE
  5
299
330
5A
100
AcDbEntity
  8
ﾚｲﾔ_1
  6
Continuous
 62
     7
100
AcDbLine
 10
413.4893938212651
 20
733.98673136838
 30
0.0
 11
418.3426454164651
 21
733.98673136838
 31
0.0
  0
LINE
  5
29A
330
5A
100
AcDbEntity
  8
ﾚｲﾔ_1
  6
Continuous
 62
     7
100
AcDbLine
 10
413.4893938212651
 20
701.9867313683799
 30
0.0
 11
418.3426454164651
 21
701.9867313683799
 31
0.0
  0
LINE
  5
29B
330
5A
100
AcDbEntity
  8
ﾚｲﾔ_1
  6
Continuous
 62
     7
100
AcDbLine
 10
419.8426454164651
 20
700.4867313683799
 30
0.0
 11
419.8426454164651
 21
709.3844061013799
 31
0.0
  0
LINE
  5
29C
330
5A
100
AcDbEntity
  8
ﾚｲﾔ_1
  6
Continuous
 62
     7
100
AcDbLine
 10
419.8426454164651
 20
726.58905663538
 30
0.0
 11
419.8426454164651
 21
735.48673136838
 31
0.0
  0
LINE
  5
29D
330
5A
100
AcDbEntity
  8
ﾚｲﾔ_1
  6
Continuous
 62
     7
100
AcDbLine
 10
374.936832317165
 20
716.73673136838
 30
0.0
 11
382.8827507610652
 21
716.73673136838
 31
0.0
  0
LINE
  5
29E
330
5A
100
AcDbEntity
  8
ﾚｲﾔ_1
  6
Continuous
 62
     7
100
AcDbLine
 10
374.936832317165
 20
719.23673136838
 30
0.0
 11
382.8827507610652
 21
719.23673136838
 31
0.0
  0
LINE
  5
29F
330
5A
100
AcDbEntity
  8
ﾚｲﾔ_1
  6
Continuous
 62
     7
100
AcDbLine
 10
372.8426454164651
 20
712.98673136838
 30
0.0
 11
372.8426454164651
 21
722.98673136838
 31
0.0
  0
LINE
  5
2A0
330
5A
100
AcDbEntity
  8
ﾚｲﾔ_1
  6
Continuous
 62
     7
100
AcDbLine
 10
372.8426454164651
 20
722.98673136838
 30
0.0
 11
383.4945685914652
 21
722.98673136838
 31
0.0
  0
LINE
  5
2A1
330
5A
100
AcDbEntity
  8
ﾚｲﾔ_1
  6
Continuous
 62
     7
100
AcDbLine
 10
418.3426454164651
 20
736.98673136838
 30
0.0
 11
419.8426454164651
 21
736.98673136838
 31
0.0
  0
LINE
  5
2A2
330
5A
100
AcDbEntity
  8
ﾚｲﾔ_1
  6
Continuous
 62
     7
100
AcDbLine
 10
419.8426454164651
 20
698.9867313683799
 30
0.0
 11
418.3426454164651
 21
698.9867313683799
 31
0.0
  0
ARC
  5
2A3
330
5A
100
AcDbEntity
  8
ﾚｲﾔ_1
  6
Continuous
 62
     7
100
AcDbCircle
 10
381.4926454164652
 20
691.2859707911799
 30
0.0
 40
1.0
100
AcDbArc
 50
180.0
 51
270.0
  0
ARC
  5
2A4
330
5A
100
AcDbEntity
  8
ﾚｲﾔ_1
  6
Continuous
 62
     7
100
AcDbCircle
 10
386.320443085365
 20
691.2859707911799
 30
0.0
 40
1.0
100
AcDbArc
 50
270.0
 51
337.8181725069419
  0
ARC
  5
2A5
330
5A
100
AcDbEntity
  8
ﾚｲﾔ_1
  6
Continuous
 62
     7
100
AcDbCircle
 10
389.253972288265
 20
707.7859707911799
 30
0.0
 40
10.0
100
AcDbArc
 50
270.0
 51
279.1090353927599
  0
CIRCLE
  5
2A6
330
5A
100
AcDbEntity
  8
ﾚｲﾔ_1
  6
Continuous
 62
     7
100
AcDbCircle
 10
402.3426454164651
 20
717.98673136838
 30
0.0
 40
16.93645972480005
  0
CIRCLE
  5
2A7
330
5A
100
AcDbEntity
  8
ﾚｲﾔ_1
  6
Continuous
 62
     7
100
AcDbCircle
 10
402.3426454164651
 20
717.98673136838
 30
0.0
 40
16.5
  0
CIRCLE
  5
2A8
330
5A
100
AcDbEntity
  8
ﾚｲﾔ_1
  6
Continuous
 62
     7
100
AcDbCircle
 10
402.3426454164651
 20
717.98673136838
 30
0.0
 40
14.5
  0
CIRCLE
  5
2A9
330
5A
100
AcDbEntity
  8
ﾚｲﾔ_1
  6
Continuous
 62
     7
100
AcDbCircle
 10
402.3426454164651
 20
717.98673136838
 30
0.0
 40
19.5
  0
ENDBLK
  5
5C
330
5A
100
AcDbEntity
  8
0
100
AcDbBlockEnd
  0
BLOCK
  5
5E
330
5D
100
AcDbEntity
  8
0
100
AcDbBlockBegin
  2
CLUMP10
 70
     0
 10
435.4625347393651
 20
480.63401781068
 30
0.0
  3
CLUMP10
  1

  0
LINE
  5
2AA
330
5D
100
AcDbEntity
  8
ﾚｲﾔ_1
  6
Continuous
 62
     7
100
AcDbLine
 10
294.669891509765
 20
427.64463694088
 30
0.0
 11
294.669891509765
 21
425.14463694088
 31
0.0
  0
LINE
  5
2AB
330
5D
100
AcDbEntity
  8
ﾚｲﾔ_1
  6
Continuous
 62
     7
100
AcDbLine
 10
294.669891509765
 20
461.6446369408799
 30
0.0
 11
294.669891509765
 21
427.64463694088
 31
0.0
  0
LINE
  5
2AC
330
5D
100
AcDbEntity
  8
ﾚｲﾔ_1
  6
Continuous
 62
     7
100
AcDbLine
 10
288.9198915097651
 20
462.3446369408799
 30
0.0
 11
287.9198915097651
 21
462.3446369408799
 31
0.0
  0
LINE
  5
2AD
330
5D
100
AcDbEntity
  8
ﾚｲﾔ_1
  6
Continuous
 62
     7
100
AcDbLine
 10
288.9198915097651
 20
460.8446369408799
 30
0.0
 11
287.9198915097651
 21
460.8446369408799
 31
0.0
  0
LINE
  5
2AE
330
5D
100
AcDbEntity
  8
ﾚｲﾔ_1
  6
Continuous
 62
     7
100
AcDbLine
 10
284.4198915097651
 20
460.8446369408799
 30
0.0
 11
283.4198915097651
 21
460.8446369408799
 31
0.0
  0
LINE
  5
2AF
330
5D
100
AcDbEntity
  8
ﾚｲﾔ_1
  6
Continuous
 62
     7
100
AcDbLine
 10
284.4198915097651
 20
462.3446369408799
 30
0.0
 11
283.4198915097651
 21
462.3446369408799
 31
0.0
  0
LINE
  5
2B0
330
5D
100
AcDbEntity
  8
ﾚｲﾔ_1
  6
Continuous
 62
     7
100
AcDbLine
 10
287.9198915097651
 20
463.14463694088
 30
0.0
 11
287.9198915097651
 21
458.65489262148
 31
0.0
  0
LINE
  5
2B1
330
5D
100
AcDbEntity
  8
ﾚｲﾔ_1
  6
Continuous
 62
     7
100
AcDbLine
 10
287.9198915097651
 20
463.14463694088
 30
0.0
 11
284.4198915097651
 21
463.14463694088
 31
0.0
  0
LINE
  5
2B2
330
5D
100
AcDbEntity
  8
ﾚｲﾔ_1
  6
Continuous
 62
     7
100
AcDbLine
 10
284.4198915097651
 20
463.14463694088
 30
0.0
 11
284.4198915097651
 21
458.65489262148
 31
0.0
  0
LINE
  5
2B3
330
5D
100
AcDbEntity
  8
ﾚｲﾔ_1
  6
Continuous
 62
     7
100
AcDbLine
 10
288.9198915097651
 20
462.64463694088
 30
0.0
 11
288.9198915097651
 21
458.65489262148
 31
0.0
  0
LINE
  5
2B4
330
5D
100
AcDbEntity
  8
ﾚｲﾔ_1
  6
Continuous
 62
     7
100
AcDbLine
 10
283.4198915097651
 20
462.64463694088
 30
0.0
 11
283.4198915097651
 21
458.65489262148
 31
0.0
  0
LINE
  5
2B5
330
5D
100
AcDbEntity
  8
ﾚｲﾔ_1
  6
Continuous
 62
     7
100
AcDbLine
 10
282.4198915097651
 20
463.8446369408799
 30
0.0
 11
282.4198915097651
 21
462.64463694088
 31
0.0
  0
LINE
  5
2B6
330
5D
100
AcDbEntity
  8
ﾚｲﾔ_1
  6
Continuous
 62
     7
100
AcDbLine
 10
289.9198915097651
 20
463.8446369408799
 30
0.0
 11
289.9198915097651
 21
462.64463694088
 31
0.0
  0
LINE
  5
2B7
330
5D
100
AcDbEntity
  8
ﾚｲﾔ_1
  6
Continuous
 62
     7
100
AcDbLine
 10
289.9198915097651
 20
463.8446369408799
 30
0.0
 11
282.4198915097651
 21
463.8446369408799
 31
0.0
  0
LINE
  5
2B8
330
5D
100
AcDbEntity
  8
ﾚｲﾔ_1
  6
Continuous
 62
     7
100
AcDbLine
 10
285.1411729315892
 20
451.7626770037896
 30
0.0
 11
284.4369640480061
 21
458.3352932505763
 31
0.0
  0
LINE
  5
2B9
330
5D
100
AcDbEntity
  8
ﾚｲﾔ_1
  6
Continuous
 62
     7
100
AcDbLine
 10
287.9028189715652
 20
458.33529325058
 30
0.0
 11
287.1986100879412
 21
451.7626770037896
 31
0.0
  0
LINE
  5
2BA
330
5D
100
AcDbEntity
  8
ﾚｲﾔ_1
  6
Continuous
 62
     7
100
AcDbLine
 10
285.439465677765
 20
451.4946369408799
 30
0.0
 11
286.9003173417652
 21
451.4946369408799
 31
0.0
  0
LINE
  5
2BB
330
5D
100
AcDbEntity
  8
ﾚｲﾔ_1
  6
Continuous
 62
     7
100
AcDbLine
 10
282.4198915097651
 20
447.9946369408799
 30
0.0
 11
280.6698915097651
 21
459.9946369408799
 31
0.0
  0
LINE
  5
2BC
330
5D
100
AcDbEntity
  8
ﾚｲﾔ_1
  6
Continuous
 62
     7
100
AcDbLine
 10
291.6698915097651
 20
459.9946369408799
 30
0.0
 11
289.9198915097651
 21
447.9946369408799
 31
0.0
  0
LINE
  5
2BD
330
5D
100
AcDbEntity
  8
ﾚｲﾔ_1
  6
Continuous
 62
     7
100
AcDbLine
 10
291.6698915097651
 20
459.9946369408799
 30
0.0
 11
291.6698915097651
 21
464.9946369408799
 31
0.0
  0
LINE
  5
2BE
330
5D
100
AcDbEntity
  8
ﾚｲﾔ_1
  6
Continuous
 62
     7
100
AcDbLine
 10
280.6698915097651
 20
464.9946369408799
 30
0.0
 11
280.6698915097651
 21
459.9946369408799
 31
0.0
  0
LINE
  5
2BF
330
5D
100
AcDbEntity
  8
ﾚｲﾔ_1
  6
Continuous
 62
     7
100
AcDbLine
 10
290.1698915097651
 20
466.4946369408799
 30
0.0
 11
282.1698915097651
 21
466.4946369408799
 31
0.0
  0
LINE
  5
2C0
330
5D
100
AcDbEntity
  8
ﾚｲﾔ_1
  6
Continuous
 62
     7
100
AcDbLine
 10
288.8971281254651
 20
458.22876012698
 30
0.0
 11
288.0627649381651
 21
450.44137037898
 31
0.0
  0
LINE
  5
2C1
330
5D
100
AcDbEntity
  8
ﾚｲﾔ_1
  6
Continuous
 62
     7
100
AcDbLine
 10
284.7741726583651
 20
449.9946369408799
 30
0.0
 11
287.565610361265
 21
449.9946369408799
 31
0.0
  0
LINE
  5
2C2
330
5D
100
AcDbEntity
  8
ﾚｲﾔ_1
  6
Continuous
 62
     7
100
AcDbLine
 10
284.2770180813651
 20
450.44137037898
 30
0.0
 11
283.4426548940651
 21
458.22876012698
 31
0.0
  0
LINE
  5
2C3
330
5D
100
AcDbEntity
  8
ﾚｲﾔ_1
  6
Continuous
 62
     7
100
AcDbLine
 10
288.9198915097651
 20
459.9946369408799
 30
0.0
 11
290.1698915097651
 21
459.9946369408799
 31
0.0
  0
LINE
  5
2C4
330
5D
100
AcDbEntity
  8
ﾚｲﾔ_1
  6
Continuous
 62
     7
100
AcDbLine
 10
282.1698915097651
 20
459.9946369408799
 30
0.0
 11
283.4198915097651
 21
459.9946369408799
 31
0.0
  0
LINE
  5
2C5
330
5D
100
AcDbEntity
  8
ﾚｲﾔ_1
  6
Continuous
 62
     7
100
AcDbLine
 10
284.4198915097651
 20
462.64463694088
 30
0.0
 11
282.4198915097651
 21
462.64463694088
 31
0.0
  0
LINE
  5
2C6
330
5D
100
AcDbEntity
  8
ﾚｲﾔ_1
  6
Continuous
 62
     7
100
AcDbLine
 10
289.9198915097651
 20
462.64463694088
 30
0.0
 11
287.9198915097651
 21
462.64463694088
 31
0.0
  0
LINE
  5
2C7
330
5D
100
AcDbEntity
  8
ﾚｲﾔ_1
  6
Continuous
 62
     7
100
AcDbLine
 10
260.9198915097651
 20
427.14463694088
 30
0.0
 11
263.6698915097651
 21
427.14463694088
 31
0.0
  0
LINE
  5
2C8
330
5D
100
AcDbEntity
  8
ﾚｲﾔ_1
  6
Continuous
 62
     7
100
AcDbLine
 10
228.6698915097651
 20
444.64463694088
 30
0.0
 11
228.6698915097651
 21
428.64463694088
 31
0.0
  0
LINE
  5
2C9
330
5D
100
AcDbEntity
  8
ﾚｲﾔ_1
  6
Continuous
 62
     7
100
AcDbLine
 10
291.6698915097651
 20
426.64463694088
 30
0.0
 11
289.9198915097651
 21
426.64463694088
 31
0.0
  0
LINE
  5
2CA
330
5D
100
AcDbEntity
  8
ﾚｲﾔ_1
  6
Continuous
 62
     7
100
AcDbLine
 10
291.6698915097651
 20
426.64463694088
 30
0.0
 11
291.6698915097651
 21
425.14463694088
 31
0.0
  0
LINE
  5
2CB
330
5D
100
AcDbEntity
  8
ﾚｲﾔ_1
  6
Continuous
 62
     7
100
AcDbLine
 10
294.669891509765
 20
425.14463694088
 30
0.0
 11
291.6698915097651
 21
425.14463694088
 31
0.0
  0
LINE
  5
2CC
330
5D
100
AcDbEntity
  8
ﾚｲﾔ_1
  6
Continuous
 62
     7
100
AcDbLine
 10
294.669891509765
 20
464.14463694088
 30
0.0
 11
294.669891509765
 21
461.6446369408799
 31
0.0
  0
LINE
  5
2CD
330
5D
100
AcDbEntity
  8
ﾚｲﾔ_1
  6
Continuous
 62
     7
100
AcDbLine
 10
263.6698915097651
 20
428.64463694088
 30
0.0
 11
268.1698915097651
 21
428.64463694088
 31
0.0
  0
LINE
  5
2CE
330
5D
100
AcDbEntity
  8
ﾚｲﾔ_1
  6
Continuous
 62
     7
100
AcDbLine
 10
277.6698915097651
 20
426.64463694088
 30
0.0
 11
269.1698915097651
 21
426.64463694088
 31
0.0
  0
LINE
  5
2CF
330
5D
100
AcDbEntity
  8
ﾚｲﾔ_1
  6
Continuous
 62
     7
100
AcDbLine
 10
280.6698915097651
 20
426.64463694088
 30
0.0
 11
280.6698915097651
 21
425.14463694088
 31
0.0
  0
LINE
  5
2D0
330
5D
100
AcDbEntity
  8
ﾚｲﾔ_1
  6
Continuous
 62
     7
100
AcDbLine
 10
277.6698915097651
 20
426.64463694088
 30
0.0
 11
277.6698915097651
 21
425.14463694088
 31
0.0
  0
LINE
  5
2D1
330
5D
100
AcDbEntity
  8
ﾚｲﾔ_1
  6
Continuous
 62
     7
100
AcDbLine
 10
268.1698915097651
 20
428.64463694088
 30
0.0
 11
268.1698915097651
 21
427.64463694088
 31
0.0
  0
LINE
  5
2D2
330
5D
100
AcDbEntity
  8
ﾚｲﾔ_1
  6
Continuous
 62
     7
100
AcDbLine
 10
280.6698915097651
 20
425.14463694088
 30
0.0
 11
277.6698915097651
 21
425.14463694088
 31
0.0
  0
LINE
  5
2D3
330
5D
100
AcDbEntity
  8
ﾚｲﾔ_1
  6
Continuous
 62
     7
100
AcDbLine
 10
263.6698915097651
 20
428.64463694088
 30
0.0
 11
263.6698915097651
 21
427.14463694088
 31
0.0
  0
LINE
  5
2D4
330
5D
100
AcDbEntity
  8
ﾚｲﾔ_1
  6
Continuous
 62
     7
100
AcDbLine
 10
289.9198915097651
 20
447.9946369408799
 30
0.0
 11
289.9198915097651
 21
444.64463694088
 31
0.0
  0
LINE
  5
2D5
330
5D
100
AcDbEntity
  8
ﾚｲﾔ_1
  6
Continuous
 62
     7
100
AcDbLine
 10
282.4198915097651
 20
447.9946369408799
 30
0.0
 11
282.4198915097651
 21
426.64463694088
 31
0.0
  0
LINE
  5
2D6
330
5D
100
AcDbEntity
  8
ﾚｲﾔ_1
  6
Continuous
 62
     7
100
AcDbLine
 10
264.8698915097652
 20
459.8433210943799
 30
0.0
 11
268.1698915097651
 21
459.8433210943799
 31
0.0
  0
LINE
  5
2D7
330
5D
100
AcDbEntity
  8
ﾚｲﾔ_1
  6
Continuous
 62
     7
100
AcDbLine
 10
294.669891509765
 20
464.14463694088
 30
0.0
 11
291.6698915097651
 21
464.14463694088
 31
0.0
  0
LINE
  5
2D8
330
5D
100
AcDbEntity
  8
ﾚｲﾔ_1
  6
Continuous
 62
     7
100
AcDbLine
 10
257.4448912974652
 20
473.18671845538
 30
0.0
 11
248.5198915097651
 21
468.0338674254022
 31
0.0
  0
LINE
  5
2D9
330
5D
100
AcDbEntity
  8
ﾚｲﾔ_1
  6
Continuous
 62
     7
100
AcDbLine
 10
258.5948912974651
 20
471.19486002668
 30
0.0
 11
249.6698915097651
 21
466.042008996698
 31
0.0
  0
LINE
  5
2DA
330
5D
100
AcDbEntity
  8
ﾚｲﾔ_1
  6
Continuous
 62
     7
100
AcDbLine
 10
266.0757053814651
 20
472.05045004008
 30
0.0
 11
275.4815184807651
 21
462.64463694088
 31
0.0
  0
LINE
  5
2DB
330
5D
100
AcDbEntity
  8
ﾚｲﾔ_1
  6
Continuous
 62
     7
100
AcDbLine
 10
268.1698915097651
 20
461.64463699618
 30
0.0
 11
268.1698915097651
 21
428.64463694088
 31
0.0
  0
LINE
  5
2DC
330
5D
100
AcDbEntity
  8
ﾚｲﾔ_1
  6
Continuous
 62
     7
100
AcDbLine
 10
291.6698915097651
 20
464.14463694088
 30
0.0
 11
291.6698915097651
 21
444.64463694088
 31
0.0
  0
LINE
  5
2DD
330
5D
100
AcDbEntity
  8
ﾚｲﾔ_1
  6
Continuous
 62
     7
100
AcDbLine
 10
280.6698915097651
 20
464.14463694088
 30
0.0
 11
280.6698915097651
 21
426.64463694088
 31
0.0
  0
LINE
  5
2DE
330
5D
100
AcDbEntity
  8
ﾚｲﾔ_1
  6
Continuous
 62
     7
100
AcDbLine
 10
277.6698915097651
 20
464.14463694088
 30
0.0
 11
277.6698915097651
 21
426.64463694088
 31
0.0
  0
LINE
  5
2DF
330
5D
100
AcDbEntity
  8
ﾚｲﾔ_1
  6
Continuous
 62
     7
100
AcDbLine
 10
268.1698915097651
 20
466.9946367094799
 30
0.0
 11
268.1698915097651
 21
463.93625340668
 31
0.0
  0
LINE
  5
2E0
330
5D
100
AcDbEntity
  8
ﾚｲﾔ_1
  6
Continuous
 62
     7
100
AcDbLine
 10
277.6698915097651
 20
462.64463694088
 30
0.0
 11
270.1698915097651
 21
462.64463694088
 31
0.0
  0
LINE
  5
2E1
330
5D
100
AcDbEntity
  8
ﾚｲﾔ_1
  6
Continuous
 62
     7
100
AcDbLine
 10
280.6698915097651
 20
464.14463694088
 30
0.0
 11
277.6698915097651
 21
464.14463694088
 31
0.0
  0
LINE
  5
2E2
330
5D
100
AcDbEntity
  8
ﾚｲﾔ_1
  6
Continuous
 62
     7
100
AcDbLine
 10
249.3198915097651
 20
460.64463694088
 30
0.0
 11
264.8698915097652
 21
460.64463694088
 31
0.0
  0
LINE
  5
2E3
330
5D
100
AcDbEntity
  8
ﾚｲﾔ_1
  6
Continuous
 62
     7
100
AcDbLine
 10
244.6698915097651
 20
460.64463694088
 30
0.0
 11
245.0198915097651
 21
460.64463694088
 31
0.0
  0
LINE
  5
2E4
330
5D
100
AcDbEntity
  8
ﾚｲﾔ_1
  6
Continuous
 62
     7
100
AcDbLine
 10
248.3198915097651
 20
463.7037404064799
 30
0.0
 11
248.3198915097651
 21
460.8433210943799
 31
0.0
  0
LINE
  5
2E5
330
5D
100
AcDbEntity
  8
ﾚｲﾔ_1
  6
Continuous
 62
     7
100
AcDbLine
 10
246.0198915097651
 20
463.7037404064799
 30
0.0
 11
246.0198915097651
 21
460.8433210943799
 31
0.0
  0
LINE
  5
2E6
330
5D
100
AcDbEntity
  8
ﾚｲﾔ_1
  6
Continuous
 62
     7
100
AcDbLine
 10
265.8698915097652
 20
466.9946367094799
 30
0.0
 11
265.8698915097652
 21
460.8433210943799
 31
0.0
  0
LINE
  5
2E7
330
5D
100
AcDbEntity
  8
ﾚｲﾔ_1
  6
Continuous
 62
     7
100
AcDbLine
 10
245.0198915097651
 20
459.8433210943799
 30
0.0
 11
249.3198915097651
 21
459.8433210943799
 31
0.0
  0
LINE
  5
2E8
330
5D
100
AcDbEntity
  8
ﾚｲﾔ_1
  6
Continuous
 62
     7
100
AcDbLine
 10
282.4198915097651
 20
426.64463694088
 30
0.0
 11
282.4198915097651
 21
425.44463694088
 31
0.0
  0
LINE
  5
2E9
330
5D
100
AcDbEntity
  8
ﾚｲﾔ_1
  6
Continuous
 62
     7
100
AcDbLine
 10
289.9198915097651
 20
425.44463694088
 30
0.0
 11
289.9198915097651
 21
426.64463694088
 31
0.0
  0
LINE
  5
2EA
330
5D
100
AcDbEntity
  8
ﾚｲﾔ_1
  6
Continuous
 62
     7
100
AcDbLine
 10
282.4198915097651
 20
425.44463694088
 30
0.0
 11
289.9198915097651
 21
425.44463694088
 31
0.0
  0
LINE
  5
2EB
330
5D
100
AcDbEntity
  8
ﾚｲﾔ_1
  6
Continuous
 62
     7
100
AcDbLine
 10
225.6698915097651
 20
427.14463694088
 30
0.0
 11
225.6698915097651
 21
428.64463694088
 31
0.0
  0
LINE
  5
2EC
330
5D
100
AcDbEntity
  8
ﾚｲﾔ_1
  6
Continuous
 62
     7
100
AcDbLine
 10
244.6698915097651
 20
427.14463694088
 30
0.0
 11
227.3698915097652
 21
427.14463695308
 31
0.0
  0
LINE
  5
2ED
330
5D
100
AcDbEntity
  8
ﾚｲﾔ_1
  6
Continuous
 62
     7
100
AcDbLine
 10
225.6698915097651
 20
427.14463694088
 30
0.0
 11
261.9698915055651
 21
427.14463694088
 31
0.0
  0
LINE
  5
2EE
330
5D
100
AcDbEntity
  8
ﾚｲﾔ_1
  6
Continuous
 62
     7
100
AcDbLine
 10
225.6698915097651
 20
428.64463694088
 30
0.0
 11
263.6698915097651
 21
428.64463694088
 31
0.0
  0
LINE
  5
2EF
330
5D
100
AcDbEntity
  8
ﾚｲﾔ_1
  6
Continuous
 62
     7
100
AcDbLine
 10
291.6698915097651
 20
444.64463694088
 30
0.0
 11
291.6698915097651
 21
425.14463694088
 31
0.0
  0
LINE
  5
2F0
330
5D
100
AcDbEntity
  8
ﾚｲﾔ_1
  6
Continuous
 62
     7
100
AcDbLine
 10
289.9198915097651
 20
444.64463694088
 30
0.0
 11
289.9198915097651
 21
426.64463694088
 31
0.0
  0
LINE
  5
2F1
330
5D
100
AcDbEntity
  8
ﾚｲﾔ_1
  6
Continuous
 62
     7
100
AcDbLine
 10
289.9198915097651
 20
447.9946369408799
 30
0.0
 11
289.9198915097651
 21
444.64463694088
 31
0.0
  0
LINE
  5
2F2
330
5D
100
AcDbEntity
  8
ﾚｲﾔ_1
  6
Continuous
 62
     7
100
AcDbLine
 10
282.4198915097651
 20
426.64463694088
 30
0.0
 11
280.6698915097651
 21
426.64463694088
 31
0.0
  0
ARC
  5
2F3
330
5D
100
AcDbEntity
  8
ﾚｲﾔ_1
  6
Continuous
 62
     7
100
AcDbCircle
 10
284.9198915097651
 20
458.65489262148
 30
0.0
 40
4.000000000016705
100
AcDbArc
 50
353.8844964342742
 51
0.0
  0
ARC
  5
2F4
330
5D
100
AcDbEntity
  8
ﾚｲﾔ_1
  6
Continuous
 62
     7
100
AcDbCircle
 10
287.4198915097651
 20
458.65489262148
 30
0.0
 40
4.0
100
AcDbArc
 50
180.0
 51
186.1155035657258
  0
ARC
  5
2F5
330
5D
100
AcDbEntity
  8
ﾚｲﾔ_1
  6
Continuous
 62
     7
100
AcDbCircle
 10
284.9198915097651
 20
458.65489262148
 30
0.0
 40
3.000000000040145
100
AcDbArc
 50
353.8844964338506
 51
0.0
  0
ARC
  5
2F6
330
5D
100
AcDbEntity
  8
ﾚｲﾔ_1
  6
Continuous
 62
     7
100
AcDbCircle
 10
287.4198915097651
 20
458.65489262148
 30
0.0
 40
3.0
100
AcDbArc
 50
180.0
 51
186.1155035663032
  0
ARC
  5
2F7
330
5D
100
AcDbEntity
  8
ﾚｲﾔ_1
  6
Continuous
 62
     7
100
AcDbCircle
 10
286.9003173417652
 20
451.79463694088
 30
0.0
 40
0.3000000000001251
100
AcDbArc
 50
270.0
 51
353.8844964336838
  0
ARC
  5
2F8
330
5D
100
AcDbEntity
  8
ﾚｲﾔ_1
  6
Continuous
 62
     7
100
AcDbCircle
 10
285.439465677765
 20
451.79463694088
 30
0.0
 40
0.2999999999998517
100
AcDbArc
 50
186.1155035663209
 51
270.0
  0
ARC
  5
2F9
330
5D
100
AcDbEntity
  8
ﾚｲﾔ_1
  6
Continuous
 62
     7
100
AcDbCircle
 10
290.1698915097651
 20
464.9946369408799
 30
0.0
 40
1.5
100
AcDbArc
 50
0.0
 51
90.0
  0
ARC
  5
2FA
330
5D
100
AcDbEntity
  8
ﾚｲﾔ_1
  6
Continuous
 62
     7
100
AcDbCircle
 10
282.1698915097651
 20
464.9946369408799
 30
0.0
 40
1.5
100
AcDbArc
 50
90.0
 51
180.0
  0
ARC
  5
2FB
330
5D
100
AcDbEntity
  8
ﾚｲﾔ_1
  6
Continuous
 62
     7
100
AcDbCircle
 10
290.1698915097651
 20
461.4946369408799
 30
0.0
 40
1.5
100
AcDbArc
 50
270.0
 51
0.0
  0
ARC
  5
2FC
330
5D
100
AcDbEntity
  8
ﾚｲﾔ_1
  6
Continuous
 62
     7
100
AcDbCircle
 10
282.1698915097651
 20
461.4946369408799
 30
0.0
 40
1.5
100
AcDbArc
 50
180.0
 51
270.0
  0
ARC
  5
2FD
330
5D
100
AcDbEntity
  8
ﾚｲﾔ_1
  6
Continuous
 62
     7
100
AcDbCircle
 10
287.565610361265
 20
450.4946369408799
 30
0.0
 40
0.5
100
AcDbArc
 50
270.0
 51
353.8844964235573
  0
ARC
  5
2FE
330
5D
100
AcDbEntity
  8
ﾚｲﾔ_1
  6
Continuous
 62
     7
100
AcDbCircle
 10
284.7741726583651
 20
450.4946369408799
 30
0.0
 40
0.5000000000486855
100
AcDbArc
 50
186.1155035752235
 51
270.0
  0
ARC
  5
2FF
330
5D
100
AcDbEntity
  8
ﾚｲﾔ_1
  6
Continuous
 62
     7
100
AcDbCircle
 10
244.6698915097651
 20
444.64463694088
 30
0.0
 40
16.0
100
AcDbArc
 50
90.0
 51
180.0
  0
ARC
  5
300
330
5D
100
AcDbEntity
  8
ﾚｲﾔ_1
  6
Continuous
 62
     7
100
AcDbCircle
 10
269.1698915097651
 20
427.64463694088
 30
0.0
 40
1.0
100
AcDbArc
 50
180.0
 51
270.0
  0
ARC
  5
301
330
5D
100
AcDbEntity
  8
ﾚｲﾔ_1
  6
Continuous
 62
     7
100
AcDbCircle
 10
249.3198915097651
 20
461.64463694088
 30
0.0
 40
1.0
100
AcDbArc
 50
180.0
 51
270.0
  0
ARC
  5
302
330
5D
100
AcDbEntity
  8
ﾚｲﾔ_1
  6
Continuous
 62
     7
100
AcDbCircle
 10
270.1698915097651
 20
463.93625340668
 30
0.0
 40
2.0
100
AcDbArc
 50
180.0
 51
270.0
  0
ARC
  5
303
330
5D
100
AcDbEntity
  8
ﾚｲﾔ_1
  6
Continuous
 62
     7
100
AcDbCircle
 10
251.0198915097651
 20
463.7037404064799
 30
0.0
 40
5.000000000000115
100
AcDbArc
 50
119.9999999999993
 51
180.0
  0
ARC
  5
304
330
5D
100
AcDbEntity
  8
ﾚｲﾔ_1
  6
Continuous
 62
     7
100
AcDbCircle
 10
251.0198915097651
 20
463.7037404064799
 30
0.0
 40
2.700000000000091
100
AcDbArc
 50
119.9999999999987
 51
180.0
  0
ARC
  5
305
330
5D
100
AcDbEntity
  8
ﾚｲﾔ_1
  6
Continuous
 62
     7
100
AcDbCircle
 10
269.1698915097651
 20
461.64463694088
 30
0.0
 40
1.00000000000006
100
AcDbArc
 50
115.8664263042161
 51
180.0
  0
ARC
  5
306
330
5D
100
AcDbEntity
  8
ﾚｲﾔ_1
  6
Continuous
 62
     7
100
AcDbCircle
 10
261.0198915097651
 20
466.9946369408799
 30
0.0
 40
7.149999999999979
100
AcDbArc
 50
359.9999986304007
 51
119.9999989887021
  0
ARC
  5
307
330
5D
100
AcDbEntity
  8
ﾚｲﾔ_1
  6
Continuous
 62
     7
100
AcDbCircle
 10
270.1698915097651
 20
464.64463694088
 30
0.0
 40
2.0
100
AcDbArc
 50
180.0
 51
270.0
  0
ARC
  5
308
330
5D
100
AcDbEntity
  8
ﾚｲﾔ_1
  6
Continuous
 62
     7
100
AcDbCircle
 10
264.8698915097652
 20
461.64463694088
 30
0.0
 40
1.0
100
AcDbArc
 50
270.0
 51
0.0
  0
ARC
  5
309
330
5D
100
AcDbEntity
  8
ﾚｲﾔ_1
  6
Continuous
 62
     7
100
AcDbCircle
 10
245.0198915097651
 20
461.64463694088
 30
0.0
 40
1.0
100
AcDbArc
 50
270.0
 51
0.0
  0
ARC
  5
30A
330
5D
100
AcDbEntity
  8
ﾚｲﾔ_1
  6
Continuous
 62
     7
100
AcDbCircle
 10
249.3198915097651
 20
460.8433210943799
 30
0.0
 40
1.0
100
AcDbArc
 50
180.0
 51
270.0
  0
ARC
  5
30B
330
5D
100
AcDbEntity
  8
ﾚｲﾔ_1
  6
Continuous
 62
     7
100
AcDbCircle
 10
245.0198915097651
 20
460.8433210943799
 30
0.0
 40
1.0
100
AcDbArc
 50
270.0
 51
0.0
  0
ARC
  5
30C
330
5D
100
AcDbEntity
  8
ﾚｲﾔ_1
  6
Continuous
 62
     7
100
AcDbCircle
 10
264.8698915097652
 20
460.8433210943799
 30
0.0
 40
1.0
100
AcDbArc
 50
270.0
 51
0.0
  0
CIRCLE
  5
30D
330
5D
100
AcDbEntity
  8
ﾚｲﾔ_1
  6
Continuous
 62
     7
100
AcDbCircle
 10
261.0198915097651
 20
466.9946369408799
 30
0.0
 40
4.85000000000008
  0
ENDBLK
  5
5F
330
5D
100
AcDbEntity
  8
0
100
AcDbBlockEnd
  0
BLOCK
  5
61
330
60
100
AcDbEntity
  8
0
100
AcDbBlockBegin
  2
CLUMP11
 70
     0
 10
128.4625347393652
 20
374.63401781068
 30
0.0
  3
CLUMP11
  1

  0
LINE
  5
30E
330
60
100
AcDbEntity
  8
ﾚｲﾔ_1
  6
Continuous
 62
     7
100
AcDbLine
 10
417.856358507765
 20
363.4935881231799
 30
0.0
 11
417.8563584654651
 21
357.7935880974798
 31
0.0
  0
LINE
  5
30F
330
60
100
AcDbEntity
  8
ﾚｲﾔ_1
  6
Continuous
 62
     7
100
AcDbLine
 10
415.3882123654651
 20
349.4935881231799
 30
0.0
 11
518.313222066665
 21
349.4935881231799
 31
0.0
  0
LINE
  5
310
330
60
100
AcDbEntity
  8
ﾚｲﾔ_1
  6
Continuous
 62
     7
100
AcDbLine
 10
414.3882124300651
 20
363.4935881231799
 30
0.0
 11
519.3132221302651
 21
363.4935881231799
 31
0.0
  0
LINE
  5
311
330
60
100
AcDbEntity
  8
ﾚｲﾔ_1
  6
Continuous
 62
     7
100
AcDbLine
 10
449.3507177817651
 20
387.4935881231799
 30
0.0
 11
484.3507177817651
 21
387.4935881231799
 31
0.0
  0
LINE
  5
312
330
60
100
AcDbEntity
  8
ﾚｲﾔ_1
  6
Continuous
 62
     7
100
AcDbLine
 10
473.3031222443651
 20
357.7935881231799
 30
0.0
 11
486.7997221104652
 21
357.7935881231799
 31
0.0
  0
LINE
  5
313
330
60
100
AcDbEntity
  8
ﾚｲﾔ_1
  6
Continuous
 62
     7
100
AcDbLine
 10
414.3882123877652
 20
357.7935881231799
 30
0.0
 11
417.8563584654651
 21
357.7935880974798
 31
0.0
  0
LINE
  5
314
330
60
100
AcDbEntity
  8
ﾚｲﾔ_1
  6
Continuous
 62
     7
100
AcDbLine
 10
414.3882123840651
 20
357.2935881268799
 30
0.0
 11
414.3882123654651
 21
350.49358812588
 31
0.0
  0
LINE
  5
315
330
60
100
AcDbEntity
  8
ﾚｲﾔ_1
  6
Continuous
 62
     7
100
AcDbLine
 10
473.3031222443651
 20
357.7935881231799
 30
0.0
 11
486.7997221104652
 21
357.7935881231799
 31
0.0
  0
LINE
  5
316
330
60
100
AcDbEntity
  8
ﾚｲﾔ_1
  6
Continuous
 62
     7
100
AcDbLine
 10
519.313222066665
 20
350.4935881182799
 30
0.0
 11
519.3132221302651
 21
363.4935881231799
 31
0.0
  0
LINE
  5
317
330
60
100
AcDbEntity
  8
ﾚｲﾔ_1
  6
Continuous
 62
     7
100
AcDbLine
 10
484.3507177817651
 20
387.4935881231799
 30
0.0
 11
484.3507176052651
 21
363.4935881231799
 31
0.0
  0
LINE
  5
318
330
60
100
AcDbEntity
  8
ﾚｲﾔ_1
  6
Continuous
 62
     7
100
AcDbLine
 10
485.7815309892651
 20
363.4935881231799
 30
0.0
 11
485.7815309469652
 21
357.7935881231799
 31
0.0
  0
LINE
  5
319
330
60
100
AcDbEntity
  8
ﾚｲﾔ_1
  6
Continuous
 62
     7
100
AcDbLine
 10
486.799722152665
 20
363.4935881231799
 30
0.0
 11
486.7997221104652
 21
357.7935881231799
 31
0.0
  0
LINE
  5
31A
330
60
100
AcDbEntity
  8
ﾚｲﾔ_1
  6
Continuous
 62
     7
100
AcDbLine
 10
460.398313186565
 20
363.4935881231799
 30
0.0
 11
460.398313116965
 21
349.4935881231799
 31
0.0
  0
LINE
  5
31B
330
60
100
AcDbEntity
  8
ﾚｲﾔ_1
  6
Continuous
 62
     7
100
AcDbLine
 10
460.051271810165
 20
363.4935881231799
 30
0.0
 11
460.0512717404652
 21
349.4935881231799
 31
0.0
  0
LINE
  5
31C
330
60
100
AcDbEntity
  8
ﾚｲﾔ_1
  6
Continuous
 62
     7
100
AcDbLine
 10
473.3031222443651
 20
357.7935881231799
 30
0.0
 11
473.3031222169652
 21
349.4935881231799
 31
0.0
  0
LINE
  5
31D
330
60
100
AcDbEntity
  8
ﾚｲﾔ_1
  6
Continuous
 62
     7
100
AcDbLine
 10
473.6501639358651
 20
357.7935881231799
 30
0.0
 11
473.6501639083651
 21
349.4935881231799
 31
0.0
  0
LINE
  5
31E
330
60
100
AcDbEntity
  8
ﾚｲﾔ_1
  6
Continuous
 62
     7
100
AcDbLine
 10
473.3031222443651
 20
357.7935881231799
 30
0.0
 11
473.3031222169652
 21
349.4935881231799
 31
0.0
  0
LINE
  5
31F
330
60
100
AcDbEntity
  8
ﾚｲﾔ_1
  6
Continuous
 62
     7
100
AcDbLine
 10
416.6507175052652
 20
363.4935888807799
 30
0.0
 11
416.6507174629651
 21
357.7935881063799
 31
0.0
  0
LINE
  5
320
330
60
100
AcDbEntity
  8
ﾚｲﾔ_1
  6
Continuous
 62
     7
100
AcDbLine
 10
449.3507177817651
 20
387.4935881231799
 30
0.0
 11
449.3507176052651
 21
363.4935881231799
 31
0.0
  0
LINE
  5
321
330
60
100
AcDbEntity
  8
ﾚｲﾔ_1
  6
Continuous
 62
     7
100
AcDbLine
 10
414.3882124300651
 20
363.4935881231799
 30
0.0
 11
414.3882123840651
 21
357.2935881268799
 31
0.0
  0
ARC
  5
322
330
60
100
AcDbEntity
  8
ﾚｲﾔ_1
  6
Continuous
 62
     7
100
AcDbCircle
 10
415.3882123654651
 20
350.4935881231799
 30
0.0
 40
1.0
100
AcDbArc
 50
179.9999998452946
 51
270.0
  0
ARC
  5
323
330
60
100
AcDbEntity
  8
ﾚｲﾔ_1
  6
Continuous
 62
     7
100
AcDbCircle
 10
518.313222066665
 20
350.4935881231799
 30
0.0
 40
1.0
100
AcDbArc
 50
270.0
 51
359.9999997192497
  0
ENDBLK
  5
62
330
60
100
AcDbEntity
  8
0
100
AcDbBlockEnd
  0
BLOCK
  5
64
330
63
100
AcDbEntity
  8
0
100
AcDbBlockBegin
  2
CLUMP12
 70
     0
 10
435.4625347393651
 20
480.63401781068
 30
0.0
  3
CLUMP12
  1

  0
LINE
  5
324
330
63
100
AcDbEntity
  8
ﾚｲﾔ_1
  6
Continuous
 62
     7
100
AcDbLine
 10
174.6698915099651
 20
416.14463694088
 30
0.0
 11
174.6698915099651
 21
415.64463694088
 31
0.0
  0
LINE
  5
325
330
63
100
AcDbEntity
  8
ﾚｲﾔ_1
  6
Continuous
 62
     7
100
AcDbLine
 10
314.6698915099649
 20
416.14463694088
 30
0.0
 11
174.6698915099651
 21
416.14463694088
 31
0.0
  0
LINE
  5
326
330
63
100
AcDbEntity
  8
ﾚｲﾔ_1
  6
Continuous
 62
     7
100
AcDbLine
 10
314.6698915099649
 20
415.64463694088
 30
0.0
 11
314.6698915099649
 21
416.14463694088
 31
0.0
  0
LINE
  5
327
330
63
100
AcDbEntity
  8
ﾚｲﾔ_1
  6
Continuous
 62
     7
100
AcDbLine
 10
174.6698915099651
 20
415.64463694088
 30
0.0
 11
314.6698915099649
 21
415.64463694088
 31
0.0
  0
ENDBLK
  5
65
330
63
100
AcDbEntity
  8
0
100
AcDbBlockEnd
  0
BLOCK
  5
345
330
33E
100
AcDbEntity
  8
0
100
AcDbBlockBegin
  2
*D11
 70
     1
 10
0.0
 20
0.0
 30
0.0
  3
*D11
  1

  0
LINE
  5
33F
330
33E
100
AcDbEntity
  8
1
  6
Continuous
 62
     2
100
AcDbLine
 10
139.6698915091652
 20
299.6446370353801
 30
0.0
 11
139.6698915091652
 21
264.64463697898
 31
0.0
  0
LINE
  5
340
330
33E
100
AcDbEntity
  8
1
  6
Continuous
 62
     2
100
AcDbLine
 10
211.6698914607651
 20
264.64463697898
 30
0.0
 11
136.6698915091652
 21
264.64463697898
 31
0.0
  0
LINE
  5
341
330
33E
100
AcDbEntity
  8
1
  6
Continuous
 62
     2
100
AcDbLine
 10
194.1698915077651
 20
299.6446370353801
 30
0.0
 11
136.6698915091652
 21
299.6446370353801
 31
0.0
  0
SOLID
  5
342
330
33E
100
AcDbEntity
  8
1
 62
     2
100
AcDbTrace
 10
141.0522427338329
 20
289.1446370353801
 30
0.0
 11
138.2875402844976
 21
289.1446370353801
 31
0.0
 12
139.6698915091652
 22
299.6446370353801
 32
0.0
 13
139.6698915091652
 23
299.6446370353801
 33
0.0
  0
SOLID
  5
343
330
33E
100
AcDbEntity
  8
1
 62
     2
100
AcDbTrace
 10
138.2875402844976
 20
275.14463697898
 30
0.0
 11
141.0522427338329
 21
275.14463697898
 31
0.0
 12
139.6698915091652
 22
264.64463697898
 32
0.0
 13
139.6698915091652
 23
264.64463697898
 33
0.0
  0
MTEXT
  5
344
330
33E
100
AcDbEntity
  8
1
 62
     7
100
AcDbMText
 10
136.6698915091652
 20
274.26963700835
 30
0.0
 40
10.50000000000001
 41
0.0
 71
     7
 72
     1
  1
35
  7
CONVERTER_12
 11
0.0
 21
1.0
 31
0.0
 73
     1
 44
0.60024009603842
  0
ENDBLK
  5
346
330
33E
100
AcDbEntity
  8
0
100
AcDbBlockEnd
  0
BLOCK
  5
350
330
349
100
AcDbEntity
  8
0
100
AcDbBlockBegin
  2
*D12
 70
     1
 10
0.0
 20
0.0
 30
0.0
  3
*D12
  1

  0
LINE
  5
34A
330
349
100
AcDbEntity
  8
1
  6
Continuous
 62
     2
100
AcDbLine
 10
139.6698915091652
 20
408.64463694088
 30
0.0
 11
139.6698915091652
 21
299.64463703538
 31
0.0
  0
LINE
  5
34B
330
349
100
AcDbEntity
  8
1
  6
Continuous
 62
     2
100
AcDbLine
 10
194.1698915077651
 20
299.64463703538
 30
0.0
 11
136.6698915091652
 21
299.64463703538
 31
0.0
  0
LINE
  5
34C
330
349
100
AcDbEntity
  8
1
  6
Continuous
 62
     2
100
AcDbLine
 10
170.1698915091652
 20
408.64463694088
 30
0.0
 11
136.6698915091652
 21
408.64463694088
 31
0.0
  0
SOLID
  5
34D
330
349
100
AcDbEntity
  8
1
 62
     2
100
AcDbTrace
 10
141.0522427338329
 20
398.14463694088
 30
0.0
 11
138.2875402844976
 21
398.14463694088
 31
0.0
 12
139.6698915091652
 22
408.64463694088
 32
0.0
 13
139.6698915091652
 23
408.64463694088
 33
0.0
  0
SOLID
  5
34E
330
349
100
AcDbEntity
  8
1
 62
     2
100
AcDbTrace
 10
138.2875402844976
 20
310.14463703538
 30
0.0
 11
141.0522427338329
 21
310.14463703538
 31
0.0
 12
139.6698915091652
 22
299.64463703538
 32
0.0
 13
139.6698915091652
 23
299.64463703538
 33
0.0
  0
MTEXT
  5
34F
330
349
100
AcDbEntity
  8
1
 62
     7
100
AcDbMText
 10
136.6698915091652
 20
343.11963698813
 30
0.0
 40
10.50000000000001
 41
0.0
 71
     7
 72
     1
  1
109
  7
CONVERTER_12
 11
0.0
 21
1.0
 31
0.0
 73
     1
 44
0.60024009603842
  0
ENDBLK
  5
351
330
349
100
AcDbEntity
  8
0
100
AcDbBlockEnd
  0
BLOCK
  5
35B
330
354
100
AcDbEntity
  8
0
100
AcDbBlockBegin
  2
*D13
 70
     1
 10
0.0
 20
0.0
 30
0.0
  3
*D13
  1

  0
LINE
  5
355
330
354
100
AcDbEntity
  8
1
  6
Continuous
 62
     2
100
AcDbLine
 10
115.6698915091652
 20
421.14463694088
 30
0.0
 11
115.6698915091652
 21
264.6446369813199
 31
0.0
  0
LINE
  5
356
330
354
100
AcDbEntity
  8
1
  6
Continuous
 62
     2
100
AcDbLine
 10
214.36989149653
 20
264.6446369813199
 30
0.0
 11
112.6698915091652
 21
264.6446369813199
 31
0.0
  0
LINE
  5
357
330
354
100
AcDbEntity
  8
1
  6
Continuous
 62
     2
100
AcDbLine
 10
174.1437235318652
 20
421.14463694088
 30
0.0
 11
112.6698915091652
 21
421.14463694088
 31
0.0
  0
SOLID
  5
358
330
354
100
AcDbEntity
  8
1
 62
     2
100
AcDbTrace
 10
117.0522427338329
 20
410.64463694088
 30
0.0
 11
114.2875402844975
 21
410.64463694088
 31
0.0
 12
115.6698915091652
 22
421.14463694088
 32
0.0
 13
115.6698915091652
 23
421.14463694088
 33
0.0
  0
SOLID
  5
359
330
354
100
AcDbEntity
  8
1
 62
     2
100
AcDbTrace
 10
114.2875402844975
 20
275.1446369813199
 30
0.0
 11
117.0522427338329
 21
275.1446369813199
 31
0.0
 12
115.6698915091652
 22
264.6446369813199
 32
0.0
 13
115.6698915091652
 23
264.6446369813199
 33
0.0
  0
MTEXT
  5
35A
330
354
100
AcDbEntity
  8
1
 62
     7
100
AcDbMText
 10
112.6698915091652
 20
331.8696369610886
 30
0.0
 40
10.50000000000001
 41
0.0
 71
     7
 72
     1
  1
157
  7
CONVERTER_12
 11
0.0
 21
1.0
 31
0.0
 73
     1
 44
0.60024009603842
  0
ENDBLK
  5
35C
330
354
100
AcDbEntity
  8
0
100
AcDbBlockEnd
  0
BLOCK
  5
367
330
35F
100
AcDbEntity
  8
0
100
AcDbBlockBegin
  2
*D14
 70
     1
 10
0.0
 20
0.0
 30
0.0
  3
*D14
  1

  0
LINE
  5
360
330
35F
100
AcDbEntity
  8
1
  6
Continuous
 62
     2
100
AcDbLine
 10
348.669891509765
 20
461.6446369408799
 30
0.0
 11
348.669891509765
 21
427.64463694088
 31
0.0
  0
LINE
  5
361
330
35F
100
AcDbEntity
  8
1
  6
Continuous
 62
     2
100
AcDbLine
 10
348.669891509765
 20
427.64463694088
 30
0.0
 11
348.669891509765
 21
374.737869425058
 31
0.0
  0
LINE
  5
362
330
35F
100
AcDbEntity
  8
1
  6
Continuous
 62
     2
100
AcDbLine
 10
294.6698915097651
 20
427.64463694088
 30
0.0
 11
351.669891509765
 21
427.64463694088
 31
0.0
  0
LINE
  5
363
330
35F
100
AcDbEntity
  8
1
  6
Continuous
 62
     2
100
AcDbLine
 10
294.6698915097651
 20
461.6446369408799
 30
0.0
 11
351.669891509765
 21
461.6446369408799
 31
0.0
  0
SOLID
  5
364
330
35F
100
AcDbEntity
  8
1
 62
     2
100
AcDbTrace
 10
350.0522427344327
 20
451.1446369408799
 30
0.0
 11
347.2875402850974
 21
451.1446369408799
 31
0.0
 12
348.669891509765
 22
461.6446369408799
 32
0.0
 13
348.669891509765
 23
461.6446369408799
 33
0.0
  0
SOLID
  5
365
330
35F
100
AcDbEntity
  8
1
 62
     2
100
AcDbTrace
 10
347.2875402850974
 20
438.14463694088
 30
0.0
 11
350.0522427344327
 21
438.14463694088
 31
0.0
 12
348.669891509765
 22
427.64463694088
 32
0.0
 13
348.669891509765
 23
427.64463694088
 33
0.0
  0
MTEXT
  5
366
330
35F
100
AcDbEntity
  8
1
 62
     7
100
AcDbMText
 10
345.669891509765
 20
382.507869425058
 30
0.0
 40
10.5
 41
0.0
 71
     7
 72
     1
  1
\C7;内径{\Fgdt;n}\C7;34
  7
CONVERTER_11
 11
0.0
 21
1.0
 31
0.0
 73
     1
 44
0.45454545454545
  0
ENDBLK
  5
368
330
35F
100
AcDbEntity
  8
0
100
AcDbBlockEnd
  0
BLOCK
  5
374
330
36B
100
AcDbEntity
  8
0
100
AcDbBlockBegin
  2
*D15
 70
     1
 10
0.0
 20
0.0
 30
0.0
  3
*D15
  1

  0
LINE
  5
36C
330
36B
100
AcDbEntity
  8
1
  6
Continuous
 62
     2
100
AcDbLine
 10
573.3132221889729
 20
408.49358812318
 30
0.0
 11
573.3132221889729
 21
387.49358812318
 31
0.0
  0
LINE
  5
36D
330
36B
100
AcDbEntity
  8
1
  6
Continuous
 62
     2
100
AcDbLine
 10
573.3132221889729
 20
387.49358812318
 30
0.0
 11
573.3132221889729
 21
363.49358812318
 31
0.0
  0
LINE
  5
36E
330
36B
100
AcDbEntity
  8
1
  6
Continuous
 62
     2
100
AcDbLine
 10
573.3132221889729
 20
363.49358812318
 30
0.0
 11
573.3132221889729
 21
342.49358812318
 31
0.0
  0
LINE
  5
36F
330
36B
100
AcDbEntity
  8
1
  6
Continuous
 62
     2
100
AcDbLine
 10
519.3132221302651
 20
363.49358812318
 30
0.0
 11
576.3132221889729
 21
363.49358812318
 31
0.0
  0
LINE
  5
370
330
36B
100
AcDbEntity
  8
1
  6
Continuous
 62
     2
100
AcDbLine
 10
484.3507177817651
 20
387.49358812318
 30
0.0
 11
576.3132221889729
 21
387.49358812318
 31
0.0
  0
SOLID
  5
371
330
36B
100
AcDbEntity
  8
1
 62
     2
100
AcDbTrace
 10
571.9308709643052
 20
397.99358812318
 30
0.0
 11
574.6955734136405
 21
397.99358812318
 31
0.0
 12
573.3132221889729
 22
387.49358812318
 32
0.0
 13
573.3132221889729
 23
387.49358812318
 33
0.0
  0
SOLID
  5
372
330
36B
100
AcDbEntity
  8
1
 62
     2
100
AcDbTrace
 10
574.6955734136405
 20
352.99358812318
 30
0.0
 11
571.9308709643052
 21
352.99358812318
 31
0.0
 12
573.3132221889729
 22
363.49358812318
 32
0.0
 13
573.3132221889729
 23
363.49358812318
 33
0.0
  0
MTEXT
  5
373
330
36B
100
AcDbEntity
  8
1
 62
     7
100
AcDbMText
 10
570.3132221889729
 20
367.6185881231799
 30
0.0
 40
10.5
 41
0.0
 71
     7
 72
     1
  1
24
  7
CONVERTER_12
 11
0.0
 21
1.0
 31
0.0
 73
     1
 44
0.60024009603842
  0
ENDBLK
  5
375
330
36B
100
AcDbEntity
  8
0
100
AcDbBlockEnd
  0
BLOCK
  5
381
330
378
100
AcDbEntity
  8
0
100
AcDbBlockBegin
  2
*D16
 70
     1
 10
0.0
 20
0.0
 30
0.0
  3
*D16
  1

  0
LINE
  5
379
330
378
100
AcDbEntity
  8
1
  6
Continuous
 62
     2
100
AcDbLine
 10
549.3132219628927
 20
322.9822774716639
 30
0.0
 11
549.3132219628927
 21
349.49358812318
 31
0.0
  0
LINE
  5
37A
330
378
100
AcDbEntity
  8
1
  6
Continuous
 62
     2
100
AcDbLine
 10
549.3132219628927
 20
349.49358812318
 30
0.0
 11
549.3132219628927
 21
363.49358812318
 31
0.0
  0
LINE
  5
37B
330
378
100
AcDbEntity
  8
1
  6
Continuous
 62
     2
100
AcDbLine
 10
549.3132219628927
 20
363.49358812318
 30
0.0
 11
549.3132219628927
 21
384.49358812318
 31
0.0
  0
LINE
  5
37C
330
378
100
AcDbEntity
  8
1
  6
Continuous
 62
     2
100
AcDbLine
 10
519.3132221302651
 20
363.49358812318
 30
0.0
 11
552.3132219628927
 21
363.49358812318
 31
0.0
  0
LINE
  5
37D
330
378
100
AcDbEntity
  8
1
  6
Continuous
 62
     2
100
AcDbLine
 10
518.313222066665
 20
349.49358812318
 30
0.0
 11
552.3132219628927
 21
349.49358812318
 31
0.0
  0
SOLID
  5
37E
330
378
100
AcDbEntity
  8
1
 62
     2
100
AcDbTrace
 10
550.6955731875604
 20
338.99358812318
 30
0.0
 11
547.930870738225
 21
338.99358812318
 31
0.0
 12
549.3132219628927
 22
349.49358812318
 32
0.0
 13
549.3132219628927
 23
349.49358812318
 33
0.0
  0
SOLID
  5
37F
330
378
100
AcDbEntity
  8
1
 62
     2
100
AcDbTrace
 10
547.930870738225
 20
373.99358812318
 30
0.0
 11
550.6955731875604
 21
373.99358812318
 31
0.0
 12
549.3132219628927
 22
363.49358812318
 32
0.0
 13
549.3132219628927
 23
363.49358812318
 33
0.0
  0
MTEXT
  5
380
330
378
100
AcDbEntity
  8
1
 62
     7
100
AcDbMText
 10
546.3132219628927
 20
322.9822774716639
 30
0.0
 40
10.5
 41
0.0
 71
     7
 72
     1
  1
14
  7
CONVERTER_12
 11
0.0
 21
1.0
 31
0.0
 73
     1
 44
0.60024009603842
  0
ENDBLK
  5
382
330
378
100
AcDbEntity
  8
0
100
AcDbBlockEnd
  0
BLOCK
  5
38C
330
385
100
AcDbEntity
  8
0
100
AcDbBlockBegin
  2
*D17
 70
     1
 10
0.0
 20
0.0
 30
0.0
  3
*D17
  1

  0
LINE
  5
386
330
385
100
AcDbEntity
  8
1
  6
Continuous
 62
     2
100
AcDbLine
 10
187.1698915077651
 20
210.64463700758
 30
0.0
 11
301.423287382014
 21
210.64463700758
 31
0.0
  0
LINE
  5
387
330
385
100
AcDbEntity
  8
1
  6
Continuous
 62
     2
100
AcDbLine
 10
301.423287382014
 20
306.583551286891
 30
0.0
 11
301.423287382014
 21
207.64463700758
 31
0.0
  0
LINE
  5
388
330
385
100
AcDbEntity
  8
1
  6
Continuous
 62
     2
100
AcDbLine
 10
187.1698915077651
 20
306.64463703538
 30
0.0
 11
187.1698915077651
 21
207.64463700758
 31
0.0
  0
SOLID
  5
389
330
385
100
AcDbEntity
  8
1
 62
     2
100
AcDbTrace
 10
197.6698915077651
 20
212.0269882322476
 30
0.0
 11
197.6698915077651
 21
209.2622857829124
 31
0.0
 12
187.1698915077651
 22
210.64463700758
 32
0.0
 13
187.1698915077651
 23
210.64463700758
 33
0.0
  0
SOLID
  5
38A
330
385
100
AcDbEntity
  8
1
 62
     2
100
AcDbTrace
 10
290.923287382014
 20
209.2622857829124
 30
0.0
 11
290.923287382014
 21
212.0269882322476
 31
0.0
 12
301.423287382014
 22
210.64463700758
 32
0.0
 13
301.423287382014
 23
210.64463700758
 33
0.0
  0
MTEXT
  5
38B
330
385
100
AcDbEntity
  8
1
 62
     7
100
AcDbMText
 10
232.9098914965553
 20
213.644616136351
 30
0.0
 40
10.5
 41
0.0
 71
     7
 72
     1
  1
\C7;{\Fgdt;n}\C7;115
  7
CONVERTER_12
 11
0.9999999999970619
 21
2.424068405545306E-6
 31
0.0
 73
     1
 44
0.60024009603842
  0
ENDBLK
  5
38D
330
385
100
AcDbEntity
  8
0
100
AcDbBlockEnd
  0
BLOCK
  5
397
330
390
100
AcDbEntity
  8
0
100
AcDbBlockBegin
  2
*D18
 70
     1
 10
0.0
 20
0.0
 30
0.0
  3
*D18
  1

  0
LINE
  5
391
330
390
100
AcDbEntity
  8
1
  6
Continuous
 62
     2
100
AcDbLine
 10
214.36989149653
 20
234.64463700758
 30
0.0
 11
274.9698914965301
 21
234.64463700758
 31
0.0
  0
LINE
  5
392
330
390
100
AcDbEntity
  8
1
  6
Continuous
 62
     2
100
AcDbLine
 10
274.9698914965301
 20
264.64463703384
 30
0.0
 11
274.9698914965301
 21
231.64463700758
 31
0.0
  0
LINE
  5
393
330
390
100
AcDbEntity
  8
1
  6
Continuous
 62
     2
100
AcDbLine
 10
214.36989149653
 20
264.64463698132
 30
0.0
 11
214.36989149653
 21
231.64463700758
 31
0.0
  0
SOLID
  5
394
330
390
100
AcDbEntity
  8
1
 62
     2
100
AcDbTrace
 10
224.86989149653
 20
236.0269882322476
 30
0.0
 11
224.86989149653
 21
233.2622857829124
 31
0.0
 12
214.36989149653
 22
234.64463700758
 32
0.0
 13
214.36989149653
 23
234.64463700758
 33
0.0
  0
SOLID
  5
395
330
390
100
AcDbEntity
  8
1
 62
     2
100
AcDbTrace
 10
264.4698914965301
 20
233.2622857829124
 30
0.0
 11
264.4698914965301
 21
236.0269882322476
 31
0.0
 12
274.9698914965301
 22
234.64463700758
 32
0.0
 13
274.9698914965301
 23
234.64463700758
 33
0.0
  0
MTEXT
  5
396
330
390
100
AcDbEntity
  8
1
 62
     7
100
AcDbMText
 10
229.3398914966059
 20
237.6445743938931
 30
0.0
 40
10.5
 41
0.0
 71
     7
 72
     1
  1
\C7;内径{\Fgdt;n}\C7;61
  7
CONVERTER_11
 11
0.9999999999970619
 21
2.424068405545306E-6
 31
0.0
 73
     1
 44
0.45454545454545
  0
ENDBLK
  5
398
330
390
100
AcDbEntity
  8
0
100
AcDbBlockEnd
  0
BLOCK
  5
3A2
330
39B
100
AcDbEntity
  8
0
100
AcDbBlockBegin
  2
*D19
 70
     1
 10
0.0
 20
0.0
 30
0.0
  3
*D19
  1

  0
LINE
  5
39C
330
39B
100
AcDbEntity
  8
1
  6
Continuous
 62
     2
100
AcDbLine
 10
173.6698915100651
 20
504.1446369408801
 30
0.0
 11
315.6698915042419
 21
504.1446369408801
 31
0.0
  0
LINE
  5
39D
330
39B
100
AcDbEntity
  8
1
  6
Continuous
 62
     2
100
AcDbLine
 10
315.6698915042419
 20
420.6453221734799
 30
0.0
 11
315.6698915042419
 21
507.1446369408801
 31
0.0
  0
LINE
  5
39E
330
39B
100
AcDbEntity
  8
1
  6
Continuous
 62
     2
100
AcDbLine
 10
173.6698915100651
 20
420.6453221734799
 30
0.0
 11
173.6698915100651
 21
507.1446369408801
 31
0.0
  0
SOLID
  5
39F
330
39B
100
AcDbEntity
  8
1
 62
     2
100
AcDbTrace
 10
184.1698915100651
 20
505.5269881655478
 30
0.0
 11
184.1698915100651
 21
502.7622857162124
 31
0.0
 12
173.6698915100651
 22
504.1446369408801
 32
0.0
 13
173.6698915100651
 23
504.1446369408801
 33
0.0
  0
SOLID
  5
3A0
330
39B
100
AcDbEntity
  8
1
 62
     2
100
AcDbTrace
 10
305.1698915042419
 20
502.7622857162124
 30
0.0
 11
305.1698915042419
 21
505.5269881655478
 31
0.0
 12
315.6698915042419
 22
504.1446369408801
 32
0.0
 13
315.6698915042419
 23
504.1446369408801
 33
0.0
  0
MTEXT
  5
3A1
330
39B
100
AcDbEntity
  8
1
 62
     7
100
AcDbMText
 10
231.3348914965553
 20
507.1446160696511
 30
0.0
 40
10.5
 41
0.0
 71
     7
 72
     1
  1
\C7;{\Fgdt;n}\C7;142
  7
CONVERTER_12
 11
0.9999999999970619
 21
2.424068405545306E-6
 31
0.0
 73
     1
 44
0.60024009603842
  0
ENDBLK
  5
3A3
330
39B
100
AcDbEntity
  8
0
100
AcDbBlockEnd
  0
BLOCK
  5
3AD
330
3A6
100
AcDbEntity
  8
0
100
AcDbBlockBegin
  2
*D20
 70
     1
 10
0.0
 20
0.0
 30
0.0
  3
*D20
  1

  0
LINE
  5
3A7
330
3A6
100
AcDbEntity
  8
1
  6
Continuous
 62
     2
100
AcDbLine
 10
169.6698915091652
 20
528.1446369408801
 30
0.0
 11
319.6698915051418
 21
528.1446369408801
 31
0.0
  0
LINE
  5
3A8
330
3A6
100
AcDbEntity
  8
1
  6
Continuous
 62
     2
100
AcDbLine
 10
319.6698915051418
 20
408.14463694088
 30
0.0
 11
319.6698915051418
 21
531.1446369408801
 31
0.0
  0
LINE
  5
3A9
330
3A6
100
AcDbEntity
  8
1
  6
Continuous
 62
     2
100
AcDbLine
 10
169.6698915091652
 20
408.14463694088
 30
0.0
 11
169.6698915091652
 21
531.1446369408801
 31
0.0
  0
SOLID
  5
3AA
330
3A6
100
AcDbEntity
  8
1
 62
     2
100
AcDbTrace
 10
180.1698915091652
 20
529.5269881655478
 30
0.0
 11
180.1698915091652
 21
526.7622857162124
 31
0.0
 12
169.6698915091652
 22
528.1446369408801
 32
0.0
 13
169.6698915091652
 23
528.1446369408801
 33
0.0
  0
SOLID
  5
3AB
330
3A6
100
AcDbEntity
  8
1
 62
     2
100
AcDbTrace
 10
309.1698915051418
 20
526.7622857162124
 30
0.0
 11
309.1698915051418
 21
529.5269881655478
 31
0.0
 12
319.6698915051418
 22
528.1446369408801
 32
0.0
 13
319.6698915051418
 23
528.1446369408801
 33
0.0
  0
MTEXT
  5
3AC
330
3A6
100
AcDbEntity
  8
1
 62
     7
100
AcDbMText
 10
231.3348914965553
 20
531.1446160696511
 30
0.0
 40
10.5
 41
0.0
 71
     7
 72
     1
  1
\C7;{\Fgdt;n}\C7;150
  7
CONVERTER_12
 11
0.9999999999970619
 21
2.424068405545306E-6
 31
0.0
 73
     1
 44
0.60024009603842
  0
ENDBLK
  5
3AE
330
3A6
100
AcDbEntity
  8
0
100
AcDbBlockEnd
  0
BLOCK
  5
3B5
330
3B1
100
AcDbEntity
  8
0
100
AcDbBlockBegin
  2
*D21
 70
     1
 10
0.0
 20
0.0
 30
0.0
  3
*D21
  1

  0
LINE
  5
3B2
330
3B1
100
AcDbEntity
  8
1
  6
Continuous
 62
     2
100
AcDbLine
 10
429.6853709370867
 20
434.2481200691548
 30
0.0
 11
536.5684982747106
 21
542.5107068027339
 31
0.0
  0
SOLID
  5
3B3
330
3B1
100
AcDbEntity
  8
1
 62
     2
100
AcDbTrace
 10
436.078518739883
 20
442.6913751334022
 30
0.0
 11
438.0459527243764
 21
440.7490097841384
 31
0.0
 12
429.6853709370867
 22
434.2481200691548
 32
0.0
 13
429.6853709370867
 23
434.2481200691548
 33
0.0
  0
MTEXT
  5
3B4
330
3B1
100
AcDbEntity
  8
1
 62
     7
100
AcDbMText
 10
512.8931752475806
 20
522.799931080783
 30
0.0
 40
10.5
 41
0.0
 71
     7
 72
     1
  1
\C7;{\Fgdt;n}\C7;106
  7
CONVERTER_12
 11
0.7025585519088544
 21
0.7116259418681514
 31
0.0
 73
     1
 44
0.60024009603842
  0
ENDBLK
  5
3B6
330
3B1
100
AcDbEntity
  8
0
100
AcDbBlockEnd
  0
ENDSEC
  0
SECTION
  2
ENTITIES
  0
INSERT
  5
66
330
1F
100
AcDbEntity
  8
0
100
AcDbBlockReference
  2
TOP
 10
1085.462534739365
 20
154.63401781068
 30
0.0
  0
INSERT
  5
67
330
1F
100
AcDbEntity
  8
1
100
AcDbBlockReference
  2
開示A4
 10
0.0
 20
0.0
 30
0.0
 41
3.0
 42
3.0
 43
3.0
  0
INSERT
  5
68
330
1F
100
AcDbEntity
  8
ﾚｲﾔ_1
100
AcDbBlockReference
  2
CLUMP1
 10
435.4625347393651
 20
480.63401781068
 30
0.0
  0
INSERT
  5
69
330
1F
100
AcDbEntity
  8
ﾚｲﾔ_1
100
AcDbBlockReference
  2
CLUMP4
 10
128.4625347393652
 20
374.63401781068
 30
0.0
  0
INSERT
  5
6A
330
1F
100
AcDbEntity
  8
ﾚｲﾔ_1
100
AcDbBlockReference
  2
CLUMP7
 10
435.4625347393651
 20
480.63401781068
 30
0.0
  0
INSERT
  5
6B
330
1F
100
AcDbEntity
  8
ﾚｲﾔ_1
100
AcDbBlockReference
  2
CLUMP8
 10
435.4625347393651
 20
480.63401781068
 30
0.0
  0
INSERT
  5
6C
330
1F
100
AcDbEntity
  8
ﾚｲﾔ_1
100
AcDbBlockReference
  2
CLUMP9
 10
435.4625347393651
 20
480.63401781068
 30
0.0
  0
INSERT
  5
6D
330
1F
100
AcDbEntity
  8
ﾚｲﾔ_1
100
AcDbBlockReference
  2
CLUMP10
 10
435.4625347393651
 20
480.63401781068
 30
0.0
  0
INSERT
  5
6E
330
1F
100
AcDbEntity
  8
ﾚｲﾔ_1
100
AcDbBlockReference
  2
CLUMP11
 10
128.4625347393652
 20
374.63401781068
 30
0.0
  0
INSERT
  5
6F
330
1F
100
AcDbEntity
  8
ﾚｲﾔ_1
100
AcDbBlockReference
  2
CLUMP12
 10
435.4625347393651
 20
480.63401781068
 30
0.0
  0
LINE
  5
328
330
1F
100
AcDbEntity
  8
1
  6
Continuous
 62
     2
100
AcDbLine
 10
443.0
 20
274.3441689402499
 30
0.0
 11
492.0
 21
274.3441689402499
 31
0.0
  0
LINE
  5
329
330
1F
100
AcDbEntity
  8
1
  6
DASH_CENTER
 62
     2
100
AcDbLine
 10
360.8426454164651
 20
717.98673136838
 30
0.0
 11
594.3433305982651
 21
717.98673136838
 31
0.0
  0
LINE
  5
32A
330
1F
100
AcDbEntity
  8
1
  6
DASH_CENTER
 62
     2
100
AcDbLine
 10
402.3426454164651
 20
686.48673136838
 30
0.0
 11
402.3426454164651
 21
749.48673136838
 31
0.0
  0
LINE
  5
32B
330
1F
100
AcDbEntity
  8
1
  6
DASH_CENTER
 62
     2
100
AcDbLine
 10
244.6698915101652
 20
804.9867313523799
 30
0.0
 11
244.6698915101652
 21
630.9867313523799
 31
0.0
  0
LINE
  5
32C
330
1F
100
AcDbEntity
  8
1
  6
DASH_CENTER
 62
     2
100
AcDbLine
 10
157.6698915101652
 20
717.9867313523799
 30
0.0
 11
331.6698915101651
 21
717.9867313523799
 31
0.0
  0
LINE
  5
32D
330
1F
100
AcDbEntity
  8
1
  6
DASH_CENTER
 62
     2
100
AcDbLine
 10
404.6507183330648
 20
471.8931323939799
 30
0.0
 11
529.0507183330653
 21
471.8931323939799
 31
0.0
  0
LINE
  5
32E
330
1F
100
AcDbEntity
  8
1
  6
DASH_CENTER
 62
     2
100
AcDbLine
 10
466.8507183331651
 20
409.6931323939801
 30
0.0
 11
466.8507183331651
 21
534.0931323939799
 31
0.0
  0
LINE
  5
32F
330
1F
100
AcDbEntity
  8
1
  6
DASH_CENTER
 62
     2
100
AcDbLine
 10
466.8507183331651
 20
399.4935881231799
 30
0.0
 11
466.8507183331651
 21
337.4935881231799
 31
0.0
  0
LINE
  5
330
330
1F
100
AcDbEntity
  8
1
  6
DASH_CENTER
 62
     2
100
AcDbLine
 10
244.6698914957333
 20
255.64463700758
 30
0.0
 11
244.6698915124651
 21
444.64463694088
 31
0.0
  0
LINE
  5
331
330
1F
100
AcDbEntity
  8
1
  6
DASH_CENTER
 62
     2
100
AcDbLine
 10
244.6698915124651
 20
444.64463694088
 30
0.0
 11
303.669891509765
 21
444.64463694088
 31
0.0
  0
SOLID
  5
332
330
1F
100
AcDbEntity
  8
1
 62
     2
100
AcDbTrace
 10
497.8095157803686
 20
500.8969899912952
 30
0.0
 11
495.8545759304805
 21
502.8519298411833
 31
0.0
 12
504.2566670578833
 22
509.299081118698
 32
0.0
 13
504.2566670578833
 23
509.299081118698
 33
0.0
  0
LEADER
  5
333
330
1F
100
AcDbEntity
  8
1
  6
Continuous
 62
     2
100
AcDbLeader
  3
Standard
 71
     0
 76
     2
 10
504.2566670578833
 20
509.299081118698
 30
0.0
 10
466.8507183331651
 20
471.8931323939798
 30
0.0
  0
SOLID
  5
334
330
1F
100
AcDbEntity
  8
1
 62
     2
100
AcDbTrace
 10
285.8170427473361
 20
270.2425458416272
 30
0.0
 11
283.4227401923067
 21
268.8601946169596
 31
0.0
 12
279.3698914698213
 22
278.64463696903
 32
0.0
 13
279.3698914698213
 23
278.64463696903
 33
0.0
  0
LEADER
  5
335
330
1F
100
AcDbEntity
  8
1
  6
Continuous
 62
     2
100
AcDbLeader
  3
Standard
 71
     0
 76
     3
 10
279.3698914698213
 20
278.64463696903
 30
0.0
 10
318.6297097919681
 20
210.6446369391481
 30
0.0
 10
440.3397829974865
 20
210.6446369159993
 30
0.0
  0
MTEXT
  5
336
330
1F
100
AcDbEntity
  8
1
 62
     7
100
AcDbMText
 10
466.5
 20
283.3441689402499
 30
0.0
 40
10.5
 41
0.0
 71
     5
 72
     1
  1
締付治具
  7
CONVERTER_11
 73
     1
 44
0.54545454545455
  0
MTEXT
  5
338
330
1F
100
AcDbEntity
  8
1
 62
     7
100
AcDbMText
 10
171.0
 20
42.75
 30
0.0
 40
10.5
 41
0.0
 71
     5
 72
     1
  1
H5552-50
  7
CONVERTER_12
 73
     1
 44
0.7202881152461
  0
MTEXT
  5
339
330
1F
100
AcDbEntity
  8
1
 62
     7
100
AcDbMText
 10
171.0
 20
68.25000000000003
 30
0.0
 40
10.5
 41
0.0
 71
     5
 72
     1
  1
洗濯機排水トラップ
  7
CONVERTER_11
 73
     1
 44
0.54545454545455
  0
MTEXT
  5
33A
330
1F
100
AcDbEntity
  8
1
 62
     7
100
AcDbMText
 10
255.75
 20
51.0
 30
0.0
 40
10.5
 41
0.0
 71
     5
 72
     1
  1
1
  7
CONVERTER_12
 73
     1
 44
0.7202881152461
  0
MTEXT
  5
33B
330
1F
100
AcDbEntity
  8
1
 62
     7
100
AcDbMText
 10
281.25
 20
51.0
 30
0.0
 40
10.5
 41
0.0
 71
     5
 72
     1
  1
3
  7
CONVERTER_12
 73
     1
 44
0.7202881152461
  0
MTEXT
  5
33C
330
1F
100
AcDbEntity
  8
1
 62
     7
100
AcDbMText
 10
386.1143612389494
 20
219.644636925728
 30
0.0
 40
10.5
 41
0.0
 71
     5
 72
     1
  1
H645-600取付ねじ
  7
CONVERTER_11
 73
     1
 44
0.54545454545455
  0
MTEXT
  5
33D
330
1F
100
AcDbEntity
  8
1
 62
     7
100
AcDbMText
 10
102.0
 20
102.0
 30
0.0
 40
10.5
 41
0.0
 71
     4
 72
     1
  1
VP・VUパイプ兼用
  7
CONVERTER_11
 73
     1
 44
0.54545454545455
  0
DIMENSION
  5
348
330
1F
100
AcDbEntity
  8
1
100
AcDbDimension
  2
*D11
 10
139.6698915091652
 20
299.6446370353801
 30
0.0
 11
131.4198915091652
 21
282.14463700835
 31
0.0
 70
    32
  1
<>
 71
     5
 42
-1.0
 53
90.0
  3
ME10_DIM_10
100
AcDbAlignedDimension
 13
211.6698914607651
 23
264.64463697898
 33
0.0
 14
194.1698915077651
 24
299.64463703538
 34
0.0
 50
90.0
100
AcDbRotatedDimension
  0
DIMENSION
  5
353
330
1F
100
AcDbEntity
  8
1
100
AcDbDimension
  2
*D12
 10
139.6698915091652
 20
408.64463694088
 30
0.0
 11
131.4198915091652
 21
354.14463698813
 31
0.0
 70
    32
  1
<>
 71
     5
 42
-1.0
 53
90.0
  3
ME10_DIM_11
100
AcDbAlignedDimension
 13
194.1698915077651
 23
299.64463703538
 33
0.0
 14
170.1698915091652
 24
408.64463694088
 34
0.0
 50
90.0
100
AcDbRotatedDimension
  0
DIMENSION
  5
35E
330
1F
100
AcDbEntity
  8
1
100
AcDbDimension
  2
*D13
 10
115.6698915091652
 20
421.14463694088
 30
0.0
 11
107.4198915091652
 21
342.8946369610886
 31
0.0
 70
    32
  1
157
 71
     5
 42
-1.0
 53
90.0
  3
ME10_DIM_12
100
AcDbAlignedDimension
 13
214.36989149653
 23
264.6446369813199
 33
0.0
 14
174.1437235318652
 24
421.1446369408799
 34
0.0
 50
90.0
100
AcDbRotatedDimension
  0
DIMENSION
  5
36A
330
1F
100
AcDbEntity
  8
1
100
AcDbDimension
  2
*D14
 10
348.669891509765
 20
461.6446369408799
 30
0.0
 11
340.419891509765
 21
399.412869425058
 31
0.0
 70
    32
  1
<>
 71
     5
 42
-1.0
 53
90.0
  3
ME10_DIM_13
100
AcDbAlignedDimension
 13
294.669891509765
 23
427.64463694088
 33
0.0
 14
294.669891509765
 24
461.6446369408799
 34
0.0
 50
90.0
100
AcDbRotatedDimension
  0
DIMENSION
  5
377
330
1F
100
AcDbEntity
  8
1
100
AcDbDimension
  2
*D15
 10
573.3132221889729
 20
387.49358812318
 30
0.0
 11
565.0632221889729
 21
375.4935881231799
 31
0.0
 70
    32
  1
<>
 71
     5
 42
-1.0
 53
90.0
  3
ME10_DIM_14
100
AcDbAlignedDimension
 13
519.3132221302651
 23
363.4935881231799
 33
0.0
 14
484.3507177817651
 24
387.4935881231798
 34
0.0
 50
90.0
100
AcDbRotatedDimension
  0
DIMENSION
  5
384
330
1F
100
AcDbEntity
  8
1
100
AcDbDimension
  2
*D16
 10
549.3132219628927
 20
349.49358812318
 30
0.0
 11
541.0632219628927
 21
329.2822774716639
 31
0.0
 70
    32
  1
<>
 71
     5
 42
-1.0
 53
90.0
  3
ME10_DIM_15
100
AcDbAlignedDimension
 13
519.3132221302651
 23
363.4935881231799
 33
0.0
 14
518.313222066665
 24
349.4935881231798
 34
0.0
 50
90.0
100
AcDbRotatedDimension
  0
DIMENSION
  5
38F
330
1F
100
AcDbEntity
  8
1
100
AcDbDimension
  2
*D17
 10
187.1698915077651
 20
210.64463700758
 30
0.0
 11
244.66989149653
 21
218.89463700758
 31
0.0
 70
    32
  1
{\Fgdt;n}115
 71
     5
 42
-1.0
 53
0.00013888888889
  3
ME10_DIM_16
100
AcDbAlignedDimension
 13
301.423287382014
 23
306.583551286891
 33
0.0
 14
187.1698915077651
 24
306.64463703538
 34
0.0
100
AcDbRotatedDimension
  0
DIMENSION
  5
39A
330
1F
100
AcDbEntity
  8
1
100
AcDbDimension
  2
*D18
 10
214.36989149653
 20
234.64463700758
 30
0.0
 11
244.66989149653
 21
242.89463700758
 31
0.0
 70
    32
  1
内径{\Fgdt;n}61
 71
     5
 42
-1.0
 53
0.00013888888889
  3
ME10_DIM_17
100
AcDbAlignedDimension
 13
274.9698914965301
 23
264.64463703384
 33
0.0
 14
214.36989149653
 24
264.6446369813199
 34
0.0
100
AcDbRotatedDimension
  0
DIMENSION
  5
3A5
330
1F
100
AcDbEntity
  8
1
100
AcDbDimension
  2
*D19
 10
173.6698915100651
 20
504.1446369408801
 30
0.0
 11
244.66989149653
 21
512.3946369408801
 31
0.0
 70
    32
  1
<>
 71
     5
 42
-1.0
 53
0.00013888888889
  3
ME10_DIM_18
100
AcDbAlignedDimension
 13
315.669891504242
 23
420.6453221734799
 33
0.0
 14
173.6698915100651
 24
420.6453221734799
 34
0.0
100
AcDbRotatedDimension
  0
DIMENSION
  5
3B0
330
1F
100
AcDbEntity
  8
1
100
AcDbDimension
  2
*D20
 10
169.6698915091652
 20
528.1446369408801
 30
0.0
 11
244.66989149653
 21
536.3946369408801
 31
0.0
 70
    32
  1
<>
 71
     5
 42
-1.0
 53
0.00013888888889
  3
ME10_DIM_19
100
AcDbAlignedDimension
 13
319.6698915051418
 23
408.14463694088
 33
0.0
 14
169.6698915091652
 24
408.14463694088
 34
0.0
100
AcDbRotatedDimension
  0
INSERT
  5
3B7
330
1F
100
AcDbEntity
  8
1
100
AcDbBlockReference
  2
*D21
 10
0.0
 20
0.0
 30
0.0
  0
ENDSEC
  0
SECTION
  2
OBJECTS
  0
DICTIONARY
  5
C
330
0
100
AcDbDictionary
281
     1
  3
ACAD_GROUP
350
D
  3
ACAD_LAYOUT
350
1A
  3
ACAD_MATERIAL
350
3B
  3
ACAD_MLEADERSTYLE
350
3BA
  3
ACAD_MLINESTYLE
350
17
  3
ACAD_PLOTSETTINGS
350
19
  3
ACAD_PLOTSTYLENAME
350
E
  3
ACAD_VISUALSTYLE
350
2A
  3
AcDbVariableDictionary
350
3B8
  0
DICTIONARY
  5
D
102
{ACAD_REACTORS
330
C
102
}
330
C
100
AcDbDictionary
281
     1
  0
DICTIONARY
  5
1A
102
{ACAD_REACTORS
330
C
102
}
330
C
100
AcDbDictionary
281
     1
  3
Layout1
350
1E
  3
Layout2
350
26
  3
Model
350
22
  0
DICTIONARY
  5
3B
102
{ACAD_REACTORS
330
C
102
}
330
C
100
AcDbDictionary
281
     1
  3
ByBlock
350
3D
  3
ByLayer
350
3C
  3
Global
350
3E
  0
DICTIONARY
  5
3BA
102
{ACAD_REACTORS
330
C
102
}
330
C
100
AcDbDictionary
281
     1
  0
DICTIONARY
  5
17
102
{ACAD_REACTORS
330
C
102
}
330
C
100
AcDbDictionary
281
     1
  3
Standard
350
18
  0
DICTIONARY
  5
19
102
{ACAD_REACTORS
330
C
102
}
330
C
100
AcDbDictionary
281
     1
  0
ACDBDICTIONARYWDFLT
  5
E
102
{ACAD_REACTORS
330
C
102
}
330
C
100
AcDbDictionary
281
     1
  3
Normal
350
F
100
AcDbDictionaryWithDefault
340
F
  0
DICTIONARY
  5
2A
102
{ACAD_REACTORS
330
C
102
}
330
C
100
AcDbDictionary
281
     1
  3
2dWireframe
350
2F
  3
3D Hidden
350
31
  3
3dWireframe
350
30
  3
Basic
350
32
  3
Brighten
350
36
  3
ColorChange
350
3A
  3
Conceptual
350
34
  3
Dim
350
35
  3
Facepattern
350
39
  3
Flat
350
2B
  3
FlatWithEdges
350
2C
  3
Gouraud
350
2D
  3
GouraudWithEdges
350
2E
  3
Linepattern
350
38
  3
Realistic
350
33
  3
Thicken
350
37
  0
DICTIONARY
  5
3B8
102
{ACAD_REACTORS
330
C
102
}
330
C
100
AcDbDictionary
281
     1
  3
DIMASSOC
350
3BB
  3
HIDETEXT
350
3BC
  0
LAYOUT
  5
1E
102
{ACAD_REACTORS
330
1A
102
}
330
1A
100
AcDbPlotSettings
  1

  2
none_device
  4

  6

 40
0.0
 41
0.0
 42
0.0
 43
0.0
 44
0.0
 45
0.0
 46
0.0
 47
0.0
 48
0.0
 49
0.0
140
0.0
141
0.0
142
1.0
143
1.0
 70
   688
 72
     0
 73
     0
 74
     5
  7

 75
    16
147
1.0
148
0.0
149
0.0
100
AcDbLayout
  1
Layout1
 70
     1
 71
     1
 10
0.0
 20
0.0
 11
12.0
 21
9.0
 12
0.0
 22
0.0
 32
0.0
 14
1.00000000000000E+20
 24
1.00000000000000E+20
 34
1.00000000000000E+20
 15
-1.00000000000000E+20
 25
-1.00000000000000E+20
 35
-1.00000000000000E+20
146
0.0
 13
0.0
 23
0.0
 33
0.0
 16
1.0
 26
0.0
 36
0.0
 17
0.0
 27
1.0
 37
0.0
 76
     0
330
1B
  0
LAYOUT
  5
26
102
{ACAD_REACTORS
330
1A
102
}
330
1A
100
AcDbPlotSettings
  1

  2
none_device
  4

  6

 40
0.0
 41
0.0
 42
0.0
 43
0.0
 44
0.0
 45
0.0
 46
0.0
 47
0.0
 48
0.0
 49
0.0
140
0.0
141
0.0
142
1.0
143
1.0
 70
   688
 72
     0
 73
     0
 74
     5
  7

 75
    16
147
1.0
148
0.0
149
0.0
100
AcDbLayout
  1
Layout2
 70
     1
 71
     2
 10
0.0
 20
0.0
 11
0.0
 21
0.0
 12
0.0
 22
0.0
 32
0.0
 14
0.0
 24
0.0
 34
0.0
 15
0.0
 25
0.0
 35
0.0
146
0.0
 13
0.0
 23
0.0
 33
0.0
 16
1.0
 26
0.0
 36
0.0
 17
0.0
 27
1.0
 37
0.0
 76
     0
330
23
  0
LAYOUT
  5
22
102
{ACAD_REACTORS
330
1A
102
}
330
1A
100
AcDbPlotSettings
  1

  2
none_device
  4

  6

 40
0.0
 41
0.0
 42
0.0
 43
0.0
 44
0.0
 45
0.0
 46
0.0
 47
0.0
 48
0.0
 49
0.0
140
0.0
141
0.0
142
1.0
143
1.0
 70
  1712
 72
     0
 73
     0
 74
     0
  7

 75
     0
147
1.0
148
0.0
149
0.0
100
AcDbLayout
  1
Model
 70
     1
 71
     0
 10
0.0
 20
0.0
 11
12.0
 21
9.0
 12
0.0
 22
0.0
 32
0.0
 14
0.0
 24
0.0
 34
0.0
 15
630.0
 25
891.0
 35
0.0
146
0.0
 13
0.0
 23
0.0
 33
0.0
 16
1.0
 26
0.0
 36
0.0
 17
0.0
 27
1.0
 37
0.0
 76
     0
330
1F
331
29
  0
MATERIAL
  5
3D
102
{ACAD_REACTORS
330
3B
102
}
102
{ACAD_XDICTIONARY
360
3DF
102
}
330
3B
100
AcDbMaterial
  1
ByBlock
  0
MATERIAL
  5
3C
102
{ACAD_REACTORS
330
3B
102
}
102
{ACAD_XDICTIONARY
360
3DD
102
}
330
3B
100
AcDbMaterial
  1
ByLayer
  0
MATERIAL
  5
3E
102
{ACAD_REACTORS
330
3B
102
}
102
{ACAD_XDICTIONARY
360
3E1
102
}
330
3B
100
AcDbMaterial
  1
Global
  0
MLINESTYLE
  5
18
102
{ACAD_REACTORS
330
17
102
}
330
17
100
AcDbMlineStyle
  2
Standard
 70
     0
  3

 62
   256
 51
90.0
 52
90.0
 71
     2
 49
0.5
 62
   256
  6
BYLAYER
 49
-0.5
 62
   256
  6
BYLAYER
  0
ACDBPLACEHOLDER
  5
F
102
{ACAD_REACTORS
330
E
102
}
330
E
  0
VISUALSTYLE
  5
2F
102
{ACAD_REACTORS
330
2A
102
}
102
{ACAD_XDICTIONARY
360
3C5
102
}
330
2A
100
AcDbVisualStyle
  2
2dWireframe
 70
     4
 71
     0
 72
     2
 73
     0
 90
        0
 40
-0.6
 41
-30.0
 62
     5
 63
     7
 74
     1
 91
        4
 64
     7
 65
   257
 75
     1
175
     1
 42
1.0
 92
        0
 66
   257
 43
1.0
 76
     1
 77
     6
 78
     2
 67
     7
 79
     5
170
     0
171
     0
290
     0
174
     0
 93
        1
 44
0.0
173
     0
291
     0
 45
0.0
1001
ACAD
1000
AcDbSavedByObjectVersion
1070
     0
  0
VISUALSTYLE
  5
31
102
{ACAD_REACTORS
330
2A
102
}
102
{ACAD_XDICTIONARY
360
3C9
102
}
330
2A
100
AcDbVisualStyle
  2
3D Hidden
 70
     6
 71
     1
 72
     2
 73
     2
 90
        0
 40
-0.6
 41
-30.0
 62
     5
 63
     7
 74
     2
 91
        2
 64
     7
 65
   257
 75
     2
175
     1
 42
40.0
 92
        0
 66
   257
 43
1.0
 76
     1
 77
     6
 78
     2
 67
     7
 79
     3
170
     0
171
     0
290
     0
174
     0
 93
        1
 44
0.0
173
     0
291
     0
 45
0.0
1001
ACAD
1000
AcDbSavedByObjectVersion
1070
     0
  0
VISUALSTYLE
  5
30
102
{ACAD_REACTORS
330
2A
102
}
102
{ACAD_XDICTIONARY
360
3C7
102
}
330
2A
100
AcDbVisualStyle
  2
3dWireframe
 70
     5
 71
     0
 72
     2
 73
     0
 90
        0
 40
-0.6
 41
-30.0
 62
     5
 63
     7
 74
     1
 91
        4
 64
     7
 65
   257
 75
     1
175
     1
 42
1.0
 92
        0
 66
   257
 43
1.0
 76
     1
 77
     6
 78
     2
 67
     7
 79
     5
170
     0
171
     0
290
     0
174
     0
 93
        1
 44
0.0
173
     0
291
     0
 45
0.0
1001
ACAD
1000
AcDbSavedByObjectVersion
1070
     0
  0
VISUALSTYLE
  5
32
102
{ACAD_REACTORS
330
2A
102
}
102
{ACAD_XDICTIONARY
360
3CB
102
}
330
2A
100
AcDbVisualStyle
  2
Basic
 70
     7
 71
     1
 72
     0
 73
     1
 90
        0
 40
-0.6
 41
-30.0
 62
     5
 63
     7
 74
     0
 91
        4
 64
     7
 65
   257
 75
     1
175
     1
 42
1.0
 92
        8
 66
     7
 43
1.0
 76
     1
 77
     6
 78
     2
 67
     7
 79
     5
170
     0
171
     0
290
     0
174
     0
 93
        1
 44
0.0
173
     0
291
     1
 45
0.0
1001
ACAD
1000
AcDbSavedByObjectVersion
1070
     0
  0
VISUALSTYLE
  5
36
102
{ACAD_REACTORS
330
2A
102
}
102
{ACAD_XDICTIONARY
360
3D3
102
}
330
2A
100
AcDbVisualStyle
  2
Brighten
 70
    12
 71
     2
 72
     2
 73
     0
 90
        0
 40
-0.6
 41
-30.0
 62
     5
 63
     7
 74
     1
 91
        4
 64
     7
 65
   257
 75
     1
175
     1
 42
1.0
 92
        8
 66
     7
 43
1.0
 76
     1
 77
     6
 78
     2
 67
     7
 79
     5
170
     0
171
     0
290
     0
174
     0
 93
        1
 44
50.0
173
     0
291
     1
 45
0.0
1001
ACAD
1000
AcDbSavedByObjectVersion
1070
     0
  0
VISUALSTYLE
  5
3A
102
{ACAD_REACTORS
330
2A
102
}
102
{ACAD_XDICTIONARY
360
3DB
102
}
330
2A
100
AcDbVisualStyle
  2
ColorChange
 70
    16
 71
     2
 72
     2
 73
     3
 90
        0
 40
-0.6
 41
-30.0
 62
     5
 63
     8
 74
     1
 91
        4
 64
     7
 65
   257
 75
     1
175
     1
 42
1.0
 92
        8
 66
     8
 43
1.0
 76
     1
 77
     6
 78
     2
 67
     7
 79
     5
170
     0
171
     0
290
     0
174
     0
 93
        1
 44
0.0
173
     0
291
     1
 45
0.0
1001
ACAD
1000
AcDbSavedByObjectVersion
1070
     0
  0
VISUALSTYLE
  5
34
102
{ACAD_REACTORS
330
2A
102
}
102
{ACAD_XDICTIONARY
360
3CF
102
}
330
2A
100
AcDbVisualStyle
  2
Conceptual
 70
     9
 71
     3
 72
     2
 73
     0
 90
        0
 40
-0.6
 41
-30.0
 62
     5
 63
     7
 74
     2
 91
        2
 64
     7
 65
   257
 75
     1
175
     1
 42
40.0
 92
        8
 66
     7
 43
1.0
 76
     1
 77
     6
 78
     2
 67
     7
 79
     3
170
     0
171
     0
290
     0
174
     0
 93
        1
 44
0.0
173
     0
291
     0
 45
0.0
1001
ACAD
1000
AcDbSavedByObjectVersion
1070
     0
  0
VISUALSTYLE
  5
35
102
{ACAD_REACTORS
330
2A
102
}
102
{ACAD_XDICTIONARY
360
3D1
102
}
330
2A
100
AcDbVisualStyle
  2
Dim
 70
    11
 71
     2
 72
     2
 73
     0
 90
        0
 40
-0.6
 41
-30.0
 62
     5
 63
     7
 74
     1
 91
        4
 64
     7
 65
   257
 75
     1
175
     1
 42
1.0
 92
        8
 66
     7
 43
1.0
 76
     1
 77
     6
 78
     2
 67
     7
 79
     5
170
     0
171
     0
290
     0
174
     0
 93
        1
 44
-50.0
173
     0
291
     1
 45
0.0
1001
ACAD
1000
AcDbSavedByObjectVersion
1070
     0
  0
VISUALSTYLE
  5
39
102
{ACAD_REACTORS
330
2A
102
}
102
{ACAD_XDICTIONARY
360
3D9
102
}
330
2A
100
AcDbVisualStyle
  2
Facepattern
 70
    15
 71
     2
 72
     2
 73
     0
 90
        0
 40
-0.6
 41
-30.0
 62
     5
 63
     7
 74
     1
 91
        4
 64
     7
 65
   257
 75
     1
175
     1
 42
1.0
 92
        8
 66
     7
 43
1.0
 76
     1
 77
     6
 78
     2
 67
     7
 79
     5
170
     0
171
     0
290
     0
174
     0
 93
        1
 44
0.0
173
     0
291
     1
 45
0.0
1001
ACAD
1000
AcDbSavedByObjectVersion
1070
     0
  0
VISUALSTYLE
  5
2B
102
{ACAD_REACTORS
330
2A
102
}
102
{ACAD_XDICTIONARY
360
3BD
102
}
330
2A
100
AcDbVisualStyle
  2
Flat
 70
     0
 71
     2
 72
     1
 73
     1
 90
        2
 40
-0.6
 41
30.0
 62
     5
 63
     7
 74
     0
 91
        4
 64
     7
 65
   257
 75
     1
175
     1
 42
1.0
 92
        8
 66
     7
 43
1.0
 76
     1
 77
     6
 78
     2
 67
     7
 79
     5
170
     0
171
     0
290
     0
174
     0
 93
       13
 44
0.0
173
     0
291
     1
 45
0.0
1001
ACAD
1000
AcDbSavedByObjectVersion
1070
     0
  0
VISUALSTYLE
  5
2C
102
{ACAD_REACTORS
330
2A
102
}
102
{ACAD_XDICTIONARY
360
3BF
102
}
330
2A
100
AcDbVisualStyle
  2
FlatWithEdges
 70
     1
 71
     2
 72
     1
 73
     1
 90
        2
 40
-0.6
 41
30.0
 62
     5
 63
     7
 74
     1
 91
        4
 64
     7
 65
   257
 75
     1
175
     1
 42
1.0
 92
        0
 66
   257
 43
1.0
 76
     1
 77
     6
 78
     2
 67
     7
 79
     5
170
     0
171
     0
290
     0
174
     0
 93
       13
 44
0.0
173
     0
291
     1
 45
0.0
1001
ACAD
1000
AcDbSavedByObjectVersion
1070
     0
  0
VISUALSTYLE
  5
2D
102
{ACAD_REACTORS
330
2A
102
}
102
{ACAD_XDICTIONARY
360
3C1
102
}
330
2A
100
AcDbVisualStyle
  2
Gouraud
 70
     2
 71
     2
 72
     2
 73
     1
 90
        2
 40
-0.6
 41
30.0
 62
     5
 63
     7
 74
     0
 91
        4
 64
     7
 65
   257
 75
     1
175
     1
 42
1.0
 92
        0
 66
     7
 43
1.0
 76
     1
 77
     6
 78
     2
 67
     7
 79
     5
170
     0
171
     0
290
     0
174
     0
 93
       13
 44
0.0
173
     0
291
     1
 45
0.0
1001
ACAD
1000
AcDbSavedByObjectVersion
1070
     0
  0
VISUALSTYLE
  5
2E
102
{ACAD_REACTORS
330
2A
102
}
102
{ACAD_XDICTIONARY
360
3C3
102
}
330
2A
100
AcDbVisualStyle
  2
GouraudWithEdges
 70
     3
 71
     2
 72
     2
 73
     1
 90
        2
 40
-0.6
 41
30.0
 62
     5
 63
     7
 74
     1
 91
        4
 64
     7
 65
   257
 75
     1
175
     1
 42
1.0
 92
        0
 66
   257
 43
1.0
 76
     1
 77
     6
 78
     2
 67
     7
 79
     5
170
     0
171
     0
290
     0
174
     0
 93
       13
 44
0.0
173
     0
291
     1
 45
0.0
1001
ACAD
1000
AcDbSavedByObjectVersion
1070
     0
  0
VISUALSTYLE
  5
38
102
{ACAD_REACTORS
330
2A
102
}
102
{ACAD_XDICTIONARY
360
3D7
102
}
330
2A
100
AcDbVisualStyle
  2
Linepattern
 70
    14
 71
     2
 72
     2
 73
     0
 90
        0
 40
-0.6
 41
-30.0
 62
     5
 63
     7
 74
     1
 91
        4
 64
     7
 65
   257
 75
     7
175
     7
 42
1.0
 92
        8
 66
     7
 43
1.0
 76
     1
 77
     6
 78
     2
 67
     7
 79
     5
170
     0
171
     0
290
     0
174
     0
 93
        1
 44
0.0
173
     0
291
     1
 45
0.0
1001
ACAD
1000
AcDbSavedByObjectVersion
1070
     0
  0
VISUALSTYLE
  5
33
102
{ACAD_REACTORS
330
2A
102
}
102
{ACAD_XDICTIONARY
360
3CD
102
}
330
2A
100
AcDbVisualStyle
  2
Realistic
 70
     8
 71
     2
 72
     2
 73
     0
 90
        0
 40
-0.6
 41
-30.0
 62
     5
 63
     7
 74
     1
 91
        0
 64
     7
 65
   257
 75
     1
175
     1
 42
1.0
 92
        8
 66
     8
 43
1.0
 76
     1
 77
     6
 78
     2
 67
     7
 79
     5
170
     0
171
     0
290
     0
174
     0
 93
       13
 44
0.0
173
     0
291
     0
 45
0.0
1001
ACAD
1000
AcDbSavedByObjectVersion
1070
     0
  0
VISUALSTYLE
  5
37
102
{ACAD_REACTORS
330
2A
102
}
102
{ACAD_XDICTIONARY
360
3D5
102
}
330
2A
100
AcDbVisualStyle
  2
Thicken
 70
    13
 71
     2
 72
     2
 73
     0
 90
        0
 40
-0.6
 41
-30.0
 62
     5
 63
     7
 74
     1
 91
        4
 64
     7
 65
   257
 75
     1
175
     1
 42
1.0
 92
       12
 66
     7
 43
1.0
 76
     1
 77
     6
 78
     2
 67
     7
 79
     5
170
     0
171
     0
290
     0
174
     0
 93
        1
 44
0.0
173
     0
291
     1
 45
0.0
1001
ACAD
1000
AcDbSavedByObjectVersion
1070
     0
  0
DICTIONARYVAR
  5
3BB
102
{ACAD_REACTORS
330
3B8
102
}
330
3B8
100
DictionaryVariables
280
     0
  1
2
  0
DICTIONARYVAR
  5
3BC
102
{ACAD_REACTORS
330
3B8
102
}
330
3B8
100
DictionaryVariables
280
     0
  1
1
  0
DICTIONARY
  5
3DF
330
3D
100
AcDbDictionary
280
     1
281
     1
  3
ACAD_XREC_ROUNDTRIP
360
3E0
  0
DICTIONARY
  5
3DD
330
3C
100
AcDbDictionary
280
     1
281
     1
  3
ACAD_XREC_ROUNDTRIP
360
3DE
  0
DICTIONARY
  5
3E1
330
3E
100
AcDbDictionary
280
     1
281
     1
  3
ACAD_XREC_ROUNDTRIP
360
3E2
  0
DICTIONARY
  5
3C5
330
2F
100
AcDbDictionary
280
     1
281
     1
  3
ACAD_XREC_ROUNDTRIP
360
3C6
  0
DICTIONARY
  5
3C9
330
31
100
AcDbDictionary
280
     1
281
     1
  3
ACAD_XREC_ROUNDTRIP
360
3CA
  0
DICTIONARY
  5
3C7
330
30
100
AcDbDictionary
280
     1
281
     1
  3
ACAD_XREC_ROUNDTRIP
360
3C8
  0
DICTIONARY
  5
3CB
330
32
100
AcDbDictionary
280
     1
281
     1
  3
ACAD_XREC_ROUNDTRIP
360
3CC
  0
DICTIONARY
  5
3D3
330
36
100
AcDbDictionary
280
     1
281
     1
  3
ACAD_XREC_ROUNDTRIP
360
3D4
  0
DICTIONARY
  5
3DB
330
3A
100
AcDbDictionary
280
     1
281
     1
  3
ACAD_XREC_ROUNDTRIP
360
3DC
  0
DICTIONARY
  5
3CF
330
34
100
AcDbDictionary
280
     1
281
     1
  3
ACAD_XREC_ROUNDTRIP
360
3D0
  0
DICTIONARY
  5
3D1
330
35
100
AcDbDictionary
280
     1
281
     1
  3
ACAD_XREC_ROUNDTRIP
360
3D2
  0
DICTIONARY
  5
3D9
330
39
100
AcDbDictionary
280
     1
281
     1
  3
ACAD_XREC_ROUNDTRIP
360
3DA
  0
DICTIONARY
  5
3BD
330
2B
100
AcDbDictionary
280
     1
281
     1
  3
ACAD_XREC_ROUNDTRIP
360
3BE
  0
DICTIONARY
  5
3BF
330
2C
100
AcDbDictionary
280
     1
281
     1
  3
ACAD_XREC_ROUNDTRIP
360
3C0
  0
DICTIONARY
  5
3C1
330
2D
100
AcDbDictionary
280
     1
281
     1
  3
ACAD_XREC_ROUNDTRIP
360
3C2
  0
DICTIONARY
  5
3C3
330
2E
100
AcDbDictionary
280
     1
281
     1
  3
ACAD_XREC_ROUNDTRIP
360
3C4
  0
DICTIONARY
  5
3D7
330
38
100
AcDbDictionary
280
     1
281
     1
  3
ACAD_XREC_ROUNDTRIP
360
3D8
  0
DICTIONARY
  5
3CD
330
33
100
AcDbDictionary
280
     1
281
     1
  3
ACAD_XREC_ROUNDTRIP
360
3CE
  0
DICTIONARY
  5
3D5
330
37
100
AcDbDictionary
280
     1
281
     1
  3
ACAD_XREC_ROUNDTRIP
360
3D6
  0
XRECORD
  5
3E0
102
{ACAD_REACTORS
330
3DF
102
}
330
3DF
100
AcDbXrecord
280
     1
102
MATERIAL
148
0.0
149
0.0
149
0.0
 93
        0
 94
      127
282
     0
 72
     1
 77
     1
171
     1
175
     1
179
     1
273
     0
  0
XRECORD
  5
3DE
102
{ACAD_REACTORS
330
3DD
102
}
330
3DD
100
AcDbXrecord
280
     1
102
MATERIAL
148
0.0
149
0.0
149
0.0
 93
        0
 94
      127
282
     0
 72
     1
 77
     1
171
     1
175
     1
179
     1
273
     0
  0
XRECORD
  5
3E2
102
{ACAD_REACTORS
330
3E1
102
}
330
3E1
100
AcDbXrecord
280
     1
102
MATERIAL
148
0.0
149
0.0
149
0.0
 93
        0
 94
      127
282
     0
 72
     1
 77
     1
171
     1
175
     1
179
     1
273
     0
  0
XRECORD
  5
3C6
102
{ACAD_REACTORS
330
3C5
102
}
330
3C5
100
AcDbXrecord
280
     1
102
RTVSPropertyOp0
 70
     1
102
RTVSPropertyOp1
 70
     1
102
RTVSPropertyOp2
 70
     1
102
RTVSPropertyOp3
 70
     1
102
RTVSPropertyOp4
 70
     1
102
RTVSPropertyOp5
 70
     1
102
RTVSPropertyOp6
 70
     1
102
RTVSPropertyOp7
 70
     1
102
RTVSPropertyOp8
 70
     1
102
RTVSPropertyOp9
 70
     1
102
RTVSPropertyOp10
 70
     1
102
RTVSPropertyOp11
 70
     1
102
RTVSPropertyOp12
 70
     1
102
RTVSPropertyOp13
 70
     1
102
RTVSPropertyOp14
 70
     1
102
RTVSPropertyOp15
 70
     1
102
RTVSPropertyOp16
 70
     1
102
RTVSPropertyOp17
 70
     1
102
RTVSPropertyOp18
 70
     1
102
RTVSPropertyOp19
 70
     1
102
RTVSPropertyOp20
 70
     1
102
RTVSPropertyOp21
 70
     1
102
RTVSPropertyOp22
 70
     1
102
RTVSPropertyOp23
 70
     1
102
RTVSPropertyOp24
 70
     1
102
RTVSPropertyOp25
 70
     1
102
RTVSPropertyOp26
 70
     1
102
RTVSPropertyOp27
 70
     1
102
RTVSPropertyOp28
 70
     1
102
RTVSPropertyOp29
 70
     1
102
RTVSPropertyOp30
 70
     1
102
RTVSPropertyOp31
 70
     1
102
RTVSPropertyOp32
 70
     1
  0
XRECORD
  5
3CA
102
{ACAD_REACTORS
330
3C9
102
}
330
3C9
100
AcDbXrecord
280
     1
102
RTVSPropertyOp0
 70
     1
102
RTVSPropertyOp1
 70
     1
102
RTVSPropertyOp2
 70
     1
102
RTVSPropertyOp3
 70
     1
102
RTVSPropertyOp4
 70
     1
102
RTVSPropertyOp5
 70
     1
102
RTVSPropertyOp6
 70
     1
102
RTVSPropertyOp7
 70
     1
102
RTVSPropertyOp8
 70
     1
102
RTVSPropertyOp9
 70
     1
102
RTVSPropertyOp10
 70
     1
102
RTVSPropertyOp11
 70
     1
102
RTVSPropertyOp12
 70
     1
102
RTVSPropertyOp13
 70
     1
102
RTVSPropertyOp14
 70
     1
102
RTVSPropertyOp15
 70
     1
102
RTVSPropertyOp16
 70
     1
102
RTVSPropertyOp17
 70
     1
102
RTVSPropertyOp18
 70
     1
102
RTVSPropertyOp19
 70
     1
102
RTVSPropertyOp20
 70
     1
102
RTVSPropertyOp21
 70
     1
102
RTVSPropertyOp22
 70
     1
102
RTVSPropertyOp23
 70
     1
102
RTVSPropertyOp24
 70
     1
102
RTVSPropertyOp25
 70
     1
102
RTVSPropertyOp26
 70
     1
102
RTVSPropertyOp27
 70
     1
102
RTVSPropertyOp28
 70
     1
102
RTVSPropertyOp29
 70
     1
102
RTVSPropertyOp30
 70
     1
102
RTVSPropertyOp31
 70
     1
102
RTVSPropertyOp32
 70
     1
  0
XRECORD
  5
3C8
102
{ACAD_REACTORS
330
3C7
102
}
330
3C7
100
AcDbXrecord
280
     1
102
RTVSPropertyOp0
 70
     1
102
RTVSPropertyOp1
 70
     1
102
RTVSPropertyOp2
 70
     1
102
RTVSPropertyOp3
 70
     1
102
RTVSPropertyOp4
 70
     1
102
RTVSPropertyOp5
 70
     1
102
RTVSPropertyOp6
 70
     1
102
RTVSPropertyOp7
 70
     1
102
RTVSPropertyOp8
 70
     1
102
RTVSPropertyOp9
 70
     1
102
RTVSPropertyOp10
 70
     1
102
RTVSPropertyOp11
 70
     1
102
RTVSPropertyOp12
 70
     1
102
RTVSPropertyOp13
 70
     1
102
RTVSPropertyOp14
 70
     1
102
RTVSPropertyOp15
 70
     1
102
RTVSPropertyOp16
 70
     1
102
RTVSPropertyOp17
 70
     1
102
RTVSPropertyOp18
 70
     1
102
RTVSPropertyOp19
 70
     1
102
RTVSPropertyOp20
 70
     1
102
RTVSPropertyOp21
 70
     1
102
RTVSPropertyOp22
 70
     1
102
RTVSPropertyOp23
 70
     1
102
RTVSPropertyOp24
 70
     1
102
RTVSPropertyOp25
 70
     1
102
RTVSPropertyOp26
 70
     1
102
RTVSPropertyOp27
 70
     1
102
RTVSPropertyOp28
 70
     1
102
RTVSPropertyOp29
 70
     1
102
RTVSPropertyOp30
 70
     1
102
RTVSPropertyOp31
 70
     1
102
RTVSPropertyOp32
 70
     1
  0
XRECORD
  5
3CC
102
{ACAD_REACTORS
330
3CB
102
}
330
3CB
100
AcDbXrecord
280
     1
102
RTVSPropertyOp0
 70
     1
102
RTVSPropertyOp1
 70
     1
102
RTVSPropertyOp2
 70
     1
102
RTVSPropertyOp3
 70
     1
102
RTVSPropertyOp4
 70
     1
102
RTVSPropertyOp5
 70
     1
102
RTVSPropertyOp6
 70
     1
102
RTVSPropertyOp7
 70
     1
102
RTVSPropertyOp8
 70
     1
102
RTVSPropertyOp9
 70
     1
102
RTVSPropertyOp10
 70
     1
102
RTVSPropertyOp11
 70
     1
102
RTVSPropertyOp12
 70
     1
102
RTVSPropertyOp13
 70
     1
102
RTVSPropertyOp14
 70
     1
102
RTVSPropertyOp15
 70
     1
102
RTVSPropertyOp16
 70
     1
102
RTVSPropertyOp17
 70
     1
102
RTVSPropertyOp18
 70
     1
102
RTVSPropertyOp19
 70
     1
102
RTVSPropertyOp20
 70
     1
102
RTVSPropertyOp21
 70
     1
102
RTVSPropertyOp22
 70
     1
102
RTVSPropertyOp23
 70
     1
102
RTVSPropertyOp24
 70
     1
102
RTVSPropertyOp25
 70
     1
102
RTVSPropertyOp26
 70
     1
102
RTVSPropertyOp27
 70
     1
102
RTVSPropertyOp28
 70
     1
102
RTVSPropertyOp29
 70
     1
102
RTVSPropertyOp30
 70
     1
102
RTVSPropertyOp31
 70
     1
102
RTVSPropertyOp32
 70
     1
  0
XRECORD
  5
3D4
102
{ACAD_REACTORS
330
3D3
102
}
330
3D3
100
AcDbXrecord
280
     1
102
RTVSPropertyOp0
 70
     1
102
RTVSPropertyOp1
 70
     1
102
RTVSPropertyOp2
 70
     1
102
RTVSPropertyOp3
 70
     1
102
RTVSPropertyOp4
 70
     1
102
RTVSPropertyOp5
 70
     1
102
RTVSPropertyOp6
 70
     1
102
RTVSPropertyOp7
 70
     1
102
RTVSPropertyOp8
 70
     1
102
RTVSPropertyOp9
 70
     1
102
RTVSPropertyOp10
 70
     1
102
RTVSPropertyOp11
 70
     1
102
RTVSPropertyOp12
 70
     1
102
RTVSPropertyOp13
 70
     1
102
RTVSPropertyOp14
 70
     1
102
RTVSPropertyOp15
 70
     1
102
RTVSPropertyOp16
 70
     1
102
RTVSPropertyOp17
 70
     1
102
RTVSPropertyOp18
 70
     1
102
RTVSPropertyOp19
 70
     1
102
RTVSPropertyOp20
 70
     1
102
RTVSPropertyOp21
 70
     1
102
RTVSPropertyOp22
 70
     1
102
RTVSPropertyOp23
 70
     1
102
RTVSPropertyOp24
 70
     1
102
RTVSPropertyOp25
 70
     1
102
RTVSPropertyOp26
 70
     1
102
RTVSPropertyOp27
 70
     1
102
RTVSPropertyOp28
 70
     1
102
RTVSPropertyOp29
 70
     1
102
RTVSPropertyOp30
 70
     1
102
RTVSPropertyOp31
 70
     1
102
RTVSPropertyOp32
 70
     1
  0
XRECORD
  5
3DC
102
{ACAD_REACTORS
330
3DB
102
}
330
3DB
100
AcDbXrecord
280
     1
102
RTVSPropertyOp0
 70
     1
102
RTVSPropertyOp1
 70
     1
102
RTVSPropertyOp2
 70
     1
102
RTVSPropertyOp3
 70
     1
102
RTVSPropertyOp4
 70
     1
102
RTVSPropertyOp5
 70
     1
102
RTVSPropertyOp6
 70
     1
102
RTVSPropertyOp7
 70
     1
102
RTVSPropertyOp8
 70
     1
102
RTVSPropertyOp9
 70
     1
102
RTVSPropertyOp10
 70
     1
102
RTVSPropertyOp11
 70
     1
102
RTVSPropertyOp12
 70
     1
102
RTVSPropertyOp13
 70
     1
102
RTVSPropertyOp14
 70
     1
102
RTVSPropertyOp15
 70
     1
102
RTVSPropertyOp16
 70
     1
102
RTVSPropertyOp17
 70
     1
102
RTVSPropertyOp18
 70
     1
102
RTVSPropertyOp19
 70
     1
102
RTVSPropertyOp20
 70
     1
102
RTVSPropertyOp21
 70
     1
102
RTVSPropertyOp22
 70
     1
102
RTVSPropertyOp23
 70
     1
102
RTVSPropertyOp24
 70
     1
102
RTVSPropertyOp25
 70
     1
102
RTVSPropertyOp26
 70
     1
102
RTVSPropertyOp27
 70
     1
102
RTVSPropertyOp28
 70
     1
102
RTVSPropertyOp29
 70
     1
102
RTVSPropertyOp30
 70
     1
102
RTVSPropertyOp31
 70
     1
102
RTVSPropertyOp32
 70
     1
  0
XRECORD
  5
3D0
102
{ACAD_REACTORS
330
3CF
102
}
330
3CF
100
AcDbXrecord
280
     1
102
RTVSPropertyOp0
 70
     1
102
RTVSPropertyOp1
 70
     1
102
RTVSPropertyOp2
 70
     1
102
RTVSPropertyOp3
 70
     1
102
RTVSPropertyOp4
 70
     1
102
RTVSPropertyOp5
 70
     1
102
RTVSPropertyOp6
 70
     1
102
RTVSPropertyOp7
 70
     1
102
RTVSPropertyOp8
 70
     1
102
RTVSPropertyOp9
 70
     1
102
RTVSPropertyOp10
 70
     1
102
RTVSPropertyOp11
 70
     1
102
RTVSPropertyOp12
 70
     1
102
RTVSPropertyOp13
 70
     1
102
RTVSPropertyOp14
 70
     1
102
RTVSPropertyOp15
 70
     1
102
RTVSPropertyOp16
 70
     1
102
RTVSPropertyOp17
 70
     1
102
RTVSPropertyOp18
 70
     1
102
RTVSPropertyOp19
 70
     1
102
RTVSPropertyOp20
 70
     1
102
RTVSPropertyOp21
 70
     1
102
RTVSPropertyOp22
 70
     1
102
RTVSPropertyOp23
 70
     1
102
RTVSPropertyOp24
 70
     1
102
RTVSPropertyOp25
 70
     1
102
RTVSPropertyOp26
 70
     1
102
RTVSPropertyOp27
 70
     1
102
RTVSPropertyOp28
 70
     1
102
RTVSPropertyOp29
 70
     1
102
RTVSPropertyOp30
 70
     1
102
RTVSPropertyOp31
 70
     1
102
RTVSPropertyOp32
 70
     1
  0
XRECORD
  5
3D2
102
{ACAD_REACTORS
330
3D1
102
}
330
3D1
100
AcDbXrecord
280
     1
102
RTVSPropertyOp0
 70
     1
102
RTVSPropertyOp1
 70
     1
102
RTVSPropertyOp2
 70
     1
102
RTVSPropertyOp3
 70
     1
102
RTVSPropertyOp4
 70
     1
102
RTVSPropertyOp5
 70
     1
102
RTVSPropertyOp6
 70
     1
102
RTVSPropertyOp7
 70
     1
102
RTVSPropertyOp8
 70
     1
102
RTVSPropertyOp9
 70
     1
102
RTVSPropertyOp10
 70
     1
102
RTVSPropertyOp11
 70
     1
102
RTVSPropertyOp12
 70
     1
102
RTVSPropertyOp13
 70
     1
102
RTVSPropertyOp14
 70
     1
102
RTVSPropertyOp15
 70
     1
102
RTVSPropertyOp16
 70
     1
102
RTVSPropertyOp17
 70
     1
102
RTVSPropertyOp18
 70
     1
102
RTVSPropertyOp19
 70
     1
102
RTVSPropertyOp20
 70
     1
102
RTVSPropertyOp21
 70
     1
102
RTVSPropertyOp22
 70
     1
102
RTVSPropertyOp23
 70
     1
102
RTVSPropertyOp24
 70
     1
102
RTVSPropertyOp25
 70
     1
102
RTVSPropertyOp26
 70
     1
102
RTVSPropertyOp27
 70
     1
102
RTVSPropertyOp28
 70
     1
102
RTVSPropertyOp29
 70
     1
102
RTVSPropertyOp30
 70
     1
102
RTVSPropertyOp31
 70
     1
102
RTVSPropertyOp32
 70
     1
  0
XRECORD
  5
3DA
102
{ACAD_REACTORS
330
3D9
102
}
330
3D9
100
AcDbXrecord
280
     1
102
RTVSPropertyOp0
 70
     1
102
RTVSPropertyOp1
 70
     1
102
RTVSPropertyOp2
 70
     1
102
RTVSPropertyOp3
 70
     1
102
RTVSPropertyOp4
 70
     1
102
RTVSPropertyOp5
 70
     1
102
RTVSPropertyOp6
 70
     1
102
RTVSPropertyOp7
 70
     1
102
RTVSPropertyOp8
 70
     1
102
RTVSPropertyOp9
 70
     1
102
RTVSPropertyOp10
 70
     1
102
RTVSPropertyOp11
 70
     1
102
RTVSPropertyOp12
 70
     1
102
RTVSPropertyOp13
 70
     1
102
RTVSPropertyOp14
 70
     1
102
RTVSPropertyOp15
 70
     1
102
RTVSPropertyOp16
 70
     1
102
RTVSPropertyOp17
 70
     1
102
RTVSPropertyOp18
 70
     1
102
RTVSPropertyOp19
 70
     1
102
RTVSPropertyOp20
 70
     1
102
RTVSPropertyOp21
 70
     1
102
RTVSPropertyOp22
 70
     1
102
RTVSPropertyOp23
 70
     1
102
RTVSPropertyOp24
 70
     1
102
RTVSPropertyOp25
 70
     1
102
RTVSPropertyOp26
 70
     1
102
RTVSPropertyOp27
 70
     1
102
RTVSPropertyOp28
 70
     1
102
RTVSPropertyOp29
 70
     1
102
RTVSPropertyOp30
 70
     1
102
RTVSPropertyOp31
 70
     1
102
RTVSPropertyOp32
 70
     1
  0
XRECORD
  5
3BE
102
{ACAD_REACTORS
330
3BD
102
}
330
3BD
100
AcDbXrecord
280
     1
102
RTVSPropertyOp0
 70
     1
102
RTVSPropertyOp1
 70
     1
102
RTVSPropertyOp2
 70
     1
102
RTVSPropertyOp3
 70
     1
102
RTVSPropertyOp4
 70
     1
102
RTVSPropertyOp5
 70
     1
102
RTVSPropertyOp6
 70
     1
102
RTVSPropertyOp7
 70
     1
102
RTVSPropertyOp8
 70
     1
102
RTVSPropertyOp9
 70
     1
102
RTVSPropertyOp10
 70
     1
102
RTVSPropertyOp11
 70
     1
102
RTVSPropertyOp12
 70
     1
102
RTVSPropertyOp13
 70
     1
102
RTVSPropertyOp14
 70
     1
102
RTVSPropertyOp15
 70
     1
102
RTVSPropertyOp16
 70
     1
102
RTVSPropertyOp17
 70
     1
102
RTVSPropertyOp18
 70
     1
102
RTVSPropertyOp19
 70
     1
102
RTVSPropertyOp20
 70
     1
102
RTVSPropertyOp21
 70
     1
102
RTVSPropertyOp22
 70
     1
102
RTVSPropertyOp23
 70
     1
102
RTVSPropertyOp24
 70
     1
102
RTVSPropertyOp25
 70
     1
102
RTVSPropertyOp26
 70
     1
102
RTVSPropertyOp27
 70
     1
102
RTVSPropertyOp28
 70
     1
102
RTVSPropertyOp29
 70
     1
102
RTVSPropertyOp30
 70
     1
102
RTVSPropertyOp31
 70
     1
102
RTVSPropertyOp32
 70
     1
  0
XRECORD
  5
3C0
102
{ACAD_REACTORS
330
3BF
102
}
330
3BF
100
AcDbXrecord
280
     1
102
RTVSPropertyOp0
 70
     1
102
RTVSPropertyOp1
 70
     1
102
RTVSPropertyOp2
 70
     1
102
RTVSPropertyOp3
 70
     1
102
RTVSPropertyOp4
 70
     1
102
RTVSPropertyOp5
 70
     1
102
RTVSPropertyOp6
 70
     1
102
RTVSPropertyOp7
 70
     1
102
RTVSPropertyOp8
 70
     1
102
RTVSPropertyOp9
 70
     1
102
RTVSPropertyOp10
 70
     1
102
RTVSPropertyOp11
 70
     1
102
RTVSPropertyOp12
 70
     1
102
RTVSPropertyOp13
 70
     1
102
RTVSPropertyOp14
 70
     1
102
RTVSPropertyOp15
 70
     1
102
RTVSPropertyOp16
 70
     1
102
RTVSPropertyOp17
 70
     1
102
RTVSPropertyOp18
 70
     1
102
RTVSPropertyOp19
 70
     1
102
RTVSPropertyOp20
 70
     1
102
RTVSPropertyOp21
 70
     1
102
RTVSPropertyOp22
 70
     1
102
RTVSPropertyOp23
 70
     1
102
RTVSPropertyOp24
 70
     1
102
RTVSPropertyOp25
 70
     1
102
RTVSPropertyOp26
 70
     1
102
RTVSPropertyOp27
 70
     1
102
RTVSPropertyOp28
 70
     1
102
RTVSPropertyOp29
 70
     1
102
RTVSPropertyOp30
 70
     1
102
RTVSPropertyOp31
 70
     1
102
RTVSPropertyOp32
 70
     1
  0
XRECORD
  5
3C2
102
{ACAD_REACTORS
330
3C1
102
}
330
3C1
100
AcDbXrecord
280
     1
102
RTVSPropertyOp0
 70
     1
102
RTVSPropertyOp1
 70
     1
102
RTVSPropertyOp2
 70
     1
102
RTVSPropertyOp3
 70
     1
102
RTVSPropertyOp4
 70
     1
102
RTVSPropertyOp5
 70
     1
102
RTVSPropertyOp6
 70
     1
102
RTVSPropertyOp7
 70
     1
102
RTVSPropertyOp8
 70
     1
102
RTVSPropertyOp9
 70
     1
102
RTVSPropertyOp10
 70
     1
102
RTVSPropertyOp11
 70
     1
102
RTVSPropertyOp12
 70
     1
102
RTVSPropertyOp13
 70
     1
102
RTVSPropertyOp14
 70
     1
102
RTVSPropertyOp15
 70
     1
102
RTVSPropertyOp16
 70
     1
102
RTVSPropertyOp17
 70
     1
102
RTVSPropertyOp18
 70
     1
102
RTVSPropertyOp19
 70
     1
102
RTVSPropertyOp20
 70
     1
102
RTVSPropertyOp21
 70
     1
102
RTVSPropertyOp22
 70
     1
102
RTVSPropertyOp23
 70
     1
102
RTVSPropertyOp24
 70
     1
102
RTVSPropertyOp25
 70
     1
102
RTVSPropertyOp26
 70
     1
102
RTVSPropertyOp27
 70
     1
102
RTVSPropertyOp28
 70
     1
102
RTVSPropertyOp29
 70
     1
102
RTVSPropertyOp30
 70
     1
102
RTVSPropertyOp31
 70
     1
102
RTVSPropertyOp32
 70
     1
  0
XRECORD
  5
3C4
102
{ACAD_REACTORS
330
3C3
102
}
330
3C3
100
AcDbXrecord
280
     1
102
RTVSPropertyOp0
 70
     1
102
RTVSPropertyOp1
 70
     1
102
RTVSPropertyOp2
 70
     1
102
RTVSPropertyOp3
 70
     1
102
RTVSPropertyOp4
 70
     1
102
RTVSPropertyOp5
 70
     1
102
RTVSPropertyOp6
 70
     1
102
RTVSPropertyOp7
 70
     1
102
RTVSPropertyOp8
 70
     1
102
RTVSPropertyOp9
 70
     1
102
RTVSPropertyOp10
 70
     1
102
RTVSPropertyOp11
 70
     1
102
RTVSPropertyOp12
 70
     1
102
RTVSPropertyOp13
 70
     1
102
RTVSPropertyOp14
 70
     1
102
RTVSPropertyOp15
 70
     1
102
RTVSPropertyOp16
 70
     1
102
RTVSPropertyOp17
 70
     1
102
RTVSPropertyOp18
 70
     1
102
RTVSPropertyOp19
 70
     1
102
RTVSPropertyOp20
 70
     1
102
RTVSPropertyOp21
 70
     1
102
RTVSPropertyOp22
 70
     1
102
RTVSPropertyOp23
 70
     1
102
RTVSPropertyOp24
 70
     1
102
RTVSPropertyOp25
 70
     1
102
RTVSPropertyOp26
 70
     1
102
RTVSPropertyOp27
 70
     1
102
RTVSPropertyOp28
 70
     1
102
RTVSPropertyOp29
 70
     1
102
RTVSPropertyOp30
 70
     1
102
RTVSPropertyOp31
 70
     1
102
RTVSPropertyOp32
 70
     1
  0
XRECORD
  5
3D8
102
{ACAD_REACTORS
330
3D7
102
}
330
3D7
100
AcDbXrecord
280
     1
102
RTVSPropertyOp0
 70
     1
102
RTVSPropertyOp1
 70
     1
102
RTVSPropertyOp2
 70
     1
102
RTVSPropertyOp3
 70
     1
102
RTVSPropertyOp4
 70
     1
102
RTVSPropertyOp5
 70
     1
102
RTVSPropertyOp6
 70
     1
102
RTVSPropertyOp7
 70
     1
102
RTVSPropertyOp8
 70
     1
102
RTVSPropertyOp9
 70
     1
102
RTVSPropertyOp10
 70
     1
102
RTVSPropertyOp11
 70
     1
102
RTVSPropertyOp12
 70
     1
102
RTVSPropertyOp13
 70
     1
102
RTVSPropertyOp14
 70
     1
102
RTVSPropertyOp15
 70
     1
102
RTVSPropertyOp16
 70
     1
102
RTVSPropertyOp17
 70
     1
102
RTVSPropertyOp18
 70
     1
102
RTVSPropertyOp19
 70
     1
102
RTVSPropertyOp20
 70
     1
102
RTVSPropertyOp21
 70
     1
102
RTVSPropertyOp22
 70
     1
102
RTVSPropertyOp23
 70
     1
102
RTVSPropertyOp24
 70
     1
102
RTVSPropertyOp25
 70
     1
102
RTVSPropertyOp26
 70
     1
102
RTVSPropertyOp27
 70
     1
102
RTVSPropertyOp28
 70
     1
102
RTVSPropertyOp29
 70
     1
102
RTVSPropertyOp30
 70
     1
102
RTVSPropertyOp31
 70
     1
102
RTVSPropertyOp32
 70
     1
  0
XRECORD
  5
3CE
102
{ACAD_REACTORS
330
3CD
102
}
330
3CD
100
AcDbXrecord
280
     1
102
RTVSPropertyOp0
 70
     1
102
RTVSPropertyOp1
 70
     1
102
RTVSPropertyOp2
 70
     1
102
RTVSPropertyOp3
 70
     1
102
RTVSPropertyOp4
 70
     1
102
RTVSPropertyOp5
 70
     1
102
RTVSPropertyOp6
 70
     1
102
RTVSPropertyOp7
 70
     1
102
RTVSPropertyOp8
 70
     1
102
RTVSPropertyOp9
 70
     1
102
RTVSPropertyOp10
 70
     1
102
RTVSPropertyOp11
 70
     1
102
RTVSPropertyOp12
 70
     1
102
RTVSPropertyOp13
 70
     1
102
RTVSPropertyOp14
 70
     1
102
RTVSPropertyOp15
 70
     1
102
RTVSPropertyOp16
 70
     1
102
RTVSPropertyOp17
 70
     1
102
RTVSPropertyOp18
 70
     1
102
RTVSPropertyOp19
 70
     1
102
RTVSPropertyOp20
 70
     1
102
RTVSPropertyOp21
 70
     1
102
RTVSPropertyOp22
 70
     1
102
RTVSPropertyOp23
 70
     1
102
RTVSPropertyOp24
 70
     1
102
RTVSPropertyOp25
 70
     1
102
RTVSPropertyOp26
 70
     1
102
RTVSPropertyOp27
 70
     1
102
RTVSPropertyOp28
 70
     1
102
RTVSPropertyOp29
 70
     1
102
RTVSPropertyOp30
 70
     1
102
RTVSPropertyOp31
 70
     1
102
RTVSPropertyOp32
 70
     1
  0
XRECORD
  5
3D6
102
{ACAD_REACTORS
330
3D5
102
}
330
3D5
100
AcDbXrecord
280
     1
102
RTVSPropertyOp0
 70
     1
102
RTVSPropertyOp1
 70
     1
102
RTVSPropertyOp2
 70
     1
102
RTVSPropertyOp3
 70
     1
102
RTVSPropertyOp4
 70
     1
102
RTVSPropertyOp5
 70
     1
102
RTVSPropertyOp6
 70
     1
102
RTVSPropertyOp7
 70
     1
102
RTVSPropertyOp8
 70
     1
102
RTVSPropertyOp9
 70
     1
102
RTVSPropertyOp10
 70
     1
102
RTVSPropertyOp11
 70
     1
102
RTVSPropertyOp12
 70
     1
102
RTVSPropertyOp13
 70
     1
102
RTVSPropertyOp14
 70
     1
102
RTVSPropertyOp15
 70
     1
102
RTVSPropertyOp16
 70
     1
102
RTVSPropertyOp17
 70
     1
102
RTVSPropertyOp18
 70
     1
102
RTVSPropertyOp19
 70
     1
102
RTVSPropertyOp20
 70
     1
102
RTVSPropertyOp21
 70
     1
102
RTVSPropertyOp22
 70
     1
102
RTVSPropertyOp23
 70
     1
102
RTVSPropertyOp24
 70
     1
102
RTVSPropertyOp25
 70
     1
102
RTVSPropertyOp26
 70
     1
102
RTVSPropertyOp27
 70
     1
102
RTVSPropertyOp28
 70
     1
102
RTVSPropertyOp29
 70
     1
102
RTVSPropertyOp30
 70
     1
102
RTVSPropertyOp31
 70
     1
102
RTVSPropertyOp32
 70
     1
  0
ENDSEC
  0
EOF
