  0
SECTION
  2
HEADER
  9
$ACADVER
  1
AC1015
  9
$ACADMAINTVER
 70
     6
  9
$DWGCODEPAGE
  3
ANSI_932
  9
$INSBASE
 10
0.0
 20
0.0
 30
0.0
  9
$EXTMIN
 10
0.0
 20
0.0
 30
0.0
  9
$EXTMAX
 10
630.0
 20
891.0
 30
0.0
  9
$LIMMIN
 10
0.0
 20
0.0
  9
$LIMMAX
 10
12.0
 20
9.0
  9
$ORTHOMODE
 70
     0
  9
$REGENMODE
 70
     1
  9
$FILLMODE
 70
     1
  9
$QTEXTMODE
 70
     0
  9
$MIRRTEXT
 70
     1
  9
$LTSCALE
 40
1.0
  9
$ATTMODE
 70
     1
  9
$TEXTSIZE
 40
0.2
  9
$TRACEWID
 40
0.05
  9
$TEXTSTYLE
  7
Standard
  9
$CLAYER
  8
0
  9
$CELTYPE
  6
ByLayer
  9
$CECOLOR
 62
   256
  9
$CELTSCALE
 40
1.0
  9
$DISPSILH
 70
     0
  9
$DIMSCALE
 40
1.0
  9
$DIMASZ
 40
0.18
  9
$DIMEXO
 40
0.0625
  9
$DIMDLI
 40
0.38
  9
$DIMRND
 40
0.0
  9
$DIMDLE
 40
0.0
  9
$DIMEXE
 40
0.18
  9
$DIMTP
 40
0.0
  9
$DIMTM
 40
0.0
  9
$DIMTXT
 40
0.18
  9
$DIMCEN
 40
0.09
  9
$DIMTSZ
 40
0.0
  9
$DIMTOL
 70
     0
  9
$DIMLIM
 70
     0
  9
$DIMTIH
 70
     1
  9
$DIMTOH
 70
     1
  9
$DIMSE1
 70
     0
  9
$DIMSE2
 70
     0
  9
$DIMTAD
 70
     0
  9
$DIMZIN
 70
     0
  9
$DIMBLK
  1

  9
$DIMASO
 70
     1
  9
$DIMSHO
 70
     1
  9
$DIMPOST
  1

  9
$DIMAPOST
  1

  9
$DIMALT
 70
     0
  9
$DIMALTD
 70
     2
  9
$DIMALTF
 40
25.4
  9
$DIMLFAC
 40
1.0
  9
$DIMTOFL
 70
     0
  9
$DIMTVP
 40
0.0
  9
$DIMTIX
 70
     0
  9
$DIMSOXD
 70
     0
  9
$DIMSAH
 70
     0
  9
$DIMBLK1
  1

  9
$DIMBLK2
  1

  9
$DIMSTYLE
  2
Standard
  9
$DIMCLRD
 70
     0
  9
$DIMCLRE
 70
     0
  9
$DIMCLRT
 70
     0
  9
$DIMTFAC
 40
1.0
  9
$DIMGAP
 40
0.09
  9
$DIMJUST
 70
     0
  9
$DIMSD1
 70
     0
  9
$DIMSD2
 70
     0
  9
$DIMTOLJ
 70
     1
  9
$DIMTZIN
 70
     0
  9
$DIMALTZ
 70
     0
  9
$DIMALTTZ
 70
     0
  9
$DIMUPT
 70
     0
  9
$DIMDEC
 70
     4
  9
$DIMTDEC
 70
     4
  9
$DIMALTU
 70
     2
  9
$DIMALTTD
 70
     2
  9
$DIMTXSTY
  7
Standard
  9
$DIMAUNIT
 70
     0
  9
$DIMADEC
 70
     0
  9
$DIMALTRND
 40
0.0
  9
$DIMAZIN
 70
     0
  9
$DIMDSEP
 70
    46
  9
$DIMATFIT
 70
     3
  9
$DIMFRAC
 70
     0
  9
$DIMLDRBLK
  1

  9
$DIMLUNIT
 70
     2
  9
$DIMLWD
 70
    -2
  9
$DIMLWE
 70
    -2
  9
$DIMTMOVE
 70
     0
  9
$LUNITS
 70
     2
  9
$LUPREC
 70
     4
  9
$SKETCHINC
 40
0.1
  9
$FILLETRAD
 40
0.5
  9
$AUNITS
 70
     0
  9
$AUPREC
 70
     0
  9
$MENU
  1
.
  9
$ELEVATION
 40
0.0
  9
$PELEVATION
 40
0.0
  9
$THICKNESS
 40
0.0
  9
$LIMCHECK
 70
     0
  9
$CHAMFERA
 40
0.5
  9
$CHAMFERB
 40
0.5
  9
$CHAMFERC
 40
1.0
  9
$CHAMFERD
 40
0.0
  9
$SKPOLY
 70
     0
  9
$TDCREATE
 40
2456496.597194745
  9
$TDUCREATE
 40
2456496.222194745
  9
$TDUPDATE
 40
2456496.597196007
  9
$TDUUPDATE
 40
2456496.222196007
  9
$TDINDWG
 40
0.0000000116
  9
$TDUSRTIMER
 40
0.0000000116
  9
$USRTIMER
 70
     1
  9
$ANGBASE
 50
0.0
  9
$ANGDIR
 70
     0
  9
$PDMODE
 70
     0
  9
$PDSIZE
 40
0.0
  9
$PLINEWID
 40
0.0
  9
$SPLFRAME
 70
     0
  9
$SPLINETYPE
 70
     6
  9
$SPLINESEGS
 70
     8
  9
$HANDSEED
  5
3C2
  9
$SURFTAB1
 70
     6
  9
$SURFTAB2
 70
     6
  9
$SURFTYPE
 70
     6
  9
$SURFU
 70
     6
  9
$SURFV
 70
     6
  9
$UCSBASE
  2

  9
$UCSNAME
  2

  9
$UCSORG
 10
0.0
 20
0.0
 30
0.0
  9
$UCSXDIR
 10
1.0
 20
0.0
 30
0.0
  9
$UCSYDIR
 10
0.0
 20
1.0
 30
0.0
  9
$UCSORTHOREF
  2

  9
$UCSORTHOVIEW
 70
     0
  9
$UCSORGTOP
 10
0.0
 20
0.0
 30
0.0
  9
$UCSORGBOTTOM
 10
0.0
 20
0.0
 30
0.0
  9
$UCSORGLEFT
 10
0.0
 20
0.0
 30
0.0
  9
$UCSORGRIGHT
 10
0.0
 20
0.0
 30
0.0
  9
$UCSORGFRONT
 10
0.0
 20
0.0
 30
0.0
  9
$UCSORGBACK
 10
0.0
 20
0.0
 30
0.0
  9
$PUCSBASE
  2

  9
$PUCSNAME
  2

  9
$PUCSORG
 10
0.0
 20
0.0
 30
0.0
  9
$PUCSXDIR
 10
1.0
 20
0.0
 30
0.0
  9
$PUCSYDIR
 10
0.0
 20
1.0
 30
0.0
  9
$PUCSORTHOREF
  2

  9
$PUCSORTHOVIEW
 70
     0
  9
$PUCSORGTOP
 10
0.0
 20
0.0
 30
0.0
  9
$PUCSORGBOTTOM
 10
0.0
 20
0.0
 30
0.0
  9
$PUCSORGLEFT
 10
0.0
 20
0.0
 30
0.0
  9
$PUCSORGRIGHT
 10
0.0
 20
0.0
 30
0.0
  9
$PUCSORGFRONT
 10
0.0
 20
0.0
 30
0.0
  9
$PUCSORGBACK
 10
0.0
 20
0.0
 30
0.0
  9
$USERI1
 70
     0
  9
$USERI2
 70
     0
  9
$USERI3
 70
     0
  9
$USERI4
 70
     0
  9
$USERI5
 70
     0
  9
$USERR1
 40
18.1
  9
$USERR2
 40
0.0
  9
$USERR3
 40
0.0
  9
$USERR4
 40
0.0
  9
$USERR5
 40
0.0
  9
$WORLDVIEW
 70
     1
  9
$SHADEDGE
 70
     3
  9
$SHADEDIF
 70
    70
  9
$TILEMODE
 70
     1
  9
$MAXACTVP
 70
    64
  9
$PINSBASE
 10
0.0
 20
0.0
 30
0.0
  9
$PLIMCHECK
 70
     0
  9
$PEXTMIN
 10
1.00000000000000E+20
 20
1.00000000000000E+20
 30
1.00000000000000E+20
  9
$PEXTMAX
 10
-1.00000000000000E+20
 20
-1.00000000000000E+20
 30
-1.00000000000000E+20
  9
$PLIMMIN
 10
0.0
 20
0.0
  9
$PLIMMAX
 10
12.0
 20
9.0
  9
$UNITMODE
 70
     0
  9
$VISRETAIN
 70
     1
  9
$PLINEGEN
 70
     0
  9
$PSLTSCALE
 70
     1
  9
$TREEDEPTH
 70
  3020
  9
$CMLSTYLE
  2
Standard
  9
$CMLJUST
 70
     0
  9
$CMLSCALE
 40
1.0
  9
$PROXYGRAPHICS
 70
     1
  9
$MEASUREMENT
 70
     1
  9
$CELWEIGHT
370
    -1
  9
$ENDCAPS
280
     0
  9
$JOINSTYLE
280
     0
  9
$LWDISPLAY
290
     0
  9
$INSUNITS
 70
     4
  9
$HYPERLINKBASE
  1

  9
$STYLESHEET
  1

  9
$XEDIT
290
     1
  9
$CEPSNTYPE
380
     0
  9
$PSTYLEMODE
290
     1
  9
$FINGERPRINTGUID
  2
{02FA7C49-D605-4C4B-9566-6BEF476A14AA}
  9
$VERSIONGUID
  2
{FAEB1C32-E019-11D5-929B-00C0DF256EC4}
  9
$EXTNAMES
290
     1
  9
$PSVPSCALE
 40
0.0
  9
$OLESTARTUP
290
     0
  0
ENDSEC
  0
SECTION
  2
CLASSES
  0
CLASS
  1
ACDBDICTIONARYWDFLT
  2
AcDbDictionaryWithDefault
  3
ObjectDBX Classes
 90
        0
280
     0
281
     0
  0
CLASS
  1
VISUALSTYLE
  2
AcDbVisualStyle
  3
ObjectDBX Classes
 90
     4095
280
     0
281
     0
  0
CLASS
  1
MATERIAL
  2
AcDbMaterial
  3
ObjectDBX Classes
 90
     1153
280
     0
281
     0
  0
CLASS
  1
DICTIONARYVAR
  2
AcDbDictionaryVar
  3
ObjectDBX Classes
 90
        0
280
     0
281
     0
  0
CLASS
  1
ACDBPLACEHOLDER
  2
AcDbPlaceHolder
  3
ObjectDBX Classes
 90
        0
280
     0
281
     0
  0
CLASS
  1
LAYOUT
  2
AcDbLayout
  3
ObjectDBX Classes
 90
        0
280
     0
281
     0
  0
ENDSEC
  0
SECTION
  2
TABLES
  0
TABLE
  2
VPORT
  5
8
330
0
100
AcDbSymbolTable
 70
     1
  0
VPORT
  5
29
330
8
100
AcDbSymbolTableRecord
100
AcDbViewportTableRecord
  2
*Active
 70
     0
 10
0.0
 20
0.0
 11
1.0
 21
1.0
 12
315.0
 22
445.5
 13
0.0
 23
0.0
 14
0.5
 24
0.5
 15
0.5
 25
0.5
 16
0.0
 26
0.0
 36
1.0
 17
0.0
 27
0.0
 37
0.0
 40
980.1
 41
1.60267857142857
 42
50.0
 43
0.0
 44
0.0
 50
0.0
 51
0.0
 71
     0
 72
   100
 73
     1
 74
     3
 75
     0
 76
     0
 77
     0
 78
     0
281
     0
 65
     1
110
0.0
120
0.0
130
0.0
111
1.0
121
0.0
131
0.0
112
0.0
122
1.0
132
0.0
 79
     0
146
0.0
  0
ENDTAB
  0
TABLE
  2
LTYPE
  5
5
330
0
100
AcDbSymbolTable
 70
     8
  0
LTYPE
  5
14
330
5
100
AcDbSymbolTableRecord
100
AcDbLinetypeTableRecord
  2
ByBlock
 70
     0
  3

 72
    65
 73
     0
 40
0.0
  0
LTYPE
  5
15
330
5
100
AcDbSymbolTableRecord
100
AcDbLinetypeTableRecord
  2
ByLayer
 70
     0
  3

 72
    65
 73
     0
 40
0.0
  0
LTYPE
  5
16
330
5
100
AcDbSymbolTableRecord
100
AcDbLinetypeTableRecord
  2
Continuous
 70
     0
  3
Solid line
 72
    65
 73
     0
 40
0.0
  0
LTYPE
  5
3F
330
5
100
AcDbSymbolTableRecord
100
AcDbLinetypeTableRecord
  2
DASHED
 70
     0
  3
Dashed
 72
    65
 73
     2
 40
15.0
 49
7.0
 74
     0
 49
-8.0
 74
     0
  0
LTYPE
  5
40
330
5
100
AcDbSymbolTableRecord
100
AcDbLinetypeTableRecord
  2
DOTTED
 70
     0
  3
Dotted
 72
    65
 73
     2
 40
1.0
 49
0.0
 74
     0
 49
-1.0
 74
     0
  0
LTYPE
  5
41
330
5
100
AcDbSymbolTableRecord
100
AcDbLinetypeTableRecord
  2
DOT_CENTER
 70
     0
  3
Dot_Center
 72
    65
 73
     4
 40
14.0
 49
12.0
 74
     0
 49
-1.0
 74
     0
 49
0.0
 74
     0
 49
-1.0
 74
     0
  0
LTYPE
  5
42
330
5
100
AcDbSymbolTableRecord
100
AcDbLinetypeTableRecord
  2
LONG_DASHED
 70
     0
  3
Long_Dashed
 72
    65
 73
     2
 40
15.0
 49
10.0
 74
     0
 49
-5.0
 74
     0
  0
LTYPE
  5
43
330
5
100
AcDbSymbolTableRecord
100
AcDbLinetypeTableRecord
  2
DASH_CENTER
 70
     0
  3
Dash_Center
 72
    65
 73
     4
 40
14.0
 49
11.0
 74
     0
 49
-1.0
 74
     0
 49
1.0
 74
     0
 49
-1.0
 74
     0
  0
LTYPE
  5
44
330
5
100
AcDbSymbolTableRecord
100
AcDbLinetypeTableRecord
  2
PHANTOM
 70
     0
  3
Phantom
 72
    65
 73
     6
 40
13.0
 49
10.0
 74
     0
 49
-1.0
 74
     0
 49
0.0
 74
     0
 49
-1.0
 74
     0
 49
0.0
 74
     0
 49
-1.0
 74
     0
  0
LTYPE
  5
45
330
5
100
AcDbSymbolTableRecord
100
AcDbLinetypeTableRecord
  2
CENTER_DASH_DASH
 70
     0
  3
Center_Dash_Dash
 72
    65
 73
     6
 40
14.0
 49
9.0
 74
     0
 49
-1.0
 74
     0
 49
1.0
 74
     0
 49
-1.0
 74
     0
 49
1.0
 74
     0
 49
-1.0
 74
     0
  0
ENDTAB
  0
TABLE
  2
LAYER
  5
2
330
0
100
AcDbSymbolTable
 70
     3
  0
LAYER
  5
10
330
2
100
AcDbSymbolTableRecord
100
AcDbLayerTableRecord
  2
0
 70
     0
 62
     7
  6
Continuous
370
    -3
390
F
  0
LAYER
  5
46
330
2
100
AcDbSymbolTableRecord
100
AcDbLayerTableRecord
  2
1
 70
     0
 62
     7
  6
Continuous
370
    -3
390
F
  0
LAYER
  5
47
330
2
100
AcDbSymbolTableRecord
100
AcDbLayerTableRecord
  2
ﾚｲﾔｰ1
 70
     0
 62
     7
  6
Continuous
370
    -3
390
F
  0
ENDTAB
  0
TABLE
  2
STYLE
  5
3
330
0
100
AcDbSymbolTable
 70
     4
  0
STYLE
  5
11
330
3
100
AcDbSymbolTableRecord
100
AcDbTextStyleTableRecord
  2
Standard
 70
     0
 40
0.0
 41
1.0
 50
0.0
 71
     0
 42
0.2
  3
txt
  4

  0
STYLE
  5
2B2
330
3
100
AcDbSymbolTableRecord
100
AcDbTextStyleTableRecord
  2
CONVERTER_11
 70
     0
 40
0.0
 41
1.0
 50
0.0
 71
     0
 42
0.2
  3
txt.shx
  4

  0
STYLE
  5
30B
330
3
100
AcDbSymbolTableRecord
100
AcDbTextStyleTableRecord
  2
CONVERTER_12
 70
     0
 40
0.0
 41
0.89
 50
0.0
 71
     0
 42
0.2
  3
MS Mincho.ttf
  4

1001
ACAD
1000
MS Mincho
1071
    32785
  0
STYLE
  5
329
330
3
100
AcDbSymbolTableRecord
100
AcDbTextStyleTableRecord
  2
CONVERTER_13
 70
     0
 40
0.0
 41
0.9
 50
0.0
 71
     0
 42
0.2
  3
txt.shx
  4

  0
ENDTAB
  0
TABLE
  2
VIEW
  5
6
330
0
100
AcDbSymbolTable
 70
     0
  0
ENDTAB
  0
TABLE
  2
UCS
  5
7
330
0
100
AcDbSymbolTable
 70
     0
  0
ENDTAB
  0
TABLE
  2
APPID
  5
9
330
0
100
AcDbSymbolTable
 70
     1
  0
APPID
  5
12
330
9
100
AcDbSymbolTableRecord
100
AcDbRegAppTableRecord
  2
ACAD
 70
     0
  0
ENDTAB
  0
TABLE
  2
DIMSTYLE
  5
A
330
0
100
AcDbSymbolTable
 70
     8
100
AcDbDimStyleTable
  0
DIMSTYLE
105
27
330
A
100
AcDbSymbolTableRecord
100
AcDbDimStyleTableRecord
  2
Standard
 70
     0
178
     0
340
11
  0
DIMSTYLE
105
337
102
{ACAD_REACTORS
330
338
102
}
330
A
100
AcDbSymbolTableRecord
100
AcDbDimStyleTableRecord
  2
ME10_DIM_10
 70
     0
 41
10.5
 42
0.0
 44
3.0
 73
     0
 74
     0
 77
     1
 78
     8
140
10.5
147
3.0
172
     1
173
     1
174
     1
175
     1
176
     2
177
     2
271
     2
178
     7
271
     2
340
329
  0
DIMSTYLE
105
34C
102
{ACAD_REACTORS
330
34D
102
}
330
A
100
AcDbSymbolTableRecord
100
AcDbDimStyleTableRecord
  2
ME10_DIM_11
 70
     0
 41
10.5
 42
0.0
 44
3.0
 73
     0
 74
     0
 77
     1
 78
     8
140
10.5
147
3.0
172
     1
173
     1
174
     1
175
     1
176
     2
177
     2
271
     2
178
     7
271
     2
340
329
343
344
  0
DIMSTYLE
105
35A
102
{ACAD_REACTORS
330
35B
102
}
330
A
100
AcDbSymbolTableRecord
100
AcDbDimStyleTableRecord
  2
ME10_DIM_12
 70
     0
 41
10.5
 42
0.0
 44
3.0
 73
     0
 74
     0
 77
     1
 78
     8
140
10.5
147
3.0
172
     1
173
     1
174
     1
175
     1
176
     2
177
     2
271
     2
178
     7
271
     2
340
329
344
357
  0
DIMSTYLE
105
365
102
{ACAD_REACTORS
330
366
102
}
330
A
100
AcDbSymbolTableRecord
100
AcDbDimStyleTableRecord
  2
ME10_DIM_13
 70
     0
  3
内径{\Fgdt;n}<>
 41
10.5
 42
0.0
 44
3.0
 73
     0
 74
     0
 77
     1
 78
     8
140
10.5
147
3.0
172
     1
173
     1
174
     1
175
     1
176
     2
177
     2
271
     2
178
     7
271
     2
340
30B
  0
DIMSTYLE
105
370
102
{ACAD_REACTORS
330
371
102
}
330
A
100
AcDbSymbolTableRecord
100
AcDbDimStyleTableRecord
  2
ME10_DIM_14
 70
     0
  3
{\Fgdt;n}<>
 41
10.5
 42
0.0
 44
3.0
 73
     0
 74
     0
 77
     1
 78
     8
140
10.5
147
3.0
172
     1
173
     1
174
     1
175
     1
176
     2
177
     2
271
     2
178
     7
271
     2
340
329
  0
DIMSTYLE
105
37B
102
{ACAD_REACTORS
330
37C
102
}
330
A
100
AcDbSymbolTableRecord
100
AcDbDimStyleTableRecord
  2
ME10_DIM_15
 70
     0
  3
{\Fgdt;n}<>
 41
10.5
 42
0.0
 44
3.0
 73
     0
 74
     0
 77
     1
 78
     8
140
10.5
147
3.0
172
     1
173
     1
174
     1
175
     1
176
     2
177
     2
271
     2
178
     7
271
     2
340
329
  0
DIMSTYLE
105
386
102
{ACAD_REACTORS
330
387
102
}
330
A
100
AcDbSymbolTableRecord
100
AcDbDimStyleTableRecord
  2
ME10_DIM_16
 70
     0
 41
10.5
 42
0.0
 44
3.0
 73
     0
 74
     0
 77
     1
 78
     8
140
10.5
147
3.0
172
     1
173
     1
174
     1
175
     1
176
     2
177
     2
271
     2
178
     7
271
     2
340
329
  0
ENDTAB
  0
TABLE
  2
BLOCK_RECORD
  5
1
330
0
100
AcDbSymbolTable
 70
    18
  0
BLOCK_RECORD
  5
1F
330
1
100
AcDbSymbolTableRecord
100
AcDbBlockTableRecord
  2
*Model_Space
340
22
  0
BLOCK_RECORD
  5
1B
330
1
100
AcDbSymbolTableRecord
100
AcDbBlockTableRecord
  2
*Paper_Space
340
1E
  0
BLOCK_RECORD
  5
23
330
1
100
AcDbSymbolTableRecord
100
AcDbBlockTableRecord
  2
*Paper_Space0
340
26
  0
BLOCK_RECORD
  5
48
330
1
100
AcDbSymbolTableRecord
100
AcDbBlockTableRecord
  2
CLUMP20
340
0
102
{BLKREFS
331
5A
102
}
  0
BLOCK_RECORD
  5
4B
330
1
100
AcDbSymbolTableRecord
100
AcDbBlockTableRecord
  2
CLUMP14
340
0
102
{BLKREFS
331
5B
102
}
  0
BLOCK_RECORD
  5
4E
330
1
100
AcDbSymbolTableRecord
100
AcDbBlockTableRecord
  2
CLUMP13
340
0
102
{BLKREFS
331
5C
102
}
  0
BLOCK_RECORD
  5
51
330
1
100
AcDbSymbolTableRecord
100
AcDbBlockTableRecord
  2
CLUMP5
340
0
102
{BLKREFS
331
5D
102
}
  0
BLOCK_RECORD
  5
54
330
1
100
AcDbSymbolTableRecord
100
AcDbBlockTableRecord
  2
HONTAI
340
0
102
{BLKREFS
331
5E
102
}
  0
BLOCK_RECORD
  5
57
330
1
100
AcDbSymbolTableRecord
100
AcDbBlockTableRecord
  2
開示A4
340
0
102
{BLKREFS
331
5F
102
}
  0
BLOCK_RECORD
  5
32E
330
1
100
AcDbSymbolTableRecord
100
AcDbBlockTableRecord
  2
*D7
340
0
  0
BLOCK_RECORD
  5
339
330
1
100
AcDbSymbolTableRecord
100
AcDbBlockTableRecord
  2
*D8
340
0
  0
BLOCK_RECORD
  5
344
330
1
100
AcDbSymbolTableRecord
100
AcDbBlockTableRecord
  2
_DOT
340
0
  0
BLOCK_RECORD
  5
34E
330
1
100
AcDbSymbolTableRecord
100
AcDbBlockTableRecord
  2
*D10
340
0
  0
BLOCK_RECORD
  5
357
330
1
100
AcDbSymbolTableRecord
100
AcDbBlockTableRecord
  2
_NONE
340
0
  0
BLOCK_RECORD
  5
35C
330
1
100
AcDbSymbolTableRecord
100
AcDbBlockTableRecord
  2
*D12
340
0
  0
BLOCK_RECORD
  5
367
330
1
100
AcDbSymbolTableRecord
100
AcDbBlockTableRecord
  2
*D13
340
0
  0
BLOCK_RECORD
  5
372
330
1
100
AcDbSymbolTableRecord
100
AcDbBlockTableRecord
  2
*D14
340
0
  0
BLOCK_RECORD
  5
37D
330
1
100
AcDbSymbolTableRecord
100
AcDbBlockTableRecord
  2
*D15
340
0
  0
BLOCK_RECORD
  5
388
330
1
100
AcDbSymbolTableRecord
100
AcDbBlockTableRecord
  2
*D16
340
0
102
{BLKREFS
331
38F
102
}
  0
BLOCK_RECORD
  5
390
330
1
100
AcDbSymbolTableRecord
100
AcDbBlockTableRecord
  2
*D17
340
0
102
{BLKREFS
331
396
102
}
  0
ENDTAB
  0
ENDSEC
  0
SECTION
  2
BLOCKS
  0
BLOCK
  5
20
330
1F
100
AcDbEntity
  8
0
100
AcDbBlockBegin
  2
*Model_Space
 70
     0
 10
0.0
 20
0.0
 30
0.0
  3
*Model_Space
  1

  0
ENDBLK
  5
21
330
1F
100
AcDbEntity
  8
0
100
AcDbBlockEnd
  0
BLOCK
  5
1C
330
1B
100
AcDbEntity
 67
     1
  8
0
100
AcDbBlockBegin
  2
*Paper_Space
 70
     0
 10
0.0
 20
0.0
 30
0.0
  3
*Paper_Space
  1

  0
ENDBLK
  5
1D
330
1B
100
AcDbEntity
 67
     1
  8
0
100
AcDbBlockEnd
  0
BLOCK
  5
24
330
23
100
AcDbEntity
  8
0
100
AcDbBlockBegin
  2
*Paper_Space0
 70
     0
 10
0.0
 20
0.0
 30
0.0
  3
*Paper_Space0
  1

  0
ENDBLK
  5
25
330
23
100
AcDbEntity
  8
0
100
AcDbBlockEnd
  0
BLOCK
  5
49
330
48
100
AcDbEntity
  8
0
100
AcDbBlockBegin
  2
CLUMP20
 70
     0
 10
445.2798421467578
 20
500.0917448257251
 30
0.0
  3
CLUMP20
  1

  0
LINE
  5
60
330
48
100
AcDbEntity
  8
ﾚｲﾔｰ1
  6
Continuous
 62
     7
100
AcDbLine
 10
256.3455358029223
 20
652.7352315393271
 30
0.0
 11
256.3455358029223
 21
613.334471718962
 31
0.0
  0
LINE
  5
61
330
48
100
AcDbEntity
  8
ﾚｲﾔｰ1
  6
Continuous
 62
     7
100
AcDbLine
 10
248.8455359439231
 20
613.334471718962
 30
0.0
 11
248.8455359439231
 21
652.7352315393271
 31
0.0
  0
LINE
  5
62
330
48
100
AcDbEntity
  8
ﾚｲﾔｰ1
  6
Continuous
 62
     7
100
AcDbLine
 10
258.0955357700223
 20
613.334471718962
 30
0.0
 11
247.0955359768223
 21
613.334471718962
 31
0.0
  0
LINE
  5
63
330
48
100
AcDbEntity
  8
ﾚｲﾔｰ1
  6
Continuous
 62
     7
100
AcDbLine
 10
256.3455358029223
 20
652.7352315393271
 30
0.0
 11
248.8455359439231
 21
652.7352315393271
 31
0.0
  0
LINE
  5
64
330
48
100
AcDbEntity
  8
ﾚｲﾔｰ1
  6
Continuous
 62
     7
100
AcDbLine
 10
248.0955359580221
 20
605.8344718599619
 30
0.0
 11
257.0955357888224
 21
605.8344718599619
 31
0.0
  0
LINE
  5
65
330
48
100
AcDbEntity
  8
ﾚｲﾔｰ1
  6
Continuous
 62
     7
100
AcDbLine
 10
248.8455359439231
 20
605.8344718599619
 30
0.0
 11
248.8455359439231
 21
590.8344721419619
 31
0.0
  0
LINE
  5
66
330
48
100
AcDbEntity
  8
ﾚｲﾔｰ1
  6
Continuous
 62
     7
100
AcDbLine
 10
256.3455358029223
 20
605.8344718599619
 30
0.0
 11
256.3455358029223
 21
590.8344721419619
 31
0.0
  0
LINE
  5
67
330
48
100
AcDbEntity
  8
ﾚｲﾔｰ1
  6
Continuous
 62
     7
100
AcDbLine
 10
258.0955357700223
 20
606.8344718411611
 30
0.0
 11
258.0955357700223
 21
613.334471718962
 31
0.0
  0
LINE
  5
68
330
48
100
AcDbEntity
  8
ﾚｲﾔｰ1
  6
Continuous
 62
     7
100
AcDbLine
 10
247.0955359768223
 20
613.334471718962
 30
0.0
 11
247.0955359768223
 21
606.8344718411611
 31
0.0
  0
ARC
  5
69
330
48
100
AcDbEntity
  8
ﾚｲﾔｰ1
  6
Continuous
 62
     7
100
AcDbCircle
 10
257.0955357888224
 20
606.8344718411611
 30
0.0
 40
0.9999999811991529
100
AcDbArc
 50
270.0
 51
0.0
  0
ARC
  5
6A
330
48
100
AcDbEntity
  8
ﾚｲﾔｰ1
  6
Continuous
 62
     7
100
AcDbCircle
 10
248.0955359580221
 20
606.8344718411611
 30
0.0
 40
0.9999999811998066
100
AcDbArc
 50
180.0
 51
270.0
  0
ARC
  5
6B
330
48
100
AcDbEntity
  8
ﾚｲﾔｰ1
  6
Continuous
 62
     7
100
AcDbCircle
 10
252.5955358734227
 20
590.8344721419619
 30
0.0
 40
3.749999929499609
100
AcDbArc
 50
180.0
 51
0.0
  0
ENDBLK
  5
4A
330
48
100
AcDbEntity
  8
0
100
AcDbBlockEnd
  0
BLOCK
  5
4C
330
4B
100
AcDbEntity
  8
0
100
AcDbBlockBegin
  2
CLUMP14
 70
     0
 10
345.2798421467578
 20
500.0917448257251
 30
0.0
  3
CLUMP14
  1

  0
LINE
  5
6C
330
4B
100
AcDbEntity
  8
ﾚｲﾔｰ1
  6
Continuous
 62
     7
100
AcDbLine
 10
449.6480693468348
 20
574.0352330628871
 30
0.0
 11
452.6480692904352
 21
574.0352330628871
 31
0.0
  0
LINE
  5
6D
330
4B
100
AcDbEntity
  8
ﾚｲﾔｰ1
  6
Continuous
 62
     7
100
AcDbLine
 10
447.1480693938347
 20
563.5352332261871
 30
0.0
 11
447.6480693844351
 21
563.5352332261871
 31
0.0
  0
LINE
  5
6E
330
4B
100
AcDbEntity
  8
ﾚｲﾔｰ1
  6
Continuous
 62
     7
100
AcDbLine
 10
454.6480692528348
 20
633.5352319095871
 30
0.0
 11
454.6480692528348
 21
564.2852329850871
 31
0.0
  0
LINE
  5
6F
330
4B
100
AcDbEntity
  8
ﾚｲﾔｰ1
  6
Continuous
 62
     7
100
AcDbLine
 10
453.1480692810355
 20
564.285232917387
 30
0.0
 11
453.1480692810355
 21
633.5352319096869
 31
0.0
  0
LINE
  5
70
330
4B
100
AcDbEntity
  8
ﾚｲﾔｰ1
  6
Continuous
 62
     7
100
AcDbLine
 10
452.8480692866751
 20
567.535233211587
 30
0.0
 11
452.8480692866751
 21
633.5352319096869
 31
0.0
  0
LINE
  5
71
330
4B
100
AcDbEntity
  8
ﾚｲﾔｰ1
  6
Continuous
 62
     7
100
AcDbLine
 10
449.4480693505948
 20
567.535233286487
 30
0.0
 11
449.4480693505948
 21
633.535231909987
 31
0.0
  0
LINE
  5
72
330
4B
100
AcDbEntity
  8
ﾚｲﾔｰ1
  6
Continuous
 62
     7
100
AcDbLine
 10
449.1480693562353
 20
564.2852330287869
 30
0.0
 11
449.1480693562353
 21
633.535231909987
 31
0.0
  0
LINE
  5
73
330
4B
100
AcDbEntity
  8
ﾚｲﾔｰ1
  6
Continuous
 62
     7
100
AcDbLine
 10
447.6480693844351
 20
564.285232906487
 30
0.0
 11
447.6480693844351
 21
633.5352319101869
 31
0.0
  0
LINE
  5
74
330
4B
100
AcDbEntity
  8
ﾚｲﾔｰ1
  6
Continuous
 62
     7
100
AcDbLine
 10
447.1480693938347
 20
633.5352319102869
 30
0.0
 11
447.1480693938347
 21
563.5352332261871
 31
0.0
  0
LINE
  5
75
330
4B
100
AcDbEntity
  8
ﾚｲﾔｰ1
  6
Continuous
 62
     7
100
AcDbLine
 10
447.6480693844351
 20
563.5352332261871
 30
0.0
 11
447.6480693844351
 21
633.5352319101869
 31
0.0
  0
LINE
  5
76
330
4B
100
AcDbEntity
  8
ﾚｲﾔｰ1
  6
Continuous
 62
     7
100
AcDbLine
 10
447.6480694092352
 20
703.535230595387
 30
0.0
 11
447.6480693844351
 21
633.535231911387
 31
0.0
  0
LINE
  5
77
330
4B
100
AcDbEntity
  8
ﾚｲﾔｰ1
  6
Continuous
 62
     7
100
AcDbLine
 10
447.1480693938347
 20
633.535231911487
 30
0.0
 11
447.1480694186348
 21
703.5352305954871
 31
0.0
  0
LINE
  5
78
330
4B
100
AcDbEntity
  8
ﾚｲﾔｰ1
  6
Continuous
 62
     7
100
AcDbLine
 10
447.648069408935
 20
702.7852309150869
 30
0.0
 11
447.6480693844351
 21
633.535231911387
 31
0.0
  0
LINE
  5
79
330
4B
100
AcDbEntity
  8
ﾚｲﾔｰ1
  6
Continuous
 62
     7
100
AcDbLine
 10
449.1480693807353
 20
702.7852307921869
 30
0.0
 11
449.1480693562353
 21
633.535231910987
 31
0.0
  0
LINE
  5
7A
330
4B
100
AcDbEntity
  8
ﾚｲﾔｰ1
  6
Continuous
 62
     7
100
AcDbLine
 10
449.4480693739952
 20
699.535230534487
 30
0.0
 11
449.4480693505948
 21
633.535231910887
 31
0.0
  0
LINE
  5
7B
330
4B
100
AcDbEntity
  8
ﾚｲﾔｰ1
  6
Continuous
 62
     7
100
AcDbLine
 10
452.8480693100755
 20
699.535230608187
 30
0.0
 11
452.8480692866751
 21
633.535231909987
 31
0.0
  0
LINE
  5
7C
330
4B
100
AcDbEntity
  8
ﾚｲﾔｰ1
  6
Continuous
 62
     7
100
AcDbLine
 10
453.1480693055355
 20
702.7852309022869
 30
0.0
 11
453.1480692810355
 21
633.535231909987
 31
0.0
  0
LINE
  5
7D
330
4B
100
AcDbEntity
  8
ﾚｲﾔｰ1
  6
Continuous
 62
     7
100
AcDbLine
 10
454.6480692528348
 20
633.5352319095871
 30
0.0
 11
454.6480692773348
 21
702.785230833987
 31
0.0
  0
LINE
  5
7E
330
4B
100
AcDbEntity
  8
ﾚｲﾔｰ1
  6
Continuous
 62
     7
100
AcDbLine
 10
447.1480694186348
 20
703.5352305954871
 30
0.0
 11
447.6480694092352
 21
703.535230595387
 31
0.0
  0
LINE
  5
7F
330
4B
100
AcDbEntity
  8
ﾚｲﾔｰ1
  6
Continuous
 62
     7
100
AcDbLine
 10
449.6480693679578
 20
693.0352307579869
 30
0.0
 11
452.6480693115345
 21
693.0352307568869
 31
0.0
  0
ARC
  5
80
330
4B
100
AcDbEntity
  8
ﾚｲﾔｰ1
  6
Continuous
 62
     7
100
AcDbCircle
 10
452.6480692904352
 20
573.5352330722869
 30
0.0
 40
0.4999999906006277
100
AcDbArc
 50
66.4218215218408
 51
90.0
  0
ARC
  5
81
330
4B
100
AcDbEntity
  8
ﾚｲﾔｰ1
  6
Continuous
 62
     7
100
AcDbCircle
 10
453.3480692772755
 20
567.535233185087
 30
0.0
 40
0.4999999906003731
100
AcDbArc
 50
180.0000033199414
 51
246.4218215217768
  0
ARC
  5
82
330
4B
100
AcDbEntity
  8
ﾚｲﾔｰ1
  6
Continuous
 62
     7
100
AcDbCircle
 10
453.8980692669347
 20
564.285233246188
 30
0.0
 40
0.749999985899323
100
AcDbArc
 50
180.000025118545
 51
359.9999800533585
  0
ARC
  5
83
330
4B
100
AcDbEntity
  8
ﾚｲﾔｰ1
  6
Continuous
 62
     7
100
AcDbCircle
 10
449.6480693468348
 20
573.5352330722869
 30
0.0
 40
0.4999999906001449
100
AcDbArc
 50
90.0
 51
113.5781784781712
  0
ARC
  5
84
330
4B
100
AcDbEntity
  8
ﾚｲﾔｰ1
  6
Continuous
 62
     7
100
AcDbCircle
 10
448.9480693599944
 20
567.535233185087
 30
0.0
 40
0.4999999905999722
100
AcDbArc
 50
293.5781784783128
 51
359.9999832436237
  0
ARC
  5
85
330
4B
100
AcDbEntity
  8
ﾚｲﾔｰ1
  6
Continuous
 62
     7
100
AcDbCircle
 10
448.3980693703352
 20
564.285233246188
 30
0.0
 40
0.7499999859001806
100
AcDbArc
 50
180.0000259512488
 51
359.9999833917817
  0
ARC
  5
86
330
4B
100
AcDbEntity
  8
ﾚｲﾔｰ1
  6
Continuous
 62
     7
100
AcDbCircle
 10
448.3980693948352
 20
702.7852305751869
 30
0.0
 40
0.7499999859001351
100
AcDbArc
 50
0.00001657757757
 51
179.9999740335524
  0
ARC
  5
87
330
4B
100
AcDbEntity
  8
ﾚｲﾔｰ1
  6
Continuous
 62
     7
100
AcDbCircle
 10
448.9480693833948
 20
699.5352306360869
 30
0.0
 40
0.4999999906004504
100
AcDbArc
 50
0.00001673610551
 51
66.42182150147917
  0
ARC
  5
88
330
4B
100
AcDbEntity
  8
ﾚｲﾔｰ1
  6
Continuous
 62
     7
100
AcDbCircle
 10
449.6480693681351
 20
693.5352307485871
 30
0.0
 40
0.4999999905988993
100
AcDbArc
 50
246.4218215013854
 51
269.9999999796835
  0
ARC
  5
89
330
4B
100
AcDbEntity
  8
ﾚｲﾔｰ1
  6
Continuous
 62
     7
100
AcDbCircle
 10
453.8980692914347
 20
702.7852305731869
 30
0.0
 40
0.749999985900149
100
AcDbArc
 50
0.00001992366093
 51
179.9999748586133
  0
ARC
  5
8A
330
4B
100
AcDbEntity
  8
ﾚｲﾔｰ1
  6
Continuous
 62
     7
100
AcDbCircle
 10
453.348069300675
 20
699.5352306344869
 30
0.0
 40
0.4999999906000789
100
AcDbArc
 50
113.5781784579527
 51
179.9999966596314
  0
ARC
  5
8B
330
4B
100
AcDbEntity
  8
ﾚｲﾔｰ1
  6
Continuous
 62
     7
100
AcDbCircle
 10
452.6480693117355
 20
693.535230747487
 30
0.0
 40
0.4999999906001449
100
AcDbArc
 50
269.9999999769673
 51
293.578178457951
  0
ENDBLK
  5
4D
330
4B
100
AcDbEntity
  8
0
100
AcDbBlockEnd
  0
BLOCK
  5
4F
330
4E
100
AcDbEntity
  8
0
100
AcDbBlockBegin
  2
CLUMP13
 70
     0
 10
445.2798421467578
 20
450.0917448257251
 30
0.0
  3
CLUMP13
  1

  0
LINE
  5
8C
330
4E
100
AcDbEntity
  8
ﾚｲﾔｰ1
  6
Continuous
 62
     7
100
AcDbLine
 10
248.8455359434229
 20
378.143771558548
 30
0.0
 11
247.0955359763229
 21
378.143771558548
 31
0.0
  0
LINE
  5
8D
330
4E
100
AcDbEntity
  8
ﾚｲﾔｰ1
  6
Continuous
 62
     7
100
AcDbLine
 10
258.0955357695229
 20
378.143771558548
 30
0.0
 11
256.3455358024221
 21
378.143771558548
 31
0.0
  0
LINE
  5
8E
330
4E
100
AcDbEntity
  8
ﾚｲﾔｰ1
  6
Continuous
 62
     7
100
AcDbLine
 10
258.0955357695229
 20
378.143771558548
 30
0.0
 11
258.0955357695229
 21
376.6437715867469
 31
0.0
  0
LINE
  5
8F
330
4E
100
AcDbEntity
  8
ﾚｲﾔｰ1
  6
Continuous
 62
     7
100
AcDbLine
 10
247.0955359763229
 20
378.143771558548
 30
0.0
 11
247.0955359763229
 21
376.6437715867469
 31
0.0
  0
LINE
  5
90
330
4E
100
AcDbEntity
  8
ﾚｲﾔｰ1
  6
Continuous
 62
     7
100
AcDbLine
 10
258.0955357695229
 20
415.643770853547
 30
0.0
 11
258.0955357695229
 21
378.143771558548
 31
0.0
  0
LINE
  5
91
330
4E
100
AcDbEntity
  8
ﾚｲﾔｰ1
  6
Continuous
 62
     7
100
AcDbLine
 10
247.0955359763229
 20
415.643770853547
 30
0.0
 11
247.0955359763229
 21
378.143771558548
 31
0.0
  0
LINE
  5
92
330
4E
100
AcDbEntity
  8
1
  6
Continuous
 62
     7
100
AcDbLine
 10
230.095536295923
 20
380.143771520947
 30
0.0
 11
211.0955366531225
 21
380.143771520947
 31
0.0
  0
LINE
  5
93
330
4E
100
AcDbEntity
  8
ﾚｲﾔｰ1
  6
Continuous
 62
     7
100
AcDbLine
 10
230.095536295923
 20
378.643771549147
 30
0.0
 11
211.0955366531252
 21
378.643771549147
 31
0.0
  0
LINE
  5
94
330
4E
100
AcDbEntity
  8
ﾚｲﾔｰ1
  6
Continuous
 62
     7
100
AcDbLine
 10
255.3455358212223
 20
413.8437708873869
 30
0.0
 11
254.3455358400224
 21
413.8437708873869
 31
0.0
  0
LINE
  5
95
330
4E
100
AcDbEntity
  8
ﾚｲﾔｰ1
  6
Continuous
 62
     7
100
AcDbLine
 10
255.3455358212223
 20
412.3437709155869
 30
0.0
 11
254.3455358400224
 21
412.3437709155869
 31
0.0
  0
LINE
  5
96
330
4E
100
AcDbEntity
  8
ﾚｲﾔｰ1
  6
Continuous
 62
     7
100
AcDbLine
 10
250.8455359058225
 20
412.3437709155869
 30
0.0
 11
249.8455359246227
 21
412.3437709155869
 31
0.0
  0
LINE
  5
97
330
4E
100
AcDbEntity
  8
ﾚｲﾔｰ1
  6
Continuous
 62
     7
100
AcDbLine
 10
250.8455359058225
 20
413.8437708873869
 30
0.0
 11
249.8455359246227
 21
413.8437708873869
 31
0.0
  0
LINE
  5
98
330
4E
100
AcDbEntity
  8
ﾚｲﾔｰ1
  6
Continuous
 62
     7
100
AcDbLine
 10
254.3455358400224
 20
414.643770872347
 30
0.0
 11
254.3455358400224
 21
410.154026637354
 31
0.0
  0
LINE
  5
99
330
4E
100
AcDbEntity
  8
ﾚｲﾔｰ1
  6
Continuous
 62
     7
100
AcDbLine
 10
254.3455358400224
 20
414.643770872347
 30
0.0
 11
250.8455359058225
 21
414.643770872347
 31
0.0
  0
LINE
  5
9A
330
4E
100
AcDbEntity
  8
ﾚｲﾔｰ1
  6
Continuous
 62
     7
100
AcDbLine
 10
250.8455359058225
 20
414.643770872347
 30
0.0
 11
250.8455359058225
 21
410.154026637354
 31
0.0
  0
LINE
  5
9B
330
4E
100
AcDbEntity
  8
ﾚｲﾔｰ1
  6
Continuous
 62
     7
100
AcDbLine
 10
255.3455358212223
 20
414.1437708817471
 30
0.0
 11
255.3455358212223
 21
410.154026637354
 31
0.0
  0
LINE
  5
9C
330
4E
100
AcDbEntity
  8
ﾚｲﾔｰ1
  6
Continuous
 62
     7
100
AcDbLine
 10
249.8455359246227
 20
414.1437708817471
 30
0.0
 11
249.8455359246227
 21
410.154026637354
 31
0.0
  0
LINE
  5
9D
330
4E
100
AcDbEntity
  8
ﾚｲﾔｰ1
  6
Continuous
 62
     7
100
AcDbLine
 10
248.8455359434229
 20
415.3437708591871
 30
0.0
 11
248.8455359434229
 21
414.1437708817471
 31
0.0
  0
LINE
  5
9E
330
4E
100
AcDbEntity
  8
ﾚｲﾔｰ1
  6
Continuous
 62
     7
100
AcDbLine
 10
256.3455358024221
 20
415.3437708591871
 30
0.0
 11
256.3455358024221
 21
414.1437708817471
 31
0.0
  0
LINE
  5
9F
330
4E
100
AcDbEntity
  8
ﾚｲﾔｰ1
  6
Continuous
 62
     7
100
AcDbLine
 10
256.3455358024221
 20
415.3437708591871
 30
0.0
 11
248.8455359434229
 21
415.3437708591871
 31
0.0
  0
LINE
  5
A0
330
4E
100
AcDbEntity
  8
ﾚｲﾔｰ1
  6
Continuous
 62
     7
100
AcDbLine
 10
251.5668173141867
 20
403.261811149237
 30
0.0
 11
250.8626084437428
 21
409.8344272724589
 31
0.0
  0
LINE
  5
A1
330
4E
100
AcDbEntity
  8
ﾚｲﾔｰ1
  6
Continuous
 62
     7
100
AcDbLine
 10
254.3284633021431
 20
409.834427272463
 30
0.0
 11
253.6242544317584
 21
403.261811149237
 31
0.0
  0
LINE
  5
A2
330
4E
100
AcDbEntity
  8
ﾚｲﾔｰ1
  6
Continuous
 62
     7
100
AcDbLine
 10
251.865110054755
 20
402.9937710913671
 30
0.0
 11
253.325961691191
 21
402.9937710913671
 31
0.0
  0
LINE
  5
A3
330
4E
100
AcDbEntity
  8
ﾚｲﾔｰ1
  6
Continuous
 62
     7
100
AcDbLine
 10
248.8455359434229
 20
399.493771157167
 30
0.0
 11
247.0955359763229
 21
411.493770931567
 31
0.0
  0
LINE
  5
A4
330
4E
100
AcDbEntity
  8
ﾚｲﾔｰ1
  6
Continuous
 62
     7
100
AcDbLine
 10
258.0955357695229
 20
411.493770931567
 30
0.0
 11
256.3455358024221
 21
399.493771157167
 31
0.0
  0
LINE
  5
A5
330
4E
100
AcDbEntity
  8
ﾚｲﾔｰ1
  6
Continuous
 62
     7
100
AcDbLine
 10
258.0955357695229
 20
411.493770931567
 30
0.0
 11
258.0955357695229
 21
416.4937708375669
 31
0.0
  0
LINE
  5
A6
330
4E
100
AcDbEntity
  8
ﾚｲﾔｰ1
  6
Continuous
 62
     7
100
AcDbLine
 10
247.0955359763229
 20
416.4937708375669
 30
0.0
 11
247.0955359763229
 21
411.493770931567
 31
0.0
  0
LINE
  5
A7
330
4E
100
AcDbEntity
  8
ﾚｲﾔｰ1
  6
Continuous
 62
     7
100
AcDbLine
 10
256.5955357977227
 20
417.9937708093669
 30
0.0
 11
248.5955359481231
 21
417.9937708093669
 31
0.0
  0
LINE
  5
A8
330
4E
100
AcDbEntity
  8
ﾚｲﾔｰ1
  6
Continuous
 62
     7
100
AcDbLine
 10
255.3227724373501
 20
409.727894150865
 30
0.0
 11
254.4884092657367
 21
401.940504549269
 31
0.0
  0
LINE
  5
A9
330
4E
100
AcDbEntity
  8
ﾚｲﾔｰ1
  6
Continuous
 62
     7
100
AcDbLine
 10
251.1998170477618
 20
401.4937711195669
 30
0.0
 11
253.9912546981832
 21
401.4937711195669
 31
0.0
  0
LINE
  5
AA
330
4E
100
AcDbEntity
  8
ﾚｲﾔｰ1
  6
Continuous
 62
     7
100
AcDbLine
 10
250.7026624801083
 20
401.940504549269
 30
0.0
 11
249.8682993085949
 21
409.727894150865
 31
0.0
  0
LINE
  5
AB
330
4E
100
AcDbEntity
  8
ﾚｲﾔｰ1
  6
Continuous
 62
     7
100
AcDbLine
 10
255.3455358212223
 20
411.493770931567
 30
0.0
 11
256.5955357977227
 21
411.493770931567
 31
0.0
  0
LINE
  5
AC
330
4E
100
AcDbEntity
  8
ﾚｲﾔｰ1
  6
Continuous
 62
     7
100
AcDbLine
 10
248.5955359481231
 20
411.493770931567
 30
0.0
 11
249.8455359246227
 21
411.493770931567
 31
0.0
  0
LINE
  5
AD
330
4E
100
AcDbEntity
  8
ﾚｲﾔｰ1
  6
Continuous
 62
     7
100
AcDbLine
 10
250.8455359058225
 20
414.1437708817471
 30
0.0
 11
248.8455359434229
 21
414.1437708817471
 31
0.0
  0
LINE
  5
AE
330
4E
100
AcDbEntity
  8
ﾚｲﾔｰ1
  6
Continuous
 62
     7
100
AcDbLine
 10
256.3455358024221
 20
414.1437708817471
 30
0.0
 11
254.3455358400224
 21
414.1437708817471
 31
0.0
  0
LINE
  5
AF
330
4E
100
AcDbEntity
  8
ﾚｲﾔｰ1
  6
Continuous
 62
     7
100
AcDbLine
 10
195.0955369539233
 20
396.1437712201471
 30
0.0
 11
195.0955369539233
 21
380.143771520947
 31
0.0
  0
LINE
  5
B0
330
4E
100
AcDbEntity
  8
ﾚｲﾔｰ1
  6
Continuous
 62
     7
100
AcDbLine
 10
261.0955357131224
 20
376.6437715867469
 30
0.0
 11
258.0955357695229
 21
376.6437715867469
 31
0.0
  0
LINE
  5
B1
330
4E
100
AcDbEntity
  8
ﾚｲﾔｰ1
  6
Continuous
 62
     7
100
AcDbLine
 10
261.0955357131224
 20
415.643770853547
 30
0.0
 11
261.0955357131224
 21
376.6437715867469
 31
0.0
  0
LINE
  5
B2
330
4E
100
AcDbEntity
  8
ﾚｲﾔｰ1
  6
Continuous
 62
     7
100
AcDbLine
 10
230.095536295923
 20
380.143771520947
 30
0.0
 11
234.5955362113227
 21
380.143771520947
 31
0.0
  0
LINE
  5
B3
330
4E
100
AcDbEntity
  8
ﾚｲﾔｰ1
  6
Continuous
 62
     7
100
AcDbLine
 10
244.0955360327225
 20
378.143771558548
 30
0.0
 11
235.5955361925226
 21
378.143771558548
 31
0.0
  0
LINE
  5
B4
330
4E
100
AcDbEntity
  8
ﾚｲﾔｰ1
  6
Continuous
 62
     7
100
AcDbLine
 10
244.0955360327225
 20
378.143771558548
 30
0.0
 11
244.0955360327225
 21
376.6437715867469
 31
0.0
  0
LINE
  5
B5
330
4E
100
AcDbEntity
  8
ﾚｲﾔｰ1
  6
Continuous
 62
     7
100
AcDbLine
 10
234.5955362113227
 20
380.143771520947
 30
0.0
 11
234.5955362113227
 21
379.1437715397469
 31
0.0
  0
LINE
  5
B6
330
4E
100
AcDbEntity
  8
ﾚｲﾔｰ1
  6
Continuous
 62
     7
100
AcDbLine
 10
247.0955359763229
 20
376.6437715867469
 30
0.0
 11
244.0955360327225
 21
376.6437715867469
 31
0.0
  0
LINE
  5
B7
330
4E
100
AcDbEntity
  8
ﾚｲﾔｰ1
  6
Continuous
 62
     7
100
AcDbLine
 10
230.095536295923
 20
380.143771520947
 30
0.0
 11
230.095536295923
 21
378.643771549147
 31
0.0
  0
LINE
  5
B8
330
4E
100
AcDbEntity
  8
ﾚｲﾔｰ1
  6
Continuous
 62
     7
100
AcDbLine
 10
256.3455358024221
 20
399.493771157167
 30
0.0
 11
256.3455358024203
 21
378.143771558546
 31
0.0
  0
LINE
  5
B9
330
4E
100
AcDbEntity
  8
ﾚｲﾔｰ1
  6
Continuous
 62
     7
100
AcDbLine
 10
248.8455359434229
 20
399.493771157167
 30
0.0
 11
248.8455359434211
 21
378.143771558546
 31
0.0
  0
LINE
  5
BA
330
4E
100
AcDbEntity
  8
ﾚｲﾔｰ1
  6
Continuous
 62
     7
100
AcDbLine
 10
231.2955362733628
 20
411.3424550879111
 30
0.0
 11
234.5955362113227
 21
411.3424550879111
 31
0.0
  0
LINE
  5
BB
330
4E
100
AcDbEntity
  8
ﾚｲﾔｰ1
  6
Continuous
 62
     7
100
AcDbLine
 10
261.0955357131224
 20
415.643770853547
 30
0.0
 11
258.0955357695229
 21
415.643770853547
 31
0.0
  0
LINE
  5
BC
330
4E
100
AcDbEntity
  8
ﾚｲﾔｰ1
  6
Continuous
 62
     7
100
AcDbLine
 10
223.8705362007531
 20
424.685852198056
 30
0.0
 11
214.9455365807426
 21
419.5330012649511
 31
0.0
  0
LINE
  5
BD
330
4E
100
AcDbEntity
  8
ﾚｲﾔｰ1
  6
Continuous
 62
     7
100
AcDbLine
 10
225.0205361791323
 20
422.6939938068031
 30
0.0
 11
216.0955365591235
 21
417.5411428736941
 31
0.0
  0
LINE
  5
BE
330
4E
100
AcDbEntity
  8
ﾚｲﾔｰ1
  6
Continuous
 62
     7
100
AcDbLine
 10
232.501350122493
 20
423.549583804117
 30
0.0
 11
241.9071630448643
 21
414.1437708817471
 31
0.0
  0
LINE
  5
BF
330
4E
100
AcDbEntity
  8
ﾚｲﾔｰ1
  6
Continuous
 62
     7
100
AcDbLine
 10
234.5955362113227
 20
413.143770955847
 30
0.0
 11
234.5955362113227
 21
380.143771520947
 31
0.0
  0
LINE
  5
C0
330
4E
100
AcDbEntity
  8
ﾚｲﾔｰ1
  6
Continuous
 62
     7
100
AcDbLine
 10
244.0955360327225
 20
415.643770853547
 30
0.0
 11
244.0955360327225
 21
378.143771558548
 31
0.0
  0
LINE
  5
C1
330
4E
100
AcDbEntity
  8
ﾚｲﾔｰ1
  6
Continuous
 62
     7
100
AcDbLine
 10
234.5955362113227
 20
418.493770568567
 30
0.0
 11
234.5955362113227
 21
415.435387323264
 31
0.0
  0
LINE
  5
C2
330
4E
100
AcDbEntity
  8
ﾚｲﾔｰ1
  6
Continuous
 62
     7
100
AcDbLine
 10
244.0955360327225
 20
414.1437708817471
 30
0.0
 11
236.5955361737224
 21
414.1437708817471
 31
0.0
  0
LINE
  5
C3
330
4E
100
AcDbEntity
  8
ﾚｲﾔｰ1
  6
Continuous
 62
     7
100
AcDbLine
 10
247.0955359763229
 20
415.643770853547
 30
0.0
 11
244.0955360327225
 21
415.643770853547
 31
0.0
  0
LINE
  5
C4
330
4E
100
AcDbEntity
  8
ﾚｲﾔｰ1
  6
Continuous
 62
     7
100
AcDbLine
 10
215.7455365657024
 20
412.1437709193469
 30
0.0
 11
231.2955362733628
 21
412.1437709193469
 31
0.0
  0
LINE
  5
C5
330
4E
100
AcDbEntity
  8
ﾚｲﾔｰ1
  6
Continuous
 62
     7
100
AcDbLine
 10
211.0955366531225
 20
412.1437709193469
 30
0.0
 11
211.4455366465427
 21
412.1437709193469
 31
0.0
  0
LINE
  5
C6
330
4E
100
AcDbEntity
  8
ﾚｲﾔｰ1
  6
Continuous
 62
     7
100
AcDbLine
 10
214.7455365845035
 20
415.2028743274359
 30
0.0
 11
214.7455365845035
 21
412.342455069112
 31
0.0
  0
LINE
  5
C7
330
4E
100
AcDbEntity
  8
ﾚｲﾔｰ1
  6
Continuous
 62
     7
100
AcDbLine
 10
212.4455366277425
 20
415.2028743274359
 30
0.0
 11
212.4455366277425
 21
412.342455069112
 31
0.0
  0
LINE
  5
C8
330
4E
100
AcDbEntity
  8
ﾚｲﾔｰ1
  6
Continuous
 62
     7
100
AcDbLine
 10
232.2955362545636
 20
418.493770568567
 30
0.0
 11
232.2955362545636
 21
412.342455069112
 31
0.0
  0
LINE
  5
C9
330
4E
100
AcDbEntity
  8
ﾚｲﾔｰ1
  6
Continuous
 62
     7
100
AcDbLine
 10
211.4455366465427
 20
411.3424550879111
 30
0.0
 11
215.7455365657024
 21
411.3424550879111
 31
0.0
  0
LINE
  5
CA
330
4E
100
AcDbEntity
  8
ﾚｲﾔｰ1
  6
Continuous
 62
     7
100
AcDbLine
 10
248.8455359434229
 20
378.143771558548
 30
0.0
 11
248.8455359434229
 21
376.9437715811071
 31
0.0
  0
LINE
  5
CB
330
4E
100
AcDbEntity
  8
ﾚｲﾔｰ1
  6
Continuous
 62
     7
100
AcDbLine
 10
256.3455358024221
 20
376.9437715811071
 30
0.0
 11
256.3455358024221
 21
378.143771558548
 31
0.0
  0
LINE
  5
CC
330
4E
100
AcDbEntity
  8
ﾚｲﾔｰ1
  6
Continuous
 62
     7
100
AcDbLine
 10
248.8455359434229
 20
376.9437715811071
 30
0.0
 11
256.3455358024221
 21
376.9437715811071
 31
0.0
  0
LINE
  5
CD
330
4E
100
AcDbEntity
  8
ﾚｲﾔｰ1
  6
Continuous
 62
     7
100
AcDbLine
 10
192.0955370103229
 20
378.643771549147
 30
0.0
 11
192.0955370103229
 21
380.143771520947
 31
0.0
  0
LINE
  5
CE
330
4E
100
AcDbEntity
  8
ﾚｲﾔｰ1
  6
Continuous
 62
     7
100
AcDbLine
 10
192.0955370103229
 20
378.643771549147
 30
0.0
 11
211.0955366531225
 21
378.643771549147
 31
0.0
  0
LINE
  5
CF
330
4E
100
AcDbEntity
  8
ﾚｲﾔｰ1
  6
Continuous
 62
     7
100
AcDbLine
 10
192.0955370103229
 20
380.143771520947
 30
0.0
 11
211.0955366531225
 21
380.143771520947
 31
0.0
  0
LINE
  5
D0
330
4E
100
AcDbEntity
  8
ﾚｲﾔｰ1
  6
Continuous
 62
     7
100
AcDbLine
 10
436.1473843680478
 20
614.535232273588
 30
0.0
 11
434.6473843962485
 21
614.535232273588
 31
0.0
  0
LINE
  5
D1
330
4E
100
AcDbEntity
  8
ﾚｲﾔｰ1
  6
Continuous
 62
     7
100
AcDbLine
 10
434.6473843962485
 20
652.535231559187
 30
0.0
 11
436.1473843680478
 21
652.535231559187
 31
0.0
  0
LINE
  5
D2
330
4E
100
AcDbEntity
  8
ﾚｲﾔｰ1
  6
Continuous
 62
     7
100
AcDbLine
 10
389.1473852516474
 20
638.535231822387
 30
0.0
 11
399.799308226392
 21
638.535231822387
 31
0.0
  0
LINE
  5
D3
330
4E
100
AcDbEntity
  8
ﾚｲﾔｰ1
  6
Continuous
 62
     7
100
AcDbLine
 10
389.1473852516474
 20
628.5352320103871
 30
0.0
 11
389.1473852516474
 21
638.535231822387
 31
0.0
  0
LINE
  5
D4
330
4E
100
AcDbEntity
  8
ﾚｲﾔｰ1
  6
Continuous
 62
     7
100
AcDbLine
 10
391.2415721129773
 20
634.7852318928869
 30
0.0
 11
399.1874904073939
 21
634.7852318928869
 31
0.0
  0
LINE
  5
D5
330
4E
100
AcDbEntity
  8
ﾚｲﾔｰ1
  6
Continuous
 62
     7
100
AcDbLine
 10
391.2415721129773
 20
632.2852319398869
 30
0.0
 11
399.1874904073939
 21
632.2852319398869
 31
0.0
  0
LINE
  5
D6
330
4E
100
AcDbEntity
  8
ﾚｲﾔｰ1
  6
Continuous
 62
     7
100
AcDbLine
 10
436.1473843680478
 20
642.137557021663
 30
0.0
 11
436.1473843680478
 21
651.035231587387
 31
0.0
  0
LINE
  5
D7
330
4E
100
AcDbEntity
  8
ﾚｲﾔｰ1
  6
Continuous
 62
     7
100
AcDbLine
 10
436.1473843680478
 20
616.0352322453871
 30
0.0
 11
436.1473843680478
 21
624.932906811011
 31
0.0
  0
LINE
  5
D8
330
4E
100
AcDbEntity
  8
ﾚｲﾔｰ1
  6
Continuous
 62
     7
100
AcDbLine
 10
429.7941328922889
 20
617.5352322171871
 30
0.0
 11
434.6473843962485
 21
617.5352322171871
 31
0.0
  0
LINE
  5
D9
330
4E
100
AcDbEntity
  8
ﾚｲﾔｰ1
  6
Continuous
 62
     7
100
AcDbLine
 10
429.7941328922889
 20
649.535231615587
 30
0.0
 11
434.6473843962485
 21
649.535231615587
 31
0.0
  0
LINE
  5
DA
330
4E
100
AcDbEntity
  8
ﾚｲﾔｰ1
  6
Continuous
 62
     7
100
AcDbLine
 10
399.447385058008
 20
630.1278869729449
 30
0.0
 11
399.447385058008
 21
613.334471718962
 31
0.0
  0
LINE
  5
DB
330
4E
100
AcDbEntity
  8
ﾚｲﾔｰ1
  6
Continuous
 62
     7
100
AcDbLine
 10
414.0916163834963
 20
614.574879578543
 30
0.0
 11
407.1418495634525
 21
613.460583182891
 31
0.0
  0
LINE
  5
DC
330
4E
100
AcDbEntity
  8
ﾚｲﾔｰ1
  6
Continuous
 62
     7
100
AcDbLine
 10
418.3226347576529
 20
614.037936637837
 30
0.0
 11
405.8251287819057
 21
612.0341390683079
 31
0.0
  0
LINE
  5
DD
330
4E
100
AcDbEntity
  8
ﾚｲﾔｰ1
  6
Continuous
 62
     7
100
AcDbLine
 10
400.6473850354478
 20
626.035232057387
 30
0.0
 11
400.6473850354478
 21
613.334471718962
 31
0.0
  0
LINE
  5
DE
330
4E
100
AcDbEntity
  8
ﾚｲﾔｰ1
  6
Continuous
 62
     7
100
AcDbLine
 10
396.7973851078277
 20
613.334471718962
 30
0.0
 11
405.5587118149151
 21
613.334471718962
 31
0.0
  0
LINE
  5
DF
330
4E
100
AcDbEntity
  8
ﾚｲﾔｰ1
  6
Continuous
 62
     7
100
AcDbLine
 10
436.1473843680478
 20
650.835231585047
 30
0.0
 11
442.1480694878355
 21
650.835231585047
 31
0.0
  0
LINE
  5
E0
330
4E
100
AcDbEntity
  8
ﾚｲﾔｰ1
  6
Continuous
 62
     7
100
AcDbLine
 10
436.1473843680478
 20
616.235232238027
 30
0.0
 11
442.1480694878355
 21
616.235232237027
 31
0.0
  0
LINE
  5
E1
330
4E
100
AcDbEntity
  8
ﾚｲﾔｰ1
  6
Continuous
 62
     7
100
AcDbLine
 10
403.5511730278568
 20
606.456924738859
 30
0.0
 11
406.3553036574385
 21
613.334471718962
 31
0.0
  0
LINE
  5
E2
330
4E
100
AcDbEntity
  8
ﾚｲﾔｰ1
  6
Continuous
 62
     7
100
AcDbLine
 10
396.7973851078277
 20
613.334471718962
 30
0.0
 11
396.7973851078277
 21
606.8344718411611
 31
0.0
  0
LINE
  5
E3
330
4E
100
AcDbEntity
  8
ﾚｲﾔｰ1
  6
Continuous
 62
     7
100
AcDbLine
 10
399.447385058008
 20
587.0844722124621
 30
0.0
 11
400.6473850354478
 21
587.0844722124621
 31
0.0
  0
LINE
  5
E4
330
4E
100
AcDbEntity
  8
ﾚｲﾔｰ1
  6
Continuous
 62
     7
100
AcDbLine
 10
400.6473850354478
 20
605.8344718599619
 30
0.0
 11
400.6473850354478
 21
587.0844722124621
 31
0.0
  0
LINE
  5
E5
330
4E
100
AcDbEntity
  8
ﾚｲﾔｰ1
  6
Continuous
 62
     7
100
AcDbLine
 10
399.447385058008
 20
605.8344718599619
 30
0.0
 11
399.447385058008
 21
587.0844722124621
 31
0.0
  0
LINE
  5
E6
330
4E
100
AcDbEntity
  8
ﾚｲﾔｰ1
  6
Continuous
 62
     7
100
AcDbLine
 10
397.7973850890276
 20
605.8344718599619
 30
0.0
 11
402.6251826671651
 21
605.8344718599619
 31
0.0
  0
LINE
  5
E7
330
4E
100
AcDbEntity
  8
ﾚｲﾔｰ1
  6
Continuous
 62
     7
100
AcDbLine
 10
389.1473852516474
 20
628.5352320103871
 30
0.0
 11
399.447385058008
 21
628.5352320103871
 31
0.0
  0
LINE
  5
E8
330
4E
100
AcDbEntity
  8
ﾚｲﾔｰ1
  6
Continuous
 62
     7
100
AcDbLine
 10
434.6473843962485
 20
614.535232273588
 30
0.0
 11
434.6473843962485
 21
622.388483721146
 31
0.0
  0
LINE
  5
E9
330
4E
100
AcDbEntity
  8
ﾚｲﾔｰ1
  6
Continuous
 62
     7
100
AcDbLine
 10
434.6473843962485
 20
644.681980111628
 30
0.0
 11
434.6473843962485
 21
652.535231559187
 31
0.0
  0
LINE
  5
EA
330
4E
100
AcDbEntity
  8
ﾚｲﾔｰ1
  6
Continuous
 62
     7
100
AcDbLine
 10
436.1473843680478
 20
614.535232273588
 30
0.0
 11
436.1473843680478
 21
624.932906811011
 31
0.0
  0
LINE
  5
EB
330
4E
100
AcDbEntity
  8
ﾚｲﾔｰ1
  6
Continuous
 62
     7
100
AcDbLine
 10
436.1473843680478
 20
642.137557021663
 30
0.0
 11
436.1473843680478
 21
652.535231559187
 31
0.0
  0
ARC
  5
EC
330
4E
100
AcDbEntity
  8
ﾚｲﾔｰ1
  6
Continuous
 62
     7
100
AcDbCircle
 10
251.3455358964229
 20
410.154026637354
 30
0.0
 40
3.999999924815989
100
AcDbArc
 50
353.8844964342689
 51
0.0
  0
ARC
  5
ED
330
4E
100
AcDbEntity
  8
ﾚｲﾔｰ1
  6
Continuous
 62
     7
100
AcDbCircle
 10
253.845535849423
 20
410.154026637354
 30
0.0
 40
3.999999924800278
100
AcDbArc
 50
180.0
 51
186.1155035658824
  0
ARC
  5
EE
330
4E
100
AcDbEntity
  8
ﾚｲﾔｰ1
  6
Continuous
 62
     7
100
AcDbCircle
 10
251.3455358964229
 20
410.154026637354
 30
0.0
 40
2.999999943639228
100
AcDbArc
 50
353.8844964338595
 51
0.0
  0
ARC
  5
EF
330
4E
100
AcDbEntity
  8
ﾚｲﾔｰ1
  6
Continuous
 62
     7
100
AcDbCircle
 10
253.845535849423
 20
410.154026637354
 30
0.0
 40
2.9999999436005
100
AcDbArc
 50
180.0
 51
186.1155035662996
  0
ARC
  5
F0
330
4E
100
AcDbEntity
  8
ﾚｲﾔｰ1
  6
Continuous
 62
     7
100
AcDbCircle
 10
253.325961691191
 20
403.293771085727
 30
0.0
 40
0.2999999943598937
100
AcDbArc
 50
270.0
 51
353.8844964336026
  0
ARC
  5
F1
330
4E
100
AcDbEntity
  8
ﾚｲﾔｰ1
  6
Continuous
 62
     7
100
AcDbCircle
 10
251.865110054755
 20
403.293771085727
 30
0.0
 40
0.2999999943603292
100
AcDbArc
 50
186.1155035663789
 51
270.0
  0
ARC
  5
F2
330
4E
100
AcDbEntity
  8
ﾚｲﾔｰ1
  6
Continuous
 62
     7
100
AcDbCircle
 10
256.5955357977227
 20
416.4937708375669
 30
0.0
 40
1.499999971800207
100
AcDbArc
 50
0.0
 51
90.0
  0
ARC
  5
F3
330
4E
100
AcDbEntity
  8
ﾚｲﾔｰ1
  6
Continuous
 62
     7
100
AcDbCircle
 10
248.5955359481231
 20
416.4937708375669
 30
0.0
 40
1.49999997179998
100
AcDbArc
 50
90.0
 51
180.0
  0
ARC
  5
F4
330
4E
100
AcDbEntity
  8
ﾚｲﾔｰ1
  6
Continuous
 62
     7
100
AcDbCircle
 10
256.5955357977227
 20
412.993770903367
 30
0.0
 40
1.499999971800037
100
AcDbArc
 50
270.0
 51
0.0
  0
ARC
  5
F5
330
4E
100
AcDbEntity
  8
ﾚｲﾔｰ1
  6
Continuous
 62
     7
100
AcDbCircle
 10
248.5955359481231
 20
412.993770903367
 30
0.0
 40
1.499999971800207
100
AcDbArc
 50
180.0
 51
270.0
  0
ARC
  5
F6
330
4E
100
AcDbEntity
  8
ﾚｲﾔｰ1
  6
Continuous
 62
     7
100
AcDbCircle
 10
253.9912546981832
 20
401.993771110167
 30
0.0
 40
0.4999999906001449
100
AcDbArc
 50
270.0
 51
353.884496433692
  0
ARC
  5
F7
330
4E
100
AcDbEntity
  8
ﾚｲﾔｰ1
  6
Continuous
 62
     7
100
AcDbCircle
 10
251.1998170477618
 20
401.993771110167
 30
0.0
 40
0.4999999906001295
100
AcDbArc
 50
186.1155035663076
 51
270.0
  0
ARC
  5
F8
330
4E
100
AcDbEntity
  8
ﾚｲﾔｰ1
  6
Continuous
 62
     7
100
AcDbCircle
 10
211.0955366531225
 20
396.1437712201471
 30
0.0
 40
15.9999996991998
100
AcDbArc
 50
90.0
 51
180.0
  0
ARC
  5
F9
330
4E
100
AcDbEntity
  8
ﾚｲﾔｰ1
  6
Continuous
 62
     7
100
AcDbCircle
 10
235.5955361925226
 20
379.1437715397469
 30
0.0
 40
0.9999999811998919
100
AcDbArc
 50
180.0
 51
270.0
  0
ARC
  5
FA
330
4E
100
AcDbEntity
  8
ﾚｲﾔｰ1
  6
Continuous
 62
     7
100
AcDbCircle
 10
215.7455365657024
 20
413.143770900547
 30
0.0
 40
0.9999999811988971
100
AcDbArc
 50
180.0
 51
270.0
  0
ARC
  5
FB
330
4E
100
AcDbEntity
  8
ﾚｲﾔｰ1
  6
Continuous
 62
     7
100
AcDbCircle
 10
236.5955361737224
 20
415.435387323264
 30
0.0
 40
1.999999962399698
100
AcDbArc
 50
180.0
 51
270.0
  0
ARC
  5
FC
330
4E
100
AcDbEntity
  8
ﾚｲﾔｰ1
  6
Continuous
 62
     7
100
AcDbCircle
 10
217.4455365337435
 20
415.2028743274359
 30
0.0
 40
4.999999905999938
100
AcDbArc
 50
120.0000000000123
 51
180.0
  0
ARC
  5
FD
330
4E
100
AcDbEntity
  8
ﾚｲﾔｰ1
  6
Continuous
 62
     7
100
AcDbCircle
 10
217.4455365337435
 20
415.2028743274359
 30
0.0
 40
2.699999949239742
100
AcDbArc
 50
120.0000000000033
 51
180.0
  0
ARC
  5
FE
330
4E
100
AcDbEntity
  8
ﾚｲﾔｰ1
  6
Continuous
 62
     7
100
AcDbCircle
 10
235.5955361925226
 20
413.143770900547
 30
0.0
 40
0.999999981200482
100
AcDbArc
 50
115.8664263042277
 51
180.0
  0
ARC
  5
FF
330
4E
100
AcDbEntity
  8
ﾚｲﾔｰ1
  6
Continuous
 62
     7
100
AcDbCircle
 10
227.4455363457428
 20
418.493770799967
 30
0.0
 40
7.149999865579902
100
AcDbArc
 50
359.9999986303984
 51
119.9999989887031
  0
ARC
  5
100
330
4E
100
AcDbEntity
  8
ﾚｲﾔｰ1
  6
Continuous
 62
     7
100
AcDbCircle
 10
236.5955361737224
 20
416.143770844147
 30
0.0
 40
1.999999962399698
100
AcDbArc
 50
180.0
 51
270.0
  0
ARC
  5
101
330
4E
100
AcDbEntity
  8
ﾚｲﾔｰ1
  6
Continuous
 62
     7
100
AcDbCircle
 10
231.2955362733628
 20
413.143770900547
 30
0.0
 40
0.9999999812001192
100
AcDbArc
 50
270.0
 51
0.0
  0
ARC
  5
102
330
4E
100
AcDbEntity
  8
ﾚｲﾔｰ1
  6
Continuous
 62
     7
100
AcDbCircle
 10
211.4455366465427
 20
413.143770900547
 30
0.0
 40
0.9999999812001192
100
AcDbArc
 50
270.0
 51
0.0
  0
ARC
  5
103
330
4E
100
AcDbEntity
  8
ﾚｲﾔｰ1
  6
Continuous
 62
     7
100
AcDbCircle
 10
215.7455365657024
 20
412.342455069112
 30
0.0
 40
0.9999999811988971
100
AcDbArc
 50
180.0
 51
270.0
  0
ARC
  5
104
330
4E
100
AcDbEntity
  8
ﾚｲﾔｰ1
  6
Continuous
 62
     7
100
AcDbCircle
 10
211.4455366465427
 20
412.342455069112
 30
0.0
 40
0.999999981200915
100
AcDbArc
 50
270.0
 51
0.0
  0
ARC
  5
105
330
4E
100
AcDbEntity
  8
ﾚｲﾔｰ1
  6
Continuous
 62
     7
100
AcDbCircle
 10
231.2955362733628
 20
412.342455069112
 30
0.0
 40
0.999999981200915
100
AcDbArc
 50
270.0
 51
0.0
  0
ARC
  5
106
330
4E
100
AcDbEntity
  8
ﾚｲﾔｰ1
  6
Continuous
 62
     7
100
AcDbCircle
 10
405.5587118149151
 20
623.334471530962
 30
0.0
 40
9.999999811999942
100
AcDbArc
 50
270.0
 51
279.1090353926704
  0
ARC
  5
107
330
4E
100
AcDbEntity
  8
ﾚｲﾔｰ1
  6
Continuous
 62
     7
100
AcDbCircle
 10
402.6251826671651
 20
606.8344718411611
 30
0.0
 40
0.9999999811991529
100
AcDbArc
 50
270.0
 51
337.8181725078018
  0
ARC
  5
108
330
4E
100
AcDbEntity
  8
ﾚｲﾔｰ1
  6
Continuous
 62
     7
100
AcDbCircle
 10
397.7973850890276
 20
606.8344718411611
 30
0.0
 40
0.9999999811998919
100
AcDbArc
 50
180.0
 51
270.0
  0
CIRCLE
  5
109
330
4E
100
AcDbEntity
  8
ﾚｲﾔｰ1
  6
Continuous
 62
     7
100
AcDbCircle
 10
227.4455363457428
 20
418.493770799967
 30
0.0
 40
4.849999908820791
  0
CIRCLE
  5
10A
330
4E
100
AcDbEntity
  8
ﾚｲﾔｰ1
  6
Continuous
 62
     7
100
AcDbCircle
 10
418.6473846970475
 20
633.5352319163869
 30
0.0
 40
19.49999963339997
  0
CIRCLE
  5
10B
330
4E
100
AcDbEntity
  8
ﾚｲﾔｰ1
  6
Continuous
 62
     7
100
AcDbCircle
 10
418.6473846970475
 20
633.5352319163869
 30
0.0
 40
14.49999972739988
  0
CIRCLE
  5
10C
330
4E
100
AcDbEntity
  8
ﾚｲﾔｰ1
  6
Continuous
 62
     7
100
AcDbCircle
 10
418.6473846970475
 20
633.5352319163869
 30
0.0
 40
16.49999968980046
  0
CIRCLE
  5
10D
330
4E
100
AcDbEntity
  8
ﾚｲﾔｰ1
  6
Continuous
 62
     7
100
AcDbCircle
 10
418.6473846970475
 20
633.5352319163869
 30
0.0
 40
16.93645940639459
  0
ENDBLK
  5
50
330
4E
100
AcDbEntity
  8
0
100
AcDbBlockEnd
  0
BLOCK
  5
52
330
51
100
AcDbEntity
  8
0
100
AcDbBlockBegin
  2
CLUMP5
 70
     0
 10
136.5389560033746
 20
300.9948061546311
 30
0.0
  3
CLUMP5
  1

  0
LINE
  5
10E
330
51
100
AcDbEntity
  8
ﾚｲﾔｰ1
  6
Continuous
 62
     7
100
AcDbLine
 10
492.4271329064759
 20
384.7539191632591
 30
0.0
 11
492.4271329064759
 21
411.7539186556589
 31
0.0
  0
LINE
  5
10F
330
51
100
AcDbEntity
  8
ﾚｲﾔｰ1
  6
Continuous
 62
     7
100
AcDbLine
 10
468.4747289443421
 20
448.037514441638
 30
0.0
 11
468.127687279286
 21
450.7151181853999
 31
0.0
  0
LINE
  5
110
330
51
100
AcDbEntity
  8
ﾚｲﾔｰ1
  6
Continuous
 62
     7
100
AcDbLine
 10
481.3795375264144
 20
448.037514441638
 30
0.0
 11
481.7265791914688
 21
450.7151181853999
 31
0.0
  0
LINE
  5
111
330
51
100
AcDbEntity
  8
ﾚｲﾔｰ1
  6
Continuous
 62
     7
100
AcDbLine
 10
469.9271333294764
 20
428.2539183454589
 30
0.0
 11
469.9271333294764
 21
444.886631871864
 31
0.0
  0
LINE
  5
112
330
51
100
AcDbEntity
  8
ﾚｲﾔｰ1
  6
Continuous
 62
     7
100
AcDbLine
 10
524.7107287675553
 20
404.7063232004939
 30
0.0
 11
527.3883325113165
 21
405.0533648655501
 31
0.0
  0
LINE
  5
113
330
51
100
AcDbEntity
  8
ﾚｲﾔｰ1
  6
Continuous
 62
     7
100
AcDbLine
 10
521.4208342345828
 20
417.1847316929309
 30
0.0
 11
523.9214914596814
 21
418.2029228187171
 31
0.0
  0
LINE
  5
114
330
51
100
AcDbEntity
  8
ﾚｲﾔｰ1
  6
Continuous
 62
     7
100
AcDbLine
 10
517.2501511945429
 20
420.8851377061189
 30
0.0
 11
519.024852676841
 21
421.607741860691
 31
0.0
  0
LINE
  5
115
330
51
100
AcDbEntity
  8
ﾚｲﾔｰ1
  6
Continuous
 62
     7
100
AcDbLine
 10
524.7107287675553
 20
391.8015146184221
 30
0.0
 11
527.3883325113165
 21
391.4544729533679
 31
0.0
  0
LINE
  5
116
330
51
100
AcDbEntity
  8
ﾚｲﾔｰ1
  6
Continuous
 62
     7
100
AcDbLine
 10
468.4747289443421
 20
348.4703233772809
 30
0.0
 11
468.127687279286
 21
345.792719633519
 31
0.0
  0
LINE
  5
117
330
51
100
AcDbEntity
  8
ﾚｲﾔｰ1
  6
Continuous
 62
     7
100
AcDbLine
 10
481.3795375264144
 20
348.4703233772809
 30
0.0
 11
481.7265791914688
 21
345.792719633519
 31
0.0
  0
LINE
  5
118
330
51
100
AcDbEntity
  8
ﾚｲﾔｰ1
  6
Continuous
 62
     7
100
AcDbLine
 10
493.8579460188485
 20
351.760217910253
 30
0.0
 11
494.8761371446344
 21
349.2595606852519
 31
0.0
  0
LINE
  5
119
330
51
100
AcDbEntity
  8
ﾚｲﾔｰ1
  6
Continuous
 62
     7
100
AcDbLine
 10
486.0209302888125
 20
444.948003977411
 30
0.0
 11
486.2672236836279
 21
446.8482833460989
 31
0.0
  0
LINE
  5
11A
330
51
100
AcDbEntity
  8
ﾚｲﾔｰ1
  6
Continuous
 62
     7
100
AcDbLine
 10
504.927132671477
 20
403.253918815459
 30
0.0
 11
521.5598461978825
 21
403.253918815459
 31
0.0
  0
LINE
  5
11B
330
51
100
AcDbEntity
  8
ﾚｲﾔｰ1
  6
Continuous
 62
     7
100
AcDbLine
 10
474.9271332354765
 20
423.25391843946
 30
0.0
 11
518.1128939659848
 21
423.25391843946
 31
0.0
  0
LINE
  5
11C
330
51
100
AcDbEntity
  8
ﾚｲﾔｰ1
  6
Continuous
 62
     7
100
AcDbLine
 10
452.2959144388442
 20
440.5769368686861
 30
0.0
 11
451.5733102841459
 21
442.3516383509241
 31
0.0
  0
LINE
  5
11D
330
51
100
AcDbEntity
  8
ﾚｲﾔｰ1
  6
Continuous
 62
     7
100
AcDbLine
 10
479.9271331413765
 20
368.2539194734591
 30
0.0
 11
479.9271331413765
 21
351.621205947054
 31
0.0
  0
LINE
  5
11E
330
51
100
AcDbEntity
  8
ﾚｲﾔｰ1
  6
Continuous
 62
     7
100
AcDbLine
 10
497.5583520320124
 20
355.930900950332
 30
0.0
 11
498.2809561867234
 21
354.156199468096
 31
0.0
  0
LINE
  5
11F
330
51
100
AcDbEntity
  8
ﾚｲﾔｰ1
  6
Continuous
 62
     7
100
AcDbLine
 10
499.9271327654769
 20
398.25391890946
 30
0.0
 11
499.9271327653769
 21
355.068158178952
 31
0.0
  0
LINE
  5
120
330
51
100
AcDbEntity
  8
ﾚｲﾔｰ1
  6
Continuous
 62
     7
100
AcDbLine
 10
455.9963204519045
 20
444.747619908665
 30
0.0
 11
454.9781293262186
 21
447.2482771337641
 31
0.0
  0
LINE
  5
121
330
51
100
AcDbEntity
  8
ﾚｲﾔｰ1
  6
Continuous
 62
     7
100
AcDbLine
 10
425.1435377031994
 20
391.8015146184221
 30
0.0
 11
422.4659339594364
 21
391.4544729533679
 31
0.0
  0
LINE
  5
122
330
51
100
AcDbEntity
  8
ﾚｲﾔｰ1
  6
Continuous
 62
     7
100
AcDbLine
 10
432.60411527625
 20
375.622700112925
 30
0.0
 11
430.829413793912
 21
374.9000959582279
 31
0.0
  0
LINE
  5
123
330
51
100
AcDbEntity
  8
ﾚｲﾔｰ1
  6
Continuous
 62
     7
100
AcDbLine
 10
444.927133799476
 20
393.253919003459
 30
0.0
 11
428.2944202729705
 21
393.253919003459
 31
0.0
  0
LINE
  5
124
330
51
100
AcDbEntity
  8
ﾚｲﾔｰ1
  6
Continuous
 62
     7
100
AcDbLine
 10
489.4271329628755
 20
402.253918834258
 30
0.0
 11
492.4271329064759
 21
402.253918834258
 31
0.0
  0
LINE
  5
125
330
51
100
AcDbEntity
  8
ﾚｲﾔｰ1
  6
Continuous
 62
     7
100
AcDbLine
 10
489.4271329628755
 20
394.253918984658
 30
0.0
 11
492.4271329064759
 21
394.253918984658
 31
0.0
  0
LINE
  5
126
330
51
100
AcDbEntity
  8
ﾚｲﾔｰ1
  6
Continuous
 62
     7
100
AcDbLine
 10
489.4271329628755
 20
384.7539191632591
 30
0.0
 11
489.4271329628755
 21
411.7539186556589
 31
0.0
  0
LINE
  5
127
330
51
100
AcDbEntity
  8
ﾚｲﾔｰ1
  6
Continuous
 62
     7
100
AcDbLine
 10
461.4271334892765
 20
383.753919182059
 30
0.0
 11
488.4271329815765
 21
383.753919182059
 31
0.0
  0
LINE
  5
128
330
51
100
AcDbEntity
  8
ﾚｲﾔｰ1
  6
Continuous
 62
     7
100
AcDbLine
 10
488.4271329816766
 20
412.753918636859
 30
0.0
 11
461.4271334892765
 21
412.753918636859
 31
0.0
  0
LINE
  5
129
330
51
100
AcDbEntity
  8
ﾚｲﾔｰ1
  6
Continuous
 62
     7
100
AcDbLine
 10
461.4271334892765
 20
380.7539192384579
 30
0.0
 11
488.4271329815765
 21
380.7539192384579
 31
0.0
  0
LINE
  5
12A
330
51
100
AcDbEntity
  8
ﾚｲﾔｰ1
  6
Continuous
 62
     7
100
AcDbLine
 10
488.4271329816766
 20
415.7539185804581
 30
0.0
 11
461.4271334892765
 21
415.7539185804581
 31
0.0
  0
LINE
  5
12B
330
51
100
AcDbEntity
  8
ﾚｲﾔｰ1
  6
Continuous
 62
     7
100
AcDbLine
 10
431.74137250487
 20
373.2539193794589
 30
0.0
 11
474.9271332353765
 21
373.2539193794589
 31
0.0
  0
LINE
  5
12C
330
51
100
AcDbEntity
  8
ﾚｲﾔｰ1
  6
Continuous
 62
     7
100
AcDbLine
 10
463.8333361820405
 20
351.559833841608
 30
0.0
 11
463.5870427871705
 21
349.659554472832
 31
0.0
  0
LINE
  5
12D
330
51
100
AcDbEntity
  8
ﾚｲﾔｰ1
  6
Continuous
 62
     7
100
AcDbLine
 10
521.6212183033294
 20
387.1601218561229
 30
0.0
 11
523.5214976721018
 21
386.9138284612529
 31
0.0
  0
LINE
  5
12E
330
51
100
AcDbEntity
  8
ﾚｲﾔｰ1
  6
Continuous
 62
     7
100
AcDbLine
 10
428.4334322361592
 20
379.3231061260581
 30
0.0
 11
425.9327750111697
 21
378.304915000301
 31
0.0
  0
LINE
  5
12F
330
51
100
AcDbEntity
  8
ﾚｲﾔｰ1
  6
Continuous
 62
     7
100
AcDbLine
 10
425.1435377031994
 20
404.7063232004939
 30
0.0
 11
422.4659339594473
 21
405.0533648656299
 31
0.0
  0
LINE
  5
130
330
51
100
AcDbEntity
  8
ﾚｲﾔｰ1
  6
Continuous
 62
     7
100
AcDbLine
 10
449.9271337054761
 20
398.25391890946
 30
0.0
 11
449.9271337054761
 21
441.4396796400661
 31
0.0
  0
LINE
  5
131
330
51
100
AcDbEntity
  8
ﾚｲﾔｰ1
  6
Continuous
 62
     7
100
AcDbLine
 10
428.2330481675253
 20
409.347715962896
 30
0.0
 11
426.3327687987512
 21
409.594009357766
 31
0.0
  0
LINE
  5
132
330
51
100
AcDbEntity
  8
ﾚｲﾔｰ1
  6
Continuous
 62
     7
100
AcDbLine
 10
457.4271335644771
 20
394.253918984658
 30
0.0
 11
460.4271335080775
 21
394.253918984658
 31
0.0
  0
LINE
  5
133
330
51
100
AcDbEntity
  8
ﾚｲﾔｰ1
  6
Continuous
 62
     7
100
AcDbLine
 10
457.4271335644771
 20
402.253918834258
 30
0.0
 11
460.4271335080775
 21
402.253918834258
 31
0.0
  0
LINE
  5
134
330
51
100
AcDbEntity
  8
ﾚｲﾔｰ1
  6
Continuous
 62
     7
100
AcDbLine
 10
460.4271335080775
 20
411.7539186556589
 30
0.0
 11
460.4271335080775
 21
384.7539191632591
 31
0.0
  0
LINE
  5
135
330
51
100
AcDbEntity
  8
ﾚｲﾔｰ1
  6
Continuous
 62
     7
100
AcDbLine
 10
457.4271335644771
 20
411.7539186556589
 30
0.0
 11
457.4271335644771
 21
384.7539191632591
 31
0.0
  0
LINE
  5
136
330
51
100
AcDbEntity
  8
ﾚｲﾔｰ1
  6
Continuous
 62
     7
100
AcDbLine
 10
425.9327743311715
 20
289.8543766765711
 30
0.0
 11
425.9327742888709
 21
284.1543767580311
 31
0.0
  0
LINE
  5
137
330
51
100
AcDbEntity
  8
ﾚｲﾔｰ1
  6
Continuous
 62
     7
100
AcDbLine
 10
423.4646282352715
 20
275.8543769397709
 30
0.0
 11
526.3896360014805
 21
275.8543769397709
 31
0.0
  0
LINE
  5
138
330
51
100
AcDbEntity
  8
ﾚｲﾔｰ1
  6
Continuous
 62
     7
100
AcDbLine
 10
422.4646283186721
 20
289.8543766765711
 30
0.0
 11
527.3896360462804
 21
289.8543766765711
 31
0.0
  0
LINE
  5
139
330
51
100
AcDbEntity
  8
ﾚｲﾔｰ1
  6
Continuous
 62
     7
100
AcDbLine
 10
457.427133013076
 20
313.854376225371
 30
0.0
 11
492.4271323550765
 21
313.854376225371
 31
0.0
  0
LINE
  5
13A
330
51
100
AcDbEntity
  8
ﾚｲﾔｰ1
  6
Continuous
 62
     7
100
AcDbLine
 10
481.379537025372
 20
284.1543767837311
 30
0.0
 11
494.8761366377348
 21
284.1543767837311
 31
0.0
  0
LINE
  5
13B
330
51
100
AcDbEntity
  8
ﾚｲﾔｰ1
  6
Continuous
 62
     7
100
AcDbLine
 10
422.4646282763715
 20
284.1543767837311
 30
0.0
 11
425.9327742888709
 21
284.1543767580311
 31
0.0
  0
LINE
  5
13C
330
51
100
AcDbEntity
  8
ﾚｲﾔｰ1
  6
Continuous
 62
     7
100
AcDbLine
 10
422.4646282726717
 20
283.654376796831
 30
0.0
 11
422.4646282540725
 21
276.854376923671
 31
0.0
  0
LINE
  5
13D
330
51
100
AcDbEntity
  8
ﾚｲﾔｰ1
  6
Continuous
 62
     7
100
AcDbLine
 10
481.379537025372
 20
284.1543767837311
 30
0.0
 11
494.8761366377348
 21
284.1543767837311
 31
0.0
  0
LINE
  5
13E
330
51
100
AcDbEntity
  8
ﾚｲﾔｰ1
  6
Continuous
 62
     7
100
AcDbLine
 10
527.3896359826813
 20
276.854376916071
 30
0.0
 11
527.3896360462804
 21
289.8543766765711
 31
0.0
  0
LINE
  5
13F
330
51
100
AcDbEntity
  8
ﾚｲﾔｰ1
  6
Continuous
 62
     7
100
AcDbLine
 10
492.4271323550765
 20
313.854376225371
 30
0.0
 11
492.4271321785764
 21
289.8543766765711
 31
0.0
  0
LINE
  5
140
330
51
100
AcDbEntity
  8
ﾚｲﾔｰ1
  6
Continuous
 62
     7
100
AcDbLine
 10
493.8579455356794
 20
289.8543766765711
 30
0.0
 11
493.857945493377
 21
284.1543767837311
 31
0.0
  0
LINE
  5
141
330
51
100
AcDbEntity
  8
ﾚｲﾔｰ1
  6
Continuous
 62
     7
100
AcDbLine
 10
494.8761366799354
 20
289.8543766765711
 30
0.0
 11
494.8761366377348
 21
284.1543767837311
 31
0.0
  0
LINE
  5
142
330
51
100
AcDbEntity
  8
ﾚｲﾔｰ1
  6
Continuous
 62
     7
100
AcDbLine
 10
468.4747282101835
 20
289.8543766765711
 30
0.0
 11
468.4747281405835
 21
275.8543769397709
 31
0.0
  0
LINE
  5
143
330
51
100
AcDbEntity
  8
ﾚｲﾔｰ1
  6
Continuous
 62
     7
100
AcDbLine
 10
468.1276868403074
 20
289.8543766765711
 30
0.0
 11
468.1276867706074
 21
275.8543769397709
 31
0.0
  0
LINE
  5
144
330
51
100
AcDbEntity
  8
ﾚｲﾔｰ1
  6
Continuous
 62
     7
100
AcDbLine
 10
481.379537025372
 20
284.1543767837311
 30
0.0
 11
481.3795369979707
 21
275.8543769397709
 31
0.0
  0
LINE
  5
145
330
51
100
AcDbEntity
  8
ﾚｲﾔｰ1
  6
Continuous
 62
     7
100
AcDbLine
 10
481.7265787103479
 20
284.1543767837311
 30
0.0
 11
481.7265786828484
 21
275.8543769397709
 31
0.0
  0
LINE
  5
146
330
51
100
AcDbEntity
  8
ﾚｲﾔｰ1
  6
Continuous
 62
     7
100
AcDbLine
 10
481.379537025372
 20
284.1543767837311
 30
0.0
 11
481.3795369979707
 21
275.8543769397709
 31
0.0
  0
LINE
  5
147
330
51
100
AcDbEntity
  8
ﾚｲﾔｰ1
  6
Continuous
 62
     7
100
AcDbLine
 10
424.7271333513363
 20
289.8543774341711
 30
0.0
 11
424.7271333090375
 21
284.15437676693
 31
0.0
  0
LINE
  5
148
330
51
100
AcDbEntity
  8
ﾚｲﾔｰ1
  6
Continuous
 62
     7
100
AcDbLine
 10
457.427133013076
 20
313.854376225371
 30
0.0
 11
457.4271328365758
 21
289.8543766765711
 31
0.0
  0
LINE
  5
149
330
51
100
AcDbEntity
  8
ﾚｲﾔｰ1
  6
Continuous
 62
     7
100
AcDbLine
 10
422.4646283186721
 20
289.8543766765711
 30
0.0
 11
422.4646282726717
 21
283.654376796831
 31
0.0
  0
ARC
  5
14A
330
51
100
AcDbEntity
  8
ﾚｲﾔｰ1
  6
Continuous
 62
     7
100
AcDbCircle
 10
488.4271329816766
 20
411.7539186556589
 30
0.0
 40
3.999999924799283
100
AcDbArc
 50
0.0
 51
90.0
  0
ARC
  5
14B
330
51
100
AcDbEntity
  8
ﾚｲﾔｰ1
  6
Continuous
 62
     7
100
AcDbCircle
 10
474.9271332353765
 20
398.25391890946
 30
0.0
 40
50.19999905623997
100
AcDbArc
 50
82.61511675329785
 51
97.38488324669824
  0
ARC
  5
14C
330
51
100
AcDbEntity
  8
ﾚｲﾔｰ1
  6
Continuous
 62
     7
100
AcDbCircle
 10
474.9271332353765
 20
398.25391890946
 30
0.0
 40
50.19999905624031
100
AcDbArc
 50
7.38488324669746
 51
22.15464974019942
  0
ARC
  5
14D
330
51
100
AcDbEntity
  8
ﾚｲﾔｰ1
  6
Continuous
 62
     7
100
AcDbCircle
 10
474.9271332353765
 20
398.25391890946
 30
0.0
 40
50.19999905624082
100
AcDbArc
 50
352.615116753298
 51
7.38488324669746
  0
ARC
  5
14E
330
51
100
AcDbEntity
  8
ﾚｲﾔｰ1
  6
Continuous
 62
     7
100
AcDbCircle
 10
474.9271332353765
 20
398.25391890946
 30
0.0
 40
50.19999905624066
100
AcDbArc
 50
262.6151167533019
 51
277.384883246702
  0
ARC
  5
14F
330
51
100
AcDbEntity
  8
ﾚｲﾔｰ1
  6
Continuous
 62
     7
100
AcDbCircle
 10
504.927132671477
 20
398.25391890946
 30
0.0
 40
4.999999905998948
100
AcDbArc
 50
90.0
 51
180.0
  0
ARC
  5
150
330
51
100
AcDbEntity
  8
ﾚｲﾔｰ1
  6
Continuous
 62
     7
100
AcDbCircle
 10
474.9271332354765
 20
428.2539183454589
 30
0.0
 40
4.999999906000085
100
AcDbArc
 50
180.0
 51
270.0
  0
ARC
  5
151
330
51
100
AcDbEntity
  8
ﾚｲﾔｰ1
  6
Continuous
 62
     7
100
AcDbCircle
 10
485.0292251985575
 20
445.076537927393
 30
0.0
 40
0.9999999812106188
100
AcDbArc
 50
257.824922083195
 51
352.6151167552932
  0
ARC
  5
152
330
51
100
AcDbEntity
  8
ﾚｲﾔｰ1
  6
Continuous
 62
     7
100
AcDbCircle
 10
474.9271332353765
 20
398.25391890946
 30
0.0
 40
52.89999900547902
100
AcDbArc
 50
7.38488324669832
 51
82.61511675329933
  0
ARC
  5
153
330
51
100
AcDbEntity
  8
ﾚｲﾔｰ1
  6
Continuous
 62
     7
100
AcDbCircle
 10
474.9271332353765
 20
398.25391890946
 30
0.0
 40
49.8999990618793
100
AcDbArc
 50
27.9053602992001
 51
76.8644061941986
  0
ARC
  5
154
330
51
100
AcDbEntity
  8
ﾚｲﾔｰ1
  6
Continuous
 62
     7
100
AcDbCircle
 10
474.9271332353765
 20
398.25391890946
 30
0.0
 40
46.89999911836726
100
AcDbArc
 50
347.8249220902949
 51
26.94484440323886
  0
ARC
  5
155
330
51
100
AcDbEntity
  8
ﾚｲﾔｰ1
  6
Continuous
 62
     7
100
AcDbCircle
 10
453.222083781433
 20
440.9540446929959
 30
0.0
 40
0.999999981153541
100
AcDbArc
 50
202.1546497374396
 51
296.9448443999867
  0
ARC
  5
156
330
51
100
AcDbEntity
  8
ﾚｲﾔｰ1
  6
Continuous
 62
     7
100
AcDbCircle
 10
461.4271334892765
 20
384.7539191632591
 30
0.0
 40
0.9999999811990392
100
AcDbArc
 50
180.0
 51
270.0
  0
ARC
  5
157
330
51
100
AcDbEntity
  8
ﾚｲﾔｰ1
  6
Continuous
 62
     7
100
AcDbCircle
 10
474.9271332353765
 20
398.25391890946
 30
0.0
 40
52.89999900548025
100
AcDbArc
 50
277.3848832467005
 51
352.6151167532995
  0
ARC
  5
158
330
51
100
AcDbEntity
  8
ﾚｲﾔｰ1
  6
Continuous
 62
     7
100
AcDbCircle
 10
474.9271332353765
 20
398.25391890946
 30
0.0
 40
49.89999906188057
100
AcDbArc
 50
297.9053602991987
 51
346.8644061942706
  0
ARC
  5
159
330
51
100
AcDbEntity
  8
ﾚｲﾔｰ1
  6
Continuous
 62
     7
100
AcDbCircle
 10
496.6321826894218
 20
355.553793125921
 30
0.0
 40
0.9999999811933293
100
AcDbArc
 50
22.15464974277075
 51
116.9448444051585
  0
ARC
  5
15A
330
51
100
AcDbEntity
  8
ﾚｲﾔｰ1
  6
Continuous
 62
     7
100
AcDbCircle
 10
432.2270074519402
 20
376.5488694555129
 30
0.0
 40
0.9999999811526987
100
AcDbArc
 50
292.1546497374592
 51
26.94484440266595
  0
ARC
  5
15B
330
51
100
AcDbEntity
  8
ﾚｲﾔｰ1
  6
Continuous
 62
     7
100
AcDbCircle
 10
474.9271332353765
 20
398.25391890946
 30
0.0
 40
50.19999905623913
100
AcDbArc
 50
187.3848832467023
 51
202.1546497401218
  0
ARC
  5
15C
330
51
100
AcDbEntity
  8
ﾚｲﾔｰ1
  6
Continuous
 62
     7
100
AcDbCircle
 10
474.9271332353765
 20
398.25391890946
 30
0.0
 40
49.89999906187877
100
AcDbArc
 50
117.9053602991999
 51
166.864406194134
  0
ARC
  5
15D
330
51
100
AcDbEntity
  8
ﾚｲﾔｰ1
  6
Continuous
 62
     7
100
AcDbCircle
 10
517.6272590189164
 20
419.958968363504
 30
0.0
 40
0.999999981201683
100
AcDbArc
 50
112.1546497402585
 51
206.9448444031817
  0
ARC
  5
15E
330
51
100
AcDbEntity
  8
ﾚｲﾔｰ1
  6
Continuous
 62
     7
100
AcDbCircle
 10
521.7497522534104
 20
388.1518269463791
 30
0.0
 40
0.9999999811994653
100
AcDbArc
 50
167.8249220902339
 51
262.6151167496793
  0
ARC
  5
15F
330
51
100
AcDbEntity
  8
ﾚｲﾔｰ1
  6
Continuous
 62
     7
100
AcDbCircle
 10
474.9271332353765
 20
368.2539194734591
 30
0.0
 40
4.999999905999971
100
AcDbArc
 50
0.0
 51
90.0
  0
ARC
  5
160
330
51
100
AcDbEntity
  8
ﾚｲﾔｰ1
  6
Continuous
 62
     7
100
AcDbCircle
 10
488.4271329816766
 20
384.7539191632591
 30
0.0
 40
0.9999999812001192
100
AcDbArc
 50
269.9999999942646
 51
0.0
  0
ARC
  5
161
330
51
100
AcDbEntity
  8
ﾚｲﾔｰ1
  6
Continuous
 62
     7
100
AcDbCircle
 10
488.4271329816766
 20
411.7539186556589
 30
0.0
 40
0.9999999811988687
100
AcDbArc
 50
0.0
 51
90.0
  0
ARC
  5
162
330
51
100
AcDbEntity
  8
ﾚｲﾔｰ1
  6
Continuous
 62
     7
100
AcDbCircle
 10
488.4271329816766
 20
384.7539191632591
 30
0.0
 40
3.999999924801216
100
AcDbArc
 50
269.9999999985661
 51
0.0
  0
ARC
  5
163
330
51
100
AcDbEntity
  8
ﾚｲﾔｰ1
  6
Continuous
 62
     7
100
AcDbCircle
 10
474.9271332353765
 20
398.25391890946
 30
0.0
 40
52.8999990054789
100
AcDbArc
 50
97.38488324669878
 51
172.6151167532145
  0
ARC
  5
164
330
51
100
AcDbEntity
  8
ﾚｲﾔｰ1
  6
Continuous
 62
     7
100
AcDbCircle
 10
474.9271332353765
 20
398.25391890946
 30
0.0
 40
46.89999911827859
100
AcDbArc
 50
77.82492209029951
 51
116.9448444031998
  0
ARC
  5
165
330
51
100
AcDbEntity
  8
ﾚｲﾔｰ1
  6
Continuous
 62
     7
100
AcDbCircle
 10
474.9271332353765
 20
398.25391890946
 30
0.0
 40
52.89999900547934
100
AcDbArc
 50
187.3848832467005
 51
262.6151167533014
  0
ARC
  5
166
330
51
100
AcDbEntity
  8
ﾚｲﾔｰ1
  6
Continuous
 62
     7
100
AcDbCircle
 10
474.9271332353765
 20
398.25391890946
 30
0.0
 40
46.89999911826971
100
AcDbArc
 50
257.8249220902698
 51
296.9448444031986
  0
ARC
  5
167
330
51
100
AcDbEntity
  8
ﾚｲﾔｰ1
  6
Continuous
 62
     7
100
AcDbCircle
 10
474.9271332353765
 20
398.25391890946
 30
0.0
 40
49.89999906187988
100
AcDbArc
 50
207.9053602992012
 51
256.8644061942465
  0
ARC
  5
168
330
51
100
AcDbEntity
  8
ﾚｲﾔｰ1
  6
Continuous
 62
     7
100
AcDbCircle
 10
464.8250412722955
 20
351.431299891525
 30
0.0
 40
0.9999999812004066
100
AcDbArc
 50
77.8249220902155
 51
172.615116753398
  0
ARC
  5
169
330
51
100
AcDbEntity
  8
ﾚｲﾔｰ1
  6
Continuous
 62
     7
100
AcDbCircle
 10
474.9271332353765
 20
398.25391890946
 30
0.0
 40
50.1999990562411
100
AcDbArc
 50
277.384883246702
 51
292.1546497402003
  0
ARC
  5
16A
330
51
100
AcDbEntity
  8
ﾚｲﾔｰ1
  6
Continuous
 62
     7
100
AcDbCircle
 10
474.9271332353765
 20
398.25391890946
 30
0.0
 40
50.19999905623861
100
AcDbArc
 50
172.6151167533023
 51
187.3848832467023
  0
ARC
  5
16B
330
51
100
AcDbEntity
  8
ﾚｲﾔｰ1
  6
Continuous
 62
     7
100
AcDbCircle
 10
444.927133799476
 20
398.25391890946
 30
0.0
 40
4.999999906001051
100
AcDbArc
 50
270.0
 51
0.0
  0
ARC
  5
16C
330
51
100
AcDbEntity
  8
ﾚｲﾔｰ1
  6
Continuous
 62
     7
100
AcDbCircle
 10
428.1045142174426
 20
408.3560108725401
 30
0.0
 40
0.9999999811900447
100
AcDbArc
 50
347.8249220887514
 51
82.61511675031666
  0
ARC
  5
16D
330
51
100
AcDbEntity
  8
ﾚｲﾔｰ1
  6
Continuous
 62
     7
100
AcDbCircle
 10
461.4271334892765
 20
411.7539186556589
 30
0.0
 40
0.9999999812001192
100
AcDbArc
 50
90.0
 51
180.0
  0
ARC
  5
16E
330
51
100
AcDbEntity
  8
ﾚｲﾔｰ1
  6
Continuous
 62
     7
100
AcDbCircle
 10
461.4271334892765
 20
384.7539191632591
 30
0.0
 40
3.999999924799397
100
AcDbArc
 50
180.0
 51
270.0
  0
ARC
  5
16F
330
51
100
AcDbEntity
  8
ﾚｲﾔｰ1
  6
Continuous
 62
     7
100
AcDbCircle
 10
461.4271334892765
 20
411.7539186556589
 30
0.0
 40
3.999999924799226
100
AcDbArc
 50
90.0
 51
180.0
  0
ARC
  5
170
330
51
100
AcDbEntity
  8
ﾚｲﾔｰ1
  6
Continuous
 62
     7
100
AcDbCircle
 10
474.9271332353765
 20
398.25391890946
 30
0.0
 40
46.89999911827876
100
AcDbArc
 50
167.8249220903018
 51
206.9448444032017
  0
ARC
  5
171
330
51
100
AcDbEntity
  8
ﾚｲﾔｰ1
  6
Continuous
 62
     7
100
AcDbCircle
 10
474.9271332353765
 20
398.25391890946
 30
0.0
 40
50.19999905623953
100
AcDbArc
 50
97.38488324669824
 51
112.1546497402012
  0
ARC
  5
172
330
51
100
AcDbEntity
  8
ﾚｲﾔｰ1
  6
Continuous
 62
     7
100
AcDbCircle
 10
423.4646282352715
 20
276.85437692097
 30
0.0
 40
0.9999999811989824
100
AcDbArc
 50
179.9999998428324
 51
270.0
  0
ARC
  5
173
330
51
100
AcDbEntity
  8
ﾚｲﾔｰ1
  6
Continuous
 62
     7
100
AcDbCircle
 10
526.3896360014805
 20
276.85437692097
 30
0.0
 40
0.9999999811991529
100
AcDbArc
 50
270.0
 51
359.9999997193051
  0
ENDBLK
  5
53
330
51
100
AcDbEntity
  8
0
100
AcDbBlockEnd
  0
BLOCK
  5
55
330
54
100
AcDbEntity
  8
0
100
AcDbBlockBegin
  2
HONTAI
 70
     0
 10
1205.166939672341
 20
513.6218618969899
 30
0.0
  3
HONTAI
  1

  0
LINE
  5
174
330
54
100
AcDbEntity
  8
ﾚｲﾔｰ1
  6
Continuous
 62
     7
100
AcDbLine
 10
151.0955377828232
 20
343.143772216547
 30
0.0
 11
153.6625505563625
 21
335.956136440074
 31
0.0
  0
LINE
  5
175
330
54
100
AcDbEntity
  8
ﾚｲﾔｰ1
  6
Continuous
 62
     7
100
AcDbLine
 10
141.8455376605289
 20
361.6437718687471
 30
0.0
 11
280.345535656099
 21
361.6437718687471
 31
0.0
  0
LINE
  5
176
330
54
100
AcDbEntity
  8
ﾚｲﾔｰ1
  6
Continuous
 62
     7
100
AcDbLine
 10
281.0955353373229
 20
367.143771765348
 30
0.0
 11
281.0955353373229
 21
367.643771755947
 31
0.0
  0
LINE
  5
177
330
54
100
AcDbEntity
  8
ﾚｲﾔｰ1
  6
Continuous
 62
     7
100
AcDbLine
 10
211.0955366536127
 20
367.143771765348
 30
0.0
 11
281.0955353373229
 21
367.143771765348
 31
0.0
  0
LINE
  5
178
330
54
100
AcDbEntity
  8
ﾚｲﾔｰ1
  6
Continuous
 62
     7
100
AcDbLine
 10
281.0955353373229
 20
367.643771755947
 30
0.0
 11
211.0955366536164
 21
367.6437717559479
 31
0.0
  0
LINE
  5
179
330
54
100
AcDbEntity
  8
ﾚｲﾔｰ1
  6
Continuous
 62
     7
100
AcDbLine
 10
141.0955379693232
 20
367.643771755947
 30
0.0
 11
141.0955379693232
 21
367.143771765348
 31
0.0
  0
LINE
  5
17A
330
54
100
AcDbEntity
  8
ﾚｲﾔｰ1
  6
Continuous
 62
     7
100
AcDbLine
 10
141.0955379693232
 20
367.143771765348
 30
0.0
 11
211.0955366533235
 21
367.143771765348
 31
0.0
  0
LINE
  5
17B
330
54
100
AcDbEntity
  8
ﾚｲﾔｰ1
  6
Continuous
 62
     7
100
AcDbLine
 10
211.0955366534236
 20
367.643771755947
 30
0.0
 11
141.0955379693232
 21
367.643771755947
 31
0.0
  0
LINE
  5
17C
330
54
100
AcDbEntity
  8
ﾚｲﾔｰ1
  6
Continuous
 62
     7
100
AcDbLine
 10
276.8619009381619
 20
597.4826991557879
 30
0.0
 11
286.0955353119225
 21
600.0352325218869
 31
0.0
  0
LINE
  5
17D
330
54
100
AcDbEntity
  8
ﾚｲﾔｰ1
  6
Continuous
 62
     7
100
AcDbLine
 10
278.1980688763088
 20
600.0352325300869
 30
0.0
 11
311.0955347573236
 21
600.0352325300869
 31
0.0
  0
LINE
  5
17E
330
54
100
AcDbEntity
  8
ﾚｲﾔｰ1
  6
Continuous
 62
     7
100
AcDbLine
 10
278.1980688763088
 20
667.035231270487
 30
0.0
 11
311.0955347573236
 21
667.035231270487
 31
0.0
  0
LINE
  5
17F
330
54
100
AcDbEntity
  8
ﾚｲﾔｰ1
  6
Continuous
 62
     7
100
AcDbLine
 10
276.8619009380991
 20
669.587764644903
 30
0.0
 11
286.0955353119225
 21
667.035231278787
 31
0.0
  0
LINE
  5
180
102
{ACAD_REACTORS
330
2BC
102
}
330
54
100
AcDbEntity
  8
ﾚｲﾔｰ1
  6
Continuous
 62
     2
100
AcDbLine
 10
204.7832827620932
 20
682.711832224267
 30
0.0
 11
205.7462341992905
 21
681.990557619727
 31
0.0
  0
LINE
  5
181
102
{ACAD_REACTORS
330
2BC
102
}
330
54
100
AcDbEntity
  8
ﾚｲﾔｰ1
  6
Continuous
 62
     2
100
AcDbLine
 10
202.4825872032661
 20
682.38169553138
 30
0.0
 11
204.7832827620932
 21
682.711832224267
 31
0.0
  0
LINE
  5
182
102
{ACAD_REACTORS
330
2BC
102
}
330
54
100
AcDbEntity
  8
ﾚｲﾔｰ1
  6
Continuous
 62
     2
100
AcDbLine
 10
205.7462341992905
 20
681.990557619727
 30
0.0
 11
202.4825872032661
 21
682.38169553138
 31
0.0
  0
LINE
  5
183
102
{ACAD_REACTORS
330
2BD
102
}
330
54
100
AcDbEntity
  8
ﾚｲﾔｰ1
  6
Continuous
 62
     2
100
AcDbLine
 10
204.7832827620932
 20
682.711832224267
 30
0.0
 11
205.504557366633
 21
683.6747836615639
 31
0.0
  0
LINE
  5
184
102
{ACAD_REACTORS
330
2BD
102
}
330
54
100
AcDbEntity
  8
ﾚｲﾔｰ1
  6
Continuous
 62
     2
100
AcDbLine
 10
202.4825872032661
 20
682.38169553138
 30
0.0
 11
204.7832827620932
 21
682.711832224267
 31
0.0
  0
LINE
  5
185
102
{ACAD_REACTORS
330
2BD
102
}
330
54
100
AcDbEntity
  8
ﾚｲﾔｰ1
  6
Continuous
 62
     2
100
AcDbLine
 10
205.504557366633
 20
683.6747836615639
 30
0.0
 11
202.4825872032661
 21
682.38169553138
 31
0.0
  0
LINE
  5
186
102
{ACAD_REACTORS
330
2BE
102
}
330
54
100
AcDbEntity
  8
ﾚｲﾔｰ1
  6
Continuous
 62
     2
100
AcDbLine
 10
217.4077905450522
 20
682.711832224267
 30
0.0
 11
216.6865159405124
 21
683.6747836615639
 31
0.0
  0
LINE
  5
187
102
{ACAD_REACTORS
330
2BE
102
}
330
54
100
AcDbEntity
  8
ﾚｲﾔｰ1
  6
Continuous
 62
     2
100
AcDbLine
 10
219.7084861039793
 20
682.38169553138
 30
0.0
 11
217.4077905450522
 21
682.711832224267
 31
0.0
  0
LINE
  5
188
102
{ACAD_REACTORS
330
2BE
102
}
330
54
100
AcDbEntity
  8
ﾚｲﾔｰ1
  6
Continuous
 62
     2
100
AcDbLine
 10
216.6865159405124
 20
683.6747836615639
 30
0.0
 11
219.7084861039793
 21
682.38169553138
 31
0.0
  0
LINE
  5
189
102
{ACAD_REACTORS
330
2BF
102
}
330
54
100
AcDbEntity
  8
ﾚｲﾔｰ1
  6
Continuous
 62
     2
100
AcDbLine
 10
217.4077905450522
 20
682.711832224267
 30
0.0
 11
216.4448391078558
 21
681.990557619727
 31
0.0
  0
LINE
  5
18A
102
{ACAD_REACTORS
330
2BF
102
}
330
54
100
AcDbEntity
  8
ﾚｲﾔｰ1
  6
Continuous
 62
     2
100
AcDbLine
 10
219.7084861039793
 20
682.38169553138
 30
0.0
 11
217.4077905450522
 21
682.711832224267
 31
0.0
  0
LINE
  5
18B
102
{ACAD_REACTORS
330
2BF
102
}
330
54
100
AcDbEntity
  8
ﾚｲﾔｰ1
  6
Continuous
 62
     2
100
AcDbLine
 10
216.4448391078558
 20
681.990557619727
 30
0.0
 11
219.7084861039793
 21
682.38169553138
 31
0.0
  0
LINE
  5
18C
330
54
100
AcDbEntity
  8
ﾚｲﾔｰ1
  6
Continuous
 62
     7
100
AcDbLine
 10
273.095535489223
 20
356.1437719721471
 30
0.0
 11
285.5955352523224
 21
356.1437719721471
 31
0.0
  0
LINE
  5
18D
330
54
100
AcDbEntity
  8
ﾚｲﾔｰ1
  6
Continuous
 62
     7
100
AcDbLine
 10
281.6217033056309
 20
372.643771661948
 30
0.0
 11
228.3955363236828
 21
372.643771661948
 31
0.0
  0
LINE
  5
18E
330
54
100
AcDbEntity
  8
ﾚｲﾔｰ1
  6
Continuous
 62
     7
100
AcDbLine
 10
211.0955366527223
 20
360.1437718969469
 30
0.0
 11
285.5955352206229
 21
360.1437718969469
 31
0.0
  0
LINE
  5
18F
330
54
100
AcDbEntity
  8
ﾚｲﾔｰ1
  6
Continuous
 62
     7
100
AcDbLine
 10
274.0955354704229
 20
341.643772244747
 30
0.0
 11
311.0955347681229
 21
341.643772244747
 31
0.0
  0
LINE
  5
190
330
54
100
AcDbEntity
  8
ﾚｲﾔｰ1
  6
Continuous
 62
     7
100
AcDbLine
 10
281.5955353280224
 20
367.643771755947
 30
0.0
 11
211.0955366535545
 21
367.643771755947
 31
0.0
  0
LINE
  5
191
330
54
100
AcDbEntity
  8
ﾚｲﾔｰ1
  6
Continuous
 62
     7
100
AcDbLine
 10
268.595535910923
 20
268.1437736615469
 30
0.0
 11
296.0955350778222
 21
274.643773491847
 31
0.0
  0
LINE
  5
192
330
54
100
AcDbEntity
  8
ﾚｲﾔｰ1
  6
Continuous
 62
     7
100
AcDbLine
 10
234.595536211823
 20
632.285231923787
 30
0.0
 11
234.595536211823
 21
617.535232201087
 31
0.0
  0
LINE
  5
193
330
54
100
AcDbEntity
  8
ﾚｲﾔｰ1
  6
Continuous
 62
     7
100
AcDbLine
 10
311.0955347958225
 20
274.6437735043469
 30
0.0
 11
311.0955347931713
 21
277.843772874548
 31
0.0
  0
LINE
  5
194
330
54
100
AcDbEntity
  8
ﾚｲﾔｰ1
  6
Continuous
 62
     7
100
AcDbLine
 10
153.6625505563625
 20
335.956136440074
 30
0.0
 11
154.2548740067505
 21
268.08259182953
 31
0.0
  0
LINE
  5
195
330
54
100
AcDbEntity
  8
ﾚｲﾔｰ1
  6
Continuous
 62
     7
100
AcDbLine
 10
481.6480687502353
 20
616.9521081978501
 30
0.0
 11
481.6480687502353
 21
627.5352320047871
 31
0.0
  0
LINE
  5
196
330
54
100
AcDbEntity
  8
ﾚｲﾔｰ1
  6
Continuous
 62
     7
100
AcDbLine
 10
553.6480673872347
 20
583.694301746375
 30
0.0
 11
553.648067396035
 21
683.376162038855
 31
0.0
  0
LINE
  5
197
330
54
100
AcDbEntity
  8
ﾚｲﾔｰ1
  6
Continuous
 62
     7
100
AcDbLine
 10
454.6480692463347
 20
559.035233309932
 30
0.0
 11
454.648069259335
 21
708.035230477087
 31
0.0
  0
LINE
  5
198
330
54
100
AcDbEntity
  8
ﾚｲﾔｰ1
  6
Continuous
 62
     7
100
AcDbLine
 10
311.0955347851223
 20
600.0352325300869
 30
0.0
 11
311.0955347296222
 21
667.035231270487
 31
0.0
  0
LINE
  5
199
330
54
100
AcDbEntity
  8
ﾚｲﾔｰ1
  6
Continuous
 62
     7
100
AcDbLine
 10
244.0955360332227
 20
653.035231533687
 30
0.0
 11
244.0955360332227
 21
614.0352322668871
 31
0.0
  0
LINE
  5
19A
330
54
100
AcDbEntity
  8
ﾚｲﾔｰ1
  6
Continuous
 62
     7
100
AcDbLine
 10
247.0955359768223
 20
653.035231533687
 30
0.0
 11
247.0955359768223
 21
614.0352322668871
 31
0.0
  0
LINE
  5
19B
330
54
100
AcDbEntity
  8
ﾚｲﾔｰ1
  6
Continuous
 62
     7
100
AcDbLine
 10
258.0955357700223
 20
653.035231533687
 30
0.0
 11
258.0955357700223
 21
614.0352322668871
 31
0.0
  0
LINE
  5
19C
330
54
100
AcDbEntity
  8
ﾚｲﾔｰ1
  6
Continuous
 62
     7
100
AcDbLine
 10
261.0955357136227
 20
653.035231533687
 30
0.0
 11
261.0955357136227
 21
614.0352322668871
 31
0.0
  0
LINE
  5
19D
330
54
100
AcDbEntity
  8
ﾚｲﾔｰ1
  6
Continuous
 62
     7
100
AcDbLine
 10
211.095536643923
 20
261.1437737581471
 30
0.0
 11
261.5955360425223
 21
261.1437737581471
 31
0.0
  0
LINE
  5
19E
330
54
100
AcDbEntity
  8
ﾚｲﾔｰ1
  6
Continuous
 62
     7
100
AcDbLine
 10
161.2546068385318
 20
261.1437737581471
 30
0.0
 11
211.095536643923
 21
261.1437737581471
 31
0.0
  0
LINE
  5
19F
330
54
100
AcDbEntity
  8
ﾚｲﾔｰ1
  6
Continuous
 62
     7
100
AcDbLine
 10
458.6480691711349
 20
559.035233441087
 30
0.0
 11
458.6480691841352
 21
708.035230508387
 31
0.0
  0
LINE
  5
1A0
330
54
100
AcDbEntity
  8
ﾚｲﾔｰ1
  6
Continuous
 62
     7
100
AcDbLine
 10
442.1473842552477
 20
704.0352305970871
 30
0.0
 11
442.1473842552477
 21
563.035233235687
 31
0.0
  0
LINE
  5
1A1
330
54
100
AcDbEntity
  8
ﾚｲﾔｰ1
  6
Continuous
 62
     7
100
AcDbLine
 10
447.1480693938347
 20
691.035230829287
 30
0.0
 11
447.1480693938347
 21
576.0352329912869
 31
0.0
  0
LINE
  5
1A2
330
54
100
AcDbEntity
  8
ﾚｲﾔｰ1
  6
Continuous
 62
     7
100
AcDbLine
 10
471.6480689279351
 20
573.535233038087
 30
0.0
 11
471.6480689323353
 21
623.1790745246831
 31
0.0
  0
LINE
  5
1A3
330
54
100
AcDbEntity
  8
ﾚｲﾔｰ1
  6
Continuous
 62
     7
100
AcDbLine
 10
442.1480694878355
 20
704.061398562495
 30
0.0
 11
442.1480694878355
 21
615.3451280855609
 31
0.0
  0
LINE
  5
1A4
330
54
100
AcDbEntity
  8
ﾚｲﾔｰ1
  6
Continuous
 62
     7
100
AcDbLine
 10
271.0955355268225
 20
354.143772009747
 30
0.0
 11
271.0955355268225
 21
344.6437721883469
 31
0.0
  0
LINE
  5
1A5
330
54
100
AcDbEntity
  8
ﾚｲﾔｰ1
  6
Continuous
 62
     7
100
AcDbLine
 10
151.0955377828232
 20
354.143772009747
 30
0.0
 11
151.0955377828232
 21
343.143772216547
 31
0.0
  0
LINE
  5
1A6
330
54
100
AcDbEntity
  8
ﾚｲﾔｰ1
  6
Continuous
 62
     7
100
AcDbLine
 10
151.5955378060226
 20
365.143771802947
 30
0.0
 11
151.5955378060226
 21
362.143771859347
 31
0.0
  0
LINE
  5
1A7
330
54
100
AcDbEntity
  8
ﾚｲﾔｰ1
  6
Continuous
 62
     7
100
AcDbLine
 10
151.0955377828232
 20
343.143772216547
 30
0.0
 11
271.0955355268216
 21
343.143772216547
 31
0.0
  0
LINE
  5
1A8
330
54
100
AcDbEntity
  8
ﾚｲﾔｰ1
  6
Continuous
 62
     7
100
AcDbLine
 10
153.6625505563625
 20
335.956136440074
 30
0.0
 11
241.0955355268197
 21
335.956136440074
 31
0.0
  0
LINE
  5
1A9
330
54
100
AcDbEntity
  8
ﾚｲﾔｰ1
  6
Continuous
 62
     7
100
AcDbLine
 10
193.7955369783631
 20
378.643771561347
 30
0.0
 11
193.795536974163
 21
372.643771661948
 31
0.0
  0
LINE
  5
1AA
330
54
100
AcDbEntity
  8
ﾚｲﾔｰ1
  6
Continuous
 62
     7
100
AcDbLine
 10
211.0955366527223
 20
360.1437718969469
 30
0.0
 11
141.8455377282198
 21
360.1437718969469
 31
0.0
  0
LINE
  5
1AB
330
54
100
AcDbEntity
  8
ﾚｲﾔｰ1
  6
Continuous
 62
     7
100
AcDbLine
 10
228.3955363236828
 20
378.643771549147
 30
0.0
 11
228.3955363236828
 21
372.643771661948
 31
0.0
  0
LINE
  5
1AC
330
54
100
AcDbEntity
  8
ﾚｲﾔｰ1
  6
Continuous
 62
     7
100
AcDbLine
 10
296.0955350210224
 20
274.643773472247
 30
0.0
 11
311.0955347940235
 21
274.643773472247
 31
0.0
  0
LINE
  5
1AD
330
54
100
AcDbEntity
  8
ﾚｲﾔｰ1
  6
Continuous
 62
     7
100
AcDbLine
 10
296.0955351138227
 20
274.6437735043469
 30
0.0
 11
311.0955347681229
 21
274.6437735043469
 31
0.0
  0
LINE
  5
1AE
330
54
100
AcDbEntity
  8
ﾚｲﾔｰ1
  6
Continuous
 62
     7
100
AcDbLine
 10
140.0955379882234
 20
372.144456903934
 30
0.0
 11
140.0955379882234
 21
368.1437717465469
 31
0.0
  0
LINE
  5
1AF
330
54
100
AcDbEntity
  8
ﾚｲﾔｰ1
  6
Continuous
 62
     7
100
AcDbLine
 10
136.095538062923
 20
359.643771906347
 30
0.0
 11
136.095538062923
 21
356.643771962747
 31
0.0
  0
LINE
  5
1B0
330
54
100
AcDbEntity
  8
ﾚｲﾔｰ1
  6
Continuous
 62
     7
100
AcDbLine
 10
140.5955379788229
 20
367.643771755947
 30
0.0
 11
211.0955366534236
 21
367.643771755947
 31
0.0
  0
LINE
  5
1B1
330
54
100
AcDbEntity
  8
ﾚｲﾔｰ1
  6
Continuous
 62
     7
100
AcDbLine
 10
228.3955363236828
 20
372.643771661948
 30
0.0
 11
140.5693700012153
 21
372.643771661948
 31
0.0
  0
LINE
  5
1B2
330
54
100
AcDbEntity
  8
ﾚｲﾔｰ1
  6
Continuous
 62
     7
100
AcDbLine
 10
136.5955380535233
 20
360.1437718969469
 30
0.0
 11
211.0955366527223
 21
360.1437718969469
 31
0.0
  0
LINE
  5
1B3
330
54
100
AcDbEntity
  8
ﾚｲﾔｰ1
  6
Continuous
 62
     7
100
AcDbLine
 10
136.5955381850235
 20
356.1437719721471
 30
0.0
 11
211.0955366523231
 21
356.1437719721471
 31
0.0
  0
LINE
  5
1B4
330
54
100
AcDbEntity
  8
ﾚｲﾔｰ1
  6
Continuous
 62
     7
100
AcDbLine
 10
141.8455376496231
 20
367.143771765348
 30
0.0
 11
280.3455356566001
 21
367.143771765348
 31
0.0
  0
LINE
  5
1B5
330
54
100
AcDbEntity
  8
ﾚｲﾔｰ1
  6
Continuous
 62
     7
100
AcDbLine
 10
141.8455377719229
 20
365.6437717935469
 30
0.0
 11
280.3455356565
 21
365.6437717935469
 31
0.0
  0
LINE
  5
1B6
330
54
100
AcDbEntity
  8
ﾚｲﾔｰ1
  6
Continuous
 62
     7
100
AcDbLine
 10
145.0955380296227
 20
365.3437717991869
 30
0.0
 11
277.0955366531225
 21
365.3437717991869
 31
0.0
  0
LINE
  5
1B7
330
54
100
AcDbEntity
  8
ﾚｲﾔｰ1
  6
Continuous
 62
     7
100
AcDbLine
 10
145.0955379547231
 20
361.943771863107
 30
0.0
 11
277.0955366528215
 21
361.943771863107
 31
0.0
  0
LINE
  5
1B8
330
54
100
AcDbEntity
  8
ﾚｲﾔｰ1
  6
Continuous
 62
     7
100
AcDbLine
 10
261.0955357136227
 20
614.0352322668871
 30
0.0
 11
258.0955357700223
 21
614.0352322668871
 31
0.0
  0
LINE
  5
1B9
330
54
100
AcDbEntity
  8
ﾚｲﾔｰ1
  6
Continuous
 62
     7
100
AcDbLine
 10
247.0955359768223
 20
614.0352322668871
 30
0.0
 11
244.0955360332227
 21
614.0352322668871
 31
0.0
  0
LINE
  5
1BA
330
54
100
AcDbEntity
  8
ﾚｲﾔｰ1
  6
Continuous
 62
     7
100
AcDbLine
 10
223.7011754478363
 20
615.5325139825379
 30
0.0
 11
236.5938958445749
 21
597.1198010465951
 31
0.0
  0
LINE
  5
1BB
330
54
100
AcDbEntity
  8
ﾚｲﾔｰ1
  6
Continuous
 62
     7
100
AcDbLine
 10
227.0955363528228
 20
617.535232201087
 30
0.0
 11
242.529991680628
 21
602.100776873328
 31
0.0
  0
LINE
  5
1BC
330
54
100
AcDbEntity
  8
ﾚｲﾔｰ1
  6
Continuous
 62
     7
100
AcDbLine
 10
236.8022002916368
 20
615.5352322386871
 30
0.0
 11
247.0955359768223
 21
608.3277609986881
 31
0.0
  0
LINE
  5
1BD
330
54
100
AcDbEntity
  8
ﾚｲﾔｰ1
  6
Continuous
 62
     7
100
AcDbLine
 10
234.595536211823
 20
617.535232201087
 30
0.0
 11
234.595536211823
 21
616.5352322198869
 31
0.0
  0
LINE
  5
1BE
330
54
100
AcDbEntity
  8
ﾚｲﾔｰ1
  6
Continuous
 62
     7
100
AcDbLine
 10
244.0955360332227
 20
615.5352322386871
 30
0.0
 11
235.5955361930228
 21
615.5352322386871
 31
0.0
  0
LINE
  5
1BF
330
54
100
AcDbEntity
  8
ﾚｲﾔｰ1
  6
Continuous
 62
     7
100
AcDbLine
 10
211.0955366536227
 20
617.535232201087
 30
0.0
 11
234.595536211823
 21
617.535232201087
 31
0.0
  0
LINE
  5
1C0
330
54
100
AcDbEntity
  8
ﾚｲﾔｰ1
  6
Continuous
 62
     7
100
AcDbLine
 10
286.0955352429228
 20
359.643771906347
 30
0.0
 11
286.0955352429228
 21
356.643771962747
 31
0.0
  0
LINE
  5
1C1
330
54
100
AcDbEntity
  8
ﾚｲﾔｰ1
  6
Continuous
 62
     7
100
AcDbLine
 10
282.0955353186228
 20
372.144456903934
 30
0.0
 11
282.0955353186228
 21
368.1437717465469
 31
0.0
  0
LINE
  5
1C2
330
54
100
AcDbEntity
  8
ﾚｲﾔｰ1
  6
Continuous
 62
     7
100
AcDbLine
 10
247.0955359768223
 20
653.035231533687
 30
0.0
 11
244.0955360332227
 21
653.035231533687
 31
0.0
  0
LINE
  5
1C3
330
54
100
AcDbEntity
  8
ﾚｲﾔｰ1
  6
Continuous
 62
     7
100
AcDbLine
 10
244.0955360332227
 20
651.535231561887
 30
0.0
 11
235.5955361930228
 21
651.535231561887
 31
0.0
  0
LINE
  5
1C4
330
54
100
AcDbEntity
  8
ﾚｲﾔｰ1
  6
Continuous
 62
     7
100
AcDbLine
 10
234.595536211823
 20
650.535231580687
 30
0.0
 11
234.595536211823
 21
649.5352315994869
 31
0.0
  0
LINE
  5
1C5
330
54
100
AcDbEntity
  8
ﾚｲﾔｰ1
  6
Continuous
 62
     7
100
AcDbLine
 10
158.73820768304
 20
639.535231787487
 30
0.0
 11
158.4362554608169
 21
639.535231787487
 31
0.0
  0
LINE
  5
1C6
330
54
100
AcDbEntity
  8
ﾚｲﾔｰ1
  6
Continuous
 62
     7
100
AcDbLine
 10
158.73820768304
 20
627.5352320130869
 30
0.0
 11
158.4362554608169
 21
627.5352320130869
 31
0.0
  0
LINE
  5
1C7
330
54
100
AcDbEntity
  8
ﾚｲﾔｰ1
  6
Continuous
 62
     7
100
AcDbLine
 10
258.0955357700223
 20
615.5352322386871
 30
0.0
 11
256.3455358029223
 21
615.5352322386871
 31
0.0
  0
LINE
  5
1C8
330
54
100
AcDbEntity
  8
ﾚｲﾔｰ1
  6
Continuous
 62
     7
100
AcDbLine
 10
248.8455359439231
 20
615.5352322386871
 30
0.0
 11
247.0955359768223
 21
615.5352322386871
 31
0.0
  0
LINE
  5
1C9
330
54
100
AcDbEntity
  8
ﾚｲﾔｰ1
  6
Continuous
 62
     7
100
AcDbLine
 10
217.0955365408236
 20
581.177902929805
 30
0.0
 11
217.0955365408236
 21
580.875950707582
 31
0.0
  0
LINE
  5
1CA
330
54
100
AcDbEntity
  8
ﾚｲﾔｰ1
  6
Continuous
 62
     7
100
AcDbLine
 10
205.0955367664228
 20
581.177902929805
 30
0.0
 11
205.0955367664228
 21
580.875950707582
 31
0.0
  0
LINE
  5
1CB
330
54
100
AcDbEntity
  8
ﾚｲﾔｰ1
  6
Continuous
 62
     7
100
AcDbLine
 10
233.9459043318357
 20
617.535232201087
 30
0.0
 11
234.595536211823
 21
617.080355061739
 31
0.0
  0
LINE
  5
1CC
330
54
100
AcDbEntity
  8
ﾚｲﾔｰ1
  6
Continuous
 62
     7
100
AcDbLine
 10
217.0955365408236
 20
685.8925608708689
 30
0.0
 11
217.0955365408236
 21
686.1945130930931
 31
0.0
  0
LINE
  5
1CD
330
54
100
AcDbEntity
  8
ﾚｲﾔｰ1
  6
Continuous
 62
     7
100
AcDbLine
 10
205.0955367664228
 20
685.8925608708689
 30
0.0
 11
205.0955367664228
 21
686.1945130930931
 31
0.0
  0
LINE
  5
1CE
330
54
100
AcDbEntity
  8
ﾚｲﾔｰ1
  6
Continuous
 62
     7
100
AcDbLine
 10
263.4528656241046
 20
627.5352320130869
 30
0.0
 11
263.7548178463285
 21
627.5352320130869
 31
0.0
  0
LINE
  5
1CF
330
54
100
AcDbEntity
  8
ﾚｲﾔｰ1
  6
Continuous
 62
     7
100
AcDbLine
 10
223.7011754478481
 20
651.5379498180871
 30
0.0
 11
236.5938958445749
 21
669.9506627540791
 31
0.0
  0
LINE
  5
1D0
330
54
100
AcDbEntity
  8
ﾚｲﾔｰ1
  6
Continuous
 62
     7
100
AcDbLine
 10
227.0955363528228
 20
649.5352315994869
 30
0.0
 11
242.529991680628
 21
664.969686927348
 31
0.0
  0
LINE
  5
1D1
330
54
100
AcDbEntity
  8
ﾚｲﾔｰ1
  6
Continuous
 62
     7
100
AcDbLine
 10
233.9459043318357
 20
649.5352315994869
 30
0.0
 11
234.595536211823
 21
649.9901087389351
 31
0.0
  0
LINE
  5
1D2
330
54
100
AcDbEntity
  8
ﾚｲﾔｰ1
  6
Continuous
 62
     7
100
AcDbLine
 10
236.8022002916368
 20
651.535231561887
 30
0.0
 11
247.5109675073127
 21
659.0335910912179
 31
0.0
  0
LINE
  5
1D3
330
54
100
AcDbEntity
  8
ﾚｲﾔｰ1
  6
Continuous
 62
     7
100
AcDbLine
 10
261.0955357136227
 20
653.035231533687
 30
0.0
 11
258.0955357700223
 21
653.035231533687
 31
0.0
  0
LINE
  5
1D4
330
54
100
AcDbEntity
  8
ﾚｲﾔｰ1
  6
Continuous
 62
     7
100
AcDbLine
 10
241.9071630452645
 20
634.7852318767871
 30
0.0
 11
241.9071630452645
 21
632.285231923787
 31
0.0
  0
LINE
  5
1D5
330
54
100
AcDbEntity
  8
ﾚｲﾔｰ1
  6
Continuous
 62
     7
100
AcDbLine
 10
241.9071630452645
 20
632.285231923787
 30
0.0
 11
232.5013501228932
 21
632.285231923787
 31
0.0
  0
LINE
  5
1D6
330
54
100
AcDbEntity
  8
ﾚｲﾔｰ1
  6
Continuous
 62
     7
100
AcDbLine
 10
234.595536211823
 20
649.5352315994869
 30
0.0
 11
234.595536211823
 21
634.7852318767871
 31
0.0
  0
LINE
  5
1D7
330
54
100
AcDbEntity
  8
ﾚｲﾔｰ1
  6
Continuous
 62
     7
100
AcDbLine
 10
236.5955361742235
 20
638.5352318062869
 30
0.0
 11
212.4455366282427
 21
638.5352318062869
 31
0.0
  0
LINE
  5
1D8
330
54
100
AcDbEntity
  8
ﾚｲﾔｰ1
  6
Continuous
 62
     7
100
AcDbLine
 10
187.0955371048231
 20
632.3518351719349
 30
0.0
 11
187.0955371048231
 21
634.718628628639
 31
0.0
  0
LINE
  5
1D9
330
54
100
AcDbEntity
  8
ﾚｲﾔｰ1
  6
Continuous
 62
     7
100
AcDbLine
 10
211.0955366536227
 20
649.5352315994869
 30
0.0
 11
234.595536211823
 21
649.5352315994869
 31
0.0
  0
LINE
  5
1DA
330
54
100
AcDbEntity
  8
ﾚｲﾔｰ1
  6
Continuous
 62
     7
100
AcDbLine
 10
263.4528656241046
 20
639.535231787487
 30
0.0
 11
263.7548178463285
 21
639.535231787487
 31
0.0
  0
LINE
  5
1DB
330
54
100
AcDbEntity
  8
ﾚｲﾔｰ1
  6
Continuous
 62
     7
100
AcDbLine
 10
212.4455366282427
 20
638.5352318062869
 30
0.0
 11
212.4455366282427
 21
628.535231994287
 31
0.0
  0
LINE
  5
1DC
330
54
100
AcDbEntity
  8
ﾚｲﾔｰ1
  6
Continuous
 62
     7
100
AcDbLine
 10
241.9071630452645
 20
634.7852318767871
 30
0.0
 11
232.5013501228932
 21
634.7852318767871
 31
0.0
  0
LINE
  5
1DD
330
54
100
AcDbEntity
  8
ﾚｲﾔｰ1
  6
Continuous
 62
     7
100
AcDbLine
 10
236.5955361742235
 20
628.535231994287
 30
0.0
 11
212.4455366282427
 21
628.535231994287
 31
0.0
  0
LINE
  5
1DE
330
54
100
AcDbEntity
  8
ﾚｲﾔｰ1
  6
Continuous
 62
     7
100
AcDbLine
 10
258.0955357700223
 20
651.535231561887
 30
0.0
 11
256.3455358029223
 21
651.535231561887
 31
0.0
  0
LINE
  5
1DF
330
54
100
AcDbEntity
  8
ﾚｲﾔｰ1
  6
Continuous
 62
     7
100
AcDbLine
 10
248.8455359439231
 20
651.535231561887
 30
0.0
 11
247.0955359768223
 21
651.535231561887
 31
0.0
  0
LINE
  5
1E0
330
54
100
AcDbEntity
  8
ﾚｲﾔｰ1
  6
Continuous
 62
     7
100
AcDbLine
 10
455.148069236835
 20
558.535233319287
 30
0.0
 11
458.1480691804909
 21
558.535233319087
 31
0.0
  0
LINE
  5
1E1
330
54
100
AcDbEntity
  8
ﾚｲﾔｰ1
  6
Continuous
 62
     7
100
AcDbLine
 10
442.6473842458481
 20
562.535233245087
 30
0.0
 11
446.6480694032352
 21
562.535233245087
 31
0.0
  0
LINE
  5
1E2
330
54
100
AcDbEntity
  8
ﾚｲﾔｰ1
  6
Continuous
 62
     7
100
AcDbLine
 10
447.1480693938347
 20
563.035233235687
 30
0.0
 11
447.1480693938347
 21
576.0352329912869
 31
0.0
  0
LINE
  5
1E3
330
54
100
AcDbEntity
  8
ﾚｲﾔｰ1
  6
Continuous
 62
     7
100
AcDbLine
 10
460.6480691347133
 20
573.535233039087
 30
0.0
 11
471.6480689279351
 21
573.535233038087
 31
0.0
  0
LINE
  5
1E4
330
54
100
AcDbEntity
  8
ﾚｲﾔｰ1
  6
Continuous
 62
     7
100
AcDbLine
 10
478.8357047045074
 20
576.102245811127
 30
0.0
 11
546.7091532655522
 21
576.6945684171369
 31
0.0
  0
LINE
  5
1E5
330
54
100
AcDbEntity
  8
ﾚｲﾔｰ1
  6
Continuous
 62
     7
100
AcDbLine
 10
481.6480687502353
 20
639.5352317791869
 30
0.0
 11
477.25419188244
 21
639.5352317791869
 31
0.0
  0
LINE
  5
1E6
330
54
100
AcDbEntity
  8
ﾚｲﾔｰ1
  6
Continuous
 62
     7
100
AcDbLine
 10
447.1480693938347
 20
704.0352305848869
 30
0.0
 11
447.1480693938347
 21
691.035230829287
 31
0.0
  0
LINE
  5
1E7
330
54
100
AcDbEntity
  8
ﾚｲﾔｰ1
  6
Continuous
 62
     7
100
AcDbLine
 10
471.6480689491345
 20
693.5352307748869
 30
0.0
 11
478.8357047249074
 21
690.968217999447
 31
0.0
  0
LINE
  5
1E8
330
54
100
AcDbEntity
  8
ﾚｲﾔｰ1
  6
Continuous
 62
     7
100
AcDbLine
 10
460.6480691559345
 20
693.5352307778869
 30
0.0
 11
471.6480689491345
 21
693.5352307748869
 31
0.0
  0
LINE
  5
1E9
330
54
100
AcDbEntity
  8
ﾚｲﾔｰ1
  6
Continuous
 62
     7
100
AcDbLine
 10
471.6480689341352
 20
643.891389282192
 30
0.0
 11
471.6480689385353
 21
693.535230778687
 31
0.0
  0
LINE
  5
1EA
330
54
100
AcDbEntity
  8
ﾚｲﾔｰ1
  6
Continuous
 62
     7
100
AcDbLine
 10
505.6480683024347
 20
677.535231032587
 30
0.0
 11
507.6480682648353
 21
677.5352310321871
 31
0.0
  0
LINE
  5
1EB
330
54
100
AcDbEntity
  8
ﾚｲﾔｰ1
  6
Continuous
 62
     7
100
AcDbLine
 10
505.6480683014352
 20
667.020302602368
 30
0.0
 11
505.6480683024347
 21
677.535231032587
 31
0.0
  0
LINE
  5
1EC
330
54
100
AcDbEntity
  8
ﾚｲﾔｰ1
  6
Continuous
 62
     7
100
AcDbLine
 10
507.6480682638348
 20
667.0203026021679
 30
0.0
 11
507.6480682648353
 21
677.5352310321871
 31
0.0
  0
LINE
  5
1ED
330
54
100
AcDbEntity
  8
ﾚｲﾔｰ1
  6
Continuous
 62
     7
100
AcDbLine
 10
478.8357047249074
 20
690.968217999447
 30
0.0
 11
546.7091532768327
 21
690.3758953693159
 31
0.0
  0
LINE
  5
1EE
330
54
100
AcDbEntity
  8
ﾚｲﾔｰ1
  6
Continuous
 62
     7
100
AcDbLine
 10
471.6480689279351
 20
573.535233038087
 30
0.0
 11
478.8357047045074
 21
576.102245811127
 31
0.0
  0
LINE
  5
1EF
330
54
100
AcDbEntity
  8
ﾚｲﾔｰ1
  6
Continuous
 62
     7
100
AcDbLine
 10
507.6480682520351
 20
600.0501611981069
 30
0.0
 11
507.6480682492347
 21
589.535232768088
 31
0.0
  0
LINE
  5
1F0
330
54
100
AcDbEntity
  8
ﾚｲﾔｰ1
  6
Continuous
 62
     7
100
AcDbLine
 10
505.6480682896345
 20
600.0501611986069
 30
0.0
 11
505.648068286835
 21
589.535232768387
 31
0.0
  0
LINE
  5
1F1
330
54
100
AcDbEntity
  8
ﾚｲﾔｰ1
  6
Continuous
 62
     7
100
AcDbLine
 10
505.648068286835
 20
589.535232768387
 30
0.0
 11
507.6480682492347
 21
589.535232768088
 31
0.0
  0
LINE
  5
1F2
330
54
100
AcDbEntity
  8
ﾚｲﾔｰ1
  6
Continuous
 62
     7
100
AcDbLine
 10
478.8357047045074
 20
576.102245811127
 30
0.0
 11
478.8357047075078
 21
609.897922780269
 31
0.0
  0
LINE
  5
1F3
330
54
100
AcDbEntity
  8
ﾚｲﾔｰ1
  6
Continuous
 62
     7
100
AcDbLine
 10
540.1331389815159
 20
632.535231913188
 30
0.0
 11
546.6480675276343
 21
632.535231911487
 31
0.0
  0
LINE
  5
1F4
330
54
100
AcDbEntity
  8
ﾚｲﾔｰ1
  6
Continuous
 62
     7
100
AcDbLine
 10
540.1331389818151
 20
634.535231875587
 30
0.0
 11
546.6480675278344
 21
634.5352318738869
 31
0.0
  0
LINE
  5
1F5
330
54
100
AcDbEntity
  8
ﾚｲﾔｰ1
  6
Continuous
 62
     7
100
AcDbLine
 10
546.6480675276343
 20
632.535231911487
 30
0.0
 11
546.6480675278344
 21
634.5352318738869
 31
0.0
  0
LINE
  5
1F6
330
54
100
AcDbEntity
  8
ﾚｲﾔｰ1
  6
Continuous
 62
     7
100
AcDbLine
 10
478.835704711707
 20
657.1725410253059
 30
0.0
 11
478.8357047147074
 21
690.968218003047
 31
0.0
  0
LINE
  5
1F7
330
54
100
AcDbEntity
  8
ﾚｲﾔｰ1
  6
Continuous
 62
     7
100
AcDbLine
 10
455.1480692630676
 20
708.535230499587
 30
0.0
 11
458.148069206668
 21
708.5352304987871
 31
0.0
  0
LINE
  5
1F8
330
54
100
AcDbEntity
  8
ﾚｲﾔｰ1
  6
Continuous
 62
     7
100
AcDbLine
 10
442.6473842458481
 20
704.535230575487
 30
0.0
 11
446.6480694032352
 21
704.535230575487
 31
0.0
  0
LINE
  5
1F9
330
54
100
AcDbEntity
  8
ﾚｲﾔｰ1
  6
Continuous
 62
     7
100
AcDbLine
 10
481.6480687502353
 20
627.5352320047871
 30
0.0
 11
477.2541918858406
 21
627.5352320047871
 31
0.0
  0
LINE
  5
1FA
330
54
100
AcDbEntity
  8
ﾚｲﾔｰ1
  6
Continuous
 62
     7
100
AcDbLine
 10
481.6480687502353
 20
650.118355602724
 30
0.0
 11
481.6480687502353
 21
639.5352317791869
 31
0.0
  0
LINE
  5
1FB
330
54
100
AcDbEntity
  8
ﾚｲﾔｰ1
  6
Continuous
 62
     7
100
AcDbLine
 10
216.7836702463965
 20
612.306828331778
 30
0.0
 11
222.6013457476365
 21
590.5949677792589
 31
0.0
  0
LINE
  5
1FC
330
54
100
AcDbEntity
  8
ﾚｲﾔｰ1
  6
Continuous
 62
     7
100
AcDbLine
 10
220.3835283104454
 20
613.61706951469
 30
0.0
 11
229.88304526719
 21
593.24528965932
 31
0.0
  0
LINE
  5
1FD
330
54
100
AcDbEntity
  8
ﾚｲﾔｰ1
  6
Continuous
 62
     7
100
AcDbLine
 10
209.1800921857412
 20
611.6416014492361
 30
0.0
 11
207.221025266279
 21
589.2493640957571
 31
0.0
  0
LINE
  5
1FE
330
54
100
AcDbEntity
  8
ﾚｲﾔｰ1
  6
Continuous
 62
     7
100
AcDbLine
 10
213.0109811215043
 20
611.6416014492361
 30
0.0
 11
214.9700480408656
 21
589.2493640957571
 31
0.0
  0
LINE
  5
1FF
330
54
100
AcDbEntity
  8
ﾚｲﾔｰ1
  6
Continuous
 62
     7
100
AcDbLine
 10
201.8075449968001
 20
613.61706951469
 30
0.0
 11
192.3080280399554
 21
593.24528965932
 31
0.0
  0
LINE
  5
200
330
54
100
AcDbEntity
  8
ﾚｲﾔｰ1
  6
Continuous
 62
     7
100
AcDbLine
 10
205.407403060748
 20
612.306828331778
 30
0.0
 11
199.5897275596099
 21
590.5949677792589
 31
0.0
  0
LINE
  5
201
330
54
100
AcDbEntity
  8
ﾚｲﾔｰ1
  6
Continuous
 62
     7
100
AcDbLine
 10
195.555266677793
 20
617.994961924531
 30
0.0
 11
179.6610816265165
 21
602.100776873328
 31
0.0
  0
LINE
  5
202
330
54
100
AcDbEntity
  8
ﾚｲﾔｰ1
  6
Continuous
 62
     7
100
AcDbLine
 10
198.4898978592983
 20
615.532513982587
 30
0.0
 11
185.5971774626705
 21
597.1198010465951
 31
0.0
  0
LINE
  5
203
330
54
100
AcDbEntity
  8
ﾚｲﾔｰ1
  6
Continuous
 62
     7
100
AcDbLine
 10
191.1773742679434
 20
624.247240243538
 30
0.0
 11
170.8055944125945
 21
614.747723286665
 31
0.0
  0
LINE
  5
204
330
54
100
AcDbEntity
  8
ﾚｲﾔｰ1
  6
Continuous
 62
     7
100
AcDbLine
 10
193.092818735825
 20
620.9295931059839
 30
0.0
 11
174.6801057998355
 21
608.036872709378
 31
0.0
  0
LINE
  5
205
330
54
100
AcDbEntity
  8
ﾚｲﾔｰ1
  6
Continuous
 62
     7
100
AcDbLine
 10
189.2019062024747
 20
631.61978743239
 30
0.0
 11
166.8096688490023
 21
629.660720513011
 31
0.0
  0
LINE
  5
206
330
54
100
AcDbEntity
  8
ﾚｲﾔｰ1
  6
Continuous
 62
     7
100
AcDbLine
 10
189.8671330850202
 20
627.8470983075349
 30
0.0
 11
168.1552725325055
 21
622.029422806318
 31
0.0
  0
LINE
  5
207
330
54
100
AcDbEntity
  8
ﾚｲﾔｰ1
  6
Continuous
 62
     7
100
AcDbLine
 10
189.8671330850202
 20
639.223365493139
 30
0.0
 11
168.1552725325055
 21
645.0410409943561
 31
0.0
  0
LINE
  5
208
330
54
100
AcDbEntity
  8
ﾚｲﾔｰ1
  6
Continuous
 62
     7
100
AcDbLine
 10
189.2019062024747
 20
635.450676368185
 30
0.0
 11
166.8096688490023
 21
637.409743287664
 31
0.0
  0
LINE
  5
209
330
54
100
AcDbEntity
  8
ﾚｲﾔｰ1
  6
Continuous
 62
     7
100
AcDbLine
 10
193.092818735825
 20
646.1408706945899
 30
0.0
 11
174.6801057998355
 21
659.0335910912959
 31
0.0
  0
LINE
  5
20A
330
54
100
AcDbEntity
  8
ﾚｲﾔｰ1
  6
Continuous
 62
     7
100
AcDbLine
 10
191.1773742679434
 20
642.8232235571361
 30
0.0
 11
170.8055944125945
 21
652.3227405139089
 31
0.0
  0
LINE
  5
20B
330
54
100
AcDbEntity
  8
ﾚｲﾔｰ1
  6
Continuous
 62
     7
100
AcDbLine
 10
198.4898978592983
 20
651.5379498180871
 30
0.0
 11
185.5971774626705
 21
669.9506627540791
 31
0.0
  0
LINE
  5
20C
330
54
100
AcDbEntity
  8
ﾚｲﾔｰ1
  6
Continuous
 62
     7
100
AcDbLine
 10
195.555266677793
 20
649.0755018760431
 30
0.0
 11
179.6610816265165
 21
664.969686927348
 31
0.0
  0
LINE
  5
20D
330
54
100
AcDbEntity
  8
ﾚｲﾔｰ1
  6
Continuous
 62
     7
100
AcDbLine
 10
205.407403060748
 20
654.7636354688959
 30
0.0
 11
199.5897275596099
 21
676.475496021415
 31
0.0
  0
LINE
  5
20E
330
54
100
AcDbEntity
  8
ﾚｲﾔｰ1
  6
Continuous
 62
     7
100
AcDbLine
 10
201.8075449968001
 20
653.453394285985
 30
0.0
 11
192.3080280399554
 21
673.825174141356
 31
0.0
  0
LINE
  5
20F
330
54
100
AcDbEntity
  8
ﾚｲﾔｰ1
  6
Continuous
 62
     7
100
AcDbLine
 10
213.0109811215043
 20
655.428862351439
 30
0.0
 11
214.9700480408656
 21
677.821099704918
 31
0.0
  0
LINE
  5
210
330
54
100
AcDbEntity
  8
ﾚｲﾔｰ1
  6
Continuous
 62
     7
100
AcDbLine
 10
209.1800921857412
 20
655.428862351439
 30
0.0
 11
207.221025266279
 21
677.821099704918
 31
0.0
  0
LINE
  5
211
330
54
100
AcDbEntity
  8
ﾚｲﾔｰ1
  6
Continuous
 62
     7
100
AcDbLine
 10
220.3835283104454
 20
653.453394285985
 30
0.0
 11
229.88304526719
 21
673.825174141356
 31
0.0
  0
LINE
  5
212
330
54
100
AcDbEntity
  8
ﾚｲﾔｰ1
  6
Continuous
 62
     7
100
AcDbLine
 10
216.7836702463965
 20
654.7636354688959
 30
0.0
 11
222.6013457476365
 21
676.475496021415
 31
0.0
  0
LINE
  5
213
330
54
100
AcDbEntity
  8
1
  6
Continuous
 62
     7
100
AcDbLine
 10
211.0955366523231
 20
356.1437719721471
 30
0.0
 11
273.095535489223
 21
356.1437719721471
 31
0.0
  0
LINE
  5
214
330
54
100
AcDbEntity
  8
ﾚｲﾔｰ1
  6
Continuous
 62
     7
100
AcDbLine
 10
270.5955355004899
 20
362.143771859347
 30
0.0
 11
270.5955355004899
 21
365.143771802947
 31
0.0
  0
LINE
  5
215
330
54
100
AcDbEntity
  8
ﾚｲﾔｰ1
  6
Continuous
 62
     7
100
AcDbLine
 10
311.0955347429735
 20
338.443772874547
 30
0.0
 11
311.0955347403224
 21
341.643772244747
 31
0.0
  0
LINE
  5
216
330
54
100
AcDbEntity
  8
ﾚｲﾔｰ1
  6
Continuous
 62
     7
100
AcDbLine
 10
311.0955347931713
 20
277.843772874548
 30
0.0
 11
311.0955347429735
 21
338.443772874547
 31
0.0
  0
ARC
  5
217
330
54
100
AcDbEntity
  8
ﾚｲﾔｰ1
  6
Continuous
 62
     7
100
AcDbCircle
 10
136.5955380535233
 20
356.643771962747
 30
0.0
 40
0.4999999906003154
100
AcDbArc
 50
180.0
 51
270.0000150688134
  0
ARC
  5
218
330
54
100
AcDbEntity
  8
ﾚｲﾔｰ1
  6
Continuous
 62
     7
100
AcDbCircle
 10
281.5955353280224
 20
368.1437717465469
 30
0.0
 40
0.4999999905999175
100
AcDbArc
 50
270.0
 51
0.0
  0
ARC
  5
219
330
54
100
AcDbEntity
  8
ﾚｲﾔｰ1
  6
Continuous
 62
     7
100
AcDbCircle
 10
211.0955366536227
 20
633.535231900287
 30
0.0
 40
52.69999900924002
100
AcDbArc
 50
341.5801508424999
 51
18.4198491574998
  0
ARC
  5
21A
330
54
100
AcDbEntity
  8
ﾚｲﾔｰ1
  6
Continuous
 62
     7
100
AcDbCircle
 10
211.0955366536227
 20
633.535231900287
 30
0.0
 40
52.99999900359948
100
AcDbArc
 50
340.6299617544994
 51
19.37003824550052
  0
ARC
  5
21B
330
54
100
AcDbEntity
  8
ﾚｲﾔｰ1
  6
Continuous
 62
     7
100
AcDbCircle
 10
211.0955366536227
 20
633.535231900287
 30
0.0
 40
52.99999900360123
100
AcDbArc
 50
21.5876743871999
 51
315.4194327368994
  0
ARC
  5
21C
330
54
100
AcDbEntity
  8
ﾚｲﾔｰ1
  6
Continuous
 62
     7
100
AcDbCircle
 10
211.0955366536227
 20
633.535231900287
 30
0.0
 40
52.69999900923956
100
AcDbArc
 50
21.7167875455997
 51
315.7513829312997
  0
ARC
  5
21D
330
54
100
AcDbEntity
  8
ﾚｲﾔｰ1
  6
Continuous
 62
     7
100
AcDbCircle
 10
506.6480682797355
 20
633.535231900287
 30
0.0
 40
36.49999931379988
100
AcDbArc
 50
201.3290631381981
 51
217.9040094799987
  0
ARC
  5
21E
330
54
100
AcDbEntity
  8
ﾚｲﾔｰ1
  6
Continuous
 62
     7
100
AcDbCircle
 10
211.0955366536227
 20
633.535231900287
 30
0.0
 40
38.99999926680058
100
AcDbArc
 50
194.9999999999995
 51
204.9999999999991
  0
ARC
  5
21F
330
54
100
AcDbEntity
  8
ﾚｲﾔｰ1
  6
Continuous
 62
     7
100
AcDbCircle
 10
211.0955366536227
 20
633.535231900287
 30
0.0
 40
15.99999969919986
100
AcDbArc
 50
90.0
 51
270.0
  0
ARC
  5
220
330
54
100
AcDbEntity
  8
ﾚｲﾔｰ1
  6
Continuous
 62
     7
100
AcDbCircle
 10
211.0955366536227
 20
633.535231900287
 30
0.0
 40
18.99999964280061
100
AcDbArc
 50
57.36310249639811
 51
302.6368975036015
  0
ARC
  5
221
330
54
100
AcDbEntity
  8
ﾚｲﾔｰ1
  6
Continuous
 62
     7
100
AcDbCircle
 10
261.5955360425223
 20
268.143773626547
 30
0.0
 40
6.999999868399868
100
AcDbArc
 50
270.0
 51
0.0000002864782
  0
ARC
  5
222
330
54
100
AcDbEntity
  8
ﾚｲﾔｰ1
  6
Continuous
 62
     7
100
AcDbCircle
 10
161.2546064977323
 20
268.143773626547
 30
0.0
 40
6.999999868399477
100
AcDbArc
 50
180.5007862072989
 51
270.0000027894818
  0
ARC
  5
223
330
54
100
AcDbEntity
  8
ﾚｲﾔｰ1
  6
Continuous
 62
     7
100
AcDbCircle
 10
274.0955354704229
 20
344.6437721883469
 30
0.0
 40
2.999999943600358
100
AcDbArc
 50
180.0
 51
270.0
  0
ARC
  5
224
330
54
100
AcDbEntity
  8
ﾚｲﾔｰ1
  6
Continuous
 62
     7
100
AcDbCircle
 10
149.0955378204235
 20
354.143772009747
 30
0.0
 40
1.999999962399698
100
AcDbArc
 50
0.0
 51
90.0
  0
ARC
  5
225
330
54
100
AcDbEntity
  8
ﾚｲﾔｰ1
  6
Continuous
 62
     7
100
AcDbCircle
 10
151.0955378154231
 20
365.143771802947
 30
0.0
 40
0.4999999905994912
100
AcDbArc
 50
0.0
 51
23.5781784782035
  0
ARC
  5
226
330
54
100
AcDbEntity
  8
ﾚｲﾔｰ1
  6
Continuous
 62
     7
100
AcDbCircle
 10
151.0955378154231
 20
362.143771859347
 30
0.0
 40
0.4999999905997874
100
AcDbArc
 50
336.4218215217845
 51
0.0
  0
ARC
  5
227
330
54
100
AcDbEntity
  8
ﾚｲﾔｰ1
  6
Continuous
 62
     7
100
AcDbCircle
 10
273.095535489223
 20
354.143772009747
 30
0.0
 40
1.999999962400068
100
AcDbArc
 50
90.0
 51
180.0
  0
ARC
  5
228
330
54
100
AcDbEntity
  8
ﾚｲﾔｰ1
  6
Continuous
 62
     7
100
AcDbCircle
 10
136.5955380535233
 20
359.643771906347
 30
0.0
 40
0.4999999905998607
100
AcDbArc
 50
90.0
 51
180.0
  0
ARC
  5
229
330
54
100
AcDbEntity
  8
ﾚｲﾔｰ1
  6
Continuous
 62
     7
100
AcDbCircle
 10
141.845537989323
 20
366.393771779447
 30
0.0
 40
0.7499999859010901
100
AcDbArc
 50
90.00002595115978
 51
269.9999833918554
  0
ARC
  5
22A
330
54
100
AcDbEntity
  8
ﾚｲﾔｰ1
  6
Continuous
 62
     7
100
AcDbCircle
 10
145.0955379282232
 20
365.8437717897871
 30
0.0
 40
0.4999999906007901
100
AcDbArc
 50
203.5781784781937
 51
269.999983243539
  0
ARC
  5
22B
330
54
100
AcDbEntity
  8
ﾚｲﾔｰ1
  6
Continuous
 62
     7
100
AcDbCircle
 10
141.845537989323
 20
360.893771882847
 30
0.0
 40
0.7499999859001757
100
AcDbArc
 50
90.00002511801958
 51
269.9999800531847
  0
ARC
  5
22C
330
54
100
AcDbEntity
  8
ﾚｲﾔｰ1
  6
Continuous
 62
     7
100
AcDbCircle
 10
145.0955379282232
 20
361.4437718725069
 30
0.0
 40
0.4999999906000889
100
AcDbArc
 50
90.00000331994465
 51
156.4218215218122
  0
ARC
  5
22D
330
54
100
AcDbEntity
  8
ﾚｲﾔｰ1
  6
Continuous
 62
     7
100
AcDbCircle
 10
140.5955379788229
 20
372.144456903934
 30
0.0
 40
0.4999999905996907
100
AcDbArc
 50
87.00000000010267
 51
180.0
  0
ARC
  5
22E
330
54
100
AcDbEntity
  8
ﾚｲﾔｰ1
  6
Continuous
 62
     7
100
AcDbCircle
 10
140.5955379788229
 20
368.1437717465469
 30
0.0
 40
0.4999999905994912
100
AcDbArc
 50
180.0
 51
270.0
  0
ARC
  5
22F
330
54
100
AcDbEntity
  8
ﾚｲﾔｰ1
  6
Continuous
 62
     7
100
AcDbCircle
 10
224.5203274767364
 20
616.1060904081551
 30
0.0
 40
0.999999981098057
100
AcDbArc
 50
127.6052512638955
 51
215.0000000019485
  0
ARC
  5
230
330
54
100
AcDbEntity
  8
ﾚｲﾔｰ1
  6
Continuous
 62
     7
100
AcDbCircle
 10
211.0955366536227
 20
633.535231900287
 30
0.0
 40
20.9999996052
100
AcDbArc
 50
307.6052512650992
 51
310.3675935441975
  0
ARC
  5
231
330
54
100
AcDbEntity
  8
ﾚｲﾔｰ1
  6
Continuous
 62
     7
100
AcDbCircle
 10
211.0955366536227
 20
633.535231900287
 30
0.0
 40
38.99999926679965
100
AcDbArc
 50
234.9999999999997
 51
244.9999999999998
  0
ARC
  5
232
330
54
100
AcDbEntity
  8
ﾚｲﾔｰ1
  6
Continuous
 62
     7
100
AcDbCircle
 10
211.0955366536227
 20
633.535231900287
 30
0.0
 40
38.99999926679946
100
AcDbArc
 50
315.0000000000002
 51
325.0000000000009
  0
ARC
  5
233
330
54
100
AcDbEntity
  8
ﾚｲﾔｰ1
  6
Continuous
 62
     7
100
AcDbCircle
 10
211.0955366536227
 20
633.535231900287
 30
0.0
 40
52.99999900360097
100
AcDbArc
 50
332.4729147121004
 51
338.4123256127999
  0
ARC
  5
234
330
54
100
AcDbEntity
  8
ﾚｲﾔｰ1
  6
Continuous
 62
     7
100
AcDbCircle
 10
211.0955366536227
 20
633.535231900287
 30
0.0
 40
52.69999900923942
100
AcDbArc
 50
333.1054558074002
 51
338.2832124544003
  0
ARC
  5
235
330
54
100
AcDbEntity
  8
ﾚｲﾔｰ1
  6
Continuous
 62
     7
100
AcDbCircle
 10
235.5955361930228
 20
616.5352322198869
 30
0.0
 40
0.9999999811998066
100
AcDbArc
 50
180.0
 51
270.0
  0
ARC
  5
236
330
54
100
AcDbEntity
  8
ﾚｲﾔｰ1
  6
Continuous
 62
     7
100
AcDbCircle
 10
211.0955366536227
 20
633.535231900287
 30
0.0
 40
38.99999926679995
100
AcDbArc
 50
214.9999999999991
 51
224.9999999999998
  0
ARC
  5
237
330
54
100
AcDbEntity
  8
ﾚｲﾔｰ1
  6
Continuous
 62
     7
100
AcDbCircle
 10
285.5955352523224
 20
359.643771906347
 30
0.0
 40
0.4999999906003723
100
AcDbArc
 50
0.0
 51
90.0
  0
ARC
  5
238
330
54
100
AcDbEntity
  8
ﾚｲﾔｰ1
  6
Continuous
 62
     7
100
AcDbCircle
 10
285.5955352523224
 20
356.643771962747
 30
0.0
 40
0.4999999905999175
100
AcDbArc
 50
270.0
 51
0.0
  0
ARC
  5
239
330
54
100
AcDbEntity
  8
ﾚｲﾔｰ1
  6
Continuous
 62
     7
100
AcDbCircle
 10
281.5955353280224
 20
372.144456903934
 30
0.0
 40
0.4999999906004291
100
AcDbArc
 50
0.0
 51
92.99999999989407
  0
ARC
  5
23A
330
54
100
AcDbEntity
  8
ﾚｲﾔｰ1
  6
Continuous
 62
     7
100
AcDbCircle
 10
235.5955361930228
 20
650.535231580687
 30
0.0
 40
0.9999999812000624
100
AcDbArc
 50
90.0
 51
180.0
  0
ARC
  5
23B
330
54
100
AcDbEntity
  8
ﾚｲﾔｰ1
  6
Continuous
 62
     7
100
AcDbCircle
 10
211.0955366536227
 20
633.535231900287
 30
0.0
 40
38.99999926680037
100
AcDbArc
 50
154.9999999999996
 51
165.0000000000005
  0
ARC
  5
23C
330
54
100
AcDbEntity
  8
ﾚｲﾔｰ1
  6
Continuous
 62
     7
100
AcDbCircle
 10
211.0955366536227
 20
633.535231900287
 30
0.0
 40
38.99999926679985
100
AcDbArc
 50
134.9999999999994
 51
144.9999999999998
  0
ARC
  5
23D
330
54
100
AcDbEntity
  8
ﾚｲﾔｰ1
  6
Continuous
 62
     7
100
AcDbCircle
 10
211.0955366536227
 20
633.535231900287
 30
0.0
 40
38.99999926679999
100
AcDbArc
 50
255.0000000000013
 51
264.9999999999988
  0
ARC
  5
23E
330
54
100
AcDbEntity
  8
ﾚｲﾔｰ1
  6
Continuous
 62
     7
100
AcDbCircle
 10
211.0955366536227
 20
633.535231900287
 30
0.0
 40
38.99999926679961
100
AcDbArc
 50
295.0000000000002
 51
305.0000000000003
  0
ARC
  5
23F
330
54
100
AcDbEntity
  8
ﾚｲﾔｰ1
  6
Continuous
 62
     7
100
AcDbCircle
 10
211.0955366536227
 20
633.535231900287
 30
0.0
 40
38.99999926679988
100
AcDbArc
 50
275.0000000000001
 51
284.9999999999987
  0
ARC
  5
240
330
54
100
AcDbEntity
  8
ﾚｲﾔｰ1
  6
Continuous
 62
     7
100
AcDbCircle
 10
238.2321999023534
 20
598.2669538977309
 30
0.0
 40
1.999999962400646
100
AcDbArc
 50
214.9999999999949
 51
307.5759589276965
  0
ARC
  5
241
330
54
100
AcDbEntity
  8
ﾚｲﾔｰ1
  6
Continuous
 62
     7
100
AcDbCircle
 10
211.0955366536227
 20
633.535231900287
 30
0.0
 40
46.49999912579994
100
AcDbArc
 50
307.5759589276993
 51
312.4240410723812
  0
ARC
  5
242
330
54
100
AcDbEntity
  8
ﾚｲﾔｰ1
  6
Continuous
 62
     7
100
AcDbCircle
 10
241.1157781448419
 20
600.6865633375419
 30
0.0
 40
1.999999962399756
100
AcDbArc
 50
312.4240410722908
 51
44.99999999999942
  0
ARC
  5
243
330
54
100
AcDbEntity
  8
ﾚｲﾔｰ1
  6
Continuous
 62
     7
100
AcDbCircle
 10
211.0955366536227
 20
633.535231900287
 30
0.0
 40
38.99999926679995
100
AcDbArc
 50
95.00000000000121
 51
104.9999999999983
  0
ARC
  5
244
330
54
100
AcDbEntity
  8
ﾚｲﾔｰ1
  6
Continuous
 62
     7
100
AcDbCircle
 10
211.0955366536227
 20
633.535231900287
 30
0.0
 40
38.99999926680088
100
AcDbArc
 50
75.00000000000158
 51
84.99999999999997
  0
ARC
  5
245
330
54
100
AcDbEntity
  8
ﾚｲﾔｰ1
  6
Continuous
 62
     7
100
AcDbCircle
 10
211.0955366536227
 20
633.535231900287
 30
0.0
 40
46.4999991257942
100
AcDbArc
 50
27.57595892766172
 51
32.42404107244955
  0
ARC
  5
246
330
54
100
AcDbEntity
  8
ﾚｲﾔｰ1
  6
Continuous
 62
     7
100
AcDbCircle
 10
248.6581203584465
 20
657.3952870335179
 30
0.0
 40
1.9999999624005
100
AcDbArc
 50
32.42404107232299
 51
125.0000000012368
  0
ARC
  5
247
330
54
100
AcDbEntity
  8
ﾚｲﾔｰ1
  6
Continuous
 62
     7
100
AcDbCircle
 10
211.0955366536227
 20
633.535231900287
 30
0.0
 40
38.99999926679941
100
AcDbArc
 50
115.0000000000003
 51
124.9999999999995
  0
ARC
  5
248
330
54
100
AcDbEntity
  8
ﾚｲﾔｰ1
  6
Continuous
 62
     7
100
AcDbCircle
 10
186.0955371236232
 20
634.718628628639
 30
0.0
 40
0.9999999811999203
100
AcDbArc
 50
0.0
 51
85.00000000004965
  0
ARC
  5
249
330
54
100
AcDbEntity
  8
ﾚｲﾔｰ1
  6
Continuous
 62
     7
100
AcDbCircle
 10
186.0955371236232
 20
632.3518351719349
 30
0.0
 40
0.9999999811985556
100
AcDbArc
 50
274.9999999999606
 51
0.0
  0
ARC
  5
24A
330
54
100
AcDbEntity
  8
ﾚｲﾔｰ1
  6
Continuous
 62
     7
100
AcDbCircle
 10
211.0955366536227
 20
633.535231900287
 30
0.0
 40
38.99999926680047
100
AcDbArc
 50
35.00000000000024
 51
45.00000000000045
  0
ARC
  5
24B
330
54
100
AcDbEntity
  8
ﾚｲﾔｰ1
  6
Continuous
 62
     2
100
AcDbCircle
 10
211.0955366536227
 20
633.535231900287
 30
0.0
 40
49.59999906752105
100
AcDbArc
 50
79.99999999999984
 51
100.0000000000002
  0
ARC
  5
24C
330
54
100
AcDbEntity
  8
ﾚｲﾔｰ1
  6
Continuous
 62
     7
100
AcDbCircle
 10
211.0955366536227
 20
633.535231900287
 30
0.0
 40
38.99999926680039
100
AcDbArc
 50
55.0000000000005
 51
64.9999999999997
  0
ARC
  5
24D
330
54
100
AcDbEntity
  8
ﾚｲﾔｰ1
  6
Continuous
 62
     7
100
AcDbCircle
 10
224.5203274767364
 20
650.9643733925191
 30
0.0
 40
0.99999998119962
100
AcDbArc
 50
144.999999999969
 51
232.3947487349404
  0
ARC
  5
24E
330
54
100
AcDbEntity
  8
ﾚｲﾔｰ1
  6
Continuous
 62
     7
100
AcDbCircle
 10
241.1157781448419
 20
666.383900463132
 30
0.0
 40
1.999999962398849
100
AcDbArc
 50
315.0000000000421
 51
47.57595892767405
  0
ARC
  5
24F
330
54
100
AcDbEntity
  8
ﾚｲﾔｰ1
  6
Continuous
 62
     7
100
AcDbCircle
 10
211.0955366536227
 20
633.535231900287
 30
0.0
 40
46.49999912580019
100
AcDbArc
 50
47.57595892770027
 51
52.42404107237618
  0
ARC
  5
250
330
54
100
AcDbEntity
  8
ﾚｲﾔｰ1
  6
Continuous
 62
     7
100
AcDbCircle
 10
238.2321999023534
 20
668.8035099029439
 30
0.0
 40
1.999999962399925
100
AcDbArc
 50
52.42404107229882
 51
145.0000000000211
  0
ARC
  5
251
330
54
100
AcDbEntity
  8
ﾚｲﾔｰ1
  6
Continuous
 62
     7
100
AcDbCircle
 10
250.5402423870619
 20
654.1353560539051
 30
0.0
 40
1.999999962401033
100
AcDbArc
 50
315.5679998189008
 51
27.57595892768256
  0
ARC
  5
252
330
54
100
AcDbEntity
  8
ﾚｲﾔｰ1
  6
Continuous
 62
     7
100
AcDbCircle
 10
455.148069236935
 20
559.035233309887
 30
0.0
 40
0.4999999906002586
100
AcDbArc
 50
179.9999999948411
 51
269.9999999885423
  0
ARC
  5
253
330
54
100
AcDbEntity
  8
ﾚｲﾔｰ1
  6
Continuous
 62
     7
100
AcDbCircle
 10
442.6473842458481
 20
563.035233235687
 30
0.0
 40
0.4999999906004299
100
AcDbArc
 50
179.9999967258895
 51
270.0
  0
ARC
  5
254
330
54
100
AcDbEntity
  8
ﾚｲﾔｰ1
  6
Continuous
 62
     7
100
AcDbCircle
 10
446.6480694032352
 20
563.035233235687
 30
0.0
 40
0.4999999905999175
100
AcDbArc
 50
270.0
 51
0.0
  0
ARC
  5
255
330
54
100
AcDbEntity
  8
ﾚｲﾔｰ1
  6
Continuous
 62
     7
100
AcDbCircle
 10
460.648069134535
 20
571.5352330766871
 30
0.0
 40
1.999999962399897
100
AcDbArc
 50
89.99999999489157
 51
179.9999999948737
  0
ARC
  5
256
330
54
100
AcDbEntity
  8
ﾚｲﾔｰ1
  6
Continuous
 62
     7
100
AcDbCircle
 10
446.6480694032352
 20
704.0352305848869
 30
0.0
 40
0.4999999905995196
100
AcDbArc
 50
0.0
 51
90.0
  0
ARC
  5
257
330
54
100
AcDbEntity
  8
ﾚｲﾔｰ1
  6
Continuous
 62
     7
100
AcDbCircle
 10
460.6480691565348
 20
695.535230740287
 30
0.0
 40
1.999999962399727
100
AcDbArc
 50
179.9999999847903
 51
269.999999982802
  0
ARC
  5
258
330
54
100
AcDbEntity
  8
ﾚｲﾔｰ1
  6
Continuous
 62
     7
100
AcDbCircle
 10
506.6480682797355
 20
633.535231900287
 30
0.0
 40
36.49999931380064
100
AcDbArc
 50
142.0959905098003
 51
158.6709368516007
  0
ARC
  5
259
330
54
100
AcDbEntity
  8
ﾚｲﾔｰ1
  6
Continuous
 62
     7
100
AcDbCircle
 10
546.648067518835
 20
583.694301746998
 30
0.0
 40
6.999999868401455
100
AcDbArc
 50
270.4999999949007
 51
359.9999999949006
  0
ARC
  5
25A
330
54
100
AcDbEntity
  8
ﾚｲﾔｰ1
  6
Continuous
 62
     7
100
AcDbCircle
 10
458.1480691805346
 20
559.0352333096869
 30
0.0
 40
0.4999999905999175
100
AcDbArc
 50
269.9999999949909
 51
0.00001506537405
  0
ARC
  5
25B
330
54
100
AcDbEntity
  8
ﾚｲﾔｰ1
  6
Continuous
 62
     7
100
AcDbCircle
 10
546.6480675276343
 20
683.376162039478
 30
0.0
 40
6.999999868400664
100
AcDbArc
 50
359.9999999949006
 51
89.49999998479025
  0
ARC
  5
25C
330
54
100
AcDbEntity
  8
ﾚｲﾔｰ1
  6
Continuous
 62
     7
100
AcDbCircle
 10
455.1480692629348
 20
708.0352305089871
 30
0.0
 40
0.4999999905999175
100
AcDbArc
 50
89.99999998478383
 51
179.9999999846535
  0
ARC
  5
25D
330
54
100
AcDbEntity
  8
ﾚｲﾔｰ1
  6
Continuous
 62
     7
100
AcDbCircle
 10
458.1480692065352
 20
708.0352305081869
 30
0.0
 40
0.4999999906004464
100
AcDbArc
 50
359.9999849143811
 51
89.9999999847773
  0
ARC
  5
25E
330
54
100
AcDbEntity
  8
ﾚｲﾔｰ1
  6
Continuous
 62
     7
100
AcDbCircle
 10
442.6473842458481
 20
704.0352305848869
 30
0.0
 40
0.4999999906001449
100
AcDbArc
 50
90.0
 51
182.9999999999414
  0
ARC
  5
25F
330
54
100
AcDbEntity
  8
ﾚｲﾔｰ1
  6
Continuous
 62
     7
100
AcDbCircle
 10
217.7495960545275
 20
612.5656473720151
 30
0.0
 40
0.9999999812008691
100
AcDbArc
 50
107.6052512651675
 51
195.0000000000002
  0
ARC
  5
260
330
54
100
AcDbEntity
  8
ﾚｲﾔｰ1
  6
Continuous
 62
     7
100
AcDbCircle
 10
211.0955366536227
 20
633.535231900287
 30
0.0
 40
20.99999960514261
100
AcDbArc
 50
287.605251265036
 51
292.3947487348988
  0
ARC
  5
261
330
54
100
AcDbEntity
  8
ﾚｲﾔｰ1
  6
Continuous
 62
     7
100
AcDbCircle
 10
219.477220540447
 20
613.1944512608941
 30
0.0
 40
0.9999999812004843
100
AcDbArc
 50
25.00000000001497
 51
112.3947487379419
  0
ARC
  5
262
330
54
100
AcDbEntity
  8
ﾚｲﾔｰ1
  6
Continuous
 62
     7
100
AcDbCircle
 10
224.5331973638949
 20
591.1126058597331
 30
0.0
 40
1.99999996239932
100
AcDbArc
 50
195.0000000000267
 51
287.5759589276827
  0
ARC
  5
263
330
54
100
AcDbEntity
  8
ﾚｲﾔｰ1
  6
Continuous
 62
     7
100
AcDbCircle
 10
211.0955366536227
 20
633.535231900287
 30
0.0
 40
46.49999912578334
100
AcDbArc
 50
287.5759589276599
 51
292.4240410722995
  0
ARC
  5
264
330
54
100
AcDbEntity
  8
ﾚｲﾔｰ1
  6
Continuous
 62
     7
100
AcDbCircle
 10
228.070429727195
 20
592.400053151729
 30
0.0
 40
1.999999962484898
100
AcDbArc
 50
292.4240410717797
 51
25.00000000001303
  0
ARC
  5
265
330
54
100
AcDbEntity
  8
ﾚｲﾔｰ1
  6
Continuous
 62
     7
100
AcDbCircle
 10
210.176286865104
 20
611.554445708126
 30
0.0
 40
0.99999998120133
100
AcDbArc
 50
87.60525126506111
 51
174.9999999999418
  0
ARC
  5
266
330
54
100
AcDbEntity
  8
ﾚｲﾔｰ1
  6
Continuous
 62
     7
100
AcDbCircle
 10
211.0955366536227
 20
633.535231900287
 30
0.0
 40
20.99999960514391
100
AcDbArc
 50
267.6052512650939
 51
272.3947487349
  0
ARC
  5
267
330
54
100
AcDbEntity
  8
ﾚｲﾔｰ1
  6
Continuous
 62
     7
100
AcDbCircle
 10
212.0147864421415
 20
611.554445708126
 30
0.0
 40
0.9999999811995893
100
AcDbArc
 50
5.00000000005837
 51
92.3947487350728
  0
ARC
  5
268
330
54
100
AcDbEntity
  8
ﾚｲﾔｰ1
  6
Continuous
 62
     7
100
AcDbCircle
 10
209.2134146250064
 20
589.0750526135389
 30
0.0
 40
1.999999962400812
100
AcDbArc
 50
175.0000000000046
 51
267.5759589277163
  0
ARC
  5
269
330
54
100
AcDbEntity
  8
ﾚｲﾔｰ1
  6
Continuous
 62
     7
100
AcDbCircle
 10
211.0955366536227
 20
633.535231900287
 30
0.0
 40
46.4999991257744
100
AcDbArc
 50
267.5759589276088
 51
272.4240410723003
  0
ARC
  5
26A
330
54
100
AcDbEntity
  8
ﾚｲﾔｰ1
  6
Continuous
 62
     7
100
AcDbCircle
 10
212.977658682139
 20
589.0750526135389
 30
0.0
 40
1.99999996242832
100
AcDbArc
 50
272.4240410730308
 51
4.99999999999742
  0
ARC
  5
26B
330
54
100
AcDbEntity
  8
ﾚｲﾔｰ1
  6
Continuous
 62
     7
100
AcDbCircle
 10
202.7138527667985
 20
613.1944512608941
 30
0.0
 40
0.9999999811999097
100
AcDbArc
 50
67.60525126510359
 51
154.9999999999857
  0
ARC
  5
26C
330
54
100
AcDbEntity
  8
ﾚｲﾔｰ1
  6
Continuous
 62
     7
100
AcDbCircle
 10
211.0955366536227
 20
633.535231900287
 30
0.0
 40
20.99999960513081
100
AcDbArc
 50
247.6052512649565
 51
252.3947487348989
  0
ARC
  5
26D
330
54
100
AcDbEntity
  8
ﾚｲﾔｰ1
  6
Continuous
 62
     7
100
AcDbCircle
 10
204.4414772526188
 20
612.5656473720151
 30
0.0
 40
0.9999999811996602
100
AcDbArc
 50
344.9999999999732
 51
72.39474873078836
  0
ARC
  5
26E
330
54
100
AcDbEntity
  8
ﾚｲﾔｰ1
  6
Continuous
 62
     7
100
AcDbCircle
 10
194.1206435799513
 20
592.400053151729
 30
0.0
 40
1.999999962399786
100
AcDbArc
 50
154.999999999998
 51
247.5759589276771
  0
ARC
  5
26F
330
54
100
AcDbEntity
  8
ﾚｲﾔｰ1
  6
Continuous
 62
     7
100
AcDbCircle
 10
211.0955366536227
 20
633.535231900287
 30
0.0
 40
46.4999991257535
100
AcDbArc
 50
247.5759589275643
 51
252.4240410722998
  0
ARC
  5
270
330
54
100
AcDbEntity
  8
ﾚｲﾔｰ1
  6
Continuous
 62
     7
100
AcDbCircle
 10
197.6578759433505
 20
591.1126058597331
 30
0.0
 40
1.99999996241724
100
AcDbArc
 50
252.4240410713792
 51
344.9999999999806
  0
ARC
  5
271
330
54
100
AcDbEntity
  8
ﾚｲﾔｰ1
  6
Continuous
 62
     7
100
AcDbCircle
 10
196.2623734456865
 20
617.287855156638
 30
0.0
 40
0.9999999811991402
100
AcDbArc
 50
47.60525126513922
 51
135.0000000000184
  0
ARC
  5
272
330
54
100
AcDbEntity
  8
ﾚｲﾔｰ1
  6
Continuous
 62
     7
100
AcDbCircle
 10
211.0955366536227
 20
633.535231900287
 30
0.0
 40
20.99999960524041
100
AcDbArc
 50
227.6052512649075
 51
232.3947487349008
  0
ARC
  5
273
330
54
100
AcDbEntity
  8
ﾚｲﾔｰ1
  6
Continuous
 62
     7
100
AcDbCircle
 10
197.670745830409
 20
616.1060904081551
 30
0.0
 40
0.9999999812004348
100
AcDbArc
 50
325.0000000000016
 51
52.39474873156595
  0
ARC
  5
274
330
54
100
AcDbEntity
  8
ﾚｲﾔｰ1
  6
Continuous
 62
     7
100
AcDbCircle
 10
181.0752951623035
 20
600.6865633375419
 30
0.0
 40
1.999999962400919
100
AcDbArc
 50
135.0000000000184
 51
227.5759589275758
  0
ARC
  5
275
330
54
100
AcDbEntity
  8
ﾚｲﾔｰ1
  6
Continuous
 62
     7
100
AcDbCircle
 10
211.0955366536227
 20
633.535231900287
 30
0.0
 40
46.4999991258008
100
AcDbArc
 50
227.5759589276994
 51
232.4240410723008
  0
ARC
  5
276
330
54
100
AcDbEntity
  8
ﾚｲﾔｰ1
  6
Continuous
 62
     7
100
AcDbCircle
 10
183.9588734048921
 20
598.2669538977309
 30
0.0
 40
1.999999962422445
100
AcDbArc
 50
232.4240410723042
 51
325.0000000000032
  0
ARC
  5
277
330
54
100
AcDbEntity
  8
ﾚｲﾔｰ1
  6
Continuous
 62
     7
100
AcDbCircle
 10
191.5999925217393
 20
623.3409324735401
 30
0.0
 40
0.9999999811992482
100
AcDbArc
 50
27.60525126511474
 51
115.0000000000238
  0
ARC
  5
278
330
54
100
AcDbEntity
  8
ﾚｲﾔｰ1
  6
Continuous
 62
     7
100
AcDbCircle
 10
211.0955366536227
 20
633.535231900287
 30
0.0
 40
20.99999960517318
100
AcDbArc
 50
207.6052512648897
 51
212.3947487349
  0
ARC
  5
279
330
54
100
AcDbEntity
  8
ﾚｲﾔｰ1
  6
Continuous
 62
     7
100
AcDbCircle
 10
192.5192423102571
 20
621.7487451348729
 30
0.0
 40
0.9999999812000973
100
AcDbArc
 50
305.0000000000019
 51
32.39474873580837
  0
ARC
  5
27A
330
54
100
AcDbEntity
  8
ﾚｲﾔｰ1
  6
Continuous
 62
     7
100
AcDbCircle
 10
171.6508309201827
 20
612.9351077466699
 30
0.0
 40
1.999999962397834
100
AcDbArc
 50
114.9999999999419
 51
207.5759589276927
  0
ARC
  5
27B
330
54
100
AcDbEntity
  8
ﾚｲﾔｰ1
  6
Continuous
 62
     7
100
AcDbCircle
 10
211.0955366536227
 20
633.535231900287
 30
0.0
 40
46.49999912579381
100
AcDbArc
 50
207.5759589276607
 51
212.4240410722989
  0
ARC
  5
27C
330
54
100
AcDbEntity
  8
ﾚｲﾔｰ1
  6
Continuous
 62
     7
100
AcDbCircle
 10
173.532952948699
 20
609.675176767156
 30
0.0
 40
1.999999962368413
100
AcDbArc
 50
212.424041072768
 51
305.0000000000186
  0
ARC
  5
27D
330
54
100
AcDbEntity
  8
ﾚｲﾔｰ1
  6
Continuous
 62
     7
100
AcDbCircle
 10
189.2890619435839
 20
630.6235927530261
 30
0.0
 40
0.9999999812010281
100
AcDbArc
 50
7.60525126508574
 51
95.00000000000064
  0
ARC
  5
27E
330
54
100
AcDbEntity
  8
ﾚｲﾔｰ1
  6
Continuous
 62
     7
100
AcDbCircle
 10
211.0955366536227
 20
633.535231900287
 30
0.0
 40
20.99999960524043
100
AcDbArc
 50
187.6052512650407
 51
192.3947487349006
  0
ARC
  5
27F
330
54
100
AcDbEntity
  8
ﾚｲﾔｰ1
  6
Continuous
 62
     7
100
AcDbCircle
 10
189.6083140447818
 20
628.813024115665
 30
0.0
 40
0.9999999812008844
100
AcDbArc
 50
285.0000000000872
 51
12.39474873271088
  0
ARC
  5
280
330
54
100
AcDbEntity
  8
ﾚｲﾔｰ1
  6
Continuous
 62
     7
100
AcDbCircle
 10
166.9839803312198
 20
627.6683311542849
 30
0.0
 40
1.999999962399453
100
AcDbArc
 50
94.99999999998003
 51
187.5759589276836
  0
ARC
  5
281
330
54
100
AcDbEntity
  8
ﾚｲﾔｰ1
  6
Continuous
 62
     7
100
AcDbCircle
 10
211.0955366536227
 20
633.535231900287
 30
0.0
 40
46.49999912585938
100
AcDbArc
 50
187.5759589276055
 51
192.4240410722997
  0
ARC
  5
282
330
54
100
AcDbEntity
  8
ﾚｲﾔｰ1
  6
Continuous
 62
     7
100
AcDbCircle
 10
167.6376344520304
 20
623.9612744225781
 30
0.0
 40
1.999999962337912
100
AcDbArc
 50
192.4240410729415
 51
285.0000000000409
  0
ARC
  5
283
330
54
100
AcDbEntity
  8
ﾚｲﾔｰ1
  6
Continuous
 62
     7
100
AcDbCircle
 10
189.6083140447818
 20
638.25743968501
 30
0.0
 40
0.9999999812001535
100
AcDbArc
 50
347.6052512651174
 51
74.99999999989596
  0
ARC
  5
284
330
54
100
AcDbEntity
  8
ﾚｲﾔｰ1
  6
Continuous
 62
     7
100
AcDbCircle
 10
211.0955366536227
 20
633.535231900287
 30
0.0
 40
20.99999960525398
100
AcDbArc
 50
167.6052512649338
 51
172.3947487348975
  0
ARC
  5
285
330
54
100
AcDbEntity
  8
ﾚｲﾔｰ1
  6
Continuous
 62
     7
100
AcDbCircle
 10
189.2890619435839
 20
636.446871047548
 30
0.0
 40
0.999999981199765
100
AcDbArc
 50
264.9999999999948
 51
352.3947487362133
  0
ARC
  5
286
330
54
100
AcDbEntity
  8
ﾚｲﾔｰ1
  6
Continuous
 62
     7
100
AcDbCircle
 10
167.6376344520304
 20
643.109189378097
 30
0.0
 40
1.999999962400222
100
AcDbArc
 50
74.99999999995237
 51
167.5759589277111
  0
ARC
  5
287
330
54
100
AcDbEntity
  8
ﾚｲﾔｰ1
  6
Continuous
 62
     7
100
AcDbCircle
 10
211.0955366536227
 20
633.535231900287
 30
0.0
 40
46.49999912588301
100
AcDbArc
 50
167.5759589276069
 51
172.4240410723003
  0
ARC
  5
288
330
54
100
AcDbEntity
  8
ﾚｲﾔｰ1
  6
Continuous
 62
     7
100
AcDbCircle
 10
166.9839803312198
 20
639.4021326463899
 30
0.0
 40
1.999999962326295
100
AcDbArc
 50
172.4240410729851
 51
265.0000000000194
  0
ARC
  5
289
330
54
100
AcDbEntity
  8
ﾚｲﾔｰ1
  6
Continuous
 62
     7
100
AcDbCircle
 10
192.5192423102571
 20
645.3217186657009
 30
0.0
 40
0.9999999812003814
100
AcDbArc
 50
327.6052512650946
 51
54.99999999999804
  0
ARC
  5
28A
330
54
100
AcDbEntity
  8
ﾚｲﾔｰ1
  6
Continuous
 62
     7
100
AcDbCircle
 10
211.0955366536227
 20
633.535231900287
 30
0.0
 40
20.99999960522309
100
AcDbArc
 50
147.6052512650575
 51
152.3947487348964
  0
ARC
  5
28B
330
54
100
AcDbEntity
  8
ﾚｲﾔｰ1
  6
Continuous
 62
     7
100
AcDbCircle
 10
191.5999925217393
 20
643.729531327134
 30
0.0
 40
0.9999999812000859
100
AcDbArc
 50
244.9999999999762
 51
332.394748734299
  0
ARC
  5
28C
330
54
100
AcDbEntity
  8
ﾚｲﾔｰ1
  6
Continuous
 62
     7
100
AcDbCircle
 10
173.532952948699
 20
657.3952870335179
 30
0.0
 40
1.999999962400602
100
AcDbArc
 50
54.99999999998136
 51
147.5759589276784
  0
ARC
  5
28D
330
54
100
AcDbEntity
  8
ﾚｲﾔｰ1
  6
Continuous
 62
     7
100
AcDbCircle
 10
211.0955366536227
 20
633.535231900287
 30
0.0
 40
46.49999912588612
100
AcDbArc
 50
147.5759589276165
 51
152.4240410723003
  0
ARC
  5
28E
330
54
100
AcDbEntity
  8
ﾚｲﾔｰ1
  6
Continuous
 62
     7
100
AcDbCircle
 10
171.6508309201827
 20
654.1353560539051
 30
0.0
 40
1.999999962405085
100
AcDbArc
 50
152.4240410714241
 51
245.0000000000719
  0
ARC
  5
28F
330
54
100
AcDbEntity
  8
ﾚｲﾔｰ1
  6
Continuous
 62
     7
100
AcDbCircle
 10
197.670745830409
 20
650.9643733925191
 30
0.0
 40
0.9999999812003464
100
AcDbArc
 50
307.6052512650996
 51
34.99999999999836
  0
ARC
  5
290
330
54
100
AcDbEntity
  8
ﾚｲﾔｰ1
  6
Continuous
 62
     7
100
AcDbCircle
 10
211.0955366536227
 20
633.535231900287
 30
0.0
 40
20.99999960523798
100
AcDbArc
 50
127.6052512650915
 51
132.3947487349023
  0
ARC
  5
291
330
54
100
AcDbEntity
  8
ﾚｲﾔｰ1
  6
Continuous
 62
     7
100
AcDbCircle
 10
196.2623734456865
 20
649.782608643937
 30
0.0
 40
0.9999999812011027
100
AcDbArc
 50
225.0000000000184
 51
312.3947487388204
  0
ARC
  5
292
330
54
100
AcDbEntity
  8
ﾚｲﾔｰ1
  6
Continuous
 62
     7
100
AcDbCircle
 10
183.9588734048921
 20
668.8035099029439
 30
0.0
 40
1.999999962400162
100
AcDbArc
 50
34.99999999998076
 51
127.5759589277012
  0
ARC
  5
293
330
54
100
AcDbEntity
  8
ﾚｲﾔｰ1
  6
Continuous
 62
     7
100
AcDbCircle
 10
211.0955366536227
 20
633.535231900287
 30
0.0
 40
46.49999912585718
100
AcDbArc
 50
127.5759589276238
 51
132.4240410723006
  0
ARC
  5
294
330
54
100
AcDbEntity
  8
ﾚｲﾔｰ1
  6
Continuous
 62
     7
100
AcDbCircle
 10
181.0752951623035
 20
666.383900463132
 30
0.0
 40
1.999999962331555
100
AcDbArc
 50
132.4240410702301
 51
224.9999999999401
  0
ARC
  5
295
330
54
100
AcDbEntity
  8
ﾚｲﾔｰ1
  6
Continuous
 62
     7
100
AcDbCircle
 10
204.4414772526188
 20
654.5048164286591
 30
0.0
 40
0.9999999811988602
100
AcDbArc
 50
287.6052512651493
 51
15.00000000001416
  0
ARC
  5
296
330
54
100
AcDbEntity
  8
ﾚｲﾔｰ1
  6
Continuous
 62
     7
100
AcDbCircle
 10
211.0955366536227
 20
633.535231900287
 30
0.0
 40
20.99999960526995
100
AcDbArc
 50
107.6052512652121
 51
112.3947487348978
  0
ARC
  5
297
330
54
100
AcDbEntity
  8
ﾚｲﾔｰ1
  6
Continuous
 62
     7
100
AcDbCircle
 10
202.7138527667985
 20
653.876012539781
 30
0.0
 40
0.99999998120051
100
AcDbArc
 50
205.0000000000143
 51
292.394748735752
  0
ARC
  5
298
330
54
100
AcDbEntity
  8
ﾚｲﾔｰ1
  6
Continuous
 62
     7
100
AcDbCircle
 10
197.6578759433505
 20
675.957857940942
 30
0.0
 40
1.999999962399987
100
AcDbArc
 50
14.99999999998791
 51
107.5759589276874
  0
ARC
  5
299
330
54
100
AcDbEntity
  8
ﾚｲﾔｰ1
  6
Continuous
 62
     7
100
AcDbCircle
 10
211.0955366536227
 20
633.535231900287
 30
0.0
 40
46.49999912587868
100
AcDbArc
 50
107.5759589276226
 51
112.4240410723005
  0
ARC
  5
29A
330
54
100
AcDbEntity
  8
ﾚｲﾔｰ1
  6
Continuous
 62
     7
100
AcDbCircle
 10
194.1206435799513
 20
674.670410648946
 30
0.0
 40
1.999999962353877
100
AcDbArc
 50
112.4240410702827
 51
204.9999999999784
  0
ARC
  5
29B
330
54
100
AcDbEntity
  8
ﾚｲﾔｰ1
  6
Continuous
 62
     7
100
AcDbCircle
 10
212.0147864421415
 20
655.5160180925491
 30
0.0
 40
0.9999999812004213
100
AcDbArc
 50
267.6052512650589
 51
354.9999999999416
  0
ARC
  5
29C
330
54
100
AcDbEntity
  8
ﾚｲﾔｰ1
  6
Continuous
 62
     7
100
AcDbCircle
 10
211.0955366536227
 20
633.535231900287
 30
0.0
 40
20.99999960524569
100
AcDbArc
 50
87.60525126510521
 51
92.39474873489974
  0
ARC
  5
29D
330
54
100
AcDbEntity
  8
ﾚｲﾔｰ1
  6
Continuous
 62
     7
100
AcDbCircle
 10
210.176286865104
 20
655.5160180925491
 30
0.0
 40
0.9999999811996176
100
AcDbArc
 50
185.0000000000583
 51
272.3947487348311
  0
ARC
  5
29E
330
54
100
AcDbEntity
  8
ﾚｲﾔｰ1
  6
Continuous
 62
     7
100
AcDbCircle
 10
212.977658682139
 20
677.9954111871359
 30
0.0
 40
1.9999999624
100
AcDbArc
 50
355.000000000009
 51
87.57595892771734
  0
ARC
  5
29F
330
54
100
AcDbEntity
  8
ﾚｲﾔｰ1
  6
Continuous
 62
     7
100
AcDbCircle
 10
211.0955366536227
 20
633.535231900287
 30
0.0
 40
46.49999912587104
100
AcDbArc
 50
87.57595892773716
 51
92.42404107230013
  0
ARC
  5
2A0
330
54
100
AcDbEntity
  8
ﾚｲﾔｰ1
  6
Continuous
 62
     7
100
AcDbCircle
 10
209.2134146250064
 20
677.9954111871359
 30
0.0
 40
1.99999996232345
100
AcDbArc
 50
92.42404107028774
 51
184.9999999999889
  0
ARC
  5
2A1
330
54
100
AcDbEntity
  8
ﾚｲﾔｰ1
  6
Continuous
 62
     7
100
AcDbCircle
 10
219.477220540447
 20
653.876012539781
 30
0.0
 40
0.9999999811999205
100
AcDbArc
 50
247.6052512651021
 51
334.999999999985
  0
ARC
  5
2A2
330
54
100
AcDbEntity
  8
ﾚｲﾔｰ1
  6
Continuous
 62
     7
100
AcDbCircle
 10
211.0955366536227
 20
633.535231900287
 30
0.0
 40
20.99999960522418
100
AcDbArc
 50
67.6052512650612
 51
72.3947487348991
  0
ARC
  5
2A3
330
54
100
AcDbEntity
  8
ﾚｲﾔｰ1
  6
Continuous
 62
     7
100
AcDbCircle
 10
217.7495960545275
 20
654.5048164286591
 30
0.0
 40
0.9999999812013308
100
AcDbArc
 50
165.0000000000124
 51
252.3947487379289
  0
ARC
  5
2A4
330
54
100
AcDbEntity
  8
ﾚｲﾔｰ1
  6
Continuous
 62
     7
100
AcDbCircle
 10
228.070429727195
 20
674.670410648946
 30
0.0
 40
1.999999962398577
100
AcDbArc
 50
335.0000000000106
 51
67.57595892773521
  0
ARC
  5
2A5
330
54
100
AcDbEntity
  8
ﾚｲﾔｰ1
  6
Continuous
 62
     7
100
AcDbCircle
 10
211.0955366536227
 20
633.535231900287
 30
0.0
 40
46.49999912580915
100
AcDbArc
 50
67.57595892772713
 51
72.42404107229956
  0
ARC
  5
2A6
330
54
100
AcDbEntity
  8
ﾚｲﾔｰ1
  6
Continuous
 62
     7
100
AcDbCircle
 10
224.5331973638949
 20
675.957857940942
 30
0.0
 40
1.999999962320808
100
AcDbArc
 50
72.42404107050159
 51
165.0000000000047
  0
ARC
  5
2A7
330
54
100
AcDbEntity
  8
ﾚｲﾔｰ1
  6
Continuous
 62
     7
100
AcDbCircle
 10
277.0955353782892
 20
361.4437718725069
 30
0.0
 40
0.4999999906007934
100
AcDbArc
 50
23.57817847818645
 51
89.99999668005208
  0
ARC
  5
2A8
330
54
100
AcDbEntity
  8
ﾚｲﾔｰ1
  6
Continuous
 62
     7
100
AcDbCircle
 10
280.3455353171894
 20
360.893771882847
 30
0.0
 40
0.749999985900149
100
AcDbArc
 50
270.0000199468847
 51
89.99997488197174
  0
ARC
  5
2A9
330
54
100
AcDbEntity
  8
ﾚｲﾔｰ1
  6
Continuous
 62
     7
100
AcDbCircle
 10
277.0955353782892
 20
365.8437717897871
 30
0.0
 40
0.4999999906002231
100
AcDbArc
 50
270.000016756461
 51
336.4218215218076
  0
ARC
  5
2AA
330
54
100
AcDbEntity
  8
ﾚｲﾔｰ1
  6
Continuous
 62
     7
100
AcDbCircle
 10
280.3455353171894
 20
366.393771779447
 30
0.0
 40
0.7499999859001352
100
AcDbArc
 50
270.0000166081446
 51
89.99997404883806
  0
ARC
  5
2AB
330
54
100
AcDbEntity
  8
ﾚｲﾔｰ1
  6
Continuous
 62
     7
100
AcDbCircle
 10
271.0955354910893
 20
362.143771859347
 30
0.0
 40
0.4999999905994059
100
AcDbArc
 50
180.0
 51
203.5781784782154
  0
ARC
  5
2AC
330
54
100
AcDbEntity
  8
ﾚｲﾔｰ1
  6
Continuous
 62
     7
100
AcDbCircle
 10
271.0955354910893
 20
365.143771802947
 30
0.0
 40
0.499999990599742
100
AcDbArc
 50
156.4218215217965
 51
180.0
  0
CIRCLE
  5
2AD
330
54
100
AcDbEntity
  8
ﾚｲﾔｰ1
  6
Continuous
 62
     7
100
AcDbCircle
 10
211.0955366536227
 20
633.535231900287
 30
0.0
 40
70.99999866520008
  0
CIRCLE
  5
2AE
330
54
100
AcDbEntity
  8
ﾚｲﾔｰ1
  6
Continuous
 62
     7
100
AcDbCircle
 10
211.0955366536227
 20
633.535231900287
 30
0.0
 40
74.99999859000039
  0
CIRCLE
  5
2AF
330
54
100
AcDbEntity
  8
ﾚｲﾔｰ1
  6
Continuous
 62
     7
100
AcDbCircle
 10
506.6480682797355
 20
633.535231900287
 30
0.0
 40
30.2881384094826
  0
CIRCLE
  5
2B0
330
54
100
AcDbEntity
  8
ﾚｲﾔｰ1
  6
Continuous
 62
     7
100
AcDbCircle
 10
506.6480682797355
 20
633.535231900287
 30
0.0
 40
33.4999994011996
  0
CIRCLE
  5
2B1
330
54
100
AcDbEntity
  8
ﾚｲﾔｰ1
  6
Continuous
 62
     7
100
AcDbCircle
 10
506.6480682797355
 20
633.535231900287
 30
0.0
 40
29.99999947009928
  0
MTEXT
  5
2B3
330
54
100
AcDbEntity
  8
ﾚｲﾔｰ1
 62
     7
100
AcDbMText
 10
179.0926842496765
 20
674.4970150410061
 30
0.0
 40
4.5
 41
0.0
 71
     2
 72
     1
  1
O
  7
CONVERTER_11
 11
0.7880107536166218
 21
0.6156614753129869
 31
0.0
 73
     1
 44
1.0
  0
MTEXT
  5
2B4
330
54
100
AcDbEntity
  8
ﾚｲﾔｰ1
 62
     7
100
AcDbMText
 10
193.3169024451609
 20
682.3816279365749
 30
0.0
 40
4.5
 41
0.0
 71
     2
 72
     1
  1
N
  7
CONVERTER_11
 11
0.9396926207958065
 21
0.3420201432984739
 31
0.0
 73
     1
 44
1.0
  0
MTEXT
  5
2B5
330
54
100
AcDbEntity
  8
ﾚｲﾔｰ1
 62
     7
100
AcDbMText
 10
183.5496714680849
 20
677.617831089035
 30
0.0
 40
4.5
 41
0.0
 71
     2
 72
     1
  1
P
  7
CONVERTER_11
 11
0.8480480961835845
 21
0.5299192641897421
 31
0.0
 73
     1
 44
1.0
  0
MTEXT
  5
2B6
330
54
100
AcDbEntity
  8
ﾚｲﾔｰ1
 62
     7
100
AcDbMText
 10
188.3084569497205
 20
680.2556689554431
 30
0.0
 40
4.5
 41
0.0
 71
     2
 72
     1
  1
E
  7
CONVERTER_11
 11
0.8987940462950235
 21
0.4383711467975733
 31
0.0
 73
     1
 44
1.0
  0
MTEXT
  5
2B7
330
54
100
AcDbEntity
  8
ﾚｲﾔｰ1
 62
     7
100
AcDbMText
 10
247.2047463278695
 20
670.9274131251141
 30
0.0
 40
4.5
 41
0.0
 71
     2
 72
     1
  1
E
  7
CONVERTER_11
 11
0.7193398002995109
 21
-0.6946583704995283
 31
0.0
 73
     1
 44
1.0
  0
MTEXT
  5
2B8
330
54
100
AcDbEntity
  8
ﾚｲﾔｰ1
 62
     7
100
AcDbMText
 10
243.0983890574689
 20
674.4970150410061
 30
0.0
 40
4.5
 41
0.0
 71
     2
 72
     1
  1
S
  7
CONVERTER_11
 11
0.7880107536166218
 21
-0.6156614753129869
 31
0.0
 73
     1
 44
1.0
  0
MTEXT
  5
2B9
330
54
100
AcDbEntity
  8
ﾚｲﾔｰ1
 62
     7
100
AcDbMText
 10
233.8826163574258
 20
680.2556689554431
 30
0.0
 40
4.5
 41
0.0
 71
     2
 72
     1
  1
L
  7
CONVERTER_11
 11
0.8987940462950235
 21
-0.4383711467975733
 31
0.0
 73
     1
 44
1.0
  0
MTEXT
  5
2BA
330
54
100
AcDbEntity
  8
ﾚｲﾔｰ1
 62
     7
100
AcDbMText
 10
238.6414018391615
 20
677.617831089035
 30
0.0
 40
4.5
 41
0.0
 71
     2
 72
     1
  1
O
  7
CONVERTER_11
 11
0.8480480961835845
 21
-0.5299192641897421
 31
0.0
 73
     1
 44
1.0
  0
MTEXT
  5
2BB
330
54
100
AcDbEntity
  8
ﾚｲﾔｰ1
 62
     7
100
AcDbMText
 10
228.8741708619855
 20
682.3816279365749
 30
0.0
 40
4.5
 41
0.0
 71
     2
 72
     1
  1
C
  7
CONVERTER_11
 11
0.9396926207958065
 21
-0.3420201432984739
 31
0.0
 73
     1
 44
1.0
  0
HATCH
  5
2BC
330
54
100
AcDbEntity
  8
ﾚｲﾔｰ1
  6
Continuous
 62
     7
100
AcDbHatch
 10
0.0
 20
0.0
 30
0.0
210
0.0
220
0.0
230
1.0
  2
SOLID
 70
     1
 71
     1
 91
        1
 92
        1
 93
        3
 72
     1
 10
202.4825872032661
 20
682.38169553138
 11
204.7832827620932
 21
682.711832224267
 72
     1
 10
204.7832827620932
 20
682.711832224267
 11
205.7462341992905
 21
681.990557619727
 72
     1
 10
205.7462341992905
 20
681.990557619727
 11
202.4825872032661
 21
682.38169553138
 97
        3
330
180
330
181
330
182
 75
     0
 76
     1
 98
        1
 10
0.0
 20
0.0
  0
HATCH
  5
2BD
330
54
100
AcDbEntity
  8
ﾚｲﾔｰ1
  6
Continuous
 62
     7
100
AcDbHatch
 10
0.0
 20
0.0
 30
0.0
210
0.0
220
0.0
230
1.0
  2
SOLID
 70
     1
 71
     1
 91
        1
 92
        1
 93
        3
 72
     1
 10
202.4825872032661
 20
682.38169553138
 11
204.7832827620932
 21
682.711832224267
 72
     1
 10
204.7832827620932
 20
682.711832224267
 11
205.504557366633
 21
683.6747836615639
 72
     1
 10
205.504557366633
 20
683.6747836615639
 11
202.4825872032661
 21
682.38169553138
 97
        3
330
183
330
184
330
185
 75
     0
 76
     1
 98
        1
 10
0.0
 20
0.0
  0
HATCH
  5
2BE
330
54
100
AcDbEntity
  8
ﾚｲﾔｰ1
  6
Continuous
 62
     7
100
AcDbHatch
 10
0.0
 20
0.0
 30
0.0
210
0.0
220
0.0
230
1.0
  2
SOLID
 70
     1
 71
     1
 91
        1
 92
        1
 93
        3
 72
     1
 10
219.7084861039793
 20
682.38169553138
 11
217.4077905450522
 21
682.711832224267
 72
     1
 10
217.4077905450522
 20
682.711832224267
 11
216.6865159405124
 21
683.6747836615639
 72
     1
 10
216.6865159405124
 20
683.6747836615639
 11
219.7084861039793
 21
682.38169553138
 97
        3
330
186
330
187
330
188
 75
     0
 76
     1
 98
        1
 10
0.0
 20
0.0
  0
HATCH
  5
2BF
330
54
100
AcDbEntity
  8
ﾚｲﾔｰ1
  6
Continuous
 62
     7
100
AcDbHatch
 10
0.0
 20
0.0
 30
0.0
210
0.0
220
0.0
230
1.0
  2
SOLID
 70
     1
 71
     1
 91
        1
 92
        1
 93
        3
 72
     1
 10
219.7084861039793
 20
682.38169553138
 11
217.4077905450522
 21
682.711832224267
 72
     1
 10
217.4077905450522
 20
682.711832224267
 11
216.4448391078558
 21
681.990557619727
 72
     1
 10
216.4448391078558
 20
681.990557619727
 11
219.7084861039793
 21
682.38169553138
 97
        3
330
189
330
18A
330
18B
 75
     0
 76
     1
 98
        1
 10
0.0
 20
0.0
  0
ENDBLK
  5
56
330
54
100
AcDbEntity
  8
0
100
AcDbBlockEnd
  0
BLOCK
  5
58
330
57
100
AcDbEntity
  8
0
100
AcDbBlockBegin
  2
開示A4
 70
     0
 10
0.0
 20
0.0
 30
0.0
  3
開示A4
  1

  0
POINT
  5
2C0
330
57
100
AcDbEntity
  8
1
 62
     4
100
AcDbPoint
 10
34.0
 20
34.00000000000001
 30
0.0
  0
POINT
  5
2C1
330
57
100
AcDbEntity
  8
1
 62
     4
100
AcDbPoint
 10
57.0
 20
12.25
 30
0.0
  0
POINT
  5
2C2
330
57
100
AcDbEntity
  8
1
 62
     4
100
AcDbPoint
 10
57.0
 20
20.75000000000001
 30
0.0
  0
POINT
  5
2C3
330
57
100
AcDbEntity
  8
1
 62
     4
100
AcDbPoint
 10
57.0
 20
24.75000000000001
 30
0.0
  0
POINT
  5
2C4
330
57
100
AcDbEntity
  8
1
 62
     4
100
AcDbPoint
 10
57.0
 20
16.25
 30
0.0
  0
POINT
  5
2C5
330
57
100
AcDbEntity
  8
1
 62
     4
100
AcDbPoint
 10
157.5
 20
19.00000000000001
 30
0.0
  0
POINT
  5
2C6
330
57
100
AcDbEntity
  8
1
 62
     4
100
AcDbPoint
 10
47.5
 20
282.0000000000003
 30
0.0
  0
POINT
  5
2C7
330
57
100
AcDbEntity
  8
1
 62
     4
100
AcDbPoint
 10
57.0
 20
22.75000000000001
 30
0.0
  0
POINT
  5
2C8
330
57
100
AcDbEntity
  8
1
 62
     4
100
AcDbPoint
 10
57.0
 20
14.25
 30
0.0
  0
POINT
  5
2C9
330
57
100
AcDbEntity
  8
1
 62
     4
100
AcDbPoint
 10
157.5
 20
12.5
 30
0.0
  0
POINT
  5
2CA
330
57
100
AcDbEntity
  8
1
 62
     4
100
AcDbPoint
 10
163.25
 20
12.5
 30
0.0
  0
POINT
  5
2CB
330
57
100
AcDbEntity
  8
1
 62
     4
100
AcDbPoint
 10
151.75
 20
12.5
 30
0.0
  0
POINT
  5
2CC
330
57
100
AcDbEntity
  8
1
 62
     4
100
AcDbPoint
 10
134.75
 20
12.5
 30
0.0
  0
POINT
  5
2CD
330
57
100
AcDbEntity
  8
1
 62
     4
100
AcDbPoint
 10
146.25
 20
12.5
 30
0.0
  0
POINT
  5
2CE
330
57
100
AcDbEntity
  8
1
 62
     4
100
AcDbPoint
 10
140.5
 20
12.5
 30
0.0
  0
POINT
  5
2CF
330
57
100
AcDbEntity
  8
1
 62
     4
100
AcDbPoint
 10
140.5
 20
19.00000000000001
 30
0.0
  0
POINT
  5
2D0
330
57
100
AcDbEntity
  8
1
 62
     4
100
AcDbPoint
 10
117.75
 20
12.5
 30
0.0
  0
POINT
  5
2D1
330
57
100
AcDbEntity
  8
1
 62
     4
100
AcDbPoint
 10
129.25
 20
12.5
 30
0.0
  0
POINT
  5
2D2
330
57
100
AcDbEntity
  8
1
 62
     4
100
AcDbPoint
 10
123.5
 20
12.5
 30
0.0
  0
POINT
  5
2D3
330
57
100
AcDbEntity
  8
1
 62
     4
100
AcDbPoint
 10
123.5
 20
19.00000000000001
 30
0.0
  0
POINT
  5
2D4
330
57
100
AcDbEntity
  8
1
 62
     4
100
AcDbPoint
 10
100.75
 20
12.5
 30
0.0
  0
POINT
  5
2D5
330
57
100
AcDbEntity
  8
1
 62
     4
100
AcDbPoint
 10
112.25
 20
12.5
 30
0.0
  0
POINT
  5
2D6
330
57
100
AcDbEntity
  8
1
 62
     4
100
AcDbPoint
 10
106.5
 20
12.5
 30
0.0
  0
POINT
  5
2D7
330
57
100
AcDbEntity
  8
1
 62
     4
100
AcDbPoint
 10
106.5
 20
19.00000000000001
 30
0.0
  0
POINT
  5
2D8
330
57
100
AcDbEntity
  8
1
 62
     4
100
AcDbPoint
 10
85.25
 20
17.0
 30
0.0
  0
POINT
  5
2D9
330
57
100
AcDbEntity
  8
1
 62
     4
100
AcDbPoint
 10
93.75
 20
17.0
 30
0.0
  0
LINE
  5
2DA
330
57
100
AcDbEntity
  8
1
  6
Continuous
 62
     2
100
AcDbLine
 10
81.0
 20
27.00000000000001
 30
0.0
 11
81.0
 21
10.0
 31
0.0
  0
LINE
  5
2DB
330
57
100
AcDbEntity
  8
1
  6
DOT_CENTER
 62
     2
100
AcDbLine
 10
187.0
 20
26.50000000000001
 30
0.0
 11
187.0
 21
20.50000000000001
 31
0.0
  0
LINE
  5
2DC
330
57
100
AcDbEntity
  8
1
  6
DOT_CENTER
 62
     2
100
AcDbLine
 10
184.0
 20
23.50000000000001
 30
0.0
 11
197.0
 21
23.50000000000001
 31
0.0
  0
LINE
  5
2DD
330
57
100
AcDbEntity
  8
1
  6
Continuous
 62
     7
100
AcDbLine
 10
196.0
 20
21.50000000000001
 30
0.0
 11
191.0
 21
22.30000000000001
 31
0.0
  0
LINE
  5
2DE
330
57
100
AcDbEntity
  8
1
  6
Continuous
 62
     7
100
AcDbLine
 10
196.0
 20
25.50000000000001
 30
0.0
 11
196.0
 21
21.50000000000001
 31
0.0
  0
LINE
  5
2DF
330
57
100
AcDbEntity
  8
1
  6
Continuous
 62
     7
100
AcDbLine
 10
191.0
 20
24.70000000000001
 30
0.0
 11
196.0
 21
25.50000000000001
 31
0.0
  0
LINE
  5
2E0
330
57
100
AcDbEntity
  8
1
  6
Continuous
 62
     7
100
AcDbLine
 10
191.0
 20
24.70000000000001
 30
0.0
 11
191.0
 21
22.30000000000001
 31
0.0
  0
LINE
  5
2E1
330
57
100
AcDbEntity
  8
1
  6
Continuous
 62
     2
100
AcDbLine
 10
33.0
 20
27.0
 30
0.0
 11
33.0
 21
10.0
 31
0.0
  0
LINE
  5
2E2
330
57
100
AcDbEntity
  8
1
  6
Continuous
 62
     2
100
AcDbLine
 10
25.0
 20
18.50000000000001
 30
0.0
 11
81.0
 21
18.50000000000001
 31
0.0
  0
LINE
  5
2E3
330
57
100
AcDbEntity
  8
1
  6
Continuous
 62
     7
100
AcDbLine
 10
200.0
 20
287.0000000000003
 30
0.0
 11
105.0
 21
287.0000000000003
 31
0.0
  0
LINE
  5
2E4
330
57
100
AcDbEntity
  8
1
  6
Continuous
 62
     7
100
AcDbLine
 10
200.0
 20
10.0
 30
0.0
 11
200.0
 21
148.5
 31
0.0
  0
LINE
  5
2E5
330
57
100
AcDbEntity
  8
1
  6
Continuous
 62
     7
100
AcDbLine
 10
25.0
 20
10.0
 30
0.0
 11
105.0
 21
10.0
 31
0.0
  0
LINE
  5
2E6
330
57
100
AcDbEntity
  8
1
  6
PHANTOM
 62
     4
100
AcDbLine
 10
0.0
 20
297.0
 30
0.0
 11
0.0
 21
0.0
 31
0.0
  0
LINE
  5
2E7
330
57
100
AcDbEntity
  8
1
  6
PHANTOM
 62
     4
100
AcDbLine
 10
210.0
 20
297.0
 30
0.0
 11
0.0
 21
297.0
 31
0.0
  0
LINE
  5
2E8
330
57
100
AcDbEntity
  8
1
  6
PHANTOM
 62
     4
100
AcDbLine
 10
210.0
 20
0.0
 30
0.0
 11
210.0
 21
297.0
 31
0.0
  0
LINE
  5
2E9
330
57
100
AcDbEntity
  8
1
  6
PHANTOM
 62
     4
100
AcDbLine
 10
0.0
 20
0.0
 30
0.0
 11
210.0
 21
0.0
 31
0.0
  0
LINE
  5
2EA
330
57
100
AcDbEntity
  8
1
  6
Continuous
 62
     7
100
AcDbLine
 10
25.0
 20
41.0
 30
0.0
 11
200.0
 21
41.0
 31
0.0
  0
LINE
  5
2EB
330
57
100
AcDbEntity
  8
1
  6
Continuous
 62
     7
100
AcDbLine
 10
200.0
 20
27.00000000000001
 30
0.0
 11
25.0
 21
27.00000000000001
 31
0.0
  0
LINE
  5
2EC
330
57
100
AcDbEntity
  8
1
  6
Continuous
 62
     2
100
AcDbLine
 10
33.0
 20
41.00000000000001
 30
0.0
 11
33.0
 21
27.0
 31
0.0
  0
LINE
  5
2ED
330
57
100
AcDbEntity
  8
1
  6
Continuous
 62
     2
100
AcDbLine
 10
55.0
 20
287.0000000000003
 30
0.0
 11
55.0
 21
277.0000000000003
 31
0.0
  0
LINE
  5
2EE
330
57
100
AcDbEntity
  8
1
  6
Continuous
 62
     2
100
AcDbLine
 10
40.0
 20
287.0000000000003
 30
0.0
 11
40.0
 21
277.0000000000003
 31
0.0
  0
LINE
  5
2EF
330
57
100
AcDbEntity
  8
1
  6
Continuous
 62
     7
100
AcDbLine
 10
25.0
 20
10.0
 30
0.0
 11
25.0
 21
148.5
 31
0.0
  0
LINE
  5
2F0
330
57
100
AcDbEntity
  8
1
  6
Continuous
 62
     2
100
AcDbLine
 10
55.0
 20
277.0000000000003
 30
0.0
 11
25.0
 21
277.0000000000003
 31
0.0
  0
LINE
  5
2F1
330
57
100
AcDbEntity
  8
1
  6
Continuous
 62
     2
100
AcDbLine
 10
166.0
 20
27.00000000000001
 30
0.0
 11
166.0
 21
10.0
 31
0.0
  0
LINE
  5
2F2
330
57
100
AcDbEntity
  8
1
  6
Continuous
 62
     2
100
AcDbLine
 10
132.0
 20
27.00000000000001
 30
0.0
 11
132.0
 21
9.99999999999999
 31
0.0
  0
LINE
  5
2F3
330
57
100
AcDbEntity
  8
1
  6
Continuous
 62
     2
100
AcDbLine
 10
149.0
 20
27.00000000000001
 30
0.0
 11
149.0
 21
10.0
 31
0.0
  0
LINE
  5
2F4
330
57
100
AcDbEntity
  8
1
  6
Continuous
 62
     2
100
AcDbLine
 10
115.0
 20
27.00000000000001
 30
0.0
 11
115.0
 21
9.99999999999999
 31
0.0
  0
LINE
  5
2F5
330
57
100
AcDbEntity
  8
1
  6
Continuous
 62
     2
100
AcDbLine
 10
98.0
 20
27.00000000000001
 30
0.0
 11
98.0
 21
9.99999999999999
 31
0.0
  0
LINE
  5
2F6
330
57
100
AcDbEntity
  8
1
  6
Continuous
 62
     2
100
AcDbLine
 10
166.0
 20
20.00000000000001
 30
0.0
 11
200.0
 21
20.00000000000001
 31
0.0
  0
LINE
  5
2F7
330
57
100
AcDbEntity
  8
1
  6
Continuous
 62
     2
100
AcDbLine
 10
105.0
 20
287.0000000000003
 30
0.0
 11
105.0
 21
292.0000000000003
 31
0.0
  0
LINE
  5
2F8
330
57
100
AcDbEntity
  8
1
  6
Continuous
 62
     7
100
AcDbLine
 10
105.0
 20
287.0000000000003
 30
0.0
 11
25.0
 21
287.0000000000003
 31
0.0
  0
LINE
  5
2F9
330
57
100
AcDbEntity
  8
1
  6
Continuous
 62
     2
100
AcDbLine
 10
25.0
 20
148.5
 30
0.0
 11
20.0
 21
148.5
 31
0.0
  0
LINE
  5
2FA
330
57
100
AcDbEntity
  8
1
  6
Continuous
 62
     7
100
AcDbLine
 10
25.0
 20
148.5
 30
0.0
 11
25.0
 21
287.0000000000003
 31
0.0
  0
LINE
  5
2FB
330
57
100
AcDbEntity
  8
1
  6
Continuous
 62
     2
100
AcDbLine
 10
200.0
 20
148.5
 30
0.0
 11
205.0
 21
148.5
 31
0.0
  0
LINE
  5
2FC
330
57
100
AcDbEntity
  8
1
  6
Continuous
 62
     7
100
AcDbLine
 10
200.0
 20
148.5
 30
0.0
 11
200.0
 21
287.0000000000003
 31
0.0
  0
LINE
  5
2FD
330
57
100
AcDbEntity
  8
1
  6
Continuous
 62
     2
100
AcDbLine
 10
105.0
 20
10.0
 30
0.0
 11
105.0
 21
5.0
 31
0.0
  0
LINE
  5
2FE
330
57
100
AcDbEntity
  8
1
  6
Continuous
 62
     7
100
AcDbLine
 10
105.0
 20
10.0
 30
0.0
 11
200.0
 21
10.0
 31
0.0
  0
CIRCLE
  5
2FF
330
57
100
AcDbEntity
  8
1
  6
DOT_CENTER
 62
     7
100
AcDbCircle
 10
89.5
 20
18.0
 30
0.0
 40
0.1000000000000227
  0
CIRCLE
  5
300
330
57
100
AcDbEntity
  8
1
  6
DOT_CENTER
 62
     7
100
AcDbCircle
 10
89.5
 20
16.0
 30
0.0
 40
0.1000000000000227
  0
CIRCLE
  5
301
330
57
100
AcDbEntity
  8
1
  6
Continuous
 62
     7
100
AcDbCircle
 10
187.0
 20
23.50000000000001
 30
0.0
 40
2.0
  0
CIRCLE
  5
302
330
57
100
AcDbEntity
  8
1
  6
Continuous
 62
     7
100
AcDbCircle
 10
187.0
 20
23.50000000000001
 30
0.0
 40
1.200000000000102
  0
CIRCLE
  5
303
330
57
100
AcDbEntity
  8
1
  6
Continuous
 62
     7
100
AcDbCircle
 10
154.5
 20
12.5
 30
0.0
 40
0.3000000000000114
  0
CIRCLE
  5
304
330
57
100
AcDbEntity
  8
1
  6
Continuous
 62
     7
100
AcDbCircle
 10
160.5
 20
12.5
 30
0.0
 40
0.3000000000000114
  0
CIRCLE
  5
305
330
57
100
AcDbEntity
  8
1
  6
Continuous
 62
     7
100
AcDbCircle
 10
143.5
 20
12.5
 30
0.0
 40
0.3000000000000114
  0
CIRCLE
  5
306
330
57
100
AcDbEntity
  8
1
  6
Continuous
 62
     7
100
AcDbCircle
 10
137.5
 20
12.5
 30
0.0
 40
0.3000000000000114
  0
CIRCLE
  5
307
330
57
100
AcDbEntity
  8
1
  6
Continuous
 62
     7
100
AcDbCircle
 10
126.5
 20
12.5
 30
0.0
 40
0.2999999999999972
  0
CIRCLE
  5
308
330
57
100
AcDbEntity
  8
1
  6
Continuous
 62
     7
100
AcDbCircle
 10
120.5
 20
12.5
 30
0.0
 40
0.2999999999999972
  0
CIRCLE
  5
309
330
57
100
AcDbEntity
  8
1
  6
Continuous
 62
     7
100
AcDbCircle
 10
109.5
 20
12.5
 30
0.0
 40
0.2999999999999972
  0
CIRCLE
  5
30A
330
57
100
AcDbEntity
  8
1
  6
Continuous
 62
     7
100
AcDbCircle
 10
103.5
 20
12.5
 30
0.0
 40
0.2999999999999972
  0
MTEXT
  5
30C
330
57
100
AcDbEntity
  8
1
 62
   250
100
AcDbMText
 10
25.0
 20
5.0
 30
0.0
 40
3.5
 41
0.0
 71
     4
 72
     1
  1
備考欄の文字列 原点位置=4
  7
CONVERTER_12
 73
     1
 44
0.54545454545455
  0
MTEXT
  5
30D
330
57
100
AcDbEntity
  8
1
 62
     2
100
AcDbMText
 10
89.5
 20
24.00000000000001
 30
0.0
 40
3.5
 41
0.0
 71
     5
 72
     1
  1
尺度
  7
CONVERTER_12
 73
     1
 44
0.54545454545455
  0
MTEXT
  5
30E
330
57
100
AcDbEntity
  8
1
 62
     2
100
AcDbMText
 10
135.5
 20
25.00000000000001
 30
0.0
 40
3.0
 41
0.0
 71
     5
 72
     1
  1
製図
  7
CONVERTER_12
 73
     1
 44
0.59090909090909
  0
MTEXT
  5
30F
330
57
100
AcDbEntity
  8
1
 62
     2
100
AcDbMText
 10
152.5
 20
25.00000000000001
 30
0.0
 40
3.0
 41
0.0
 71
     5
 72
     1
  1
設計
  7
CONVERTER_12
 73
     1
 44
0.59090909090909
  0
MTEXT
  5
310
330
57
100
AcDbEntity
  8
1
 62
     2
100
AcDbMText
 10
118.5
 20
25.00000000000001
 30
0.0
 40
3.0
 41
0.0
 71
     5
 72
     1
  1
検図
  7
CONVERTER_12
 73
     1
 44
0.59090909090909
  0
MTEXT
  5
311
330
57
100
AcDbEntity
  8
1
 62
     2
100
AcDbMText
 10
175.0
 20
23.50000000000001
 30
0.0
 40
3.5
 41
0.0
 71
     5
 72
     1
  1
第三角法
  7
CONVERTER_12
 73
     1
 44
0.54545454545455
  0
MTEXT
  5
312
330
57
100
AcDbEntity
  8
1
 62
     2
100
AcDbMText
 10
101.5
 20
25.00000000000001
 30
0.0
 40
3.0
 41
0.0
 71
     5
 72
     1
  1
承認
  7
CONVERTER_12
 73
     1
 44
0.59090909090909
  0
MTEXT
  5
313
330
57
100
AcDbEntity
  8
1
 62
     2
100
AcDbMText
 10
29.0
 20
14.25
 30
0.0
 40
3.5
 41
0.0
 71
     5
 72
     1
  1
品番
  7
CONVERTER_12
 73
     1
 44
0.72727272727273
  0
MTEXT
  5
314
330
57
100
AcDbEntity
  8
1
 62
     2
100
AcDbMText
 10
29.0
 20
22.75
 30
0.0
 40
3.5
 41
0.0
 71
     5
 72
     1
  1
品名
  7
CONVERTER_12
 73
     1
 44
0.72727272727273
  0
MTEXT
  5
315
330
57
100
AcDbEntity
  8
1
 62
     2
100
AcDbMText
 10
29.0
 20
34.00000000000001
 30
0.0
 40
3.5
 41
0.0
 71
     5
 72
     1
  1
備考
  7
CONVERTER_12
 73
     1
 44
0.45454545454545
  0
MTEXT
  5
316
330
57
100
AcDbEntity
  8
1
 62
     2
100
AcDbMText
 10
32.5
 20
282.0000000000003
 30
0.0
 40
5.0
 41
0.0
 71
     5
 72
     1
  1
図番
  7
CONVERTER_12
 73
     1
 44
0.45454545454545
  0
MTEXT
  5
317
330
57
100
AcDbEntity
  8
1
 62
     7
100
AcDbMText
 10
171.5
 20
15.0
 30
0.0
 40
2.5
 41
0.0
 71
     5
 72
     1
  1
株式会社
  7
CONVERTER_12
 73
     1
 44
1.0
  0
MTEXT
  5
318
330
57
100
AcDbEntity
  8
1
 62
     7
100
AcDbMText
 10
188.5
 20
15.0
 30
0.0
 40
3.0
 41
0.0
 71
     5
 72
     1
  1
三栄水栓製作所
  7
CONVERTER_12
 73
     1
 44
1.0
  0
ENDBLK
  5
59
330
57
100
AcDbEntity
  8
0
100
AcDbBlockEnd
  0
BLOCK
  5
335
330
32E
100
AcDbEntity
  8
0
100
AcDbBlockBegin
  2
*D7
 70
     1
 10
0.0
 20
0.0
 30
0.0
  3
*D7
  1

  0
LINE
  5
32F
330
32E
100
AcDbEntity
  8
1
  6
Continuous
 62
     2
100
AcDbLine
 10
368.0955347660015
 20
360.1437718969469
 30
0.0
 11
368.0955347660015
 21
261.1437737581472
 31
0.0
  0
LINE
  5
330
330
32E
100
AcDbEntity
  8
1
  6
Continuous
 62
     2
100
AcDbLine
 10
261.5955360425223
 20
261.1437737581472
 30
0.0
 11
371.0955347660015
 21
261.1437737581472
 31
0.0
  0
LINE
  5
331
330
32E
100
AcDbEntity
  8
1
  6
Continuous
 62
     2
100
AcDbLine
 10
285.5955352206229
 20
360.1437718969469
 30
0.0
 11
371.0955347660015
 21
360.1437718969469
 31
0.0
  0
SOLID
  5
332
330
32E
100
AcDbEntity
  8
1
 62
     2
100
AcDbTrace
 10
369.4778859906692
 20
349.6437718969469
 30
0.0
 11
366.7131835413338
 21
349.6437718969469
 31
0.0
 12
368.0955347660015
 22
360.1437718969469
 32
0.0
 13
368.0955347660015
 23
360.1437718969469
 33
0.0
  0
SOLID
  5
333
330
32E
100
AcDbEntity
  8
1
 62
     2
100
AcDbTrace
 10
366.7131835413338
 20
271.6437737581472
 30
0.0
 11
369.4778859906692
 21
271.6437737581472
 31
0.0
 12
368.0955347660015
 22
261.1437737581472
 32
0.0
 13
368.0955347660015
 23
261.1437737581472
 33
0.0
  0
MTEXT
  5
334
330
32E
100
AcDbEntity
  8
1
 62
     7
100
AcDbMText
 10
365.0955347660015
 20
302.768772827547
 30
0.0
 40
10.5
 41
0.0
 71
     7
 72
     1
  1
99
  7
CONVERTER_13
 11
0.0
 21
1.0
 31
0.0
 73
     1
 44
0.60024009603842
  0
ENDBLK
  5
336
330
32E
100
AcDbEntity
  8
0
100
AcDbBlockEnd
  0
BLOCK
  5
342
330
339
100
AcDbEntity
  8
0
100
AcDbBlockBegin
  2
*D8
 70
     1
 10
0.0
 20
0.0
 30
0.0
  3
*D8
  1

  0
LINE
  5
33A
330
339
100
AcDbEntity
  8
1
  6
Continuous
 62
     2
100
AcDbLine
 10
557.3896360120348
 20
275.8543769397707
 30
0.0
 11
557.3896360120348
 21
289.8543766765707
 31
0.0
  0
LINE
  5
33B
330
339
100
AcDbEntity
  8
1
  6
Continuous
 62
     2
100
AcDbLine
 10
557.3896360120348
 20
254.8543769397707
 30
0.0
 11
557.3896360120348
 21
275.8543769397707
 31
0.0
  0
LINE
  5
33C
330
339
100
AcDbEntity
  8
1
  6
Continuous
 62
     2
100
AcDbLine
 10
527.3896360462804
 20
289.8543766765711
 30
0.0
 11
560.3896360120348
 21
289.8543766765711
 31
0.0
  0
LINE
  5
33D
330
339
100
AcDbEntity
  8
1
  6
Continuous
 62
     2
100
AcDbLine
 10
526.3896360014805
 20
275.8543769397709
 30
0.0
 11
560.3896360120348
 21
275.8543769397709
 31
0.0
  0
SOLID
  5
33E
330
339
100
AcDbEntity
  8
1
 62
     2
100
AcDbTrace
 10
558.7719872367024
 20
265.3543769397707
 30
0.0
 11
556.0072847873671
 21
265.3543769397707
 31
0.0
 12
557.3896360120348
 22
275.8543769397707
 32
0.0
 13
557.3896360120348
 23
275.8543769397707
 33
0.0
  0
CIRCLE
  5
33F
102
{ACAD_REACTORS
330
340
102
}
330
339
100
AcDbEntity
  8
1
 62
     2
100
AcDbCircle
 10
557.3896360120348
 20
289.8543766765707
 30
0.0
 40
2.625
  0
HATCH
  5
340
330
339
100
AcDbEntity
  8
1
 62
     2
100
AcDbHatch
 10
0.0
 20
0.0
 30
0.0
210
0.0
220
0.0
230
1.0
  2
SOLID
 70
     1
 71
     1
 91
        1
 92
        1
 93
        1
 72
     2
 10
557.3896360120348
 20
289.8543766765707
 40
2.625
 50
0.0
 51
360.0
 73
     1
 97
        1
330
33F
 75
     0
 76
     1
 98
        0
  0
MTEXT
  5
341
330
339
100
AcDbEntity
  8
1
 62
     7
100
AcDbMText
 10
554.3896360120348
 20
276.554376808171
 30
0.0
 40
10.5
 41
0.0
 71
     7
 72
     1
  1
14
  7
CONVERTER_13
 11
0.0
 21
1.0
 31
0.0
 73
     1
 44
0.60024009603842
  0
ENDBLK
  5
343
330
339
100
AcDbEntity
  8
0
100
AcDbBlockEnd
  0
BLOCK
  5
345
330
344
100
AcDbEntity
  8
0
100
AcDbBlockBegin
  2
_DOT
 70
     0
 10
0.0
 20
0.0
 30
0.0
  3
_DOT
  1

  0
POLYLINE
  5
347
330
344
100
AcDbEntity
  8
0
  6
ByBlock
 62
     0
100
AcDb2dPolyline
 66
     1
 10
0.0
 20
0.0
 30
0.0
 70
     1
 40
0.5
 41
0.5
  0
VERTEX
  5
349
330
347
100
AcDbEntity
  8
0
  6
ByBlock
 62
     0
100
AcDbVertex
100
AcDb2dVertex
 10
-0.25
 20
0.0
 30
0.0
 42
1.0
  0
VERTEX
  5
34A
330
347
100
AcDbEntity
  8
0
  6
ByBlock
 62
     0
100
AcDbVertex
100
AcDb2dVertex
 10
0.25
 20
0.0
 30
0.0
 42
1.0
  0
SEQEND
  5
34B
330
347
100
AcDbEntity
  8
0
  6
ByBlock
 62
     0
  0
LINE
  5
348
330
344
100
AcDbEntity
  8
0
  6
ByBlock
 62
     0
370
    -2
100
AcDbLine
 10
-0.5
 20
0.0
 30
0.0
 11
-1.0
 21
0.0
 31
0.0
  0
ENDBLK
  5
346
330
344
100
AcDbEntity
  8
0
100
AcDbBlockEnd
  0
BLOCK
  5
355
330
34E
100
AcDbEntity
  8
0
100
AcDbBlockBegin
  2
*D10
 70
     1
 10
0.0
 20
0.0
 30
0.0
  3
*D10
  1

  0
LINE
  5
34F
330
34E
100
AcDbEntity
  8
1
  6
Continuous
 62
     2
100
AcDbLine
 10
557.3896361049872
 20
313.854376225371
 30
0.0
 11
557.3896361049872
 21
334.854376225371
 31
0.0
  0
LINE
  5
350
330
34E
100
AcDbEntity
  8
1
  6
Continuous
 62
     2
100
AcDbLine
 10
557.3896361049872
 20
289.8543766765711
 30
0.0
 11
557.3896361049872
 21
313.854376225371
 31
0.0
  0
LINE
  5
351
330
34E
100
AcDbEntity
  8
1
  6
Continuous
 62
     2
100
AcDbLine
 10
492.4271323550765
 20
313.854376225371
 30
0.0
 11
560.3896361049872
 21
313.854376225371
 31
0.0
  0
LINE
  5
352
330
34E
100
AcDbEntity
  8
1
  6
Continuous
 62
     2
100
AcDbLine
 10
527.3896360462804
 20
289.8543766765711
 30
0.0
 11
560.3896361049872
 21
289.8543766765711
 31
0.0
  0
SOLID
  5
353
330
34E
100
AcDbEntity
  8
1
 62
     2
100
AcDbTrace
 10
556.0072848803195
 20
324.354376225371
 30
0.0
 11
558.7719873296548
 21
324.354376225371
 31
0.0
 12
557.3896361049872
 22
313.854376225371
 32
0.0
 13
557.3896361049872
 23
313.854376225371
 33
0.0
  0
MTEXT
  5
354
330
34E
100
AcDbEntity
  8
1
 62
     7
100
AcDbMText
 10
554.3896361049872
 20
293.979376450971
 30
0.0
 40
10.5
 41
0.0
 71
     7
 72
     1
  1
24
  7
CONVERTER_13
 11
0.0
 21
1.0
 31
0.0
 73
     1
 44
0.60024009603842
  0
ENDBLK
  5
356
330
34E
100
AcDbEntity
  8
0
100
AcDbBlockEnd
  0
BLOCK
  5
358
330
357
100
AcDbEntity
  8
0
100
AcDbBlockBegin
  2
_NONE
 70
     0
 10
0.0
 20
0.0
 30
0.0
  3
_NONE
  1

  0
ENDBLK
  5
359
330
357
100
AcDbEntity
  8
0
100
AcDbBlockEnd
  0
BLOCK
  5
363
330
35C
100
AcDbEntity
  8
0
100
AcDbBlockBegin
  2
*D12
 70
     1
 10
0.0
 20
0.0
 30
0.0
  3
*D12
  1

  0
LINE
  5
35D
330
35C
100
AcDbEntity
  8
1
  6
Continuous
 62
     2
100
AcDbLine
 10
341.0955347680724
 20
277.8437728745471
 30
0.0
 11
341.0955347680724
 21
338.4437728745472
 31
0.0
  0
LINE
  5
35E
330
35C
100
AcDbEntity
  8
1
  6
Continuous
 62
     2
100
AcDbLine
 10
311.0955347429735
 20
338.4437728745472
 30
0.0
 11
344.0955347680724
 21
338.4437728745472
 31
0.0
  0
LINE
  5
35F
330
35C
100
AcDbEntity
  8
1
  6
Continuous
 62
     2
100
AcDbLine
 10
311.0955347931713
 20
277.8437728745471
 30
0.0
 11
344.0955347680724
 21
277.8437728745471
 31
0.0
  0
SOLID
  5
360
330
35C
100
AcDbEntity
  8
1
 62
     2
100
AcDbTrace
 10
339.7131835434047
 20
288.3437728745471
 30
0.0
 11
342.4778859927401
 21
288.3437728745471
 31
0.0
 12
341.0955347680724
 22
277.8437728745471
 32
0.0
 13
341.0955347680724
 23
277.8437728745471
 33
0.0
  0
SOLID
  5
361
330
35C
100
AcDbEntity
  8
1
 62
     2
100
AcDbTrace
 10
342.4778859927401
 20
327.9437728745472
 30
0.0
 11
339.7131835434047
 21
327.9437728745472
 31
0.0
 12
341.0955347680724
 22
338.4437728745472
 32
0.0
 13
341.0955347680724
 23
338.4437728745472
 33
0.0
  0
MTEXT
  5
362
330
35C
100
AcDbEntity
  8
1
 62
     7
100
AcDbMText
 10
338.0955347680724
 20
292.8137728745475
 30
0.0
 40
10.5
 41
0.0
 71
     7
 72
     1
  1
\C7;内径{\Fgdt;n}\C7;61
  7
CONVERTER_12
 11
0.0
 21
1.0
 31
0.0
 73
     1
 44
0.45454545454545
  0
ENDBLK
  5
364
330
35C
100
AcDbEntity
  8
0
100
AcDbBlockEnd
  0
BLOCK
  5
36E
330
367
100
AcDbEntity
  8
0
100
AcDbBlockBegin
  2
*D13
 70
     1
 10
0.0
 20
0.0
 30
0.0
  3
*D13
  1

  0
LINE
  5
368
330
367
100
AcDbEntity
  8
1
  6
Continuous
 62
     2
100
AcDbLine
 10
140.0955379882235
 20
455.643770665547
 30
0.0
 11
282.0955353186228
 21
455.643770665547
 31
0.0
  0
LINE
  5
369
330
367
100
AcDbEntity
  8
1
  6
Continuous
 62
     2
100
AcDbLine
 10
282.0955353186228
 20
372.144456903934
 30
0.0
 11
282.0955353186228
 21
458.643770665547
 31
0.0
  0
LINE
  5
36A
330
367
100
AcDbEntity
  8
1
  6
Continuous
 62
     2
100
AcDbLine
 10
140.0955379882235
 20
372.144456903934
 30
0.0
 11
140.0955379882235
 21
458.643770665547
 31
0.0
  0
SOLID
  5
36B
330
367
100
AcDbEntity
  8
1
 62
     2
100
AcDbTrace
 10
150.5955379882235
 20
457.0261218902147
 30
0.0
 11
150.5955379882235
 21
454.2614194408793
 31
0.0
 12
140.0955379882235
 22
455.643770665547
 32
0.0
 13
140.0955379882235
 23
455.643770665547
 33
0.0
  0
SOLID
  5
36C
330
367
100
AcDbEntity
  8
1
 62
     2
100
AcDbTrace
 10
271.5955353186228
 20
454.2614194408793
 30
0.0
 11
271.5955353186228
 21
457.0261218902147
 31
0.0
 12
282.0955353186228
 22
455.643770665547
 32
0.0
 13
282.0955353186228
 23
455.643770665547
 33
0.0
  0
MTEXT
  5
36D
330
367
100
AcDbEntity
  8
1
 62
     7
100
AcDbMText
 10
197.7605366529482
 20
458.643749794318
 30
0.0
 40
10.5
 41
0.0
 71
     7
 72
     1
  1
\C7;{\Fgdt;n}\C7;142
  7
CONVERTER_13
 11
0.9999999999970619
 21
2.424068405545306E-6
 31
0.0
 73
     1
 44
0.60024009603842
  0
ENDBLK
  5
36F
330
367
100
AcDbEntity
  8
0
100
AcDbBlockEnd
  0
BLOCK
  5
379
330
372
100
AcDbEntity
  8
0
100
AcDbBlockBegin
  2
*D14
 70
     1
 10
0.0
 20
0.0
 30
0.0
  3
*D14
  1

  0
LINE
  5
373
330
372
100
AcDbEntity
  8
1
  6
Continuous
 62
     2
100
AcDbLine
 10
136.095538062923
 20
479.643770665547
 30
0.0
 11
286.0955352429228
 21
479.643770665547
 31
0.0
  0
LINE
  5
374
330
372
100
AcDbEntity
  8
1
  6
Continuous
 62
     2
100
AcDbLine
 10
286.0955352429228
 20
359.643771906347
 30
0.0
 11
286.0955352429228
 21
482.643770665547
 31
0.0
  0
LINE
  5
375
330
372
100
AcDbEntity
  8
1
  6
Continuous
 62
     2
100
AcDbLine
 10
136.095538062923
 20
359.643771906347
 30
0.0
 11
136.095538062923
 21
482.643770665547
 31
0.0
  0
SOLID
  5
376
330
372
100
AcDbEntity
  8
1
 62
     2
100
AcDbTrace
 10
146.595538062923
 20
481.0261218902147
 30
0.0
 11
146.595538062923
 21
478.2614194408793
 31
0.0
 12
136.095538062923
 22
479.643770665547
 32
0.0
 13
136.095538062923
 23
479.643770665547
 33
0.0
  0
SOLID
  5
377
330
372
100
AcDbEntity
  8
1
 62
     2
100
AcDbTrace
 10
275.5955352429228
 20
478.2614194408793
 30
0.0
 11
275.5955352429228
 21
481.0261218902147
 31
0.0
 12
286.0955352429228
 22
479.643770665547
 32
0.0
 13
286.0955352429228
 23
479.643770665547
 33
0.0
  0
MTEXT
  5
378
330
372
100
AcDbEntity
  8
1
 62
     7
100
AcDbMText
 10
197.7605366529482
 20
482.643749794318
 30
0.0
 40
10.5
 41
0.0
 71
     7
 72
     1
  1
\C7;{\Fgdt;n}\C7;150
  7
CONVERTER_13
 11
0.9999999999970619
 21
2.424068405545306E-6
 31
0.0
 73
     1
 44
0.60024009603842
  0
ENDBLK
  5
37A
330
372
100
AcDbEntity
  8
0
100
AcDbBlockEnd
  0
BLOCK
  5
384
330
37D
100
AcDbEntity
  8
0
100
AcDbBlockBegin
  2
*D15
 70
     1
 10
0.0
 20
0.0
 30
0.0
  3
*D15
  1

  0
LINE
  5
37E
330
37D
100
AcDbEntity
  8
1
  6
Continuous
 62
     2
100
AcDbLine
 10
106.095538062923
 20
261.143773758147
 30
0.0
 11
106.095538062923
 21
372.6437716619479
 31
0.0
  0
LINE
  5
37F
330
37D
100
AcDbEntity
  8
1
  6
Continuous
 62
     2
100
AcDbLine
 10
140.5693700012152
 20
372.6437716619479
 30
0.0
 11
103.095538062923
 21
372.6437716619479
 31
0.0
  0
LINE
  5
380
330
37D
100
AcDbEntity
  8
1
  6
Continuous
 62
     2
100
AcDbLine
 10
161.2546068385318
 20
261.143773758147
 30
0.0
 11
103.095538062923
 21
261.143773758147
 31
0.0
  0
SOLID
  5
381
330
37D
100
AcDbEntity
  8
1
 62
     2
100
AcDbTrace
 10
104.7131868382553
 20
271.643773758147
 30
0.0
 11
107.4778892875906
 21
271.643773758147
 31
0.0
 12
106.095538062923
 22
261.143773758147
 32
0.0
 13
106.095538062923
 23
261.143773758147
 33
0.0
  0
SOLID
  5
382
330
37D
100
AcDbEntity
  8
1
 62
     2
100
AcDbTrace
 10
107.4778892875906
 20
362.1437716619479
 30
0.0
 11
104.7131868382553
 21
362.1437716619479
 31
0.0
 12
106.095538062923
 22
372.6437716619479
 32
0.0
 13
106.095538062923
 23
372.6437716619479
 33
0.0
  0
MTEXT
  5
383
330
37D
100
AcDbEntity
  8
1
 62
     7
100
AcDbMText
 10
103.095538062923
 20
307.4437727100475
 30
0.0
 40
10.5
 41
0.0
 71
     7
 72
     1
  1
112
  7
CONVERTER_13
 11
0.0
 21
1.0
 31
0.0
 73
     1
 44
0.60024009603842
  0
ENDBLK
  5
385
330
37D
100
AcDbEntity
  8
0
100
AcDbBlockEnd
  0
BLOCK
  5
38D
330
388
100
AcDbEntity
  8
0
100
AcDbBlockBegin
  2
*D16
 70
     1
 10
0.0
 20
0.0
 30
0.0
  3
*D16
  1

  0
LINE
  5
389
330
388
100
AcDbEntity
  8
1
  6
Continuous
 62
     2
100
AcDbLine
 10
441.7602017962879
 20
610.4224148171465
 30
0.0
 11
361.5855595173026
 21
690.5970570961316
 31
0.0
  0
SOLID
  5
38A
330
388
100
AcDbEntity
  8
1
 62
     2
100
AcDbTrace
 10
398.2694082740924
 20
651.958268489454
 30
0.0
 11
400.2243481239805
 21
653.913208339342
 31
0.0
 12
406.6714994014952
 22
645.5111172119392
 32
0.0
 13
406.6714994014952
 23
645.5111172119392
 33
0.0
  0
SOLID
  5
38B
330
388
100
AcDbEntity
  8
1
 62
     2
100
AcDbTrace
 10
439.0253611200026
 20
615.1121953433199
 30
0.0
 11
437.0704212701145
 21
613.1572554934319
 31
0.0
 12
430.6232699925998
 22
621.5593466208346
 32
0.0
 13
430.6232699925998
 23
621.5593466208346
 33
0.0
  0
MTEXT
  5
38C
330
388
100
AcDbEntity
  8
1
 62
     7
100
AcDbMText
 10
369.2010995506817
 20
687.2241577498718
 30
0.0
 40
10.5
 41
0.0
 71
     7
 72
     1
  1
\C7;内径{\Fgdt;n}\C7;34
  7
CONVERTER_12
 11
0.7071067811865486
 21
-0.7071067811865465
 31
0.0
 73
     1
 44
0.45454545454545
  0
ENDBLK
  5
38E
330
388
100
AcDbEntity
  8
0
100
AcDbBlockEnd
  0
BLOCK
  5
394
330
390
100
AcDbEntity
  8
0
100
AcDbBlockBegin
  2
*D17
 70
     1
 10
0.0
 20
0.0
 30
0.0
  3
*D17
  1

  0
LINE
  5
391
330
390
100
AcDbEntity
  8
1
  6
Continuous
 62
     2
100
AcDbLine
 10
474.9271332353765
 20
398.25391890946
 30
0.0
 11
395.8813214451447
 21
336.1011258246122
 31
0.0
  0
SOLID
  5
392
330
390
100
AcDbEntity
  8
1
 62
     2
100
AcDbTrace
 10
425.9428831924441
 20
357.9796837642125
 30
0.0
 11
424.2340192693422
 21
360.1530138646992
 31
0.0
 12
433.3424917554337
 22
365.5564039004503
 32
0.0
 13
433.3424917554337
 23
365.5564039004503
 33
0.0
  0
MTEXT
  5
393
330
390
100
AcDbEntity
  8
1
 62
     7
100
AcDbMText
 10
397.163555391329
 20
340.9256440500159
 30
0.0
 40
10.5
 41
0.0
 71
     7
 72
     1
  1
\C7;{\Fgdt;n}\C7;106
  7
CONVERTER_13
 11
0.7860990975753114
 21
0.6181004843803967
 31
0.0
 73
     1
 44
0.60024009603842
  0
ENDBLK
  5
395
330
390
100
AcDbEntity
  8
0
100
AcDbBlockEnd
  0
ENDSEC
  0
SECTION
  2
ENTITIES
  0
INSERT
  5
5A
330
1F
100
AcDbEntity
  8
ﾚｲﾔｰ1
100
AcDbBlockReference
  2
CLUMP20
 10
445.2798421467578
 20
500.0917448257251
 30
0.0
  0
INSERT
  5
5B
330
1F
100
AcDbEntity
  8
ﾚｲﾔｰ1
100
AcDbBlockReference
  2
CLUMP14
 10
345.2798421467578
 20
500.0917448257251
 30
0.0
  0
INSERT
  5
5C
330
1F
100
AcDbEntity
  8
ﾚｲﾔｰ1
100
AcDbBlockReference
  2
CLUMP13
 10
445.2798421467578
 20
450.0917448257251
 30
0.0
  0
INSERT
  5
5D
330
1F
100
AcDbEntity
  8
ﾚｲﾔｰ1
100
AcDbBlockReference
  2
CLUMP5
 10
136.5389560033746
 20
300.9948061546311
 30
0.0
  0
INSERT
  5
5E
330
1F
100
AcDbEntity
  8
0
100
AcDbBlockReference
  2
HONTAI
 10
1205.166939672341
 20
513.6218618969899
 30
0.0
  0
INSERT
  5
5F
330
1F
100
AcDbEntity
  8
1
100
AcDbBlockReference
  2
開示A4
 10
0.0
 20
0.0
 30
0.0
 41
3.0
 42
3.0
 43
3.0
  0
LINE
  5
319
330
1F
100
AcDbEntity
  8
ﾚｲﾔｰ1
  6
DASH_CENTER
 62
     2
100
AcDbLine
 10
418.6473846970475
 20
608.535232386387
 30
0.0
 11
418.6473846970475
 21
658.5352314463869
 31
0.0
  0
LINE
  5
31A
330
1F
100
AcDbEntity
  8
ﾚｲﾔｰ1
  6
DASH_CENTER
 62
     2
100
AcDbLine
 10
383.6984595727872
 20
633.5352319163869
 30
0.0
 11
559.9518428885249
 21
633.5352319163869
 31
0.0
  0
LINE
  5
31B
330
1F
100
AcDbEntity
  8
ﾚｲﾔｰ1
  6
DASH_CENTER
 62
     2
100
AcDbLine
 10
506.6480682751353
 20
581.583619822778
 30
0.0
 11
506.6480682843348
 21
685.486843977897
 31
0.0
  0
LINE
  5
31C
330
1F
100
AcDbEntity
  8
ﾚｲﾔｰ1
  6
DASH_CENTER
 62
     2
100
AcDbLine
 10
211.0955366550234
 20
396.1437712201471
 30
0.0
 11
211.0955366464223
 21
250.2783816391159
 31
0.0
  0
LINE
  5
31D
330
1F
100
AcDbEntity
  8
ﾚｲﾔｰ1
  6
DASH_CENTER
 62
     2
100
AcDbLine
 10
275.1745015643382
 20
396.1437712201471
 30
0.0
 11
211.0955366550234
 21
396.1437712201471
 31
0.0
  0
LINE
  5
31E
330
1F
100
AcDbEntity
  8
ﾚｲﾔｰ1
  6
DASH_CENTER
 62
     2
100
AcDbLine
 10
146.5955372297221
 20
308.143772874547
 30
0.0
 11
320.4993470968311
 21
308.143772874547
 31
0.0
  0
LINE
  5
31F
330
1F
100
AcDbEntity
  8
ﾚｲﾔｰ1
  6
DASH_CENTER
 62
     2
100
AcDbLine
 10
211.0955366536227
 20
718.5352303022869
 30
0.0
 11
211.0955366536227
 21
548.535233498287
 31
0.0
  0
LINE
  5
320
330
1F
100
AcDbEntity
  8
ﾚｲﾔｰ1
  6
DASH_CENTER
 62
     2
100
AcDbLine
 10
126.0955382516231
 20
633.535231900287
 30
0.0
 11
329.8164386893695
 21
633.535231900287
 31
0.0
  0
LINE
  5
321
330
1F
100
AcDbEntity
  8
ﾚｲﾔｰ1
  6
DASH_CENTER
 62
     2
100
AcDbLine
 10
414.9271343634755
 20
398.25391890946
 30
0.0
 11
534.9271321074775
 21
398.25391890946
 31
0.0
  0
LINE
  5
322
330
1F
100
AcDbEntity
  8
ﾚｲﾔｰ1
  6
DASH_CENTER
 62
     2
100
AcDbLine
 10
474.9271332354765
 20
458.253917781459
 30
0.0
 11
474.9271332354765
 21
338.253920037459
 31
0.0
  0
LINE
  5
323
330
1F
100
AcDbEntity
  8
ﾚｲﾔｰ1
  6
DASH_CENTER
 62
     2
100
AcDbLine
 10
474.9261389189951
 20
318.230742876995
 30
0.0
 11
474.9261387137958
 21
271.8475973330969
 31
0.0
  0
LINE
  5
324
330
1F
100
AcDbEntity
  8
1
  6
Continuous
 62
     2
100
AcDbLine
 10
448.3027237145325
 20
221.5731727187999
 30
0.0
 11
506.8027237145325
 21
221.5731727187999
 31
0.0
  0
SOLID
  5
325
330
1F
100
AcDbEntity
  8
1
 62
     2
100
AcDbTrace
 10
508.6495812299802
 20
423.9923592628349
 30
0.0
 11
506.9014686905212
 21
426.1342467908687
 31
0.0
 12
515.9101504602795
 22
431.7024195324029
 32
0.0
 13
515.9101504602795
 23
431.7024195324029
 33
0.0
  0
LEADER
  5
326
330
1F
100
AcDbEntity
  8
1
  6
Continuous
 62
     2
100
AcDbLeader
  3
Standard
 71
     0
 76
     2
 10
515.9101504602795
 20
431.7024195324029
 30
0.0
 10
474.9271332353765
 20
398.25391890946
 30
0.0
  0
MTEXT
  5
327
330
1F
100
AcDbEntity
  8
1
 62
     7
100
AcDbMText
 10
102.0
 20
102.0
 30
0.0
 40
10.5
 41
0.0
 71
     4
 72
     1
  1
VP・VUパイプ兼用
  7
CONVERTER_12
 73
     1
 44
0.54545454545455
  0
MTEXT
  5
328
330
1F
100
AcDbEntity
  8
1
 62
     7
100
AcDbMText
 10
171.0
 20
68.25000000000003
 30
0.0
 40
10.5
 41
0.0
 71
     5
 72
     1
  1
洗濯機排水トラップ
  7
CONVERTER_12
 73
     1
 44
0.54545454545455
  0
MTEXT
  5
32A
330
1F
100
AcDbEntity
  8
1
 62
     7
100
AcDbMText
 10
171.0
 20
42.75
 30
0.0
 40
10.5
 41
0.0
 71
     5
 72
     1
  1
H5553-50
  7
CONVERTER_13
 73
     1
 44
0.7202881152461
  0
MTEXT
  5
32B
330
1F
100
AcDbEntity
  8
1
 62
     7
100
AcDbMText
 10
255.75
 20
51.00000000000001
 30
0.0
 40
10.5
 41
0.0
 71
     5
 72
     1
  1
1
  7
CONVERTER_13
 73
     1
 44
0.7202881152461
  0
MTEXT
  5
32C
330
1F
100
AcDbEntity
  8
1
 62
     7
100
AcDbMText
 10
281.25
 20
51.0
 30
0.0
 40
10.5
 41
0.0
 71
     5
 72
     1
  1
3
  7
CONVERTER_13
 73
     1
 44
0.7202881152461
  0
MTEXT
  5
32D
330
1F
100
AcDbEntity
  8
1
 62
     7
100
AcDbMText
 10
477.0884942550792
 20
232.0731727188
 30
0.0
 40
15.0
 41
0.0
 71
     5
 72
     1
  1
締付治具
  7
CONVERTER_12
 73
     1
 44
0.54545454545455
  0
DIMENSION
  5
338
330
1F
100
AcDbEntity
  8
1
100
AcDbDimension
  2
*D7
 10
368.0955347660015
 20
360.1437718969469
 30
0.0
 11
359.8455347660015
 21
310.643772827547
 31
0.0
 70
    32
  1
<>
 71
     5
 42
-1.0
 53
90.0
  3
ME10_DIM_10
100
AcDbAlignedDimension
 13
261.5955360425223
 23
261.1437737581471
 33
0.0
 14
285.5955352206229
 24
360.1437718969469
 34
0.0
 50
90.0
100
AcDbRotatedDimension
  0
DIMENSION
  5
34D
330
1F
100
AcDbEntity
  8
1
100
AcDbDimension
  2
*D8
 10
557.3896360120348
 20
275.8543769397707
 30
0.0
 11
549.1396360120348
 21
282.854376808171
 31
0.0
 70
    32
  1
<>
 71
     5
 42
-1.0
 53
90.0
  3
ME10_DIM_11
100
AcDbAlignedDimension
 13
527.3896360462804
 23
289.8543766765711
 33
0.0
 14
526.3896360014805
 24
275.8543769397709
 34
0.0
 50
90.0
100
AcDbRotatedDimension
  0
DIMENSION
  5
35B
330
1F
100
AcDbEntity
  8
1
100
AcDbDimension
  2
*D10
 10
557.3896361049872
 20
289.8543766765711
 30
0.0
 11
549.1396361049872
 21
301.854376450971
 31
0.0
 70
    32
  1
<>
 71
     5
 42
-1.0
 53
90.0
  3
ME10_DIM_12
100
AcDbAlignedDimension
 13
492.4271323550764
 23
313.854376225371
 33
0.0
 14
527.3896360462804
 24
289.8543766765711
 34
0.0
 50
90.0
100
AcDbRotatedDimension
  0
DIMENSION
  5
366
330
1F
100
AcDbEntity
  8
1
100
AcDbDimension
  2
*D12
 10
341.0955347680724
 20
277.8437728745471
 30
0.0
 11
332.8455347680724
 21
308.1437728745475
 31
0.0
 70
    32
  1
内径{\Fgdt;n}61
 71
     5
 42
-1.0
 53
90.0
  3
ME10_DIM_13
100
AcDbAlignedDimension
 13
311.0955347429734
 23
338.443772874547
 33
0.0
 14
311.0955347931713
 24
277.843772874548
 34
0.0
 50
90.0
100
AcDbRotatedDimension
  0
DIMENSION
  5
371
330
1F
100
AcDbEntity
  8
1
100
AcDbDimension
  2
*D13
 10
140.0955379882235
 20
455.643770665547
 30
0.0
 11
211.0955366529229
 21
463.893770665547
 31
0.0
 70
    33
  1
<>
 71
     5
 42
-1.0
 53
0.00013888888889
  3
ME10_DIM_14
100
AcDbAlignedDimension
 13
282.0955353186228
 23
372.1444569039339
 33
0.0
 14
140.0955379882234
 24
372.1444569039339
 34
0.0
  0
DIMENSION
  5
37C
330
1F
100
AcDbEntity
  8
1
100
AcDbDimension
  2
*D14
 10
136.095538062923
 20
479.643770665547
 30
0.0
 11
211.0955366529229
 21
487.893770665547
 31
0.0
 70
    33
  1
<>
 71
     5
 42
-1.0
 53
0.00013888888889
  3
ME10_DIM_15
100
AcDbAlignedDimension
 13
286.0955352429228
 23
359.643771906347
 33
0.0
 14
136.095538062923
 24
359.643771906347
 34
0.0
  0
DIMENSION
  5
387
330
1F
100
AcDbEntity
  8
1
100
AcDbDimension
  2
*D15
 10
106.095538062923
 20
261.143773758147
 30
0.0
 11
97.84553806292297
 21
316.8937727100475
 31
0.0
 70
    32
  1
112
 71
     5
 42
-1.0
 53
90.0
  3
ME10_DIM_16
100
AcDbAlignedDimension
 13
140.5693700012153
 23
372.643771661948
 33
0.0
 14
161.2546068385318
 24
261.1437737581471
 34
0.0
 50
90.0
100
AcDbRotatedDimension
  0
INSERT
  5
38F
330
1F
100
AcDbEntity
  8
1
100
AcDbBlockReference
  2
*D16
 10
0.0
 20
0.0
 30
0.0
  0
INSERT
  5
396
330
1F
100
AcDbEntity
  8
1
100
AcDbBlockReference
  2
*D17
 10
0.0
 20
0.0
 30
0.0
  0
ENDSEC
  0
SECTION
  2
OBJECTS
  0
DICTIONARY
  5
C
330
0
100
AcDbDictionary
281
     1
  3
ACAD_GROUP
350
D
  3
ACAD_LAYOUT
350
1A
  3
ACAD_MATERIAL
350
3B
  3
ACAD_MLEADERSTYLE
350
399
  3
ACAD_MLINESTYLE
350
17
  3
ACAD_PLOTSETTINGS
350
19
  3
ACAD_PLOTSTYLENAME
350
E
  3
ACAD_VISUALSTYLE
350
2A
  3
AcDbVariableDictionary
350
397
  0
DICTIONARY
  5
D
102
{ACAD_REACTORS
330
C
102
}
330
C
100
AcDbDictionary
281
     1
  0
DICTIONARY
  5
1A
102
{ACAD_REACTORS
330
C
102
}
330
C
100
AcDbDictionary
281
     1
  3
Layout1
350
1E
  3
Layout2
350
26
  3
Model
350
22
  0
DICTIONARY
  5
3B
102
{ACAD_REACTORS
330
C
102
}
330
C
100
AcDbDictionary
281
     1
  3
ByBlock
350
3D
  3
ByLayer
350
3C
  3
Global
350
3E
  0
DICTIONARY
  5
399
102
{ACAD_REACTORS
330
C
102
}
330
C
100
AcDbDictionary
281
     1
  0
DICTIONARY
  5
17
102
{ACAD_REACTORS
330
C
102
}
330
C
100
AcDbDictionary
281
     1
  3
Standard
350
18
  0
DICTIONARY
  5
19
102
{ACAD_REACTORS
330
C
102
}
330
C
100
AcDbDictionary
281
     1
  0
ACDBDICTIONARYWDFLT
  5
E
102
{ACAD_REACTORS
330
C
102
}
330
C
100
AcDbDictionary
281
     1
  3
Normal
350
F
100
AcDbDictionaryWithDefault
340
F
  0
DICTIONARY
  5
2A
102
{ACAD_REACTORS
330
C
102
}
330
C
100
AcDbDictionary
281
     1
  3
2dWireframe
350
2F
  3
3D Hidden
350
31
  3
3dWireframe
350
30
  3
Basic
350
32
  3
Brighten
350
36
  3
ColorChange
350
3A
  3
Conceptual
350
34
  3
Dim
350
35
  3
Facepattern
350
39
  3
Flat
350
2B
  3
FlatWithEdges
350
2C
  3
Gouraud
350
2D
  3
GouraudWithEdges
350
2E
  3
Linepattern
350
38
  3
Realistic
350
33
  3
Thicken
350
37
  0
DICTIONARY
  5
397
102
{ACAD_REACTORS
330
C
102
}
330
C
100
AcDbDictionary
281
     1
  3
DIMASSOC
350
39A
  3
HIDETEXT
350
39B
  0
LAYOUT
  5
1E
102
{ACAD_REACTORS
330
1A
102
}
330
1A
100
AcDbPlotSettings
  1

  2
none_device
  4

  6

 40
0.0
 41
0.0
 42
0.0
 43
0.0
 44
0.0
 45
0.0
 46
0.0
 47
0.0
 48
0.0
 49
0.0
140
0.0
141
0.0
142
1.0
143
1.0
 70
   688
 72
     0
 73
     0
 74
     5
  7

 75
    16
147
1.0
148
0.0
149
0.0
100
AcDbLayout
  1
Layout1
 70
     1
 71
     1
 10
0.0
 20
0.0
 11
12.0
 21
9.0
 12
0.0
 22
0.0
 32
0.0
 14
1.00000000000000E+20
 24
1.00000000000000E+20
 34
1.00000000000000E+20
 15
-1.00000000000000E+20
 25
-1.00000000000000E+20
 35
-1.00000000000000E+20
146
0.0
 13
0.0
 23
0.0
 33
0.0
 16
1.0
 26
0.0
 36
0.0
 17
0.0
 27
1.0
 37
0.0
 76
     0
330
1B
  0
LAYOUT
  5
26
102
{ACAD_REACTORS
330
1A
102
}
330
1A
100
AcDbPlotSettings
  1

  2
none_device
  4

  6

 40
0.0
 41
0.0
 42
0.0
 43
0.0
 44
0.0
 45
0.0
 46
0.0
 47
0.0
 48
0.0
 49
0.0
140
0.0
141
0.0
142
1.0
143
1.0
 70
   688
 72
     0
 73
     0
 74
     5
  7

 75
    16
147
1.0
148
0.0
149
0.0
100
AcDbLayout
  1
Layout2
 70
     1
 71
     2
 10
0.0
 20
0.0
 11
0.0
 21
0.0
 12
0.0
 22
0.0
 32
0.0
 14
0.0
 24
0.0
 34
0.0
 15
0.0
 25
0.0
 35
0.0
146
0.0
 13
0.0
 23
0.0
 33
0.0
 16
1.0
 26
0.0
 36
0.0
 17
0.0
 27
1.0
 37
0.0
 76
     0
330
23
  0
LAYOUT
  5
22
102
{ACAD_REACTORS
330
1A
102
}
330
1A
100
AcDbPlotSettings
  1

  2
none_device
  4

  6

 40
0.0
 41
0.0
 42
0.0
 43
0.0
 44
0.0
 45
0.0
 46
0.0
 47
0.0
 48
0.0
 49
0.0
140
0.0
141
0.0
142
1.0
143
1.0
 70
  1712
 72
     0
 73
     0
 74
     0
  7

 75
     0
147
1.0
148
0.0
149
0.0
100
AcDbLayout
  1
Model
 70
     1
 71
     0
 10
0.0
 20
0.0
 11
12.0
 21
9.0
 12
0.0
 22
0.0
 32
0.0
 14
0.0
 24
0.0
 34
0.0
 15
630.0
 25
891.0
 35
0.0
146
0.0
 13
0.0
 23
0.0
 33
0.0
 16
1.0
 26
0.0
 36
0.0
 17
0.0
 27
1.0
 37
0.0
 76
     0
330
1F
331
29
  0
MATERIAL
  5
3D
102
{ACAD_REACTORS
330
3B
102
}
102
{ACAD_XDICTIONARY
360
3BE
102
}
330
3B
100
AcDbMaterial
  1
ByBlock
  0
MATERIAL
  5
3C
102
{ACAD_REACTORS
330
3B
102
}
102
{ACAD_XDICTIONARY
360
3BC
102
}
330
3B
100
AcDbMaterial
  1
ByLayer
  0
MATERIAL
  5
3E
102
{ACAD_REACTORS
330
3B
102
}
102
{ACAD_XDICTIONARY
360
3C0
102
}
330
3B
100
AcDbMaterial
  1
Global
  0
MLINESTYLE
  5
18
102
{ACAD_REACTORS
330
17
102
}
330
17
100
AcDbMlineStyle
  2
Standard
 70
     0
  3

 62
   256
 51
90.0
 52
90.0
 71
     2
 49
0.5
 62
   256
  6
BYLAYER
 49
-0.5
 62
   256
  6
BYLAYER
  0
ACDBPLACEHOLDER
  5
F
102
{ACAD_REACTORS
330
E
102
}
330
E
  0
VISUALSTYLE
  5
2F
102
{ACAD_REACTORS
330
2A
102
}
102
{ACAD_XDICTIONARY
360
3A4
102
}
330
2A
100
AcDbVisualStyle
  2
2dWireframe
 70
     4
 71
     0
 72
     2
 73
     0
 90
        0
 40
-0.6
 41
-30.0
 62
     5
 63
     7
 74
     1
 91
        4
 64
     7
 65
   257
 75
     1
175
     1
 42
1.0
 92
        0
 66
   257
 43
1.0
 76
     1
 77
     6
 78
     2
 67
     7
 79
     5
170
     0
171
     0
290
     0
174
     0
 93
        1
 44
0.0
173
     0
291
     0
 45
0.0
1001
ACAD
1000
AcDbSavedByObjectVersion
1070
     0
  0
VISUALSTYLE
  5
31
102
{ACAD_REACTORS
330
2A
102
}
102
{ACAD_XDICTIONARY
360
3A8
102
}
330
2A
100
AcDbVisualStyle
  2
3D Hidden
 70
     6
 71
     1
 72
     2
 73
     2
 90
        0
 40
-0.6
 41
-30.0
 62
     5
 63
     7
 74
     2
 91
        2
 64
     7
 65
   257
 75
     2
175
     1
 42
40.0
 92
        0
 66
   257
 43
1.0
 76
     1
 77
     6
 78
     2
 67
     7
 79
     3
170
     0
171
     0
290
     0
174
     0
 93
        1
 44
0.0
173
     0
291
     0
 45
0.0
1001
ACAD
1000
AcDbSavedByObjectVersion
1070
     0
  0
VISUALSTYLE
  5
30
102
{ACAD_REACTORS
330
2A
102
}
102
{ACAD_XDICTIONARY
360
3A6
102
}
330
2A
100
AcDbVisualStyle
  2
3dWireframe
 70
     5
 71
     0
 72
     2
 73
     0
 90
        0
 40
-0.6
 41
-30.0
 62
     5
 63
     7
 74
     1
 91
        4
 64
     7
 65
   257
 75
     1
175
     1
 42
1.0
 92
        0
 66
   257
 43
1.0
 76
     1
 77
     6
 78
     2
 67
     7
 79
     5
170
     0
171
     0
290
     0
174
     0
 93
        1
 44
0.0
173
     0
291
     0
 45
0.0
1001
ACAD
1000
AcDbSavedByObjectVersion
1070
     0
  0
VISUALSTYLE
  5
32
102
{ACAD_REACTORS
330
2A
102
}
102
{ACAD_XDICTIONARY
360
3AA
102
}
330
2A
100
AcDbVisualStyle
  2
Basic
 70
     7
 71
     1
 72
     0
 73
     1
 90
        0
 40
-0.6
 41
-30.0
 62
     5
 63
     7
 74
     0
 91
        4
 64
     7
 65
   257
 75
     1
175
     1
 42
1.0
 92
        8
 66
     7
 43
1.0
 76
     1
 77
     6
 78
     2
 67
     7
 79
     5
170
     0
171
     0
290
     0
174
     0
 93
        1
 44
0.0
173
     0
291
     1
 45
0.0
1001
ACAD
1000
AcDbSavedByObjectVersion
1070
     0
  0
VISUALSTYLE
  5
36
102
{ACAD_REACTORS
330
2A
102
}
102
{ACAD_XDICTIONARY
360
3B2
102
}
330
2A
100
AcDbVisualStyle
  2
Brighten
 70
    12
 71
     2
 72
     2
 73
     0
 90
        0
 40
-0.6
 41
-30.0
 62
     5
 63
     7
 74
     1
 91
        4
 64
     7
 65
   257
 75
     1
175
     1
 42
1.0
 92
        8
 66
     7
 43
1.0
 76
     1
 77
     6
 78
     2
 67
     7
 79
     5
170
     0
171
     0
290
     0
174
     0
 93
        1
 44
50.0
173
     0
291
     1
 45
0.0
1001
ACAD
1000
AcDbSavedByObjectVersion
1070
     0
  0
VISUALSTYLE
  5
3A
102
{ACAD_REACTORS
330
2A
102
}
102
{ACAD_XDICTIONARY
360
3BA
102
}
330
2A
100
AcDbVisualStyle
  2
ColorChange
 70
    16
 71
     2
 72
     2
 73
     3
 90
        0
 40
-0.6
 41
-30.0
 62
     5
 63
     8
 74
     1
 91
        4
 64
     7
 65
   257
 75
     1
175
     1
 42
1.0
 92
        8
 66
     8
 43
1.0
 76
     1
 77
     6
 78
     2
 67
     7
 79
     5
170
     0
171
     0
290
     0
174
     0
 93
        1
 44
0.0
173
     0
291
     1
 45
0.0
1001
ACAD
1000
AcDbSavedByObjectVersion
1070
     0
  0
VISUALSTYLE
  5
34
102
{ACAD_REACTORS
330
2A
102
}
102
{ACAD_XDICTIONARY
360
3AE
102
}
330
2A
100
AcDbVisualStyle
  2
Conceptual
 70
     9
 71
     3
 72
     2
 73
     0
 90
        0
 40
-0.6
 41
-30.0
 62
     5
 63
     7
 74
     2
 91
        2
 64
     7
 65
   257
 75
     1
175
     1
 42
40.0
 92
        8
 66
     7
 43
1.0
 76
     1
 77
     6
 78
     2
 67
     7
 79
     3
170
     0
171
     0
290
     0
174
     0
 93
        1
 44
0.0
173
     0
291
     0
 45
0.0
1001
ACAD
1000
AcDbSavedByObjectVersion
1070
     0
  0
VISUALSTYLE
  5
35
102
{ACAD_REACTORS
330
2A
102
}
102
{ACAD_XDICTIONARY
360
3B0
102
}
330
2A
100
AcDbVisualStyle
  2
Dim
 70
    11
 71
     2
 72
     2
 73
     0
 90
        0
 40
-0.6
 41
-30.0
 62
     5
 63
     7
 74
     1
 91
        4
 64
     7
 65
   257
 75
     1
175
     1
 42
1.0
 92
        8
 66
     7
 43
1.0
 76
     1
 77
     6
 78
     2
 67
     7
 79
     5
170
     0
171
     0
290
     0
174
     0
 93
        1
 44
-50.0
173
     0
291
     1
 45
0.0
1001
ACAD
1000
AcDbSavedByObjectVersion
1070
     0
  0
VISUALSTYLE
  5
39
102
{ACAD_REACTORS
330
2A
102
}
102
{ACAD_XDICTIONARY
360
3B8
102
}
330
2A
100
AcDbVisualStyle
  2
Facepattern
 70
    15
 71
     2
 72
     2
 73
     0
 90
        0
 40
-0.6
 41
-30.0
 62
     5
 63
     7
 74
     1
 91
        4
 64
     7
 65
   257
 75
     1
175
     1
 42
1.0
 92
        8
 66
     7
 43
1.0
 76
     1
 77
     6
 78
     2
 67
     7
 79
     5
170
     0
171
     0
290
     0
174
     0
 93
        1
 44
0.0
173
     0
291
     1
 45
0.0
1001
ACAD
1000
AcDbSavedByObjectVersion
1070
     0
  0
VISUALSTYLE
  5
2B
102
{ACAD_REACTORS
330
2A
102
}
102
{ACAD_XDICTIONARY
360
39C
102
}
330
2A
100
AcDbVisualStyle
  2
Flat
 70
     0
 71
     2
 72
     1
 73
     1
 90
        2
 40
-0.6
 41
30.0
 62
     5
 63
     7
 74
     0
 91
        4
 64
     7
 65
   257
 75
     1
175
     1
 42
1.0
 92
        8
 66
     7
 43
1.0
 76
     1
 77
     6
 78
     2
 67
     7
 79
     5
170
     0
171
     0
290
     0
174
     0
 93
       13
 44
0.0
173
     0
291
     1
 45
0.0
1001
ACAD
1000
AcDbSavedByObjectVersion
1070
     0
  0
VISUALSTYLE
  5
2C
102
{ACAD_REACTORS
330
2A
102
}
102
{ACAD_XDICTIONARY
360
39E
102
}
330
2A
100
AcDbVisualStyle
  2
FlatWithEdges
 70
     1
 71
     2
 72
     1
 73
     1
 90
        2
 40
-0.6
 41
30.0
 62
     5
 63
     7
 74
     1
 91
        4
 64
     7
 65
   257
 75
     1
175
     1
 42
1.0
 92
        0
 66
   257
 43
1.0
 76
     1
 77
     6
 78
     2
 67
     7
 79
     5
170
     0
171
     0
290
     0
174
     0
 93
       13
 44
0.0
173
     0
291
     1
 45
0.0
1001
ACAD
1000
AcDbSavedByObjectVersion
1070
     0
  0
VISUALSTYLE
  5
2D
102
{ACAD_REACTORS
330
2A
102
}
102
{ACAD_XDICTIONARY
360
3A0
102
}
330
2A
100
AcDbVisualStyle
  2
Gouraud
 70
     2
 71
     2
 72
     2
 73
     1
 90
        2
 40
-0.6
 41
30.0
 62
     5
 63
     7
 74
     0
 91
        4
 64
     7
 65
   257
 75
     1
175
     1
 42
1.0
 92
        0
 66
     7
 43
1.0
 76
     1
 77
     6
 78
     2
 67
     7
 79
     5
170
     0
171
     0
290
     0
174
     0
 93
       13
 44
0.0
173
     0
291
     1
 45
0.0
1001
ACAD
1000
AcDbSavedByObjectVersion
1070
     0
  0
VISUALSTYLE
  5
2E
102
{ACAD_REACTORS
330
2A
102
}
102
{ACAD_XDICTIONARY
360
3A2
102
}
330
2A
100
AcDbVisualStyle
  2
GouraudWithEdges
 70
     3
 71
     2
 72
     2
 73
     1
 90
        2
 40
-0.6
 41
30.0
 62
     5
 63
     7
 74
     1
 91
        4
 64
     7
 65
   257
 75
     1
175
     1
 42
1.0
 92
        0
 66
   257
 43
1.0
 76
     1
 77
     6
 78
     2
 67
     7
 79
     5
170
     0
171
     0
290
     0
174
     0
 93
       13
 44
0.0
173
     0
291
     1
 45
0.0
1001
ACAD
1000
AcDbSavedByObjectVersion
1070
     0
  0
VISUALSTYLE
  5
38
102
{ACAD_REACTORS
330
2A
102
}
102
{ACAD_XDICTIONARY
360
3B6
102
}
330
2A
100
AcDbVisualStyle
  2
Linepattern
 70
    14
 71
     2
 72
     2
 73
     0
 90
        0
 40
-0.6
 41
-30.0
 62
     5
 63
     7
 74
     1
 91
        4
 64
     7
 65
   257
 75
     7
175
     7
 42
1.0
 92
        8
 66
     7
 43
1.0
 76
     1
 77
     6
 78
     2
 67
     7
 79
     5
170
     0
171
     0
290
     0
174
     0
 93
        1
 44
0.0
173
     0
291
     1
 45
0.0
1001
ACAD
1000
AcDbSavedByObjectVersion
1070
     0
  0
VISUALSTYLE
  5
33
102
{ACAD_REACTORS
330
2A
102
}
102
{ACAD_XDICTIONARY
360
3AC
102
}
330
2A
100
AcDbVisualStyle
  2
Realistic
 70
     8
 71
     2
 72
     2
 73
     0
 90
        0
 40
-0.6
 41
-30.0
 62
     5
 63
     7
 74
     1
 91
        0
 64
     7
 65
   257
 75
     1
175
     1
 42
1.0
 92
        8
 66
     8
 43
1.0
 76
     1
 77
     6
 78
     2
 67
     7
 79
     5
170
     0
171
     0
290
     0
174
     0
 93
       13
 44
0.0
173
     0
291
     0
 45
0.0
1001
ACAD
1000
AcDbSavedByObjectVersion
1070
     0
  0
VISUALSTYLE
  5
37
102
{ACAD_REACTORS
330
2A
102
}
102
{ACAD_XDICTIONARY
360
3B4
102
}
330
2A
100
AcDbVisualStyle
  2
Thicken
 70
    13
 71
     2
 72
     2
 73
     0
 90
        0
 40
-0.6
 41
-30.0
 62
     5
 63
     7
 74
     1
 91
        4
 64
     7
 65
   257
 75
     1
175
     1
 42
1.0
 92
       12
 66
     7
 43
1.0
 76
     1
 77
     6
 78
     2
 67
     7
 79
     5
170
     0
171
     0
290
     0
174
     0
 93
        1
 44
0.0
173
     0
291
     1
 45
0.0
1001
ACAD
1000
AcDbSavedByObjectVersion
1070
     0
  0
DICTIONARYVAR
  5
39A
102
{ACAD_REACTORS
330
397
102
}
330
397
100
DictionaryVariables
280
     0
  1
2
  0
DICTIONARYVAR
  5
39B
102
{ACAD_REACTORS
330
397
102
}
330
397
100
DictionaryVariables
280
     0
  1
1
  0
DICTIONARY
  5
3BE
330
3D
100
AcDbDictionary
280
     1
281
     1
  3
ACAD_XREC_ROUNDTRIP
360
3BF
  0
DICTIONARY
  5
3BC
330
3C
100
AcDbDictionary
280
     1
281
     1
  3
ACAD_XREC_ROUNDTRIP
360
3BD
  0
DICTIONARY
  5
3C0
330
3E
100
AcDbDictionary
280
     1
281
     1
  3
ACAD_XREC_ROUNDTRIP
360
3C1
  0
DICTIONARY
  5
3A4
330
2F
100
AcDbDictionary
280
     1
281
     1
  3
ACAD_XREC_ROUNDTRIP
360
3A5
  0
DICTIONARY
  5
3A8
330
31
100
AcDbDictionary
280
     1
281
     1
  3
ACAD_XREC_ROUNDTRIP
360
3A9
  0
DICTIONARY
  5
3A6
330
30
100
AcDbDictionary
280
     1
281
     1
  3
ACAD_XREC_ROUNDTRIP
360
3A7
  0
DICTIONARY
  5
3AA
330
32
100
AcDbDictionary
280
     1
281
     1
  3
ACAD_XREC_ROUNDTRIP
360
3AB
  0
DICTIONARY
  5
3B2
330
36
100
AcDbDictionary
280
     1
281
     1
  3
ACAD_XREC_ROUNDTRIP
360
3B3
  0
DICTIONARY
  5
3BA
330
3A
100
AcDbDictionary
280
     1
281
     1
  3
ACAD_XREC_ROUNDTRIP
360
3BB
  0
DICTIONARY
  5
3AE
330
34
100
AcDbDictionary
280
     1
281
     1
  3
ACAD_XREC_ROUNDTRIP
360
3AF
  0
DICTIONARY
  5
3B0
330
35
100
AcDbDictionary
280
     1
281
     1
  3
ACAD_XREC_ROUNDTRIP
360
3B1
  0
DICTIONARY
  5
3B8
330
39
100
AcDbDictionary
280
     1
281
     1
  3
ACAD_XREC_ROUNDTRIP
360
3B9
  0
DICTIONARY
  5
39C
330
2B
100
AcDbDictionary
280
     1
281
     1
  3
ACAD_XREC_ROUNDTRIP
360
39D
  0
DICTIONARY
  5
39E
330
2C
100
AcDbDictionary
280
     1
281
     1
  3
ACAD_XREC_ROUNDTRIP
360
39F
  0
DICTIONARY
  5
3A0
330
2D
100
AcDbDictionary
280
     1
281
     1
  3
ACAD_XREC_ROUNDTRIP
360
3A1
  0
DICTIONARY
  5
3A2
330
2E
100
AcDbDictionary
280
     1
281
     1
  3
ACAD_XREC_ROUNDTRIP
360
3A3
  0
DICTIONARY
  5
3B6
330
38
100
AcDbDictionary
280
     1
281
     1
  3
ACAD_XREC_ROUNDTRIP
360
3B7
  0
DICTIONARY
  5
3AC
330
33
100
AcDbDictionary
280
     1
281
     1
  3
ACAD_XREC_ROUNDTRIP
360
3AD
  0
DICTIONARY
  5
3B4
330
37
100
AcDbDictionary
280
     1
281
     1
  3
ACAD_XREC_ROUNDTRIP
360
3B5
  0
XRECORD
  5
3BF
102
{ACAD_REACTORS
330
3BE
102
}
330
3BE
100
AcDbXrecord
280
     1
102
MATERIAL
148
0.0
149
0.0
149
0.0
 93
        0
 94
      127
282
     0
 72
     1
 77
     1
171
     1
175
     1
179
     1
273
     0
  0
XRECORD
  5
3BD
102
{ACAD_REACTORS
330
3BC
102
}
330
3BC
100
AcDbXrecord
280
     1
102
MATERIAL
148
0.0
149
0.0
149
0.0
 93
        0
 94
      127
282
     0
 72
     1
 77
     1
171
     1
175
     1
179
     1
273
     0
  0
XRECORD
  5
3C1
102
{ACAD_REACTORS
330
3C0
102
}
330
3C0
100
AcDbXrecord
280
     1
102
MATERIAL
148
0.0
149
0.0
149
0.0
 93
        0
 94
      127
282
     0
 72
     1
 77
     1
171
     1
175
     1
179
     1
273
     0
  0
XRECORD
  5
3A5
102
{ACAD_REACTORS
330
3A4
102
}
330
3A4
100
AcDbXrecord
280
     1
102
RTVSPropertyOp0
 70
     1
102
RTVSPropertyOp1
 70
     1
102
RTVSPropertyOp2
 70
     1
102
RTVSPropertyOp3
 70
     1
102
RTVSPropertyOp4
 70
     1
102
RTVSPropertyOp5
 70
     1
102
RTVSPropertyOp6
 70
     1
102
RTVSPropertyOp7
 70
     1
102
RTVSPropertyOp8
 70
     1
102
RTVSPropertyOp9
 70
     1
102
RTVSPropertyOp10
 70
     1
102
RTVSPropertyOp11
 70
     1
102
RTVSPropertyOp12
 70
     1
102
RTVSPropertyOp13
 70
     1
102
RTVSPropertyOp14
 70
     1
102
RTVSPropertyOp15
 70
     1
102
RTVSPropertyOp16
 70
     1
102
RTVSPropertyOp17
 70
     1
102
RTVSPropertyOp18
 70
     1
102
RTVSPropertyOp19
 70
     1
102
RTVSPropertyOp20
 70
     1
102
RTVSPropertyOp21
 70
     1
102
RTVSPropertyOp22
 70
     1
102
RTVSPropertyOp23
 70
     1
102
RTVSPropertyOp24
 70
     1
102
RTVSPropertyOp25
 70
     1
102
RTVSPropertyOp26
 70
     1
102
RTVSPropertyOp27
 70
     1
102
RTVSPropertyOp28
 70
     1
102
RTVSPropertyOp29
 70
     1
102
RTVSPropertyOp30
 70
     1
102
RTVSPropertyOp31
 70
     1
102
RTVSPropertyOp32
 70
     1
  0
XRECORD
  5
3A9
102
{ACAD_REACTORS
330
3A8
102
}
330
3A8
100
AcDbXrecord
280
     1
102
RTVSPropertyOp0
 70
     1
102
RTVSPropertyOp1
 70
     1
102
RTVSPropertyOp2
 70
     1
102
RTVSPropertyOp3
 70
     1
102
RTVSPropertyOp4
 70
     1
102
RTVSPropertyOp5
 70
     1
102
RTVSPropertyOp6
 70
     1
102
RTVSPropertyOp7
 70
     1
102
RTVSPropertyOp8
 70
     1
102
RTVSPropertyOp9
 70
     1
102
RTVSPropertyOp10
 70
     1
102
RTVSPropertyOp11
 70
     1
102
RTVSPropertyOp12
 70
     1
102
RTVSPropertyOp13
 70
     1
102
RTVSPropertyOp14
 70
     1
102
RTVSPropertyOp15
 70
     1
102
RTVSPropertyOp16
 70
     1
102
RTVSPropertyOp17
 70
     1
102
RTVSPropertyOp18
 70
     1
102
RTVSPropertyOp19
 70
     1
102
RTVSPropertyOp20
 70
     1
102
RTVSPropertyOp21
 70
     1
102
RTVSPropertyOp22
 70
     1
102
RTVSPropertyOp23
 70
     1
102
RTVSPropertyOp24
 70
     1
102
RTVSPropertyOp25
 70
     1
102
RTVSPropertyOp26
 70
     1
102
RTVSPropertyOp27
 70
     1
102
RTVSPropertyOp28
 70
     1
102
RTVSPropertyOp29
 70
     1
102
RTVSPropertyOp30
 70
     1
102
RTVSPropertyOp31
 70
     1
102
RTVSPropertyOp32
 70
     1
  0
XRECORD
  5
3A7
102
{ACAD_REACTORS
330
3A6
102
}
330
3A6
100
AcDbXrecord
280
     1
102
RTVSPropertyOp0
 70
     1
102
RTVSPropertyOp1
 70
     1
102
RTVSPropertyOp2
 70
     1
102
RTVSPropertyOp3
 70
     1
102
RTVSPropertyOp4
 70
     1
102
RTVSPropertyOp5
 70
     1
102
RTVSPropertyOp6
 70
     1
102
RTVSPropertyOp7
 70
     1
102
RTVSPropertyOp8
 70
     1
102
RTVSPropertyOp9
 70
     1
102
RTVSPropertyOp10
 70
     1
102
RTVSPropertyOp11
 70
     1
102
RTVSPropertyOp12
 70
     1
102
RTVSPropertyOp13
 70
     1
102
RTVSPropertyOp14
 70
     1
102
RTVSPropertyOp15
 70
     1
102
RTVSPropertyOp16
 70
     1
102
RTVSPropertyOp17
 70
     1
102
RTVSPropertyOp18
 70
     1
102
RTVSPropertyOp19
 70
     1
102
RTVSPropertyOp20
 70
     1
102
RTVSPropertyOp21
 70
     1
102
RTVSPropertyOp22
 70
     1
102
RTVSPropertyOp23
 70
     1
102
RTVSPropertyOp24
 70
     1
102
RTVSPropertyOp25
 70
     1
102
RTVSPropertyOp26
 70
     1
102
RTVSPropertyOp27
 70
     1
102
RTVSPropertyOp28
 70
     1
102
RTVSPropertyOp29
 70
     1
102
RTVSPropertyOp30
 70
     1
102
RTVSPropertyOp31
 70
     1
102
RTVSPropertyOp32
 70
     1
  0
XRECORD
  5
3AB
102
{ACAD_REACTORS
330
3AA
102
}
330
3AA
100
AcDbXrecord
280
     1
102
RTVSPropertyOp0
 70
     1
102
RTVSPropertyOp1
 70
     1
102
RTVSPropertyOp2
 70
     1
102
RTVSPropertyOp3
 70
     1
102
RTVSPropertyOp4
 70
     1
102
RTVSPropertyOp5
 70
     1
102
RTVSPropertyOp6
 70
     1
102
RTVSPropertyOp7
 70
     1
102
RTVSPropertyOp8
 70
     1
102
RTVSPropertyOp9
 70
     1
102
RTVSPropertyOp10
 70
     1
102
RTVSPropertyOp11
 70
     1
102
RTVSPropertyOp12
 70
     1
102
RTVSPropertyOp13
 70
     1
102
RTVSPropertyOp14
 70
     1
102
RTVSPropertyOp15
 70
     1
102
RTVSPropertyOp16
 70
     1
102
RTVSPropertyOp17
 70
     1
102
RTVSPropertyOp18
 70
     1
102
RTVSPropertyOp19
 70
     1
102
RTVSPropertyOp20
 70
     1
102
RTVSPropertyOp21
 70
     1
102
RTVSPropertyOp22
 70
     1
102
RTVSPropertyOp23
 70
     1
102
RTVSPropertyOp24
 70
     1
102
RTVSPropertyOp25
 70
     1
102
RTVSPropertyOp26
 70
     1
102
RTVSPropertyOp27
 70
     1
102
RTVSPropertyOp28
 70
     1
102
RTVSPropertyOp29
 70
     1
102
RTVSPropertyOp30
 70
     1
102
RTVSPropertyOp31
 70
     1
102
RTVSPropertyOp32
 70
     1
  0
XRECORD
  5
3B3
102
{ACAD_REACTORS
330
3B2
102
}
330
3B2
100
AcDbXrecord
280
     1
102
RTVSPropertyOp0
 70
     1
102
RTVSPropertyOp1
 70
     1
102
RTVSPropertyOp2
 70
     1
102
RTVSPropertyOp3
 70
     1
102
RTVSPropertyOp4
 70
     1
102
RTVSPropertyOp5
 70
     1
102
RTVSPropertyOp6
 70
     1
102
RTVSPropertyOp7
 70
     1
102
RTVSPropertyOp8
 70
     1
102
RTVSPropertyOp9
 70
     1
102
RTVSPropertyOp10
 70
     1
102
RTVSPropertyOp11
 70
     1
102
RTVSPropertyOp12
 70
     1
102
RTVSPropertyOp13
 70
     1
102
RTVSPropertyOp14
 70
     1
102
RTVSPropertyOp15
 70
     1
102
RTVSPropertyOp16
 70
     1
102
RTVSPropertyOp17
 70
     1
102
RTVSPropertyOp18
 70
     1
102
RTVSPropertyOp19
 70
     1
102
RTVSPropertyOp20
 70
     1
102
RTVSPropertyOp21
 70
     1
102
RTVSPropertyOp22
 70
     1
102
RTVSPropertyOp23
 70
     1
102
RTVSPropertyOp24
 70
     1
102
RTVSPropertyOp25
 70
     1
102
RTVSPropertyOp26
 70
     1
102
RTVSPropertyOp27
 70
     1
102
RTVSPropertyOp28
 70
     1
102
RTVSPropertyOp29
 70
     1
102
RTVSPropertyOp30
 70
     1
102
RTVSPropertyOp31
 70
     1
102
RTVSPropertyOp32
 70
     1
  0
XRECORD
  5
3BB
102
{ACAD_REACTORS
330
3BA
102
}
330
3BA
100
AcDbXrecord
280
     1
102
RTVSPropertyOp0
 70
     1
102
RTVSPropertyOp1
 70
     1
102
RTVSPropertyOp2
 70
     1
102
RTVSPropertyOp3
 70
     1
102
RTVSPropertyOp4
 70
     1
102
RTVSPropertyOp5
 70
     1
102
RTVSPropertyOp6
 70
     1
102
RTVSPropertyOp7
 70
     1
102
RTVSPropertyOp8
 70
     1
102
RTVSPropertyOp9
 70
     1
102
RTVSPropertyOp10
 70
     1
102
RTVSPropertyOp11
 70
     1
102
RTVSPropertyOp12
 70
     1
102
RTVSPropertyOp13
 70
     1
102
RTVSPropertyOp14
 70
     1
102
RTVSPropertyOp15
 70
     1
102
RTVSPropertyOp16
 70
     1
102
RTVSPropertyOp17
 70
     1
102
RTVSPropertyOp18
 70
     1
102
RTVSPropertyOp19
 70
     1
102
RTVSPropertyOp20
 70
     1
102
RTVSPropertyOp21
 70
     1
102
RTVSPropertyOp22
 70
     1
102
RTVSPropertyOp23
 70
     1
102
RTVSPropertyOp24
 70
     1
102
RTVSPropertyOp25
 70
     1
102
RTVSPropertyOp26
 70
     1
102
RTVSPropertyOp27
 70
     1
102
RTVSPropertyOp28
 70
     1
102
RTVSPropertyOp29
 70
     1
102
RTVSPropertyOp30
 70
     1
102
RTVSPropertyOp31
 70
     1
102
RTVSPropertyOp32
 70
     1
  0
XRECORD
  5
3AF
102
{ACAD_REACTORS
330
3AE
102
}
330
3AE
100
AcDbXrecord
280
     1
102
RTVSPropertyOp0
 70
     1
102
RTVSPropertyOp1
 70
     1
102
RTVSPropertyOp2
 70
     1
102
RTVSPropertyOp3
 70
     1
102
RTVSPropertyOp4
 70
     1
102
RTVSPropertyOp5
 70
     1
102
RTVSPropertyOp6
 70
     1
102
RTVSPropertyOp7
 70
     1
102
RTVSPropertyOp8
 70
     1
102
RTVSPropertyOp9
 70
     1
102
RTVSPropertyOp10
 70
     1
102
RTVSPropertyOp11
 70
     1
102
RTVSPropertyOp12
 70
     1
102
RTVSPropertyOp13
 70
     1
102
RTVSPropertyOp14
 70
     1
102
RTVSPropertyOp15
 70
     1
102
RTVSPropertyOp16
 70
     1
102
RTVSPropertyOp17
 70
     1
102
RTVSPropertyOp18
 70
     1
102
RTVSPropertyOp19
 70
     1
102
RTVSPropertyOp20
 70
     1
102
RTVSPropertyOp21
 70
     1
102
RTVSPropertyOp22
 70
     1
102
RTVSPropertyOp23
 70
     1
102
RTVSPropertyOp24
 70
     1
102
RTVSPropertyOp25
 70
     1
102
RTVSPropertyOp26
 70
     1
102
RTVSPropertyOp27
 70
     1
102
RTVSPropertyOp28
 70
     1
102
RTVSPropertyOp29
 70
     1
102
RTVSPropertyOp30
 70
     1
102
RTVSPropertyOp31
 70
     1
102
RTVSPropertyOp32
 70
     1
  0
XRECORD
  5
3B1
102
{ACAD_REACTORS
330
3B0
102
}
330
3B0
100
AcDbXrecord
280
     1
102
RTVSPropertyOp0
 70
     1
102
RTVSPropertyOp1
 70
     1
102
RTVSPropertyOp2
 70
     1
102
RTVSPropertyOp3
 70
     1
102
RTVSPropertyOp4
 70
     1
102
RTVSPropertyOp5
 70
     1
102
RTVSPropertyOp6
 70
     1
102
RTVSPropertyOp7
 70
     1
102
RTVSPropertyOp8
 70
     1
102
RTVSPropertyOp9
 70
     1
102
RTVSPropertyOp10
 70
     1
102
RTVSPropertyOp11
 70
     1
102
RTVSPropertyOp12
 70
     1
102
RTVSPropertyOp13
 70
     1
102
RTVSPropertyOp14
 70
     1
102
RTVSPropertyOp15
 70
     1
102
RTVSPropertyOp16
 70
     1
102
RTVSPropertyOp17
 70
     1
102
RTVSPropertyOp18
 70
     1
102
RTVSPropertyOp19
 70
     1
102
RTVSPropertyOp20
 70
     1
102
RTVSPropertyOp21
 70
     1
102
RTVSPropertyOp22
 70
     1
102
RTVSPropertyOp23
 70
     1
102
RTVSPropertyOp24
 70
     1
102
RTVSPropertyOp25
 70
     1
102
RTVSPropertyOp26
 70
     1
102
RTVSPropertyOp27
 70
     1
102
RTVSPropertyOp28
 70
     1
102
RTVSPropertyOp29
 70
     1
102
RTVSPropertyOp30
 70
     1
102
RTVSPropertyOp31
 70
     1
102
RTVSPropertyOp32
 70
     1
  0
XRECORD
  5
3B9
102
{ACAD_REACTORS
330
3B8
102
}
330
3B8
100
AcDbXrecord
280
     1
102
RTVSPropertyOp0
 70
     1
102
RTVSPropertyOp1
 70
     1
102
RTVSPropertyOp2
 70
     1
102
RTVSPropertyOp3
 70
     1
102
RTVSPropertyOp4
 70
     1
102
RTVSPropertyOp5
 70
     1
102
RTVSPropertyOp6
 70
     1
102
RTVSPropertyOp7
 70
     1
102
RTVSPropertyOp8
 70
     1
102
RTVSPropertyOp9
 70
     1
102
RTVSPropertyOp10
 70
     1
102
RTVSPropertyOp11
 70
     1
102
RTVSPropertyOp12
 70
     1
102
RTVSPropertyOp13
 70
     1
102
RTVSPropertyOp14
 70
     1
102
RTVSPropertyOp15
 70
     1
102
RTVSPropertyOp16
 70
     1
102
RTVSPropertyOp17
 70
     1
102
RTVSPropertyOp18
 70
     1
102
RTVSPropertyOp19
 70
     1
102
RTVSPropertyOp20
 70
     1
102
RTVSPropertyOp21
 70
     1
102
RTVSPropertyOp22
 70
     1
102
RTVSPropertyOp23
 70
     1
102
RTVSPropertyOp24
 70
     1
102
RTVSPropertyOp25
 70
     1
102
RTVSPropertyOp26
 70
     1
102
RTVSPropertyOp27
 70
     1
102
RTVSPropertyOp28
 70
     1
102
RTVSPropertyOp29
 70
     1
102
RTVSPropertyOp30
 70
     1
102
RTVSPropertyOp31
 70
     1
102
RTVSPropertyOp32
 70
     1
  0
XRECORD
  5
39D
102
{ACAD_REACTORS
330
39C
102
}
330
39C
100
AcDbXrecord
280
     1
102
RTVSPropertyOp0
 70
     1
102
RTVSPropertyOp1
 70
     1
102
RTVSPropertyOp2
 70
     1
102
RTVSPropertyOp3
 70
     1
102
RTVSPropertyOp4
 70
     1
102
RTVSPropertyOp5
 70
     1
102
RTVSPropertyOp6
 70
     1
102
RTVSPropertyOp7
 70
     1
102
RTVSPropertyOp8
 70
     1
102
RTVSPropertyOp9
 70
     1
102
RTVSPropertyOp10
 70
     1
102
RTVSPropertyOp11
 70
     1
102
RTVSPropertyOp12
 70
     1
102
RTVSPropertyOp13
 70
     1
102
RTVSPropertyOp14
 70
     1
102
RTVSPropertyOp15
 70
     1
102
RTVSPropertyOp16
 70
     1
102
RTVSPropertyOp17
 70
     1
102
RTVSPropertyOp18
 70
     1
102
RTVSPropertyOp19
 70
     1
102
RTVSPropertyOp20
 70
     1
102
RTVSPropertyOp21
 70
     1
102
RTVSPropertyOp22
 70
     1
102
RTVSPropertyOp23
 70
     1
102
RTVSPropertyOp24
 70
     1
102
RTVSPropertyOp25
 70
     1
102
RTVSPropertyOp26
 70
     1
102
RTVSPropertyOp27
 70
     1
102
RTVSPropertyOp28
 70
     1
102
RTVSPropertyOp29
 70
     1
102
RTVSPropertyOp30
 70
     1
102
RTVSPropertyOp31
 70
     1
102
RTVSPropertyOp32
 70
     1
  0
XRECORD
  5
39F
102
{ACAD_REACTORS
330
39E
102
}
330
39E
100
AcDbXrecord
280
     1
102
RTVSPropertyOp0
 70
     1
102
RTVSPropertyOp1
 70
     1
102
RTVSPropertyOp2
 70
     1
102
RTVSPropertyOp3
 70
     1
102
RTVSPropertyOp4
 70
     1
102
RTVSPropertyOp5
 70
     1
102
RTVSPropertyOp6
 70
     1
102
RTVSPropertyOp7
 70
     1
102
RTVSPropertyOp8
 70
     1
102
RTVSPropertyOp9
 70
     1
102
RTVSPropertyOp10
 70
     1
102
RTVSPropertyOp11
 70
     1
102
RTVSPropertyOp12
 70
     1
102
RTVSPropertyOp13
 70
     1
102
RTVSPropertyOp14
 70
     1
102
RTVSPropertyOp15
 70
     1
102
RTVSPropertyOp16
 70
     1
102
RTVSPropertyOp17
 70
     1
102
RTVSPropertyOp18
 70
     1
102
RTVSPropertyOp19
 70
     1
102
RTVSPropertyOp20
 70
     1
102
RTVSPropertyOp21
 70
     1
102
RTVSPropertyOp22
 70
     1
102
RTVSPropertyOp23
 70
     1
102
RTVSPropertyOp24
 70
     1
102
RTVSPropertyOp25
 70
     1
102
RTVSPropertyOp26
 70
     1
102
RTVSPropertyOp27
 70
     1
102
RTVSPropertyOp28
 70
     1
102
RTVSPropertyOp29
 70
     1
102
RTVSPropertyOp30
 70
     1
102
RTVSPropertyOp31
 70
     1
102
RTVSPropertyOp32
 70
     1
  0
XRECORD
  5
3A1
102
{ACAD_REACTORS
330
3A0
102
}
330
3A0
100
AcDbXrecord
280
     1
102
RTVSPropertyOp0
 70
     1
102
RTVSPropertyOp1
 70
     1
102
RTVSPropertyOp2
 70
     1
102
RTVSPropertyOp3
 70
     1
102
RTVSPropertyOp4
 70
     1
102
RTVSPropertyOp5
 70
     1
102
RTVSPropertyOp6
 70
     1
102
RTVSPropertyOp7
 70
     1
102
RTVSPropertyOp8
 70
     1
102
RTVSPropertyOp9
 70
     1
102
RTVSPropertyOp10
 70
     1
102
RTVSPropertyOp11
 70
     1
102
RTVSPropertyOp12
 70
     1
102
RTVSPropertyOp13
 70
     1
102
RTVSPropertyOp14
 70
     1
102
RTVSPropertyOp15
 70
     1
102
RTVSPropertyOp16
 70
     1
102
RTVSPropertyOp17
 70
     1
102
RTVSPropertyOp18
 70
     1
102
RTVSPropertyOp19
 70
     1
102
RTVSPropertyOp20
 70
     1
102
RTVSPropertyOp21
 70
     1
102
RTVSPropertyOp22
 70
     1
102
RTVSPropertyOp23
 70
     1
102
RTVSPropertyOp24
 70
     1
102
RTVSPropertyOp25
 70
     1
102
RTVSPropertyOp26
 70
     1
102
RTVSPropertyOp27
 70
     1
102
RTVSPropertyOp28
 70
     1
102
RTVSPropertyOp29
 70
     1
102
RTVSPropertyOp30
 70
     1
102
RTVSPropertyOp31
 70
     1
102
RTVSPropertyOp32
 70
     1
  0
XRECORD
  5
3A3
102
{ACAD_REACTORS
330
3A2
102
}
330
3A2
100
AcDbXrecord
280
     1
102
RTVSPropertyOp0
 70
     1
102
RTVSPropertyOp1
 70
     1
102
RTVSPropertyOp2
 70
     1
102
RTVSPropertyOp3
 70
     1
102
RTVSPropertyOp4
 70
     1
102
RTVSPropertyOp5
 70
     1
102
RTVSPropertyOp6
 70
     1
102
RTVSPropertyOp7
 70
     1
102
RTVSPropertyOp8
 70
     1
102
RTVSPropertyOp9
 70
     1
102
RTVSPropertyOp10
 70
     1
102
RTVSPropertyOp11
 70
     1
102
RTVSPropertyOp12
 70
     1
102
RTVSPropertyOp13
 70
     1
102
RTVSPropertyOp14
 70
     1
102
RTVSPropertyOp15
 70
     1
102
RTVSPropertyOp16
 70
     1
102
RTVSPropertyOp17
 70
     1
102
RTVSPropertyOp18
 70
     1
102
RTVSPropertyOp19
 70
     1
102
RTVSPropertyOp20
 70
     1
102
RTVSPropertyOp21
 70
     1
102
RTVSPropertyOp22
 70
     1
102
RTVSPropertyOp23
 70
     1
102
RTVSPropertyOp24
 70
     1
102
RTVSPropertyOp25
 70
     1
102
RTVSPropertyOp26
 70
     1
102
RTVSPropertyOp27
 70
     1
102
RTVSPropertyOp28
 70
     1
102
RTVSPropertyOp29
 70
     1
102
RTVSPropertyOp30
 70
     1
102
RTVSPropertyOp31
 70
     1
102
RTVSPropertyOp32
 70
     1
  0
XRECORD
  5
3B7
102
{ACAD_REACTORS
330
3B6
102
}
330
3B6
100
AcDbXrecord
280
     1
102
RTVSPropertyOp0
 70
     1
102
RTVSPropertyOp1
 70
     1
102
RTVSPropertyOp2
 70
     1
102
RTVSPropertyOp3
 70
     1
102
RTVSPropertyOp4
 70
     1
102
RTVSPropertyOp5
 70
     1
102
RTVSPropertyOp6
 70
     1
102
RTVSPropertyOp7
 70
     1
102
RTVSPropertyOp8
 70
     1
102
RTVSPropertyOp9
 70
     1
102
RTVSPropertyOp10
 70
     1
102
RTVSPropertyOp11
 70
     1
102
RTVSPropertyOp12
 70
     1
102
RTVSPropertyOp13
 70
     1
102
RTVSPropertyOp14
 70
     1
102
RTVSPropertyOp15
 70
     1
102
RTVSPropertyOp16
 70
     1
102
RTVSPropertyOp17
 70
     1
102
RTVSPropertyOp18
 70
     1
102
RTVSPropertyOp19
 70
     1
102
RTVSPropertyOp20
 70
     1
102
RTVSPropertyOp21
 70
     1
102
RTVSPropertyOp22
 70
     1
102
RTVSPropertyOp23
 70
     1
102
RTVSPropertyOp24
 70
     1
102
RTVSPropertyOp25
 70
     1
102
RTVSPropertyOp26
 70
     1
102
RTVSPropertyOp27
 70
     1
102
RTVSPropertyOp28
 70
     1
102
RTVSPropertyOp29
 70
     1
102
RTVSPropertyOp30
 70
     1
102
RTVSPropertyOp31
 70
     1
102
RTVSPropertyOp32
 70
     1
  0
XRECORD
  5
3AD
102
{ACAD_REACTORS
330
3AC
102
}
330
3AC
100
AcDbXrecord
280
     1
102
RTVSPropertyOp0
 70
     1
102
RTVSPropertyOp1
 70
     1
102
RTVSPropertyOp2
 70
     1
102
RTVSPropertyOp3
 70
     1
102
RTVSPropertyOp4
 70
     1
102
RTVSPropertyOp5
 70
     1
102
RTVSPropertyOp6
 70
     1
102
RTVSPropertyOp7
 70
     1
102
RTVSPropertyOp8
 70
     1
102
RTVSPropertyOp9
 70
     1
102
RTVSPropertyOp10
 70
     1
102
RTVSPropertyOp11
 70
     1
102
RTVSPropertyOp12
 70
     1
102
RTVSPropertyOp13
 70
     1
102
RTVSPropertyOp14
 70
     1
102
RTVSPropertyOp15
 70
     1
102
RTVSPropertyOp16
 70
     1
102
RTVSPropertyOp17
 70
     1
102
RTVSPropertyOp18
 70
     1
102
RTVSPropertyOp19
 70
     1
102
RTVSPropertyOp20
 70
     1
102
RTVSPropertyOp21
 70
     1
102
RTVSPropertyOp22
 70
     1
102
RTVSPropertyOp23
 70
     1
102
RTVSPropertyOp24
 70
     1
102
RTVSPropertyOp25
 70
     1
102
RTVSPropertyOp26
 70
     1
102
RTVSPropertyOp27
 70
     1
102
RTVSPropertyOp28
 70
     1
102
RTVSPropertyOp29
 70
     1
102
RTVSPropertyOp30
 70
     1
102
RTVSPropertyOp31
 70
     1
102
RTVSPropertyOp32
 70
     1
  0
XRECORD
  5
3B5
102
{ACAD_REACTORS
330
3B4
102
}
330
3B4
100
AcDbXrecord
280
     1
102
RTVSPropertyOp0
 70
     1
102
RTVSPropertyOp1
 70
     1
102
RTVSPropertyOp2
 70
     1
102
RTVSPropertyOp3
 70
     1
102
RTVSPropertyOp4
 70
     1
102
RTVSPropertyOp5
 70
     1
102
RTVSPropertyOp6
 70
     1
102
RTVSPropertyOp7
 70
     1
102
RTVSPropertyOp8
 70
     1
102
RTVSPropertyOp9
 70
     1
102
RTVSPropertyOp10
 70
     1
102
RTVSPropertyOp11
 70
     1
102
RTVSPropertyOp12
 70
     1
102
RTVSPropertyOp13
 70
     1
102
RTVSPropertyOp14
 70
     1
102
RTVSPropertyOp15
 70
     1
102
RTVSPropertyOp16
 70
     1
102
RTVSPropertyOp17
 70
     1
102
RTVSPropertyOp18
 70
     1
102
RTVSPropertyOp19
 70
     1
102
RTVSPropertyOp20
 70
     1
102
RTVSPropertyOp21
 70
     1
102
RTVSPropertyOp22
 70
     1
102
RTVSPropertyOp23
 70
     1
102
RTVSPropertyOp24
 70
     1
102
RTVSPropertyOp25
 70
     1
102
RTVSPropertyOp26
 70
     1
102
RTVSPropertyOp27
 70
     1
102
RTVSPropertyOp28
 70
     1
102
RTVSPropertyOp29
 70
     1
102
RTVSPropertyOp30
 70
     1
102
RTVSPropertyOp31
 70
     1
102
RTVSPropertyOp32
 70
     1
  0
ENDSEC
  0
EOF
