  0
SECTION
  2
HEADER
  9
$ACADVER
  1
AC1015
  9
$ACADMAINTVER
 70
     6
  9
$DWGCODEPAGE
  3
ANSI_932
  9
$INSBASE
 10
0.0
 20
0.0
 30
0.0
  9
$EXTMIN
 10
-110.4069732547231
 20
-96.50913529381064
 30
0.0
  9
$EXTMAX
 10
99.59302674527692
 20
200.4908647061894
 30
0.0
  9
$LIMMIN
 10
0.0
 20
0.0
  9
$LIMMAX
 10
12.0
 20
9.0
  9
$ORTHOMODE
 70
     0
  9
$REGENMODE
 70
     1
  9
$FILLMODE
 70
     1
  9
$QTEXTMODE
 70
     0
  9
$MIRRTEXT
 70
     1
  9
$LTSCALE
 40
1.0
  9
$ATTMODE
 70
     1
  9
$TEXTSIZE
 40
0.2
  9
$TRACEWID
 40
0.05
  9
$TEXTSTYLE
  7
Standard
  9
$CLAYER
  8
0
  9
$CELTYPE
  6
ByLayer
  9
$CECOLOR
 62
   256
  9
$CELTSCALE
 40
1.0
  9
$DISPSILH
 70
     0
  9
$DIMSCALE
 40
1.0
  9
$DIMASZ
 40
0.18
  9
$DIMEXO
 40
0.0625
  9
$DIMDLI
 40
0.38
  9
$DIMRND
 40
0.0
  9
$DIMDLE
 40
0.0
  9
$DIMEXE
 40
0.18
  9
$DIMTP
 40
0.0
  9
$DIMTM
 40
0.0
  9
$DIMTXT
 40
0.18
  9
$DIMCEN
 40
0.09
  9
$DIMTSZ
 40
0.0
  9
$DIMTOL
 70
     0
  9
$DIMLIM
 70
     0
  9
$DIMTIH
 70
     1
  9
$DIMTOH
 70
     1
  9
$DIMSE1
 70
     0
  9
$DIMSE2
 70
     0
  9
$DIMTAD
 70
     0
  9
$DIMZIN
 70
     0
  9
$DIMBLK
  1

  9
$DIMASO
 70
     1
  9
$DIMSHO
 70
     1
  9
$DIMPOST
  1

  9
$DIMAPOST
  1

  9
$DIMALT
 70
     0
  9
$DIMALTD
 70
     2
  9
$DIMALTF
 40
25.4
  9
$DIMLFAC
 40
1.0
  9
$DIMTOFL
 70
     0
  9
$DIMTVP
 40
0.0
  9
$DIMTIX
 70
     0
  9
$DIMSOXD
 70
     0
  9
$DIMSAH
 70
     0
  9
$DIMBLK1
  1

  9
$DIMBLK2
  1

  9
$DIMSTYLE
  2
Standard
  9
$DIMCLRD
 70
     0
  9
$DIMCLRE
 70
     0
  9
$DIMCLRT
 70
     0
  9
$DIMTFAC
 40
1.0
  9
$DIMGAP
 40
0.09
  9
$DIMJUST
 70
     0
  9
$DIMSD1
 70
     0
  9
$DIMSD2
 70
     0
  9
$DIMTOLJ
 70
     1
  9
$DIMTZIN
 70
     0
  9
$DIMALTZ
 70
     0
  9
$DIMALTTZ
 70
     0
  9
$DIMUPT
 70
     0
  9
$DIMDEC
 70
     4
  9
$DIMTDEC
 70
     4
  9
$DIMALTU
 70
     2
  9
$DIMALTTD
 70
     2
  9
$DIMTXSTY
  7
Standard
  9
$DIMAUNIT
 70
     0
  9
$DIMADEC
 70
     0
  9
$DIMALTRND
 40
0.0
  9
$DIMAZIN
 70
     0
  9
$DIMDSEP
 70
    46
  9
$DIMATFIT
 70
     3
  9
$DIMFRAC
 70
     0
  9
$DIMLDRBLK
  1

  9
$DIMLUNIT
 70
     2
  9
$DIMLWD
 70
    -2
  9
$DIMLWE
 70
    -2
  9
$DIMTMOVE
 70
     0
  9
$LUNITS
 70
     2
  9
$LUPREC
 70
     4
  9
$SKETCHINC
 40
0.1
  9
$FILLETRAD
 40
0.5
  9
$AUNITS
 70
     0
  9
$AUPREC
 70
     0
  9
$MENU
  1
.
  9
$ELEVATION
 40
0.0
  9
$PELEVATION
 40
0.0
  9
$THICKNESS
 40
0.0
  9
$LIMCHECK
 70
     0
  9
$CHAMFERA
 40
0.5
  9
$CHAMFERB
 40
0.5
  9
$CHAMFERC
 40
1.0
  9
$CHAMFERD
 40
0.0
  9
$SKPOLY
 70
     0
  9
$TDCREATE
 40
2459615.585424421
  9
$TDUCREATE
 40
2459615.210424421
  9
$TDUPDATE
 40
2459615.585426875
  9
$TDUUPDATE
 40
2459615.210426875
  9
$TDINDWG
 40
0.0000000116
  9
$TDUSRTIMER
 40
0.0000000116
  9
$USRTIMER
 70
     1
  9
$ANGBASE
 50
0.0
  9
$ANGDIR
 70
     0
  9
$PDMODE
 70
     0
  9
$PDSIZE
 40
0.0
  9
$PLINEWID
 40
0.0
  9
$SPLFRAME
 70
     0
  9
$SPLINETYPE
 70
     6
  9
$SPLINESEGS
 70
     8
  9
$HANDSEED
  5
18D
  9
$SURFTAB1
 70
     6
  9
$SURFTAB2
 70
     6
  9
$SURFTYPE
 70
     6
  9
$SURFU
 70
     6
  9
$SURFV
 70
     6
  9
$UCSBASE
  2

  9
$UCSNAME
  2

  9
$UCSORG
 10
0.0
 20
0.0
 30
0.0
  9
$UCSXDIR
 10
1.0
 20
0.0
 30
0.0
  9
$UCSYDIR
 10
0.0
 20
1.0
 30
0.0
  9
$UCSORTHOREF
  2

  9
$UCSORTHOVIEW
 70
     0
  9
$UCSORGTOP
 10
0.0
 20
0.0
 30
0.0
  9
$UCSORGBOTTOM
 10
0.0
 20
0.0
 30
0.0
  9
$UCSORGLEFT
 10
0.0
 20
0.0
 30
0.0
  9
$UCSORGRIGHT
 10
0.0
 20
0.0
 30
0.0
  9
$UCSORGFRONT
 10
0.0
 20
0.0
 30
0.0
  9
$UCSORGBACK
 10
0.0
 20
0.0
 30
0.0
  9
$PUCSBASE
  2

  9
$PUCSNAME
  2

  9
$PUCSORG
 10
0.0
 20
0.0
 30
0.0
  9
$PUCSXDIR
 10
1.0
 20
0.0
 30
0.0
  9
$PUCSYDIR
 10
0.0
 20
1.0
 30
0.0
  9
$PUCSORTHOREF
  2

  9
$PUCSORTHOVIEW
 70
     0
  9
$PUCSORGTOP
 10
0.0
 20
0.0
 30
0.0
  9
$PUCSORGBOTTOM
 10
0.0
 20
0.0
 30
0.0
  9
$PUCSORGLEFT
 10
0.0
 20
0.0
 30
0.0
  9
$PUCSORGRIGHT
 10
0.0
 20
0.0
 30
0.0
  9
$PUCSORGFRONT
 10
0.0
 20
0.0
 30
0.0
  9
$PUCSORGBACK
 10
0.0
 20
0.0
 30
0.0
  9
$USERI1
 70
     0
  9
$USERI2
 70
     0
  9
$USERI3
 70
     0
  9
$USERI4
 70
     0
  9
$USERI5
 70
     0
  9
$USERR1
 40
18.1
  9
$USERR2
 40
0.0
  9
$USERR3
 40
0.0
  9
$USERR4
 40
0.0
  9
$USERR5
 40
0.0
  9
$WORLDVIEW
 70
     1
  9
$SHADEDGE
 70
     3
  9
$SHADEDIF
 70
    70
  9
$TILEMODE
 70
     1
  9
$MAXACTVP
 70
    64
  9
$PINSBASE
 10
0.0
 20
0.0
 30
0.0
  9
$PLIMCHECK
 70
     0
  9
$PEXTMIN
 10
1.00000000000000E+20
 20
1.00000000000000E+20
 30
1.00000000000000E+20
  9
$PEXTMAX
 10
-1.00000000000000E+20
 20
-1.00000000000000E+20
 30
-1.00000000000000E+20
  9
$PLIMMIN
 10
0.0
 20
0.0
  9
$PLIMMAX
 10
12.0
 20
9.0
  9
$UNITMODE
 70
     0
  9
$VISRETAIN
 70
     1
  9
$PLINEGEN
 70
     0
  9
$PSLTSCALE
 70
     1
  9
$TREEDEPTH
 70
  3020
  9
$CMLSTYLE
  2
Standard
  9
$CMLJUST
 70
     0
  9
$CMLSCALE
 40
1.0
  9
$PROXYGRAPHICS
 70
     1
  9
$MEASUREMENT
 70
     1
  9
$CELWEIGHT
370
    -1
  9
$ENDCAPS
280
     0
  9
$JOINSTYLE
280
     0
  9
$LWDISPLAY
290
     0
  9
$INSUNITS
 70
     4
  9
$HYPERLINKBASE
  1

  9
$STYLESHEET
  1

  9
$XEDIT
290
     1
  9
$CEPSNTYPE
380
     0
  9
$PSTYLEMODE
290
     1
  9
$FINGERPRINTGUID
  2
{85D9860C-320F-4AAD-8B11-6D34583832E6}
  9
$VERSIONGUID
  2
{FAEB1C32-E019-11D5-929B-00C0DF256EC4}
  9
$EXTNAMES
290
     1
  9
$PSVPSCALE
 40
0.0
  9
$OLESTARTUP
290
     0
  0
ENDSEC
  0
SECTION
  2
CLASSES
  0
CLASS
  1
ACDBDICTIONARYWDFLT
  2
AcDbDictionaryWithDefault
  3
ObjectDBX Classes
 90
        0
280
     0
281
     0
  0
CLASS
  1
VISUALSTYLE
  2
AcDbVisualStyle
  3
ObjectDBX Classes
 90
     4095
280
     0
281
     0
  0
CLASS
  1
MATERIAL
  2
AcDbMaterial
  3
ObjectDBX Classes
 90
     1153
280
     0
281
     0
  0
CLASS
  1
DICTIONARYVAR
  2
AcDbDictionaryVar
  3
ObjectDBX Classes
 90
        0
280
     0
281
     0
  0
CLASS
  1
ACDBPLACEHOLDER
  2
AcDbPlaceHolder
  3
ObjectDBX Classes
 90
        0
280
     0
281
     0
  0
CLASS
  1
LAYOUT
  2
AcDbLayout
  3
ObjectDBX Classes
 90
        0
280
     0
281
     0
  0
ENDSEC
  0
SECTION
  2
TABLES
  0
TABLE
  2
VPORT
  5
8
330
0
100
AcDbSymbolTable
 70
     1
  0
VPORT
  5
29
330
8
100
AcDbSymbolTableRecord
100
AcDbViewportTableRecord
  2
*Active
 70
     0
 10
0.0
 20
0.0
 11
1.0
 21
1.0
 12
-5.40697325472309
 22
51.99086470618938
 13
0.0
 23
0.0
 14
0.5
 24
0.5
 15
0.5
 25
0.5
 16
0.0
 26
0.0
 36
1.0
 17
0.0
 27
0.0
 37
0.0
 40
326.7000000000001
 41
1.60267857142857
 42
50.0
 43
0.0
 44
0.0
 50
0.0
 51
0.0
 71
     0
 72
   100
 73
     1
 74
     3
 75
     0
 76
     0
 77
     0
 78
     0
281
     0
 65
     1
110
0.0
120
0.0
130
0.0
111
1.0
121
0.0
131
0.0
112
0.0
122
1.0
132
0.0
 79
     0
146
0.0
  0
ENDTAB
  0
TABLE
  2
LTYPE
  5
5
330
0
100
AcDbSymbolTable
 70
     8
  0
LTYPE
  5
14
330
5
100
AcDbSymbolTableRecord
100
AcDbLinetypeTableRecord
  2
ByBlock
 70
     0
  3

 72
    65
 73
     0
 40
0.0
  0
LTYPE
  5
15
330
5
100
AcDbSymbolTableRecord
100
AcDbLinetypeTableRecord
  2
ByLayer
 70
     0
  3

 72
    65
 73
     0
 40
0.0
  0
LTYPE
  5
16
330
5
100
AcDbSymbolTableRecord
100
AcDbLinetypeTableRecord
  2
Continuous
 70
     0
  3
Solid line
 72
    65
 73
     0
 40
0.0
  0
LTYPE
  5
3F
330
5
100
AcDbSymbolTableRecord
100
AcDbLinetypeTableRecord
  2
DASHED
 70
     0
  3
Dashed
 72
    65
 73
     2
 40
15.0
 49
7.0
 74
     0
 49
-8.0
 74
     0
  0
LTYPE
  5
40
330
5
100
AcDbSymbolTableRecord
100
AcDbLinetypeTableRecord
  2
DOTTED
 70
     0
  3
Dotted
 72
    65
 73
     2
 40
1.0
 49
0.0
 74
     0
 49
-1.0
 74
     0
  0
LTYPE
  5
41
330
5
100
AcDbSymbolTableRecord
100
AcDbLinetypeTableRecord
  2
DOT_CENTER
 70
     0
  3
Dot_Center
 72
    65
 73
     4
 40
14.0
 49
12.0
 74
     0
 49
-1.0
 74
     0
 49
0.0
 74
     0
 49
-1.0
 74
     0
  0
LTYPE
  5
42
330
5
100
AcDbSymbolTableRecord
100
AcDbLinetypeTableRecord
  2
LONG_DASHED
 70
     0
  3
Long_Dashed
 72
    65
 73
     2
 40
15.0
 49
10.0
 74
     0
 49
-5.0
 74
     0
  0
LTYPE
  5
43
330
5
100
AcDbSymbolTableRecord
100
AcDbLinetypeTableRecord
  2
DASH_CENTER
 70
     0
  3
Dash_Center
 72
    65
 73
     4
 40
14.0
 49
11.0
 74
     0
 49
-1.0
 74
     0
 49
1.0
 74
     0
 49
-1.0
 74
     0
  0
LTYPE
  5
44
330
5
100
AcDbSymbolTableRecord
100
AcDbLinetypeTableRecord
  2
PHANTOM
 70
     0
  3
Phantom
 72
    65
 73
     6
 40
13.0
 49
10.0
 74
     0
 49
-1.0
 74
     0
 49
0.0
 74
     0
 49
-1.0
 74
     0
 49
0.0
 74
     0
 49
-1.0
 74
     0
  0
LTYPE
  5
45
330
5
100
AcDbSymbolTableRecord
100
AcDbLinetypeTableRecord
  2
CENTER_DASH_DASH
 70
     0
  3
Center_Dash_Dash
 72
    65
 73
     6
 40
14.0
 49
9.0
 74
     0
 49
-1.0
 74
     0
 49
1.0
 74
     0
 49
-1.0
 74
     0
 49
1.0
 74
     0
 49
-1.0
 74
     0
  0
ENDTAB
  0
TABLE
  2
LAYER
  5
2
330
0
100
AcDbSymbolTable
 70
     3
  0
LAYER
  5
10
330
2
100
AcDbSymbolTableRecord
100
AcDbLayerTableRecord
  2
0
 70
     0
 62
     7
  6
Continuous
370
    -3
390
F
  0
LAYER
  5
46
330
2
100
AcDbSymbolTableRecord
100
AcDbLayerTableRecord
  2
1
 70
     0
 62
     7
  6
Continuous
370
    -3
390
F
  0
LAYER
  5
47
330
2
100
AcDbSymbolTableRecord
100
AcDbLayerTableRecord
  2
_U_30EC_U_30A4_U_30E4_U_30FC_1
 70
     0
 62
     7
  6
Continuous
370
    -3
390
F
  0
ENDTAB
  0
TABLE
  2
STYLE
  5
3
330
0
100
AcDbSymbolTable
 70
     3
  0
STYLE
  5
11
330
3
100
AcDbSymbolTableRecord
100
AcDbTextStyleTableRecord
  2
Standard
 70
     0
 40
0.0
 41
1.0
 50
0.0
 71
     0
 42
0.2
  3
txt
  4

  0
STYLE
  5
BE
330
3
100
AcDbSymbolTableRecord
100
AcDbTextStyleTableRecord
  2
CONVERTER_11
 70
     0
 40
0.0
 41
0.89
 50
0.0
 71
     0
 42
0.2
  3
MS Mincho.ttf
  4

1001
ACAD
1000
MS Mincho
1071
    32785
  0
STYLE
  5
10A
330
3
100
AcDbSymbolTableRecord
100
AcDbTextStyleTableRecord
  2
CONVERTER_12
 70
     0
 40
0.0
 41
0.9
 50
0.0
 71
     0
 42
0.2
  3
txt.shx
  4

  0
ENDTAB
  0
TABLE
  2
VIEW
  5
6
330
0
100
AcDbSymbolTable
 70
     0
  0
ENDTAB
  0
TABLE
  2
UCS
  5
7
330
0
100
AcDbSymbolTable
 70
     0
  0
ENDTAB
  0
TABLE
  2
APPID
  5
9
330
0
100
AcDbSymbolTable
 70
     1
  0
APPID
  5
12
330
9
100
AcDbSymbolTableRecord
100
AcDbRegAppTableRecord
  2
ACAD
 70
     0
  0
ENDTAB
  0
TABLE
  2
DIMSTYLE
  5
A
330
0
100
AcDbSymbolTable
 70
     7
100
AcDbDimStyleTable
  0
DIMSTYLE
105
27
330
A
100
AcDbSymbolTableRecord
100
AcDbDimStyleTableRecord
  2
Standard
 70
     0
178
     0
340
11
  0
DIMSTYLE
105
121
102
{ACAD_REACTORS
330
122
102
}
330
A
100
AcDbSymbolTableRecord
100
AcDbDimStyleTableRecord
  2
ME10_DIM_10
 70
     0
 41
3.5
 42
0.0
 44
2.0
 73
     0
 74
     0
 77
     1
 78
     8
140
3.0
147
2.0
172
     1
173
     1
174
     1
175
     1
176
     2
177
     2
271
     2
178
     7
271
     2
340
10A
  0
DIMSTYLE
105
12C
102
{ACAD_REACTORS
330
12D
102
}
330
A
100
AcDbSymbolTableRecord
100
AcDbDimStyleTableRecord
  2
ME10_DIM_11
 70
     0
  3
{\Fgdt;n}<>
 41
3.5
 42
0.0
 44
2.0
 73
     0
 74
     0
 77
     1
 78
     8
140
3.0
147
2.0
172
     1
173
     1
174
     1
175
     1
176
     2
177
     2
271
     2
178
     7
271
     2
340
10A
  0
DIMSTYLE
105
137
102
{ACAD_REACTORS
330
138
102
}
330
A
100
AcDbSymbolTableRecord
100
AcDbDimStyleTableRecord
  2
ME10_DIM_12
 70
     0
  3
{\Fgdt;n}<>
 41
3.5
 42
0.0
 44
2.0
 73
     0
 74
     0
 77
     1
 78
     8
140
3.0
147
2.0
172
     1
173
     1
174
     1
175
     1
176
     2
177
     2
271
     2
178
     7
271
     2
340
10A
  0
DIMSTYLE
105
142
102
{ACAD_REACTORS
330
143
102
}
330
A
100
AcDbSymbolTableRecord
100
AcDbDimStyleTableRecord
  2
ME10_DIM_13
 70
     0
  3
{\Fgdt;n}<>
 41
3.5
 42
0.0
 44
2.0
 73
     0
 74
     0
 77
     1
 78
    12
140
3.0
147
2.0
172
     1
173
     1
174
     1
175
     1
176
     2
177
     2
271
     0
178
     7
271
     0
340
10A
  0
DIMSTYLE
105
14D
102
{ACAD_REACTORS
330
14E
102
}
330
A
100
AcDbSymbolTableRecord
100
AcDbDimStyleTableRecord
  2
ME10_DIM_14
 70
     0
 41
3.5
 42
0.0
 44
2.0
 73
     0
 74
     0
 77
     1
 78
     8
140
3.0
147
2.0
172
     1
173
     1
174
     1
175
     1
176
     2
177
     2
271
     2
178
     7
271
     2
340
10A
  0
DIMSTYLE
105
158
102
{ACAD_REACTORS
330
159
102
}
330
A
100
AcDbSymbolTableRecord
100
AcDbDimStyleTableRecord
  2
ME10_DIM_15
 70
     0
 41
3.5
 42
0.0
 44
2.0
 73
     0
 74
     0
 77
     1
 78
     8
140
3.0
147
2.0
172
     1
173
     1
174
     1
175
     1
176
     2
177
     2
271
     2
178
     7
271
     2
340
10A
  0
ENDTAB
  0
TABLE
  2
BLOCK_RECORD
  5
1
330
0
100
AcDbSymbolTable
 70
    13
  0
BLOCK_RECORD
  5
1F
330
1
100
AcDbSymbolTableRecord
100
AcDbBlockTableRecord
  2
*Model_Space
340
22
  0
BLOCK_RECORD
  5
1B
330
1
100
AcDbSymbolTableRecord
100
AcDbBlockTableRecord
  2
*Paper_Space
340
1E
  0
BLOCK_RECORD
  5
23
330
1
100
AcDbSymbolTableRecord
100
AcDbBlockTableRecord
  2
*Paper_Space0
340
26
  0
BLOCK_RECORD
  5
48
330
1
100
AcDbSymbolTableRecord
100
AcDbBlockTableRecord
  2
開示A4
340
0
102
{BLKREFS
331
4C
102
}
  0
BLOCK_RECORD
  5
4B
330
1
100
AcDbSymbolTableRecord
100
AcDbBlockTableRecord
  2
開示A4枠
340
0
102
{BLKREFS
331
58
102
}
  0
BLOCK_RECORD
  5
4F
330
1
100
AcDbSymbolTableRecord
100
AcDbBlockTableRecord
  2
packin
340
0
102
{BLKREFS
331
59
102
}
  0
BLOCK_RECORD
  5
52
330
1
100
AcDbSymbolTableRecord
100
AcDbBlockTableRecord
  2
body
340
0
102
{BLKREFS
331
5A
102
}
  0
BLOCK_RECORD
  5
55
330
1
100
AcDbSymbolTableRecord
100
AcDbBlockTableRecord
  2
adaputer
340
0
102
{BLKREFS
331
5B
102
}
  0
BLOCK_RECORD
  5
118
330
1
100
AcDbSymbolTableRecord
100
AcDbBlockTableRecord
  2
*D6
340
0
  0
BLOCK_RECORD
  5
123
330
1
100
AcDbSymbolTableRecord
100
AcDbBlockTableRecord
  2
*D7
340
0
  0
BLOCK_RECORD
  5
12E
330
1
100
AcDbSymbolTableRecord
100
AcDbBlockTableRecord
  2
*D8
340
0
  0
BLOCK_RECORD
  5
139
330
1
100
AcDbSymbolTableRecord
100
AcDbBlockTableRecord
  2
*D9
340
0
  0
BLOCK_RECORD
  5
144
330
1
100
AcDbSymbolTableRecord
100
AcDbBlockTableRecord
  2
*D10
340
0
  0
BLOCK_RECORD
  5
14F
330
1
100
AcDbSymbolTableRecord
100
AcDbBlockTableRecord
  2
*D11
340
0
  0
BLOCK_RECORD
  5
15A
330
1
100
AcDbSymbolTableRecord
100
AcDbBlockTableRecord
  2
*D12
340
0
102
{BLKREFS
331
161
102
}
  0
ENDTAB
  0
ENDSEC
  0
SECTION
  2
BLOCKS
  0
BLOCK
  5
20
330
1F
100
AcDbEntity
  8
0
100
AcDbBlockBegin
  2
*Model_Space
 70
     0
 10
0.0
 20
0.0
 30
0.0
  3
*Model_Space
  1

  0
ENDBLK
  5
21
330
1F
100
AcDbEntity
  8
0
100
AcDbBlockEnd
  0
BLOCK
  5
1C
330
1B
100
AcDbEntity
 67
     1
  8
0
100
AcDbBlockBegin
  2
*Paper_Space
 70
     0
 10
0.0
 20
0.0
 30
0.0
  3
*Paper_Space
  1

  0
ENDBLK
  5
1D
330
1B
100
AcDbEntity
 67
     1
  8
0
100
AcDbBlockEnd
  0
BLOCK
  5
24
330
23
100
AcDbEntity
  8
0
100
AcDbBlockBegin
  2
*Paper_Space0
 70
     0
 10
0.0
 20
0.0
 30
0.0
  3
*Paper_Space0
  1

  0
ENDBLK
  5
25
330
23
100
AcDbEntity
  8
0
100
AcDbBlockEnd
  0
BLOCK
  5
49
330
48
100
AcDbEntity
  8
0
100
AcDbBlockBegin
  2
開示A4
 70
     0
 10
-110.4069732547231
 20
-96.50913529381064
 30
0.0
  3
開示A4
  1

  0
POINT
  5
5C
330
48
100
AcDbEntity
  8
1
 62
     4
100
AcDbPoint
 10
72.59302674527692
 20
-81.50913529381063
 30
0.0
  0
POINT
  5
5D
330
48
100
AcDbEntity
  8
1
 62
     4
100
AcDbPoint
 10
-16.65697325472308
 20
-79.50913529381064
 30
0.0
  0
POINT
  5
5E
330
48
100
AcDbEntity
  8
1
 62
     4
100
AcDbPoint
 10
-25.15697325472308
 20
-79.50913529381064
 30
0.0
  0
POINT
  5
5F
330
48
100
AcDbEntity
  8
1
 62
     4
100
AcDbPoint
 10
-3.90697325472308
 20
-77.50913529381063
 30
0.0
  0
POINT
  5
60
330
48
100
AcDbEntity
  8
1
 62
     4
100
AcDbPoint
 10
-3.90697325472308
 20
-84.00913529381064
 30
0.0
  0
POINT
  5
61
330
48
100
AcDbEntity
  8
1
 62
     4
100
AcDbPoint
 10
1.84302674527692
 20
-84.00913529381064
 30
0.0
  0
POINT
  5
62
330
48
100
AcDbEntity
  8
1
 62
     4
100
AcDbPoint
 10
-9.65697325472308
 20
-84.00913529381064
 30
0.0
  0
POINT
  5
63
330
48
100
AcDbEntity
  8
1
 62
     4
100
AcDbPoint
 10
13.09302674527692
 20
-77.50913529381063
 30
0.0
  0
POINT
  5
64
330
48
100
AcDbEntity
  8
1
 62
     4
100
AcDbPoint
 10
13.09302674527692
 20
-84.00913529381064
 30
0.0
  0
POINT
  5
65
330
48
100
AcDbEntity
  8
1
 62
     4
100
AcDbPoint
 10
18.84302674527692
 20
-84.00913529381064
 30
0.0
  0
POINT
  5
66
330
48
100
AcDbEntity
  8
1
 62
     4
100
AcDbPoint
 10
7.34302674527692
 20
-84.00913529381064
 30
0.0
  0
POINT
  5
67
330
48
100
AcDbEntity
  8
1
 62
     4
100
AcDbPoint
 10
30.09302674527692
 20
-77.50913529381063
 30
0.0
  0
POINT
  5
68
330
48
100
AcDbEntity
  8
1
 62
     4
100
AcDbPoint
 10
30.09302674527692
 20
-84.00913529381064
 30
0.0
  0
POINT
  5
69
330
48
100
AcDbEntity
  8
1
 62
     4
100
AcDbPoint
 10
35.84302674527692
 20
-84.00913529381064
 30
0.0
  0
POINT
  5
6A
330
48
100
AcDbEntity
  8
1
 62
     4
100
AcDbPoint
 10
24.34302674527692
 20
-84.00913529381064
 30
0.0
  0
POINT
  5
6B
330
48
100
AcDbEntity
  8
1
 62
     4
100
AcDbPoint
 10
41.34302674527692
 20
-84.00913529381064
 30
0.0
  0
POINT
  5
6C
330
48
100
AcDbEntity
  8
1
 62
     4
100
AcDbPoint
 10
52.84302674527692
 20
-84.00913529381064
 30
0.0
  0
POINT
  5
6D
330
48
100
AcDbEntity
  8
1
 62
     4
100
AcDbPoint
 10
47.09302674527692
 20
-84.00913529381064
 30
0.0
  0
POINT
  5
6E
330
48
100
AcDbEntity
  8
1
 62
     4
100
AcDbPoint
 10
-53.40697325472308
 20
-82.25913529381064
 30
0.0
  0
POINT
  5
6F
330
48
100
AcDbEntity
  8
1
 62
     4
100
AcDbPoint
 10
-53.40697325472308
 20
-73.75913529381063
 30
0.0
  0
POINT
  5
70
330
48
100
AcDbEntity
  8
1
 62
     4
100
AcDbPoint
 10
-62.90697325472308
 20
185.4908647061897
 30
0.0
  0
POINT
  5
71
330
48
100
AcDbEntity
  8
1
 62
     4
100
AcDbPoint
 10
47.09302674527692
 20
-77.50913529381063
 30
0.0
  0
POINT
  5
72
330
48
100
AcDbEntity
  8
1
 62
     4
100
AcDbPoint
 10
-53.40697325472308
 20
-80.25913529381064
 30
0.0
  0
POINT
  5
73
330
48
100
AcDbEntity
  8
1
 62
     4
100
AcDbPoint
 10
-53.40697325472308
 20
-71.75913529381063
 30
0.0
  0
POINT
  5
74
330
48
100
AcDbEntity
  8
1
 62
     4
100
AcDbPoint
 10
-53.40697325472308
 20
-75.75913529381063
 30
0.0
  0
POINT
  5
75
330
48
100
AcDbEntity
  8
1
 62
     4
100
AcDbPoint
 10
-53.40697325472308
 20
-84.25913529381064
 30
0.0
  0
POINT
  5
76
330
48
100
AcDbEntity
  8
1
 62
     4
100
AcDbPoint
 10
-76.40697325472308
 20
-62.50913529381063
 30
0.0
  0
LINE
  5
7B
330
48
100
AcDbEntity
  8
1
  6
Continuous
 62
     7
100
AcDbLine
 10
-5.40697325472308
 20
-86.50913529381064
 30
0.0
 11
89.59302674527692
 21
-86.50913529381064
 31
0.0
  0
LINE
  5
7C
330
48
100
AcDbEntity
  8
1
  6
Continuous
 62
     2
100
AcDbLine
 10
-5.40697325472308
 20
-86.50913529381064
 30
0.0
 11
-5.40697325472308
 21
-91.50913529381064
 31
0.0
  0
LINE
  5
7D
330
48
100
AcDbEntity
  8
1
  6
Continuous
 62
     7
100
AcDbLine
 10
89.59302674527692
 20
51.99086470618937
 30
0.0
 11
89.59302674527692
 21
190.4908647061897
 31
0.0
  0
LINE
  5
7E
330
48
100
AcDbEntity
  8
1
  6
Continuous
 62
     2
100
AcDbLine
 10
89.59302674527692
 20
51.99086470618937
 30
0.0
 11
94.59302674527692
 21
51.99086470618937
 31
0.0
  0
LINE
  5
7F
330
48
100
AcDbEntity
  8
1
  6
Continuous
 62
     7
100
AcDbLine
 10
-85.40697325472308
 20
51.99086470618937
 30
0.0
 11
-85.40697325472308
 21
190.4908647061897
 31
0.0
  0
LINE
  5
80
330
48
100
AcDbEntity
  8
1
  6
Continuous
 62
     2
100
AcDbLine
 10
-85.40697325472308
 20
51.99086470618937
 30
0.0
 11
-90.40697325472308
 21
51.99086470618937
 31
0.0
  0
LINE
  5
81
330
48
100
AcDbEntity
  8
1
  6
Continuous
 62
     7
100
AcDbLine
 10
-5.40697325472308
 20
190.4908647061897
 30
0.0
 11
-85.40697325472308
 21
190.4908647061897
 31
0.0
  0
LINE
  5
82
330
48
100
AcDbEntity
  8
1
  6
Continuous
 62
     2
100
AcDbLine
 10
-5.40697325472308
 20
190.4908647061897
 30
0.0
 11
-5.40697325472308
 21
195.4908647061897
 31
0.0
  0
LINE
  5
83
330
48
100
AcDbEntity
  8
1
  6
Continuous
 62
     2
100
AcDbLine
 10
55.59302674527692
 20
-76.50913529381063
 30
0.0
 11
89.59302674527692
 21
-76.50913529381063
 31
0.0
  0
LINE
  5
84
330
48
100
AcDbEntity
  8
1
  6
Continuous
 62
     2
100
AcDbLine
 10
-12.40697325472308
 20
-69.50913529381063
 30
0.0
 11
-12.40697325472308
 21
-86.50913529381066
 31
0.0
  0
LINE
  5
85
330
48
100
AcDbEntity
  8
1
  6
Continuous
 62
     2
100
AcDbLine
 10
4.59302674527692
 20
-69.50913529381063
 30
0.0
 11
4.59302674527692
 21
-86.50913529381066
 31
0.0
  0
LINE
  5
86
330
48
100
AcDbEntity
  8
1
  6
Continuous
 62
     2
100
AcDbLine
 10
38.59302674527692
 20
-69.50913529381063
 30
0.0
 11
38.59302674527692
 21
-86.50913529381064
 31
0.0
  0
LINE
  5
87
330
48
100
AcDbEntity
  8
1
  6
Continuous
 62
     2
100
AcDbLine
 10
21.59302674527692
 20
-69.50913529381063
 30
0.0
 11
21.59302674527692
 21
-86.50913529381066
 31
0.0
  0
LINE
  5
88
330
48
100
AcDbEntity
  8
1
  6
Continuous
 62
     2
100
AcDbLine
 10
55.59302674527692
 20
-69.50913529381063
 30
0.0
 11
55.59302674527692
 21
-86.50913529381064
 31
0.0
  0
LINE
  5
89
330
48
100
AcDbEntity
  8
1
  6
Continuous
 62
     2
100
AcDbLine
 10
-55.40697325472308
 20
180.4908647061897
 30
0.0
 11
-85.40697325472308
 21
180.4908647061897
 31
0.0
  0
LINE
  5
8A
330
48
100
AcDbEntity
  8
1
  6
Continuous
 62
     7
100
AcDbLine
 10
-85.40697325472308
 20
-86.50913529381064
 30
0.0
 11
-85.40697325472308
 21
51.99086470618937
 31
0.0
  0
LINE
  5
8B
330
48
100
AcDbEntity
  8
1
  6
Continuous
 62
     2
100
AcDbLine
 10
-70.40697325472308
 20
190.4908647061897
 30
0.0
 11
-70.40697325472308
 21
180.4908647061897
 31
0.0
  0
LINE
  5
8C
330
48
100
AcDbEntity
  8
1
  6
Continuous
 62
     2
100
AcDbLine
 10
-55.40697325472308
 20
190.4908647061897
 30
0.0
 11
-55.40697325472308
 21
180.4908647061897
 31
0.0
  0
LINE
  5
8D
330
48
100
AcDbEntity
  8
1
  6
Continuous
 62
     2
100
AcDbLine
 10
-77.40697325472308
 20
-55.50913529381063
 30
0.0
 11
-77.40697325472308
 21
-69.50913529381064
 31
0.0
  0
LINE
  5
8E
330
48
100
AcDbEntity
  8
1
  6
Continuous
 62
     7
100
AcDbLine
 10
89.59302674527692
 20
-69.50913529381063
 30
0.0
 11
-85.40697325472308
 21
-69.50913529381063
 31
0.0
  0
LINE
  5
8F
330
48
100
AcDbEntity
  8
1
  6
Continuous
 62
     7
100
AcDbLine
 10
-85.40697325472308
 20
-55.50913529381064
 30
0.0
 11
89.59302674527692
 21
-55.50913529381064
 31
0.0
  0
LINE
  5
90
330
48
100
AcDbEntity
  8
1
  6
PHANTOM
 62
     4
100
AcDbLine
 10
-110.4069732547231
 20
-96.50913529381064
 30
0.0
 11
99.59302674527692
 21
-96.50913529381064
 31
0.0
  0
LINE
  5
91
330
48
100
AcDbEntity
  8
1
  6
PHANTOM
 62
     4
100
AcDbLine
 10
99.59302674527692
 20
-96.50913529381064
 30
0.0
 11
99.59302674527692
 21
200.4908647061894
 31
0.0
  0
LINE
  5
92
330
48
100
AcDbEntity
  8
1
  6
PHANTOM
 62
     4
100
AcDbLine
 10
99.59302674527692
 20
200.4908647061894
 30
0.0
 11
-110.4069732547231
 21
200.4908647061894
 31
0.0
  0
LINE
  5
93
330
48
100
AcDbEntity
  8
1
  6
PHANTOM
 62
     4
100
AcDbLine
 10
-110.4069732547231
 20
200.4908647061894
 30
0.0
 11
-110.4069732547231
 21
-96.50913529381064
 31
0.0
  0
LINE
  5
94
330
48
100
AcDbEntity
  8
1
  6
Continuous
 62
     7
100
AcDbLine
 10
-85.40697325472308
 20
-86.50913529381064
 30
0.0
 11
-5.40697325472308
 21
-86.50913529381064
 31
0.0
  0
LINE
  5
95
330
48
100
AcDbEntity
  8
1
  6
Continuous
 62
     7
100
AcDbLine
 10
89.59302674527692
 20
-86.50913529381064
 30
0.0
 11
89.59302674527692
 21
51.99086470618937
 31
0.0
  0
LINE
  5
96
330
48
100
AcDbEntity
  8
1
  6
Continuous
 62
     7
100
AcDbLine
 10
89.59302674527692
 20
190.4908647061897
 30
0.0
 11
-5.40697325472308
 21
190.4908647061897
 31
0.0
  0
LINE
  5
97
330
48
100
AcDbEntity
  8
1
  6
Continuous
 62
     2
100
AcDbLine
 10
-85.40697325472308
 20
-78.00913529381063
 30
0.0
 11
-29.40697325472308
 21
-78.00913529381063
 31
0.0
  0
LINE
  5
98
330
48
100
AcDbEntity
  8
1
  6
Continuous
 62
     2
100
AcDbLine
 10
-77.40697325472308
 20
-69.50913529381064
 30
0.0
 11
-77.40697325472308
 21
-86.50913529381064
 31
0.0
  0
LINE
  5
99
330
48
100
AcDbEntity
  8
1
  6
Continuous
 62
     7
100
AcDbLine
 10
80.59302674527692
 20
-71.80913529381064
 30
0.0
 11
80.59302674527692
 21
-74.20913529381063
 31
0.0
  0
LINE
  5
9A
330
48
100
AcDbEntity
  8
1
  6
Continuous
 62
     7
100
AcDbLine
 10
80.59302674527692
 20
-71.80913529381064
 30
0.0
 11
85.59302674527692
 21
-71.00913529381063
 31
0.0
  0
LINE
  5
9B
330
48
100
AcDbEntity
  8
1
  6
Continuous
 62
     7
100
AcDbLine
 10
85.59302674527692
 20
-71.00913529381063
 30
0.0
 11
85.59302674527692
 21
-75.00913529381063
 31
0.0
  0
LINE
  5
9C
330
48
100
AcDbEntity
  8
1
  6
Continuous
 62
     7
100
AcDbLine
 10
85.59302674527692
 20
-75.00913529381063
 30
0.0
 11
80.59302674527692
 21
-74.20913529381063
 31
0.0
  0
LINE
  5
9D
330
48
100
AcDbEntity
  8
1
  6
DOT_CENTER
 62
     2
100
AcDbLine
 10
73.59302674527692
 20
-73.00913529381063
 30
0.0
 11
86.59302674527692
 21
-73.00913529381063
 31
0.0
  0
LINE
  5
9E
330
48
100
AcDbEntity
  8
1
  6
DOT_CENTER
 62
     2
100
AcDbLine
 10
76.59302674527692
 20
-70.00913529381063
 30
0.0
 11
76.59302674527692
 21
-76.00913529381063
 31
0.0
  0
LINE
  5
9F
330
48
100
AcDbEntity
  8
1
  6
Continuous
 62
     2
100
AcDbLine
 10
-29.40697325472308
 20
-69.50913529381063
 30
0.0
 11
-29.40697325472308
 21
-86.50913529381064
 31
0.0
  0
CIRCLE
  5
A0
330
48
100
AcDbEntity
  8
1
  6
Continuous
 62
     7
100
AcDbCircle
 10
-6.90697325472308
 20
-84.00913529381064
 30
0.0
 40
0.2999999999999545
  0
CIRCLE
  5
A1
330
48
100
AcDbEntity
  8
1
  6
Continuous
 62
     7
100
AcDbCircle
 10
-0.90697325472308
 20
-84.00913529381064
 30
0.0
 40
0.2999999999999545
  0
CIRCLE
  5
A2
330
48
100
AcDbEntity
  8
1
  6
Continuous
 62
     7
100
AcDbCircle
 10
10.09302674527692
 20
-84.00913529381064
 30
0.0
 40
0.299999999999951
  0
CIRCLE
  5
A3
330
48
100
AcDbEntity
  8
1
  6
Continuous
 62
     7
100
AcDbCircle
 10
16.09302674527692
 20
-84.00913529381064
 30
0.0
 40
0.299999999999951
  0
CIRCLE
  5
A4
330
48
100
AcDbEntity
  8
1
  6
Continuous
 62
     7
100
AcDbCircle
 10
27.09302674527692
 20
-84.00913529381064
 30
0.0
 40
0.299999999999951
  0
CIRCLE
  5
A5
330
48
100
AcDbEntity
  8
1
  6
Continuous
 62
     7
100
AcDbCircle
 10
33.09302674527692
 20
-84.00913529381064
 30
0.0
 40
0.2999999999999474
  0
CIRCLE
  5
A6
330
48
100
AcDbEntity
  8
1
  6
Continuous
 62
     7
100
AcDbCircle
 10
50.09302674527692
 20
-84.00913529381064
 30
0.0
 40
0.2999999999999474
  0
CIRCLE
  5
A7
330
48
100
AcDbEntity
  8
1
  6
Continuous
 62
     7
100
AcDbCircle
 10
44.09302674527692
 20
-84.00913529381064
 30
0.0
 40
0.2999999999999474
  0
CIRCLE
  5
A8
330
48
100
AcDbEntity
  8
1
  6
Continuous
 62
     7
100
AcDbCircle
 10
76.59302674527692
 20
-73.00913529381063
 30
0.0
 40
1.200000000000045
  0
CIRCLE
  5
A9
330
48
100
AcDbEntity
  8
1
  6
Continuous
 62
     7
100
AcDbCircle
 10
76.59302674527692
 20
-73.00913529381063
 30
0.0
 40
2.0
  0
CIRCLE
  5
AA
330
48
100
AcDbEntity
  8
1
  6
DOT_CENTER
 62
     7
100
AcDbCircle
 10
-20.90697325472308
 20
-80.50913529381064
 30
0.0
 40
0.1000000000000192
  0
CIRCLE
  5
AB
330
48
100
AcDbEntity
  8
1
  6
DOT_CENTER
 62
     7
100
AcDbCircle
 10
-20.90697325472308
 20
-78.50913529381064
 30
0.0
 40
0.1000000000000192
  0
SPLINE
  5
AC
102
{ACAD_REACTORS
330
CB
102
}
330
48
100
AcDbEntity
  8
_U_30EC_U_30A4_U_30E4_U_30FC_1
  6
Continuous
 62
     2
100
AcDbSpline
210
0.0
220
0.0
230
1.0
 70
     8
 71
     3
 72
    24
 73
    20
 74
    18
 42
0.000000001
 43
0.0000000001
 44
0.00000001
 40
0.0
 40
0.0
 40
0.0
 40
0.0
 40
0.2211075008753724
 40
0.4273218586245328
 40
0.5080174679239201
 40
0.5914835907870444
 40
0.8143265690192816
 40
1.054651302686578
 40
1.295452694023187
 40
1.518109231328838
 40
1.540864321905441
 40
1.595126460622686
 40
1.659890947896053
 40
1.714153085187397
 40
1.736908174961701
 40
1.764951100735414
 40
1.801562291220989
 40
1.953914424543669
 40
2.126104167379754
 40
2.126104167379754
 40
2.126104167379754
 40
2.126104167379754
 10
75.53056370096579
 20
-80.91924234268049
 30
0.0
 10
75.50428465345806
 20
-80.97815901146691
 30
0.0
 10
75.45349663471947
 20
-81.09202389701807
 30
0.0
 10
75.40620522918806
 20
-81.36471571147956
 30
0.0
 10
75.29737502553868
 20
-81.26468046805604
 30
0.0
 10
75.1445067732406
 20
-81.23794936013738
 30
0.0
 10
75.36164226339679
 20
-81.02395394363433
 30
0.0
 10
75.37687511271491
 20
-80.80581411598575
 30
0.0
 10
75.48371569447696
 20
-80.62461950314645
 30
0.0
 10
75.42356483998458
 20
-80.34000303069655
 30
0.0
 10
75.52645848481708
 20
-80.36799440158617
 30
0.0
 10
75.57102009209184
 20
-80.37670277778766
 30
0.0
 10
75.63111098481657
 20
-80.38773875197707
 30
0.0
 10
75.66868870402071
 20
-80.40146006325506
 30
0.0
 10
75.71827343813752
 20
-80.40157453220841
 30
0.0
 10
75.68604263720938
 20
-80.43606936982441
 30
0.0
 10
75.61020696746502
 20
-80.42509424843101
 30
0.0
 10
75.63597146124616
 20
-80.61054559798615
 30
0.0
 10
75.59861642166186
 20
-80.70211215831475
 30
0.0
 10
75.57879724143777
 20
-80.7506939398336
 30
0.0
 11
75.53056370096579
 21
-80.91924234268049
 31
0.0
 11
75.4546738781321
 21
-81.12691821062506
 31
0.0
 11
75.36476696912018
 21
-81.31250137024873
 31
0.0
 11
75.29417613758787
 21
-81.27340256817513
 31
0.0
 11
75.217579264542
 21
-81.24024366193345
 31
0.0
 11
75.31442944002242
 21
-81.03954728177527
 31
0.0
 11
75.39249089202396
 21
-80.81225366204042
 31
0.0
 11
75.45199843824889
 21
-80.57892092772373
 31
0.0
 11
75.4931868963995
 21
-80.3601072038201
 31
0.0
 11
75.51544512749831
 21
-80.3648364015967
 31
0.0
 11
75.56852244781086
 21
-80.37611371937166
 31
0.0
 11
75.63187279786135
 21
-80.38957374381272
 31
0.0
 11
75.6849501181739
 21
-80.40085106158767
 31
0.0
 11
75.70720834927272
 21
-80.40558025936427
 31
0.0
 11
75.68943646102292
 21
-80.42727278540055
 31
0.0
 11
75.65363904508399
 21
-80.43494900935697
 31
0.0
 11
75.62122207542484
 21
-80.5838124120975
 31
0.0
 11
75.57879724143777
 21
-80.7506939398336
 31
0.0
  0
SPLINE
  5
AD
102
{ACAD_REACTORS
330
CB
102
}
330
48
100
AcDbEntity
  8
_U_30EC_U_30A4_U_30E4_U_30FC_1
  6
Continuous
 62
     2
100
AcDbSpline
210
0.0
220
0.0
230
1.0
 70
     8
 71
     3
 72
    70
 73
    66
 74
    64
 42
0.000000001
 43
0.0000000001
 44
0.00000001
 40
0.0
 40
0.0
 40
0.0
 40
0.0
 40
0.024173107302133
 40
0.0846058988987155
 40
0.1631685280353284
 40
0.2417311571789756
 40
0.3021639488292893
 40
0.3263370654895967
 40
0.3533118254249396
 40
0.4228783438922662
 40
0.5179999095313846
 40
0.6216398239466528
 40
0.7167613891500096
 40
0.7863279069650432
 40
0.8133026791762333
 40
0.8372943998772037
 40
0.8945054261373085
 40
0.9627895541963007
 40
1.020000580349082
 40
1.043992300975193
 40
1.071934345522924
 40
1.11312176877295
 40
1.145225199332267
 40
1.225483775412806
 40
1.329819923771518
 40
1.434156071994402
 40
1.514414647795825
 40
1.546518078208444
 40
1.578974764260246
 40
1.662678849314198
 40
1.777131373668433
 40
1.901833377474852
 40
2.016285900500656
 40
2.099989982528023
 40
2.132446666570368
 40
2.1587823544861
 40
2.216720867907875
 40
2.274659381334296
 40
2.300995069256239
 40
2.333451754066211
 40
2.417155836543906
 40
2.531608358985374
 40
2.656310362283869
 40
2.770762886388987
 40
2.854466971340138
 40
2.886923657363973
 40
2.913597976833409
 40
2.982389642875199
 40
3.07645171694707
 40
3.17893726045869
 40
3.272999334740086
 40
3.3417910010593
 40
3.368465320663625
 40
3.396976080738889
 40
3.472140811846068
 40
3.578408190308786
 40
3.700226892456265
 40
3.822045594634454
 40
3.928312973256561
 40
4.003477705314972
 40
4.031988456867038
 40
4.058324144797848
 40
4.116262658237003
 40
4.174201171400793
 40
4.200536849608736
 40
4.200536849608736
 40
4.200536849608736
 40
4.200536849608736
 10
75.57879724143777
 20
-80.7506939398336
 30
0.0
 10
75.58685269974477
 20
-80.75069169569376
 30
0.0
 10
75.61504681160096
 20
-80.75068383348264
 30
0.0
 10
75.66958022564413
 20
-80.75082774552692
 30
0.0
 10
75.7413159261372
 20
-80.75004408881165
 30
0.0
 10
75.8166507589831
 20
-80.75285958917257
 30
0.0
 10
75.86433198192074
 20
-80.74615125980102
 30
0.0
 10
75.91253386983848
 20
-80.75715965688634
 30
0.0
 10
75.89928392526417
 20
-80.70367126384029
 30
0.0
 10
75.90813614173072
 20
-80.64863945837973
 30
0.0
 10
75.90389654890542
 20
-80.55493620654957
 30
0.0
 10
75.90637509340488
 20
-80.45954047162532
 30
0.0
 10
75.90212061588292
 20
-80.36556707397682
 30
0.0
 10
75.91100861186153
 20
-80.3111846694305
 30
0.0
 10
75.89772448627139
 20
-80.25679531689605
 30
0.0
 10
75.94443867298773
 20
-80.27071313045708
 30
0.0
 10
75.98735219985053
 20
-80.26809652007019
 30
0.0
 10
76.05357109094531
 20
-80.2726510693031
 30
0.0
 10
76.09436097245671
 20
-80.28135367246908
 30
0.0
 10
76.14554131435871
 20
-80.27381729490868
 30
0.0
 10
76.11839879399692
 20
-80.3156355915778
 30
0.0
 10
76.0733363508475
 20
-80.30628537308466
 30
0.0
 10
76.08723324978196
 20
-80.37072322009227
 30
0.0
 10
76.07886818844226
 20
-80.43535309753666
 30
0.0
 10
76.08338996311664
 20
-80.53384388187175
 30
0.0
 10
76.07850087639358
 20
-80.63317596538496
 30
0.0
 10
76.08805264448503
 20
-80.69620413828093
 30
0.0
 10
76.07300289079686
 20
-80.75949517881276
 30
0.0
 10
76.13794269099772
 20
-80.74398456436796
 30
0.0
 10
76.20465138522653
 20
-80.75414141683245
 30
0.0
 10
76.3171702923596
 20
-80.74924729281703
 30
0.0
 10
76.43205029017221
 20
-80.75222324648276
 30
0.0
 10
76.54501394525158
 20
-80.74691865196077
 30
0.0
 10
76.61065350504467
 20
-80.75806222908973
 30
0.0
 10
76.67465441438218
 20
-80.74168997061206
 30
0.0
 10
76.66334103419581
 20
-80.7915183947579
 30
0.0
 10
76.67056073242784
 20
-80.83496814168942
 30
0.0
 10
76.66334100640381
 20
-80.87841783793621
 30
0.0
 10
76.67465446287629
 20
-80.92824634184187
 30
0.0
 10
76.61065310517404
 20
-80.91187363289703
 30
0.0
 10
76.5450188693228
 20
-80.92302257719479
 30
0.0
 10
76.43202417700994
 20
-80.91768672174207
 30
0.0
 10
76.31727240014115
 20
-80.92079183717246
 30
0.0
 10
76.20434511396299
 20
-80.91548634698478
 30
0.0
 10
76.13854883563529
 20
-80.92656229361465
 30
0.0
 10
76.07463654281267
 20
-80.91025931533449
 30
0.0
 10
76.08662826178946
 20
-80.9649000498532
 30
0.0
 10
76.07923720657739
 20
-81.02059234333223
 30
0.0
 10
76.08229522947519
 20
-81.11263840240497
 30
0.0
 10
76.08236902384513
 20
-81.20734419507961
 30
0.0
 10
76.0790581031128
 20
-81.29960746478798
 30
0.0
 10
76.08697734426724
 20
-81.35477760644923
 30
0.0
 10
76.07453440643854
 20
-81.4085536028093
 30
0.0
 10
76.13193840044002
 20
-81.39459760518285
 30
0.0
 10
76.19249755931516
 20
-81.40402071496837
 30
0.0
 10
76.29789483078495
 20
-81.39970643452361
 30
0.0
 10
76.4134561523391
 20
-81.40078024769032
 30
0.0
 10
76.52899563305658
 20
-81.40187563480066
 30
0.0
 10
76.63444485836095
 20
-81.39751003610436
 30
0.0
 10
76.69489479245726
 20
-81.40704103350392
 30
0.0
 10
76.75231051918792
 20
-81.39296239774687
 30
0.0
 10
76.74080413294772
 20
-81.4420637611538
 30
0.0
 10
76.74678342345182
 20
-81.48348871362415
 30
0.0
 10
76.74505785035704
 20
-81.53261851414366
 30
0.0
 10
76.745176757574
 20
-81.56059100933456
 30
0.0
 10
76.74521391446018
 20
-81.56933241185115
 30
0.0
 11
75.57879724143777
 21
-80.7506939398336
 31
0.0
 11
75.602970358105
 21
-80.75069393983358
 31
0.0
 11
75.66340314977313
 21
-80.7506939398336
 31
0.0
 11
75.74196577894168
 21
-80.7506939398336
 31
0.0
 11
75.82052840811022
 21
-80.7506939398336
 31
0.0
 11
75.88096119977833
 21
-80.75069393983358
 31
0.0
 11
75.90513431644558
 21
-80.7506939398336
 31
0.0
 11
75.90513431644557
 21
-80.72371916761001
 31
0.0
 11
75.90513431644558
 21
-80.65415264977025
 31
0.0
 11
75.90513431644558
 21
-80.5590310845608
 31
0.0
 11
75.90513431644558
 21
-80.4553911702281
 31
0.0
 11
75.90513431644558
 21
-80.36026960501863
 31
0.0
 11
75.90513431644558
 21
-80.29070308717885
 31
0.0
 11
75.90513431644558
 21
-80.26372831495529
 31
0.0
 11
75.92906750576608
 21
-80.26540316273265
 31
0.0
 11
75.98613895722265
 21
-80.26939703050944
 31
0.0
 11
76.0542564960579
 21
-80.2741639049527
 31
0.0
 11
76.11132794751447
 21
-80.27815777272949
 31
0.0
 11
76.13526113683497
 21
-80.27983262050684
 31
0.0
 11
76.1205240183998
 21
-80.30357236008425
 31
0.0
 11
76.08169077027446
 21
-80.31729762049753
 31
0.0
 11
76.08169077027445
 21
-80.34940105155945
 31
0.0
 11
76.08169077027446
 21
-80.42965962921429
 31
0.0
 11
76.08169077027446
 21
-80.53399578016555
 31
0.0
 11
76.08169077027446
 21
-80.63833193111682
 31
0.0
 11
76.08169077027446
 21
-80.71859050877165
 31
0.0
 11
76.08169077027446
 21
-80.7506939398336
 31
0.0
 11
76.11414745635929
 21
-80.7506939398336
 31
0.0
 11
76.19785154152541
 21
-80.75069393983358
 31
0.0
 11
76.3123040661403
 21
-80.75069393983361
 31
0.0
 11
76.43700607057146
 21
-80.7506939398336
 31
0.0
 11
76.55145859518635
 21
-80.7506939398336
 31
0.0
 11
76.63516268035247
 21
-80.7506939398336
 31
0.0
 11
76.6676193664373
 21
-80.7506939398336
 31
0.0
 11
76.6676193664373
 21
-80.77702962776104
 31
0.0
 11
76.6676193664373
 21
-80.8349681412014
 31
0.0
 11
76.6676193664373
 21
-80.89290665464176
 31
0.0
 11
76.6676193664373
 21
-80.9192423425692
 31
0.0
 11
76.63516268035248
 21
-80.9192423425692
 31
0.0
 11
76.55145859518635
 21
-80.9192423425692
 31
0.0
 11
76.43700607057146
 21
-80.9192423425692
 31
0.0
 11
76.3123040661403
 21
-80.9192423425692
 31
0.0
 11
76.1978515415254
 21
-80.91924234256919
 31
0.0
 11
76.11414745635928
 21
-80.91924234256919
 31
0.0
 11
76.08169077027446
 21
-80.9192423425692
 31
0.0
 11
76.08169077027446
 21
-80.94591666229043
 31
0.0
 11
76.08169077027446
 21
-81.01470832893989
 31
0.0
 11
76.08169077027446
 21
-81.1087704037463
 31
0.0
 11
76.08169077027446
 21
-81.21125594793837
 31
0.0
 11
76.08169077027446
 21
-81.30531802274479
 31
0.0
 11
76.08169077027446
 21
-81.37410968939423
 31
0.0
 11
76.08169077027446
 21
-81.40078400911547
 31
0.0
 11
76.1102015303762
 21
-81.40078400911547
 31
0.0
 11
76.18536626155347
 21
-81.40078400911547
 31
0.0
 11
76.29163364011448
 21
-81.40078400911547
 31
0.0
 11
76.41345234236732
 21
-81.40078400911547
 31
0.0
 11
76.53527104462017
 21
-81.40078400911547
 31
0.0
 11
76.64153842318117
 21
-81.40078400911548
 31
0.0
 11
76.71670315435844
 21
-81.40078400911547
 31
0.0
 11
76.74521391446018
 21
-81.40078400911547
 31
0.0
 11
76.74521391446018
 21
-81.42711969704293
 31
0.0
 11
76.74521391446018
 21
-81.48505821048332
 31
0.0
 11
76.74521391446018
 21
-81.5429967239237
 31
0.0
 11
76.74521391446018
 21
-81.56933241185115
 31
0.0
  0
SPLINE
  5
AE
102
{ACAD_REACTORS
330
CB
102
}
330
48
100
AcDbEntity
  8
_U_30EC_U_30A4_U_30E4_U_30FC_1
  6
Continuous
 62
     2
100
AcDbSpline
210
0.0
220
0.0
230
1.0
 70
     8
 71
     3
 72
    62
 73
    58
 74
    56
 42
0.000000001
 43
0.0000000001
 44
0.00000001
 40
0.0
 40
0.0
 40
0.0
 40
0.0
 40
0.0598250028308769
 40
0.2024846486897189
 40
0.3727558389220746
 40
0.5154154847935786
 40
0.5752404975785197
 40
0.933232677548703
 40
1.29045176283946
 40
1.602077253145842
 40
1.699931634112075
 40
1.799359756425022
 40
2.270120149657067
 40
2.804661928461543
 40
2.882342287383239
 40
3.07654318571909
 40
3.329004354835576
 40
3.581465524568388
 40
3.775666424543673
 40
3.853346784558298
 40
3.899120679595073
 40
3.984129341792028
 40
4.029903236817362
 40
4.105797496059524
 40
4.295533144152473
 40
4.542189486611719
 40
4.788845828875666
 40
4.978581476410057
 40
5.054475735244297
 40
5.621734664339315
 40
6.130867242037342
 40
6.225249780948568
 40
6.318913039727267
 40
6.663579954558841
 40
7.047498900224671
 40
7.435230791575625
 40
7.498943906668023
 40
7.650875181210017
 40
7.832212509001556
 40
7.984143783696927
 40
8.047856898903055
 40
8.091554632732587
 40
8.172707566964226
 40
8.216405300767951
 40
8.289021782160836
 40
8.46218416075718
 40
8.668861838005304
 40
8.842024215263868
 40
8.914640695475077
 40
8.98988158086127
 40
9.155411528827193
 40
9.320941477743963
 40
9.396182352487223
 40
9.454709011143741
 40
9.583467660170733
 40
9.71222630901294
 40
9.770752957989437
 40
9.770752957989437
 40
9.770752957989437
 40
9.770752957989437
 10
76.74521391446018
 20
-81.56933241185115
 30
0.0
 10
76.72526156243917
 20
-81.56932653812395
 30
0.0
 10
76.65773051692346
 20
-81.56930665574907
 30
0.0
 10
76.5340879614557
 20
-81.56964166860736
 30
0.0
 10
76.37934476028254
 20
-81.56805855630554
 30
0.0
 10
76.26276169352485
 20
-81.57227450520568
 30
0.0
 10
76.04812100870096
 20
-81.55698324049442
 30
0.0
 10
76.44492158599977
 20
-81.9171480809487
 30
0.0
 10
76.48759235220366
 20
-82.134030259839
 30
0.0
 10
76.91194295993795
 20
-82.31588466869616
 30
0.0
 10
76.7370088948843
 20
-82.41928332812994
 30
0.0
 10
76.6124791377852
 20
-82.63082006168341
 30
0.0
 10
76.3596544688712
 20
-82.161074483795
 30
0.0
 10
76.07278703463943
 20
-81.51402012396542
 30
0.0
 10
76.08366033794287
 20
-81.82130857226369
 30
0.0
 10
76.08131602307279
 20
-81.98624912409284
 30
0.0
 10
76.07913635791797
 20
-82.22033858669371
 30
0.0
 10
76.09110418491146
 20
-82.46415456959281
 30
0.0
 10
76.06182521933988
 20
-82.6105773252008
 30
0.0
 10
76.10447900782385
 20
-82.75800039206526
 30
0.0
 10
76.01700814584078
 20
-82.74227732074846
 30
0.0
 10
75.9698795059513
 20
-82.74219225837611
 30
0.0
 10
75.88292406604815
 20
-82.75804103898155
 30
0.0
 10
75.92437414744921
 20
-82.61385757958305
 30
0.0
 10
75.89601424570533
 20
-82.47058476682608
 30
0.0
 10
75.90762412280684
 20
-82.23238582015802
 30
0.0
 10
75.90544431010404
 20
-82.0039629414072
 30
0.0
 10
75.90333785807627
 20
-81.8420780000507
 30
0.0
 10
75.91383028910916
 20
-81.52759820047311
 30
0.0
 10
75.60592307056626
 20
-82.21684058508635
 30
0.0
 10
75.2985525720224
 20
-82.69436779138013
 30
0.0
 10
75.17816345190434
 20
-82.47172416743638
 30
0.0
 10
75.0004875363491
 20
-82.35902494425495
 30
0.0
 10
75.47835938156626
 20
-82.18365385915602
 30
0.0
 10
75.52842265099761
 20
-81.94821600129032
 30
0.0
 10
75.95140670744857
 20
-81.5559054003646
 30
0.0
 10
75.72070217263091
 20
-81.57258222352
 30
0.0
 10
75.59799533121097
 20
-81.56644010432292
 30
0.0
 10
75.42557505484305
 20
-81.57600706681498
 30
0.0
 10
75.3143492147217
 20
-81.55464710891398
 30
0.0
 10
75.19560470802168
 20
-81.58777264023645
 30
0.0
 10
75.21134371594545
 20
-81.50709628774183
 30
0.0
 10
75.21088183865308
 20
-81.46268115090204
 30
0.0
 10
75.19581493427002
 20
-81.37946447602536
 30
0.0
 10
75.33026483882117
 20
-81.41850877397177
 30
0.0
 10
75.45500229985156
 20
-81.39173800052649
 30
0.0
 10
75.65590226900486
 20
-81.4084958033701
 30
0.0
 10
75.78518084021215
 20
-81.38709303468062
 30
0.0
 10
75.92586873810635
 20
-81.42044750527643
 30
0.0
 10
75.89111949053836
 20
-81.28261653595997
 30
0.0
 10
75.91524531194814
 20
-81.15950272031583
 30
0.0
 10
75.88973536351612
 20
-81.03889473710731
 30
0.0
 10
75.92635185994536
 20
-80.9037366423957
 30
0.0
 10
75.8141684480538
 20
-80.92818983599174
 30
0.0
 10
75.72106239099048
 20
-80.91605779539039
 30
0.0
 10
75.61218150325887
 20
-80.91955899311075
 30
0.0
 10
75.5499965093733
 20
-80.91931773429461
 30
0.0
 10
75.53056370100148
 20
-80.9192423425692
 30
0.0
 11
76.74521391446018
 21
-81.56933241185115
 31
0.0
 11
76.68538890167505
 21
-81.56933241185115
 31
0.0
 11
76.54272925580284
 21
-81.56933241185114
 31
0.0
 11
76.37245806556825
 21
-81.56933241185116
 31
0.0
 11
76.22979841969604
 21
-81.56933241185115
 31
0.0
 11
76.16997340691091
 21
-81.56933241185115
 31
0.0
 11
76.36102282076114
 21
-81.87208401414173
 31
0.0
 11
76.58715402383987
 21
-82.1486163880438
 31
0.0
 11
76.817479362614
 21
-82.35852275887608
 31
0.0
 11
76.74518637834727
 21
-82.42447125712347
 31
0.0
 11
76.68096318554115
 21
-82.50037470328505
 31
0.0
 11
76.36630856683266
 21
-82.15022071031702
 31
0.0
 11
76.08169077027446
 21
-81.69775234237463
 31
0.0
 11
76.08169077027446
 21
-81.7754327024375
 31
0.0
 11
76.08169077027446
 21
-81.9696336025947
 31
0.0
 11
76.08169077027446
 21
-82.22209477279908
 31
0.0
 11
76.08169077027446
 21
-82.47455594300344
 31
0.0
 11
76.08169077027446
 21
-82.66875684316064
 31
0.0
 11
76.08169077027446
 21
-82.74643720322352
 31
0.0
 11
76.03591687483734
 21
-82.74643720322352
 31
0.0
 11
75.9509082118827
 21
-82.74643720322352
 31
0.0
 11
75.90513431644558
 21
-82.74643720322352
 31
0.0
 11
75.90513431644558
 21
-82.67054294398324
 31
0.0
 11
75.90513431644558
 21
-82.48080729588254
 31
0.0
 11
75.90513431644558
 21
-82.23415095335162
 31
0.0
 11
75.90513431644558
 21
-81.98749461082069
 31
0.0
 11
75.90513431644558
 21
-81.79775896271998
 31
0.0
 11
75.90513431644558
 21
-81.7218647034797
 31
0.0
 11
75.59178938520353
 21
-82.19472583183372
 31
0.0
 11
75.2282596114917
 21
-82.55118352271683
 31
0.0
 11
75.17041949143963
 21
-82.47660078836041
 31
0.0
 11
75.10251197581101
 21
-82.41209206441822
 31
0.0
 11
75.36809893510878
 21
-82.19241309585175
 31
0.0
 11
75.61640324248296
 21
-81.89960133409367
 31
0.0
 11
75.81952502580288
 21
-81.56933241185115
 31
0.0
 11
75.75581191054899
 21
-81.56933241185116
 31
0.0
 11
75.60388063571276
 21
-81.56933241185115
 31
0.0
 11
75.42254330768242
 21
-81.56933241185116
 31
0.0
 11
75.2706120328462
 21
-81.56933241185115
 31
0.0
 11
75.2068989175923
 21
-81.56933241185115
 31
0.0
 11
75.2068989175923
 21
-81.52563467780855
 31
0.0
 11
75.2068989175923
 21
-81.44448174315805
 31
0.0
 11
75.2068989175923
 21
-81.40078400911547
 31
0.0
 11
75.27951539907305
 21
-81.40078400911547
 31
0.0
 11
75.45267777798865
 21
-81.40078400911548
 31
0.0
 11
75.65935545604923
 21
-81.40078400911548
 31
0.0
 11
75.83251783496485
 21
-81.40078400911547
 31
0.0
 11
75.90513431644558
 21
-81.40078400911547
 31
0.0
 11
75.90513431644558
 21
-81.32554312371762
 31
0.0
 11
75.90513431644558
 21
-81.16001317584234
 31
0.0
 11
75.90513431644558
 21
-80.99448322796707
 31
0.0
 11
75.90513431644558
 21
-80.9192423425692
 31
0.0
 11
75.84660765778244
 21
-80.9192423425692
 31
0.0
 11
75.71784900872353
 21
-80.9192423425692
 31
0.0
 11
75.58909035966462
 21
-80.9192423425692
 31
0.0
 11
75.53056370100148
 21
-80.9192423425692
 31
0.0
  0
SPLINE
  5
AF
102
{ACAD_REACTORS
330
CC
102
}
330
48
100
AcDbEntity
  8
_U_30EC_U_30A4_U_30E4_U_30FC_1
  6
Continuous
 62
     2
100
AcDbSpline
210
0.0
220
0.0
230
1.0
 70
    11
 71
     3
 72
   124
 73
   120
 74
   118
 42
0.000000001
 43
0.0000000001
 44
0.00000001
 40
0.0
 40
0.0
 40
0.0
 40
0.0
 40
0.0278187229624653
 40
0.1011590162384128
 40
0.2048470170590097
 40
0.3237088716559245
 40
0.4425707262521857
 40
0.5462587270699689
 40
0.6195990203312366
 40
0.6474177522579087
 40
0.6750060736115562
 40
0.7357003855243114
 40
0.79639469980549
 40
0.8239830245572228
 40
0.8540933811103322
 40
0.937339662940986
 40
1.063094687343295
 40
1.220731268638148
 40
1.399622220914808
 40
1.589140358637793
 40
1.778658496423916
 40
1.957549448940612
 40
2.115186030873205
 40
2.240941056914523
 40
2.324187341760592
 40
2.354297700109456
 40
2.381886024671958
 40
2.442580338710557
 40
2.503274652750577
 40
2.530862977314684
 40
2.560983949278623
 40
2.640393784453011
 40
2.752662861759178
 40
2.881361560118195
 40
3.010060258455256
 40
3.122329335705403
 40
3.201739170818002
 40
3.231860142753392
 40
3.264298024030453
 40
3.352343701778325
 40
3.482095226868823
 40
3.639650650173111
 40
3.811108022565564
 40
3.98256539492806
 40
4.140120818152654
 40
4.269872343141359
 40
4.357918020802402
 40
4.390355902044036
 40
4.423256253992634
 40
4.508104530073155
 40
4.624121560636909
 40
4.750528176031652
 40
4.866545206602127
 40
4.95139348269207
 40
4.984293834645485
 40
5.011450833242407
 40
5.071196230152197
 40
5.130941627057269
 40
5.158098625648919
 40
5.190998977601553
 40
5.275847253689393
 40
5.39186428425687
 40
5.5182708996484
 40
5.634287930209426
 40
5.719136206288099
 40
5.752036558236001
 40
5.782130946283048
 40
5.862783906229212
 40
5.979550131775071
 40
6.117984316640489
 40
6.263641154588044
 40
6.402075339414226
 40
6.518841564908031
 40
6.599494524815612
 40
6.629588912848846
 40
6.654403028226423
 40
6.713575149488177
 40
6.784199939329521
 40
6.843372060493624
 40
6.868186175802855
 40
6.896246243201944
 40
6.939586233758365
 40
6.967846564564996
 40
7.043584251089942
 40
7.153234334451784
 40
7.283231855734544
 40
7.42001185603556
 40
7.550009376579925
 40
7.659659458835324
 40
7.735397144417308
 40
7.763657474851487
 40
7.796409728011144
 40
7.880876065096433
 40
7.99637085246579
 40
8.122208446418671
 40
8.237703224799294
 40
8.32216956201103
 40
8.354921815205987
 40
8.382078813307746
 40
8.44182420920706
 40
8.501569605240224
 40
8.528726603485797
 40
8.561478856695832
 40
8.645945193877896
 40
8.761439980865436
 40
8.887277580764593
 40
9.002772362001071
 40
9.087238696661277
 40
9.11999094923576
 40
9.152428830613449
 40
9.240474508638673
 40
9.370226034149628
 40
9.527781457984506
 40
9.699238830981503
 40
9.870696203978685
 40
10.02825162781413
 40
10.15800315332574
 40
10.24604883135128
 40
10.27848670378531
 40
10.27848670378531
 40
10.27848670378531
 40
10.27848670378531
 10
84.9752095017152
 20
-82.49503011995307
 30
0.0
 10
84.98448221902923
 20
-82.49503030869792
 30
0.0
 10
85.01820119896293
 20
-82.49503098504348
 30
0.0
 10
85.08649742652348
 20
-82.49501722137762
 30
0.0
 10
85.18504091643479
 20
-82.49510305161517
 30
0.0
 10
85.2992333917581
 20
-82.49471773768816
 30
0.0
 10
85.41161618698399
 20
-82.49612693483516
 30
0.0
 10
85.51446440528872
 20
-82.49194411958824
 30
0.0
 10
85.57371073276174
 20
-82.50090440129078
 30
0.0
 10
85.63015333898024
 20
-82.48749094855008
 30
0.0
 10
85.61765230397235
 20
-82.538263307677
 30
0.0
 10
85.62598170884722
 20
-82.58324208442
 30
0.0
 10
85.6178438293889
 20
-82.62856776390575
 30
0.0
 10
85.6300796667226
 20
-82.679815969726
 30
0.0
 10
85.56780409431028
 20
-82.66465574015788
 30
0.0
 10
85.4990780479637
 20
-82.67553778670319
 30
0.0
 10
85.37130242023603
 20
-82.67002224633094
 30
0.0
 10
85.2193251964412
 20
-82.67212678127368
 30
0.0
 10
85.04329634252915
 20
-82.67142526792591
 30
0.0
 10
84.8574699387056
 20
-82.67168291849774
 30
0.0
 10
84.67164348899442
 20
-82.67142524236456
 30
0.0
 10
84.49561475949375
 20
-82.67212687533338
 30
0.0
 10
84.34363716069632
 20
-82.67002197151072
 30
0.0
 10
84.21586251173235
 20
-82.67553848613431
 30
0.0
 10
84.14713452893491
 20
-82.66465452255115
 30
0.0
 10
84.0848616495652
 20
-82.6798174269686
 30
0.0
 10
84.09708837427857
 20
-82.62856018575891
 30
0.0
 10
84.08902719153656
 20
-82.5833105610864
 30
0.0
 10
84.09709432626613
 20
-82.5380717142574
 30
0.0
 10
84.0848505939852
 20
-82.48679352471108
 30
0.0
 10
84.14552845734669
 20
-82.5016395201793
 30
0.0
 10
84.20930781985047
 20
-82.49157081210329
 30
0.0
 10
84.32075818062715
 20
-82.49618885169063
 30
0.0
 10
84.44278008965917
 20
-82.49500200475597
 30
0.0
 10
84.56498055905925
 20
-82.49397665480433
 30
0.0
 10
84.67600617401605
 20
-82.4982105375766
 30
0.0
 10
84.74067848667265
 20
-82.48894944859325
 30
0.0
 10
84.80214302632702
 20
-82.50309106331383
 30
0.0
 10
84.78603330541058
 20
-82.43678001496546
 30
0.0
 10
84.79732477801268
 20
-82.36465739259087
 30
0.0
 10
84.79176682753297
 20
-82.23399768492776
 30
0.0
 10
84.79383025144584
 20
-82.08306205672824
 30
0.0
 10
84.79304345800634
 20
-81.91577656273176
 30
0.0
 10
84.79381126683957
 20
-81.74852419048761
 30
0.0
 10
84.79183062383973
 20
-81.5975024011115
 30
0.0
 10
84.79715736093894
 20
-81.46707459828067
 30
0.0
 10
84.7863368841193
 20
-81.39448086775165
 30
0.0
 10
84.80205938826444
 20
-81.32763059944267
 30
0.0
 10
84.73629755852588
 20
-81.34333016890236
 30
0.0
 10
84.66866352835325
 20
-81.33304286297071
 30
0.0
 10
84.55461527465786
 20
-81.33799742533944
 30
0.0
 10
84.43815101276712
 20
-81.33499401350588
 30
0.0
 10
84.32368215742457
 20
-81.34033226237676
 30
0.0
 10
84.2570592110581
 20
-81.32912261306241
 30
0.0
 10
84.19210371679539
 20
-81.34564396716053
 30
0.0
 10
84.2038257211477
 20
-81.29439808904006
 30
0.0
 10
84.19630976418891
 20
-81.24963195596972
 30
0.0
 10
84.20382573316044
 20
-81.20486584483103
 30
0.0
 10
84.19210369581154
 20
-81.15361993251327
 30
0.0
 10
84.25705937919685
 20
-81.17014147614242
 30
0.0
 10
84.323680079259
 20
-81.15892958007124
 30
0.0
 10
84.43816203108318
 20
-81.16428092670398
 30
0.0
 10
84.55457218897314
 20
-81.16122340609947
 30
0.0
 10
84.66879276274096
 20
-81.16635030370355
 30
0.0
 10
84.73604178919948
 20
-81.15567796025462
 30
0.0
 10
84.80135933942076
 20
-81.1717144671199
 30
0.0
 10
84.787165890132
 20
-81.1096384363101
 30
0.0
 10
84.79663269157643
 20
-81.043267677523
 30
0.0
 10
84.79205364568541
 20
-80.92673556639099
 30
0.0
 10
84.79379640087164
 20
-80.79486844358688
 30
0.0
 10
84.79278189481609
 20
-80.6529756923079
 30
0.0
 10
84.7947458797141
 20
-80.52144478678484
 30
0.0
 10
84.78949360066193
 20
-80.40388952098061
 30
0.0
 10
84.80036762162432
 20
-80.33965740379479
 30
0.0
 10
84.78498040946224
 20
-80.27804726836018
 30
0.0
 10
84.8337858990569
 20
-80.29211121998952
 30
0.0
 10
84.87842630174946
 20
-80.28958787305754
 30
0.0
 10
84.94689113995113
 20
-80.29400731979351
 30
0.0
 10
84.98893736218716
 20
-80.30300503837033
 30
0.0
 10
85.04178122115441
 20
-80.29501814514552
 30
0.0
 10
85.01373024547829
 20
-80.33799611769395
 30
0.0
 10
84.9679409701363
 20
-80.32653977337225
 30
0.0
 10
84.97998065260332
 20
-80.38740009375931
 30
0.0
 10
84.97263535234107
 20
-80.45144229912292
 30
0.0
 10
84.97614632789299
 20
-80.56004160517152
 30
0.0
 10
84.97500742129425
 20
-80.68419210236313
 30
0.0
 10
84.9749442233032
 20
-80.81723809551187
 30
0.0
 10
84.97631404196359
 20
-80.94116148131508
 30
0.0
 10
84.9721906254082
 20
-81.05045191531725
 30
0.0
 10
84.98080305563329
 20
-81.11304949286895
 30
0.0
 10
84.96770249071704
 20
-81.17173396084699
 30
0.0
 10
85.03241517809668
 20
-81.15551415570158
 30
0.0
 10
85.09906734059243
 20
-81.16643268997753
 30
0.0
 10
85.21290469938717
 20
-81.1611978920731
 30
0.0
 10
85.32875265748649
 20
-81.16427981864149
 30
0.0
 10
85.44271917160495
 20
-81.15895269568551
 30
0.0
 10
85.50906084708679
 20
-81.17009321214522
 30
0.0
 10
85.57374559782484
 20
-81.15366549787888
 30
0.0
 10
85.56200882254909
 20
-81.20487604171012
 30
0.0
 10
85.56954355158095
 20
-81.24963195260062
 30
0.0
 10
85.56200884450266
 20
-81.29438790371034
 30
0.0
 10
85.57374555935057
 20
-81.34559838510026
 30
0.0
 10
85.50906115280209
 20
-81.32917101586841
 30
0.0
 10
85.44271538835936
 20
-81.34030744933797
 30
0.0
 10
85.32877269397805
 20
-81.33500413487943
 30
0.0
 10
85.21282630758238
 20
-81.33798764787521
 30
0.0
 10
85.0993024334891
 20
-81.3330663711267
 30
0.0
 10
85.03194987715727
 20
-81.34328441867541
 30
0.0
 10
84.9664552575264
 20
-81.32767533242249
 30
0.0
 10
84.98219810719863
 20
-81.39449677553648
 30
0.0
 10
84.97135434509823
 20
-81.46706471565186
 30
0.0
 10
84.97668490825605
 20
-81.59751281766648
 30
0.0
 10
84.97474036046243
 20
-81.74848971195836
 30
0.0
 10
84.97534011359828
 20
-81.91591285446906
 30
0.0
 10
84.97517740123737
 20
-82.08257353262694
 30
0.0
 10
84.97521629409044
 20
-82.23553386459432
 30
0.0
 10
84.97520838658673
 20
-82.36064350395353
 30
0.0
 10
84.97520958355148
 20
-82.4440563838965
 30
0.0
 10
84.97520951689768
 20
-82.48421751099087
 30
0.0
 10
84.9752095017152
 20
-82.49503011995307
 30
0.0
 11
84.9752095017152
 21
-82.49503011995307
 31
0.0
 11
85.00302823364437
 21
-82.49503011995307
 31
0.0
 11
85.07636852691218
 21
-82.49503011995307
 31
0.0
 11
85.1800565277391
 21
-82.49503011995307
 31
0.0
 11
85.29891838234556
 21
-82.49503011995307
 31
0.0
 11
85.41778023695201
 21
-82.49503011995307
 31
0.0
 11
85.52146823777893
 21
-82.49503011995307
 31
0.0
 11
85.59480853104675
 21
-82.49503011995307
 31
0.0
 11
85.62262726297593
 21
-82.49503011995307
 31
0.0
 11
85.62262726297591
 21
-82.52261844459893
 31
0.0
 11
85.62262726297593
 21
-82.58331275881987
 31
0.0
 11
85.62262726297593
 21
-82.6440070730408
 31
0.0
 11
85.62262726297593
 21
-82.67159539768667
 31
0.0
 11
85.5925169046263
 21
-82.67159539768666
 31
0.0
 11
85.50927061977737
 21
-82.67159539768666
 31
0.0
 11
85.38351559372899
 21
-82.67159539768667
 31
0.0
 11
85.22587901178102
 21
-82.67159539768669
 31
0.0
 11
85.04698805923333
 21
-82.67159539768667
 31
0.0
 11
84.85746992138576
 21
-82.67159539768667
 31
0.0
 11
84.6679517835382
 21
-82.67159539768667
 31
0.0
 11
84.48906083099048
 21
-82.67159539768667
 31
0.0
 11
84.33142424904253
 21
-82.67159539768667
 31
0.0
 11
84.20566922299412
 21
-82.67159539768667
 31
0.0
 11
84.12242293814519
 21
-82.67159539768667
 31
0.0
 11
84.09231257979559
 21
-82.67159539768667
 31
0.0
 11
84.09231257979559
 21
-82.64400707304081
 31
0.0
 11
84.09231257979559
 21
-82.58331275881987
 31
0.0
 11
84.09231257979559
 21
-82.52261844459895
 31
0.0
 11
84.09231257979559
 21
-82.49503011995307
 31
0.0
 11
84.12243355177155
 21
-82.49503011995307
 31
0.0
 11
84.20184338698093
 21
-82.49503011995307
 31
0.0
 11
84.31411246434588
 21
-82.49503011995307
 31
0.0
 11
84.44281116278864
 21
-82.49503011995307
 31
0.0
 11
84.5715098612314
 21
-82.49503011995307
 31
0.0
 11
84.68377893859636
 21
-82.49503011995307
 31
0.0
 11
84.76318877380572
 21
-82.49503011995307
 31
0.0
 11
84.7933097457817
 21
-82.49503011995307
 31
0.0
 11
84.7933097457817
 21
-82.46259223857228
 31
0.0
 11
84.7933097457817
 21
-82.37454656053873
 31
0.0
 11
84.79330974578171
 21
-82.24479503501563
 31
0.0
 11
84.7933097457817
 21
-82.0872396111661
 31
0.0
 11
84.7933097457817
 21
-81.9157822381534
 31
0.0
 11
84.7933097457817
 21
-81.7443248651407
 31
0.0
 11
84.7933097457817
 21
-81.58676944129118
 31
0.0
 11
84.7933097457817
 21
-81.45701791576806
 31
0.0
 11
84.7933097457817
 21
-81.36897223773452
 31
0.0
 11
84.7933097457817
 21
-81.33653435635374
 31
0.0
 11
84.76040939382973
 21
-81.33653435635374
 31
0.0
 11
84.6755611177431
 21
-81.33653435635375
 31
0.0
 11
84.55954408717568
 21
-81.33653435635374
 31
0.0
 11
84.43313747178131
 21
-81.33653435635374
 31
0.0
 11
84.31712044121387
 21
-81.33653435635375
 31
0.0
 11
84.23227216512723
 21
-81.33653435635374
 31
0.0
 11
84.19937181317528
 21
-81.33653435635374
 31
0.0
 11
84.19937181317528
 21
-81.30937735766261
 31
0.0
 11
84.19937181317528
 21
-81.24963196054213
 31
0.0
 11
84.19937181317528
 21
-81.18988656342165
 31
0.0
 11
84.19937181317528
 21
-81.16272956473054
 31
0.0
 11
84.23227216512723
 21
-81.16272956473053
 31
0.0
 11
84.31712044121386
 21
-81.16272956473054
 31
0.0
 11
84.43313747178131
 21
-81.16272956473054
 31
0.0
 11
84.55954408717568
 21
-81.16272956473054
 31
0.0
 11
84.6755611177431
 21
-81.16272956473054
 31
0.0
 11
84.76040939382973
 21
-81.16272956473054
 31
0.0
 11
84.7933097457817
 21
-81.16272956473054
 31
0.0
 11
84.7933097457817
 21
-81.13263517649693
 31
0.0
 11
84.7933097457817
 21
-81.0519822160309
 31
0.0
 11
84.79330974578171
 21
-80.93521598968455
 31
0.0
 11
84.79330974578168
 21
-80.79678180381
 31
0.0
 11
84.7933097457817
 21
-80.65112496475939
 31
0.0
 11
84.7933097457817
 21
-80.51269077888486
 31
0.0
 11
84.7933097457817
 21
-80.3959245525385
 31
0.0
 11
84.7933097457817
 21
-80.31527159207246
 31
0.0
 11
84.7933097457817
 21
-80.28517720383887
 31
0.0
 11
84.81806727413868
 21
-80.28685205161622
 31
0.0
 11
84.87710445714382
 21
-80.290845919393
 31
0.0
 11
84.94756819169831
 21
-80.29561279383623
 31
0.0
 11
85.00660537470344
 21
-80.299606661613
 31
0.0
 11
85.03136290306043
 21
-80.30128150939035
 31
0.0
 11
85.01633346767994
 21
-80.32497715174556
 31
0.0
 11
84.9752095017152
 21
-80.33865831493661
 31
0.0
 11
84.9752095017152
 21
-80.36691864586233
 31
0.0
 11
84.97520950171521
 21
-80.44265633274325
 31
0.0
 11
84.9752095017152
 21
-80.55230641673504
 31
0.0
 11
84.9752095017152
 21
-80.68230393899334
 31
0.0
 11
84.9752095017152
 21
-80.8190839406738
 31
0.0
 11
84.9752095017152
 21
-80.94908146293211
 31
0.0
 11
84.9752095017152
 21
-81.0587315469239
 31
0.0
 11
84.9752095017152
 21
-81.13446923380482
 31
0.0
 11
84.9752095017152
 21
-81.16272956473054
 31
0.0
 11
85.00796175488836
 21
-81.16272956473053
 31
0.0
 11
85.09242809201915
 21
-81.16272956473054
 31
0.0
 11
85.20792287952452
 21
-81.16272956473054
 31
0.0
 11
85.3337604838214
 21
-81.16272956473054
 31
0.0
 11
85.44925527132673
 21
-81.16272956473054
 31
0.0
 11
85.53372160845754
 21
-81.16272956473054
 31
0.0
 11
85.5664738616307
 21
-81.16272956473054
 31
0.0
 11
85.5664738616307
 21
-81.18988656342165
 31
0.0
 11
85.5664738616307
 21
-81.24963196054213
 31
0.0
 11
85.5664738616307
 21
-81.30937735766261
 31
0.0
 11
85.5664738616307
 21
-81.33653435635374
 31
0.0
 11
85.53372160845753
 21
-81.33653435635374
 31
0.0
 11
85.44925527132675
 21
-81.33653435635375
 31
0.0
 11
85.3337604838214
 21
-81.33653435635374
 31
0.0
 11
85.2079228795245
 21
-81.33653435635374
 31
0.0
 11
85.09242809201915
 21
-81.33653435635374
 31
0.0
 11
85.00796175488836
 21
-81.33653435635372
 31
0.0
 11
84.9752095017152
 21
-81.33653435635374
 31
0.0
 11
84.9752095017152
 21
-81.36897223773451
 31
0.0
 11
84.9752095017152
 21
-81.45701791576806
 31
0.0
 11
84.9752095017152
 21
-81.5867694412912
 31
0.0
 11
84.9752095017152
 21
-81.7443248651407
 31
0.0
 11
84.9752095017152
 21
-81.91578223815341
 31
0.0
 11
84.9752095017152
 21
-82.0872396111661
 31
0.0
 11
84.9752095017152
 21
-82.24479503501563
 31
0.0
 11
84.9752095017152
 21
-82.37454656053875
 31
0.0
 11
84.9752095017152
 21
-82.46259223857228
 31
0.0
 11
84.9752095017152
 21
-82.49503011995307
 31
0.0
  0
SPLINE
  5
B0
102
{ACAD_REACTORS
330
CD
102
}
330
48
100
AcDbEntity
  8
_U_30EC_U_30A4_U_30E4_U_30FC_1
  6
Continuous
 62
     2
100
AcDbSpline
210
0.0
220
0.0
230
1.0
 70
    11
 71
     3
 72
   131
 73
   127
 74
   125
 42
0.000000001
 43
0.0000000001
 44
0.00000001
 40
0.0
 40
0.0
 40
0.0
 40
0.0
 40
0.0195577029825942
 40
0.0426490537461033
 40
0.2863607575856125
 40
0.5344948436188939
 40
0.7842238845572781
 40
0.8737315789466551
 40
0.9803832810312327
 40
1.092842274516978
 40
1.199761146656745
 40
1.289788768186459
 40
1.351573580786138
 40
1.370727117561372
 40
1.416400936017774
 40
1.47091484835588
 40
1.516588666791689
 40
1.535742203552767
 40
1.634216592293133
 40
1.760283341174965
 40
1.897966686682063
 40
2.03121638736886
 40
2.04968975113785
 40
2.101115601646785
 40
2.179502577739913
 40
2.278859318314036
 40
2.393194462258694
 40
2.516516648383802
 40
2.642834515405911
 40
2.766156701983436
 40
2.88049184675454
 40
2.979848588358595
 40
3.058235565443741
 40
3.109661416668902
 40
3.12813478070409
 40
3.146783742386435
 40
3.191254343315296
 40
3.244332157315941
 40
3.288802758225787
 40
3.307451719895044
 40
3.327717853844649
 40
3.383747753580013
 40
3.468388665924397
 40
3.574487837698714
 40
3.694892515728827
 40
3.822449946851964
 40
3.950007377920332
 40
4.070412055800435
 40
4.176511227367985
 40
4.261152139501436
 40
4.31718203907663
 40
4.337448172964559
 40
4.620011002696172
 40
4.885096638397457
 40
4.945373043518259
 40
5.014107710488606
 40
5.070481727652004
 40
5.319246955636528
 40
5.58481216450603
 40
5.859000912056882
 40
6.133746937542041
 40
6.401732212968838
 40
6.420736683995415
 40
6.472845717451051
 40
6.550702743894007
 40
6.646951193874202
 40
6.754234497930497
 40
6.865196086587304
 40
6.972479390357762
 40
7.068727839771896
 40
7.146584865450905
 40
7.198693898189134
 40
7.217698368905289
 40
7.234950401630755
 40
7.276089864269807
 40
7.325191803515906
 40
7.366331266090299
 40
7.383583298769651
 40
7.402779163492042
 40
7.453386443254459
 40
7.524934666445461
 40
7.606953361405814
 40
7.688972056428966
 40
7.760520279784203
 40
7.811127559734459
 40
7.830323424546108
 40
7.847844055299717
 40
7.894799345666783
 40
7.962779392744451
 40
8.043374293560518
 40
8.128174145149444
 40
8.208769044817217
 40
8.276749090376939
 40
8.323704379669493
 40
8.34122501005622
 40
8.358497614800397
 40
8.401679126686588
 40
8.457815092185617
 40
8.513951057728036
 40
8.55713256970795
 40
8.574405174505035
 40
8.602340668616396
 40
8.643455660539935
 40
8.663225271966603
 40
8.715345156564261
 40
8.789031889628582
 40
8.873502045520304
 40
8.957972194323936
 40
9.031658925567832
 40
9.083778811234517
 40
9.103548423002984
 40
9.119550083123563
 40
9.160817522379837
 40
9.217244429110188
 40
9.278724491644688
 40
9.335151398295473
 40
9.376418837357754
 40
9.392420497300542
 40
9.401196302734776
 40
9.417494229384225
 40
9.426270027749485
 40
9.440875075477509
 40
9.475702496998705
 40
9.517270709865864
 40
9.552098131994041
 40
9.56670316988424
 40
9.56670316988424
 40
9.56670316988424
 40
9.56670316988424
 10
84.21005216012475
 20
-80.83897657870037
 30
0.0
 10
84.20646125461393
 20
-80.84459838678902
 30
0.0
 10
84.19863065763934
 20
-80.85685774961954
 30
0.0
 10
84.10602364273167
 20
-80.89311613340098
 30
0.0
 10
84.0817889686016
 20
-81.1076508516835
 30
0.0
 10
83.97889772987071
 20
-81.28716244871356
 30
0.0
 10
83.71507598170741
 20
-81.47297955582921
 30
0.0
 10
83.87757390219485
 20
-81.54954192814982
 30
0.0
 10
83.95374932136069
 20
-81.61056836185622
 30
0.0
 10
84.04224385255272
 20
-81.67397724836306
 30
0.0
 10
84.1320197685879
 20
-81.73387895161503
 30
0.0
 10
84.18140850888155
 20
-81.78811374531861
 30
0.0
 10
84.267597561015
 20
-81.81627288839229
 30
0.0
 10
84.23415281269983
 20
-81.85200219728254
 30
0.0
 10
84.21449386190798
 20
-81.88363141389162
 30
0.0
 10
84.18501556706511
 20
-81.92437656584994
 30
0.0
 10
84.16192568988004
 20
-81.95408865891423
 30
0.0
 10
84.13104734211257
 20
-82.00702106712566
 30
0.0
 10
84.06594608185087
 20
-81.88173194442163
 30
0.0
 10
83.97262675751843
 20
-81.82699629147127
 30
0.0
 10
83.8880903737907
 20
-81.76997105441731
 30
0.0
 10
83.76527655785107
 20
-81.6123824195354
 30
0.0
 10
83.76947183000703
 20
-81.68877722614229
 30
0.0
 10
83.76817461054466
 20
-81.7355224921977
 30
0.0
 10
83.76883939008452
 20
-81.81328743568463
 30
0.0
 10
83.76858174397256
 20
-81.91011461056644
 30
0.0
 10
83.768669869269
 20
-82.02263250302256
 30
0.0
 10
83.76863447550492
 20
-82.14389443435364
 30
0.0
 10
83.76867792110477
 20
-82.26826631522104
 30
0.0
 10
83.76854673951743
 20
-82.38945845749727
 30
0.0
 10
83.76897450148154
 20
-82.50222380461321
 30
0.0
 10
83.7676945655079
 20
-82.59830615612319
 30
0.0
 10
83.77100273038127
 20
-82.67799702912367
 30
0.0
 10
83.76454651928549
 20
-82.72098353592276
 30
0.0
 10
83.77364761583249
 20
-82.75958097009024
 30
0.0
 10
83.73781777927034
 20
-82.75102641656994
 30
0.0
 10
83.70454912680208
 20
-82.7557100939562
 30
0.0
 10
83.65348300288099
 20
-82.75562230621284
 30
0.0
 10
83.61999914255816
 20
-82.75119099097247
 30
0.0
 10
83.5837852861523
 20
-82.75952735538553
 30
0.0
 10
83.59400500214343
 20
-82.71768252201781
 30
0.0
 10
83.58667553405422
 20
-82.6713496856089
 30
0.0
 10
83.59039005888718
 20
-82.5853869827505
 30
0.0
 10
83.58897480076647
 20
-82.48308386676217
 30
0.0
 10
83.58943730074076
 20
-82.36460305449549
 30
0.0
 10
83.58930411389991
 20
-82.2395584622771
 30
0.0
 10
83.58932833628145
 20
-82.11437701274015
 30
0.0
 10
83.58936223783198
 20
-81.99626884002006
 30
0.0
 10
83.58923277459013
 20
-81.89284780671551
 30
0.0
 10
83.58957750018499
 20
-81.80981493227401
 30
0.0
 10
83.58889657314593
 20
-81.75770160859821
 30
0.0
 10
83.59248540533912
 20
-81.63000621559706
 30
0.0
 10
83.37564388392062
 20
-81.92864812561444
 30
0.0
 10
83.19516223747195
 20
-82.15649547869555
 30
0.0
 10
83.14205897483805
 20
-82.01540086091246
 30
0.0
 10
83.1130696585918
 20
-81.96587761820123
 30
0.0
 10
83.01269155155882
 20
-81.86271749590958
 30
0.0
 10
83.333539517603
 20
-81.78218494357284
 30
0.0
 10
83.46201644581984
 20
-81.59847246344631
 30
0.0
 10
83.68367217781281
 20
-81.38981533609305
 30
0.0
 10
83.77004923468368
 20
-81.21574318152722
 30
0.0
 10
84.04796616818436
 20
-80.93946478038546
 30
0.0
 10
83.92765152920526
 20
-80.94378969829953
 30
0.0
 10
83.8793464804118
 20
-80.94298673178511
 30
0.0
 10
83.80326449076728
 20
-80.94338947234479
 30
0.0
 10
83.7097277462519
 20
-80.94323253769456
 30
0.0
 10
83.60478622413251
 20
-80.94331026804839
 30
0.0
 10
83.49641551914863
 20
-80.94318065002511
 30
0.0
 10
83.3911721688666
 20
-80.94359135890369
 30
0.0
 10
83.29865052721814
 20
-80.94231455709476
 30
0.0
 10
83.21983982534765
 20
-80.94572762846215
 30
0.0
 10
83.1769942018148
 20
-80.93890179344741
 30
0.0
 10
83.13797670392844
 20
-80.94848465179942
 30
0.0
 10
83.14566327246324
 20
-80.91492749815521
 30
0.0
 10
83.14157318570808
 20
-80.88389979058834
 30
0.0
 10
83.14157988215824
 20
-80.83677000110163
 30
0.0
 10
83.14565071776806
 20
-80.8057258773429
 30
0.0
 10
83.13797630273514
 20
-80.77211667745162
 30
0.0
 10
83.17650868582635
 20
-80.78165118960194
 30
0.0
 10
83.21714954672483
 20
-80.77516093882997
 30
0.0
 10
83.28817393032321
 20
-80.77813378730811
 30
0.0
 10
83.36595856024023
 20
-80.77738767981903
 30
0.0
 10
83.44375596992434
 20
-80.77665715336539
 30
0.0
 10
83.51474995426763
 20
-80.77959293866908
 30
0.0
 10
83.55545472445891
 20
-80.77318060608113
 30
0.0
 10
83.59401209426784
 20
-80.78263005205059
 30
0.0
 10
83.58576102076967
 20
-80.74648837222286
 30
0.0
 10
83.59126141221277
 20
-80.70783691767836
 30
0.0
 10
83.58860216589318
 20
-80.64000000819227
 30
0.0
 10
83.58960829243023
 20
-80.56321887842326
 30
0.0
 10
83.58904454710881
 20
-80.48064135798305
 30
0.0
 10
83.5900981979361
 20
-80.40396200151186
 30
0.0
 10
83.5872943315899
 20
-80.33581538604363
 30
0.0
 10
83.59309701740726
 20
-80.2978112957172
 30
0.0
 10
83.58459220039273
 20
-80.26155081303416
 30
0.0
 10
83.6185877685894
 20
-80.27157805609215
 30
0.0
 10
83.65248431358683
 20
-80.26840262567356
 30
0.0
 10
83.70569365131153
 20
-80.27404563740458
 30
0.0
 10
83.75910360272519
 20
-80.27478754944639
 30
0.0
 10
83.7926182102259
 20
-80.28094305898085
 30
0.0
 10
83.83183536358081
 20
-80.27567499607471
 30
0.0
 10
83.8050531151261
 20
-80.31660148587576
 30
0.0
 10
83.76383784544926
 20
-80.30542324842952
 30
0.0
 10
83.77129089936426
 20
-80.3504647318894
 30
0.0
 10
83.7672495404953
 20
-80.39501251352921
 30
0.0
 10
83.7691981502409
 20
-80.46689956759361
 30
0.0
 10
83.76826323025277
 20
-80.54744898792292
 30
0.0
 10
83.76953746427984
 20
-80.62739533976071
 30
0.0
 10
83.7662311246633
 20
-80.70071692297883
 30
0.0
 10
83.7732373632729
 20
-80.74224886378495
 30
0.0
 10
83.76317078328944
 20
-80.78161110812955
 30
0.0
 10
83.796008225669
 20
-80.77445465950079
 30
0.0
 10
83.82948447492494
 20
-80.77886286243118
 30
0.0
 10
83.88453209287876
 20
-80.77695586033168
 30
0.0
 10
83.94197700480841
 20
-80.7772816297378
 30
0.0
 10
83.99532937010781
 20
-80.77807220647982
 30
0.0
 10
84.03288083494074
 20
-80.77599570262988
 30
0.0
 10
84.05534399760059
 20
-80.77891191213956
 30
0.0
 10
84.06819455264997
 20
-80.7734097673701
 30
0.0
 10
84.07885231386572
 20
-80.77112411183273
 30
0.0
 10
84.0916903102912
 20
-80.7641855679301
 30
0.0
 10
84.1076258485839
 20
-80.78060483067395
 30
0.0
 10
84.13408913736605
 20
-80.79204407061613
 30
0.0
 10
84.16570727065262
 20
-80.81268841545872
 30
0.0
 10
84.19175233449192
 20
-80.82796659752772
 30
0.0
 10
84.2058785176742
 20
-80.83646553057882
 30
0.0
 10
84.21005216012475
 20
-80.83897657870037
 30
0.0
 11
84.21005216012475
 21
-80.83897657870037
 31
0.0
 11
84.19802574550118
 21
-80.85439958216875
 31
0.0
 11
84.17792292483341
 21
-80.86576123147148
 31
0.0
 11
84.07092538085823
 21
-81.08472909149906
 31
0.0
 11
83.9407307387093
 21
-81.29596327868904
 31
0.0
 11
83.79268078188397
 21
-81.49707470353586
 31
0.0
 11
83.86652257065036
 21
-81.54766144445684
 31
0.0
 11
83.95359317645688
 21
-81.60925117727325
 31
0.0
 11
84.04482712031734
 21
-81.6750036878664
 31
0.0
 11
84.13115892324564
 21
-81.73807876211761
 31
0.0
 11
84.20352310625562
 21
-81.79163618590823
 31
0.0
 11
84.25285419036118
 21
-81.8288357451196
 31
0.0
 11
84.24172081549818
 21
-81.8444211851157
 31
0.0
 11
84.21517199851719
 21
-81.88158646510642
 31
0.0
 11
84.1834847008302
 21
-81.9259450250953
 31
0.0
 11
84.1569358838492
 21
-81.96311030508602
 31
0.0
 11
84.14580250898621
 21
-81.97869574508212
 31
0.0
 11
84.07372808157163
 21
-81.91159520690447
 31
0.0
 11
83.97831244381496
 21
-81.82920175206395
 31
0.0
 11
83.87235316049383
 21
-81.7412851201415
 31
0.0
 11
83.76864779638589
 21
-81.65761505071798
 31
0.0
 11
83.76864779638588
 21
-81.67608841480201
 31
0.0
 11
83.7686477963859
 21
-81.72751426617108
 31
0.0
 11
83.76864779638589
 21
-81.80590124350066
 31
0.0
 11
83.76864779638589
 21
-81.90525798546616
 31
0.0
 11
83.76864779638589
 21
-82.01959313074305
 31
0.0
 11
83.76864779638589
 21
-82.14291531800676
 31
0.0
 11
83.76864779638589
 21
-82.26923318593273
 31
0.0
 11
83.7686477963859
 21
-82.39255537319646
 31
0.0
 11
83.76864779638589
 21
-82.50689051847334
 31
0.0
 11
83.76864779638589
 21
-82.60624726043885
 31
0.0
 11
83.76864779638589
 21
-82.68463423776839
 31
0.0
 11
83.76864779638588
 21
-82.73606008913748
 31
0.0
 11
83.76864779638589
 21
-82.75453345322153
 31
0.0
 11
83.74999883463947
 21
-82.75453345322153
 31
0.0
 11
83.70552823355183
 21
-82.75453345322154
 31
0.0
 11
83.65245041935047
 21
-82.75453345322154
 31
0.0
 11
83.60797981826286
 21
-82.75453345322153
 31
0.0
 11
83.58933085651643
 21
-82.75453345322153
 31
0.0
 11
83.58933085651644
 21
-82.73426731920847
 31
0.0
 11
83.58933085651643
 21
-82.67823741928999
 31
0.0
 11
83.58933085651643
 21
-82.59359650664719
 31
0.0
 11
83.58933085651643
 21
-82.48749733446111
 31
0.0
 11
83.58933085651644
 21
-82.36709265591288
 31
0.0
 11
83.58933085651643
 21
-82.23953522418358
 31
0.0
 11
83.58933085651643
 21
-82.1119777924543
 31
0.0
 11
83.58933085651643
 21
-81.99157311390607
 31
0.0
 11
83.58933085651643
 21
-81.88547394172002
 31
0.0
 11
83.58933085651643
 21
-81.80083302907721
 31
0.0
 11
83.58933085651643
 21
-81.74480312915873
 31
0.0
 11
83.58933085651643
 21
-81.72453699514566
 31
0.0
 11
83.38135403022503
 21
-81.91581531107008
 31
0.0
 11
83.16937538111938
 21
-82.07498643950254
 31
0.0
 11
83.14258964672516
 21
-82.0209885742897
 31
0.0
 11
83.1069032867793
 21
-81.96224388809037
 31
0.0
 11
83.07299649468928
 21
-81.91720657843088
 31
0.0
 11
83.27605551950874
 21
-81.7735014218001
 31
0.0
 11
83.4748799411029
 21
-81.59745105851077
 31
0.0
 11
83.66073088969472
 21
-81.39586014856116
 31
0.0
 11
83.82486949550719
 21
-81.17553335194955
 31
0.0
 11
83.95855688876327
 21
-80.94327532867429
 31
0.0
 11
83.93955241772503
 21
-80.94327532867429
 31
0.0
 11
83.88744338423308
 21
-80.94327532867429
 31
0.0
 11
83.80958635772157
 21
-80.94327532867428
 31
0.0
 11
83.7133379076247
 21
-80.94327532867429
 31
0.0
 11
83.60605460337658
 21
-80.94327532867429
 31
0.0
 11
83.49509301441137
 21
-80.94327532867429
 31
0.0
 11
83.38780971016325
 21
-80.94327532867429
 31
0.0
 11
83.29156126006635
 21
-80.94327532867429
 31
0.0
 11
83.21370423355486
 21
-80.94327532867429
 31
0.0
 11
83.16159520006292
 21
-80.94327532867429
 31
0.0
 11
83.14259072902468
 21
-80.94327532867429
 31
0.0
 11
83.14259072902468
 21
-80.92602329590083
 31
0.0
 11
83.14259072902468
 21
-80.88488383313333
 31
0.0
 11
83.14259072902468
 21
-80.83578189370117
 31
0.0
 11
83.14259072902468
 21
-80.79464243093366
 31
0.0
 11
83.14259072902468
 21
-80.7773903981602
 31
0.0
 11
83.16178659387784
 21
-80.7773903981602
 31
0.0
 11
83.21239387394526
 21
-80.77739039816021
 31
0.0
 11
83.28394209748885
 21
-80.7773903981602
 31
0.0
 11
83.36596079277055
 21
-80.77739039816018
 31
0.0
 11
83.44797948805224
 21
-80.7773903981602
 31
0.0
 11
83.51952771159584
 21
-80.77739039816021
 31
0.0
 11
83.57013499166327
 21
-80.7773903981602
 31
0.0
 11
83.58933085651643
 21
-80.7773903981602
 31
0.0
 11
83.58933085651643
 21
-80.75986976725848
 31
0.0
 11
83.58933085651643
 21
-80.71291447644182
 31
0.0
 11
83.58933085651643
 21
-80.64493442854312
 31
0.0
 11
83.58933085651641
 21
-80.56433952639516
 31
0.0
 11
83.58933085651641
 21
-80.47953967283077
 31
0.0
 11
83.58933085651643
 21
-80.39894477068283
 31
0.0
 11
83.58933085651643
 21
-80.3309647227841
 31
0.0
 11
83.58933085651643
 21
-80.28400943196748
 31
0.0
 11
83.58933085651643
 21
-80.26648880106575
 31
0.0
 11
83.606575156488
 21
-80.26747723213546
 31
0.0
 11
83.64968590641698
 21
-80.26994830980972
 31
0.0
 11
83.7057298813246
 21
-80.27316071078629
 31
0.0
 11
83.76177385623224
 21
-80.27637311176285
 31
0.0
 11
83.8048846061612
 21
-80.27884418943714
 31
0.0
 11
83.82212890613278
 21
-80.27983262050684
 31
0.0
 11
83.80740421276204
 21
-80.30357236008425
 31
0.0
 11
83.76864779638589
 21
-80.31729762049753
 31
0.0
 11
83.7686477963859
 21
-80.33706723203771
 31
0.0
 11
83.76864779638589
 21
-80.38918711700732
 31
0.0
 11
83.76864779638589
 21
-80.46287385092985
 31
0.0
 11
83.76864779638589
 21
-80.54734400932885
 31
0.0
 11
83.76864779638589
 21
-80.63181416772787
 31
0.0
 11
83.76864779638589
 21
-80.70550090165041
 31
0.0
 11
83.76864779638589
 21
-80.75762078662
 31
0.0
 11
83.76864779638589
 21
-80.7773903981602
 31
0.0
 11
83.78464945657048
 21
-80.7773903981602
 31
0.0
 11
83.82591689599387
 21
-80.77739039816018
 31
0.0
 11
83.88234380296058
 21
-80.7773903981602
 31
0.0
 11
83.94382386577503
 21
-80.77739039816021
 31
0.0
 11
84.00025077274171
 21
-80.7773903981602
 31
0.0
 11
84.0415182121651
 21
-80.7773903981602
 31
0.0
 11
84.0575198723497
 21
-80.7773903981602
 31
0.0
 11
84.06584738756933
 21
-80.77462141925143
 31
0.0
 11
84.08131277297721
 21
-80.76947902984946
 31
0.0
 11
84.08964028819685
 21
-80.7667100509407
 31
0.0
 11
84.10216312287736
 21
-80.77422576982771
 31
0.0
 11
84.13202526711547
 21
-80.79214786871209
 31
0.0
 11
84.16766718120613
 21
-80.81353876092896
 31
0.0
 11
84.19752932544424
 21
-80.83146085981338
 31
0.0
 11
84.21005216012475
 21
-80.83897657870037
 31
0.0
  0
SPLINE
  5
B1
102
{ACAD_REACTORS
330
CE
102
}
330
48
100
AcDbEntity
  8
_U_30EC_U_30A4_U_30E4_U_30FC_1
  6
Continuous
 62
     2
100
AcDbSpline
210
0.0
220
0.0
230
1.0
 70
    11
 71
     3
 72
    91
 73
    87
 74
    85
 42
0.000000001
 43
0.0000000001
 44
0.00000001
 40
0.0
 40
0.0
 40
0.0
 40
0.0
 40
0.0267532254356701
 40
0.0856103386464049
 40
0.1444674521996496
 40
0.1712206856618514
 40
0.2039416005642536
 40
0.2955601971652484
 40
0.4362601844616776
 40
0.6162252844507534
 40
0.8256392189704982
 40
1.054685709844468
 40
1.293548478893545
 40
1.532411247938303
 40
1.761457738799582
 40
1.970871673298565
 40
2.150836773256718
 40
2.291536760495608
 40
2.383155356836743
 40
2.415876284101334
 40
2.442629517487977
 40
2.501486630949107
 40
2.560343744424249
 40
2.587096977826524
 40
2.617068194440951
 40
2.69924733675612
 40
2.82203264346639
 40
2.973822353257948
 40
3.143014704823405
 40
3.31800793687997
 40
3.487200288186803
 40
3.638989997548284
 40
3.761775303794782
 40
3.843954445753146
 40
3.873925662229841
 40
3.890812773500552
 40
3.907699884771744
 40
3.937960767857333
 40
3.980983618142328
 40
4.199085915228519
 40
4.439444339237279
 40
4.67758824126093
 40
5.050698317837817
 40
5.448212454763245
 40
5.85529121804477
 40
6.138575438885473
 40
6.41743450758431
 40
6.44455110439399
 40
6.504207617363317
 40
6.563864130314698
 40
6.590980727104247
 40
6.848609460381633
 40
7.109611990668592
 40
7.352910904446252
 40
7.557830220705627
 40
7.587518925913556
 40
7.652834077375964
 40
7.718149228845895
 40
7.747837934062203
 40
7.854880190301173
 40
7.976511257403686
 40
8.369487896592531
 40
8.757514959223824
 40
9.126072419331315
 40
9.460639380392363
 40
9.746695593036076
 40
9.777569943118861
 40
9.807050320931996
 40
9.830377336129118
 40
9.886003295436202
 40
9.952395569430124
 40
10.00802152870647
 40
10.03134854388238
 40
10.2135695100961
 40
10.42203479292888
 40
10.66154556731082
 40
10.91693789564324
 40
11.15832906556584
 40
11.18982674596638
 40
11.27286608520425
 40
11.3902665303337
 40
11.52484752840907
 40
11.65942852648467
 40
11.77682897161504
 40
11.85986831085704
 40
11.89136598230449
 40
11.89136598230449
 40
11.89136598230449
 40
11.89136598230449
 10
80.29581524609648
 20
-81.80213928679292
 30
0.0
 10
80.2958505218057
 20
-81.79325682069077
 30
0.0
 10
80.29596341635653
 20
-81.76483292333722
 30
0.0
 10
80.29432520212573
 20
-81.71503890211261
 30
0.0
 10
80.30000177456799
 20
-81.67255964902911
 30
0.0
 10
80.2887196184475
 20
-81.62183374524218
 30
0.0
 10
80.35625644318006
 20
-81.63900628640957
 30
0.0
 10
80.43182966634689
 20
-81.62623302215067
 30
0.0
 10
80.57586245087697
 20
-81.63283799923683
 30
0.0
 10
80.74996866381953
 20
-81.63025067174597
 30
0.0
 10
80.95698670637724
 20
-81.63112937425514
 30
0.0
 10
81.18249556251462
 20
-81.63085321461037
 30
0.0
 10
81.41814297461747
 20
-81.63095189722401
 30
0.0
 10
81.65379079841168
 20
-81.63085344968296
 30
0.0
 10
81.87929850333951
 20
-81.63112851190277
 30
0.0
 10
82.08632020855738
 20
-81.63025343110328
 30
0.0
 10
82.26041563680569
 20
-81.63283006702618
 30
0.0
 10
82.40447595247541
 20
-81.62625238931854
 30
0.0
 10
82.4799959368062
 20
-81.63897285975456
 30
0.0
 10
82.54760434897987
 20
-81.6218712918938
 30
0.0
 10
82.5361107593445
 20
-81.67238743578123
 30
0.0
 10
82.54353720345021
 20
-81.71660277154565
 30
0.0
 10
82.53591063807553
 20
-81.76045562877455
 30
0.0
 10
82.5476756912194
 20
-81.81035154901737
 30
0.0
 10
82.4861055944752
 20
-81.7952030166855
 30
0.0
 10
82.41870591914403
 20
-81.80602864030391
 30
0.0
 10
82.29432715089906
 20
-81.80061497754826
 30
0.0
 10
82.14846956893396
 20
-81.80264323990282
 30
0.0
 10
81.9823843892854
 20
-81.8019775180268
 30
0.0
 10
81.81186800744933
 20
-81.80223885859817
 30
0.0
 10
81.64500583081573
 20
-81.80191975989976
 30
0.0
 10
81.50176142798743
 20
-81.80278226790296
 30
0.0
 10
81.37035813226026
 20
-81.8005022889808
 30
0.0
 10
81.31701265874256
 20
-81.80505825006861
 30
0.0
 10
81.24154559096809
 20
-81.79913614388187
 30
0.0
 10
81.26993432320009
 20
-81.80819360037714
 30
0.0
 10
81.2963919862311
 20
-81.81187617112137
 30
0.0
 10
81.25637903604701
 20
-81.84259257412788
 30
0.0
 10
81.16439311446378
 20
-81.83245938206439
 30
0.0
 10
81.13696636598375
 20
-82.07881027133274
 30
0.0
 10
81.04090614200031
 20
-82.23413970616696
 30
0.0
 10
80.78475454172417
 20
-82.56388111449493
 30
0.0
 10
81.35578051855312
 20
-82.42483507170611
 30
0.0
 10
81.61039237732847
 20
-82.426217494077
 30
0.0
 10
82.2209914501386
 20
-82.5112296013898
 30
0.0
 10
81.92709660308523
 20
-82.21228111822862
 30
0.0
 10
81.60635717392859
 20
-82.06582672479283
 30
0.0
 10
81.72438108132023
 20
-82.00887988562779
 30
0.0
 10
81.76549839190302
 20
-81.98493429507718
 30
0.0
 10
81.80870798471801
 20
-81.96313770569836
 30
0.0
 10
81.91048415472191
 20
-81.8998480812716
 30
0.0
 10
82.02591350780169
 20
-82.15766377972281
 30
0.0
 10
82.22598590950462
 20
-82.29297488267385
 30
0.0
 10
82.31993448399967
 20
-82.47120734242179
 30
0.0
 10
82.54890971991622
 20
-82.62915708354019
 30
0.0
 10
82.45262992994768
 20
-82.67997556804762
 30
0.0
 10
82.40982272165482
 20
-82.71032236858014
 30
0.0
 10
82.36485109815479
 20
-82.73447399099602
 30
0.0
 10
82.30519883779827
 20
-82.78361382633499
 30
0.0
 10
82.27199985140935
 20
-82.64916053707456
 30
0.0
 10
82.15122808035656
 20
-82.49319264094484
 30
0.0
 10
81.79012434587473
 20
-82.6234360132151
 30
0.0
 10
81.43153294083098
 20
-82.60688834971583
 30
0.0
 10
81.0501187902848
 20
-82.61582300029198
 30
0.0
 10
80.76337227356603
 20
-82.6803085770866
 30
0.0
 10
80.45223230524829
 20
-82.56682861188236
 30
0.0
 10
80.41990052715568
 20
-82.67791269453299
 30
0.0
 10
80.38264457060862
 20
-82.69717215531053
 30
0.0
 10
80.37960050855223
 20
-82.6503874529377
 30
0.0
 10
80.36101603133753
 20
-82.61106675461932
 30
0.0
 10
80.34427040695468
 20
-82.5514754590283
 30
0.0
 10
80.33139983685211
 20
-82.50711559509782
 30
0.0
 10
80.29725952591996
 20
-82.41807198260865
 30
0.0
 10
80.54129819105215
 20
-82.48732486437292
 30
0.0
 10
80.73716619394403
 20
-82.50883160323319
 30
0.0
 10
80.83256938340456
 20
-82.226870449026
 30
0.0
 10
80.88754032223659
 20
-82.06550483959948
 30
0.0
 10
81.10898868099247
 20
-81.79522351791313
 30
0.0
 10
80.97795068339856
 20
-81.80365082527338
 30
0.0
 10
80.9040294008623
 20
-81.80134520884087
 30
0.0
 10
80.79077273290125
 20
-81.8024215105941
 30
0.0
 10
80.66245192602531
 20
-81.80205890304552
 30
0.0
 10
80.53345194831837
 20
-81.80215804914978
 30
0.0
 10
80.42181083990602
 20
-81.80213596668492
 30
0.0
 10
80.34449314227949
 20
-81.80213950191396
 30
0.0
 10
80.30631439847787
 20
-81.80213933535983
 30
0.0
 10
80.29581524609648
 20
-81.80213928679292
 30
0.0
 11
80.29581524609648
 21
-81.80213928679292
 31
0.0
 11
80.29581524609648
 21
-81.77538605329266
 31
0.0
 11
80.29581524609648
 21
-81.71652893959211
 31
0.0
 11
80.29581524609648
 21
-81.65767182589155
 31
0.0
 11
80.29581524609648
 21
-81.6309185923913
 31
0.0
 11
80.32853617337577
 21
-81.63091859239131
 31
0.0
 11
80.4201547697578
 21
-81.6309185923913
 31
0.0
 11
80.56085475705873
 21
-81.6309185923913
 31
0.0
 11
80.74081985709485
 21
-81.6309185923913
 31
0.0
 11
80.95023379168231
 21
-81.6309185923913
 31
0.0
 11
81.17928028263734
 21
-81.6309185923913
 31
0.0
 11
81.41814305177616
 21
-81.63091859239128
 31
0.0
 11
81.65700582091497
 21
-81.63091859239128
 31
0.0
 11
81.88605231187
 21
-81.6309185923913
 31
0.0
 11
82.09546624645748
 21
-81.6309185923913
 31
0.0
 11
82.27543134649358
 21
-81.63091859239131
 31
0.0
 11
82.41613133379452
 21
-81.6309185923913
 31
0.0
 11
82.50774993017654
 21
-81.63091859239128
 31
0.0
 11
82.54047085745583
 21
-81.6309185923913
 31
0.0
 11
82.54047085745583
 21
-81.65767182589155
 31
0.0
 11
82.54047085745583
 21
-81.71652893959211
 31
0.0
 11
82.54047085745583
 21
-81.77538605329266
 31
0.0
 11
82.54047085745583
 21
-81.80213928679292
 31
0.0
 11
82.51049964075268
 21
-81.80213928679291
 31
0.0
 11
82.42832049817956
 21
-81.80213928679292
 31
0.0
 11
82.30553519104087
 21
-81.80213928679291
 31
0.0
 11
82.15374548064109
 21
-81.80213928679294
 31
0.0
 11
81.98455312828465
 21
-81.80213928679294
 31
0.0
 11
81.80955989527597
 21
-81.80213928679291
 31
0.0
 11
81.64036754291952
 21
-81.80213928679294
 31
0.0
 11
81.48857783251972
 21
-81.80213928679291
 31
0.0
 11
81.36579252538107
 21
-81.80213928679292
 31
0.0
 11
81.28361338280791
 21
-81.80213928679292
 31
0.0
 11
81.25364216610478
 21
-81.80213928679292
 31
0.0
 11
81.26966268652939
 21
-81.80747946040272
 31
0.0
 11
81.28568320695399
 21
-81.8128196340125
 31
0.0
 11
81.26364231341894
 21
-81.83355414789621
 31
0.0
 11
81.22151293081322
 21
-81.84227657844954
 31
0.0
 11
81.12955029941462
 21
-82.04004282068409
 31
0.0
 11
81.02093459745322
 21
-82.25446017402555
 31
0.0
 11
80.90577682775756
 21
-82.46290970329444
 31
0.0
 11
81.27876341277887
 21
-82.45331088128034
 31
0.0
 11
81.67609674889191
 21
-82.4413229697607
 31
0.0
 11
82.08296096439142
 21
-82.42810817552532
 31
0.0
 11
81.89133869497473
 21
-82.21946768078583
 31
0.0
 11
81.68970194664666
 21
-82.02684109229233
 31
0.0
 11
81.71352152475178
 21
-82.01388202111501
 31
0.0
 11
81.76592459658303
 21
-81.9853720645249
 31
0.0
 11
81.8183276684143
 21
-81.95686210793477
 31
0.0
 11
81.8421472465194
 21
-81.94390303675745
 31
0.0
 11
82.03173690113957
 21
-82.11834021010795
 31
0.0
 11
82.21305783932043
 21
-82.30607683006974
 31
0.0
 11
82.37079966839161
 21
-82.49131148388628
 31
0.0
 11
82.48965199568272
 21
-82.65824275880115
 31
0.0
 11
82.4645675670692
 21
-82.67412327094995
 31
0.0
 11
82.40938182411946
 21
-82.70906039767732
 31
0.0
 11
82.35419608116973
 21
-82.74399752440468
 31
0.0
 11
82.32911165255621
 21
-82.75987803655349
 31
0.0
 11
82.27057856043812
 21
-82.67025704699255
 31
0.0
 11
82.19802825312263
 21
-82.57263241160032
 31
0.0
 11
81.80556803768636
 21
-82.59277242437307
 31
0.0
 11
81.4179741522329
 21
-82.61110226381292
 31
0.0
 11
81.04976464289814
 21
-82.6271135065867
 31
0.0
 11
80.71545755581809
 21
-82.64029772936118
 31
0.0
 11
80.42957093712869
 21
-82.65014650880315
 31
0.0
 11
80.41421297745089
 21
-82.6769300591437
 31
0.0
 11
80.38677017433145
 21
-82.6876997032382
 31
0.0
 11
80.3798194645088
 21
-82.66543229935488
 31
0.0
 11
80.3632446949317
 21
-82.61233310547927
 31
0.0
 11
80.34346190543644
 21
-82.54895664827288
 31
0.0
 11
80.32688713585935
 21
-82.49585745439727
 31
0.0
 11
80.31993642603669
 21
-82.47359005051395
 31
0.0
 11
80.5021467311922
 21
-82.47161890468112
 31
0.0
 11
80.71052433013568
 21
-82.46557317551593
 31
0.0
 11
80.82334705799846
 21
-82.2542997907951
 31
0.0
 11
80.9338204174804
 21
-82.02403716225184
 31
0.0
 11
81.02885217183962
 21
-81.80213928679292
 31
0.0
 11
80.9973544914366
 21
-81.80213928679294
 31
0.0
 11
80.91431515219224
 21
-81.80213928679292
 31
0.0
 11
80.7969147070537
 21
-81.80213928679292
 31
0.0
 11
80.66233370896805
 21
-81.80213928679292
 31
0.0
 11
80.5277527108824
 21
-81.80213928679292
 31
0.0
 11
80.41035226574385
 21
-81.80213928679291
 31
0.0
 11
80.3273129264995
 21
-81.80213928679292
 31
0.0
 11
80.29581524609648
 21
-81.80213928679292
 31
0.0
  0
SPLINE
  5
B2
102
{ACAD_REACTORS
330
CF
102
}
330
48
100
AcDbEntity
  8
_U_30EC_U_30A4_U_30E4_U_30FC_1
  6
Continuous
 62
     2
100
AcDbSpline
210
0.0
220
0.0
230
1.0
 70
    11
 71
     3
 72
    35
 73
    31
 74
    29
 42
0.000000001
 43
0.0000000001
 44
0.00000001
 40
0.0
 40
0.0
 40
0.0
 40
0.0
 40
0.0335231036620624
 40
0.0713218571711924
 40
0.427886668148673
 40
0.8116865841963943
 40
1.198190238000035
 40
1.561379546812661
 40
1.659983174621998
 40
1.759315573807148
 40
2.132719617231037
 40
2.525233363588773
 40
2.910815397779668
 40
3.26524436430327
 40
3.592606723581976
 40
3.96438615460392
 40
4.359942131737769
 40
4.758154118639274
 40
4.843846538699872
 40
4.936650065543183
 40
5.256616602537263
 40
5.581707404415952
 40
5.899719158308081
 40
6.198363494280679
 40
6.46630104661572
 40
6.493895311537026
 40
6.55969702019682
 40
6.638234543442366
 40
6.704036252154162
 40
6.731630508422939
 40
6.731630508422939
 40
6.731630508422939
 40
6.731630508422939
 10
81.56662780214378
 20
-80.27449685661931
 30
0.0
 10
81.56062735505577
 20
-80.28432838838741
 30
0.0
 10
81.54786115519252
 20
-80.30524540801264
 30
0.0
 10
81.38796294593239
 20
-80.33786402848382
 30
0.0
 10
81.82522932951052
 20
-80.62706849044363
 30
0.0
 10
82.02756622810301
 20
-80.82872391022624
 30
0.0
 10
82.2749831720742
 20
-81.0716414177779
 30
0.0
 10
82.7761781077374
 20
-81.14865866623283
 30
0.0
 10
82.60558296517391
 20
-81.29036590206408
 30
0.0
 10
82.53135669159698
 20
-81.49203163171956
 30
0.0
 10
82.20616997009567
 20
-81.13957242206344
 30
0.0
 10
81.92080091234327
 20
-80.97738316821498
 30
0.0
 10
81.62678715304266
 20
-80.77226399328019
 30
0.0
 10
81.40147201439027
 20
-80.29086040785609
 30
0.0
 10
81.19233525082907
 20
-80.75570482771843
 30
0.0
 10
80.91381411276032
 20
-80.96562577128155
 30
0.0
 10
80.63016506299775
 20
-81.13489073021077
 30
0.0
 10
80.30089069806004
 20
-81.50771168473128
 30
0.0
 10
80.22072797709929
 20
-81.31205514922064
 30
0.0
 10
80.06899923625137
 20
-81.18422425190468
 30
0.0
 10
80.50136632795633
 20
-81.1045949761513
 30
0.0
 10
80.68928327825343
 20
-80.90886894465586
 30
0.0
 10
80.93987448732716
 20
-80.69280532464313
 30
0.0
 10
81.16446179229298
 20
-80.52722537081
 30
0.0
 10
81.21900428624812
 20
-80.24779564744247
 30
0.0
 10
81.34249284817803
 20
-80.26175578972982
 30
0.0
 10
81.3990540797289
 20
-80.26392260513421
 30
0.0
 10
81.46921384377131
 20
-80.26866669499702
 30
0.0
 10
81.52636814748737
 20
-80.27204100030526
 30
0.0
 10
81.55744577736078
 20
-80.27393674669946
 30
0.0
 10
81.56662780214378
 20
-80.27449685661931
 30
0.0
 11
81.56662780214378
 21
-80.27449685661931
 31
0.0
 11
81.5455586522653
 21
-80.30057154411278
 31
0.0
 11
81.51047320121938
 21
-80.31463414827596
 31
0.0
 11
81.7442642221863
 21
-80.58385568249683
 31
0.0
 11
82.0344853410335
 21
-80.83500121411805
 31
0.0
 11
82.35430649364525
 21
-81.0520254176228
 31
0.0
 11
82.67689761590577
 21
-81.21888296749427
 31
0.0
 11
82.61435673208453
 21
-81.29511493796136
 31
0.0
 11
82.56183032717439
 21
-81.3794233146764
 31
0.0
 11
82.23665465485826
 21
-81.19587124549486
 31
0.0
 11
81.91674952212047
 21
-80.96843389637637
 31
0.0
 11
81.62844676113764
 21
-80.71239674257755
 31
0.0
 11
81.39807820408635
 21
-80.44304525935499
 31
0.0
 11
81.1925799172285
 21
-80.6978718066003
 31
0.0
 11
80.92185687943046
 21
-80.9526834710331
 31
0.0
 11
80.60498058760153
 21
-81.18944063026208
 31
0.0
 11
80.26102253865099
 21
-81.39010366189598
 31
0.0
 11
80.21491227941067
 21
-81.31787461677511
 31
0.0
 11
80.15672379131172
 21
-81.24557942582098
 31
0.0
 11
80.43633079417839
 21
-81.0900207241932
 31
0.0
 11
80.70232720739227
 21
-80.9031251959066
 31
0.0
 11
80.94302649125153
 21
-80.69529033095856
 31
0.0
 11
81.14674210605429
 21
-80.47691361934648
 31
0.0
 11
81.30178751209871
 21
-80.25839255106777
 31
0.0
 11
81.3293309022634
 21
-80.26006739884512
 31
0.0
 11
81.39501129419459
 21
-80.26406126662192
 31
0.0
 11
81.47340402004792
 21
-80.26882814106517
 31
0.0
 11
81.5390844119791
 21
-80.27282200884196
 31
0.0
 11
81.56662780214378
 21
-80.27449685661931
 31
0.0
  0
SPLINE
  5
B3
102
{ACAD_REACTORS
330
D0
102
}
330
48
100
AcDbEntity
  8
_U_30EC_U_30A4_U_30E4_U_30FC_1
  6
Continuous
 62
     2
100
AcDbSpline
210
0.0
220
0.0
230
1.0
 70
    11
 71
     3
 72
    15
 73
    11
 74
     9
 42
0.000000001
 43
0.0000000001
 44
0.00000001
 40
0.0
 40
0.0
 40
0.0
 40
0.0
 40
0.2785535985096553
 40
0.5215624748198865
 40
0.6076917376040427
 40
0.6938210001741497
 40
0.9405019146455197
 40
1.221691403489148
 40
1.300471877081087
 40
1.379252341684854
 40
1.379252341684854
 40
1.379252341684854
 40
1.379252341684854
 10
79.16117610837682
 20
-80.27983262050684
 30
0.0
 10
79.22262852469466
 20
-80.33221882788348
 30
0.0
 10
79.33769174268826
 20
-80.4303065258284
 30
0.0
 10
79.63276159500131
 20
-80.58023743483848
 30
0.0
 10
79.49554150846257
 20
-80.6657030186605
 30
0.0
 10
79.39714952965468
 20
-80.7982774417951
 30
0.0
 10
79.30603010434186
 20
-80.49296543599645
 30
0.0
 10
78.95671069334243
 20
-80.42945659915694
 30
0.0
 10
79.10495258293389
 20
-80.33017019500183
 30
0.0
 10
79.14243493270052
 20
-80.29661180978681
 30
0.0
 10
79.16117610837682
 20
-80.27983262050684
 30
0.0
 11
79.16117610837682
 21
-80.27983262050684
 31
0.0
 11
79.38494898933651
 21
-80.44571755102092
 31
0.0
 11
79.56253137591523
 21
-80.611602481535
 31
0.0
 11
79.4996575580748
 21
-80.67046786346472
 31
0.0
 11
79.43678374023438
 21
-80.72933324539444
 31
0.0
 11
79.26188025704937
 21
-80.55537852321574
 31
0.0
 11
79.04085243089088
 21
-80.38155609270362
 31
0.0
 11
79.10101426963385
 21
-80.33069435660522
 31
0.0
 11
79.16117610837682
 21
-80.27983262050684
 31
0.0
  0
SPLINE
  5
B4
102
{ACAD_REACTORS
330
D1
102
}
330
48
100
AcDbEntity
  8
_U_30EC_U_30A4_U_30E4_U_30FC_1
  6
Continuous
 62
     2
100
AcDbSpline
210
0.0
220
0.0
230
1.0
 70
    11
 71
     3
 72
    75
 73
    71
 74
    69
 42
0.000000001
 43
0.0000000001
 44
0.00000001
 40
0.0
 40
0.0
 40
0.0
 40
0.0
 40
0.0342546099129638
 40
0.1245622414432293
 40
0.25223854808975
 40
0.3985991922940857
 40
0.5449598364980945
 40
0.6726361431438763
 40
0.7629437746737155
 40
0.7971983935298115
 40
1.101723623449689
 40
1.408591244036655
 40
1.433332471690369
 40
1.487763172450161
 40
1.542193873081986
 40
1.566935100592537
 40
1.923523931821842
 40
2.271755704953655
 40
2.590579755100912
 40
2.85894330558114
 40
2.889120339309143
 40
2.918305855191088
 40
2.941366645531214
 40
2.99635776097311
 40
3.061992318140648
 40
3.116983433626847
 40
3.140044223997539
 40
3.41127312293643
 40
3.732441619741093
 40
3.761068217532793
 40
3.837787499630363
 40
3.948858699126004
 40
4.08054104910438
 40
4.219093782625774
 40
4.350776132722314
 40
4.461847332405637
 40
4.538566614678371
 40
4.567193212544635
 40
4.594907573998893
 40
4.666381453557418
 40
4.764111044011028
 40
4.87059253812586
 40
4.968322128642296
 40
5.039796008286967
 40
5.067510369784412
 40
5.094263603185621
 40
5.153120716668252
 40
5.211977830150684
 40
5.238731063551708
 40
5.27229053513899
 40
5.363380529444808
 40
5.497618415781486
 40
5.660621563453728
 40
5.838007341749443
 40
6.015393119910752
 40
6.178396267038392
 40
6.312634151842329
 40
6.403724143059361
 40
6.437283612672442
 40
6.46403684626105
 40
6.522893960004677
 40
6.581751071483933
 40
6.608504301590881
 40
6.637253941281014
 40
6.711397748902866
 40
6.812778057283478
 40
6.923237199249255
 40
7.024617507623927
 40
7.098761315207565
 40
7.127510946007544
 40
7.127510946007544
 40
7.127510946007544
 40
7.127510946007544
 10
78.03488898433329
 20
-81.550644009078
 30
0.0
 10
78.03488902724757
 20
-81.56206215972345
 30
0.0
 10
78.0348891933897
 20
-81.6035827153843
 30
0.0
 10
78.0348860534556
 20
-81.68766607377295
 30
0.0
 10
78.03490557325686
 20
-81.80909032058734
 30
0.0
 10
78.0348179640506
 20
-81.94933035333617
 30
0.0
 10
78.0351383687999
 20
-82.0890697258649
 30
0.0
 10
78.03418733625091
 20
-82.21168490486136
 30
0.0
 10
78.03622460487358
 20
-82.2932645494302
 30
0.0
 10
78.02797006315149
 20
-82.44642262303373
 30
0.0
 10
78.33610653936707
 20
-82.28353293326342
 30
0.0
 10
78.6280912626502
 20
-82.1143059069307
 30
0.0
 10
78.6338621901477
 20
-82.24940293599151
 30
0.0
 10
78.6385739172659
 20
-82.2929630822062
 30
0.0
 10
78.64128028646867
 20
-82.33702280030519
 30
0.0
 10
78.66028131257278
 20
-82.48640939017928
 30
0.0
 10
78.25142097000712
 20
-82.42232357139807
 30
0.0
 10
77.97239778016005
 20
-82.53617187970048
 30
0.0
 10
77.69483490399355
 20
-82.63549433569932
 30
0.0
 10
77.40301046371684
 20
-82.59282841784696
 30
0.0
 10
77.3799412131427
 20
-82.69591849636527
 30
0.0
 10
77.34677418361024
 20
-82.72222438136593
 30
0.0
 10
77.34109214155072
 20
-82.67458220344761
 30
0.0
 10
77.32144820118135
 20
-82.63733193265996
 30
0.0
 10
77.30253569383918
 20
-82.57906141533503
 30
0.0
 10
77.2873117320476
 20
-82.5352832837326
 30
0.0
 10
77.24075138257052
 20
-82.42154108334756
 30
0.0
 10
77.58211647652197
 20
-82.45337228261016
 30
0.0
 10
77.86099168201525
 20
-82.48752094274585
 30
0.0
 10
77.85480204876767
 20
-82.33999552901415
 30
0.0
 10
77.85612029055416
 20
-82.26900378472232
 30
0.0
 10
77.85550991427172
 20
-82.16193761422403
 30
0.0
 10
77.85561390234933
 20
-82.03514999595066
 30
0.0
 10
77.85602554168247
 20
-81.90064285885015
 30
0.0
 10
77.85441752947374
 20
-81.7751797942988
 30
0.0
 10
77.85901700206941
 20
-81.66408282661946
 30
0.0
 10
77.8494453954979
 20
-81.60151642580378
 30
0.0
 10
77.86342692364599
 20
-81.54318141086061
 30
0.0
 10
77.80776518394735
 20
-81.55623818798823
 30
0.0
 10
77.75059226505898
 20
-81.54777221631566
 30
0.0
 10
77.65463163784165
 20
-81.55183553300425
 30
0.0
 10
77.556403497559
 20
-81.54942639528595
 30
0.0
 10
77.46028499103289
 20
-81.55361928767675
 30
0.0
 10
77.40349159785801
 20
-81.54484182939899
 30
0.0
 10
77.34806243261534
 20
-81.55818592530943
 30
0.0
 10
77.36009468806857
 20
-81.50876618421808
 30
0.0
 10
77.35222706267069
 20
-81.46519541350669
 30
0.0
 10
77.35965630165974
 20
-81.4208306026254
 30
0.0
 10
77.34821980169127
 20
-81.37011231617072
 30
0.0
 10
77.41623698229016
 20
-81.38751068623317
 30
0.0
 10
77.48987643325157
 20
-81.37496079143877
 30
0.0
 10
77.62553315109798
 20
-81.3811385236997
 30
0.0
 10
77.78151764772944
 20
-81.37884326287978
 30
0.0
 10
77.95461938109126
 20
-81.37972561118534
 30
0.0
 10
78.12772104169504
 20
-81.37884322238654
 30
0.0
 10
78.28370572639852
 20
-81.38113866425513
 30
0.0
 10
78.41936193425663
 20
-81.37496043118635
 30
0.0
 10
78.49300241584216
 20
-81.38751135162728
 30
0.0
 10
78.56101816274926
 20
-81.37011156368922
 30
0.0
 10
78.54958583386912
 20
-81.42083398966508
 30
0.0
 10
78.55698069110662
 20
-81.46516468569958
 30
0.0
 10
78.54923073650396
 20
-81.50885221830868
 30
0.0
 10
78.56114711946456
 20
-81.55849939282587
 30
0.0
 10
78.50384376763863
 20
-81.54452118042636
 30
0.0
 10
78.44504132425416
 20
-81.55373773707814
 30
0.0
 10
78.34555610859685
 20
-81.54961261216133
 30
0.0
 10
78.24245475511185
 20
-81.55090769355179
 30
0.0
 10
78.14681138073425
 20
-81.55059452303425
 30
0.0
 10
78.07877354243858
 20
-81.55064752683919
 30
0.0
 10
78.04447296662117
 20
-81.55064477509406
 30
0.0
 10
78.03488898433329
 20
-81.550644009078
 30
0.0
 11
78.03488898433329
 21
-81.550644009078
 31
0.0
 11
78.03488898433329
 21
-81.58489862793878
 31
0.0
 11
78.03488898433329
 21
-81.67520625948089
 31
0.0
 11
78.03488898433329
 21
-81.80288256614385
 31
0.0
 11
78.03488898433329
 21
-81.94924321036726
 31
0.0
 11
78.03488898433329
 21
-82.09560385459065
 31
0.0
 11
78.03488898433329
 21
-82.2232801612536
 31
0.0
 11
78.03488898433329
 21
-82.31358779279572
 31
0.0
 11
78.03488898433329
 21
-82.3478424116565
 31
0.0
 11
78.3322200097336
 21
-82.28204053667297
 31
0.0
 11
78.63148910800135
 21
-82.21417491168992
 31
0.0
 11
78.63357545777453
 21
-82.23882801498236
 31
0.0
 11
78.63816542727551
 21
-82.29306484222575
 31
0.0
 11
78.6427553967765
 21
-82.34730166946912
 31
0.0
 11
78.64484174654967
 21
-82.37195477276157
 31
0.0
 11
78.29866643420088
 21
-82.45750159240168
 31
0.0
 11
77.95999205916067
 21
-82.53852651751164
 31
0.0
 11
77.64939989694564
 21
-82.61050765356137
 31
0.0
 11
77.3874712230724
 21
-82.66892310602074
 31
0.0
 11
77.3747782482061
 21
-82.69630086643052
 31
0.0
 11
77.35000622402822
 21
-82.7117326893433
 31
0.0
 11
77.34221350422702
 21
-82.69002845990428
 31
0.0
 11
77.32363086470107
 21
-82.63827222047279
 31
0.0
 11
77.30145158526688
 21
-82.57649864437714
 31
0.0
 11
77.28286894574092
 21
-82.52474240494564
 31
0.0
 11
77.2750762259397
 21
-82.50303817550662
 31
0.0
 11
77.54130437887002
 21
-82.45119527621398
 31
0.0
 11
77.85566023890578
 21
-82.38539560609155
 31
0.0
 11
77.8556602389058
 21
-82.35676900811441
 31
0.0
 11
77.85566023890578
 21
-82.28004972553565
 31
0.0
 11
77.85566023890578
 21
-82.16897852538433
 31
0.0
 11
77.85566023890578
 21
-82.03729617468946
 31
0.0
 11
77.85566023890578
 21
-81.89874344048008
 31
0.0
 11
77.85566023890578
 21
-81.76706108978522
 31
0.0
 11
77.85566023890578
 21
-81.6559898896339
 31
0.0
 11
77.85566023890578
 21
-81.57927060705515
 31
0.0
 11
77.85566023890578
 21
-81.550644009078
 31
0.0
 11
77.82794587738772
 21
-81.55064400907798
 31
0.0
 11
77.75647199768324
 21
-81.550644009078
 31
0.0
 11
77.65874240706691
 21
-81.550644009078
 31
0.0
 11
77.5522609128133
 21
-81.55064400907801
 31
0.0
 11
77.45453132219696
 21
-81.550644009078
 31
0.0
 11
77.38305744249249
 21
-81.55064400907798
 31
0.0
 11
77.35534308097442
 21
-81.550644009078
 31
0.0
 11
77.35534308097442
 21
-81.52389077557774
 31
0.0
 11
77.35534308097442
 21
-81.4650336618772
 31
0.0
 11
77.35534308097442
 21
-81.40617654817666
 31
0.0
 11
77.35534308097442
 21
-81.3794233146764
 31
0.0
 11
77.38890255256439
 21
-81.3794233146764
 31
0.0
 11
77.47999254687998
 21
-81.3794233146764
 31
0.0
 11
77.61423043323984
 21
-81.37942331467642
 31
0.0
 11
77.7772335809625
 21
-81.37942331467639
 31
0.0
 11
77.95461935936657
 21
-81.3794233146764
 31
0.0
 11
78.13200513777066
 21
-81.3794233146764
 31
0.0
 11
78.29500828549332
 21
-81.3794233146764
 31
0.0
 11
78.42924617185315
 21
-81.3794233146764
 31
0.0
 11
78.52033616616876
 21
-81.3794233146764
 31
0.0
 11
78.55389563775873
 21
-81.3794233146764
 31
0.0
 11
78.55389563775873
 21
-81.40617654817665
 31
0.0
 11
78.55389563775873
 21
-81.46503366187721
 31
0.0
 11
78.55389563775873
 21
-81.52389077557774
 31
0.0
 11
78.55389563775873
 21
-81.550644009078
 31
0.0
 11
78.5251459980646
 21
-81.55064400907798
 31
0.0
 11
78.4510021904324
 21
-81.550644009078
 31
0.0
 11
78.34962188203735
 21
-81.550644009078
 31
0.0
 11
78.23916274005467
 21
-81.55064400907801
 31
0.0
 11
78.13778243165962
 21
-81.550644009078
 31
0.0
 11
78.0636386240274
 21
-81.55064400907798
 31
0.0
 11
78.03488898433329
 21
-81.550644009078
 31
0.0
  0
SPLINE
  5
B5
102
{ACAD_REACTORS
330
D2
102
}
330
48
100
AcDbEntity
  8
_U_30EC_U_30A4_U_30E4_U_30FC_1
  6
Continuous
 62
     2
100
AcDbSpline
210
0.0
220
0.0
230
1.0
 70
    11
 71
     3
 72
    91
 73
    87
 74
    85
 42
0.000000001
 43
0.0000000001
 44
0.00000001
 40
0.0
 40
0.0
 40
0.0
 40
0.0
 40
0.0345987051695576
 40
0.1258134969461511
 40
0.2547723404888845
 40
0.4026032099153983
 40
0.5504340793416846
 40
0.6793929228836364
 40
0.7706077146571462
 40
0.8052064287781209
 40
1.124852390615331
 40
1.427402236308909
 40
1.706356627453569
 40
1.95554141787524
 40
2.169485938566399
 40
2.34435078666482
 40
2.480568411562007
 40
2.590440557428999
 40
2.649189927151154
 40
2.749320643306372
 40
2.912632739880053
 40
3.147745656000261
 40
3.244827496385118
 40
3.33849005694675
 40
3.58381541320717
 40
3.761423943238546
 40
3.886956104362697
 40
3.985855451886879
 40
4.091766255337707
 40
4.250186473811898
 40
4.422734315084569
 40
4.628285684838648
 40
4.872093227758495
 40
5.152549652145593
 40
5.464967135837585
 40
5.803201477852489
 40
6.160362988813982
 40
6.193449448276023
 40
6.284170385501663
 40
6.419718138764547
 40
6.587285046385811
 40
6.774063446723726
 40
6.96724567811368
 40
7.154024078817723
 40
7.321590987026052
 40
7.457138740890438
 40
7.547859678556175
 40
7.58094613818272
 40
7.608533084714774
 40
7.669224367077741
 40
7.729915649429965
 40
7.757502595950025
 40
7.790278062553479
 40
7.880146277430977
 40
8.014419963180412
 40
8.180411842397927
 40
8.365434637679368
 40
8.556801071622711
 40
8.741823866830781
 40
8.907815745916349
 40
9.042089431507474
 40
9.131957646249571
 40
9.164733112797176
 40
9.4154250631401
 40
9.667986180958563
 40
9.694169807462673
 40
9.756607686047605
 40
9.831130315322481
 40
9.893568193899918
 40
9.919751820398734
 40
9.950967964690555
 40
9.996421631210692
 40
10.22087981037457
 40
10.44341866197545
 40
10.47847970788861
 40
10.57091337438758
 40
10.70159545461234
 40
10.85140174170365
 40
11.00120802880485
 40
11.1318901090739
 40
11.22432377583017
 40
11.25938480938963
 40
11.28697175596152
 40
11.34766303835926
 40
11.40835432042078
 40
11.4359412589211
 40
11.4359412589211
 40
11.4359412589211
 40
11.4359412589211
 10
79.6748381786058
 20
-80.95670734255987
 30
0.0
 10
79.66330532977095
 20
-80.95670739093147
 30
0.0
 10
79.62136768977676
 20
-80.956707556769
 30
0.0
 10
79.53643971717938
 20
-80.95670403580154
 30
0.0
 10
79.41379560058976
 20
-80.95672602945184
 30
0.0
 10
79.27214743697618
 20
-80.95662728204013
 30
0.0
 10
79.13100211512585
 20
-80.95698843148642
 30
0.0
 10
79.00716187706723
 20
-80.95591645771972
 30
0.0
 10
78.92474852781501
 20
-80.95821280289798
 30
0.0
 10
78.76580586824605
 20
-80.94864960007638
 30
0.0
 10
78.9433669806144
 20
-81.31128135069696
 30
0.0
 10
78.93100066582214
 20
-81.55670401657946
 30
0.0
 10
78.99947869266335
 20
-81.84051028056231
 30
0.0
 10
79.06232917737387
 20
-82.0766252944203
 30
0.0
 10
79.13825208844975
 20
-82.27586788984934
 30
0.0
 10
79.22334570297849
 20
-82.43168181929693
 30
0.0
 10
79.31748750457044
 20
-82.5325567159967
 30
0.0
 10
79.42129156604963
 20
-82.58447676742101
 30
0.0
 10
79.50561394835422
 20
-82.53307045001443
 30
0.0
 10
79.52815896322213
 20
-82.4176898534355
 30
0.0
 10
79.56759984281396
 20
-82.29028379678681
 30
0.0
 10
79.51331871877116
 20
-81.9729120129431
 30
0.0
 10
79.63814855252413
 20
-82.11931349240157
 30
0.0
 10
79.79495589663722
 20
-82.15118229049894
 30
0.0
 10
79.68779874598252
 20
-82.38492171613433
 30
0.0
 10
79.6738978662636
 20
-82.54940752797411
 30
0.0
 10
79.6164976919994
 20
-82.67782660258581
 30
0.0
 10
79.52652875977769
 20
-82.74894727028234
 30
0.0
 10
79.40255421106464
 20
-82.76481205238811
 30
0.0
 10
79.25645406496292
 20
-82.72919731826892
 30
0.0
 10
79.11741617730526
 20
-82.60912958880789
 30
0.0
 10
79.00322714149131
 20
-82.43477846830741
 30
0.0
 10
78.90764087542544
 20
-82.20966926269824
 30
0.0
 10
78.82489200253949
 20
-81.94525283374621
 30
0.0
 10
78.77374467091806
 20
-81.6272559628252
 30
0.0
 10
78.67004566601061
 20
-81.35369800892153
 30
0.0
 10
78.7973108661291
 20
-80.94907710768197
 30
0.0
 10
78.62881580757873
 20
-80.95801161531385
 30
0.0
 10
78.54422632398466
 20
-80.95597567962702
 30
0.0
 10
78.41201438403964
 20
-80.95699591992653
 30
0.0
 10
78.2490772546873
 20
-80.95660299062637
 30
0.0
 10
78.0664026623302
 20
-80.95677833067695
 30
0.0
 10
77.87773248261513
 20
-80.95653424073595
 30
0.0
 10
77.69447364729581
 20
-80.95727871474827
 30
0.0
 10
77.5335014285487
 20
-80.95497168858638
 30
0.0
 10
77.39600757880446
 20
-80.96113724497404
 30
0.0
 10
77.32198578250798
 20
-80.94880690922852
 30
0.0
 10
77.25434826396256
 20
-80.96584205657507
 30
0.0
 10
77.26626411720386
 20
-80.91389090933538
 30
0.0
 10
77.25859447384634
 20
-80.86842104414536
 30
0.0
 10
77.2662859677884
 20
-80.8229907567736
 30
0.0
 10
77.25434092505309
 20
-80.77111133396495
 30
0.0
 10
77.32138557586357
 20
-80.78794385890801
 30
0.0
 10
77.39476431184454
 20
-80.77578120288398
 30
0.0
 10
77.53093957580407
 20
-80.781862983061
 30
0.0
 10
77.69040792542813
 20
-80.77958695066013
 30
0.0
 10
77.8719440538605
 20
-80.78032295382103
 30
0.0
 10
78.05883023149477
 20
-80.78007575184927
 30
0.0
 10
78.23982797696044
 20
-80.78027128581816
 30
0.0
 10
78.40110700316468
 20
-80.77981294666222
 30
0.0
 10
78.53241495776558
 20
-80.78100855629862
 30
0.0
 10
78.61553187753648
 20
-80.77862182061321
 30
0.0
 10
78.74865040005832
 20
-80.78682923655603
 30
0.0
 10
78.6576160955427
 20
-80.5316066042841
 30
0.0
 10
78.57199005271883
 20
-80.26749171052816
 30
0.0
 10
78.69208564562236
 20
-80.280090864119
 30
0.0
 10
78.74445324013124
 20
-80.28219293617994
 30
0.0
 10
78.81447650224843
 20
-80.28378129491404
 30
0.0
 10
78.86021897905863
 20
-80.29310961842958
 30
0.0
 10
78.91510800997017
 20
-80.28367562465638
 30
0.0
 10
78.88938422384501
 20
-80.33180500725895
 30
0.0
 10
78.77556650242214
 20
-80.32646699636891
 30
0.0
 10
78.90896140739048
 20
-80.5546435480429
 30
0.0
 10
78.787392618824
 20
-80.78756672785144
 30
0.0
 10
78.91534562221813
 20
-80.77826270496624
 30
0.0
 10
78.99793158592293
 20
-80.78112527626385
 30
0.0
 10
79.12374823035931
 20
-80.77990091968765
 30
0.0
 10
79.26717372908264
 20
-80.77981097492099
 30
0.0
 10
79.4087688404497
 20
-80.78167366197212
 30
0.0
 10
79.53893947027362
 20
-80.77580453443905
 30
0.0
 10
79.61237197389596
 20
-80.78843188557863
 30
0.0
 10
79.68213803748651
 20
-80.77035966270653
 30
0.0
 10
79.67060400581647
 20
-80.82300678834739
 30
0.0
 10
79.67634517994512
 20
-80.86692211694519
 30
0.0
 10
79.67468832236793
 20
-80.91823546704512
 30
0.0
 10
79.67480250144384
 20
-80.9475473735943
 30
0.0
 10
79.6748381786058
 20
-80.95670734255987
 30
0.0
 11
79.6748381786058
 21
-80.95670734255987
 31
0.0
 11
79.64023946448198
 21
-80.95670734255987
 31
0.0
 11
79.549024672701
 21
-80.95670734255987
 31
0.0
 11
79.42006582914858
 21
-80.95670734255987
 31
0.0
 11
79.27223495971043
 21
-80.95670734255987
 31
0.0
 11
79.1244040902723
 21
-80.95670734255987
 31
0.0
 11
78.99544524671987
 21
-80.95670734255987
 31
0.0
 11
78.90423045493888
 21
-80.95670734255987
 31
0.0
 11
78.86963174081507
 21
-80.95670734255987
 31
0.0
 11
78.90134079504617
 21
-81.27477664450944
 31
0.0
 11
78.94581341096341
 21
-81.57404006592984
 31
0.0
 11
79.00226565710886
 21
-81.8472225986849
 31
0.0
 11
79.06991360202471
 21
-82.08704923463837
 31
0.0
 11
79.14797331425305
 21
-82.2862449656541
 31
0.0
 11
79.235660862336
 21
-82.43753478359586
 31
0.0
 11
79.33219231481574
 21
-82.53364368032749
 31
0.0
 11
79.43678374023438
 21
-82.56729664771272
 31
0.0
 11
79.48733447555547
 21
-82.53736152402229
 31
0.0
 11
79.52408564443206
 21
-82.44421909566016
 31
0.0
 11
79.54929084302964
 21
-82.2828637766901
 31
0.0
 11
79.56520366751369
 21
-82.04828998117583
 31
0.0
 11
79.64243501353516
 21
-82.10711347074447
 31
0.0
 11
79.72574516371537
 21
-82.14991643948375
 31
0.0
 11
79.69966332639856
 21
-82.39385140720054
 31
0.0
 11
79.6603585257874
 21
-82.56705626493503
 31
0.0
 11
79.60359700495334
 21
-82.67902256935147
 31
0.0
 11
79.52514500696788
 21
-82.73924187711418
 31
0.0
 11
79.42076877490251
 21
-82.75720574488747
 31
0.0
 11
79.26688625178657
 21
-82.71956089368703
 31
0.0
 11
79.13191698295161
 21
-82.6120618050366
 31
0.0
 11
79.01520073689318
 21
-82.44286167636255
 31
0.0
 11
78.91607728210684
 21
-82.22011370509121
 31
0.0
 11
78.83388638708819
 21
-81.95197108864893
 31
0.0
 11
78.76796782033279
 21
-81.64658702446204
 31
0.0
 11
78.7176613503362
 21
-81.31211470995692
 31
0.0
 11
78.68230674559402
 21
-80.95670734255987
 31
0.0
 11
78.64922028586128
 21
-80.95670734255987
 31
0.0
 11
78.5584993478844
 21
-80.95670734255987
 31
0.0
 11
78.42295159349543
 21
-80.95670734255985
 31
0.0
 11
78.25538468452636
 21
-80.95670734255987
 31
0.0
 11
78.06860628280927
 21
-80.95670734255987
 31
0.0
 11
77.87542405017616
 21
-80.95670734255985
 31
0.0
 11
77.68864564845907
 21
-80.95670734255987
 31
0.0
 11
77.52107873949002
 21
-80.95670734255987
 31
0.0
 11
77.38553098510104
 21
-80.95670734255987
 31
0.0
 11
77.29481004712417
 21
-80.95670734255987
 31
0.0
 11
77.26172358739143
 21
-80.95670734255987
 31
0.0
 11
77.26172358739143
 21
-80.92912039595218
 31
0.0
 11
77.26172358739143
 21
-80.86842911341527
 31
0.0
 11
77.26172358739143
 21
-80.80773783087835
 31
0.0
 11
77.26172358739143
 21
-80.78015088427067
 31
0.0
 11
77.29449905404002
 21
-80.78015088427067
 31
0.0
 11
77.38436726904425
 21
-80.78015088427067
 31
0.0
 11
77.51864095499171
 21
-80.78015088427065
 31
0.0
 11
77.68463283447011
 21
-80.78015088427068
 31
0.0
 11
77.869655630067
 21
-80.78015088427067
 31
0.0
 11
78.06102206437012
 21
-80.78015088427067
 31
0.0
 11
78.24604485996703
 21
-80.78015088427068
 31
0.0
 11
78.4120367394454
 21
-80.78015088427067
 31
0.0
 11
78.54631042539287
 21
-80.78015088427067
 31
0.0
 11
78.63617864039709
 21
-80.78015088427067
 31
0.0
 11
78.66895410704569
 21
-80.78015088427067
 31
0.0
 11
78.6589451402872
 21
-80.52965881836106
 31
0.0
 11
78.65293799634321
 21
-80.27716914828534
 31
0.0
 11
78.67908433234281
 21
-80.27856607772944
 31
0.0
 11
78.74143328741876
 21
-80.28189721717305
 31
0.0
 11
78.81584978218685
 21
-80.28587309328316
 31
0.0
 11
78.87819873726279
 21
-80.28920423272677
 31
0.0
 11
78.90434507326239
 21
-80.29060116217086
 31
0.0
 11
78.8913198565809
 21
-80.31897000764985
 31
0.0
 11
78.84819167191739
 21
-80.33332255104901
 31
0.0
 11
78.850525941459
 21
-80.55776859265957
 31
0.0
 11
78.85887201886715
 21
-80.78015088427067
 31
0.0
 11
78.89393306479342
 21
-80.78015088427067
 31
0.0
 11
78.9863667313263
 21
-80.78015088427067
 31
0.0
 11
79.11704881159694
 21
-80.78015088427067
 31
0.0
 11
79.26685509873647
 21
-80.78015088427067
 31
0.0
 11
79.41666138587598
 21
-80.78015088427067
 31
0.0
 11
79.54734346614664
 21
-80.78015088427068
 31
0.0
 11
79.63977713267953
 21
-80.78015088427067
 31
0.0
 11
79.6748381786058
 21
-80.78015088427067
 31
0.0
 11
79.6748381786058
 21
-80.80773783087835
 31
0.0
 11
79.6748381786058
 21
-80.86842911341526
 31
0.0
 11
79.6748381786058
 21
-80.9291203959522
 31
0.0
 11
79.6748381786058
 21
-80.95670734255987
 31
0.0
  0
SPLINE
  5
B6
102
{ACAD_REACTORS
330
D3
102
}
330
48
100
AcDbEntity
  8
_U_30EC_U_30A4_U_30E4_U_30FC_1
  6
Continuous
 62
     2
100
AcDbSpline
210
0.0
220
0.0
230
1.0
 70
    11
 71
     3
 72
   118
 73
   114
 74
   112
 42
0.000000001
 43
0.0000000001
 44
0.00000001
 40
0.0
 40
0.0
 40
0.0
 40
0.0
 40
0.1054708162973211
 40
0.2466098270052105
 40
0.3965912874591225
 40
0.5285525069753862
 40
0.6156245055642378
 40
0.6431434105797678
 40
0.7036850037986198
 40
0.7642265984504454
 40
0.7917455052354928
 40
0.9287404319990067
 40
1.106572819088057
 40
1.287544879681068
 40
1.317578308030594
 40
1.399928030857229
 40
1.522968204799984
 40
1.675072986590624
 40
1.844616533180701
 40
2.019973001638764
 40
2.189516548880068
 40
2.341621331585404
 40
2.464661506320542
 40
2.547011229647115
 40
2.577044658168081
 40
2.603797890893123
 40
2.662655002908824
 40
2.721512114949622
 40
2.748265347702787
 40
2.77421530734485
 40
2.845959313407196
 40
2.9543385565884
 40
3.09019422758556
 40
3.244367517100546
 40
3.407699615844283
 40
3.571031714539448
 40
3.725205003920113
 40
3.861060674729604
 40
3.969439917716304
 40
4.041183923628981
 40
4.067133883212978
 40
4.311886746012156
 40
4.54789725833555
 40
4.764747083044004
 40
4.952749679951782
 40
5.045772974195883
 40
5.137862019645013
 40
5.330543169793059
 40
5.553448265244064
 40
5.795083855888221
 40
6.043293412177311
 40
6.285761695541264
 40
6.31390290875279
 40
6.384255941793366
 40
6.475714884766954
 40
6.567173827759031
 40
6.637526860839794
 40
6.665668074074143
 40
6.692018920328105
 40
6.749990782071175
 40
6.807962643790542
 40
6.834313490018014
 40
6.856393084245293
 40
6.913335195649945
 40
6.991194817302609
 40
7.07602694228387
 40
7.153886563725403
 40
7.210828674844943
 40
7.232908268931292
 40
7.258199334923826
 40
7.324875781592463
 40
7.419142481925131
 40
7.527204308842054
 40
7.635266135230647
 40
7.729532834168633
 40
7.796209279292948
 40
7.821500344594891
 40
7.844652988851018
 40
7.899863140541754
 40
7.965759128053906
 40
8.020969279771176
 40
8.044121924046642
 40
8.069356610160723
 40
8.109134395441497
 40
8.132238100191213
 40
8.193147867786575
 40
8.279261678876747
 40
8.377977512673962
 40
8.476693347146746
 40
8.56280716041179
 40
8.623716930826586
 40
8.64682063685353
 40
8.671988793774371
 40
8.734909185828226
 40
8.816705695188926
 40
8.898502204815497
 40
8.961422597377958
 40
8.986590754551084
 40
9.012941600733239
 40
9.070913462380314
 40
9.128885324081818
 40
9.155236170325121
 40
9.180404327929136
 40
9.243324721948209
 40
9.325121234211988
 40
9.406917746637657
 40
9.469838141978098
 40
9.495006288270886
 40
9.517811184379028
 40
9.572192090487036
 40
9.637098333281273
 40
9.69147923951546
 40
9.714284125643502
 40
9.714284125643502
 40
9.714284125643502
 40
9.714284125643502
 10
74.88047364814219
 20
-81.24024366193345
 30
0.0
 10
74.90212580218068
 20
-81.26801660138253
 30
0.0
 10
74.9527524562242
 20
-81.33295474819828
 30
0.0
 10
75.02796506553611
 20
-81.44022469068167
 30
0.0
 10
75.11787497271148
 20
-81.55536091114438
 30
0.0
 10
75.16394371294413
 20
-81.6555648363275
 30
0.0
 10
75.25860927474241
 20
-81.72479522566121
 30
0.0
 10
75.21347067731816
 20
-81.77141889702791
 30
0.0
 10
75.18773152385592
 20
-81.81253220515029
 30
0.0
 10
75.1575464160781
 20
-81.84847557653126
 30
0.0
 10
75.11239521833313
 20
-81.92333746784972
 30
0.0
 10
75.06407719113308
 20
-81.70131005127463
 30
0.0
 10
74.9898807165842
 20
-81.66402852043353
 30
0.0
 10
74.87663147773746
 20
-81.39303327250462
 30
0.0
 10
74.88154010309385
 20
-81.50818200934836
 30
0.0
 10
74.87987540090742
 20
-81.58076853599435
 30
0.0
 10
74.88070975294832
 20
-81.70287940897077
 30
0.0
 10
74.88038769930324
 20
-81.84999728570604
 30
0.0
 10
74.88053443652248
 20
-82.01606465424507
 30
0.0
 10
74.88032175454907
 20
-82.18725974772462
 30
0.0
 10
74.88097647048023
 20
-82.35360700745565
 30
0.0
 10
74.8789459913908
 20
-82.49978356325369
 30
0.0
 10
74.8843727852699
 20
-82.62442481906456
 30
0.0
 10
74.87351983214768
 20
-82.69194872840436
 30
0.0
 10
74.88870066083233
 20
-82.75364467964044
 30
0.0
 10
74.83881625609025
 20
-82.7418602548406
 30
0.0
 10
74.79474177952906
 20
-82.74969706601098
 30
0.0
 10
74.75126390829698
 20
-82.74153088008359
 30
0.0
 10
74.70226142392578
 20
-82.75375472642597
 30
0.0
 10
74.71489986875942
 20
-82.69952862131753
 30
0.0
 10
74.70604504212187
 20
-82.63976610473506
 30
0.0
 10
74.71053262230828
 20
-82.52991500336695
 30
0.0
 10
74.70882275887595
 20
-82.39883553975386
 30
0.0
 10
74.7093818368756
 20
-82.24715517936737
 30
0.0
 10
74.70921962214628
 20
-82.08702454451112
 30
0.0
 10
74.70925373774435
 20
-81.92676663706496
 30
0.0
 10
74.7092782412896
 20
-81.77543281860628
 30
0.0
 10
74.70917209959944
 20
-81.64331373042464
 30
0.0
 10
74.70945665947002
 20
-81.53618726847873
 30
0.0
 10
74.70889430003365
 20
-81.47104909801591
 30
0.0
 10
74.71110325364583
 20
-81.34294571522389
 30
0.0
 10
74.62497034513714
 20
-81.71815918989492
 30
0.0
 10
74.54854082712689
 20
-81.86995336257672
 30
0.0
 10
74.45903082206013
 20
-82.03147322934751
 30
0.0
 10
74.35706806700954
 20
-82.30441680560895
 30
0.0
 10
74.31182439438074
 20
-82.1419618278455
 30
0.0
 10
74.20326233944388
 20
-82.05308097322951
 30
0.0
 10
74.3926059204521
 20
-81.90363734419654
 30
0.0
 10
74.44956079984689
 20
-81.71164392406142
 30
0.0
 10
74.56477884461205
 20
-81.48013906474307
 30
0.0
 10
74.58704190829016
 20
-81.29116269622003
 30
0.0
 10
74.77021726049085
 20
-81.01459440055132
 30
0.0
 10
74.6468301050321
 20
-81.02214550548968
 30
0.0
 10
74.58559516196024
 20
-81.0205675701495
 30
0.0
 10
74.50122670698329
 20
-81.0203093680739
 30
0.0
 10
74.41345025387346
 20
-81.02368683629861
 30
0.0
 10
74.35870361488912
 20
-81.01518714399043
 30
0.0
 10
74.30349704787935
 20
-81.02864968331275
 30
0.0
 10
74.31530904883051
 20
-80.97982087254302
 30
0.0
 10
74.30727636045623
 20
-80.93644524484354
 30
0.0
 10
74.3158453557447
 20
-80.89404091071489
 30
0.0
 10
74.30332108619258
 20
-80.84645732828949
 30
0.0
 10
74.34853689915035
 20
-80.8564631638595
 30
0.0
 10
74.3945083015493
 20
-80.85019424207003
 30
0.0
 10
74.47074895004789
 20
-80.85319967975192
 30
0.0
 10
74.54915635847632
 20
-80.85143081102524
 30
0.0
 10
74.6254260101702
 20
-80.85448735399407
 30
0.0
 10
74.67132769122435
 20
-80.84809558004889
 30
0.0
 10
74.71620014181693
 20
-80.8581970640217
 30
0.0
 10
74.70358197284024
 20
-80.80756327799166
 30
0.0
 10
74.71222040354756
 20
-80.75412267498996
 30
0.0
 10
74.70826290482117
 20
-80.66050274249383
 30
0.0
 10
74.70925925211034
 20
-80.5580092269214
 30
0.0
 10
74.71021948658425
 20
-80.45560259132904
 30
0.0
 10
74.7063478910774
 20
-80.36177599771742
 30
0.0
 10
74.7148057267134
 20
-80.30876986540713
 30
0.0
 10
74.7023343385604
 20
-80.25702093729875
 30
0.0
 10
74.74723738426195
 20
-80.27062782154312
 30
0.0
 10
74.78853512895408
 20
-80.26813049060478
 30
0.0
 10
74.85256117338196
 20
-80.27265468806581
 30
0.0
 10
74.89163786015546
 20
-80.28132526337755
 30
0.0
 10
74.94068109515109
 20
-80.27398427310379
 30
0.0
 10
74.91553474833589
 20
-80.31310633329305
 30
0.0
 10
74.87461687864923
 20
-80.30349686925258
 30
0.0
 10
74.88403770693722
 20
-80.35373381211286
 30
0.0
 10
74.87859147715149
 20
-80.40527583741574
 30
0.0
 10
74.88119670545723
 20
-80.48953821796546
 30
0.0
 10
74.88003696549234
 20
-80.58354393797657
 30
0.0
 10
74.88138585169997
 20
-80.67716663985539
 30
0.0
 10
74.87802375542776
 20
-80.7623401182884
 30
0.0
 10
74.88512273705373
 20
-80.81196673309023
 30
0.0
 10
74.87428366073145
 20
-80.85919834411075
 30
0.0
 10
74.9234277678014
 20
-80.84711854444211
 30
0.0
 10
74.97251450829158
 20
-80.85466136018056
 30
0.0
 10
75.05039817334097
 20
-80.85227459019632
 30
0.0
 10
75.12806326256643
 20
-80.85014147475653
 30
0.0
 10
75.1775661384123
 20
-80.85720137458608
 30
0.0
 10
75.22748622034077
 20
-80.84553377444853
 30
0.0
 10
75.2153465969649
 20
-80.89373294009668
 30
0.0
 10
75.2236105681912
 20
-80.93664309579829
 30
0.0
 10
75.21534661035517
 20
-80.97955327529678
 30
0.0
 10
75.22748620026228
 20
-81.02775240626198
 30
0.0
 10
75.17756626115147
 20
-81.0160849490955
 30
0.0
 10
75.12806181039716
 20
-81.02314326946019
 30
0.0
 10
75.05040518357413
 20
-81.02101864152462
 30
0.0
 10
74.97249113185288
 20
-81.01860140015305
 30
0.0
 10
74.92347678054847
 20
-81.02621681186571
 30
0.0
 10
74.87435135617115
 20
-81.0140557682347
 30
0.0
 10
74.88458274413398
 20
-81.05840515956906
 30
0.0
 10
74.8786945130822
 20
-81.09988093178151
 30
0.0
 10
74.88090557583381
 20
-81.15998135065765
 30
0.0
 10
74.88043767989144
 20
-81.20687746618175
 30
0.0
 10
74.8804654445682
 20
-81.23263382962867
 30
0.0
 10
74.88047364814219
 20
-81.24024366193345
 30
0.0
 11
74.88047364814219
 21
-81.24024366193345
 31
0.0
 11
74.94472449872531
 21
-81.32388529746807
 31
0.0
 11
75.0278526288268
 21
-81.43794639632844
 31
0.0
 11
75.11470990216644
 21
-81.56021762185341
 31
0.0
 11
75.19014818246407
 21
-81.6684896373819
 31
0.0
 11
75.2390193334395
 21
-81.74055310625275
 31
0.0
 11
75.22270887378619
 21
-81.76271747256666
 31
0.0
 11
75.18682586254886
 21
-81.81147907845725
 31
0.0
 11
75.15094285131154
 21
-81.86024068434784
 31
0.0
 11
75.13463239165822
 21
-81.88240505066176
 31
0.0
 11
75.06933345622146
 21
-81.76197390357252
 31
0.0
 11
74.97787016960032
 21
-81.60946545710858
 31
0.0
 11
74.88047364814219
 21
-81.45693741187922
 31
0.0
 11
74.88047364814219
 21
-81.48697084052812
 31
0.0
 11
74.8804736481422
 21
-81.56932056424282
 31
0.0
 11
74.88047364814217
 21
-81.69236073967535
 31
0.0
 11
74.88047364814219
 21
-81.84446552347781
 31
0.0
 11
74.88047364814219
 21
-82.0140090723022
 31
0.0
 11
74.88047364814219
 21
-82.18936554280056
 31
0.0
 11
74.88047364814219
 21
-82.35890909162492
 31
0.0
 11
74.88047364814219
 21
-82.51101387542738
 31
0.0
 11
74.88047364814219
 21
-82.63405405085993
 31
0.0
 11
74.88047364814219
 21
-82.71640377457463
 31
0.0
 11
74.88047364814219
 21
-82.74643720322352
 31
0.0
 11
74.85372041531777
 21
-82.74643720322352
 31
0.0
 11
74.79486330310405
 21
-82.74643720322352
 31
0.0
 11
74.73600619089034
 21
-82.74643720322351
 31
0.0
 11
74.70925295806592
 21
-82.74643720322352
 31
0.0
 11
74.70925295806593
 21
-82.72048724349816
 31
0.0
 11
74.70925295806593
 21
-82.64874323719856
 31
0.0
 11
74.70925295806592
 21
-82.54036399363962
 31
0.0
 11
74.70925295806592
 21
-82.40450832213618
 31
0.0
 11
74.70925295806592
 21
-82.25033503200302
 31
0.0
 11
74.70925295806592
 21
-82.08700293255507
 31
0.0
 11
74.70925295806592
 21
-81.92367083310708
 31
0.0
 11
74.70925295806592
 21
-81.76949754297395
 31
0.0
 11
74.70925295806592
 21
-81.6336418714705
 31
0.0
 11
74.70925295806592
 21
-81.52526262791156
 31
0.0
 11
74.70925295806592
 21
-81.45351862161198
 31
0.0
 11
74.70925295806592
 21
-81.4275686618866
 31
0.0
 11
74.63101333144905
 21
-81.65947926078692
 31
0.0
 11
74.54273782420722
 21
-81.87835913052388
 31
0.0
 11
74.44743743828138
 21
-82.07314538047518
 31
0.0
 11
74.3481231756125
 21
-82.23277512001863
 31
0.0
 11
74.30394657951747
 21
-82.15091083184467
 31
0.0
 11
74.25183248362487
 21
-82.07498643950254
 31
0.0
 11
74.35575700430674
 21
-81.91273441454308
 31
0.0
 11
74.45595873175034
 21
-81.71362063959283
 31
0.0
 11
74.548071406067
 21
-81.49023081464868
 31
0.0
 11
74.62772876736807
 21
-81.25515063970744
 31
0.0
 11
74.69056455576492
 21
-81.02096581476599
 31
0.0
 11
74.66242334249111
 21
-81.02096581476597
 31
0.0
 11
74.59207030930659
 21
-81.02096581476599
 31
0.0
 11
74.50061136616671
 21
-81.02096581476599
 31
0.0
 11
74.40915242302682
 21
-81.02096581476599
 31
0.0
 11
74.33879938984231
 21
-81.02096581476599
 31
0.0
 11
74.3106581765685
 21
-81.02096581476599
 31
0.0
 11
74.3106581765685
 21
-80.99461496841842
 31
0.0
 11
74.3106581765685
 21
-80.93664310645376
 31
0.0
 11
74.3106581765685
 21
-80.8786712444891
 31
0.0
 11
74.3106581765685
 21
-80.85232039814153
 31
0.0
 11
74.33273777087885
 21
-80.85232039814152
 31
0.0
 11
74.38967988252134
 21
-80.85232039814152
 31
0.0
 11
74.4675395045631
 21
-80.85232039814153
 31
0.0
 11
74.5523716300713
 21
-80.85232039814153
 31
0.0
 11
74.63023125211308
 21
-80.85232039814153
 31
0.0
 11
74.68717336375556
 21
-80.85232039814153
 31
0.0
 11
74.70925295806592
 21
-80.85232039814153
 31
0.0
 11
74.70925295806592
 21
-80.82702933206711
 31
0.0
 11
74.70925295806592
 21
-80.76035288514367
 31
0.0
 11
74.70925295806592
 21
-80.66608618432087
 31
0.0
 11
74.70925295806592
 21
-80.55802435654842
 31
0.0
 11
74.70925295806592
 21
-80.44996252877593
 31
0.0
 11
74.70925295806592
 21
-80.35569582795314
 31
0.0
 11
74.70925295806592
 21
-80.2890193810297
 31
0.0
 11
74.70925295806592
 21
-80.26372831495529
 31
0.0
 11
74.73234494414348
 21
-80.26540316273265
 31
0.0
 11
74.78741044940534
 21
-80.26939703050944
 31
0.0
 11
74.85313379439529
 21
-80.2741639049527
 31
0.0
 11
74.90819929965713
 21
-80.27815777272949
 31
0.0
 11
74.93129128573469
 21
-80.27983262050684
 31
0.0
 11
74.91792800971305
 21
-80.30123851459874
 31
0.0
 11
74.88047364814219
 21
-80.31463414827596
 31
0.0
 11
74.88047364814217
 21
-80.33773785432487
 31
0.0
 11
74.88047364814219
 21
-80.39864762481746
 31
0.0
 11
74.88047364814219
 21
-80.48476143827249
 31
0.0
 11
74.88047364814219
 21
-80.58347727320874
 31
0.0
 11
74.88047364814219
 21
-80.682193108145
 31
0.0
 11
74.88047364814219
 21
-80.76830692160003
 31
0.0
 11
74.88047364814219
 21
-80.82921669209261
 31
0.0
 11
74.88047364814219
 21
-80.85232039814153
 31
0.0
 11
74.90564180575777
 21
-80.85232039814152
 31
0.0
 11
74.96856219979675
 21
-80.85232039814153
 31
0.0
 11
75.05035871204743
 21
-80.85232039814153
 31
0.0
 11
75.13215522429809
 21
-80.85232039814153
 31
0.0
 11
75.19507561833707
 21
-80.85232039814153
 31
0.0
 11
75.22024377595267
 21
-80.85232039814153
 31
0.0
 11
75.22024377595267
 21
-80.8786712444891
 31
0.0
 11
75.22024377595267
 21
-80.93664310645376
 31
0.0
 11
75.22024377595267
 21
-80.99461496841842
 31
0.0
 11
75.22024377595267
 21
-81.02096581476599
 31
0.0
 11
75.19507561833707
 21
-81.02096581476597
 31
0.0
 11
75.1321552242981
 21
-81.02096581476599
 31
0.0
 11
75.05035871204743
 21
-81.02096581476599
 31
0.0
 11
74.96856219979675
 21
-81.02096581476599
 31
0.0
 11
74.90564180575777
 21
-81.02096581476597
 31
0.0
 11
74.88047364814219
 21
-81.02096581476599
 31
0.0
 11
74.88047364814219
 21
-81.0437707108714
 31
0.0
 11
74.88047364814219
 21
-81.09815161696893
 31
0.0
 11
74.88047364814219
 21
-81.16305785973051
 31
0.0
 11
74.88047364814219
 21
-81.21743876582804
 31
0.0
 11
74.88047364814219
 21
-81.24024366193345
 31
0.0
  0
SPLINE
  5
B7
102
{ACAD_REACTORS
330
D4
102
}
330
48
100
AcDbEntity
  8
_U_30EC_U_30A4_U_30E4_U_30FC_1
  6
Continuous
 62
     2
100
AcDbSpline
210
0.0
220
0.0
230
1.0
 70
    11
 71
     3
 72
    47
 73
    43
 74
    41
 42
0.000000001
 43
0.0000000001
 44
0.00000001
 40
0.0
 40
0.0
 40
0.0
 40
0.0
 40
0.2207912809957237
 40
0.4459404186303125
 40
0.4902387190459095
 40
0.5327473892722452
 40
0.574226045122549
 40
0.6155432630560641
 40
0.6568164066315701
 40
0.6982511618780622
 40
0.7407663929317009
 40
0.7851366743175059
 40
1.010288833836326
 40
1.231080507002165
 40
1.451765243652372
 40
1.676638205891662
 40
1.720461045359641
 40
1.83001814404352
 40
1.972442372353142
 40
2.114866600677501
 40
2.224423699395131
 40
2.268246538883374
 40
2.493628801207212
 40
2.715602830286601
 40
2.934211330706346
 40
3.149502369855347
 40
3.231387784850992
 40
3.318231873854027
 40
3.405143198198029
 40
3.486970301720423
 40
3.702258172493851
 40
3.920866283534083
 40
4.142839325931864
 40
4.36822190386533
 40
4.412044743359798
 40
4.521601842095831
 40
4.66402607045232
 40
4.806450298809009
 40
4.916007397546704
 40
4.959830237043033
 40
5.184703515847059
 40
5.40538725076744
 40
5.40538725076744
 40
5.40538725076744
 40
5.40538725076744
 10
72.24376947114138
 20
-80.77507088427193
 30
0.0
 10
72.24984068727711
 20
-80.71155046879855
 30
0.0
 10
72.2621029560012
 20
-80.58325590691442
 30
0.0
 10
72.15349743321806
 20
-80.30747309206978
 30
0.0
 10
72.26922533493729
 20
-80.33725395949017
 30
0.0
 10
72.31021099617838
 20
-80.3414797311824
 30
0.0
 10
72.3521473250287
 20
-80.3460308299146
 30
0.0
 10
72.39344640784788
 20
-80.34711546451578
 30
0.0
 10
72.43472995683241
 20
-80.3460319118584
 30
0.0
 10
72.47664157234158
 20
-80.34147416669718
 30
0.0
 10
72.51762510017876
 20
-80.33726099171336
 30
0.0
 10
72.63351902962576
 20
-80.3073591806353
 30
0.0
 10
72.52259201802251
 20
-80.58573722771177
 30
0.0
 10
72.55051238180357
 20
-80.7663038855611
 30
0.0
 10
72.5334534799738
 20
-80.99952487034594
 30
0.0
 10
72.5344904734872
 20
-81.16006906837917
 30
0.0
 10
72.53443668521733
 20
-81.28628711822344
 30
0.0
 10
72.53445448252498
 20
-81.38484566044824
 30
0.0
 10
72.53444560338494
 20
-81.51632826938102
 30
0.0
 10
72.53445313808024
 20
-81.64780684412415
 30
0.0
 10
72.53443968578978
 20
-81.74637306686975
 30
0.0
 10
72.53447991702606
 20
-81.87273793756911
 30
0.0
 10
72.53370138565862
 20
-82.03431460558194
 30
0.0
 10
72.54962257720356
 20
-82.26551707488149
 30
0.0
 10
72.52637363381757
 20
-82.4503917740906
 30
0.0
 10
72.62904508971349
 20
-82.71977926611011
 30
0.0
 10
72.47505058156052
 20
-82.68253416695251
 30
0.0
 10
72.39343972556009
 20
-82.68775534700531
 30
0.0
 10
72.31184597453515
 20
-82.68252909002712
 30
0.0
 10
72.15787811196117
 20
-82.71976459495677
 30
0.0
 10
72.26044508746858
 20
-82.45038399518182
 30
0.0
 10
72.23723127688568
 20
-82.26551944055652
 30
0.0
 10
72.25307121079071
 20
-82.03431310815427
 30
0.0
 10
72.25235637661964
 20
-81.87273817072565
 30
0.0
 10
72.25239320226746
 20
-81.74637298170542
 30
0.0
 10
72.25238164530388
 20
-81.64780772745084
 30
0.0
 10
72.25238424719822
 20
-81.51632401963842
 30
0.0
 10
72.25239159845472
 20
-81.38485981349868
 30
0.0
 10
72.252370999412
 20
-81.28625743105741
 30
0.0
 10
72.25243496447962
 20
-81.16017380026638
 30
0.0
 10
72.25120014003586
 20
-80.99703437997294
 30
0.0
 10
72.24623078495136
 20
-80.84859345603515
 30
0.0
 10
72.24376947114138
 20
-80.77507088427193
 30
0.0
 11
72.24376947114138
 21
-80.77507088427193
 31
0.0
 11
72.23475956531479
 21
-80.55446350585487
 31
0.0
 11
72.22490371589151
 21
-80.32953018993885
 31
0.0
 11
72.26872532935697
 21
-80.33601137917337
 31
0.0
 11
72.31086683869842
 21
-80.3415863704914
 31
0.0
 11
72.35216388625594
 21
-80.34546361875434
 31
0.0
 11
72.3934609338134
 21
-80.34675456493457
 31
0.0
 11
72.43471388414991
 21
-80.34546361875434
 31
0.0
 11
72.4759668344866
 21
-80.3415863704914
 31
0.0
 11
72.51811495841116
 21
-80.33601137917336
 31
0.0
 11
72.56200933229138
 21
-80.32953018993885
 31
0.0
 11
72.552084514666
 21
-80.55446350585488
 31
0.0
 11
72.54306516610791
 21
-80.77507088427193
 31
0.0
 11
72.53659059162038
 21
-80.99566062380009
 31
0.0
 11
72.5344485691055
 21
-81.22052338416057
 31
0.0
 11
72.5344485691055
 21
-81.26434622365579
 31
0.0
 11
72.5344485691055
 21
-81.37390332239384
 31
0.0
 11
72.5344485691055
 21
-81.51632755075327
 31
0.0
 11
72.5344485691055
 21
-81.65875177911272
 31
0.0
 11
72.5344485691055
 21
-81.76830887785076
 31
0.0
 11
72.5344485691055
 21
-81.81213171734598
 31
0.0
 11
72.53659059162038
 21
-82.03750380062299
 31
0.0
 11
72.54306516610791
 21
-82.25938338390084
 31
0.0
 11
72.552084514666
 21
-82.47780574495734
 31
0.0
 11
72.56200933229138
 21
-82.69286789768137
 31
0.0
 11
72.48028836215391
 21
-82.6876809619188
 31
0.0
 11
72.3934609338134
 21
-82.68597991157202
 31
0.0
 11
72.30656625721079
 21
-82.68768096191879
 31
0.0
 11
72.22490371589151
 21
-82.69286789768137
 31
0.0
 11
72.23475956531479
 21
-82.47780574495735
 31
0.0
 11
72.24376947114138
 21
-82.25938338390084
 31
0.0
 11
72.25021012915666
 21
-82.03750380062299
 31
0.0
 11
72.25238510407917
 21
-81.81213171734598
 31
0.0
 11
72.25238510407917
 21
-81.76830887785077
 31
0.0
 11
72.25238510407917
 21
-81.65875177911272
 31
0.0
 11
72.25238510407917
 21
-81.51632755075326
 31
0.0
 11
72.25238510407917
 21
-81.37390332239383
 31
0.0
 11
72.25238510407917
 21
-81.26434622365579
 31
0.0
 11
72.25238510407917
 21
-81.22052338416057
 31
0.0
 11
72.25021012915666
 21
-80.9956606238001
 31
0.0
 11
72.24376947114138
 21
-80.77507088427193
 31
0.0
  0
SPLINE
  5
B8
102
{ACAD_REACTORS
330
D5
102
}
330
48
100
AcDbEntity
  8
_U_30EC_U_30A4_U_30E4_U_30FC_1
  6
Continuous
 62
     2
100
AcDbSpline
210
0.0
220
0.0
230
1.0
 70
    11
 71
     3
 72
   110
 73
   106
 74
   104
 42
0.000000001
 43
0.0000000001
 44
0.00000001
 40
0.0
 40
0.0
 40
0.0
 40
0.0
 40
0.2203406257277708
 40
0.4407808782838138
 40
0.595249449461498
 40
0.7488431659393123
 40
0.9023581831309251
 40
1.056801968670424
 40
1.210736449099924
 40
1.363041386539845
 40
1.51531572968316
 40
1.669377239148111
 40
1.721611652756601
 40
1.773199502942997
 40
1.824933793210041
 40
1.87711042648802
 40
1.982682281206783
 40
2.078781667087606
 40
2.17280964082237
 40
2.27193780737901
 40
2.378349933379374
 40
2.494131557736577
 40
2.626681683943682
 40
2.783145050796096
 40
2.890701232940946
 40
2.993130312454848
 40
3.099869730691835
 40
3.220237816691328
 40
3.352695482737617
 40
3.481732806389872
 40
3.593499473690394
 40
3.674323013331917
 40
3.817951711952838
 40
3.94616712079385
 40
4.061405053453563
 40
4.16648079600319
 40
4.262478775059283
 40
4.350736673551226
 40
4.433071991254083
 40
4.51121629381467
 40
4.564262454117975
 40
4.6184744155716
 40
4.6701284887542
 40
4.722296879126393
 40
4.819540945314276
 40
4.931194984128103
 40
5.049996040257773
 40
5.168643755415305
 40
5.28397081176253
 40
5.392260784910313
 40
5.486512254876388
 40
5.559178233949815
 40
5.591425852853484
 40
5.626215969637875
 40
5.667155838674406
 40
5.717449290214213
 40
5.738402360944826
 40
5.784499116553797
 40
5.830595872164772
 40
5.85154894289763
 40
5.873019280661731
 40
5.924217778408285
 40
5.985325662817652
 40
6.036524160567688
 40
6.057994498334204
 40
6.236847789607464
 40
6.381409928945637
 40
6.493190424178645
 40
6.574067534230469
 40
6.691018086205535
 40
6.814881554220481
 40
6.944307823240419
 40
7.071266716066028
 40
7.193488604461844
 40
7.309042773128101
 40
7.414007203170753
 40
7.50514044188651
 40
7.531150360599673
 40
7.559221645322253
 40
7.587202218920917
 40
7.612569159499111
 40
7.662550809480998
 40
7.702878875764115
 40
7.857328205230928
 40
8.01079956808856
 40
8.165256399657538
 40
8.322232698713906
 40
8.479564855016564
 40
8.635216230290796
 40
8.790882550925728
 40
8.948305154947294
 40
9.16827183903298
 40
9.387358980987258
 40
9.608047961033503
 40
9.832914234792696
 40
9.858338694963024
 40
9.925366817230028
 40
10.02013071422762
 40
10.12876249858999
 40
10.23739428295251
 40
10.33215817995193
 40
10.39918630222397
 40
10.42461076239785
 40
10.64992019336944
 40
10.8718852453119
 40
10.8718852453119
 40
10.8718852453119
 40
10.8718852453119
 10
69.4988055829387
 20
-80.76990268982874
 30
0.0
 10
69.502313238631
 20
-80.70297067307261
 30
0.0
 10
69.50933014404312
 20
-80.56907637465206
 30
0.0
 10
69.41282950518409
 20
-80.28364974409594
 30
0.0
 10
69.64404021788769
 20
-80.34629143190782
 30
0.0
 10
69.78495575099245
 20
-80.33911975325074
 30
0.0
 10
69.94206852103568
 20
-80.3467764630282
 30
0.0
 10
70.09561808800562
 20
-80.34660777098024
 30
0.0
 10
70.24753723878496
 20
-80.34731488845632
 30
0.0
 10
70.4072482266
 20
-80.33703371029424
 30
0.0
 10
70.53392400538864
 20
-80.35417018300313
 30
0.0
 10
70.73010885748494
 20
-80.28186269273915
 30
0.0
 10
70.69646627318468
 20
-80.38272830300946
 30
0.0
 10
70.69822787699523
 20
-80.43294275433394
 30
0.0
 10
70.6957609526227
 20
-80.482011937946
 30
0.0
 10
70.727734441878
 20
-80.56850038534066
 30
0.0
 10
70.59406673560244
 20
-80.51916090772727
 30
0.0
 10
70.51024761408253
 20
-80.52482895066899
 30
0.0
 10
70.41041285920925
 20
-80.51448012674766
 30
0.0
 10
70.31168441729142
 20
-80.50827078969978
 30
0.0
 10
70.20518002238789
 20
-80.50215765564286
 30
0.0
 10
70.08407791508284
 20
-80.49324645896478
 30
0.0
 10
69.96336489552223
 20
-80.50391923468682
 30
0.0
 10
69.77428212962062
 20
-80.44445026300697
 30
0.0
 10
69.80592959580795
 20
-80.60355209303525
 30
0.0
 10
69.79258307696027
 20
-80.7007440104116
 30
0.0
 10
69.79052258792181
 20
-80.8127946427096
 30
0.0
 10
69.78884554974394
 20
-80.93213843751714
 30
0.0
 10
69.79036042470007
 20
-81.05880937225953
 30
0.0
 10
69.7886849931439
 20
-81.18611941364946
 30
0.0
 10
69.79891117244264
 20
-81.28461962976601
 30
0.0
 10
69.77092740493511
 20
-81.42524826755432
 30
0.0
 10
69.94382974520737
 20
-81.36923978246969
 30
0.0
 10
70.05752876555403
 20
-81.38193577902565
 30
0.0
 10
70.17704191250081
 20
-81.37465152329813
 30
0.0
 10
70.28187588778405
 20
-81.37035512324309
 30
0.0
 10
70.37733523513808
 20
-81.3658296112209
 30
0.0
 10
70.46940909598013
 20
-81.35764328234865
 30
0.0
 10
70.5406819235208
 20
-81.36269678742951
 30
0.0
 10
70.64751991584538
 20
-81.32377104349393
 30
0.0
 10
70.61568710508045
 20
-81.40396407375184
 30
0.0
 10
70.61964319566984
 20
-81.45350592535031
 30
0.0
 10
70.61647698447814
 20
-81.50356051341247
 30
0.0
 10
70.64810589433534
 20
-81.58784681769042
 30
0.0
 10
70.51404011304604
 20
-81.53488163885909
 30
0.0
 10
70.42225902459687
 20
-81.54373448490622
 30
0.0
 10
70.30099966423715
 20
-81.5334347941591
 30
0.0
 10
70.184438057254
 20
-81.53164617613561
 30
0.0
 10
70.07136431986477
 20
-81.53126512271372
 30
0.0
 10
69.960951376124
 20
-81.52498079908884
 30
0.0
 10
69.88283915206092
 20
-81.537243961257
 30
0.0
 10
69.78438932864125
 20
-81.50459641764937
 30
0.0
 10
69.79426226263294
 20
-81.56143781326858
 30
0.0
 10
69.79041906971716
 20
-81.59521398823081
 30
0.0
 10
69.78970573370363
 20
-81.63793924671654
 30
0.0
 10
69.78936370957437
 20
-81.6751192211891
 30
0.0
 10
69.7894101708114
 20
-81.71426292010295
 30
0.0
 10
69.78939168826949
 20
-81.75196679883379
 30
0.0
 10
69.78939708845755
 20
-81.78968574148664
 30
0.0
 10
69.78939646669687
 20
-81.81919204635913
 30
0.0
 10
69.78939656043138
 20
-81.85039951681765
 30
0.0
 10
69.78939717406885
 20
-81.89499104472976
 30
0.0
 10
69.78939389521057
 20
-81.94949572872214
 30
0.0
 10
69.78940270762493
 20
-81.99407989179616
 30
0.0
 10
69.78936271061855
 20
-82.07795720795326
 30
0.0
 10
69.79062917230233
 20
-82.19176008703388
 30
0.0
 10
69.78805415706104
 20
-82.34083133447353
 30
0.0
 10
69.7995276834488
 20
-82.44316325567159
 30
0.0
 10
69.77537736750325
 20
-82.57574625495229
 30
0.0
 10
69.92632613992451
 20
-82.53017797109042
 30
0.0
 10
70.03587041243244
 20
-82.54486517218716
 30
0.0
 10
70.16642379266892
 20
-82.53993094256
 30
0.0
 10
70.29205796622823
 20
-82.53655824057702
 30
0.0
 10
70.41189980783696
 20
-82.53202031882293
 30
0.0
 10
70.53216300641951
 20
-82.51864993199058
 30
0.0
 10
70.61530291162839
 20
-82.52844816598471
 30
0.0
 10
70.7386347873844
 20
-82.46787314757745
 30
0.0
 10
70.71745366567252
 20
-82.52381069247043
 30
0.0
 10
70.71662177228859
 20
-82.54974280008719
 30
0.0
 10
70.71492311603272
 20
-82.57716273190128
 30
0.0
 10
70.71482423415988
 20
-82.61175334174678
 30
0.0
 10
70.71339267540989
 20
-82.648631211603
 30
0.0
 10
70.7463071644959
 20
-82.74066688359254
 30
0.0
 10
70.54815744408766
 20
-82.66781513406238
 30
0.0
 10
70.42308157476597
 20
-82.69087802872457
 30
0.0
 10
70.26033387479251
 20
-82.6845950739528
 30
0.0
 10
70.10596339027698
 20
-82.68652585471136
 30
0.0
 10
69.94969378897125
 20
-82.68519766781799
 30
0.0
 10
69.79008119180504
 20
-82.68853656893202
 30
0.0
 10
69.64705937950055
 20
-82.67647733652822
 30
0.0
 10
69.41274123343966
 20
-82.73961527404145
 30
0.0
 10
69.5104078203966
 20
-82.45293001914746
 30
0.0
 10
69.49371362328276
 20
-82.25925221238404
 30
0.0
 10
69.50765641624531
 20
-82.0306528650077
 30
0.0
 10
69.50732552994015
 20
-81.87528935426016
 30
0.0
 10
69.50733455720325
 20
-81.7694719293694
 30
0.0
 10
69.50733233290849
 20
-81.70707745256848
 30
0.0
 10
69.50733330046585
 20
-81.61693104132742
 30
0.0
 10
69.50733329260301
 20
-81.51292362223624
 30
0.0
 10
69.50733213138717
 20
-81.40891398005772
 30
0.0
 10
69.50733584242714
 20
-81.31877285692295
 30
0.0
 10
69.50732785038201
 20
-81.2563672628385
 30
0.0
 10
69.50736017277876
 20
-81.15044693419945
 30
0.0
 10
69.50617082410878
 20
-80.99286812836326
 30
0.0
 10
69.5012483942025
 20
-80.84385309558996
 30
0.0
 10
69.4988055829387
 20
-80.76990268982874
 30
0.0
 11
69.4988055829387
 21
-80.76990268982874
 31
0.0
 11
69.4897185676509
 21
-80.54974951280047
 31
0.0
 11
69.47985170259017
 21
-80.32953018993885
 31
0.0
 11
69.63418425941686
 21
-80.33601137917337
 31
0.0
 11
69.78767676418147
 21
-80.3415863704914
 31
0.0
 11
69.9411428106135
 21
-80.34546361875434
 31
0.0
 11
70.09558120077077
 21
-80.34675456493457
 31
0.0
 11
70.24951026802418
 21
-80.34546361875434
 31
0.0
 11
70.40176584573692
 21
-80.3415863704914
 31
0.0
 11
70.55393810038424
 21
-80.33601137917336
 31
0.0
 11
70.7078632215252
 21
-80.32953018993885
 31
0.0
 11
70.70010791558923
 21
-80.38118567603705
 31
0.0
 11
70.69752590763596
 21
-80.4327088704686
 31
0.0
 11
70.70010791558923
 21
-80.48437868816404
 31
0.0
 11
70.7078632215252
 21
-80.5359757454428
 31
0.0
 11
70.60251415071795
 21
-80.52912083225007
 31
0.0
 11
70.50666431528288
 21
-80.52219977322407
 31
0.0
 11
70.41288606246718
 21
-80.51535147461465
 31
0.0
 11
70.31399473686497
 21
-80.50850317600525
 31
0.0
 11
70.20777996526924
 21
-80.5020252940624
 31
0.0
 11
70.09213279808068
 21
-80.4964469954527
 31
0.0
 11
69.95963939000269
 21
-80.49256974718978
 31
0.0
 11
69.80318134711922
 21
-80.49127880100953
 31
0.0
 11
69.799293074649
 21
-80.59876467771878
 31
0.0
 11
69.79456475011688
 21
-80.701084564846
 31
0.0
 11
69.7906875019518
 21
-80.80775354051377
 31
0.0
 11
69.78939655580405
 21
-80.92811470367815
 31
0.0
 11
69.78980665996042
 21
-81.060571734895
 31
0.0
 11
69.79111634742708
 21
-81.1896024119461
 31
0.0
 11
69.79243420298181
 21
-81.30136130948756
 31
0.0
 11
69.7928458606429
 21
-81.3821838007868
 31
0.0
 11
69.93647203886428
 21
-81.38133272439815
 31
0.0
 11
70.06466113835268
 21
-81.37873539800988
 31
0.0
 11
70.17983456745642
 21
-81.37488019835811
 31
0.0
 11
70.28480237649887
 21
-81.37011880078988
 31
0.0
 11
70.38066137421903
 21
-81.3649550160689
 31
0.0
 11
70.46876808269622
 21
-81.35979123134797
 31
0.0
 11
70.55091488912652
 21
-81.35422285461325
 31
0.0
 11
70.62879597883398
 21
-81.3478144257954
 31
0.0
 11
70.62104478979546
 21
-81.40029122265727
 31
0.0
 11
70.61845959020854
 21
-81.45444150910207
 31
0.0
 11
70.62104478979546
 21
-81.50603084936698
 31
0.0
 11
70.62879597883398
 21
-81.55762018963182
 31
0.0
 11
70.53200809067826
 21
-81.54821204727307
 31
0.0
 11
70.42062181747838
 21
-81.54048400908053
 31
0.0
 11
70.30195288821415
 21
-81.53488255942919
 31
0.0
 11
70.18334349019818
 21
-81.53186741186053
 31
0.0
 11
70.06802925702898
 21
-81.53014762019426
 31
0.0
 11
69.9597529403469
 21
-81.52842782852807
 31
0.0
 11
69.86551067704772
 21
-81.52711042401448
 31
0.0
 11
69.7928458606429
 21
-81.52669921741736
 31
0.0
 11
69.79243420298181
 21
-81.55894420872875
 31
0.0
 11
69.79111634742708
 21
-81.59370935628948
 31
0.0
 11
69.78980665996042
 21
-81.6346282712098
 31
0.0
 11
69.78939655580405
 21
-81.68492005071113
 31
0.0
 11
69.78939655580405
 21
-81.70587312145243
 31
0.0
 11
69.78939655580405
 21
-81.75196987708328
 31
0.0
 11
69.78939655580405
 21
-81.79806663271414
 31
0.0
 11
69.78939655580405
 21
-81.81901970345544
 31
0.0
 11
69.78939655580405
 21
-81.84049004122784
 31
0.0
 11
69.78939655580405
 21
-81.89168853899281
 31
0.0
 11
69.78939655580405
 21
-81.95279642342196
 31
0.0
 11
69.78939655580405
 21
-82.00399492118694
 31
0.0
 11
69.78939655580405
 21
-82.02546525895934
 31
0.0
 11
69.78980665996042
 21
-82.20431808009518
 31
0.0
 11
69.79111634742708
 21
-82.34887428665623
 31
0.0
 11
69.79331360424774
 21
-82.46063318419775
 31
0.0
 11
69.79628544397542
 21
-82.54145567549699
 31
0.0
 11
69.91323599702162
 21
-82.54145567549699
 31
0.0
 11
70.03709946615152
 21
-82.54145567549699
 31
0.0
 11
70.16651929791908
 21
-82.54016472931674
 31
0.0
 11
70.29341897350128
 21
-82.53628748105382
 31
0.0
 11
70.4154925520742
 21
-82.530268210222
 31
0.0
 11
70.5307854952232
 21
-82.52250268939062
 31
0.0
 11
70.63520220262873
 21
-82.51179367897663
 31
0.0
 11
70.72508667082172
 21
-82.49675873106372
 31
0.0
 11
70.71945214839599
 21
-82.5221510140435
 31
0.0
 11
70.71647007381921
 21
-82.55006345327263
 31
0.0
 11
70.71516073339687
 21
-82.57801337514063
 31
0.0
 11
70.7147502821964
 21
-82.60337699492592
 31
0.0
 11
70.71733548178331
 21
-82.65329174317739
 31
0.0
 11
70.72508667082172
 21
-82.69286789768137
 31
0.0
 11
70.5707244631113
 21
-82.6876809619188
 31
0.0
 11
70.41726252715341
 21
-82.68597991157202
 31
0.0
 11
70.26280569492522
 21
-82.68597991157202
 31
0.0
 11
70.10582939495367
 21
-82.68597991157202
 31
0.0
 11
69.94849723743052
 21
-82.68597991157202
 31
0.0
 11
69.7928458606429
 21
-82.68597991157202
 31
0.0
 11
69.63718883270099
 21
-82.68768096191879
 31
0.0
 11
69.47985170259017
 21
-82.69286789768137
 31
0.0
 11
69.4897185676509
 21
-82.47312261995854
 31
0.0
 11
69.4988055829387
 21
-82.25422400890213
 31
0.0
 11
69.50519889711694
 21
-82.0336276547906
 31
0.0
 11
69.50733309077782
 21
-81.8087715090135
 31
0.0
 11
69.50733309077782
 21
-81.7833470488419
 31
0.0
 11
69.50733309077782
 21
-81.71631892657133
 31
0.0
 11
69.50733309077782
 21
-81.62155502956811
 31
0.0
 11
69.50733309077782
 21
-81.51292324519858
 31
0.0
 11
69.50733309077782
 21
-81.40429146082903
 31
0.0
 11
69.50733309077782
 21
-81.30952756382581
 31
0.0
 11
69.50733309077782
 21
-81.24249944155524
 31
0.0
 11
69.50733309077782
 21
-81.21707498138365
 31
0.0
 11
69.50519889711694
 21
-80.9917756585233
 31
0.0
 11
69.4988055829387
 21
-80.76990268982874
 31
0.0
  0
SPLINE
  5
B9
102
{ACAD_REACTORS
330
D6
102
}
330
48
100
AcDbEntity
  8
_U_30EC_U_30A4_U_30E4_U_30FC_1
  6
Continuous
 62
     2
100
AcDbSpline
210
0.0
220
0.0
230
1.0
 70
    11
 71
     3
 72
    95
 73
    91
 74
    89
 42
0.000000001
 43
0.0000000001
 44
0.00000001
 40
0.0
 40
0.0
 40
0.0
 40
0.0
 40
0.6550406656911812
 40
1.308087289031943
 40
1.420803739835807
 40
1.566130759770816
 40
1.75706734188848
 40
2.006513545026482
 40
2.087328263121567
 40
2.185328872295635
 40
2.294612454748389
 40
2.408936380534831
 40
2.526802767798572
 40
2.646360524615614
 40
2.762535723971614
 40
2.870057342870169
 40
2.96688344843166
 40
3.050803243518307
 40
3.115818222436613
 40
3.156030057150244
 40
3.213914225080144
 40
3.27668902645053
 40
3.342960320981307
 40
3.404230667150528
 40
3.453822809493319
 40
3.532499827188385
 40
3.634775188507135
 40
3.75490933300811
 40
3.889736761660624
 40
4.035769602175177
 40
4.187256681197559
 40
4.33873368567591
 40
4.48847873467606
 40
4.634708317831532
 40
4.771493189921237
 40
4.89268657156116
 40
5.199775528944415
 40
5.460353566929596
 40
5.667603142345459
 40
5.814722905404441
 40
5.828990806219782
 40
5.855488336304422
 40
5.869756237118768
 40
6.189796507762769
 40
6.531890469873
 40
6.883053637016967
 40
7.23051202491144
 40
7.56696665676452
 40
7.885203559707372
 40
8.172887439719206
 40
8.418011594062722
 40
8.443926721190653
 40
8.510760470613139
 40
8.602145393795656
 40
8.701714041647083
 40
8.79309896507532
 40
8.859932715057898
 40
8.885847842603543
 40
9.242301256612764
 40
9.589275455016708
 40
9.921808543164124
 40
10.23479624298463
 40
10.29968150889175
 40
10.35323493887764
 40
10.40154625355146
 40
10.46482922477817
 40
10.55973900668394
 40
10.69239545985608
 40
10.84920353475663
 40
11.0162632859477
 40
11.18672024367435
 40
11.35372582577202
 40
11.50257442292417
 40
11.61866495023282
 40
11.71329869152866
 40
11.82511050573899
 40
11.94464880845707
 40
12.06929242642498
 40
12.19707290435167
 40
12.3256263286052
 40
12.4503456533127
 40
12.56646595170319
 40
12.67099007414626
 40
12.76077625936774
 40
12.82703233506685
 40
12.87429132785984
 40
12.89831990323325
 40
12.92234847860012
 40
13.53984767410313
 40
14.18294284359354
 40
14.18294284359354
 40
14.18294284359354
 40
14.18294284359354
 10
66.89982031007901
 20
-81.8001549117934
 30
0.0
 10
66.76822872113195
 20
-81.6864847077783
 30
0.0
 10
66.50544612554967
 20
-81.45949033064913
 30
0.0
 10
65.9927660893791
 20
-80.6169906642478
 30
0.0
 10
66.00369220481306
 20
-80.97490151804045
 30
0.0
 10
65.99714939807605
 20
-81.1164613710893
 30
0.0
 10
65.9958294084541
 20
-81.31492224081785
 30
0.0
 10
65.99483850553067
 20
-81.4876323333508
 30
0.0
 10
65.99543692047433
 20
-81.63048156123486
 30
0.0
 10
65.99692617546506
 20
-81.72648523967705
 30
0.0
 10
65.99859510412412
 20
-81.83368026117925
 30
0.0
 10
66.00022024073871
 20
-81.94749317863483
 30
0.0
 10
66.00226969544543
 20
-82.06471956776474
 30
0.0
 10
66.00534329546954
 20
-82.18257118148095
 30
0.0
 10
66.0086607149812
 20
-82.29685442060445
 30
0.0
 10
66.01238727930483
 20
-82.40392127513788
 30
0.0
 10
66.01476056141938
 20
-82.49906120614142
 30
0.0
 10
66.02089863411263
 20
-82.58354972175371
 30
0.0
 10
66.01700519487152
 20
-82.63990442082921
 30
0.0
 10
66.03854978958462
 20
-82.71088506908708
 30
0.0
 10
65.96112075113864
 20
-82.68010851776583
 30
0.0
 10
65.90466206929597
 20
-82.68902286863451
 30
0.0
 10
65.84707633495759
 20
-82.68017310982786
 30
0.0
 10
65.76204309312416
 20
-82.7117530415512
 30
0.0
 10
65.79399815991513
 20
-82.62818373388873
 30
0.0
 10
65.79209727353076
 20
-82.56030920412753
 30
0.0
 10
65.80382275000687
 20
-82.45680272616647
 30
0.0
 10
65.80945085057682
 20
-82.33911403764367
 30
0.0
 10
65.81681696317101
 20
-82.20524920216641
 30
0.0
 10
65.82510271543788
 20
-82.06149376508432
 30
0.0
 10
65.83291193501951
 20
-81.91199506537622
 30
0.0
 10
65.83878386754265
 20
-81.76120979978985
 30
0.0
 10
65.84339352707376
 20
-81.61213585502628
 30
0.0
 10
65.84728995703108
 20
-81.46790616218044
 30
0.0
 10
65.85009825793327
 20
-81.33329624168049
 30
0.0
 10
65.85069662077906
 20
-81.14443915033709
 30
0.0
 10
65.85462913199191
 20
-80.91938035067909
 30
0.0
 10
65.83724428312665
 20
-80.64546438255357
 30
0.0
 10
65.87806847953514
 20
-80.48126417282465
 30
0.0
 10
65.79254207087706
 20
-80.28163867915967
 30
0.0
 10
65.85908263604568
 20
-80.28528070977087
 30
0.0
 10
65.87689917259993
 20
-80.28500082220214
 30
0.0
 10
65.99870692502711
 20
-80.28280601982429
 30
0.0
 10
66.10110377882309
 20
-80.56238410659563
 30
0.0
 10
66.3510288962125
 20
-80.76350520845057
 30
0.0
 10
66.58003027838795
 20
-81.0312091439315
 30
0.0
 10
66.81754186658775
 20
-81.28267115518689
 30
0.0
 10
67.04163581935407
 20
-81.51943555319707
 30
0.0
 10
67.26809837357783
 20
-81.77694836797986
 30
0.0
 10
67.42559553392832
 20
-81.89264194324143
 30
0.0
 10
67.64023970654429
 20
-82.22916376842267
 30
0.0
 10
67.63529134273873
 20
-82.10448775289461
 30
0.0
 10
67.63641990553158
 20
-82.04585837445327
 30
0.0
 10
67.63591452942848
 20
-81.95869867009087
 30
0.0
 10
67.63607426108823
 20
-81.86497386198195
 30
0.0
 10
67.63603223440867
 20
-81.77894558084026
 30
0.0
 10
67.63604694931419
 20
-81.7175963743557
 30
0.0
 10
67.63599737087522
 20
-81.56778297860069
 30
0.0
 10
67.63890789755794
 20
-81.32923916870962
 30
0.0
 10
67.61897884939303
 20
-80.96427019512363
 30
0.0
 10
67.66807013890168
 20
-80.70113897387654
 30
0.0
 10
67.51082189619488
 20
-80.28984624433306
 30
0.0
 10
67.66923803251903
 20
-80.34515246829318
 30
0.0
 10
67.72419479313973
 20
-80.34713842880889
 30
0.0
 10
67.77581552195086
 20
-80.34648751132812
 30
0.0
 10
67.86434664181344
 20
-80.30544001642822
 30
0.0
 10
67.81351657559375
 20
-80.45217202758076
 30
0.0
 10
67.82436573830526
 20
-80.55893557426631
 30
0.0
 10
67.80963044476155
 20
-80.7182782396695
 30
0.0
 10
67.80302438989733
 20
-80.88060467728192
 30
0.0
 10
67.79452288526836
 20
-81.0492100748867
 30
0.0
 10
67.78734946549676
 20
-81.21098714677522
 30
0.0
 10
67.78193306681577
 20
-81.35491197923133
 30
0.0
 10
67.78019814204171
 20
-81.47476035914141
 30
0.0
 10
67.78057081250873
 20
-81.58227427790548
 30
0.0
 10
67.78039235790314
 20
-81.6909350473548
 30
0.0
 10
67.7807278315909
 20
-81.80959959215534
 30
0.0
 10
67.78203080749525
 20
-81.93358365868323
 30
0.0
 10
67.7839154804343
 20
-82.06055235209959
 30
0.0
 10
67.78552719076195
 20
-82.18759667830034
 30
0.0
 10
67.78716705901988
 20
-82.31058644888888
 30
0.0
 10
67.78928381985203
 20
-82.42612597997302
 30
0.0
 10
67.78941158751323
 20
-82.5282262542523
 30
0.0
 10
67.79367818493223
 20
-82.61903680542906
 30
0.0
 10
67.78387075380577
 20
-82.67699908172277
 30
0.0
 10
67.80487422244576
 20
-82.74396399249035
 30
0.0
 10
67.76559071926654
 20
-82.73622375414378
 30
0.0
 10
67.5525574570513
 20
-82.75158275235869
 30
0.0
 10
67.35665653959558
 20
-82.195104712866
 30
0.0
 10
67.05414650843129
 20
-81.93357494032554
 30
0.0
 10
66.89982031007901
 20
-81.8001549117934
 30
0.0
 11
66.89982031007901
 21
-81.8001549117934
 31
0.0
 11
66.45257967912795
 21
-81.32155893969087
 31
0.0
 11
66.0054316523412
 21
-80.84560880092094
 31
0.0
 11
66.00199317152624
 21
-80.95827279394832
 31
0.0
 11
65.99858776362692
 21
-81.10355991196755
 31
0.0
 11
65.99599043730433
 21
-81.29447883553097
 31
0.0
 11
65.99513936093717
 21
-81.54392359241308
 31
0.0
 11
65.9955506683058
 21
-81.62473726426785
 31
0.0
 11
65.99686877825854
 21
-81.72272900903504
 31
0.0
 11
65.99854597204867
 21
-81.83199972081326
 31
0.0
 11
66.00026345802871
 21
-81.94631074509026
 31
0.0
 11
66.00242752915409
 21
-82.06415726415798
 31
0.0
 11
66.0054316523412
 21
-82.18367727280865
 31
0.0
 11
66.0088627185907
 21
-82.2998017953491
 31
0.0
 11
66.01231963827672
 21
-82.40726782830835
 31
0.0
 11
66.01573527058571
 21
-82.504033670298
 31
0.0
 11
66.0192164436562
 21
-82.58788123104092
 31
0.0
 11
66.02262736370814
 21
-82.65280667373304
 31
0.0
 11
66.02610442959167
 21
-82.69286789768137
 31
0.0
 11
65.96845312743403
 21
-82.6876809619188
 31
0.0
 11
65.90570137710779
 21
-82.68597991157202
 31
0.0
 11
65.83945191699256
 21
-82.68768096191879
 31
0.0
 11
65.77840151924443
 21
-82.69286789768137
 31
0.0
 11
65.78570401905813
 21
-82.64381635255475
 31
0.0
 11
65.79390610218229
 21
-82.56556803660209
 31
0.0
 11
65.8020366275117
 21
-82.46361636128034
 31
0.0
 11
65.8093673894166
 21
-82.34370609221313
 31
0.0
 11
65.81666257331904
 21
-82.20907617037174
 31
0.0
 11
65.82487117083645
 21
-82.0632742172832
 31
0.0
 11
65.83257716022342
 21
-81.91198326245991
 31
0.0
 11
65.8386030454862
 21
-81.7606261618033
 31
0.0
 11
65.84333137001848
 21
-81.6109557798963
 31
0.0
 11
65.84721964248888
 21
-81.46477789798843
 31
0.0
 11
65.84977948617336
 21
-81.32801697788368
 31
0.0
 11
65.85065922573426
 21
-81.20682678694175
 31
0.0
 11
65.85021935595385
 21
-80.8997381411852
 31
0.0
 11
65.84893943411157
 21
-80.639163245417
 31
0.0
 11
65.84589261706614
 21
-80.4319360666494
 31
0.0
 11
65.84033165655319
 21
-80.28492143995003
 31
0.0
 11
65.85459955742381
 21
-80.28492143995003
 31
0.0
 11
65.88109708761208
 21
-80.28492143995003
 31
0.0
 11
65.8953649884827
 21
-80.28492143995003
 31
0.0
 11
66.11250111030458
 21
-80.52003349718292
 31
0.0
 11
66.34430115758482
 21
-80.77162248149503
 31
0.0
 11
66.58250834716083
 21
-81.02963973837494
 31
0.0
 11
66.81903420102901
 21
-81.28416449525575
 31
0.0
 11
67.04859661704742
 21
-81.53013769831927
 31
0.0
 11
67.26620648128721
 21
-81.76234595346958
 31
0.0
 11
67.46439923664762
 21
-81.97086848813966
 31
0.0
 11
67.6360410551855
 21
-82.14586831448476
 31
0.0
 11
67.6360410551855
 21
-82.11995318694021
 31
0.0
 11
67.6360410551855
 21
-82.05311943695693
 31
0.0
 11
67.6360410551855
 21
-81.9617345135104
 31
0.0
 11
67.6360410551855
 21
-81.86216586557612
 31
0.0
 11
67.6360410551855
 21
-81.77078094212958
 31
0.0
 11
67.6360410551855
 21
-81.70394719214629
 31
0.0
 11
67.6360410551855
 21
-81.67803206460175
 31
0.0
 11
67.63475010903777
 21
-81.32158098830196
 31
0.0
 11
67.63087286087273
 21
-80.9746284536665
 31
0.0
 11
67.62264652427709
 21
-80.64219713430512
 31
0.0
 11
67.60848029199968
 21
-80.32953018993885
 31
0.0
 11
67.67206187023874
 21
-80.34247162222731
 31
0.0
 11
67.72544376123801
 21
-80.34675456493457
 31
0.0
 11
67.77356485376018
 21
-80.3424716222273
 31
0.0
 11
67.83551042509657
 21
-80.32953018993885
 31
0.0
 11
67.82814839403437
 21
-80.42415400935963
 31
0.0
 11
67.82000584215871
 21
-80.556560328771
 31
0.0
 11
67.8113972816773
 21
-80.71313192595409
 31
0.0
 11
67.80278146759838
 21
-80.87996935646794
 31
0.0
 11
67.79464553030576
 21
-81.05023203871704
 31
0.0
 11
67.7872768846604
 21
-81.21707498138365
 31
0.0
 11
67.78216743842906
 21
-81.36583585808255
 31
0.0
 11
67.78047709316729
 21
-81.48191407853963
 31
0.0
 11
67.78047709316729
 21
-81.57654781983545
 31
0.0
 11
67.78047709316729
 21
-81.68835963404358
 31
0.0
 11
67.78087286572656
 21
-81.80789728158317
 31
0.0
 11
67.78210869034768
 21
-81.93253477287145
 31
0.0
 11
67.7838659646086
 21
-82.06030316693673
 31
0.0
 11
67.78555709303771
 21
-82.18884546725185
 31
0.0
 11
67.78731436729836
 21
-82.3135524116651
 31
0.0
 11
67.7890054957274
 21
-82.42966039774716
 31
0.0
 11
67.79031518319405
 21
-82.53417632654048
 31
0.0
 11
67.79072528735037
 21
-82.62396157825413
 31
0.0
 11
67.79072528735037
 21
-82.69021765462648
 31
0.0
 11
67.79072528735037
 21
-82.73747664767023
 31
0.0
 11
67.76669671157447
 21
-82.73747664767023
 31
0.0
 11
67.74266813579857
 21
-82.73747664767023
 31
0.0
 11
67.33409966531916
 21
-82.27446794118873
 31
0.0
 11
66.89982031007901
 21
-81.8001549117934
 31
0.0
  0
SPLINE
  5
BA
102
{ACAD_REACTORS
330
D7
102
}
330
48
100
AcDbEntity
  8
_U_30EC_U_30A4_U_30E4_U_30FC_1
  6
Continuous
 62
     2
100
AcDbSpline
210
0.0
220
0.0
230
1.0
 70
    11
 71
     3
 72
    25
 73
    21
 74
    19
 42
0.000000001
 43
0.0000000001
 44
0.00000001
 40
0.0
 40
0.0
 40
0.0
 40
0.0
 40
0.0911479969065178
 40
0.1858117896205164
 40
0.2804128399735131
 40
0.3715889190715078
 40
0.4679080494219134
 40
0.5642683809229372
 40
0.6605683222645203
 40
0.7569653015810683
 40
0.8561348172523215
 40
1.092615965104358
 40
1.374867658141952
 40
1.61134881201165
 40
1.710518328425316
 40
1.809403163726639
 40
2.045205463294164
 40
2.3266469176222
 40
2.562449217190671
 40
2.661334043833977
 40
2.661334043833977
 40
2.661334043833977
 40
2.661334043833977
 10
62.86139680199676
 20
-81.62298991183772
 30
0.0
 10
62.89177933706911
 20
-81.62315449666511
 30
0.0
 10
62.95371633418804
 20
-81.62349000691145
 30
0.0
 10
63.04716244130991
 20
-81.62644473929063
 30
0.0
 10
63.14053626891262
 20
-81.62935776503915
 30
0.0
 10
63.23480282062452
 20
-81.63019327737649
 30
0.0
 10
63.32852322437355
 20
-81.62916884723016
 30
0.0
 10
63.42823077559736
 20
-81.62996551910095
 30
0.0
 10
63.51192169990811
 20
-81.61992119145843
 30
0.0
 10
63.65682637678142
 20
-81.64678911706903
 30
0.0
 10
63.5326399897569
 20
-81.47247999101013
 30
0.0
 10
63.48961347390507
 20
-81.31261818374975
 30
0.0
 10
63.37391895949777
 20
-81.0539507083085
 30
0.0
 10
63.29478328840256
 20
-80.91682476519202
 30
0.0
 10
63.23618440745842
 20
-80.69976496246989
 30
0.0
 10
63.17950713922065
 20
-80.91647395167635
 30
0.0
 10
63.0983077353245
 20
-81.05586516942827
 30
0.0
 10
62.99939687342568
 20
-81.30506560010872
 30
0.0
 10
62.91838925470272
 20
-81.4898769915499
 30
0.0
 10
62.87439507786065
 20
-81.59263082524947
 30
0.0
 10
62.86139680199676
 20
-81.62298991183772
 30
0.0
 11
62.86139680199676
 21
-81.62298991183772
 31
0.0
 11
62.95254051905889
 21
-81.62387406114306
 31
0.0
 11
63.04716957503501
 21
-81.62643831461466
 31
0.0
 11
63.14173496324747
 21
-81.62903564100287
 31
0.0
 11
63.23290707029651
 21
-81.62988671739154
 31
0.0
 11
63.32922532304748
 21
-81.62947551079442
 31
0.0
 11
63.42557664871447
 21
-81.62815810628094
 31
0.0
 11
63.52185300910548
 21
-81.62602710801752
 31
0.0
 11
63.6182021299112
 21
-81.62298991183772
 31
0.0
 11
63.57849007759101
 21
-81.53211887186045
 31
0.0
 11
63.48379210667365
 21
-81.31542639191463
 31
0.0
 11
63.37076549622391
 21
-81.05679343197929
 31
0.0
 11
63.27606752530654
 21
-80.84010095203348
 31
0.0
 11
63.23635547298636
 21
-80.7492299120562
 31
0.0
 11
63.19735977120345
 21
-80.84010095203347
 31
0.0
 11
63.10437002079803
 21
-81.0567934319793
 31
0.0
 11
62.99338225418511
 21
-81.31542639191463
 31
0.0
 11
62.90039250377968
 21
-81.53211887186045
 31
0.0
 11
62.86139680199676
 21
-81.62298991183772
 31
0.0
  0
SPLINE
  5
BB
102
{ACAD_REACTORS
330
D7
102
}
330
48
100
AcDbEntity
  8
_U_30EC_U_30A4_U_30E4_U_30FC_1
  6
Continuous
 62
     2
100
AcDbSpline
210
0.0
220
0.0
230
1.0
 70
    11
 71
     3
 72
    57
 73
    53
 74
    51
 42
0.000000001
 43
0.0000000001
 44
0.00000001
 40
0.0
 40
0.0
 40
0.0
 40
0.0
 40
0.0471632082809072
 40
0.0914861054632283
 40
0.1357762519702376
 40
0.1826527001610387
 40
0.2295203288572296
 40
0.2737751972220607
 40
0.3181310461543058
 40
0.3652607198398503
 40
0.4571007286314284
 40
0.5671851029165009
 40
0.6894623283868405
 40
0.8181758272545886
 40
0.9510087229273767
 40
1.085852229674051
 40
1.218126164475314
 40
1.343545131142377
 40
1.454537202956793
 40
1.567187607530767
 40
1.680710966642385
 40
1.794226869736778
 40
1.900009184247563
 40
2.004085860447843
 40
2.108162674451766
 40
2.214000150155296
 40
2.496038577352149
 40
2.762350745479298
 40
2.99727535327941
 40
3.185110082137723
 40
3.246407890063934
 40
3.312607550212666
 40
3.378877742711582
 40
3.440140399651457
 40
4.100501696006498
 40
4.754913085563537
 40
5.41133169342391
 40
6.077890432568724
 40
6.110575292671003
 40
6.143260152775776
 40
6.36798936339516
 40
6.61052537495156
 40
6.863389136467311
 40
7.11938002554763
 40
7.376036605091108
 40
7.631164770966317
 40
7.876722425456436
 40
8.104953735855961
 40
8.3129166859243
 40
8.497730294941299
 40
8.651018984313867
 40
8.764738853624586
 40
8.764738853624586
 40
8.764738853624586
 40
8.764738853624586
 10
64.38529169532819
 20
-82.69286789768137
 30
0.0
 10
64.36968841796995
 20
-82.69087298301987
 30
0.0
 10
64.3394215413071
 20
-82.68700328020768
 30
0.0
 10
64.29412616550209
 20
-82.68571544413791
 30
0.0
 10
64.24898205821177
 20
-82.68604845827018
 30
0.0
 10
64.20292845761686
 20
-82.68598870706839
 30
0.0
 10
64.1570763624865
 20
-82.68587715731061
 30
0.0
 10
64.11139791009336
 20
-82.68635695924473
 30
0.0
 10
64.0681078994377
 20
-82.68452419762343
 30
0.0
 10
63.99702154042824
 20
-82.70863972566406
 30
0.0
 10
63.99877447142098
 20
-82.58728835403815
 30
0.0
 10
63.95164638233392
 20
-82.50187289629831
 30
0.0
 10
63.91217457045302
 20
-82.38426600035928
 30
0.0
 10
63.86369029854141
 20
-82.2668077684063
 30
0.0
 10
63.81312848552911
 20
-82.14507593619555
 30
0.0
 10
63.76489020632459
 20
-82.018375615186
 30
0.0
 10
63.70655004003633
 20
-81.90979841596112
 30
0.0
 10
63.69111601200299
 20
-81.75292872246658
 30
0.0
 10
63.54968537834042
 20
-81.7854008283274
 30
0.0
 10
63.44386648676729
 20
-81.77400640698887
 30
0.0
 10
63.32888371779909
 20
-81.77520937866447
 30
0.0
 10
63.21834097049097
 20
-81.77406584033656
 30
0.0
 10
63.11068509755517
 20
-81.77495179343538
 30
0.0
 10
63.00515899820113
 20
-81.77496926990545
 30
0.0
 10
62.90394601347815
 20
-81.78199496908651
 30
0.0
 10
62.71970722805216
 20
-81.75777669521194
 30
0.0
 10
62.70876611381799
 20
-82.06171838259182
 30
0.0
 10
62.60179590875184
 20
-82.28560352127667
 30
0.0
 10
62.50284160571152
 20
-82.47018215088568
 30
0.0
 10
62.51553579767763
 20
-82.71383324576858
 30
0.0
 10
62.39803591691658
 20
-82.68405482627868
 30
0.0
 10
62.33523233210789
 20
-82.68655439871463
 30
0.0
 10
62.27161395461686
 20
-82.68569454278257
 30
0.0
 10
61.98762816468432
 20
-82.72815489439125
 30
0.0
 10
62.61819059521507
 20
-82.00831576936278
 30
0.0
 10
62.70179127418398
 20
-81.49636989945336
 30
0.0
 10
63.08595202421066
 20
-80.97559785831018
 30
0.0
 10
63.07074757413352
 20
-80.27393903127859
 30
0.0
 10
63.31695331754655
 20
-80.28567896299808
 30
0.0
 10
63.41866136103307
 20
-80.27688524928291
 30
0.0
 10
63.41800194885863
 20
-80.52853878650718
 30
0.0
 10
63.53585846085972
 20
-80.71095508647107
 30
0.0
 10
63.62457827132535
 20
-80.95349788718197
 30
0.0
 10
63.72525599380284
 20
-81.18573498850938
 30
0.0
 10
63.82414101650116
 20
-81.42238884814152
 30
0.0
 10
63.92299444434381
 20
-81.65451790210972
 30
0.0
 10
64.01864338436948
 20
-81.87791306592275
 30
0.0
 10
64.10901720260401
 20
-82.08640980331748
 30
0.0
 10
64.1920212020958
 20
-82.27605080851743
 30
0.0
 10
64.26563560355675
 20
-82.44250423312968
 30
0.0
 10
64.32730833483143
 20
-82.57995829754964
 30
0.0
 10
64.36797263383725
 20
-82.65914289951033
 30
0.0
 10
64.38529169532819
 20
-82.69286789768137
 30
0.0
 11
64.38529169532819
 21
-82.69286789768137
 31
0.0
 11
64.33841457702164
 21
-82.6876809619188
 31
0.0
 11
64.29412433488937
 21
-82.68597991157202
 31
0.0
 11
64.2498341884498
 21
-82.68597991157202
 31
0.0
 11
64.20295773999283
 21
-82.68597991157202
 31
0.0
 11
64.15609011098024
 21
-82.68597991157202
 31
0.0
 11
64.11183524231768
 21
-82.68597991157202
 31
0.0
 11
64.06751202296226
 21
-82.68768096191879
 31
0.0
 11
64.02066864742119
 21
-82.69286789768137
 31
0.0
 11
63.9922799589094
 21
-82.60552563207821
 31
0.0
 11
63.9552989268667
 21
-82.50183873106245
 31
0.0
 11
63.91186536894699
 21
-82.38753542379936
 31
0.0
 11
63.8641323319705
 21
-82.26799998112095
 31
0.0
 11
63.81384275860057
 21
-82.145054720735
 31
0.0
 11
63.76267344567009
 21
-82.02029706451619
 31
0.0
 11
63.71277992540949
 21
-81.89779387878292
 31
0.0
 11
63.66633865646099
 21
-81.78129012013147
 31
0.0
 11
63.55538793603577
 21
-81.77826064096558
 31
0.0
 11
63.44275766778583
 21
-81.77613074513275
 31
0.0
 11
63.32924195222183
 21
-81.77481334061925
 31
0.0
 11
63.2157267929569
 21
-81.77440213402213
 31
0.0
 11
63.10994527655847
 21
-81.77481334061925
 31
0.0
 11
63.00587693719939
 21
-81.77613074513275
 31
0.0
 11
62.90182191768136
 21
-81.77826064096558
 31
0.0
 11
62.79602780683649
 21
-81.78129012013147
 31
0.0
 11
62.69111822029073
 21
-82.04309091867714
 31
0.0
 11
62.59651361430997
 21
-82.29203296722605
 31
0.0
 11
62.51824986630668
 21
-82.51353772411508
 31
0.0
 11
62.46236986773238
 21
-82.69286789768137
 31
0.0
 11
62.40129190922106
 21
-82.6876809619188
 31
0.0
 11
62.33511410708991
 21
-82.68597991157202
 31
0.0
 11
62.26886574940511
 21
-82.68768096191879
 31
0.0
 11
62.20782306867068
 21
-82.69286789768137
 31
0.0
 11
62.48299524046994
 21
-82.09257020685922
 31
0.0
 11
62.7513213186939
 21
-81.49569887020289
 31
0.0
 11
63.01705448031731
 21
-80.89547283736684
 31
0.0
 11
63.28450081898018
 21
-80.28492143995003
 31
0.0
 11
63.31718567925748
 21
-80.28492143995003
 31
0.0
 11
63.34987053953478
 21
-80.28492143995003
 31
0.0
 11
63.4358568133826
 21
-80.49254990343981
 31
0.0
 11
63.52875532663779
 21
-80.71658914817547
 31
0.0
 11
63.62589819742323
 21
-80.95004866200595
 31
0.0
 11
63.72482039108002
 21
-81.1861540091692
 31
0.0
 11
63.82456087026956
 21
-81.42263749001282
 31
0.0
 11
63.92433385821221
 21
-81.65744748127355
 31
0.0
 11
64.02108757102175
 21
-81.88314037184215
 31
0.0
 11
64.11183524231768
 21
-82.09255477283145
 31
0.0
 11
64.19524182873147
 21
-82.28305918250604
 31
0.0
 11
64.27005607161459
 21
-82.45205296718598
 31
0.0
 11
64.33409966393722
 21
-82.59132191680398
 31
0.0
 11
64.38529169532819
 21
-82.69286789768137
 31
0.0
  0
SPLINE
  5
BC
102
{ACAD_REACTORS
330
D8
102
}
330
48
100
AcDbEntity
  8
_U_30EC_U_30A4_U_30E4_U_30FC_1
  6
Continuous
 62
     2
100
AcDbSpline
210
0.0
220
0.0
230
1.0
 70
    11
 71
     3
 72
    99
 73
    95
 74
    93
 42
0.000000001
 43
0.0000000001
 44
0.00000001
 40
0.0
 40
0.0
 40
0.0
 40
0.0
 40
0.0796417172272554
 40
0.1621768542356099
 40
0.2486489160957684
 40
0.3404969668524829
 40
0.4381912511164787
 40
0.5434463660245094
 40
0.6518115192846929
 40
0.7530190937886743
 40
0.8492196919724747
 40
0.9419290312997993
 40
1.03424966357001
 40
1.129078600620156
 40
1.226697027573214
 40
1.327220425421676
 40
1.470572134937997
 40
1.595489863371204
 40
1.719934125348336
 40
1.850576620127383
 40
1.989059629987272
 40
2.134139054226886
 40
2.280698007207191
 40
2.424529739039465
 40
2.565929576985821
 40
2.708239260773483
 40
2.86171788744361
 40
3.045168540347324
 40
3.183798301138594
 40
3.314813961455422
 40
3.442083470447272
 40
3.569912708372932
 40
3.70217751250933
 40
3.842307559659468
 40
3.992872223245891
 40
4.15675066221828
 40
4.310981861107515
 40
4.445859909322577
 40
4.572393936131551
 40
4.70165671978191
 40
4.768279086008379
 40
4.835960697898328
 40
4.912788918729245
 40
5.006285208481454
 40
5.026909478751552
 40
5.047533749021095
 40
5.10180803147117
 40
5.162325165538449
 40
5.226919745995781
 40
5.29423180659665
 40
5.364544852554782
 40
5.438319055467857
 40
5.517877651324183
 40
5.607647714861508
 40
5.700449642544327
 40
5.788251142364078
 40
5.872714706039716
 40
5.955167292575206
 40
6.037192395190327
 40
6.120669181469057
 40
6.206848616686307
 40
6.2966808554167
 40
6.442558392872533
 40
6.568190371608196
 40
6.692904567360283
 40
6.824220446557063
 40
6.963121850329306
 40
7.107843738851106
 40
7.253431663907181
 40
7.395187468036599
 40
7.533140753237668
 40
7.670550457175162
 40
7.816236511769183
 40
7.987691657359136
 40
8.14227742196919
 40
8.293662615414958
 40
8.442962460879231
 40
8.591598316185276
 40
8.743678992361742
 40
8.903725323699119
 40
9.07630700889045
 40
9.26557860468051
 40
9.459203795360663
 40
9.617619810273437
 40
9.753609671361817
 40
9.874873300004031
 40
9.95452018497774
 40
10.02416413719242
 40
10.09769764405442
 40
10.18909955924969
 40
10.2097458642013
 40
10.23039218263377
 40
10.30057101881261
 40
10.37632012987541
 40
10.37632012987541
 40
10.37632012987541
 40
10.37632012987541
 10
59.739622228862
 20
-82.3711786616507
 30
0.0
 10
59.75624853039881
 20
-82.39192920535751
 30
0.0
 10
59.79010516593464
 20
-82.43418417669164
 30
0.0
 10
59.85300899938049
 20
-82.48883717988993
 30
0.0
 10
59.9262768393162
 20
-82.53614504260014
 30
0.0
 10
60.0106236691405
 20
-82.5738629794313
 30
0.0
 10
60.1062508068229
 20
-82.59872909649113
 30
0.0
 10
60.21021212281149
 20
-82.60603970035129
 30
0.0
 10
60.31542876731736
 20
-82.59771206587008
 30
0.0
 10
60.41368938241022
 20
-82.56764349729538
 30
0.0
 10
60.4989253880317
 20
-82.52064706409188
 30
0.0
 10
60.57094876588717
 20
-82.45960538130211
 30
0.0
 10
60.62811851618647
 20
-82.38500559802479
 30
0.0
 10
60.66981362002076
 20
-82.29911064720889
 30
0.0
 10
60.69572202990613
 20
-82.20427678948855
 30
0.0
 10
60.7048304785422
 20
-82.09058550342698
 30
0.0
 10
60.69171322492555
 20
-81.96580941610284
 30
0.0
 10
60.62555977871825
 20
-81.84898810209175
 30
0.0
 10
60.52996383723378
 20
-81.76400989803689
 30
0.0
 10
60.41799484751375
 20
-81.69496844921903
 30
0.0
 10
60.2923927036038
 20
-81.63709387335174
 30
0.0
 10
60.15869590736251
 20
-81.58539806096724
 30
0.0
 10
60.02433902715995
 20
-81.53014436983887
 30
0.0
 10
59.89822514396452
 20
-81.45973758739414
 30
0.0
 10
59.78568474403039
 20
-81.37127988649816
 30
0.0
 10
59.69002305172269
 20
-81.2593246151259
 30
0.0
 10
59.62644246045943
 20
-81.10963619279684
 30
0.0
 10
59.61309739577841
 20
-80.94980734995922
 30
0.0
 10
59.6250778440217
 20
-80.7986512407422
 30
0.0
 10
59.66425663816096
 20
-80.67104284789527
 30
0.0
 10
59.72852552036792
 20
-80.55832655350221
 30
0.0
 10
59.81684724525087
 20
-80.46264920112375
 30
0.0
 10
59.92683586603962
 20
-80.38559314395314
 30
0.0
 10
60.05625518540337
 20
-80.32762132444786
 30
0.0
 10
60.20421064205616
 20
-80.29174351792244
 30
0.0
 10
60.36123369082551
 20
-80.28166810330501
 30
0.0
 10
60.51052079191989
 20
-80.29049891618475
 30
0.0
 10
60.65265210669389
 20
-80.3183863004071
 30
0.0
 10
60.7526190062394
 20
-80.37500214679926
 30
0.0
 10
60.90553421889531
 20
-80.4223892727556
 30
0.0
 10
60.83853991699367
 20
-80.5071597637988
 30
0.0
 10
60.82267465730378
 20
-80.57474627507581
 30
0.0
 10
60.79090179840653
 20
-80.63987436587871
 30
0.0
 10
60.80804696623396
 20
-80.74190076124115
 30
0.0
 10
60.75966946610009
 20
-80.73420317699161
 30
0.0
 10
60.72460568935342
 20
-80.74106757656259
 30
0.0
 10
60.7226965438487
 20
-80.67649698222868
 30
0.0
 10
60.69159603847579
 20
-80.63087889759669
 30
0.0
 10
60.65948190812245
 20
-80.57352492752612
 30
0.0
 10
60.61383059279366
 20
-80.52373066688506
 30
0.0
 10
60.55887756711557
 20
-80.47918715662067
 30
0.0
 10
60.49411086257761
 20
-80.44149540544517
 30
0.0
 10
60.41626447633656
 20
-80.4163015358971
 30
0.0
 10
60.32854280061209
 20
-80.40982298382951
 30
0.0
 10
60.23831707305752
 20
-80.4167782009546
 30
0.0
 10
60.15248621468333
 20
-80.44004338920145
 30
0.0
 10
60.07586110913647
 20
-80.47781885273517
 30
0.0
 10
60.009553308897
 20
-80.52861888291493
 30
0.0
 10
59.95528279897324
 20
-80.59182385973855
 30
0.0
 10
59.91551927982269
 20
-80.66637073670695
 30
0.0
 10
59.8907042963357
 20
-80.74996215383304
 30
0.0
 10
59.88223917156387
 20
-80.85720580998782
 30
0.0
 10
59.89499654398726
 20
-80.97948072113503
 30
0.0
 10
59.96118158620421
 20
-81.09763805089854
 30
0.0
 10
60.05712448526008
 20
-81.18307203671539
 30
0.0
 10
60.1688182415951
 20
-81.25330167074338
 30
0.0
 10
60.29411311214712
 20
-81.31254367075763
 30
0.0
 10
60.42800913942163
 20
-81.36296821294934
 30
0.0
 10
60.56201977859183
 20
-81.4159101239668
 30
0.0
 10
60.68811527696838
 20
-81.48163358755892
 30
0.0
 10
60.80064840911861
 20
-81.56433176843741
 30
0.0
 10
60.89616377370015
 20
-81.66917523070993
 30
0.0
 10
60.96029739397319
 20
-81.80976412129495
 30
0.0
 10
60.97413711780479
 20
-81.96848119929476
 30
0.0
 10
60.96042221649986
 20
-82.12760374163189
 30
0.0
 10
60.91750066067536
 20
-82.27429700561855
 30
0.0
 10
60.84761737818341
 20
-82.40793732793925
 30
0.0
 10
60.75048596665977
 20
-82.52381141681772
 30
0.0
 10
60.62780734764257
 20
-82.61823547610977
 30
0.0
 10
60.48046758659365
 20
-82.68734258729081
 30
0.0
 10
60.31073999498933
 20
-82.72960318522215
 30
0.0
 10
60.12476724323658
 20
-82.74131793150656
 30
0.0
 10
59.94592233789518
 20
-82.7310404269763
 30
0.0
 10
59.78120012065123
 20
-82.68946955611912
 30
0.0
 10
59.67646782938255
 20
-82.62115886497122
 30
0.0
 10
59.52812282431336
 20
-82.5723831034896
 30
0.0
 10
59.59106456474976
 20
-82.47936938090223
 30
0.0
 10
59.6002541882829
 20
-82.40616993132787
 30
0.0
 10
59.62339787539997
 20
-82.33977234879715
 30
0.0
 10
59.59648557880858
 20
-82.23938719853489
 30
0.0
 10
59.64516064091079
 20
-82.24679495863684
 30
0.0
 10
59.68467980334656
 20
-82.24019465760172
 30
0.0
 10
59.6926472397471
 20
-82.31834826162134
 30
0.0
 10
59.7235704420692
 20
-82.35312602005207
 30
0.0
 10
59.739622228862
 20
-82.3711786616507
 30
0.0
 11
59.739622228862
 21
-82.3711786616507
 31
0.0
 11
59.79123055286327
 21
-82.43183659566328
 31
0.0
 11
59.85313729541042
 21
-82.48642234217745
 31
0.0
 11
59.92580314625711
 21
-82.53329548452682
 31
0.0
 11
60.00967361086123
 21
-82.57073623104527
 31
0.0
 11
60.10424781851789
 21
-82.59522893069187
 31
0.0
 11
60.20918707799342
 21
-82.60337699492592
 31
0.0
 11
60.31710069503204
 21
-82.59349480742841
 31
0.0
 11
60.4138687394385
 21
-82.56384824493583
 31
0.0
 11
60.49810435360872
 21
-82.51738410432246
 31
0.0
 11
60.5686411660455
 21
-82.45722116162915
 31
0.0
 11
60.62497095627484
 21
-82.38407709914745
 31
0.0
 11
60.66669574687717
 21
-82.29892095333543
 31
0.0
 11
60.6924948260801
 21
-82.20477338391451
 31
0.0
 11
60.70110921822152
 21
-82.10461977282844
 31
0.0
 11
60.68087851561256
 21
-81.96270278501667
 31
0.0
 11
60.62027901194995
 21
-81.85346845344678
 31
0.0
 11
60.52952387390544
 21
-81.7683222295097
 31
0.0
 11
60.41903693375087
 21
-81.69860782848548
 31
0.0
 11
60.29387909840229
 21
-81.63933675211142
 31
0.0
 11
60.15932194037669
 21
-81.58509275906944
 31
0.0
 11
60.02471517297755
 21
-81.5271225507506
 31
0.0
 11
59.89960694700267
 21
-81.45616130076833
 31
0.0
 11
59.78905435510488
 21
-81.36800213412369
 31
0.0
 11
59.69836486880342
 21
-81.25833234248448
 31
0.0
 11
59.63773229222527
 21
-81.11733808904751
 31
0.0
 11
59.61753466253219
 21
-80.93500268978751
 31
0.0
 11
59.63042979241159
 21
-80.79697397454422
 31
0.0
 11
59.66912841121598
 21
-80.67180400929776
 31
0.0
 11
59.73234091842752
 21
-80.56134267251981
 31
0.0
 11
59.81877674073138
 21
-80.46716643990443
 31
0.0
 11
59.92667602617313
 21
-80.39066988610415
 31
0.0
 11
60.05437937360966
 21
-80.33297859271578
 31
0.0
 11
60.20056607126913
 21
-80.29693462571092
 31
0.0
 11
60.36400360182188
 21
-80.28492143995003
 31
0.0
 11
60.51791858840583
 21
-80.294792603142
 31
0.0
 11
60.64951546953762
 21
-80.32436199549568
 31
0.0
 11
60.76559037977086
 21
-80.37473535485813
 31
0.0
 11
60.87310601938907
 21
-80.44649366213187
 31
0.0
 11
60.84472615032128
 21
-80.50676905274177
 31
0.0
 11
60.82151227070517
 21
-80.57034512043417
 31
0.0
 11
60.80086484935693
 21
-80.64434687388794
 31
0.0
 11
60.78021081342558
 21
-80.73553331483737
 31
0.0
 11
60.75958654311839
 21
-80.73553331483737
 31
0.0
 11
60.73896227281119
 21
-80.73553331483737
 31
0.0
 11
60.71869739485598
 21
-80.68518420894718
 31
0.0
 11
60.692492621219
 21
-80.63063484264136
 31
0.0
 11
60.65807363772197
 21
-80.5759741308495
 31
0.0
 11
60.61338220657058
 21
-80.52563935655654
 31
0.0
 11
60.55876008122796
 21
-80.48136354059535
 31
0.0
 11
60.4946989457095
 21
-80.44477387046564
 31
0.0
 11
60.41899504139093
 21
-80.42030983401337
 31
0.0
 11
60.32959894992177
 21
-80.41212428714043
 31
0.0
 11
60.23712046269765
 21
-80.41986555449964
 31
0.0
 11
60.15243395444139
 21
-80.44304525935499
 31
0.0
 11
60.07672919416084
 21
-80.48050033747056
 31
0.0
 11
60.01140222192851
 21
-80.53080755099963
 31
0.0
 11
59.95807553404327
 21
-80.59313236001184
 31
0.0
 11
59.91850766866696
 21
-80.66663581485457
 31
0.0
 11
59.89397912074799
 21
-80.74925085823675
 31
0.0
 11
59.88582215568772
 21
-80.83871199536712
 31
0.0
 11
59.90603632183866
 21
-80.98318221234491
 31
0.0
 11
59.96665236195889
 21
-81.09322352308128
 31
0.0
 11
60.05737467735268
 21
-81.17879859250434
 31
0.0
 11
60.16789444015819
 21
-81.2497157452644
 31
0.0
 11
60.29303573904883
 21
-81.30999223830486
 31
0.0
 11
60.42760943353221
 21
-81.36323081468043
 31
0.0
 11
60.56219966447364
 21
-81.41874039799991
 31
0.0
 11
60.68732442690657
 21
-81.48536248131654
 31
0.0
 11
60.79782765325393
 21
-81.56794665664314
 31
0.0
 11
60.8885665051057
 21
-81.67113525904793
 31
0.0
 11
60.94918254522578
 21
-81.8036121340148
 31
0.0
 11
60.9693967113767
 21
-81.97387150897225
 31
0.0
 11
60.95521072007671
 21
-82.12780498983653
 31
0.0
 11
60.91263544619619
 21
-82.27307998111968
 31
0.0
 11
60.84300203370334
 21
-82.40514675191997
 31
0.0
 11
60.74752595314817
 21
-82.51906310605817
 31
0.0
 11
60.62713282253925
 21
-82.61198256784047
 31
0.0
 11
60.48264276546149
 21
-82.68081171712885
 31
0.0
 11
60.31537869854822
 21
-82.72332254177098
 31
0.0
 11
60.1266370800995
 21
-82.73747664767023
 31
0.0
 11
59.93352991791564
 21
-82.72332254177098
 31
0.0
 11
59.78092433536801
 21
-82.68081171712885
 31
0.0
 11
59.65921653949719
 21
-82.62014496367175
 31
0.0
 11
59.55905292791317
 21
-82.55179206438328
 31
0.0
 11
59.58525880398078
 21
-82.47657984217987
 31
0.0
 11
59.60203889903869
 21
-82.40898761997452
 31
0.0
 11
59.61364639006204
 21
-82.33637603145102
 31
0.0
 11
59.62438737069078
 21
-82.24560741168206
 31
0.0
 11
59.64503368960845
 21
-82.24560741168206
 31
0.0
 11
59.66568000852612
 21
-82.24560741168206
 31
0.0
 11
59.69791838443982
 21
-82.3079432449998
 31
0.0
 11
59.739622228862
 21
-82.3711786616507
 31
0.0
  0
LWPOLYLINE
  5
BD
102
{ACAD_REACTORS
330
CA
102
}
330
48
100
AcDbEntity
  8
_U_30EC_U_30A4_U_30E4_U_30FC_1
  6
Continuous
 62
     2
100
AcDbPolyline
 90
        5
 70
     1
 43
0.0
 10
82.0508405485441
 20
-81.1119119258544
 10
82.0508405485441
 20
-81.28038095359007
 10
80.75332391498
 20
-81.28038095359007
 10
80.75332391498
 20
-81.1119119258544
 10
82.0508405485441
 20
-81.1119119258544
  0
MTEXT
  5
BF
330
48
100
AcDbEntity
  8
1
 62
     2
100
AcDbMText
 10
-77.90697325472308
 20
185.4908647061897
 30
0.0
 40
5.0
 41
0.0
 71
     5
 72
     1
  1
図番
  7
CONVERTER_11
 73
     1
 44
0.45454545454545
  0
MTEXT
  5
C0
330
48
100
AcDbEntity
  8
1
 62
     2
100
AcDbMText
 10
-81.40697325472308
 20
-62.50913529381063
 30
0.0
 40
3.5
 41
0.0
 71
     5
 72
     1
  1
備考
  7
CONVERTER_11
 73
     1
 44
0.45454545454545
  0
MTEXT
  5
C1
330
48
100
AcDbEntity
  8
1
 62
     2
100
AcDbMText
 10
-81.40697325472308
 20
-73.75913529381064
 30
0.0
 40
3.5
 41
0.0
 71
     5
 72
     1
  1
品名
  7
CONVERTER_11
 73
     1
 44
0.72727272727273
  0
MTEXT
  5
C2
330
48
100
AcDbEntity
  8
1
 62
     2
100
AcDbMText
 10
-81.40697325472308
 20
-82.25913529381064
 30
0.0
 40
3.5
 41
0.0
 71
     5
 72
     1
  1
品番
  7
CONVERTER_11
 73
     1
 44
0.72727272727273
  0
MTEXT
  5
C3
330
48
100
AcDbEntity
  8
1
 62
     2
100
AcDbMText
 10
-8.90697325472308
 20
-71.50913529381063
 30
0.0
 40
3.0
 41
0.0
 71
     5
 72
     1
  1
承認
  7
CONVERTER_11
 73
     1
 44
0.59090909090909
  0
MTEXT
  5
C4
330
48
100
AcDbEntity
  8
1
 62
     2
100
AcDbMText
 10
64.59302674527692
 20
-73.00913529381063
 30
0.0
 40
3.5
 41
0.0
 71
     5
 72
     1
  1
第三角法
  7
CONVERTER_11
 73
     1
 44
0.54545454545455
  0
MTEXT
  5
C5
330
48
100
AcDbEntity
  8
1
 62
     2
100
AcDbMText
 10
8.09302674527692
 20
-71.50913529381063
 30
0.0
 40
3.0
 41
0.0
 71
     5
 72
     1
  1
検図
  7
CONVERTER_11
 73
     1
 44
0.59090909090909
  0
MTEXT
  5
C6
330
48
100
AcDbEntity
  8
1
 62
     2
100
AcDbMText
 10
42.09302674527692
 20
-71.50913529381063
 30
0.0
 40
3.0
 41
0.0
 71
     5
 72
     1
  1
設計
  7
CONVERTER_11
 73
     1
 44
0.59090909090909
  0
MTEXT
  5
C7
330
48
100
AcDbEntity
  8
1
 62
     2
100
AcDbMText
 10
25.09302674527692
 20
-71.50913529381063
 30
0.0
 40
3.0
 41
0.0
 71
     5
 72
     1
  1
製図
  7
CONVERTER_11
 73
     1
 44
0.59090909090909
  0
MTEXT
  5
C8
330
48
100
AcDbEntity
  8
1
 62
     2
100
AcDbMText
 10
-20.90697325472308
 20
-72.50913529381063
 30
0.0
 40
3.5
 41
0.0
 71
     5
 72
     1
  1
尺度
  7
CONVERTER_11
 73
     1
 44
0.54545454545455
  0
MTEXT
  5
C9
330
48
100
AcDbEntity
  8
1
 62
   250
100
AcDbMText
 10
-85.40697325472308
 20
-91.50913529381064
 30
0.0
 40
3.5
 41
0.0
 71
     4
 72
     1
  1
備考欄の文字列 原点位置=4
  7
CONVERTER_11
 73
     1
 44
0.54545454545455
  0
HATCH
  5
CA
330
48
100
AcDbEntity
  8
1
  6
Continuous
 62
     2
100
AcDbHatch
 10
0.0
 20
0.0
 30
0.0
210
0.0
220
0.0
230
1.0
  2
CUSTOM0
 70
     0
 71
     1
 91
        1
 92
        1
 93
        4
 72
     1
 10
82.0508405485441
 20
-81.1119119258544
 11
82.0508405485441
 21
-81.28038095359007
 72
     1
 10
82.0508405485441
 20
-81.28038095359007
 11
80.75332391498
 21
-81.28038095359007
 72
     1
 10
80.75332391498
 20
-81.28038095359007
 11
80.75332391498
 21
-81.1119119258544
 72
     1
 10
80.75332391498
 20
-81.1119119258544
 11
82.0508405485441
 21
-81.1119119258544
 97
        1
330
BD
 75
     1
 76
     2
 52
45.0
 41
0.1
 77
     0
 78
     1
 53
45.0
 43
0.0
 44
0.0
 45
-0.282842712474619
 46
0.0
 79
     0
 98
        1
 10
0.0
 20
0.0
  0
HATCH
  5
CB
330
48
100
AcDbEntity
  8
1
  6
Continuous
 62
     2
100
AcDbHatch
 10
0.0
 20
0.0
 30
0.0
210
0.0
220
0.0
230
1.0
  2
CUSTOM1
 70
     0
 71
     1
 91
        1
 92
        1
 93
        3
 72
     4
 94
        3
 73
     0
 74
     0
 95
       24
 96
       20
 40
0.0
 40
0.0
 40
0.0
 40
0.0
 40
0.2211075008753724
 40
0.4273218586245328
 40
0.5080174679239201
 40
0.5914835907870444
 40
0.8143265690192816
 40
1.054651302686578
 40
1.295452694023187
 40
1.518109231328838
 40
1.540864321905441
 40
1.595126460622686
 40
1.659890947896053
 40
1.714153085187397
 40
1.736908174961701
 40
1.764951100735414
 40
1.801562291220989
 40
1.953914424543669
 40
2.126104167379754
 40
2.126104167379754
 40
2.126104167379754
 40
2.126104167379754
 10
75.53056370096579
 20
-80.91924234268049
 10
75.50428465345806
 20
-80.97815901146691
 10
75.45349663471947
 20
-81.09202389701807
 10
75.40620522918806
 20
-81.36471571147956
 10
75.29737502553868
 20
-81.26468046805604
 10
75.1445067732406
 20
-81.23794936013738
 10
75.36164226339679
 20
-81.02395394363433
 10
75.37687511271491
 20
-80.80581411598575
 10
75.48371569447696
 20
-80.62461950314645
 10
75.42356483998458
 20
-80.34000303069655
 10
75.52645848481708
 20
-80.36799440158617
 10
75.57102009209184
 20
-80.37670277778766
 10
75.63111098481657
 20
-80.38773875197707
 10
75.66868870402071
 20
-80.40146006325506
 10
75.71827343813752
 20
-80.40157453220841
 10
75.68604263720938
 20
-80.43606936982441
 10
75.61020696746502
 20
-80.42509424843101
 10
75.63597146124616
 20
-80.61054559798615
 10
75.59861642166186
 20
-80.70211215831475
 10
75.57879724143777
 20
-80.7506939398336
 72
     4
 94
        3
 73
     0
 74
     0
 95
       70
 96
       66
 40
0.0
 40
0.0
 40
0.0
 40
0.0
 40
0.024173107302133
 40
0.0846058988987155
 40
0.1631685280353284
 40
0.2417311571789756
 40
0.3021639488292893
 40
0.3263370654895967
 40
0.3533118254249396
 40
0.4228783438922662
 40
0.5179999095313846
 40
0.6216398239466528
 40
0.7167613891500096
 40
0.7863279069650432
 40
0.8133026791762333
 40
0.8372943998772037
 40
0.8945054261373085
 40
0.9627895541963007
 40
1.020000580349082
 40
1.043992300975193
 40
1.071934345522924
 40
1.11312176877295
 40
1.145225199332267
 40
1.225483775412806
 40
1.329819923771518
 40
1.434156071994402
 40
1.514414647795825
 40
1.546518078208444
 40
1.578974764260246
 40
1.662678849314198
 40
1.777131373668433
 40
1.901833377474852
 40
2.016285900500656
 40
2.099989982528023
 40
2.132446666570368
 40
2.1587823544861
 40
2.216720867907875
 40
2.274659381334296
 40
2.300995069256239
 40
2.333451754066211
 40
2.417155836543906
 40
2.531608358985374
 40
2.656310362283869
 40
2.770762886388987
 40
2.854466971340138
 40
2.886923657363973
 40
2.913597976833409
 40
2.982389642875199
 40
3.07645171694707
 40
3.17893726045869
 40
3.272999334740086
 40
3.3417910010593
 40
3.368465320663625
 40
3.396976080738889
 40
3.472140811846068
 40
3.578408190308786
 40
3.700226892456265
 40
3.822045594634454
 40
3.928312973256561
 40
4.003477705314972
 40
4.031988456867038
 40
4.058324144797848
 40
4.116262658237003
 40
4.174201171400793
 40
4.200536849608736
 40
4.200536849608736
 40
4.200536849608736
 40
4.200536849608736
 10
75.57879724143777
 20
-80.7506939398336
 10
75.58685269974477
 20
-80.75069169569376
 10
75.61504681160096
 20
-80.75068383348264
 10
75.66958022564413
 20
-80.75082774552692
 10
75.7413159261372
 20
-80.75004408881165
 10
75.8166507589831
 20
-80.75285958917257
 10
75.86433198192074
 20
-80.74615125980102
 10
75.91253386983848
 20
-80.75715965688634
 10
75.89928392526417
 20
-80.70367126384029
 10
75.90813614173072
 20
-80.64863945837973
 10
75.90389654890542
 20
-80.55493620654957
 10
75.90637509340488
 20
-80.45954047162532
 10
75.90212061588292
 20
-80.36556707397682
 10
75.91100861186153
 20
-80.3111846694305
 10
75.89772448627139
 20
-80.25679531689605
 10
75.94443867298773
 20
-80.27071313045708
 10
75.98735219985053
 20
-80.26809652007019
 10
76.05357109094531
 20
-80.2726510693031
 10
76.09436097245671
 20
-80.28135367246908
 10
76.14554131435871
 20
-80.27381729490868
 10
76.11839879399692
 20
-80.3156355915778
 10
76.0733363508475
 20
-80.30628537308466
 10
76.08723324978196
 20
-80.37072322009227
 10
76.07886818844226
 20
-80.43535309753666
 10
76.08338996311664
 20
-80.53384388187175
 10
76.07850087639358
 20
-80.63317596538496
 10
76.08805264448503
 20
-80.69620413828093
 10
76.07300289079686
 20
-80.75949517881276
 10
76.13794269099772
 20
-80.74398456436796
 10
76.20465138522653
 20
-80.75414141683245
 10
76.3171702923596
 20
-80.74924729281703
 10
76.43205029017221
 20
-80.75222324648276
 10
76.54501394525158
 20
-80.74691865196077
 10
76.61065350504467
 20
-80.75806222908973
 10
76.67465441438218
 20
-80.74168997061206
 10
76.66334103419581
 20
-80.7915183947579
 10
76.67056073242784
 20
-80.83496814168942
 10
76.66334100640381
 20
-80.87841783793621
 10
76.67465446287629
 20
-80.92824634184187
 10
76.61065310517404
 20
-80.91187363289703
 10
76.5450188693228
 20
-80.92302257719479
 10
76.43202417700994
 20
-80.91768672174207
 10
76.31727240014115
 20
-80.92079183717246
 10
76.20434511396299
 20
-80.91548634698478
 10
76.13854883563529
 20
-80.92656229361465
 10
76.07463654281267
 20
-80.91025931533449
 10
76.08662826178946
 20
-80.9649000498532
 10
76.07923720657739
 20
-81.02059234333223
 10
76.08229522947519
 20
-81.11263840240497
 10
76.08236902384513
 20
-81.20734419507961
 10
76.0790581031128
 20
-81.29960746478798
 10
76.08697734426724
 20
-81.35477760644923
 10
76.07453440643854
 20
-81.4085536028093
 10
76.13193840044002
 20
-81.39459760518285
 10
76.19249755931516
 20
-81.40402071496837
 10
76.29789483078495
 20
-81.39970643452361
 10
76.4134561523391
 20
-81.40078024769032
 10
76.52899563305658
 20
-81.40187563480066
 10
76.63444485836095
 20
-81.39751003610436
 10
76.69489479245726
 20
-81.40704103350392
 10
76.75231051918792
 20
-81.39296239774687
 10
76.74080413294772
 20
-81.4420637611538
 10
76.74678342345182
 20
-81.48348871362415
 10
76.74505785035704
 20
-81.53261851414366
 10
76.745176757574
 20
-81.56059100933456
 10
76.74521391446018
 20
-81.56933241185115
 72
     4
 94
        3
 73
     0
 74
     0
 95
       62
 96
       58
 40
0.0
 40
0.0
 40
0.0
 40
0.0
 40
0.0598250028308769
 40
0.2024846486897189
 40
0.3727558389220746
 40
0.5154154847935786
 40
0.5752404975785197
 40
0.933232677548703
 40
1.29045176283946
 40
1.602077253145842
 40
1.699931634112075
 40
1.799359756425022
 40
2.270120149657067
 40
2.804661928461543
 40
2.882342287383239
 40
3.07654318571909
 40
3.329004354835576
 40
3.581465524568388
 40
3.775666424543673
 40
3.853346784558298
 40
3.899120679595073
 40
3.984129341792028
 40
4.029903236817362
 40
4.105797496059524
 40
4.295533144152473
 40
4.542189486611719
 40
4.788845828875666
 40
4.978581476410057
 40
5.054475735244297
 40
5.621734664339315
 40
6.130867242037342
 40
6.225249780948568
 40
6.318913039727267
 40
6.663579954558841
 40
7.047498900224671
 40
7.435230791575625
 40
7.498943906668023
 40
7.650875181210017
 40
7.832212509001556
 40
7.984143783696927
 40
8.047856898903055
 40
8.091554632732587
 40
8.172707566964226
 40
8.216405300767951
 40
8.289021782160836
 40
8.46218416075718
 40
8.668861838005304
 40
8.842024215263868
 40
8.914640695475077
 40
8.98988158086127
 40
9.155411528827193
 40
9.320941477743963
 40
9.396182352487223
 40
9.454709011143741
 40
9.583467660170733
 40
9.71222630901294
 40
9.770752957989437
 40
9.770752957989437
 40
9.770752957989437
 40
9.770752957989437
 10
76.74521391446018
 20
-81.56933241185115
 10
76.72526156243917
 20
-81.56932653812395
 10
76.65773051692346
 20
-81.56930665574907
 10
76.5340879614557
 20
-81.56964166860736
 10
76.37934476028254
 20
-81.56805855630554
 10
76.26276169352485
 20
-81.57227450520568
 10
76.04812100870096
 20
-81.55698324049442
 10
76.44492158599977
 20
-81.9171480809487
 10
76.48759235220366
 20
-82.134030259839
 10
76.91194295993795
 20
-82.31588466869616
 10
76.7370088948843
 20
-82.41928332812994
 10
76.6124791377852
 20
-82.63082006168341
 10
76.3596544688712
 20
-82.161074483795
 10
76.07278703463943
 20
-81.51402012396542
 10
76.08366033794287
 20
-81.82130857226369
 10
76.08131602307279
 20
-81.98624912409284
 10
76.07913635791797
 20
-82.22033858669371
 10
76.09110418491146
 20
-82.46415456959281
 10
76.06182521933988
 20
-82.6105773252008
 10
76.10447900782385
 20
-82.75800039206526
 10
76.01700814584078
 20
-82.74227732074846
 10
75.9698795059513
 20
-82.74219225837611
 10
75.88292406604815
 20
-82.75804103898155
 10
75.92437414744921
 20
-82.61385757958305
 10
75.89601424570533
 20
-82.47058476682608
 10
75.90762412280684
 20
-82.23238582015802
 10
75.90544431010404
 20
-82.0039629414072
 10
75.90333785807627
 20
-81.8420780000507
 10
75.91383028910916
 20
-81.52759820047311
 10
75.60592307056626
 20
-82.21684058508635
 10
75.2985525720224
 20
-82.69436779138013
 10
75.17816345190434
 20
-82.47172416743638
 10
75.0004875363491
 20
-82.35902494425495
 10
75.47835938156626
 20
-82.18365385915602
 10
75.52842265099761
 20
-81.94821600129032
 10
75.95140670744857
 20
-81.5559054003646
 10
75.72070217263091
 20
-81.57258222352
 10
75.59799533121097
 20
-81.56644010432292
 10
75.42557505484305
 20
-81.57600706681498
 10
75.3143492147217
 20
-81.55464710891398
 10
75.19560470802168
 20
-81.58777264023645
 10
75.21134371594545
 20
-81.50709628774183
 10
75.21088183865308
 20
-81.46268115090204
 10
75.19581493427002
 20
-81.37946447602536
 10
75.33026483882117
 20
-81.41850877397177
 10
75.45500229985156
 20
-81.39173800052649
 10
75.65590226900486
 20
-81.4084958033701
 10
75.78518084021215
 20
-81.38709303468062
 10
75.92586873810635
 20
-81.42044750527643
 10
75.89111949053836
 20
-81.28261653595997
 10
75.91524531194814
 20
-81.15950272031583
 10
75.88973536351612
 20
-81.03889473710731
 10
75.92635185994536
 20
-80.9037366423957
 10
75.8141684480538
 20
-80.92818983599174
 10
75.72106239099048
 20
-80.91605779539039
 10
75.61218150325887
 20
-80.91955899311075
 10
75.5499965093733
 20
-80.91931773429461
 10
75.53056370100148
 20
-80.9192423425692
 97
        3
330
AE
330
AC
330
AD
 75
     1
 76
     2
 52
45.0
 41
0.1
 77
     0
 78
     1
 53
45.0
 43
0.0
 44
0.0
 45
-0.282842712474619
 46
0.0
 79
     0
 98
        1
 10
0.0
 20
0.0
  0
HATCH
  5
CC
330
48
100
AcDbEntity
  8
1
  6
Continuous
 62
     2
100
AcDbHatch
 10
0.0
 20
0.0
 30
0.0
210
0.0
220
0.0
230
1.0
  2
CUSTOM2
 70
     0
 71
     1
 91
        1
 92
        1
 93
        1
 72
     4
 94
        3
 73
     0
 74
     0
 95
      124
 96
      120
 40
0.0
 40
0.0
 40
0.0
 40
0.0
 40
0.0278187229624653
 40
0.1011590162384128
 40
0.2048470170590097
 40
0.3237088716559245
 40
0.4425707262521857
 40
0.5462587270699689
 40
0.6195990203312366
 40
0.6474177522579087
 40
0.6750060736115562
 40
0.7357003855243114
 40
0.79639469980549
 40
0.8239830245572228
 40
0.8540933811103322
 40
0.937339662940986
 40
1.063094687343295
 40
1.220731268638148
 40
1.399622220914808
 40
1.589140358637793
 40
1.778658496423916
 40
1.957549448940612
 40
2.115186030873205
 40
2.240941056914523
 40
2.324187341760592
 40
2.354297700109456
 40
2.381886024671958
 40
2.442580338710557
 40
2.503274652750577
 40
2.530862977314684
 40
2.560983949278623
 40
2.640393784453011
 40
2.752662861759178
 40
2.881361560118195
 40
3.010060258455256
 40
3.122329335705403
 40
3.201739170818002
 40
3.231860142753392
 40
3.264298024030453
 40
3.352343701778325
 40
3.482095226868823
 40
3.639650650173111
 40
3.811108022565564
 40
3.98256539492806
 40
4.140120818152654
 40
4.269872343141359
 40
4.357918020802402
 40
4.390355902044036
 40
4.423256253992634
 40
4.508104530073155
 40
4.624121560636909
 40
4.750528176031652
 40
4.866545206602127
 40
4.95139348269207
 40
4.984293834645485
 40
5.011450833242407
 40
5.071196230152197
 40
5.130941627057269
 40
5.158098625648919
 40
5.190998977601553
 40
5.275847253689393
 40
5.39186428425687
 40
5.5182708996484
 40
5.634287930209426
 40
5.719136206288099
 40
5.752036558236001
 40
5.782130946283048
 40
5.862783906229212
 40
5.979550131775071
 40
6.117984316640489
 40
6.263641154588044
 40
6.402075339414226
 40
6.518841564908031
 40
6.599494524815612
 40
6.629588912848846
 40
6.654403028226423
 40
6.713575149488177
 40
6.784199939329521
 40
6.843372060493624
 40
6.868186175802855
 40
6.896246243201944
 40
6.939586233758365
 40
6.967846564564996
 40
7.043584251089942
 40
7.153234334451784
 40
7.283231855734544
 40
7.42001185603556
 40
7.550009376579925
 40
7.659659458835324
 40
7.735397144417308
 40
7.763657474851487
 40
7.796409728011144
 40
7.880876065096433
 40
7.99637085246579
 40
8.122208446418671
 40
8.237703224799294
 40
8.32216956201103
 40
8.354921815205987
 40
8.382078813307746
 40
8.44182420920706
 40
8.501569605240224
 40
8.528726603485797
 40
8.561478856695832
 40
8.645945193877896
 40
8.761439980865436
 40
8.887277580764593
 40
9.002772362001071
 40
9.087238696661277
 40
9.11999094923576
 40
9.152428830613449
 40
9.240474508638673
 40
9.370226034149628
 40
9.527781457984506
 40
9.699238830981503
 40
9.870696203978685
 40
10.02825162781413
 40
10.15800315332574
 40
10.24604883135128
 40
10.27848670378531
 40
10.27848670378531
 40
10.27848670378531
 40
10.27848670378531
 10
84.9752095017152
 20
-82.49503011995307
 10
84.98448221902923
 20
-82.49503030869792
 10
85.01820119896293
 20
-82.49503098504348
 10
85.08649742652348
 20
-82.49501722137762
 10
85.18504091643479
 20
-82.49510305161517
 10
85.2992333917581
 20
-82.49471773768816
 10
85.41161618698399
 20
-82.49612693483516
 10
85.51446440528872
 20
-82.49194411958824
 10
85.57371073276174
 20
-82.50090440129078
 10
85.63015333898024
 20
-82.48749094855008
 10
85.61765230397235
 20
-82.538263307677
 10
85.62598170884722
 20
-82.58324208442
 10
85.6178438293889
 20
-82.62856776390575
 10
85.6300796667226
 20
-82.679815969726
 10
85.56780409431028
 20
-82.66465574015788
 10
85.4990780479637
 20
-82.67553778670319
 10
85.37130242023603
 20
-82.67002224633094
 10
85.2193251964412
 20
-82.67212678127368
 10
85.04329634252915
 20
-82.67142526792591
 10
84.8574699387056
 20
-82.67168291849774
 10
84.67164348899442
 20
-82.67142524236456
 10
84.49561475949375
 20
-82.67212687533338
 10
84.34363716069632
 20
-82.67002197151072
 10
84.21586251173235
 20
-82.67553848613431
 10
84.14713452893491
 20
-82.66465452255115
 10
84.0848616495652
 20
-82.6798174269686
 10
84.09708837427857
 20
-82.62856018575891
 10
84.08902719153656
 20
-82.5833105610864
 10
84.09709432626613
 20
-82.5380717142574
 10
84.0848505939852
 20
-82.48679352471108
 10
84.14552845734669
 20
-82.5016395201793
 10
84.20930781985047
 20
-82.49157081210329
 10
84.32075818062715
 20
-82.49618885169063
 10
84.44278008965917
 20
-82.49500200475597
 10
84.56498055905925
 20
-82.49397665480433
 10
84.67600617401605
 20
-82.4982105375766
 10
84.74067848667265
 20
-82.48894944859325
 10
84.80214302632702
 20
-82.50309106331383
 10
84.78603330541058
 20
-82.43678001496546
 10
84.79732477801268
 20
-82.36465739259087
 10
84.79176682753297
 20
-82.23399768492776
 10
84.79383025144584
 20
-82.08306205672824
 10
84.79304345800634
 20
-81.91577656273176
 10
84.79381126683957
 20
-81.74852419048761
 10
84.79183062383973
 20
-81.5975024011115
 10
84.79715736093894
 20
-81.46707459828067
 10
84.7863368841193
 20
-81.39448086775165
 10
84.80205938826444
 20
-81.32763059944267
 10
84.73629755852588
 20
-81.34333016890236
 10
84.66866352835325
 20
-81.33304286297071
 10
84.55461527465786
 20
-81.33799742533944
 10
84.43815101276712
 20
-81.33499401350588
 10
84.32368215742457
 20
-81.34033226237676
 10
84.2570592110581
 20
-81.32912261306241
 10
84.19210371679539
 20
-81.34564396716053
 10
84.2038257211477
 20
-81.29439808904006
 10
84.19630976418891
 20
-81.24963195596972
 10
84.20382573316044
 20
-81.20486584483103
 10
84.19210369581154
 20
-81.15361993251327
 10
84.25705937919685
 20
-81.17014147614242
 10
84.323680079259
 20
-81.15892958007124
 10
84.43816203108318
 20
-81.16428092670398
 10
84.55457218897314
 20
-81.16122340609947
 10
84.66879276274096
 20
-81.16635030370355
 10
84.73604178919948
 20
-81.15567796025462
 10
84.80135933942076
 20
-81.1717144671199
 10
84.787165890132
 20
-81.1096384363101
 10
84.79663269157643
 20
-81.043267677523
 10
84.79205364568541
 20
-80.92673556639099
 10
84.79379640087164
 20
-80.79486844358688
 10
84.79278189481609
 20
-80.6529756923079
 10
84.7947458797141
 20
-80.52144478678484
 10
84.78949360066193
 20
-80.40388952098061
 10
84.80036762162432
 20
-80.33965740379479
 10
84.78498040946224
 20
-80.27804726836018
 10
84.8337858990569
 20
-80.29211121998952
 10
84.87842630174946
 20
-80.28958787305754
 10
84.94689113995113
 20
-80.29400731979351
 10
84.98893736218716
 20
-80.30300503837033
 10
85.04178122115441
 20
-80.29501814514552
 10
85.01373024547829
 20
-80.33799611769395
 10
84.9679409701363
 20
-80.32653977337225
 10
84.97998065260332
 20
-80.38740009375931
 10
84.97263535234107
 20
-80.45144229912292
 10
84.97614632789299
 20
-80.56004160517152
 10
84.97500742129425
 20
-80.68419210236313
 10
84.9749442233032
 20
-80.81723809551187
 10
84.97631404196359
 20
-80.94116148131508
 10
84.9721906254082
 20
-81.05045191531725
 10
84.98080305563329
 20
-81.11304949286895
 10
84.96770249071704
 20
-81.17173396084699
 10
85.03241517809668
 20
-81.15551415570158
 10
85.09906734059243
 20
-81.16643268997753
 10
85.21290469938717
 20
-81.1611978920731
 10
85.32875265748649
 20
-81.16427981864149
 10
85.44271917160495
 20
-81.15895269568551
 10
85.50906084708679
 20
-81.17009321214522
 10
85.57374559782484
 20
-81.15366549787888
 10
85.56200882254909
 20
-81.20487604171012
 10
85.56954355158095
 20
-81.24963195260062
 10
85.56200884450266
 20
-81.29438790371034
 10
85.57374555935057
 20
-81.34559838510026
 10
85.50906115280209
 20
-81.32917101586841
 10
85.44271538835936
 20
-81.34030744933797
 10
85.32877269397805
 20
-81.33500413487943
 10
85.21282630758238
 20
-81.33798764787521
 10
85.0993024334891
 20
-81.3330663711267
 10
85.03194987715727
 20
-81.34328441867541
 10
84.9664552575264
 20
-81.32767533242249
 10
84.98219810719863
 20
-81.39449677553648
 10
84.97135434509823
 20
-81.46706471565186
 10
84.97668490825605
 20
-81.59751281766648
 10
84.97474036046243
 20
-81.74848971195836
 10
84.97534011359828
 20
-81.91591285446906
 10
84.97517740123737
 20
-82.08257353262694
 10
84.97521629409044
 20
-82.23553386459432
 10
84.97520838658673
 20
-82.36064350395353
 10
84.97520958355148
 20
-82.4440563838965
 10
84.97520951689768
 20
-82.48421751099087
 10
84.9752095017152
 20
-82.49503011995307
 97
        1
330
AF
 75
     1
 76
     2
 52
45.0
 41
0.1
 77
     0
 78
     1
 53
45.0
 43
0.0
 44
0.0
 45
-0.282842712474619
 46
0.0
 79
     0
 98
        1
 10
0.0
 20
0.0
  0
HATCH
  5
CD
330
48
100
AcDbEntity
  8
1
  6
Continuous
 62
     2
100
AcDbHatch
 10
0.0
 20
0.0
 30
0.0
210
0.0
220
0.0
230
1.0
  2
CUSTOM3
 70
     0
 71
     1
 91
        1
 92
        1
 93
        1
 72
     4
 94
        3
 73
     0
 74
     0
 95
      131
 96
      127
 40
0.0
 40
0.0
 40
0.0
 40
0.0
 40
0.0195577029825942
 40
0.0426490537461033
 40
0.2863607575856125
 40
0.5344948436188939
 40
0.7842238845572781
 40
0.8737315789466551
 40
0.9803832810312327
 40
1.092842274516978
 40
1.199761146656745
 40
1.289788768186459
 40
1.351573580786138
 40
1.370727117561372
 40
1.416400936017774
 40
1.47091484835588
 40
1.516588666791689
 40
1.535742203552767
 40
1.634216592293133
 40
1.760283341174965
 40
1.897966686682063
 40
2.03121638736886
 40
2.04968975113785
 40
2.101115601646785
 40
2.179502577739913
 40
2.278859318314036
 40
2.393194462258694
 40
2.516516648383802
 40
2.642834515405911
 40
2.766156701983436
 40
2.88049184675454
 40
2.979848588358595
 40
3.058235565443741
 40
3.109661416668902
 40
3.12813478070409
 40
3.146783742386435
 40
3.191254343315296
 40
3.244332157315941
 40
3.288802758225787
 40
3.307451719895044
 40
3.327717853844649
 40
3.383747753580013
 40
3.468388665924397
 40
3.574487837698714
 40
3.694892515728827
 40
3.822449946851964
 40
3.950007377920332
 40
4.070412055800435
 40
4.176511227367985
 40
4.261152139501436
 40
4.31718203907663
 40
4.337448172964559
 40
4.620011002696172
 40
4.885096638397457
 40
4.945373043518259
 40
5.014107710488606
 40
5.070481727652004
 40
5.319246955636528
 40
5.58481216450603
 40
5.859000912056882
 40
6.133746937542041
 40
6.401732212968838
 40
6.420736683995415
 40
6.472845717451051
 40
6.550702743894007
 40
6.646951193874202
 40
6.754234497930497
 40
6.865196086587304
 40
6.972479390357762
 40
7.068727839771896
 40
7.146584865450905
 40
7.198693898189134
 40
7.217698368905289
 40
7.234950401630755
 40
7.276089864269807
 40
7.325191803515906
 40
7.366331266090299
 40
7.383583298769651
 40
7.402779163492042
 40
7.453386443254459
 40
7.524934666445461
 40
7.606953361405814
 40
7.688972056428966
 40
7.760520279784203
 40
7.811127559734459
 40
7.830323424546108
 40
7.847844055299717
 40
7.894799345666783
 40
7.962779392744451
 40
8.043374293560518
 40
8.128174145149444
 40
8.208769044817217
 40
8.276749090376939
 40
8.323704379669493
 40
8.34122501005622
 40
8.358497614800397
 40
8.401679126686588
 40
8.457815092185617
 40
8.513951057728036
 40
8.55713256970795
 40
8.574405174505035
 40
8.602340668616396
 40
8.643455660539935
 40
8.663225271966603
 40
8.715345156564261
 40
8.789031889628582
 40
8.873502045520304
 40
8.957972194323936
 40
9.031658925567832
 40
9.083778811234517
 40
9.103548423002984
 40
9.119550083123563
 40
9.160817522379837
 40
9.217244429110188
 40
9.278724491644688
 40
9.335151398295473
 40
9.376418837357754
 40
9.392420497300542
 40
9.401196302734776
 40
9.417494229384225
 40
9.426270027749485
 40
9.440875075477509
 40
9.475702496998705
 40
9.517270709865864
 40
9.552098131994041
 40
9.56670316988424
 40
9.56670316988424
 40
9.56670316988424
 40
9.56670316988424
 10
84.21005216012475
 20
-80.83897657870037
 10
84.20646125461393
 20
-80.84459838678902
 10
84.19863065763934
 20
-80.85685774961954
 10
84.10602364273167
 20
-80.89311613340098
 10
84.0817889686016
 20
-81.1076508516835
 10
83.97889772987071
 20
-81.28716244871356
 10
83.71507598170741
 20
-81.47297955582921
 10
83.87757390219485
 20
-81.54954192814982
 10
83.95374932136069
 20
-81.61056836185622
 10
84.04224385255272
 20
-81.67397724836306
 10
84.1320197685879
 20
-81.73387895161503
 10
84.18140850888155
 20
-81.78811374531861
 10
84.267597561015
 20
-81.81627288839229
 10
84.23415281269983
 20
-81.85200219728254
 10
84.21449386190798
 20
-81.88363141389162
 10
84.18501556706511
 20
-81.92437656584994
 10
84.16192568988004
 20
-81.95408865891423
 10
84.13104734211257
 20
-82.00702106712566
 10
84.06594608185087
 20
-81.88173194442163
 10
83.97262675751843
 20
-81.82699629147127
 10
83.8880903737907
 20
-81.76997105441731
 10
83.76527655785107
 20
-81.6123824195354
 10
83.76947183000703
 20
-81.68877722614229
 10
83.76817461054466
 20
-81.7355224921977
 10
83.76883939008452
 20
-81.81328743568463
 10
83.76858174397256
 20
-81.91011461056644
 10
83.768669869269
 20
-82.02263250302256
 10
83.76863447550492
 20
-82.14389443435364
 10
83.76867792110477
 20
-82.26826631522104
 10
83.76854673951743
 20
-82.38945845749727
 10
83.76897450148154
 20
-82.50222380461321
 10
83.7676945655079
 20
-82.59830615612319
 10
83.77100273038127
 20
-82.67799702912367
 10
83.76454651928549
 20
-82.72098353592276
 10
83.77364761583249
 20
-82.75958097009024
 10
83.73781777927034
 20
-82.75102641656994
 10
83.70454912680208
 20
-82.7557100939562
 10
83.65348300288099
 20
-82.75562230621284
 10
83.61999914255816
 20
-82.75119099097247
 10
83.5837852861523
 20
-82.75952735538553
 10
83.59400500214343
 20
-82.71768252201781
 10
83.58667553405422
 20
-82.6713496856089
 10
83.59039005888718
 20
-82.5853869827505
 10
83.58897480076647
 20
-82.48308386676217
 10
83.58943730074076
 20
-82.36460305449549
 10
83.58930411389991
 20
-82.2395584622771
 10
83.58932833628145
 20
-82.11437701274015
 10
83.58936223783198
 20
-81.99626884002006
 10
83.58923277459013
 20
-81.89284780671551
 10
83.58957750018499
 20
-81.80981493227401
 10
83.58889657314593
 20
-81.75770160859821
 10
83.59248540533912
 20
-81.63000621559706
 10
83.37564388392062
 20
-81.92864812561444
 10
83.19516223747195
 20
-82.15649547869555
 10
83.14205897483805
 20
-82.01540086091246
 10
83.1130696585918
 20
-81.96587761820123
 10
83.01269155155882
 20
-81.86271749590958
 10
83.333539517603
 20
-81.78218494357284
 10
83.46201644581984
 20
-81.59847246344631
 10
83.68367217781281
 20
-81.38981533609305
 10
83.77004923468368
 20
-81.21574318152722
 10
84.04796616818436
 20
-80.93946478038546
 10
83.92765152920526
 20
-80.94378969829953
 10
83.8793464804118
 20
-80.94298673178511
 10
83.80326449076728
 20
-80.94338947234479
 10
83.7097277462519
 20
-80.94323253769456
 10
83.60478622413251
 20
-80.94331026804839
 10
83.49641551914863
 20
-80.94318065002511
 10
83.3911721688666
 20
-80.94359135890369
 10
83.29865052721814
 20
-80.94231455709476
 10
83.21983982534765
 20
-80.94572762846215
 10
83.1769942018148
 20
-80.93890179344741
 10
83.13797670392844
 20
-80.94848465179942
 10
83.14566327246324
 20
-80.91492749815521
 10
83.14157318570808
 20
-80.88389979058834
 10
83.14157988215824
 20
-80.83677000110163
 10
83.14565071776806
 20
-80.8057258773429
 10
83.13797630273514
 20
-80.77211667745162
 10
83.17650868582635
 20
-80.78165118960194
 10
83.21714954672483
 20
-80.77516093882997
 10
83.28817393032321
 20
-80.77813378730811
 10
83.36595856024023
 20
-80.77738767981903
 10
83.44375596992434
 20
-80.77665715336539
 10
83.51474995426763
 20
-80.77959293866908
 10
83.55545472445891
 20
-80.77318060608113
 10
83.59401209426784
 20
-80.78263005205059
 10
83.58576102076967
 20
-80.74648837222286
 10
83.59126141221277
 20
-80.70783691767836
 10
83.58860216589318
 20
-80.64000000819227
 10
83.58960829243023
 20
-80.56321887842326
 10
83.58904454710881
 20
-80.48064135798305
 10
83.5900981979361
 20
-80.40396200151186
 10
83.5872943315899
 20
-80.33581538604363
 10
83.59309701740726
 20
-80.2978112957172
 10
83.58459220039273
 20
-80.26155081303416
 10
83.6185877685894
 20
-80.27157805609215
 10
83.65248431358683
 20
-80.26840262567356
 10
83.70569365131153
 20
-80.27404563740458
 10
83.75910360272519
 20
-80.27478754944639
 10
83.7926182102259
 20
-80.28094305898085
 10
83.83183536358081
 20
-80.27567499607471
 10
83.8050531151261
 20
-80.31660148587576
 10
83.76383784544926
 20
-80.30542324842952
 10
83.77129089936426
 20
-80.3504647318894
 10
83.7672495404953
 20
-80.39501251352921
 10
83.7691981502409
 20
-80.46689956759361
 10
83.76826323025277
 20
-80.54744898792292
 10
83.76953746427984
 20
-80.62739533976071
 10
83.7662311246633
 20
-80.70071692297883
 10
83.7732373632729
 20
-80.74224886378495
 10
83.76317078328944
 20
-80.78161110812955
 10
83.796008225669
 20
-80.77445465950079
 10
83.82948447492494
 20
-80.77886286243118
 10
83.88453209287876
 20
-80.77695586033168
 10
83.94197700480841
 20
-80.7772816297378
 10
83.99532937010781
 20
-80.77807220647982
 10
84.03288083494074
 20
-80.77599570262988
 10
84.05534399760059
 20
-80.77891191213956
 10
84.06819455264997
 20
-80.7734097673701
 10
84.07885231386572
 20
-80.77112411183273
 10
84.0916903102912
 20
-80.7641855679301
 10
84.1076258485839
 20
-80.78060483067395
 10
84.13408913736605
 20
-80.79204407061613
 10
84.16570727065262
 20
-80.81268841545872
 10
84.19175233449192
 20
-80.82796659752772
 10
84.2058785176742
 20
-80.83646553057882
 10
84.21005216012475
 20
-80.83897657870037
 97
        1
330
B0
 75
     1
 76
     2
 52
45.0
 41
0.1
 77
     0
 78
     1
 53
45.0
 43
0.0
 44
0.0
 45
-0.282842712474619
 46
0.0
 79
     0
 98
        1
 10
0.0
 20
0.0
  0
HATCH
  5
CE
330
48
100
AcDbEntity
  8
1
  6
Continuous
 62
     2
100
AcDbHatch
 10
0.0
 20
0.0
 30
0.0
210
0.0
220
0.0
230
1.0
  2
CUSTOM4
 70
     0
 71
     1
 91
        1
 92
        1
 93
        1
 72
     4
 94
        3
 73
     0
 74
     0
 95
       91
 96
       87
 40
0.0
 40
0.0
 40
0.0
 40
0.0
 40
0.0267532254356701
 40
0.0856103386464049
 40
0.1444674521996496
 40
0.1712206856618514
 40
0.2039416005642536
 40
0.2955601971652484
 40
0.4362601844616776
 40
0.6162252844507534
 40
0.8256392189704982
 40
1.054685709844468
 40
1.293548478893545
 40
1.532411247938303
 40
1.761457738799582
 40
1.970871673298565
 40
2.150836773256718
 40
2.291536760495608
 40
2.383155356836743
 40
2.415876284101334
 40
2.442629517487977
 40
2.501486630949107
 40
2.560343744424249
 40
2.587096977826524
 40
2.617068194440951
 40
2.69924733675612
 40
2.82203264346639
 40
2.973822353257948
 40
3.143014704823405
 40
3.31800793687997
 40
3.487200288186803
 40
3.638989997548284
 40
3.761775303794782
 40
3.843954445753146
 40
3.873925662229841
 40
3.890812773500552
 40
3.907699884771744
 40
3.937960767857333
 40
3.980983618142328
 40
4.199085915228519
 40
4.439444339237279
 40
4.67758824126093
 40
5.050698317837817
 40
5.448212454763245
 40
5.85529121804477
 40
6.138575438885473
 40
6.41743450758431
 40
6.44455110439399
 40
6.504207617363317
 40
6.563864130314698
 40
6.590980727104247
 40
6.848609460381633
 40
7.109611990668592
 40
7.352910904446252
 40
7.557830220705627
 40
7.587518925913556
 40
7.652834077375964
 40
7.718149228845895
 40
7.747837934062203
 40
7.854880190301173
 40
7.976511257403686
 40
8.369487896592531
 40
8.757514959223824
 40
9.126072419331315
 40
9.460639380392363
 40
9.746695593036076
 40
9.777569943118861
 40
9.807050320931996
 40
9.830377336129118
 40
9.886003295436202
 40
9.952395569430124
 40
10.00802152870647
 40
10.03134854388238
 40
10.2135695100961
 40
10.42203479292888
 40
10.66154556731082
 40
10.91693789564324
 40
11.15832906556584
 40
11.18982674596638
 40
11.27286608520425
 40
11.3902665303337
 40
11.52484752840907
 40
11.65942852648467
 40
11.77682897161504
 40
11.85986831085704
 40
11.89136598230449
 40
11.89136598230449
 40
11.89136598230449
 40
11.89136598230449
 10
80.29581524609648
 20
-81.80213928679292
 10
80.2958505218057
 20
-81.79325682069077
 10
80.29596341635653
 20
-81.76483292333722
 10
80.29432520212573
 20
-81.71503890211261
 10
80.30000177456799
 20
-81.67255964902911
 10
80.2887196184475
 20
-81.62183374524218
 10
80.35625644318006
 20
-81.63900628640957
 10
80.43182966634689
 20
-81.62623302215067
 10
80.57586245087697
 20
-81.63283799923683
 10
80.74996866381953
 20
-81.63025067174597
 10
80.95698670637724
 20
-81.63112937425514
 10
81.18249556251462
 20
-81.63085321461037
 10
81.41814297461747
 20
-81.63095189722401
 10
81.65379079841168
 20
-81.63085344968296
 10
81.87929850333951
 20
-81.63112851190277
 10
82.08632020855738
 20
-81.63025343110328
 10
82.26041563680569
 20
-81.63283006702618
 10
82.40447595247541
 20
-81.62625238931854
 10
82.4799959368062
 20
-81.63897285975456
 10
82.54760434897987
 20
-81.6218712918938
 10
82.5361107593445
 20
-81.67238743578123
 10
82.54353720345021
 20
-81.71660277154565
 10
82.53591063807553
 20
-81.76045562877455
 10
82.5476756912194
 20
-81.81035154901737
 10
82.4861055944752
 20
-81.7952030166855
 10
82.41870591914403
 20
-81.80602864030391
 10
82.29432715089906
 20
-81.80061497754826
 10
82.14846956893396
 20
-81.80264323990282
 10
81.9823843892854
 20
-81.8019775180268
 10
81.81186800744933
 20
-81.80223885859817
 10
81.64500583081573
 20
-81.80191975989976
 10
81.50176142798743
 20
-81.80278226790296
 10
81.37035813226026
 20
-81.8005022889808
 10
81.31701265874256
 20
-81.80505825006861
 10
81.24154559096809
 20
-81.79913614388187
 10
81.26993432320009
 20
-81.80819360037714
 10
81.2963919862311
 20
-81.81187617112137
 10
81.25637903604701
 20
-81.84259257412788
 10
81.16439311446378
 20
-81.83245938206439
 10
81.13696636598375
 20
-82.07881027133274
 10
81.04090614200031
 20
-82.23413970616696
 10
80.78475454172417
 20
-82.56388111449493
 10
81.35578051855312
 20
-82.42483507170611
 10
81.61039237732847
 20
-82.426217494077
 10
82.2209914501386
 20
-82.5112296013898
 10
81.92709660308523
 20
-82.21228111822862
 10
81.60635717392859
 20
-82.06582672479283
 10
81.72438108132023
 20
-82.00887988562779
 10
81.76549839190302
 20
-81.98493429507718
 10
81.80870798471801
 20
-81.96313770569836
 10
81.91048415472191
 20
-81.8998480812716
 10
82.02591350780169
 20
-82.15766377972281
 10
82.22598590950462
 20
-82.29297488267385
 10
82.31993448399967
 20
-82.47120734242179
 10
82.54890971991622
 20
-82.62915708354019
 10
82.45262992994768
 20
-82.67997556804762
 10
82.40982272165482
 20
-82.71032236858014
 10
82.36485109815479
 20
-82.73447399099602
 10
82.30519883779827
 20
-82.78361382633499
 10
82.27199985140935
 20
-82.64916053707456
 10
82.15122808035656
 20
-82.49319264094484
 10
81.79012434587473
 20
-82.6234360132151
 10
81.43153294083098
 20
-82.60688834971583
 10
81.0501187902848
 20
-82.61582300029198
 10
80.76337227356603
 20
-82.6803085770866
 10
80.45223230524829
 20
-82.56682861188236
 10
80.41990052715568
 20
-82.67791269453299
 10
80.38264457060862
 20
-82.69717215531053
 10
80.37960050855223
 20
-82.6503874529377
 10
80.36101603133753
 20
-82.61106675461932
 10
80.34427040695468
 20
-82.5514754590283
 10
80.33139983685211
 20
-82.50711559509782
 10
80.29725952591996
 20
-82.41807198260865
 10
80.54129819105215
 20
-82.48732486437292
 10
80.73716619394403
 20
-82.50883160323319
 10
80.83256938340456
 20
-82.226870449026
 10
80.88754032223659
 20
-82.06550483959948
 10
81.10898868099247
 20
-81.79522351791313
 10
80.97795068339856
 20
-81.80365082527338
 10
80.9040294008623
 20
-81.80134520884087
 10
80.79077273290125
 20
-81.8024215105941
 10
80.66245192602531
 20
-81.80205890304552
 10
80.53345194831837
 20
-81.80215804914978
 10
80.42181083990602
 20
-81.80213596668492
 10
80.34449314227949
 20
-81.80213950191396
 10
80.30631439847787
 20
-81.80213933535983
 10
80.29581524609648
 20
-81.80213928679292
 97
        1
330
B1
 75
     1
 76
     2
 52
45.0
 41
0.1
 77
     0
 78
     1
 53
45.0
 43
0.0
 44
0.0
 45
-0.282842712474619
 46
0.0
 79
     0
 98
        1
 10
0.0
 20
0.0
  0
HATCH
  5
CF
330
48
100
AcDbEntity
  8
1
  6
Continuous
 62
     2
100
AcDbHatch
 10
0.0
 20
0.0
 30
0.0
210
0.0
220
0.0
230
1.0
  2
CUSTOM5
 70
     0
 71
     1
 91
        1
 92
        1
 93
        1
 72
     4
 94
        3
 73
     0
 74
     0
 95
       35
 96
       31
 40
0.0
 40
0.0
 40
0.0
 40
0.0
 40
0.0335231036620624
 40
0.0713218571711924
 40
0.427886668148673
 40
0.8116865841963943
 40
1.198190238000035
 40
1.561379546812661
 40
1.659983174621998
 40
1.759315573807148
 40
2.132719617231037
 40
2.525233363588773
 40
2.910815397779668
 40
3.26524436430327
 40
3.592606723581976
 40
3.96438615460392
 40
4.359942131737769
 40
4.758154118639274
 40
4.843846538699872
 40
4.936650065543183
 40
5.256616602537263
 40
5.581707404415952
 40
5.899719158308081
 40
6.198363494280679
 40
6.46630104661572
 40
6.493895311537026
 40
6.55969702019682
 40
6.638234543442366
 40
6.704036252154162
 40
6.731630508422939
 40
6.731630508422939
 40
6.731630508422939
 40
6.731630508422939
 10
81.56662780214378
 20
-80.27449685661931
 10
81.56062735505577
 20
-80.28432838838741
 10
81.54786115519252
 20
-80.30524540801264
 10
81.38796294593239
 20
-80.33786402848382
 10
81.82522932951052
 20
-80.62706849044363
 10
82.02756622810301
 20
-80.82872391022624
 10
82.2749831720742
 20
-81.0716414177779
 10
82.7761781077374
 20
-81.14865866623283
 10
82.60558296517391
 20
-81.29036590206408
 10
82.53135669159698
 20
-81.49203163171956
 10
82.20616997009567
 20
-81.13957242206344
 10
81.92080091234327
 20
-80.97738316821498
 10
81.62678715304266
 20
-80.77226399328019
 10
81.40147201439027
 20
-80.29086040785609
 10
81.19233525082907
 20
-80.75570482771843
 10
80.91381411276032
 20
-80.96562577128155
 10
80.63016506299775
 20
-81.13489073021077
 10
80.30089069806004
 20
-81.50771168473128
 10
80.22072797709929
 20
-81.31205514922064
 10
80.06899923625137
 20
-81.18422425190468
 10
80.50136632795633
 20
-81.1045949761513
 10
80.68928327825343
 20
-80.90886894465586
 10
80.93987448732716
 20
-80.69280532464313
 10
81.16446179229298
 20
-80.52722537081
 10
81.21900428624812
 20
-80.24779564744247
 10
81.34249284817803
 20
-80.26175578972982
 10
81.3990540797289
 20
-80.26392260513421
 10
81.46921384377131
 20
-80.26866669499702
 10
81.52636814748737
 20
-80.27204100030526
 10
81.55744577736078
 20
-80.27393674669946
 10
81.56662780214378
 20
-80.27449685661931
 97
        1
330
B2
 75
     1
 76
     2
 52
45.0
 41
0.1
 77
     0
 78
     1
 53
45.0
 43
0.0
 44
0.0
 45
-0.282842712474619
 46
0.0
 79
     0
 98
        1
 10
0.0
 20
0.0
  0
HATCH
  5
D0
330
48
100
AcDbEntity
  8
1
  6
Continuous
 62
     2
100
AcDbHatch
 10
0.0
 20
0.0
 30
0.0
210
0.0
220
0.0
230
1.0
  2
CUSTOM6
 70
     0
 71
     1
 91
        1
 92
        1
 93
        1
 72
     4
 94
        3
 73
     0
 74
     0
 95
       15
 96
       11
 40
0.0
 40
0.0
 40
0.0
 40
0.0
 40
0.2785535985096553
 40
0.5215624748198865
 40
0.6076917376040427
 40
0.6938210001741497
 40
0.9405019146455197
 40
1.221691403489148
 40
1.300471877081087
 40
1.379252341684854
 40
1.379252341684854
 40
1.379252341684854
 40
1.379252341684854
 10
79.16117610837682
 20
-80.27983262050684
 10
79.22262852469466
 20
-80.33221882788348
 10
79.33769174268826
 20
-80.4303065258284
 10
79.63276159500131
 20
-80.58023743483848
 10
79.49554150846257
 20
-80.6657030186605
 10
79.39714952965468
 20
-80.7982774417951
 10
79.30603010434186
 20
-80.49296543599645
 10
78.95671069334243
 20
-80.42945659915694
 10
79.10495258293389
 20
-80.33017019500183
 10
79.14243493270052
 20
-80.29661180978681
 10
79.16117610837682
 20
-80.27983262050684
 97
        1
330
B3
 75
     1
 76
     2
 52
45.0
 41
0.1
 77
     0
 78
     1
 53
45.0
 43
0.0
 44
0.0
 45
-0.282842712474619
 46
0.0
 79
     0
 98
        1
 10
0.0
 20
0.0
  0
HATCH
  5
D1
330
48
100
AcDbEntity
  8
1
  6
Continuous
 62
     2
100
AcDbHatch
 10
0.0
 20
0.0
 30
0.0
210
0.0
220
0.0
230
1.0
  2
CUSTOM7
 70
     0
 71
     1
 91
        1
 92
        1
 93
        1
 72
     4
 94
        3
 73
     0
 74
     0
 95
       75
 96
       71
 40
0.0
 40
0.0
 40
0.0
 40
0.0
 40
0.0342546099129638
 40
0.1245622414432293
 40
0.25223854808975
 40
0.3985991922940857
 40
0.5449598364980945
 40
0.6726361431438763
 40
0.7629437746737155
 40
0.7971983935298115
 40
1.101723623449689
 40
1.408591244036655
 40
1.433332471690369
 40
1.487763172450161
 40
1.542193873081986
 40
1.566935100592537
 40
1.923523931821842
 40
2.271755704953655
 40
2.590579755100912
 40
2.85894330558114
 40
2.889120339309143
 40
2.918305855191088
 40
2.941366645531214
 40
2.99635776097311
 40
3.061992318140648
 40
3.116983433626847
 40
3.140044223997539
 40
3.41127312293643
 40
3.732441619741093
 40
3.761068217532793
 40
3.837787499630363
 40
3.948858699126004
 40
4.08054104910438
 40
4.219093782625774
 40
4.350776132722314
 40
4.461847332405637
 40
4.538566614678371
 40
4.567193212544635
 40
4.594907573998893
 40
4.666381453557418
 40
4.764111044011028
 40
4.87059253812586
 40
4.968322128642296
 40
5.039796008286967
 40
5.067510369784412
 40
5.094263603185621
 40
5.153120716668252
 40
5.211977830150684
 40
5.238731063551708
 40
5.27229053513899
 40
5.363380529444808
 40
5.497618415781486
 40
5.660621563453728
 40
5.838007341749443
 40
6.015393119910752
 40
6.178396267038392
 40
6.312634151842329
 40
6.403724143059361
 40
6.437283612672442
 40
6.46403684626105
 40
6.522893960004677
 40
6.581751071483933
 40
6.608504301590881
 40
6.637253941281014
 40
6.711397748902866
 40
6.812778057283478
 40
6.923237199249255
 40
7.024617507623927
 40
7.098761315207565
 40
7.127510946007544
 40
7.127510946007544
 40
7.127510946007544
 40
7.127510946007544
 10
78.03488898433329
 20
-81.550644009078
 10
78.03488902724757
 20
-81.56206215972345
 10
78.0348891933897
 20
-81.6035827153843
 10
78.0348860534556
 20
-81.68766607377295
 10
78.03490557325686
 20
-81.80909032058734
 10
78.0348179640506
 20
-81.94933035333617
 10
78.0351383687999
 20
-82.0890697258649
 10
78.03418733625091
 20
-82.21168490486136
 10
78.03622460487358
 20
-82.2932645494302
 10
78.02797006315149
 20
-82.44642262303373
 10
78.33610653936707
 20
-82.28353293326342
 10
78.6280912626502
 20
-82.1143059069307
 10
78.6338621901477
 20
-82.24940293599151
 10
78.6385739172659
 20
-82.2929630822062
 10
78.64128028646867
 20
-82.33702280030519
 10
78.66028131257278
 20
-82.48640939017928
 10
78.25142097000712
 20
-82.42232357139807
 10
77.97239778016005
 20
-82.53617187970048
 10
77.69483490399355
 20
-82.63549433569932
 10
77.40301046371684
 20
-82.59282841784696
 10
77.3799412131427
 20
-82.69591849636527
 10
77.34677418361024
 20
-82.72222438136593
 10
77.34109214155072
 20
-82.67458220344761
 10
77.32144820118135
 20
-82.63733193265996
 10
77.30253569383918
 20
-82.57906141533503
 10
77.2873117320476
 20
-82.5352832837326
 10
77.24075138257052
 20
-82.42154108334756
 10
77.58211647652197
 20
-82.45337228261016
 10
77.86099168201525
 20
-82.48752094274585
 10
77.85480204876767
 20
-82.33999552901415
 10
77.85612029055416
 20
-82.26900378472232
 10
77.85550991427172
 20
-82.16193761422403
 10
77.85561390234933
 20
-82.03514999595066
 10
77.85602554168247
 20
-81.90064285885015
 10
77.85441752947374
 20
-81.7751797942988
 10
77.85901700206941
 20
-81.66408282661946
 10
77.8494453954979
 20
-81.60151642580378
 10
77.86342692364599
 20
-81.54318141086061
 10
77.80776518394735
 20
-81.55623818798823
 10
77.75059226505898
 20
-81.54777221631566
 10
77.65463163784165
 20
-81.55183553300425
 10
77.556403497559
 20
-81.54942639528595
 10
77.46028499103289
 20
-81.55361928767675
 10
77.40349159785801
 20
-81.54484182939899
 10
77.34806243261534
 20
-81.55818592530943
 10
77.36009468806857
 20
-81.50876618421808
 10
77.35222706267069
 20
-81.46519541350669
 10
77.35965630165974
 20
-81.4208306026254
 10
77.34821980169127
 20
-81.37011231617072
 10
77.41623698229016
 20
-81.38751068623317
 10
77.48987643325157
 20
-81.37496079143877
 10
77.62553315109798
 20
-81.3811385236997
 10
77.78151764772944
 20
-81.37884326287978
 10
77.95461938109126
 20
-81.37972561118534
 10
78.12772104169504
 20
-81.37884322238654
 10
78.28370572639852
 20
-81.38113866425513
 10
78.41936193425663
 20
-81.37496043118635
 10
78.49300241584216
 20
-81.38751135162728
 10
78.56101816274926
 20
-81.37011156368922
 10
78.54958583386912
 20
-81.42083398966508
 10
78.55698069110662
 20
-81.46516468569958
 10
78.54923073650396
 20
-81.50885221830868
 10
78.56114711946456
 20
-81.55849939282587
 10
78.50384376763863
 20
-81.54452118042636
 10
78.44504132425416
 20
-81.55373773707814
 10
78.34555610859685
 20
-81.54961261216133
 10
78.24245475511185
 20
-81.55090769355179
 10
78.14681138073425
 20
-81.55059452303425
 10
78.07877354243858
 20
-81.55064752683919
 10
78.04447296662117
 20
-81.55064477509406
 10
78.03488898433329
 20
-81.550644009078
 97
        1
330
B4
 75
     1
 76
     2
 52
45.0
 41
0.1
 77
     0
 78
     1
 53
45.0
 43
0.0
 44
0.0
 45
-0.282842712474619
 46
0.0
 79
     0
 98
        1
 10
0.0
 20
0.0
  0
HATCH
  5
D2
330
48
100
AcDbEntity
  8
1
  6
Continuous
 62
     2
100
AcDbHatch
 10
0.0
 20
0.0
 30
0.0
210
0.0
220
0.0
230
1.0
  2
CUSTOM8
 70
     0
 71
     1
 91
        1
 92
        1
 93
        1
 72
     4
 94
        3
 73
     0
 74
     0
 95
       91
 96
       87
 40
0.0
 40
0.0
 40
0.0
 40
0.0
 40
0.0345987051695576
 40
0.1258134969461511
 40
0.2547723404888845
 40
0.4026032099153983
 40
0.5504340793416846
 40
0.6793929228836364
 40
0.7706077146571462
 40
0.8052064287781209
 40
1.124852390615331
 40
1.427402236308909
 40
1.706356627453569
 40
1.95554141787524
 40
2.169485938566399
 40
2.34435078666482
 40
2.480568411562007
 40
2.590440557428999
 40
2.649189927151154
 40
2.749320643306372
 40
2.912632739880053
 40
3.147745656000261
 40
3.244827496385118
 40
3.33849005694675
 40
3.58381541320717
 40
3.761423943238546
 40
3.886956104362697
 40
3.985855451886879
 40
4.091766255337707
 40
4.250186473811898
 40
4.422734315084569
 40
4.628285684838648
 40
4.872093227758495
 40
5.152549652145593
 40
5.464967135837585
 40
5.803201477852489
 40
6.160362988813982
 40
6.193449448276023
 40
6.284170385501663
 40
6.419718138764547
 40
6.587285046385811
 40
6.774063446723726
 40
6.96724567811368
 40
7.154024078817723
 40
7.321590987026052
 40
7.457138740890438
 40
7.547859678556175
 40
7.58094613818272
 40
7.608533084714774
 40
7.669224367077741
 40
7.729915649429965
 40
7.757502595950025
 40
7.790278062553479
 40
7.880146277430977
 40
8.014419963180412
 40
8.180411842397927
 40
8.365434637679368
 40
8.556801071622711
 40
8.741823866830781
 40
8.907815745916349
 40
9.042089431507474
 40
9.131957646249571
 40
9.164733112797176
 40
9.4154250631401
 40
9.667986180958563
 40
9.694169807462673
 40
9.756607686047605
 40
9.831130315322481
 40
9.893568193899918
 40
9.919751820398734
 40
9.950967964690555
 40
9.996421631210692
 40
10.22087981037457
 40
10.44341866197545
 40
10.47847970788861
 40
10.57091337438758
 40
10.70159545461234
 40
10.85140174170365
 40
11.00120802880485
 40
11.1318901090739
 40
11.22432377583017
 40
11.25938480938963
 40
11.28697175596152
 40
11.34766303835926
 40
11.40835432042078
 40
11.4359412589211
 40
11.4359412589211
 40
11.4359412589211
 40
11.4359412589211
 10
79.6748381786058
 20
-80.95670734255987
 10
79.66330532977095
 20
-80.95670739093147
 10
79.62136768977676
 20
-80.956707556769
 10
79.53643971717938
 20
-80.95670403580154
 10
79.41379560058976
 20
-80.95672602945184
 10
79.27214743697618
 20
-80.95662728204013
 10
79.13100211512585
 20
-80.95698843148642
 10
79.00716187706723
 20
-80.95591645771972
 10
78.92474852781501
 20
-80.95821280289798
 10
78.76580586824605
 20
-80.94864960007638
 10
78.9433669806144
 20
-81.31128135069696
 10
78.93100066582214
 20
-81.55670401657946
 10
78.99947869266335
 20
-81.84051028056231
 10
79.06232917737387
 20
-82.0766252944203
 10
79.13825208844975
 20
-82.27586788984934
 10
79.22334570297849
 20
-82.43168181929693
 10
79.31748750457044
 20
-82.5325567159967
 10
79.42129156604963
 20
-82.58447676742101
 10
79.50561394835422
 20
-82.53307045001443
 10
79.52815896322213
 20
-82.4176898534355
 10
79.56759984281396
 20
-82.29028379678681
 10
79.51331871877116
 20
-81.9729120129431
 10
79.63814855252413
 20
-82.11931349240157
 10
79.79495589663722
 20
-82.15118229049894
 10
79.68779874598252
 20
-82.38492171613433
 10
79.6738978662636
 20
-82.54940752797411
 10
79.6164976919994
 20
-82.67782660258581
 10
79.52652875977769
 20
-82.74894727028234
 10
79.40255421106464
 20
-82.76481205238811
 10
79.25645406496292
 20
-82.72919731826892
 10
79.11741617730526
 20
-82.60912958880789
 10
79.00322714149131
 20
-82.43477846830741
 10
78.90764087542544
 20
-82.20966926269824
 10
78.82489200253949
 20
-81.94525283374621
 10
78.77374467091806
 20
-81.6272559628252
 10
78.67004566601061
 20
-81.35369800892153
 10
78.7973108661291
 20
-80.94907710768197
 10
78.62881580757873
 20
-80.95801161531385
 10
78.54422632398466
 20
-80.95597567962702
 10
78.41201438403964
 20
-80.95699591992653
 10
78.2490772546873
 20
-80.95660299062637
 10
78.0664026623302
 20
-80.95677833067695
 10
77.87773248261513
 20
-80.95653424073595
 10
77.69447364729581
 20
-80.95727871474827
 10
77.5335014285487
 20
-80.95497168858638
 10
77.39600757880446
 20
-80.96113724497404
 10
77.32198578250798
 20
-80.94880690922852
 10
77.25434826396256
 20
-80.96584205657507
 10
77.26626411720386
 20
-80.91389090933538
 10
77.25859447384634
 20
-80.86842104414536
 10
77.2662859677884
 20
-80.8229907567736
 10
77.25434092505309
 20
-80.77111133396495
 10
77.32138557586357
 20
-80.78794385890801
 10
77.39476431184454
 20
-80.77578120288398
 10
77.53093957580407
 20
-80.781862983061
 10
77.69040792542813
 20
-80.77958695066013
 10
77.8719440538605
 20
-80.78032295382103
 10
78.05883023149477
 20
-80.78007575184927
 10
78.23982797696044
 20
-80.78027128581816
 10
78.40110700316468
 20
-80.77981294666222
 10
78.53241495776558
 20
-80.78100855629862
 10
78.61553187753648
 20
-80.77862182061321
 10
78.74865040005832
 20
-80.78682923655603
 10
78.6576160955427
 20
-80.5316066042841
 10
78.57199005271883
 20
-80.26749171052816
 10
78.69208564562236
 20
-80.280090864119
 10
78.74445324013124
 20
-80.28219293617994
 10
78.81447650224843
 20
-80.28378129491404
 10
78.86021897905863
 20
-80.29310961842958
 10
78.91510800997017
 20
-80.28367562465638
 10
78.88938422384501
 20
-80.33180500725895
 10
78.77556650242214
 20
-80.32646699636891
 10
78.90896140739048
 20
-80.5546435480429
 10
78.787392618824
 20
-80.78756672785144
 10
78.91534562221813
 20
-80.77826270496624
 10
78.99793158592293
 20
-80.78112527626385
 10
79.12374823035931
 20
-80.77990091968765
 10
79.26717372908264
 20
-80.77981097492099
 10
79.4087688404497
 20
-80.78167366197212
 10
79.53893947027362
 20
-80.77580453443905
 10
79.61237197389596
 20
-80.78843188557863
 10
79.68213803748651
 20
-80.77035966270653
 10
79.67060400581647
 20
-80.82300678834739
 10
79.67634517994512
 20
-80.86692211694519
 10
79.67468832236793
 20
-80.91823546704512
 10
79.67480250144384
 20
-80.9475473735943
 10
79.6748381786058
 20
-80.95670734255987
 97
        1
330
B5
 75
     1
 76
     2
 52
45.0
 41
0.1
 77
     0
 78
     1
 53
45.0
 43
0.0
 44
0.0
 45
-0.282842712474619
 46
0.0
 79
     0
 98
        1
 10
0.0
 20
0.0
  0
HATCH
  5
D3
330
48
100
AcDbEntity
  8
1
  6
Continuous
 62
     2
100
AcDbHatch
 10
0.0
 20
0.0
 30
0.0
210
0.0
220
0.0
230
1.0
  2
CUSTOM9
 70
     0
 71
     1
 91
        1
 92
        1
 93
        1
 72
     4
 94
        3
 73
     0
 74
     0
 95
      118
 96
      114
 40
0.0
 40
0.0
 40
0.0
 40
0.0
 40
0.1054708162973211
 40
0.2466098270052105
 40
0.3965912874591225
 40
0.5285525069753862
 40
0.6156245055642378
 40
0.6431434105797678
 40
0.7036850037986198
 40
0.7642265984504454
 40
0.7917455052354928
 40
0.9287404319990067
 40
1.106572819088057
 40
1.287544879681068
 40
1.317578308030594
 40
1.399928030857229
 40
1.522968204799984
 40
1.675072986590624
 40
1.844616533180701
 40
2.019973001638764
 40
2.189516548880068
 40
2.341621331585404
 40
2.464661506320542
 40
2.547011229647115
 40
2.577044658168081
 40
2.603797890893123
 40
2.662655002908824
 40
2.721512114949622
 40
2.748265347702787
 40
2.77421530734485
 40
2.845959313407196
 40
2.9543385565884
 40
3.09019422758556
 40
3.244367517100546
 40
3.407699615844283
 40
3.571031714539448
 40
3.725205003920113
 40
3.861060674729604
 40
3.969439917716304
 40
4.041183923628981
 40
4.067133883212978
 40
4.311886746012156
 40
4.54789725833555
 40
4.764747083044004
 40
4.952749679951782
 40
5.045772974195883
 40
5.137862019645013
 40
5.330543169793059
 40
5.553448265244064
 40
5.795083855888221
 40
6.043293412177311
 40
6.285761695541264
 40
6.31390290875279
 40
6.384255941793366
 40
6.475714884766954
 40
6.567173827759031
 40
6.637526860839794
 40
6.665668074074143
 40
6.692018920328105
 40
6.749990782071175
 40
6.807962643790542
 40
6.834313490018014
 40
6.856393084245293
 40
6.913335195649945
 40
6.991194817302609
 40
7.07602694228387
 40
7.153886563725403
 40
7.210828674844943
 40
7.232908268931292
 40
7.258199334923826
 40
7.324875781592463
 40
7.419142481925131
 40
7.527204308842054
 40
7.635266135230647
 40
7.729532834168633
 40
7.796209279292948
 40
7.821500344594891
 40
7.844652988851018
 40
7.899863140541754
 40
7.965759128053906
 40
8.020969279771176
 40
8.044121924046642
 40
8.069356610160723
 40
8.109134395441497
 40
8.132238100191213
 40
8.193147867786575
 40
8.279261678876747
 40
8.377977512673962
 40
8.476693347146746
 40
8.56280716041179
 40
8.623716930826586
 40
8.64682063685353
 40
8.671988793774371
 40
8.734909185828226
 40
8.816705695188926
 40
8.898502204815497
 40
8.961422597377958
 40
8.986590754551084
 40
9.012941600733239
 40
9.070913462380314
 40
9.128885324081818
 40
9.155236170325121
 40
9.180404327929136
 40
9.243324721948209
 40
9.325121234211988
 40
9.406917746637657
 40
9.469838141978098
 40
9.495006288270886
 40
9.517811184379028
 40
9.572192090487036
 40
9.637098333281273
 40
9.69147923951546
 40
9.714284125643502
 40
9.714284125643502
 40
9.714284125643502
 40
9.714284125643502
 10
74.88047364814219
 20
-81.24024366193345
 10
74.90212580218068
 20
-81.26801660138253
 10
74.9527524562242
 20
-81.33295474819828
 10
75.02796506553611
 20
-81.44022469068167
 10
75.11787497271148
 20
-81.55536091114438
 10
75.16394371294413
 20
-81.6555648363275
 10
75.25860927474241
 20
-81.72479522566121
 10
75.21347067731816
 20
-81.77141889702791
 10
75.18773152385592
 20
-81.81253220515029
 10
75.1575464160781
 20
-81.84847557653126
 10
75.11239521833313
 20
-81.92333746784972
 10
75.06407719113308
 20
-81.70131005127463
 10
74.9898807165842
 20
-81.66402852043353
 10
74.87663147773746
 20
-81.39303327250462
 10
74.88154010309385
 20
-81.50818200934836
 10
74.87987540090742
 20
-81.58076853599435
 10
74.88070975294832
 20
-81.70287940897077
 10
74.88038769930324
 20
-81.84999728570604
 10
74.88053443652248
 20
-82.01606465424507
 10
74.88032175454907
 20
-82.18725974772462
 10
74.88097647048023
 20
-82.35360700745565
 10
74.8789459913908
 20
-82.49978356325369
 10
74.8843727852699
 20
-82.62442481906456
 10
74.87351983214768
 20
-82.69194872840436
 10
74.88870066083233
 20
-82.75364467964044
 10
74.83881625609025
 20
-82.7418602548406
 10
74.79474177952906
 20
-82.74969706601098
 10
74.75126390829698
 20
-82.74153088008359
 10
74.70226142392578
 20
-82.75375472642597
 10
74.71489986875942
 20
-82.69952862131753
 10
74.70604504212187
 20
-82.63976610473506
 10
74.71053262230828
 20
-82.52991500336695
 10
74.70882275887595
 20
-82.39883553975386
 10
74.7093818368756
 20
-82.24715517936737
 10
74.70921962214628
 20
-82.08702454451112
 10
74.70925373774435
 20
-81.92676663706496
 10
74.7092782412896
 20
-81.77543281860628
 10
74.70917209959944
 20
-81.64331373042464
 10
74.70945665947002
 20
-81.53618726847873
 10
74.70889430003365
 20
-81.47104909801591
 10
74.71110325364583
 20
-81.34294571522389
 10
74.62497034513714
 20
-81.71815918989492
 10
74.54854082712689
 20
-81.86995336257672
 10
74.45903082206013
 20
-82.03147322934751
 10
74.35706806700954
 20
-82.30441680560895
 10
74.31182439438074
 20
-82.1419618278455
 10
74.20326233944388
 20
-82.05308097322951
 10
74.3926059204521
 20
-81.90363734419654
 10
74.44956079984689
 20
-81.71164392406142
 10
74.56477884461205
 20
-81.48013906474307
 10
74.58704190829016
 20
-81.29116269622003
 10
74.77021726049085
 20
-81.01459440055132
 10
74.6468301050321
 20
-81.02214550548968
 10
74.58559516196024
 20
-81.0205675701495
 10
74.50122670698329
 20
-81.0203093680739
 10
74.41345025387346
 20
-81.02368683629861
 10
74.35870361488912
 20
-81.01518714399043
 10
74.30349704787935
 20
-81.02864968331275
 10
74.31530904883051
 20
-80.97982087254302
 10
74.30727636045623
 20
-80.93644524484354
 10
74.3158453557447
 20
-80.89404091071489
 10
74.30332108619258
 20
-80.84645732828949
 10
74.34853689915035
 20
-80.8564631638595
 10
74.3945083015493
 20
-80.85019424207003
 10
74.47074895004789
 20
-80.85319967975192
 10
74.54915635847632
 20
-80.85143081102524
 10
74.6254260101702
 20
-80.85448735399407
 10
74.67132769122435
 20
-80.84809558004889
 10
74.71620014181693
 20
-80.8581970640217
 10
74.70358197284024
 20
-80.80756327799166
 10
74.71222040354756
 20
-80.75412267498996
 10
74.70826290482117
 20
-80.66050274249383
 10
74.70925925211034
 20
-80.5580092269214
 10
74.71021948658425
 20
-80.45560259132904
 10
74.7063478910774
 20
-80.36177599771742
 10
74.7148057267134
 20
-80.30876986540713
 10
74.7023343385604
 20
-80.25702093729875
 10
74.74723738426195
 20
-80.27062782154312
 10
74.78853512895408
 20
-80.26813049060478
 10
74.85256117338196
 20
-80.27265468806581
 10
74.89163786015546
 20
-80.28132526337755
 10
74.94068109515109
 20
-80.27398427310379
 10
74.91553474833589
 20
-80.31310633329305
 10
74.87461687864923
 20
-80.30349686925258
 10
74.88403770693722
 20
-80.35373381211286
 10
74.87859147715149
 20
-80.40527583741574
 10
74.88119670545723
 20
-80.48953821796546
 10
74.88003696549234
 20
-80.58354393797657
 10
74.88138585169997
 20
-80.67716663985539
 10
74.87802375542776
 20
-80.7623401182884
 10
74.88512273705373
 20
-80.81196673309023
 10
74.87428366073145
 20
-80.85919834411075
 10
74.9234277678014
 20
-80.84711854444211
 10
74.97251450829158
 20
-80.85466136018056
 10
75.05039817334097
 20
-80.85227459019632
 10
75.12806326256643
 20
-80.85014147475653
 10
75.1775661384123
 20
-80.85720137458608
 10
75.22748622034077
 20
-80.84553377444853
 10
75.2153465969649
 20
-80.89373294009668
 10
75.2236105681912
 20
-80.93664309579829
 10
75.21534661035517
 20
-80.97955327529678
 10
75.22748620026228
 20
-81.02775240626198
 10
75.17756626115147
 20
-81.0160849490955
 10
75.12806181039716
 20
-81.02314326946019
 10
75.05040518357413
 20
-81.02101864152462
 10
74.97249113185288
 20
-81.01860140015305
 10
74.92347678054847
 20
-81.02621681186571
 10
74.87435135617115
 20
-81.0140557682347
 10
74.88458274413398
 20
-81.05840515956906
 10
74.8786945130822
 20
-81.09988093178151
 10
74.88090557583381
 20
-81.15998135065765
 10
74.88043767989144
 20
-81.20687746618175
 10
74.8804654445682
 20
-81.23263382962867
 10
74.88047364814219
 20
-81.24024366193345
 97
        1
330
B6
 75
     1
 76
     2
 52
45.0
 41
0.1
 77
     0
 78
     1
 53
45.0
 43
0.0
 44
0.0
 45
-0.282842712474619
 46
0.0
 79
     0
 98
        1
 10
0.0
 20
0.0
  0
HATCH
  5
D4
330
48
100
AcDbEntity
  8
1
  6
Continuous
 62
     2
100
AcDbHatch
 10
0.0
 20
0.0
 30
0.0
210
0.0
220
0.0
230
1.0
  2
CUSTOM10
 70
     0
 71
     1
 91
        1
 92
        1
 93
        1
 72
     4
 94
        3
 73
     0
 74
     0
 95
       47
 96
       43
 40
0.0
 40
0.0
 40
0.0
 40
0.0
 40
0.2207912809957237
 40
0.4459404186303125
 40
0.4902387190459095
 40
0.5327473892722452
 40
0.574226045122549
 40
0.6155432630560641
 40
0.6568164066315701
 40
0.6982511618780622
 40
0.7407663929317009
 40
0.7851366743175059
 40
1.010288833836326
 40
1.231080507002165
 40
1.451765243652372
 40
1.676638205891662
 40
1.720461045359641
 40
1.83001814404352
 40
1.972442372353142
 40
2.114866600677501
 40
2.224423699395131
 40
2.268246538883374
 40
2.493628801207212
 40
2.715602830286601
 40
2.934211330706346
 40
3.149502369855347
 40
3.231387784850992
 40
3.318231873854027
 40
3.405143198198029
 40
3.486970301720423
 40
3.702258172493851
 40
3.920866283534083
 40
4.142839325931864
 40
4.36822190386533
 40
4.412044743359798
 40
4.521601842095831
 40
4.66402607045232
 40
4.806450298809009
 40
4.916007397546704
 40
4.959830237043033
 40
5.184703515847059
 40
5.40538725076744
 40
5.40538725076744
 40
5.40538725076744
 40
5.40538725076744
 10
72.24376947114138
 20
-80.77507088427193
 10
72.24984068727711
 20
-80.71155046879855
 10
72.2621029560012
 20
-80.58325590691442
 10
72.15349743321806
 20
-80.30747309206978
 10
72.26922533493729
 20
-80.33725395949017
 10
72.31021099617838
 20
-80.3414797311824
 10
72.3521473250287
 20
-80.3460308299146
 10
72.39344640784788
 20
-80.34711546451578
 10
72.43472995683241
 20
-80.3460319118584
 10
72.47664157234158
 20
-80.34147416669718
 10
72.51762510017876
 20
-80.33726099171336
 10
72.63351902962576
 20
-80.3073591806353
 10
72.52259201802251
 20
-80.58573722771177
 10
72.55051238180357
 20
-80.7663038855611
 10
72.5334534799738
 20
-80.99952487034594
 10
72.5344904734872
 20
-81.16006906837917
 10
72.53443668521733
 20
-81.28628711822344
 10
72.53445448252498
 20
-81.38484566044824
 10
72.53444560338494
 20
-81.51632826938102
 10
72.53445313808024
 20
-81.64780684412415
 10
72.53443968578978
 20
-81.74637306686975
 10
72.53447991702606
 20
-81.87273793756911
 10
72.53370138565862
 20
-82.03431460558194
 10
72.54962257720356
 20
-82.26551707488149
 10
72.52637363381757
 20
-82.4503917740906
 10
72.62904508971349
 20
-82.71977926611011
 10
72.47505058156052
 20
-82.68253416695251
 10
72.39343972556009
 20
-82.68775534700531
 10
72.31184597453515
 20
-82.68252909002712
 10
72.15787811196117
 20
-82.71976459495677
 10
72.26044508746858
 20
-82.45038399518182
 10
72.23723127688568
 20
-82.26551944055652
 10
72.25307121079071
 20
-82.03431310815427
 10
72.25235637661964
 20
-81.87273817072565
 10
72.25239320226746
 20
-81.74637298170542
 10
72.25238164530388
 20
-81.64780772745084
 10
72.25238424719822
 20
-81.51632401963842
 10
72.25239159845472
 20
-81.38485981349868
 10
72.252370999412
 20
-81.28625743105741
 10
72.25243496447962
 20
-81.16017380026638
 10
72.25120014003586
 20
-80.99703437997294
 10
72.24623078495136
 20
-80.84859345603515
 10
72.24376947114138
 20
-80.77507088427193
 97
        1
330
B7
 75
     1
 76
     2
 52
45.0
 41
0.1
 77
     0
 78
     1
 53
45.0
 43
0.0
 44
0.0
 45
-0.282842712474619
 46
0.0
 79
     0
 98
        1
 10
0.0
 20
0.0
  0
HATCH
  5
D5
330
48
100
AcDbEntity
  8
1
  6
Continuous
 62
     2
100
AcDbHatch
 10
0.0
 20
0.0
 30
0.0
210
0.0
220
0.0
230
1.0
  2
CUSTOM11
 70
     0
 71
     1
 91
        1
 92
        1
 93
        1
 72
     4
 94
        3
 73
     0
 74
     0
 95
      110
 96
      106
 40
0.0
 40
0.0
 40
0.0
 40
0.0
 40
0.2203406257277708
 40
0.4407808782838138
 40
0.595249449461498
 40
0.7488431659393123
 40
0.9023581831309251
 40
1.056801968670424
 40
1.210736449099924
 40
1.363041386539845
 40
1.51531572968316
 40
1.669377239148111
 40
1.721611652756601
 40
1.773199502942997
 40
1.824933793210041
 40
1.87711042648802
 40
1.982682281206783
 40
2.078781667087606
 40
2.17280964082237
 40
2.27193780737901
 40
2.378349933379374
 40
2.494131557736577
 40
2.626681683943682
 40
2.783145050796096
 40
2.890701232940946
 40
2.993130312454848
 40
3.099869730691835
 40
3.220237816691328
 40
3.352695482737617
 40
3.481732806389872
 40
3.593499473690394
 40
3.674323013331917
 40
3.817951711952838
 40
3.94616712079385
 40
4.061405053453563
 40
4.16648079600319
 40
4.262478775059283
 40
4.350736673551226
 40
4.433071991254083
 40
4.51121629381467
 40
4.564262454117975
 40
4.6184744155716
 40
4.6701284887542
 40
4.722296879126393
 40
4.819540945314276
 40
4.931194984128103
 40
5.049996040257773
 40
5.168643755415305
 40
5.28397081176253
 40
5.392260784910313
 40
5.486512254876388
 40
5.559178233949815
 40
5.591425852853484
 40
5.626215969637875
 40
5.667155838674406
 40
5.717449290214213
 40
5.738402360944826
 40
5.784499116553797
 40
5.830595872164772
 40
5.85154894289763
 40
5.873019280661731
 40
5.924217778408285
 40
5.985325662817652
 40
6.036524160567688
 40
6.057994498334204
 40
6.236847789607464
 40
6.381409928945637
 40
6.493190424178645
 40
6.574067534230469
 40
6.691018086205535
 40
6.814881554220481
 40
6.944307823240419
 40
7.071266716066028
 40
7.193488604461844
 40
7.309042773128101
 40
7.414007203170753
 40
7.50514044188651
 40
7.531150360599673
 40
7.559221645322253
 40
7.587202218920917
 40
7.612569159499111
 40
7.662550809480998
 40
7.702878875764115
 40
7.857328205230928
 40
8.01079956808856
 40
8.165256399657538
 40
8.322232698713906
 40
8.479564855016564
 40
8.635216230290796
 40
8.790882550925728
 40
8.948305154947294
 40
9.16827183903298
 40
9.387358980987258
 40
9.608047961033503
 40
9.832914234792696
 40
9.858338694963024
 40
9.925366817230028
 40
10.02013071422762
 40
10.12876249858999
 40
10.23739428295251
 40
10.33215817995193
 40
10.39918630222397
 40
10.42461076239785
 40
10.64992019336944
 40
10.8718852453119
 40
10.8718852453119
 40
10.8718852453119
 40
10.8718852453119
 10
69.4988055829387
 20
-80.76990268982874
 10
69.502313238631
 20
-80.70297067307261
 10
69.50933014404312
 20
-80.56907637465206
 10
69.41282950518409
 20
-80.28364974409594
 10
69.64404021788769
 20
-80.34629143190782
 10
69.78495575099245
 20
-80.33911975325074
 10
69.94206852103568
 20
-80.3467764630282
 10
70.09561808800562
 20
-80.34660777098024
 10
70.24753723878496
 20
-80.34731488845632
 10
70.4072482266
 20
-80.33703371029424
 10
70.53392400538864
 20
-80.35417018300313
 10
70.73010885748494
 20
-80.28186269273915
 10
70.69646627318468
 20
-80.38272830300946
 10
70.69822787699523
 20
-80.43294275433394
 10
70.6957609526227
 20
-80.482011937946
 10
70.727734441878
 20
-80.56850038534066
 10
70.59406673560244
 20
-80.51916090772727
 10
70.51024761408253
 20
-80.52482895066899
 10
70.41041285920925
 20
-80.51448012674766
 10
70.31168441729142
 20
-80.50827078969978
 10
70.20518002238789
 20
-80.50215765564286
 10
70.08407791508284
 20
-80.49324645896478
 10
69.96336489552223
 20
-80.50391923468682
 10
69.77428212962062
 20
-80.44445026300697
 10
69.80592959580795
 20
-80.60355209303525
 10
69.79258307696027
 20
-80.7007440104116
 10
69.79052258792181
 20
-80.8127946427096
 10
69.78884554974394
 20
-80.93213843751714
 10
69.79036042470007
 20
-81.05880937225953
 10
69.7886849931439
 20
-81.18611941364946
 10
69.79891117244264
 20
-81.28461962976601
 10
69.77092740493511
 20
-81.42524826755432
 10
69.94382974520737
 20
-81.36923978246969
 10
70.05752876555403
 20
-81.38193577902565
 10
70.17704191250081
 20
-81.37465152329813
 10
70.28187588778405
 20
-81.37035512324309
 10
70.37733523513808
 20
-81.3658296112209
 10
70.46940909598013
 20
-81.35764328234865
 10
70.5406819235208
 20
-81.36269678742951
 10
70.64751991584538
 20
-81.32377104349393
 10
70.61568710508045
 20
-81.40396407375184
 10
70.61964319566984
 20
-81.45350592535031
 10
70.61647698447814
 20
-81.50356051341247
 10
70.64810589433534
 20
-81.58784681769042
 10
70.51404011304604
 20
-81.53488163885909
 10
70.42225902459687
 20
-81.54373448490622
 10
70.30099966423715
 20
-81.5334347941591
 10
70.184438057254
 20
-81.53164617613561
 10
70.07136431986477
 20
-81.53126512271372
 10
69.960951376124
 20
-81.52498079908884
 10
69.88283915206092
 20
-81.537243961257
 10
69.78438932864125
 20
-81.50459641764937
 10
69.79426226263294
 20
-81.56143781326858
 10
69.79041906971716
 20
-81.59521398823081
 10
69.78970573370363
 20
-81.63793924671654
 10
69.78936370957437
 20
-81.6751192211891
 10
69.7894101708114
 20
-81.71426292010295
 10
69.78939168826949
 20
-81.75196679883379
 10
69.78939708845755
 20
-81.78968574148664
 10
69.78939646669687
 20
-81.81919204635913
 10
69.78939656043138
 20
-81.85039951681765
 10
69.78939717406885
 20
-81.89499104472976
 10
69.78939389521057
 20
-81.94949572872214
 10
69.78940270762493
 20
-81.99407989179616
 10
69.78936271061855
 20
-82.07795720795326
 10
69.79062917230233
 20
-82.19176008703388
 10
69.78805415706104
 20
-82.34083133447353
 10
69.7995276834488
 20
-82.44316325567159
 10
69.77537736750325
 20
-82.57574625495229
 10
69.92632613992451
 20
-82.53017797109042
 10
70.03587041243244
 20
-82.54486517218716
 10
70.16642379266892
 20
-82.53993094256
 10
70.29205796622823
 20
-82.53655824057702
 10
70.41189980783696
 20
-82.53202031882293
 10
70.53216300641951
 20
-82.51864993199058
 10
70.61530291162839
 20
-82.52844816598471
 10
70.7386347873844
 20
-82.46787314757745
 10
70.71745366567252
 20
-82.52381069247043
 10
70.71662177228859
 20
-82.54974280008719
 10
70.71492311603272
 20
-82.57716273190128
 10
70.71482423415988
 20
-82.61175334174678
 10
70.71339267540989
 20
-82.648631211603
 10
70.7463071644959
 20
-82.74066688359254
 10
70.54815744408766
 20
-82.66781513406238
 10
70.42308157476597
 20
-82.69087802872457
 10
70.26033387479251
 20
-82.6845950739528
 10
70.10596339027698
 20
-82.68652585471136
 10
69.94969378897125
 20
-82.68519766781799
 10
69.79008119180504
 20
-82.68853656893202
 10
69.64705937950055
 20
-82.67647733652822
 10
69.41274123343966
 20
-82.73961527404145
 10
69.5104078203966
 20
-82.45293001914746
 10
69.49371362328276
 20
-82.25925221238404
 10
69.50765641624531
 20
-82.0306528650077
 10
69.50732552994015
 20
-81.87528935426016
 10
69.50733455720325
 20
-81.7694719293694
 10
69.50733233290849
 20
-81.70707745256848
 10
69.50733330046585
 20
-81.61693104132742
 10
69.50733329260301
 20
-81.51292362223624
 10
69.50733213138717
 20
-81.40891398005772
 10
69.50733584242714
 20
-81.31877285692295
 10
69.50732785038201
 20
-81.2563672628385
 10
69.50736017277876
 20
-81.15044693419945
 10
69.50617082410878
 20
-80.99286812836326
 10
69.5012483942025
 20
-80.84385309558996
 10
69.4988055829387
 20
-80.76990268982874
 97
        1
330
B8
 75
     1
 76
     2
 52
45.0
 41
0.1
 77
     0
 78
     1
 53
45.0
 43
0.0
 44
0.0
 45
-0.282842712474619
 46
0.0
 79
     0
 98
        1
 10
0.0
 20
0.0
  0
HATCH
  5
D6
330
48
100
AcDbEntity
  8
1
  6
Continuous
 62
     2
100
AcDbHatch
 10
0.0
 20
0.0
 30
0.0
210
0.0
220
0.0
230
1.0
  2
CUSTOM12
 70
     0
 71
     1
 91
        1
 92
        1
 93
        1
 72
     4
 94
        3
 73
     0
 74
     0
 95
       95
 96
       91
 40
0.0
 40
0.0
 40
0.0
 40
0.0
 40
0.6550406656911812
 40
1.308087289031943
 40
1.420803739835807
 40
1.566130759770816
 40
1.75706734188848
 40
2.006513545026482
 40
2.087328263121567
 40
2.185328872295635
 40
2.294612454748389
 40
2.408936380534831
 40
2.526802767798572
 40
2.646360524615614
 40
2.762535723971614
 40
2.870057342870169
 40
2.96688344843166
 40
3.050803243518307
 40
3.115818222436613
 40
3.156030057150244
 40
3.213914225080144
 40
3.27668902645053
 40
3.342960320981307
 40
3.404230667150528
 40
3.453822809493319
 40
3.532499827188385
 40
3.634775188507135
 40
3.75490933300811
 40
3.889736761660624
 40
4.035769602175177
 40
4.187256681197559
 40
4.33873368567591
 40
4.48847873467606
 40
4.634708317831532
 40
4.771493189921237
 40
4.89268657156116
 40
5.199775528944415
 40
5.460353566929596
 40
5.667603142345459
 40
5.814722905404441
 40
5.828990806219782
 40
5.855488336304422
 40
5.869756237118768
 40
6.189796507762769
 40
6.531890469873
 40
6.883053637016967
 40
7.23051202491144
 40
7.56696665676452
 40
7.885203559707372
 40
8.172887439719206
 40
8.418011594062722
 40
8.443926721190653
 40
8.510760470613139
 40
8.602145393795656
 40
8.701714041647083
 40
8.79309896507532
 40
8.859932715057898
 40
8.885847842603543
 40
9.242301256612764
 40
9.589275455016708
 40
9.921808543164124
 40
10.23479624298463
 40
10.29968150889175
 40
10.35323493887764
 40
10.40154625355146
 40
10.46482922477817
 40
10.55973900668394
 40
10.69239545985608
 40
10.84920353475663
 40
11.0162632859477
 40
11.18672024367435
 40
11.35372582577202
 40
11.50257442292417
 40
11.61866495023282
 40
11.71329869152866
 40
11.82511050573899
 40
11.94464880845707
 40
12.06929242642498
 40
12.19707290435167
 40
12.3256263286052
 40
12.4503456533127
 40
12.56646595170319
 40
12.67099007414626
 40
12.76077625936774
 40
12.82703233506685
 40
12.87429132785984
 40
12.89831990323325
 40
12.92234847860012
 40
13.53984767410313
 40
14.18294284359354
 40
14.18294284359354
 40
14.18294284359354
 40
14.18294284359354
 10
66.89982031007901
 20
-81.8001549117934
 10
66.76822872113195
 20
-81.6864847077783
 10
66.50544612554967
 20
-81.45949033064913
 10
65.9927660893791
 20
-80.6169906642478
 10
66.00369220481306
 20
-80.97490151804045
 10
65.99714939807605
 20
-81.1164613710893
 10
65.9958294084541
 20
-81.31492224081785
 10
65.99483850553067
 20
-81.4876323333508
 10
65.99543692047433
 20
-81.63048156123486
 10
65.99692617546506
 20
-81.72648523967705
 10
65.99859510412412
 20
-81.83368026117925
 10
66.00022024073871
 20
-81.94749317863483
 10
66.00226969544543
 20
-82.06471956776474
 10
66.00534329546954
 20
-82.18257118148095
 10
66.0086607149812
 20
-82.29685442060445
 10
66.01238727930483
 20
-82.40392127513788
 10
66.01476056141938
 20
-82.49906120614142
 10
66.02089863411263
 20
-82.58354972175371
 10
66.01700519487152
 20
-82.63990442082921
 10
66.03854978958462
 20
-82.71088506908708
 10
65.96112075113864
 20
-82.68010851776583
 10
65.90466206929597
 20
-82.68902286863451
 10
65.84707633495759
 20
-82.68017310982786
 10
65.76204309312416
 20
-82.7117530415512
 10
65.79399815991513
 20
-82.62818373388873
 10
65.79209727353076
 20
-82.56030920412753
 10
65.80382275000687
 20
-82.45680272616647
 10
65.80945085057682
 20
-82.33911403764367
 10
65.81681696317101
 20
-82.20524920216641
 10
65.82510271543788
 20
-82.06149376508432
 10
65.83291193501951
 20
-81.91199506537622
 10
65.83878386754265
 20
-81.76120979978985
 10
65.84339352707376
 20
-81.61213585502628
 10
65.84728995703108
 20
-81.46790616218044
 10
65.85009825793327
 20
-81.33329624168049
 10
65.85069662077906
 20
-81.14443915033709
 10
65.85462913199191
 20
-80.91938035067909
 10
65.83724428312665
 20
-80.64546438255357
 10
65.87806847953514
 20
-80.48126417282465
 10
65.79254207087706
 20
-80.28163867915967
 10
65.85908263604568
 20
-80.28528070977087
 10
65.87689917259993
 20
-80.28500082220214
 10
65.99870692502711
 20
-80.28280601982429
 10
66.10110377882309
 20
-80.56238410659563
 10
66.3510288962125
 20
-80.76350520845057
 10
66.58003027838795
 20
-81.0312091439315
 10
66.81754186658775
 20
-81.28267115518689
 10
67.04163581935407
 20
-81.51943555319707
 10
67.26809837357783
 20
-81.77694836797986
 10
67.42559553392832
 20
-81.89264194324143
 10
67.64023970654429
 20
-82.22916376842267
 10
67.63529134273873
 20
-82.10448775289461
 10
67.63641990553158
 20
-82.04585837445327
 10
67.63591452942848
 20
-81.95869867009087
 10
67.63607426108823
 20
-81.86497386198195
 10
67.63603223440867
 20
-81.77894558084026
 10
67.63604694931419
 20
-81.7175963743557
 10
67.63599737087522
 20
-81.56778297860069
 10
67.63890789755794
 20
-81.32923916870962
 10
67.61897884939303
 20
-80.96427019512363
 10
67.66807013890168
 20
-80.70113897387654
 10
67.51082189619488
 20
-80.28984624433306
 10
67.66923803251903
 20
-80.34515246829318
 10
67.72419479313973
 20
-80.34713842880889
 10
67.77581552195086
 20
-80.34648751132812
 10
67.86434664181344
 20
-80.30544001642822
 10
67.81351657559375
 20
-80.45217202758076
 10
67.82436573830526
 20
-80.55893557426631
 10
67.80963044476155
 20
-80.7182782396695
 10
67.80302438989733
 20
-80.88060467728192
 10
67.79452288526836
 20
-81.0492100748867
 10
67.78734946549676
 20
-81.21098714677522
 10
67.78193306681577
 20
-81.35491197923133
 10
67.78019814204171
 20
-81.47476035914141
 10
67.78057081250873
 20
-81.58227427790548
 10
67.78039235790314
 20
-81.6909350473548
 10
67.7807278315909
 20
-81.80959959215534
 10
67.78203080749525
 20
-81.93358365868323
 10
67.7839154804343
 20
-82.06055235209959
 10
67.78552719076195
 20
-82.18759667830034
 10
67.78716705901988
 20
-82.31058644888888
 10
67.78928381985203
 20
-82.42612597997302
 10
67.78941158751323
 20
-82.5282262542523
 10
67.79367818493223
 20
-82.61903680542906
 10
67.78387075380577
 20
-82.67699908172277
 10
67.80487422244576
 20
-82.74396399249035
 10
67.76559071926654
 20
-82.73622375414378
 10
67.5525574570513
 20
-82.75158275235869
 10
67.35665653959558
 20
-82.195104712866
 10
67.05414650843129
 20
-81.93357494032554
 10
66.89982031007901
 20
-81.8001549117934
 97
        1
330
B9
 75
     1
 76
     2
 52
45.0
 41
0.1
 77
     0
 78
     1
 53
45.0
 43
0.0
 44
0.0
 45
-0.282842712474619
 46
0.0
 79
     0
 98
        1
 10
0.0
 20
0.0
  0
HATCH
  5
D7
330
48
100
AcDbEntity
  8
1
  6
Continuous
 62
     2
100
AcDbHatch
 10
0.0
 20
0.0
 30
0.0
210
0.0
220
0.0
230
1.0
  2
CUSTOM13
 70
     0
 71
     1
 91
        2
 92
        1
 93
        1
 72
     4
 94
        3
 73
     0
 74
     0
 95
       57
 96
       53
 40
0.0
 40
0.0
 40
0.0
 40
0.0
 40
0.0471632082809072
 40
0.0914861054632283
 40
0.1357762519702376
 40
0.1826527001610387
 40
0.2295203288572296
 40
0.2737751972220607
 40
0.3181310461543058
 40
0.3652607198398503
 40
0.4571007286314284
 40
0.5671851029165009
 40
0.6894623283868405
 40
0.8181758272545886
 40
0.9510087229273767
 40
1.085852229674051
 40
1.218126164475314
 40
1.343545131142377
 40
1.454537202956793
 40
1.567187607530767
 40
1.680710966642385
 40
1.794226869736778
 40
1.900009184247563
 40
2.004085860447843
 40
2.108162674451766
 40
2.214000150155296
 40
2.496038577352149
 40
2.762350745479298
 40
2.99727535327941
 40
3.185110082137723
 40
3.246407890063934
 40
3.312607550212666
 40
3.378877742711582
 40
3.440140399651457
 40
4.100501696006498
 40
4.754913085563537
 40
5.41133169342391
 40
6.077890432568724
 40
6.110575292671003
 40
6.143260152775776
 40
6.36798936339516
 40
6.61052537495156
 40
6.863389136467311
 40
7.11938002554763
 40
7.376036605091108
 40
7.631164770966317
 40
7.876722425456436
 40
8.104953735855961
 40
8.3129166859243
 40
8.497730294941299
 40
8.651018984313867
 40
8.764738853624586
 40
8.764738853624586
 40
8.764738853624586
 40
8.764738853624586
 10
64.38529169532819
 20
-82.69286789768137
 10
64.36968841796995
 20
-82.69087298301987
 10
64.3394215413071
 20
-82.68700328020768
 10
64.29412616550209
 20
-82.68571544413791
 10
64.24898205821177
 20
-82.68604845827018
 10
64.20292845761686
 20
-82.68598870706839
 10
64.1570763624865
 20
-82.68587715731061
 10
64.11139791009336
 20
-82.68635695924473
 10
64.0681078994377
 20
-82.68452419762343
 10
63.99702154042824
 20
-82.70863972566406
 10
63.99877447142098
 20
-82.58728835403815
 10
63.95164638233392
 20
-82.50187289629831
 10
63.91217457045302
 20
-82.38426600035928
 10
63.86369029854141
 20
-82.2668077684063
 10
63.81312848552911
 20
-82.14507593619555
 10
63.76489020632459
 20
-82.018375615186
 10
63.70655004003633
 20
-81.90979841596112
 10
63.69111601200299
 20
-81.75292872246658
 10
63.54968537834042
 20
-81.7854008283274
 10
63.44386648676729
 20
-81.77400640698887
 10
63.32888371779909
 20
-81.77520937866447
 10
63.21834097049097
 20
-81.77406584033656
 10
63.11068509755517
 20
-81.77495179343538
 10
63.00515899820113
 20
-81.77496926990545
 10
62.90394601347815
 20
-81.78199496908651
 10
62.71970722805216
 20
-81.75777669521194
 10
62.70876611381799
 20
-82.06171838259182
 10
62.60179590875184
 20
-82.28560352127667
 10
62.50284160571152
 20
-82.47018215088568
 10
62.51553579767763
 20
-82.71383324576858
 10
62.39803591691658
 20
-82.68405482627868
 10
62.33523233210789
 20
-82.68655439871463
 10
62.27161395461686
 20
-82.68569454278257
 10
61.98762816468432
 20
-82.72815489439125
 10
62.61819059521507
 20
-82.00831576936278
 10
62.70179127418398
 20
-81.49636989945336
 10
63.08595202421066
 20
-80.97559785831018
 10
63.07074757413352
 20
-80.27393903127859
 10
63.31695331754655
 20
-80.28567896299808
 10
63.41866136103307
 20
-80.27688524928291
 10
63.41800194885863
 20
-80.52853878650718
 10
63.53585846085972
 20
-80.71095508647107
 10
63.62457827132535
 20
-80.95349788718197
 10
63.72525599380284
 20
-81.18573498850938
 10
63.82414101650116
 20
-81.42238884814152
 10
63.92299444434381
 20
-81.65451790210972
 10
64.01864338436948
 20
-81.87791306592275
 10
64.10901720260401
 20
-82.08640980331748
 10
64.1920212020958
 20
-82.27605080851743
 10
64.26563560355675
 20
-82.44250423312968
 10
64.32730833483143
 20
-82.57995829754964
 10
64.36797263383725
 20
-82.65914289951033
 10
64.38529169532819
 20
-82.69286789768137
 97
        1
330
BB
 92
       16
 93
        1
 72
     4
 94
        3
 73
     0
 74
     0
 95
       25
 96
       21
 40
0.0
 40
0.0
 40
0.0
 40
0.0
 40
0.0911479969065178
 40
0.1858117896205164
 40
0.2804128399735131
 40
0.3715889190715078
 40
0.4679080494219134
 40
0.5642683809229372
 40
0.6605683222645203
 40
0.7569653015810683
 40
0.8561348172523215
 40
1.092615965104358
 40
1.374867658141952
 40
1.61134881201165
 40
1.710518328425316
 40
1.809403163726639
 40
2.045205463294164
 40
2.3266469176222
 40
2.562449217190671
 40
2.661334043833977
 40
2.661334043833977
 40
2.661334043833977
 40
2.661334043833977
 10
62.86139680199676
 20
-81.62298991183772
 10
62.89177933706911
 20
-81.62315449666511
 10
62.95371633418804
 20
-81.62349000691145
 10
63.04716244130991
 20
-81.62644473929063
 10
63.14053626891262
 20
-81.62935776503915
 10
63.23480282062452
 20
-81.63019327737649
 10
63.32852322437355
 20
-81.62916884723016
 10
63.42823077559736
 20
-81.62996551910095
 10
63.51192169990811
 20
-81.61992119145843
 10
63.65682637678142
 20
-81.64678911706903
 10
63.5326399897569
 20
-81.47247999101013
 10
63.48961347390507
 20
-81.31261818374975
 10
63.37391895949777
 20
-81.0539507083085
 10
63.29478328840256
 20
-80.91682476519202
 10
63.23618440745842
 20
-80.69976496246989
 10
63.17950713922065
 20
-80.91647395167635
 10
63.0983077353245
 20
-81.05586516942827
 10
62.99939687342568
 20
-81.30506560010872
 10
62.91838925470272
 20
-81.4898769915499
 10
62.87439507786065
 20
-81.59263082524947
 10
62.86139680199676
 20
-81.62298991183772
 97
        1
330
BA
 75
     1
 76
     2
 52
45.0
 41
0.1
 77
     0
 78
     1
 53
45.0
 43
0.0
 44
0.0
 45
-0.282842712474619
 46
0.0
 79
     0
 98
        1
 10
0.0
 20
0.0
  0
HATCH
  5
D8
330
48
100
AcDbEntity
  8
1
  6
Continuous
 62
     2
100
AcDbHatch
 10
0.0
 20
0.0
 30
0.0
210
0.0
220
0.0
230
1.0
  2
CUSTOM14
 70
     0
 71
     1
 91
        1
 92
        1
 93
        1
 72
     4
 94
        3
 73
     0
 74
     0
 95
       99
 96
       95
 40
0.0
 40
0.0
 40
0.0
 40
0.0
 40
0.0796417172272554
 40
0.1621768542356099
 40
0.2486489160957684
 40
0.3404969668524829
 40
0.4381912511164787
 40
0.5434463660245094
 40
0.6518115192846929
 40
0.7530190937886743
 40
0.8492196919724747
 40
0.9419290312997993
 40
1.03424966357001
 40
1.129078600620156
 40
1.226697027573214
 40
1.327220425421676
 40
1.470572134937997
 40
1.595489863371204
 40
1.719934125348336
 40
1.850576620127383
 40
1.989059629987272
 40
2.134139054226886
 40
2.280698007207191
 40
2.424529739039465
 40
2.565929576985821
 40
2.708239260773483
 40
2.86171788744361
 40
3.045168540347324
 40
3.183798301138594
 40
3.314813961455422
 40
3.442083470447272
 40
3.569912708372932
 40
3.70217751250933
 40
3.842307559659468
 40
3.992872223245891
 40
4.15675066221828
 40
4.310981861107515
 40
4.445859909322577
 40
4.572393936131551
 40
4.70165671978191
 40
4.768279086008379
 40
4.835960697898328
 40
4.912788918729245
 40
5.006285208481454
 40
5.026909478751552
 40
5.047533749021095
 40
5.10180803147117
 40
5.162325165538449
 40
5.226919745995781
 40
5.29423180659665
 40
5.364544852554782
 40
5.438319055467857
 40
5.517877651324183
 40
5.607647714861508
 40
5.700449642544327
 40
5.788251142364078
 40
5.872714706039716
 40
5.955167292575206
 40
6.037192395190327
 40
6.120669181469057
 40
6.206848616686307
 40
6.2966808554167
 40
6.442558392872533
 40
6.568190371608196
 40
6.692904567360283
 40
6.824220446557063
 40
6.963121850329306
 40
7.107843738851106
 40
7.253431663907181
 40
7.395187468036599
 40
7.533140753237668
 40
7.670550457175162
 40
7.816236511769183
 40
7.987691657359136
 40
8.14227742196919
 40
8.293662615414958
 40
8.442962460879231
 40
8.591598316185276
 40
8.743678992361742
 40
8.903725323699119
 40
9.07630700889045
 40
9.26557860468051
 40
9.459203795360663
 40
9.617619810273437
 40
9.753609671361817
 40
9.874873300004031
 40
9.95452018497774
 40
10.02416413719242
 40
10.09769764405442
 40
10.18909955924969
 40
10.2097458642013
 40
10.23039218263377
 40
10.30057101881261
 40
10.37632012987541
 40
10.37632012987541
 40
10.37632012987541
 40
10.37632012987541
 10
59.739622228862
 20
-82.3711786616507
 10
59.75624853039881
 20
-82.39192920535751
 10
59.79010516593464
 20
-82.43418417669164
 10
59.85300899938049
 20
-82.48883717988993
 10
59.9262768393162
 20
-82.53614504260014
 10
60.0106236691405
 20
-82.5738629794313
 10
60.1062508068229
 20
-82.59872909649113
 10
60.21021212281149
 20
-82.60603970035129
 10
60.31542876731736
 20
-82.59771206587008
 10
60.41368938241022
 20
-82.56764349729538
 10
60.4989253880317
 20
-82.52064706409188
 10
60.57094876588717
 20
-82.45960538130211
 10
60.62811851618647
 20
-82.38500559802479
 10
60.66981362002076
 20
-82.29911064720889
 10
60.69572202990613
 20
-82.20427678948855
 10
60.7048304785422
 20
-82.09058550342698
 10
60.69171322492555
 20
-81.96580941610284
 10
60.62555977871825
 20
-81.84898810209175
 10
60.52996383723378
 20
-81.76400989803689
 10
60.41799484751375
 20
-81.69496844921903
 10
60.2923927036038
 20
-81.63709387335174
 10
60.15869590736251
 20
-81.58539806096724
 10
60.02433902715995
 20
-81.53014436983887
 10
59.89822514396452
 20
-81.45973758739414
 10
59.78568474403039
 20
-81.37127988649816
 10
59.69002305172269
 20
-81.2593246151259
 10
59.62644246045943
 20
-81.10963619279684
 10
59.61309739577841
 20
-80.94980734995922
 10
59.6250778440217
 20
-80.7986512407422
 10
59.66425663816096
 20
-80.67104284789527
 10
59.72852552036792
 20
-80.55832655350221
 10
59.81684724525087
 20
-80.46264920112375
 10
59.92683586603962
 20
-80.38559314395314
 10
60.05625518540337
 20
-80.32762132444786
 10
60.20421064205616
 20
-80.29174351792244
 10
60.36123369082551
 20
-80.28166810330501
 10
60.51052079191989
 20
-80.29049891618475
 10
60.65265210669389
 20
-80.3183863004071
 10
60.7526190062394
 20
-80.37500214679926
 10
60.90553421889531
 20
-80.4223892727556
 10
60.83853991699367
 20
-80.5071597637988
 10
60.82267465730378
 20
-80.57474627507581
 10
60.79090179840653
 20
-80.63987436587871
 10
60.80804696623396
 20
-80.74190076124115
 10
60.75966946610009
 20
-80.73420317699161
 10
60.72460568935342
 20
-80.74106757656259
 10
60.7226965438487
 20
-80.67649698222868
 10
60.69159603847579
 20
-80.63087889759669
 10
60.65948190812245
 20
-80.57352492752612
 10
60.61383059279366
 20
-80.52373066688506
 10
60.55887756711557
 20
-80.47918715662067
 10
60.49411086257761
 20
-80.44149540544517
 10
60.41626447633656
 20
-80.4163015358971
 10
60.32854280061209
 20
-80.40982298382951
 10
60.23831707305752
 20
-80.4167782009546
 10
60.15248621468333
 20
-80.44004338920145
 10
60.07586110913647
 20
-80.47781885273517
 10
60.009553308897
 20
-80.52861888291493
 10
59.95528279897324
 20
-80.59182385973855
 10
59.91551927982269
 20
-80.66637073670695
 10
59.8907042963357
 20
-80.74996215383304
 10
59.88223917156387
 20
-80.85720580998782
 10
59.89499654398726
 20
-80.97948072113503
 10
59.96118158620421
 20
-81.09763805089854
 10
60.05712448526008
 20
-81.18307203671539
 10
60.1688182415951
 20
-81.25330167074338
 10
60.29411311214712
 20
-81.31254367075763
 10
60.42800913942163
 20
-81.36296821294934
 10
60.56201977859183
 20
-81.4159101239668
 10
60.68811527696838
 20
-81.48163358755892
 10
60.80064840911861
 20
-81.56433176843741
 10
60.89616377370015
 20
-81.66917523070993
 10
60.96029739397319
 20
-81.80976412129495
 10
60.97413711780479
 20
-81.96848119929476
 10
60.96042221649986
 20
-82.12760374163189
 10
60.91750066067536
 20
-82.27429700561855
 10
60.84761737818341
 20
-82.40793732793925
 10
60.75048596665977
 20
-82.52381141681772
 10
60.62780734764257
 20
-82.61823547610977
 10
60.48046758659365
 20
-82.68734258729081
 10
60.31073999498933
 20
-82.72960318522215
 10
60.12476724323658
 20
-82.74131793150656
 10
59.94592233789518
 20
-82.7310404269763
 10
59.78120012065123
 20
-82.68946955611912
 10
59.67646782938255
 20
-82.62115886497122
 10
59.52812282431336
 20
-82.5723831034896
 10
59.59106456474976
 20
-82.47936938090223
 10
59.6002541882829
 20
-82.40616993132787
 10
59.62339787539997
 20
-82.33977234879715
 10
59.59648557880858
 20
-82.23938719853489
 10
59.64516064091079
 20
-82.24679495863684
 10
59.68467980334656
 20
-82.24019465760172
 10
59.6926472397471
 20
-82.31834826162134
 10
59.7235704420692
 20
-82.35312602005207
 10
59.739622228862
 20
-82.3711786616507
 97
        1
330
BC
 75
     1
 76
     2
 52
45.0
 41
0.1
 77
     0
 78
     1
 53
45.0
 43
0.0
 44
0.0
 45
-0.282842712474619
 46
0.0
 79
     0
 98
        1
 10
0.0
 20
0.0
  0
ENDBLK
  5
4A
330
48
100
AcDbEntity
  8
0
100
AcDbBlockEnd
  0
BLOCK
  5
4D
330
4B
100
AcDbEntity
  8
0
100
AcDbBlockBegin
  2
開示A4枠
 70
     0
 10
-110.4069732547231
 20
-96.50913529381064
 30
0.0
  3
開示A4枠
  1

  0
INSERT
  5
4C
330
4B
100
AcDbEntity
  8
1
100
AcDbBlockReference
  2
開示A4
 10
-110.4069732547231
 20
-96.50913529381064
 30
0.0
  0
ENDBLK
  5
4E
330
4B
100
AcDbEntity
  8
0
100
AcDbBlockEnd
  0
BLOCK
  5
50
330
4F
100
AcDbEntity
  8
0
100
AcDbBlockBegin
  2
packin
 70
     0
 10
2.86941964221562
 20
24.96482969548919
 30
0.0
  3
packin
  1

  0
CIRCLE
  5
D9
330
4F
100
AcDbEntity
  8
1
  6
Continuous
 62
     7
100
AcDbCircle
 10
2.86941964221562
 20
129.2302690974728
 30
0.0
 40
13.5
  0
CIRCLE
  5
DA
330
4F
100
AcDbEntity
  8
1
  6
Continuous
 62
     7
100
AcDbCircle
 10
2.86941964221562
 20
129.2302690974728
 30
0.0
 40
22.16407834250472
  0
CIRCLE
  5
DB
330
4F
100
AcDbEntity
  8
1
  6
Continuous
 62
     7
100
AcDbCircle
 10
2.86941964221562
 20
129.2302690974728
 30
0.0
 40
22.5
  0
CIRCLE
  5
DC
330
4F
100
AcDbEntity
  8
1
  6
Continuous
 62
     7
100
AcDbCircle
 10
2.86941964221562
 20
129.2302690974728
 30
0.0
 40
25.0
  0
ENDBLK
  5
51
330
4F
100
AcDbEntity
  8
0
100
AcDbBlockEnd
  0
BLOCK
  5
53
330
52
100
AcDbEntity
  8
0
100
AcDbBlockBegin
  2
body
 70
     0
 10
-42.13058035778438
 20
20.46482969548919
 30
0.0
  3
body
  1

  0
LINE
  5
DD
330
52
100
AcDbEntity
  8
0
  6
Continuous
 62
     7
100
AcDbLine
 10
26.43914849638503
 20
-26.55531721598329
 30
0.0
 11
-20.70030921195379
 21
-26.55531721598329
 31
0.0
  0
LINE
  5
DE
330
52
100
AcDbEntity
  8
0
  6
Continuous
 62
     7
100
AcDbLine
 10
-25.58234160231206
 20
-5.55722662472861
 30
0.0
 11
-40.6801210931111
 21
-6.056135534017
 31
0.0
  0
LINE
  5
DF
330
52
100
AcDbEntity
  8
0
  6
Continuous
 62
     7
100
AcDbLine
 10
-39.13058035778431
 20
-9.05531721598329
 30
0.0
 11
-40.63058035778437
 21
-9.05531721598331
 31
0.0
  0
LINE
  5
E0
330
52
100
AcDbEntity
  8
0
  6
Continuous
 62
     7
100
AcDbLine
 10
31.20558583764759
 20
-5.55531721598329
 30
0.0
 11
-25.46674655321635
 21
-5.55531721598329
 31
0.0
  0
LINE
  5
E1
330
52
100
AcDbEntity
  8
0
  6
Continuous
 62
     7
100
AcDbLine
 10
-39.13058035778431
 20
-9.05531721598329
 30
0.0
 11
44.86941964221555
 21
-9.05531721598329
 31
0.0
  0
LINE
  5
E2
330
52
100
AcDbEntity
  8
0
  6
Continuous
 62
     7
100
AcDbLine
 10
46.41896037754233
 20
-6.056135534017
 30
0.0
 11
31.32118088674329
 21
-5.55722662472861
 31
0.0
  0
LINE
  5
E3
330
52
100
AcDbEntity
  8
0
  6
Continuous
 62
     7
100
AcDbLine
 10
46.3694196422156
 20
-9.05531721598331
 30
0.0
 11
44.86941964221555
 21
-9.05531721598329
 31
0.0
  0
LINE
  5
E4
330
52
100
AcDbEntity
  8
0
  6
Continuous
 62
     7
100
AcDbLine
 10
28.70275297554898
 20
-9.05531721598329
 30
0.0
 11
27.93745070297166
 21
-25.12666494010648
 31
0.0
  0
LINE
  5
E5
330
52
100
AcDbEntity
  8
0
  6
Continuous
 62
     7
100
AcDbLine
 10
-22.19861141854042
 20
-25.12666494010648
 30
0.0
 11
-22.96391369111774
 21
-9.05531721598329
 31
0.0
  0
LINE
  5
E6
330
52
100
AcDbEntity
  8
0
  6
Continuous
 62
     7
100
AcDbLine
 10
-25.58234160231207
 20
56.46292028674387
 30
0.0
 11
-40.68012109311111
 21
55.96401137745549
 31
0.0
  0
LINE
  5
E7
330
52
100
AcDbEntity
  8
0
  6
Continuous
 62
     7
100
AcDbLine
 10
-39.13058035778433
 20
52.96482969548919
 30
0.0
 11
-40.63058035778438
 21
52.96482969548919
 31
0.0
  0
LINE
  5
E8
330
52
100
AcDbEntity
  8
0
  6
Continuous
 62
     7
100
AcDbLine
 10
2.86941964221562
 20
56.46482969548919
 30
0.0
 11
-25.46674655321637
 21
56.46482969548919
 31
0.0
  0
LINE
  5
E9
330
52
100
AcDbEntity
  8
0
  6
Continuous
 62
     7
100
AcDbLine
 10
-39.13058035778433
 20
52.96482969548919
 30
0.0
 11
2.86941964221562
 21
52.96482969548919
 31
0.0
  0
LINE
  5
EA
330
52
100
AcDbEntity
  8
0
  6
Continuous
 62
     7
100
AcDbLine
 10
31.2055858376476
 20
56.46482969548919
 30
0.0
 11
2.86941964221562
 21
56.46482969548919
 31
0.0
  0
LINE
  5
EB
330
52
100
AcDbEntity
  8
0
  6
Continuous
 62
     7
100
AcDbLine
 10
46.41896037754235
 20
55.96401137745549
 30
0.0
 11
31.32118088674331
 21
56.46292028674387
 31
0.0
  0
LINE
  5
EC
330
52
100
AcDbEntity
  8
0
  6
Continuous
 62
     7
100
AcDbLine
 10
2.86941964221562
 20
52.96482969548919
 30
0.0
 11
44.86941964221556
 21
52.96482969548919
 31
0.0
  0
LINE
  5
ED
330
52
100
AcDbEntity
  8
0
  6
Continuous
 62
     7
100
AcDbLine
 10
46.36941964221562
 20
52.96482969548919
 30
0.0
 11
44.86941964221556
 21
52.96482969548919
 31
0.0
  0
ARC
  5
EE
330
52
100
AcDbEntity
  8
0
  6
Continuous
 62
     7
100
AcDbCircle
 10
26.43914849638503
 20
-25.05531721598329
 30
0.0
 40
1.5
100
AcDbArc
 50
270.0
 51
357.2736890060931
  0
ARC
  5
EF
330
52
100
AcDbEntity
  8
0
  6
Continuous
 62
     7
100
AcDbCircle
 10
-40.63058035778437
 20
-7.55531721598329
 30
0.0
 40
1.499999999999997
100
AcDbArc
 50
91.89266088876944
 51
180.0
  0
ARC
  5
F0
330
52
100
AcDbEntity
  8
0
  6
Continuous
 62
     7
100
AcDbCircle
 10
-25.46674655321635
 20
-9.05531721598329
 30
0.0
 40
3.5
100
AcDbArc
 50
90.0
 51
91.89266088876956
  0
ARC
  5
F1
330
52
100
AcDbEntity
  8
0
  6
Continuous
 62
     7
100
AcDbCircle
 10
-40.63058035778437
 20
-7.55531721598329
 30
0.0
 40
1.5
100
AcDbArc
 50
180.0
 51
270.0
  0
ARC
  5
F2
330
52
100
AcDbEntity
  8
0
  6
Continuous
 62
     7
100
AcDbCircle
 10
46.3694196422156
 20
-7.55531721598329
 30
0.0
 40
1.5
100
AcDbArc
 50
0.0
 51
88.10733911123057
  0
ARC
  5
F3
330
52
100
AcDbEntity
  8
0
  6
Continuous
 62
     7
100
AcDbCircle
 10
31.20558583764762
 20
-9.05531721598329
 30
0.0
 40
3.499999999999992
100
AcDbArc
 50
88.10733911123116
 51
90.00000000000053
  0
ARC
  5
F4
330
52
100
AcDbEntity
  8
0
  6
Continuous
 62
     7
100
AcDbCircle
 10
46.3694196422156
 20
-7.55531721598329
 30
0.0
 40
1.500000000000014
100
AcDbArc
 50
270.0
 51
0.0
  0
ARC
  5
F5
330
52
100
AcDbEntity
  8
0
  6
Continuous
 62
     7
100
AcDbCircle
 10
-20.70030921195379
 20
-25.05531721598329
 30
0.0
 40
1.499999999999974
100
AcDbArc
 50
182.7263109939068
 51
270.0
  0
ARC
  5
F6
330
52
100
AcDbEntity
  8
0
  6
Continuous
 62
     7
100
AcDbCircle
 10
-25.46674655321635
 20
-9.05531721598329
 30
0.0
 40
3.5
100
AcDbArc
 50
90.0
 51
91.89266088876956
  0
ARC
  5
F7
330
52
100
AcDbEntity
  8
0
  6
Continuous
 62
     7
100
AcDbCircle
 10
46.36941964221562
 20
54.46482969548919
 30
0.0
 40
1.5
100
AcDbArc
 50
0.0
 51
88.10733911123057
  0
ARC
  5
F8
330
52
100
AcDbEntity
  8
0
  6
Continuous
 62
     7
100
AcDbCircle
 10
46.36941964221562
 20
54.46482969548919
 30
0.0
 40
1.5
100
AcDbArc
 50
270.0
 51
0.0
  0
ARC
  5
F9
330
52
100
AcDbEntity
  8
0
  6
Continuous
 62
     7
100
AcDbCircle
 10
-40.63058035778438
 20
54.46482969548919
 30
0.0
 40
1.500000000000004
100
AcDbArc
 50
91.89266088876941
 51
180.0
  0
ARC
  5
FA
330
52
100
AcDbEntity
  8
0
  6
Continuous
 62
     7
100
AcDbCircle
 10
-25.46674655321637
 20
52.96482969548919
 30
0.0
 40
3.5
100
AcDbArc
 50
90.0
 51
91.89266088876937
  0
ARC
  5
FB
330
52
100
AcDbEntity
  8
0
  6
Continuous
 62
     7
100
AcDbCircle
 10
-40.63058035778438
 20
54.46482969548919
 30
0.0
 40
1.5
100
AcDbArc
 50
180.0
 51
270.0
  0
ARC
  5
FC
330
52
100
AcDbEntity
  8
0
  6
Continuous
 62
     7
100
AcDbCircle
 10
31.2055858376476
 20
52.96482969548919
 30
0.0
 40
3.499999999999994
100
AcDbArc
 50
88.10733911123046
 51
90.0
  0
CIRCLE
  5
FD
330
52
100
AcDbEntity
  8
1
  6
Continuous
 62
     7
100
AcDbCircle
 10
2.86941964221562
 20
129.2302690974728
 30
0.0
 40
45.0
  0
ENDBLK
  5
54
330
52
100
AcDbEntity
  8
0
100
AcDbBlockEnd
  0
BLOCK
  5
56
330
55
100
AcDbEntity
  8
0
100
AcDbBlockBegin
  2
adaputer
 70
     0
 10
22.86941964221562
 20
63.96482969548922
 30
0.0
  3
adaputer
  1

  0
LINE
  5
FE
330
55
100
AcDbEntity
  8
0
  6
Continuous
 62
     7
100
AcDbLine
 10
-24.33474702445103
 20
32.46482969548914
 30
0.0
 11
-25.33058035778438
 21
52.96482969548919
 31
0.0
  0
LINE
  5
FF
330
55
100
AcDbEntity
  8
0
  6
Continuous
 62
     7
100
AcDbLine
 10
2.86941964221562
 20
28.96482969548919
 30
0.0
 11
-23.88058035778438
 21
28.96482969548919
 31
0.0
  0
LINE
  5
100
330
55
100
AcDbEntity
  8
0
  6
Continuous
 62
     7
100
AcDbLine
 10
-23.88058035778438
 20
28.96482969548919
 30
0.0
 11
-24.33474702445103
 21
32.46482969548914
 31
0.0
  0
LINE
  5
101
330
55
100
AcDbEntity
  8
0
  6
Continuous
 62
     7
100
AcDbLine
 10
31.06941964221563
 20
52.96482969548919
 30
0.0
 11
30.07358630888227
 21
32.46482969548919
 31
0.0
  0
LINE
  5
102
330
55
100
AcDbEntity
  8
0
  6
Continuous
 62
     7
100
AcDbLine
 10
30.07358630888227
 20
32.46482969548919
 30
0.0
 11
29.61941964221562
 21
28.96482969548919
 31
0.0
  0
LINE
  5
103
330
55
100
AcDbEntity
  8
0
  6
Continuous
 62
     7
100
AcDbLine
 10
-24.33474702445103
 20
32.46482969548914
 30
0.0
 11
30.07358630888227
 21
32.46482969548919
 31
0.0
  0
LINE
  5
104
330
55
100
AcDbEntity
  8
0
  6
Continuous
 62
     7
100
AcDbLine
 10
29.61941964221562
 20
28.96482969548919
 30
0.0
 11
2.86941964221562
 21
28.96482969548919
 31
0.0
  0
ENDBLK
  5
57
330
55
100
AcDbEntity
  8
0
100
AcDbBlockEnd
  0
BLOCK
  5
11F
330
118
100
AcDbEntity
  8
0
100
AcDbBlockBegin
  2
*D6
 70
     1
 10
0.0
 20
0.0
 30
0.0
  3
*D6
  1

  0
LINE
  5
119
330
118
100
AcDbEntity
  8
1
  6
Continuous
 62
     2
100
AcDbLine
 10
-51.9416490472173
 20
-26.55531721598329
 30
0.0
 11
-51.9416490472173
 21
-5.55722662472861
 31
0.0
  0
LINE
  5
11A
330
118
100
AcDbEntity
  8
1
  6
Continuous
 62
     2
100
AcDbLine
 10
-25.58234160231206
 20
-5.55722662472861
 30
0.0
 11
-53.9416490472173
 21
-5.55722662472861
 31
0.0
  0
LINE
  5
11B
330
118
100
AcDbEntity
  8
1
  6
Continuous
 62
     2
100
AcDbLine
 10
-20.70030921195379
 20
-26.55531721598329
 30
0.0
 11
-53.9416490472173
 21
-26.55531721598329
 31
0.0
  0
SOLID
  5
11C
330
118
100
AcDbEntity
  8
1
 62
     2
100
AcDbTrace
 10
-52.40243278877318
 20
-23.05531721598329
 30
0.0
 11
-51.48086530566141
 21
-23.05531721598329
 31
0.0
 12
-51.9416490472173
 22
-26.55531721598329
 32
0.0
 13
-51.9416490472173
 23
-26.55531721598329
 33
0.0
  0
SOLID
  5
11D
330
118
100
AcDbEntity
  8
1
 62
     2
100
AcDbTrace
 10
-51.48086530566141
 20
-9.05722662472861
 30
0.0
 11
-52.40243278877318
 21
-9.05722662472861
 31
0.0
 12
-51.9416490472173
 22
-5.55722662472861
 32
0.0
 13
-51.9416490472173
 23
-5.55722662472861
 33
0.0
  0
MTEXT
  5
11E
330
118
100
AcDbEntity
  8
1
 62
     7
100
AcDbMText
 10
-53.9416490472173
 20
-17.9929124510692
 30
0.0
 40
3.0
 41
0.0
 71
     7
 72
     1
  1
21
  7
CONVERTER_12
 11
0.0
 21
1.0
 31
0.0
 73
     1
 44
0.60024009603842
  0
ENDBLK
  5
120
330
118
100
AcDbEntity
  8
0
100
AcDbBlockEnd
  0
BLOCK
  5
12A
330
123
100
AcDbEntity
  8
0
100
AcDbBlockBegin
  2
*D7
 70
     1
 10
0.0
 20
0.0
 30
0.0
  3
*D7
  1

  0
LINE
  5
124
330
123
100
AcDbEntity
  8
1
  6
Continuous
 62
     2
100
AcDbLine
 10
-22.96391369111774
 20
-36.55531721598329
 30
0.0
 11
28.70275297554898
 21
-36.55531721598329
 31
0.0
  0
LINE
  5
125
330
123
100
AcDbEntity
  8
1
  6
Continuous
 62
     2
100
AcDbLine
 10
28.70275297554898
 20
-9.05531721598329
 30
0.0
 11
28.70275297554898
 21
-38.55531721598329
 31
0.0
  0
LINE
  5
126
330
123
100
AcDbEntity
  8
1
  6
Continuous
 62
     2
100
AcDbLine
 10
-22.96391369111774
 20
-9.05531721598329
 30
0.0
 11
-22.96391369111774
 21
-38.55531721598329
 31
0.0
  0
SOLID
  5
127
330
123
100
AcDbEntity
  8
1
 62
     2
100
AcDbTrace
 10
-19.46391369111774
 20
-36.0945334744274
 30
0.0
 11
-19.46391369111774
 21
-37.01610095753917
 31
0.0
 12
-22.96391369111774
 22
-36.55531721598329
 32
0.0
 13
-22.96391369111774
 23
-36.55531721598329
 33
0.0
  0
SOLID
  5
128
330
123
100
AcDbEntity
  8
1
 62
     2
100
AcDbTrace
 10
25.20275297554898
 20
-37.01610095753917
 30
0.0
 11
25.20275297554898
 21
-36.0945334744274
 31
0.0
 12
28.70275297554898
 22
-36.55531721598329
 32
0.0
 13
28.70275297554898
 23
-36.55531721598329
 33
0.0
  0
MTEXT
  5
129
330
123
100
AcDbEntity
  8
1
 62
     7
100
AcDbMText
 10
0.32009053833143
 20
-34.55532317919157
 30
0.0
 40
3.0
 41
0.0
 71
     7
 72
     1
  1
\C7;{\Fgdt;n}\C7;51
  7
CONVERTER_12
 11
0.9999999999970619
 21
2.424068405545306E-6
 31
0.0
 73
     1
 44
0.60024009603842
  0
ENDBLK
  5
12B
330
123
100
AcDbEntity
  8
0
100
AcDbBlockEnd
  0
BLOCK
  5
135
330
12E
100
AcDbEntity
  8
0
100
AcDbBlockBegin
  2
*D8
 70
     1
 10
0.0
 20
0.0
 30
0.0
  3
*D8
  1

  0
LINE
  5
12F
330
12E
100
AcDbEntity
  8
0
  6
Continuous
 62
     2
100
AcDbLine
 10
-42.13058035778437
 20
66.49646344288038
 30
0.0
 11
47.86941964221563
 21
66.49646344288038
 31
0.0
  0
LINE
  5
130
330
12E
100
AcDbEntity
  8
0
  6
Continuous
 62
     2
100
AcDbLine
 10
-42.13058035778437
 20
54.46482969548919
 30
0.0
 11
-42.13058035778437
 21
68.49646344288038
 31
0.0
  0
LINE
  5
131
330
12E
100
AcDbEntity
  8
0
  6
Continuous
 62
     2
100
AcDbLine
 10
47.86941964221563
 20
54.46482969548919
 30
0.0
 11
47.86941964221563
 21
68.49646344288038
 31
0.0
  0
SOLID
  5
132
330
12E
100
AcDbEntity
  8
0
 62
     2
100
AcDbTrace
 10
-38.63058035778437
 20
66.95724718443627
 30
0.0
 11
-38.63058035778437
 21
66.0356797013245
 31
0.0
 12
-42.13058035778437
 22
66.49646344288038
 32
0.0
 13
-42.13058035778437
 23
66.49646344288038
 33
0.0
  0
SOLID
  5
133
330
12E
100
AcDbEntity
  8
0
 62
     2
100
AcDbTrace
 10
44.36941964221563
 20
66.0356797013245
 30
0.0
 11
44.36941964221563
 21
66.95724718443627
 31
0.0
 12
47.86941964221563
 22
66.49646344288038
 32
0.0
 13
47.86941964221563
 23
66.49646344288038
 33
0.0
  0
MTEXT
  5
134
330
12E
100
AcDbEntity
  8
0
 62
     7
100
AcDbMText
 10
0.21086630737995
 20
68.4964574796721
 30
0.0
 40
3.0
 41
0.0
 71
     7
 72
     1
  1
\C7;{\Fgdt;n}\C7;90
  7
CONVERTER_12
 11
0.9999999999970619
 21
2.424068405545306E-6
 31
0.0
 73
     1
 44
0.60024009603842
  0
ENDBLK
  5
136
330
12E
100
AcDbEntity
  8
0
100
AcDbBlockEnd
  0
BLOCK
  5
140
330
139
100
AcDbEntity
  8
0
100
AcDbBlockBegin
  2
*D9
 70
     1
 10
0.0
 20
0.0
 30
0.0
  3
*D9
  1

  0
LINE
  5
13A
330
139
100
AcDbEntity
  8
0
  6
Continuous
 62
     2
100
AcDbLine
 10
-25.33058035778438
 20
18.80155201983039
 30
0.0
 11
31.06941964221563
 21
18.80155201983039
 31
0.0
  0
LINE
  5
13B
330
139
100
AcDbEntity
  8
0
  6
Continuous
 62
     2
100
AcDbLine
 10
-25.33058035778438
 20
52.9648296954892
 30
0.0
 11
-25.33058035778438
 21
16.80155201983039
 31
0.0
  0
LINE
  5
13C
330
139
100
AcDbEntity
  8
0
  6
Continuous
 62
     2
100
AcDbLine
 10
31.06941964221563
 20
52.9648296954892
 30
0.0
 11
31.06941964221563
 21
16.80155201983039
 31
0.0
  0
SOLID
  5
13D
330
139
100
AcDbEntity
  8
0
 62
     2
100
AcDbTrace
 10
-21.83058035778438
 20
19.26233576138628
 30
0.0
 11
-21.83058035778438
 21
18.3407682782745
 31
0.0
 12
-25.33058035778438
 22
18.80155201983039
 32
0.0
 13
-25.33058035778438
 23
18.80155201983039
 33
0.0
  0
SOLID
  5
13E
330
139
100
AcDbEntity
  8
0
 62
     2
100
AcDbTrace
 10
27.56941964221563
 20
18.3407682782745
 30
0.0
 11
27.56941964221563
 21
19.26233576138628
 31
0.0
 12
31.06941964221563
 22
18.80155201983039
 32
0.0
 13
31.06941964221563
 23
18.80155201983039
 33
0.0
  0
MTEXT
  5
13F
330
139
100
AcDbEntity
  8
0
 62
     7
100
AcDbMText
 10
0.20864617104245
 20
20.80154605662211
 30
0.0
 40
3.0
 41
0.0
 71
     7
 72
     1
  1
\C7;{\Fgdt;n}\C7;56
  7
CONVERTER_12
 11
0.9999999999970619
 21
2.424068405545306E-6
 31
0.0
 73
     1
 44
0.60024009603842
  0
ENDBLK
  5
141
330
139
100
AcDbEntity
  8
0
100
AcDbBlockEnd
  0
BLOCK
  5
14B
330
144
100
AcDbEntity
  8
0
100
AcDbBlockBegin
  2
*D10
 70
     1
 10
0.0
 20
0.0
 30
0.0
  3
*D10
  1

  0
LINE
  5
145
330
144
100
AcDbEntity
  8
1
  6
Continuous
 62
     2
100
AcDbLine
 10
-60.1149036176631
 20
28.9648296954892
 30
0.0
 11
-60.1149036176631
 21
56.46482969548919
 31
0.0
  0
LINE
  5
146
330
144
100
AcDbEntity
  8
1
  6
Continuous
 62
     2
100
AcDbLine
 10
-25.46674655321636
 20
56.46482969548919
 30
0.0
 11
-62.1149036176631
 21
56.46482969548919
 31
0.0
  0
LINE
  5
147
330
144
100
AcDbEntity
  8
1
  6
Continuous
 62
     2
100
AcDbLine
 10
-23.88058035778438
 20
28.9648296954892
 30
0.0
 11
-62.1149036176631
 21
28.9648296954892
 31
0.0
  0
SOLID
  5
148
330
144
100
AcDbEntity
  8
1
 62
     2
100
AcDbTrace
 10
-59.65411987610722
 20
52.96482969548919
 30
0.0
 11
-60.57568735921899
 21
52.96482969548919
 31
0.0
 12
-60.1149036176631
 22
56.46482969548919
 32
0.0
 13
-60.1149036176631
 23
56.46482969548919
 33
0.0
  0
SOLID
  5
149
330
144
100
AcDbEntity
  8
1
 62
     2
100
AcDbTrace
 10
-60.57568735921899
 20
32.4648296954892
 30
0.0
 11
-59.65411987610722
 21
32.4648296954892
 31
0.0
 12
-60.1149036176631
 22
28.9648296954892
 32
0.0
 13
-60.1149036176631
 23
28.9648296954892
 33
0.0
  0
MTEXT
  5
14A
330
144
100
AcDbEntity
  8
1
 62
     7
100
AcDbMText
 10
-62.1149036176631
 20
42.15939215234538
 30
0.0
 40
3.0
 41
0.0
 71
     7
 72
     1
  1
28
  7
CONVERTER_12
 11
0.0
 21
1.0
 31
0.0
 73
     1
 44
0.60024009603842
  0
ENDBLK
  5
14C
330
144
100
AcDbEntity
  8
0
100
AcDbBlockEnd
  0
BLOCK
  5
156
330
14F
100
AcDbEntity
  8
0
100
AcDbBlockBegin
  2
*D11
 70
     1
 10
0.0
 20
0.0
 30
0.0
  3
*D11
  1

  0
LINE
  5
150
330
14F
100
AcDbEntity
  8
1
  6
Continuous
 62
     2
100
AcDbLine
 10
-51.9416490472173
 20
28.96482969548919
 30
0.0
 11
-51.9416490472173
 21
52.96482969548919
 31
0.0
  0
LINE
  5
151
330
14F
100
AcDbEntity
  8
1
  6
Continuous
 62
     2
100
AcDbLine
 10
-39.13058035778432
 20
52.96482969548919
 30
0.0
 11
-53.9416490472173
 21
52.96482969548919
 31
0.0
  0
LINE
  5
152
330
14F
100
AcDbEntity
  8
1
  6
Continuous
 62
     2
100
AcDbLine
 10
-23.88058035778438
 20
28.96482969548919
 30
0.0
 11
-53.9416490472173
 21
28.96482969548919
 31
0.0
  0
SOLID
  5
153
330
14F
100
AcDbEntity
  8
1
 62
     2
100
AcDbTrace
 10
-52.40243278877318
 20
32.46482969548919
 30
0.0
 11
-51.48086530566141
 21
32.46482969548919
 31
0.0
 12
-51.9416490472173
 22
28.96482969548919
 32
0.0
 13
-51.9416490472173
 23
28.96482969548919
 33
0.0
  0
SOLID
  5
154
330
14F
100
AcDbEntity
  8
1
 62
     2
100
AcDbTrace
 10
-51.48086530566141
 20
49.46482969548919
 30
0.0
 11
-52.40243278877318
 21
49.46482969548919
 31
0.0
 12
-51.9416490472173
 22
52.96482969548919
 32
0.0
 13
-51.9416490472173
 23
52.96482969548919
 33
0.0
  0
MTEXT
  5
155
330
14F
100
AcDbEntity
  8
1
 62
     7
100
AcDbMText
 10
-53.9416490472173
 20
37.80574556821749
 30
0.0
 40
3.0
 41
0.0
 71
     7
 72
     1
  1
24
  7
CONVERTER_12
 11
0.0
 21
1.0
 31
0.0
 73
     1
 44
0.60024009603842
  0
ENDBLK
  5
157
330
14F
100
AcDbEntity
  8
0
100
AcDbBlockEnd
  0
BLOCK
  5
15F
330
15A
100
AcDbEntity
  8
0
100
AcDbBlockBegin
  2
*D12
 70
     1
 10
0.0
 20
0.0
 30
0.0
  3
*D12
  1

  0
LINE
  5
15B
330
15A
100
AcDbEntity
  8
1
  6
Continuous
 62
     2
100
AcDbLine
 10
18.89189751347897
 20
145.0267941224546
 30
0.0
 11
-39.38322059898422
 21
87.57348577691397
 31
0.0
  0
SOLID
  5
15C
330
15A
100
AcDbEntity
  8
1
 62
     2
100
AcDbTrace
 10
-10.98417420038865
 20
116.2191100676
 30
0.0
 11
-10.33717136442489
 21
115.5628525295985
 31
0.0
 12
-13.15305822904774
 22
113.433744072491
 32
0.0
 13
-13.15305822904774
 23
113.433744072491
 33
0.0
  0
SOLID
  5
15D
330
15A
100
AcDbEntity
  8
1
 62
     2
100
AcDbTrace
 10
16.72301348481988
 20
142.2414281273456
 30
0.0
 11
16.07601064885612
 21
142.8976856653471
 31
0.0
 12
18.89189751347897
 22
145.0267941224546
 32
0.0
 13
18.89189751347897
 23
145.0267941224546
 33
0.0
  0
MTEXT
  5
15E
330
15A
100
AcDbEntity
  8
1
 62
     7
100
AcDbMText
 10
-39.97555061128302
 20
89.79806330006977
 30
0.0
 40
3.0
 41
0.0
 71
     7
 72
     1
  1
\C7;{\Fgdt;n}\C7;45
  7
CONVERTER_12
 11
0.7121101276117046
 21
0.7020677788880797
 31
0.0
 73
     1
 44
0.60024009603842
  0
ENDBLK
  5
160
330
15A
100
AcDbEntity
  8
0
100
AcDbBlockEnd
  0
ENDSEC
  0
SECTION
  2
ENTITIES
  0
INSERT
  5
58
330
1F
100
AcDbEntity
  8
0
100
AcDbBlockReference
  2
開示A4枠
 10
-110.4069732547231
 20
-96.50913529381064
 30
0.0
  0
INSERT
  5
59
330
1F
100
AcDbEntity
  8
0
100
AcDbBlockReference
  2
packin
 10
2.86941964221562
 20
24.96482969548919
 30
0.0
  0
INSERT
  5
5A
330
1F
100
AcDbEntity
  8
0
100
AcDbBlockReference
  2
body
 10
-42.13058035778438
 20
20.46482969548919
 30
0.0
  0
INSERT
  5
5B
330
1F
100
AcDbEntity
  8
0
100
AcDbBlockReference
  2
adaputer
 10
22.86941964221562
 20
63.96482969548922
 30
0.0
  0
LINE
  5
105
330
1F
100
AcDbEntity
  8
1
  6
Continuous
 62
     2
100
AcDbLine
 10
-12.2468372851367
 20
-47.0384404647614
 30
0.0
 11
18.7531627148633
 21
-47.0384404647614
 31
0.0
  0
LINE
  5
106
330
1F
100
AcDbEntity
  8
1
  6
DASH_CENTER
 62
     2
100
AcDbLine
 10
2.86941964221562
 20
-2.38233592093908
 30
0.0
 11
2.86941964221562
 21
-29.38233592093908
 31
0.0
  0
LINE
  5
107
330
1F
100
AcDbEntity
  8
0
  6
DASH_CENTER
 62
     2
100
AcDbLine
 10
2.86941964221562
 20
25.96482969548919
 30
0.0
 11
2.86941964221562
 21
59.4648296954892
 31
0.0
  0
LINE
  5
108
330
1F
100
AcDbEntity
  8
1
  6
DASH_CENTER
 62
     2
100
AcDbLine
 10
2.86941964221562
 20
176.2302690974728
 30
0.0
 11
2.86941964221562
 21
81.27061152062092
 31
0.0
  0
LINE
  5
109
330
1F
100
AcDbEntity
  8
1
  6
DASH_CENTER
 62
     2
100
AcDbLine
 10
-44.13058035778438
 20
129.2302690974728
 30
0.0
 11
49.86941964221562
 21
129.2302690974728
 31
0.0
  0
MTEXT
  5
10B
330
1F
100
AcDbEntity
  8
1
 62
     7
100
AcDbMText
 10
47.09302674527693
 20
-84.00913529381064
 30
0.0
 40
2.5
 41
0.0
 71
     5
 72
     1
  1
7
  7
CONVERTER_12
 73
     1
 44
0.7202881152461
  0
MTEXT
  5
10C
330
1F
100
AcDbEntity
  8
1
 62
     7
100
AcDbMText
 10
41.34302674527693
 20
-84.00913529381064
 30
0.0
 40
2.5
 41
0.0
 71
     5
 72
     1
  1
04
  7
CONVERTER_12
 73
     1
 44
0.7202881152461
  0
MTEXT
  5
10D
330
1F
100
AcDbEntity
  8
1
 62
     7
100
AcDbMText
 10
30.09302674527692
 20
-84.00913529381064
 30
0.0
 40
2.5
 41
0.0
 71
     5
 72
     1
  1
7
  7
CONVERTER_12
 73
     1
 44
0.7202881152461
  0
MTEXT
  5
10E
330
1F
100
AcDbEntity
  8
1
 62
     7
100
AcDbMText
 10
24.34302674527692
 20
-84.00913529381064
 30
0.0
 40
2.5
 41
0.0
 71
     5
 72
     1
  1
04
  7
CONVERTER_12
 73
     1
 44
0.7202881152461
  0
MTEXT
  5
10F
330
1F
100
AcDbEntity
  8
1
 62
     7
100
AcDbMText
 10
13.09302674527692
 20
-84.00913529381064
 30
0.0
 40
2.5
 41
0.0
 71
     5
 72
     1
  1
7
  7
CONVERTER_12
 73
     1
 44
0.7202881152461
  0
MTEXT
  5
110
330
1F
100
AcDbEntity
  8
1
 62
     7
100
AcDbMText
 10
7.34302674527692
 20
-84.00913529381064
 30
0.0
 40
2.5
 41
0.0
 71
     5
 72
     1
  1
04
  7
CONVERTER_12
 73
     1
 44
0.7202881152461
  0
MTEXT
  5
111
330
1F
100
AcDbEntity
  8
1
 62
     7
100
AcDbMText
 10
-9.65697325472308
 20
-84.00913529381064
 30
0.0
 40
2.5
 41
0.0
 71
     5
 72
     1
  1
04
  7
CONVERTER_12
 73
     1
 44
0.7202881152461
  0
MTEXT
  5
112
330
1F
100
AcDbEntity
  8
1
 62
     7
100
AcDbMText
 10
-3.90697325472308
 20
-84.00913529381064
 30
0.0
 40
2.5
 41
0.0
 71
     5
 72
     1
  1
7
  7
CONVERTER_12
 73
     1
 44
0.7202881152461
  0
MTEXT
  5
113
330
1F
100
AcDbEntity
  8
1
 62
     7
100
AcDbMText
 10
3.0496905583487
 20
-44.5073603179976
 30
0.0
 40
3.0
 41
0.0
 71
     5
 72
     1
  1
ソケットを外した状態
  7
CONVERTER_11
 73
     1
 44
0.54545454545455
  0
MTEXT
  5
114
330
1F
100
AcDbEntity
  8
1
 62
     7
100
AcDbMText
 10
-25.15697325472311
 20
-79.5091352938106
 30
0.0
 40
3.5
 41
0.0
 71
     5
 72
     1
  1
1
  7
CONVERTER_12
 73
     1
 44
0.7202881152461
  0
MTEXT
  5
115
330
1F
100
AcDbEntity
  8
1
 62
     7
100
AcDbMText
 10
-53.40697325472311
 20
-73.75913529381059
 30
0.0
 40
3.5
 41
0.0
 71
     5
 72
     1
  1
洗濯機排水口
  7
CONVERTER_11
 73
     1
 44
0.54545454545455
  0
MTEXT
  5
116
330
1F
100
AcDbEntity
  8
1
 62
     7
100
AcDbMText
 10
-53.40697325472311
 20
-82.2591352938106
 30
0.0
 40
3.5
 41
0.0
 71
     5
 72
     1
  1
H560-50
  7
CONVERTER_12
 73
     1
 44
0.7202881152461
  0
MTEXT
  5
117
330
1F
100
AcDbEntity
  8
1
 62
     7
100
AcDbMText
 10
-16.65697325472311
 20
-79.5091352938106
 30
0.0
 40
3.5
 41
0.0
 71
     5
 72
     1
  1
1
  7
CONVERTER_12
 73
     1
 44
0.7202881152461
  0
DIMENSION
  5
122
330
1F
100
AcDbEntity
  8
1
100
AcDbDimension
  2
*D6
 10
-51.9416490472173
 20
-26.55531721598329
 30
0.0
 11
-55.4416490472173
 21
-16.1929124510692
 31
0.0
 70
    32
  1
<>
 71
     5
 42
-1.0
 53
90.0
  3
ME10_DIM_10
100
AcDbAlignedDimension
 13
-25.58234160231206
 23
-5.55722662472861
 33
0.0
 14
-20.70030921195379
 24
-26.55531721598329
 34
0.0
 50
90.0
100
AcDbRotatedDimension
  0
DIMENSION
  5
12D
330
1F
100
AcDbEntity
  8
1
100
AcDbDimension
  2
*D7
 10
-22.96391369111774
 20
-36.55531721598329
 30
0.0
 11
2.7800905383242
 21
-33.05531721598329
 31
0.0
 70
    33
  1
{\Fgdt;n}51
 71
     5
 42
-1.0
 53
0.00013888888889
  3
ME10_DIM_11
100
AcDbAlignedDimension
 13
28.70275297554898
 23
-9.05531721598329
 33
0.0
 14
-22.96391369111774
 24
-9.05531721598329
 34
0.0
  0
DIMENSION
  5
138
330
1F
100
AcDbEntity
  8
0
100
AcDbDimension
  2
*D8
 10
-42.13058035778437
 20
66.49646344288038
 30
0.0
 11
3.12086630737272
 21
69.99646344288038
 31
0.0
 70
    32
  1
<>
 71
     5
 42
-1.0
 53
0.00013888888889
  3
ME10_DIM_12
100
AcDbAlignedDimension
 13
47.86941964221562
 23
54.46482969548919
 33
0.0
 14
-42.13058035778438
 24
54.46482969548919
 34
0.0
100
AcDbRotatedDimension
  0
DIMENSION
  5
143
330
1F
100
AcDbEntity
  8
0
100
AcDbDimension
  2
*D9
 10
-25.33058035778438
 20
18.80155201983039
 30
0.0
 11
3.11864617103522
 21
22.30155201983039
 31
0.0
 70
    32
  1
<>
 71
     5
 42
-1.0
 53
0.00013888888889
  3
ME10_DIM_13
100
AcDbAlignedDimension
 13
31.06941964221563
 23
52.96482969548919
 33
0.0
 14
-25.33058035778438
 24
52.96482969548919
 34
0.0
100
AcDbRotatedDimension
  0
DIMENSION
  5
14E
330
1F
100
AcDbEntity
  8
1
100
AcDbDimension
  2
*D10
 10
-60.1149036176631
 20
56.46482969548919
 30
0.0
 11
-63.6149036176631
 21
44.40939215234538
 31
0.0
 70
    32
  1
28
 71
     5
 42
-1.0
 53
90.0
  3
ME10_DIM_14
100
AcDbAlignedDimension
 13
-23.88058035778438
 23
28.96482969548919
 33
0.0
 14
-25.46674655321637
 24
56.46482969548919
 34
0.0
 50
90.0
100
AcDbRotatedDimension
  0
DIMENSION
  5
159
330
1F
100
AcDbEntity
  8
1
100
AcDbDimension
  2
*D11
 10
-51.9416490472173
 20
28.96482969548919
 30
0.0
 11
-55.4416490472173
 21
40.05574556821749
 31
0.0
 70
    32
  1
<>
 71
     5
 42
-1.0
 53
90.0
  3
ME10_DIM_15
100
AcDbAlignedDimension
 13
-39.13058035778433
 23
52.96482969548919
 33
0.0
 14
-23.88058035778438
 24
28.96482969548919
 34
0.0
 50
90.0
100
AcDbRotatedDimension
  0
INSERT
  5
161
330
1F
100
AcDbEntity
  8
1
100
AcDbBlockReference
  2
*D12
 10
0.0
 20
0.0
 30
0.0
  0
ENDSEC
  0
SECTION
  2
OBJECTS
  0
DICTIONARY
  5
C
330
0
100
AcDbDictionary
281
     1
  3
ACAD_GROUP
350
D
  3
ACAD_LAYOUT
350
1A
  3
ACAD_MATERIAL
350
3B
  3
ACAD_MLEADERSTYLE
350
164
  3
ACAD_MLINESTYLE
350
17
  3
ACAD_PLOTSETTINGS
350
19
  3
ACAD_PLOTSTYLENAME
350
E
  3
ACAD_VISUALSTYLE
350
2A
  3
AcDbVariableDictionary
350
162
  0
DICTIONARY
  5
D
102
{ACAD_REACTORS
330
C
102
}
330
C
100
AcDbDictionary
281
     1
  0
DICTIONARY
  5
1A
102
{ACAD_REACTORS
330
C
102
}
330
C
100
AcDbDictionary
281
     1
  3
Layout1
350
1E
  3
Layout2
350
26
  3
Model
350
22
  0
DICTIONARY
  5
3B
102
{ACAD_REACTORS
330
C
102
}
330
C
100
AcDbDictionary
281
     1
  3
ByBlock
350
3D
  3
ByLayer
350
3C
  3
Global
350
3E
  0
DICTIONARY
  5
164
102
{ACAD_REACTORS
330
C
102
}
330
C
100
AcDbDictionary
281
     1
  0
DICTIONARY
  5
17
102
{ACAD_REACTORS
330
C
102
}
330
C
100
AcDbDictionary
281
     1
  3
Standard
350
18
  0
DICTIONARY
  5
19
102
{ACAD_REACTORS
330
C
102
}
330
C
100
AcDbDictionary
281
     1
  0
ACDBDICTIONARYWDFLT
  5
E
102
{ACAD_REACTORS
330
C
102
}
330
C
100
AcDbDictionary
281
     1
  3
Normal
350
F
100
AcDbDictionaryWithDefault
340
F
  0
DICTIONARY
  5
2A
102
{ACAD_REACTORS
330
C
102
}
330
C
100
AcDbDictionary
281
     1
  3
2dWireframe
350
2F
  3
3D Hidden
350
31
  3
3dWireframe
350
30
  3
Basic
350
32
  3
Brighten
350
36
  3
ColorChange
350
3A
  3
Conceptual
350
34
  3
Dim
350
35
  3
Facepattern
350
39
  3
Flat
350
2B
  3
FlatWithEdges
350
2C
  3
Gouraud
350
2D
  3
GouraudWithEdges
350
2E
  3
Linepattern
350
38
  3
Realistic
350
33
  3
Thicken
350
37
  0
DICTIONARY
  5
162
102
{ACAD_REACTORS
330
C
102
}
330
C
100
AcDbDictionary
281
     1
  3
DIMASSOC
350
165
  3
HIDETEXT
350
166
  0
LAYOUT
  5
1E
102
{ACAD_REACTORS
330
1A
102
}
330
1A
100
AcDbPlotSettings
  1

  2
none_device
  4

  6

 40
0.0
 41
0.0
 42
0.0
 43
0.0
 44
0.0
 45
0.0
 46
0.0
 47
0.0
 48
0.0
 49
0.0
140
0.0
141
0.0
142
1.0
143
1.0
 70
   688
 72
     0
 73
     0
 74
     5
  7

 75
    16
147
1.0
148
0.0
149
0.0
100
AcDbLayout
  1
Layout1
 70
     1
 71
     1
 10
0.0
 20
0.0
 11
12.0
 21
9.0
 12
0.0
 22
0.0
 32
0.0
 14
1.00000000000000E+20
 24
1.00000000000000E+20
 34
1.00000000000000E+20
 15
-1.00000000000000E+20
 25
-1.00000000000000E+20
 35
-1.00000000000000E+20
146
0.0
 13
0.0
 23
0.0
 33
0.0
 16
1.0
 26
0.0
 36
0.0
 17
0.0
 27
1.0
 37
0.0
 76
     0
330
1B
  0
LAYOUT
  5
26
102
{ACAD_REACTORS
330
1A
102
}
330
1A
100
AcDbPlotSettings
  1

  2
none_device
  4

  6

 40
0.0
 41
0.0
 42
0.0
 43
0.0
 44
0.0
 45
0.0
 46
0.0
 47
0.0
 48
0.0
 49
0.0
140
0.0
141
0.0
142
1.0
143
1.0
 70
   688
 72
     0
 73
     0
 74
     5
  7

 75
    16
147
1.0
148
0.0
149
0.0
100
AcDbLayout
  1
Layout2
 70
     1
 71
     2
 10
0.0
 20
0.0
 11
0.0
 21
0.0
 12
0.0
 22
0.0
 32
0.0
 14
0.0
 24
0.0
 34
0.0
 15
0.0
 25
0.0
 35
0.0
146
0.0
 13
0.0
 23
0.0
 33
0.0
 16
1.0
 26
0.0
 36
0.0
 17
0.0
 27
1.0
 37
0.0
 76
     0
330
23
  0
LAYOUT
  5
22
102
{ACAD_REACTORS
330
1A
102
}
330
1A
100
AcDbPlotSettings
  1

  2
none_device
  4

  6

 40
0.0
 41
0.0
 42
0.0
 43
0.0
 44
0.0
 45
0.0
 46
0.0
 47
0.0
 48
0.0
 49
0.0
140
0.0
141
0.0
142
1.0
143
1.0
 70
  1712
 72
     0
 73
     0
 74
     0
  7

 75
     0
147
1.0
148
0.0
149
0.0
100
AcDbLayout
  1
Model
 70
     1
 71
     0
 10
0.0
 20
0.0
 11
12.0
 21
9.0
 12
0.0
 22
0.0
 32
0.0
 14
-110.4069732547231
 24
-96.50913529381064
 34
0.0
 15
99.59302674527692
 25
200.4908647061894
 35
0.0
146
0.0
 13
0.0
 23
0.0
 33
0.0
 16
1.0
 26
0.0
 36
0.0
 17
0.0
 27
1.0
 37
0.0
 76
     0
330
1F
331
29
  0
MATERIAL
  5
3D
102
{ACAD_REACTORS
330
3B
102
}
102
{ACAD_XDICTIONARY
360
189
102
}
330
3B
100
AcDbMaterial
  1
ByBlock
  0
MATERIAL
  5
3C
102
{ACAD_REACTORS
330
3B
102
}
102
{ACAD_XDICTIONARY
360
187
102
}
330
3B
100
AcDbMaterial
  1
ByLayer
  0
MATERIAL
  5
3E
102
{ACAD_REACTORS
330
3B
102
}
102
{ACAD_XDICTIONARY
360
18B
102
}
330
3B
100
AcDbMaterial
  1
Global
  0
MLINESTYLE
  5
18
102
{ACAD_REACTORS
330
17
102
}
330
17
100
AcDbMlineStyle
  2
Standard
 70
     0
  3

 62
   256
 51
90.0
 52
90.0
 71
     2
 49
0.5
 62
   256
  6
BYLAYER
 49
-0.5
 62
   256
  6
BYLAYER
  0
ACDBPLACEHOLDER
  5
F
102
{ACAD_REACTORS
330
E
102
}
330
E
  0
VISUALSTYLE
  5
2F
102
{ACAD_REACTORS
330
2A
102
}
102
{ACAD_XDICTIONARY
360
16F
102
}
330
2A
100
AcDbVisualStyle
  2
2dWireframe
 70
     4
 71
     0
 72
     2
 73
     0
 90
        0
 40
-0.6
 41
-30.0
 62
     5
 63
     7
 74
     1
 91
        4
 64
     7
 65
   257
 75
     1
175
     1
 42
1.0
 92
        0
 66
   257
 43
1.0
 76
     1
 77
     6
 78
     2
 67
     7
 79
     5
170
     0
171
     0
290
     0
174
     0
 93
        1
 44
0.0
173
     0
291
     0
 45
0.0
1001
ACAD
1000
AcDbSavedByObjectVersion
1070
     0
  0
VISUALSTYLE
  5
31
102
{ACAD_REACTORS
330
2A
102
}
102
{ACAD_XDICTIONARY
360
173
102
}
330
2A
100
AcDbVisualStyle
  2
3D Hidden
 70
     6
 71
     1
 72
     2
 73
     2
 90
        0
 40
-0.6
 41
-30.0
 62
     5
 63
     7
 74
     2
 91
        2
 64
     7
 65
   257
 75
     2
175
     1
 42
40.0
 92
        0
 66
   257
 43
1.0
 76
     1
 77
     6
 78
     2
 67
     7
 79
     3
170
     0
171
     0
290
     0
174
     0
 93
        1
 44
0.0
173
     0
291
     0
 45
0.0
1001
ACAD
1000
AcDbSavedByObjectVersion
1070
     0
  0
VISUALSTYLE
  5
30
102
{ACAD_REACTORS
330
2A
102
}
102
{ACAD_XDICTIONARY
360
171
102
}
330
2A
100
AcDbVisualStyle
  2
3dWireframe
 70
     5
 71
     0
 72
     2
 73
     0
 90
        0
 40
-0.6
 41
-30.0
 62
     5
 63
     7
 74
     1
 91
        4
 64
     7
 65
   257
 75
     1
175
     1
 42
1.0
 92
        0
 66
   257
 43
1.0
 76
     1
 77
     6
 78
     2
 67
     7
 79
     5
170
     0
171
     0
290
     0
174
     0
 93
        1
 44
0.0
173
     0
291
     0
 45
0.0
1001
ACAD
1000
AcDbSavedByObjectVersion
1070
     0
  0
VISUALSTYLE
  5
32
102
{ACAD_REACTORS
330
2A
102
}
102
{ACAD_XDICTIONARY
360
175
102
}
330
2A
100
AcDbVisualStyle
  2
Basic
 70
     7
 71
     1
 72
     0
 73
     1
 90
        0
 40
-0.6
 41
-30.0
 62
     5
 63
     7
 74
     0
 91
        4
 64
     7
 65
   257
 75
     1
175
     1
 42
1.0
 92
        8
 66
     7
 43
1.0
 76
     1
 77
     6
 78
     2
 67
     7
 79
     5
170
     0
171
     0
290
     0
174
     0
 93
        1
 44
0.0
173
     0
291
     1
 45
0.0
1001
ACAD
1000
AcDbSavedByObjectVersion
1070
     0
  0
VISUALSTYLE
  5
36
102
{ACAD_REACTORS
330
2A
102
}
102
{ACAD_XDICTIONARY
360
17D
102
}
330
2A
100
AcDbVisualStyle
  2
Brighten
 70
    12
 71
     2
 72
     2
 73
     0
 90
        0
 40
-0.6
 41
-30.0
 62
     5
 63
     7
 74
     1
 91
        4
 64
     7
 65
   257
 75
     1
175
     1
 42
1.0
 92
        8
 66
     7
 43
1.0
 76
     1
 77
     6
 78
     2
 67
     7
 79
     5
170
     0
171
     0
290
     0
174
     0
 93
        1
 44
50.0
173
     0
291
     1
 45
0.0
1001
ACAD
1000
AcDbSavedByObjectVersion
1070
     0
  0
VISUALSTYLE
  5
3A
102
{ACAD_REACTORS
330
2A
102
}
102
{ACAD_XDICTIONARY
360
185
102
}
330
2A
100
AcDbVisualStyle
  2
ColorChange
 70
    16
 71
     2
 72
     2
 73
     3
 90
        0
 40
-0.6
 41
-30.0
 62
     5
 63
     8
 74
     1
 91
        4
 64
     7
 65
   257
 75
     1
175
     1
 42
1.0
 92
        8
 66
     8
 43
1.0
 76
     1
 77
     6
 78
     2
 67
     7
 79
     5
170
     0
171
     0
290
     0
174
     0
 93
        1
 44
0.0
173
     0
291
     1
 45
0.0
1001
ACAD
1000
AcDbSavedByObjectVersion
1070
     0
  0
VISUALSTYLE
  5
34
102
{ACAD_REACTORS
330
2A
102
}
102
{ACAD_XDICTIONARY
360
179
102
}
330
2A
100
AcDbVisualStyle
  2
Conceptual
 70
     9
 71
     3
 72
     2
 73
     0
 90
        0
 40
-0.6
 41
-30.0
 62
     5
 63
     7
 74
     2
 91
        2
 64
     7
 65
   257
 75
     1
175
     1
 42
40.0
 92
        8
 66
     7
 43
1.0
 76
     1
 77
     6
 78
     2
 67
     7
 79
     3
170
     0
171
     0
290
     0
174
     0
 93
        1
 44
0.0
173
     0
291
     0
 45
0.0
1001
ACAD
1000
AcDbSavedByObjectVersion
1070
     0
  0
VISUALSTYLE
  5
35
102
{ACAD_REACTORS
330
2A
102
}
102
{ACAD_XDICTIONARY
360
17B
102
}
330
2A
100
AcDbVisualStyle
  2
Dim
 70
    11
 71
     2
 72
     2
 73
     0
 90
        0
 40
-0.6
 41
-30.0
 62
     5
 63
     7
 74
     1
 91
        4
 64
     7
 65
   257
 75
     1
175
     1
 42
1.0
 92
        8
 66
     7
 43
1.0
 76
     1
 77
     6
 78
     2
 67
     7
 79
     5
170
     0
171
     0
290
     0
174
     0
 93
        1
 44
-50.0
173
     0
291
     1
 45
0.0
1001
ACAD
1000
AcDbSavedByObjectVersion
1070
     0
  0
VISUALSTYLE
  5
39
102
{ACAD_REACTORS
330
2A
102
}
102
{ACAD_XDICTIONARY
360
183
102
}
330
2A
100
AcDbVisualStyle
  2
Facepattern
 70
    15
 71
     2
 72
     2
 73
     0
 90
        0
 40
-0.6
 41
-30.0
 62
     5
 63
     7
 74
     1
 91
        4
 64
     7
 65
   257
 75
     1
175
     1
 42
1.0
 92
        8
 66
     7
 43
1.0
 76
     1
 77
     6
 78
     2
 67
     7
 79
     5
170
     0
171
     0
290
     0
174
     0
 93
        1
 44
0.0
173
     0
291
     1
 45
0.0
1001
ACAD
1000
AcDbSavedByObjectVersion
1070
     0
  0
VISUALSTYLE
  5
2B
102
{ACAD_REACTORS
330
2A
102
}
102
{ACAD_XDICTIONARY
360
167
102
}
330
2A
100
AcDbVisualStyle
  2
Flat
 70
     0
 71
     2
 72
     1
 73
     1
 90
        2
 40
-0.6
 41
30.0
 62
     5
 63
     7
 74
     0
 91
        4
 64
     7
 65
   257
 75
     1
175
     1
 42
1.0
 92
        8
 66
     7
 43
1.0
 76
     1
 77
     6
 78
     2
 67
     7
 79
     5
170
     0
171
     0
290
     0
174
     0
 93
       13
 44
0.0
173
     0
291
     1
 45
0.0
1001
ACAD
1000
AcDbSavedByObjectVersion
1070
     0
  0
VISUALSTYLE
  5
2C
102
{ACAD_REACTORS
330
2A
102
}
102
{ACAD_XDICTIONARY
360
169
102
}
330
2A
100
AcDbVisualStyle
  2
FlatWithEdges
 70
     1
 71
     2
 72
     1
 73
     1
 90
        2
 40
-0.6
 41
30.0
 62
     5
 63
     7
 74
     1
 91
        4
 64
     7
 65
   257
 75
     1
175
     1
 42
1.0
 92
        0
 66
   257
 43
1.0
 76
     1
 77
     6
 78
     2
 67
     7
 79
     5
170
     0
171
     0
290
     0
174
     0
 93
       13
 44
0.0
173
     0
291
     1
 45
0.0
1001
ACAD
1000
AcDbSavedByObjectVersion
1070
     0
  0
VISUALSTYLE
  5
2D
102
{ACAD_REACTORS
330
2A
102
}
102
{ACAD_XDICTIONARY
360
16B
102
}
330
2A
100
AcDbVisualStyle
  2
Gouraud
 70
     2
 71
     2
 72
     2
 73
     1
 90
        2
 40
-0.6
 41
30.0
 62
     5
 63
     7
 74
     0
 91
        4
 64
     7
 65
   257
 75
     1
175
     1
 42
1.0
 92
        0
 66
     7
 43
1.0
 76
     1
 77
     6
 78
     2
 67
     7
 79
     5
170
     0
171
     0
290
     0
174
     0
 93
       13
 44
0.0
173
     0
291
     1
 45
0.0
1001
ACAD
1000
AcDbSavedByObjectVersion
1070
     0
  0
VISUALSTYLE
  5
2E
102
{ACAD_REACTORS
330
2A
102
}
102
{ACAD_XDICTIONARY
360
16D
102
}
330
2A
100
AcDbVisualStyle
  2
GouraudWithEdges
 70
     3
 71
     2
 72
     2
 73
     1
 90
        2
 40
-0.6
 41
30.0
 62
     5
 63
     7
 74
     1
 91
        4
 64
     7
 65
   257
 75
     1
175
     1
 42
1.0
 92
        0
 66
   257
 43
1.0
 76
     1
 77
     6
 78
     2
 67
     7
 79
     5
170
     0
171
     0
290
     0
174
     0
 93
       13
 44
0.0
173
     0
291
     1
 45
0.0
1001
ACAD
1000
AcDbSavedByObjectVersion
1070
     0
  0
VISUALSTYLE
  5
38
102
{ACAD_REACTORS
330
2A
102
}
102
{ACAD_XDICTIONARY
360
181
102
}
330
2A
100
AcDbVisualStyle
  2
Linepattern
 70
    14
 71
     2
 72
     2
 73
     0
 90
        0
 40
-0.6
 41
-30.0
 62
     5
 63
     7
 74
     1
 91
        4
 64
     7
 65
   257
 75
     7
175
     7
 42
1.0
 92
        8
 66
     7
 43
1.0
 76
     1
 77
     6
 78
     2
 67
     7
 79
     5
170
     0
171
     0
290
     0
174
     0
 93
        1
 44
0.0
173
     0
291
     1
 45
0.0
1001
ACAD
1000
AcDbSavedByObjectVersion
1070
     0
  0
VISUALSTYLE
  5
33
102
{ACAD_REACTORS
330
2A
102
}
102
{ACAD_XDICTIONARY
360
177
102
}
330
2A
100
AcDbVisualStyle
  2
Realistic
 70
     8
 71
     2
 72
     2
 73
     0
 90
        0
 40
-0.6
 41
-30.0
 62
     5
 63
     7
 74
     1
 91
        0
 64
     7
 65
   257
 75
     1
175
     1
 42
1.0
 92
        8
 66
     8
 43
1.0
 76
     1
 77
     6
 78
     2
 67
     7
 79
     5
170
     0
171
     0
290
     0
174
     0
 93
       13
 44
0.0
173
     0
291
     0
 45
0.0
1001
ACAD
1000
AcDbSavedByObjectVersion
1070
     0
  0
VISUALSTYLE
  5
37
102
{ACAD_REACTORS
330
2A
102
}
102
{ACAD_XDICTIONARY
360
17F
102
}
330
2A
100
AcDbVisualStyle
  2
Thicken
 70
    13
 71
     2
 72
     2
 73
     0
 90
        0
 40
-0.6
 41
-30.0
 62
     5
 63
     7
 74
     1
 91
        4
 64
     7
 65
   257
 75
     1
175
     1
 42
1.0
 92
       12
 66
     7
 43
1.0
 76
     1
 77
     6
 78
     2
 67
     7
 79
     5
170
     0
171
     0
290
     0
174
     0
 93
        1
 44
0.0
173
     0
291
     1
 45
0.0
1001
ACAD
1000
AcDbSavedByObjectVersion
1070
     0
  0
DICTIONARYVAR
  5
165
102
{ACAD_REACTORS
330
162
102
}
330
162
100
DictionaryVariables
280
     0
  1
2
  0
DICTIONARYVAR
  5
166
102
{ACAD_REACTORS
330
162
102
}
330
162
100
DictionaryVariables
280
     0
  1
1
  0
DICTIONARY
  5
189
330
3D
100
AcDbDictionary
280
     1
281
     1
  3
ACAD_XREC_ROUNDTRIP
360
18A
  0
DICTIONARY
  5
187
330
3C
100
AcDbDictionary
280
     1
281
     1
  3
ACAD_XREC_ROUNDTRIP
360
188
  0
DICTIONARY
  5
18B
330
3E
100
AcDbDictionary
280
     1
281
     1
  3
ACAD_XREC_ROUNDTRIP
360
18C
  0
DICTIONARY
  5
16F
330
2F
100
AcDbDictionary
280
     1
281
     1
  3
ACAD_XREC_ROUNDTRIP
360
170
  0
DICTIONARY
  5
173
330
31
100
AcDbDictionary
280
     1
281
     1
  3
ACAD_XREC_ROUNDTRIP
360
174
  0
DICTIONARY
  5
171
330
30
100
AcDbDictionary
280
     1
281
     1
  3
ACAD_XREC_ROUNDTRIP
360
172
  0
DICTIONARY
  5
175
330
32
100
AcDbDictionary
280
     1
281
     1
  3
ACAD_XREC_ROUNDTRIP
360
176
  0
DICTIONARY
  5
17D
330
36
100
AcDbDictionary
280
     1
281
     1
  3
ACAD_XREC_ROUNDTRIP
360
17E
  0
DICTIONARY
  5
185
330
3A
100
AcDbDictionary
280
     1
281
     1
  3
ACAD_XREC_ROUNDTRIP
360
186
  0
DICTIONARY
  5
179
330
34
100
AcDbDictionary
280
     1
281
     1
  3
ACAD_XREC_ROUNDTRIP
360
17A
  0
DICTIONARY
  5
17B
330
35
100
AcDbDictionary
280
     1
281
     1
  3
ACAD_XREC_ROUNDTRIP
360
17C
  0
DICTIONARY
  5
183
330
39
100
AcDbDictionary
280
     1
281
     1
  3
ACAD_XREC_ROUNDTRIP
360
184
  0
DICTIONARY
  5
167
330
2B
100
AcDbDictionary
280
     1
281
     1
  3
ACAD_XREC_ROUNDTRIP
360
168
  0
DICTIONARY
  5
169
330
2C
100
AcDbDictionary
280
     1
281
     1
  3
ACAD_XREC_ROUNDTRIP
360
16A
  0
DICTIONARY
  5
16B
330
2D
100
AcDbDictionary
280
     1
281
     1
  3
ACAD_XREC_ROUNDTRIP
360
16C
  0
DICTIONARY
  5
16D
330
2E
100
AcDbDictionary
280
     1
281
     1
  3
ACAD_XREC_ROUNDTRIP
360
16E
  0
DICTIONARY
  5
181
330
38
100
AcDbDictionary
280
     1
281
     1
  3
ACAD_XREC_ROUNDTRIP
360
182
  0
DICTIONARY
  5
177
330
33
100
AcDbDictionary
280
     1
281
     1
  3
ACAD_XREC_ROUNDTRIP
360
178
  0
DICTIONARY
  5
17F
330
37
100
AcDbDictionary
280
     1
281
     1
  3
ACAD_XREC_ROUNDTRIP
360
180
  0
XRECORD
  5
18A
102
{ACAD_REACTORS
330
189
102
}
330
189
100
AcDbXrecord
280
     1
102
MATERIAL
148
0.0
149
0.0
149
0.0
 93
        0
 94
      127
282
     0
 72
     1
 77
     1
171
     1
175
     1
179
     1
273
     0
  0
XRECORD
  5
188
102
{ACAD_REACTORS
330
187
102
}
330
187
100
AcDbXrecord
280
     1
102
MATERIAL
148
0.0
149
0.0
149
0.0
 93
        0
 94
      127
282
     0
 72
     1
 77
     1
171
     1
175
     1
179
     1
273
     0
  0
XRECORD
  5
18C
102
{ACAD_REACTORS
330
18B
102
}
330
18B
100
AcDbXrecord
280
     1
102
MATERIAL
148
0.0
149
0.0
149
0.0
 93
        0
 94
      127
282
     0
 72
     1
 77
     1
171
     1
175
     1
179
     1
273
     0
  0
XRECORD
  5
170
102
{ACAD_REACTORS
330
16F
102
}
330
16F
100
AcDbXrecord
280
     1
102
RTVSPropertyOp0
 70
     1
102
RTVSPropertyOp1
 70
     1
102
RTVSPropertyOp2
 70
     1
102
RTVSPropertyOp3
 70
     1
102
RTVSPropertyOp4
 70
     1
102
RTVSPropertyOp5
 70
     1
102
RTVSPropertyOp6
 70
     1
102
RTVSPropertyOp7
 70
     1
102
RTVSPropertyOp8
 70
     1
102
RTVSPropertyOp9
 70
     1
102
RTVSPropertyOp10
 70
     1
102
RTVSPropertyOp11
 70
     1
102
RTVSPropertyOp12
 70
     1
102
RTVSPropertyOp13
 70
     1
102
RTVSPropertyOp14
 70
     1
102
RTVSPropertyOp15
 70
     1
102
RTVSPropertyOp16
 70
     1
102
RTVSPropertyOp17
 70
     1
102
RTVSPropertyOp18
 70
     1
102
RTVSPropertyOp19
 70
     1
102
RTVSPropertyOp20
 70
     1
102
RTVSPropertyOp21
 70
     1
102
RTVSPropertyOp22
 70
     1
102
RTVSPropertyOp23
 70
     1
102
RTVSPropertyOp24
 70
     1
102
RTVSPropertyOp25
 70
     1
102
RTVSPropertyOp26
 70
     1
102
RTVSPropertyOp27
 70
     1
102
RTVSPropertyOp28
 70
     1
102
RTVSPropertyOp29
 70
     1
102
RTVSPropertyOp30
 70
     1
102
RTVSPropertyOp31
 70
     1
102
RTVSPropertyOp32
 70
     1
  0
XRECORD
  5
174
102
{ACAD_REACTORS
330
173
102
}
330
173
100
AcDbXrecord
280
     1
102
RTVSPropertyOp0
 70
     1
102
RTVSPropertyOp1
 70
     1
102
RTVSPropertyOp2
 70
     1
102
RTVSPropertyOp3
 70
     1
102
RTVSPropertyOp4
 70
     1
102
RTVSPropertyOp5
 70
     1
102
RTVSPropertyOp6
 70
     1
102
RTVSPropertyOp7
 70
     1
102
RTVSPropertyOp8
 70
     1
102
RTVSPropertyOp9
 70
     1
102
RTVSPropertyOp10
 70
     1
102
RTVSPropertyOp11
 70
     1
102
RTVSPropertyOp12
 70
     1
102
RTVSPropertyOp13
 70
     1
102
RTVSPropertyOp14
 70
     1
102
RTVSPropertyOp15
 70
     1
102
RTVSPropertyOp16
 70
     1
102
RTVSPropertyOp17
 70
     1
102
RTVSPropertyOp18
 70
     1
102
RTVSPropertyOp19
 70
     1
102
RTVSPropertyOp20
 70
     1
102
RTVSPropertyOp21
 70
     1
102
RTVSPropertyOp22
 70
     1
102
RTVSPropertyOp23
 70
     1
102
RTVSPropertyOp24
 70
     1
102
RTVSPropertyOp25
 70
     1
102
RTVSPropertyOp26
 70
     1
102
RTVSPropertyOp27
 70
     1
102
RTVSPropertyOp28
 70
     1
102
RTVSPropertyOp29
 70
     1
102
RTVSPropertyOp30
 70
     1
102
RTVSPropertyOp31
 70
     1
102
RTVSPropertyOp32
 70
     1
  0
XRECORD
  5
172
102
{ACAD_REACTORS
330
171
102
}
330
171
100
AcDbXrecord
280
     1
102
RTVSPropertyOp0
 70
     1
102
RTVSPropertyOp1
 70
     1
102
RTVSPropertyOp2
 70
     1
102
RTVSPropertyOp3
 70
     1
102
RTVSPropertyOp4
 70
     1
102
RTVSPropertyOp5
 70
     1
102
RTVSPropertyOp6
 70
     1
102
RTVSPropertyOp7
 70
     1
102
RTVSPropertyOp8
 70
     1
102
RTVSPropertyOp9
 70
     1
102
RTVSPropertyOp10
 70
     1
102
RTVSPropertyOp11
 70
     1
102
RTVSPropertyOp12
 70
     1
102
RTVSPropertyOp13
 70
     1
102
RTVSPropertyOp14
 70
     1
102
RTVSPropertyOp15
 70
     1
102
RTVSPropertyOp16
 70
     1
102
RTVSPropertyOp17
 70
     1
102
RTVSPropertyOp18
 70
     1
102
RTVSPropertyOp19
 70
     1
102
RTVSPropertyOp20
 70
     1
102
RTVSPropertyOp21
 70
     1
102
RTVSPropertyOp22
 70
     1
102
RTVSPropertyOp23
 70
     1
102
RTVSPropertyOp24
 70
     1
102
RTVSPropertyOp25
 70
     1
102
RTVSPropertyOp26
 70
     1
102
RTVSPropertyOp27
 70
     1
102
RTVSPropertyOp28
 70
     1
102
RTVSPropertyOp29
 70
     1
102
RTVSPropertyOp30
 70
     1
102
RTVSPropertyOp31
 70
     1
102
RTVSPropertyOp32
 70
     1
  0
XRECORD
  5
176
102
{ACAD_REACTORS
330
175
102
}
330
175
100
AcDbXrecord
280
     1
102
RTVSPropertyOp0
 70
     1
102
RTVSPropertyOp1
 70
     1
102
RTVSPropertyOp2
 70
     1
102
RTVSPropertyOp3
 70
     1
102
RTVSPropertyOp4
 70
     1
102
RTVSPropertyOp5
 70
     1
102
RTVSPropertyOp6
 70
     1
102
RTVSPropertyOp7
 70
     1
102
RTVSPropertyOp8
 70
     1
102
RTVSPropertyOp9
 70
     1
102
RTVSPropertyOp10
 70
     1
102
RTVSPropertyOp11
 70
     1
102
RTVSPropertyOp12
 70
     1
102
RTVSPropertyOp13
 70
     1
102
RTVSPropertyOp14
 70
     1
102
RTVSPropertyOp15
 70
     1
102
RTVSPropertyOp16
 70
     1
102
RTVSPropertyOp17
 70
     1
102
RTVSPropertyOp18
 70
     1
102
RTVSPropertyOp19
 70
     1
102
RTVSPropertyOp20
 70
     1
102
RTVSPropertyOp21
 70
     1
102
RTVSPropertyOp22
 70
     1
102
RTVSPropertyOp23
 70
     1
102
RTVSPropertyOp24
 70
     1
102
RTVSPropertyOp25
 70
     1
102
RTVSPropertyOp26
 70
     1
102
RTVSPropertyOp27
 70
     1
102
RTVSPropertyOp28
 70
     1
102
RTVSPropertyOp29
 70
     1
102
RTVSPropertyOp30
 70
     1
102
RTVSPropertyOp31
 70
     1
102
RTVSPropertyOp32
 70
     1
  0
XRECORD
  5
17E
102
{ACAD_REACTORS
330
17D
102
}
330
17D
100
AcDbXrecord
280
     1
102
RTVSPropertyOp0
 70
     1
102
RTVSPropertyOp1
 70
     1
102
RTVSPropertyOp2
 70
     1
102
RTVSPropertyOp3
 70
     1
102
RTVSPropertyOp4
 70
     1
102
RTVSPropertyOp5
 70
     1
102
RTVSPropertyOp6
 70
     1
102
RTVSPropertyOp7
 70
     1
102
RTVSPropertyOp8
 70
     1
102
RTVSPropertyOp9
 70
     1
102
RTVSPropertyOp10
 70
     1
102
RTVSPropertyOp11
 70
     1
102
RTVSPropertyOp12
 70
     1
102
RTVSPropertyOp13
 70
     1
102
RTVSPropertyOp14
 70
     1
102
RTVSPropertyOp15
 70
     1
102
RTVSPropertyOp16
 70
     1
102
RTVSPropertyOp17
 70
     1
102
RTVSPropertyOp18
 70
     1
102
RTVSPropertyOp19
 70
     1
102
RTVSPropertyOp20
 70
     1
102
RTVSPropertyOp21
 70
     1
102
RTVSPropertyOp22
 70
     1
102
RTVSPropertyOp23
 70
     1
102
RTVSPropertyOp24
 70
     1
102
RTVSPropertyOp25
 70
     1
102
RTVSPropertyOp26
 70
     1
102
RTVSPropertyOp27
 70
     1
102
RTVSPropertyOp28
 70
     1
102
RTVSPropertyOp29
 70
     1
102
RTVSPropertyOp30
 70
     1
102
RTVSPropertyOp31
 70
     1
102
RTVSPropertyOp32
 70
     1
  0
XRECORD
  5
186
102
{ACAD_REACTORS
330
185
102
}
330
185
100
AcDbXrecord
280
     1
102
RTVSPropertyOp0
 70
     1
102
RTVSPropertyOp1
 70
     1
102
RTVSPropertyOp2
 70
     1
102
RTVSPropertyOp3
 70
     1
102
RTVSPropertyOp4
 70
     1
102
RTVSPropertyOp5
 70
     1
102
RTVSPropertyOp6
 70
     1
102
RTVSPropertyOp7
 70
     1
102
RTVSPropertyOp8
 70
     1
102
RTVSPropertyOp9
 70
     1
102
RTVSPropertyOp10
 70
     1
102
RTVSPropertyOp11
 70
     1
102
RTVSPropertyOp12
 70
     1
102
RTVSPropertyOp13
 70
     1
102
RTVSPropertyOp14
 70
     1
102
RTVSPropertyOp15
 70
     1
102
RTVSPropertyOp16
 70
     1
102
RTVSPropertyOp17
 70
     1
102
RTVSPropertyOp18
 70
     1
102
RTVSPropertyOp19
 70
     1
102
RTVSPropertyOp20
 70
     1
102
RTVSPropertyOp21
 70
     1
102
RTVSPropertyOp22
 70
     1
102
RTVSPropertyOp23
 70
     1
102
RTVSPropertyOp24
 70
     1
102
RTVSPropertyOp25
 70
     1
102
RTVSPropertyOp26
 70
     1
102
RTVSPropertyOp27
 70
     1
102
RTVSPropertyOp28
 70
     1
102
RTVSPropertyOp29
 70
     1
102
RTVSPropertyOp30
 70
     1
102
RTVSPropertyOp31
 70
     1
102
RTVSPropertyOp32
 70
     1
  0
XRECORD
  5
17A
102
{ACAD_REACTORS
330
179
102
}
330
179
100
AcDbXrecord
280
     1
102
RTVSPropertyOp0
 70
     1
102
RTVSPropertyOp1
 70
     1
102
RTVSPropertyOp2
 70
     1
102
RTVSPropertyOp3
 70
     1
102
RTVSPropertyOp4
 70
     1
102
RTVSPropertyOp5
 70
     1
102
RTVSPropertyOp6
 70
     1
102
RTVSPropertyOp7
 70
     1
102
RTVSPropertyOp8
 70
     1
102
RTVSPropertyOp9
 70
     1
102
RTVSPropertyOp10
 70
     1
102
RTVSPropertyOp11
 70
     1
102
RTVSPropertyOp12
 70
     1
102
RTVSPropertyOp13
 70
     1
102
RTVSPropertyOp14
 70
     1
102
RTVSPropertyOp15
 70
     1
102
RTVSPropertyOp16
 70
     1
102
RTVSPropertyOp17
 70
     1
102
RTVSPropertyOp18
 70
     1
102
RTVSPropertyOp19
 70
     1
102
RTVSPropertyOp20
 70
     1
102
RTVSPropertyOp21
 70
     1
102
RTVSPropertyOp22
 70
     1
102
RTVSPropertyOp23
 70
     1
102
RTVSPropertyOp24
 70
     1
102
RTVSPropertyOp25
 70
     1
102
RTVSPropertyOp26
 70
     1
102
RTVSPropertyOp27
 70
     1
102
RTVSPropertyOp28
 70
     1
102
RTVSPropertyOp29
 70
     1
102
RTVSPropertyOp30
 70
     1
102
RTVSPropertyOp31
 70
     1
102
RTVSPropertyOp32
 70
     1
  0
XRECORD
  5
17C
102
{ACAD_REACTORS
330
17B
102
}
330
17B
100
AcDbXrecord
280
     1
102
RTVSPropertyOp0
 70
     1
102
RTVSPropertyOp1
 70
     1
102
RTVSPropertyOp2
 70
     1
102
RTVSPropertyOp3
 70
     1
102
RTVSPropertyOp4
 70
     1
102
RTVSPropertyOp5
 70
     1
102
RTVSPropertyOp6
 70
     1
102
RTVSPropertyOp7
 70
     1
102
RTVSPropertyOp8
 70
     1
102
RTVSPropertyOp9
 70
     1
102
RTVSPropertyOp10
 70
     1
102
RTVSPropertyOp11
 70
     1
102
RTVSPropertyOp12
 70
     1
102
RTVSPropertyOp13
 70
     1
102
RTVSPropertyOp14
 70
     1
102
RTVSPropertyOp15
 70
     1
102
RTVSPropertyOp16
 70
     1
102
RTVSPropertyOp17
 70
     1
102
RTVSPropertyOp18
 70
     1
102
RTVSPropertyOp19
 70
     1
102
RTVSPropertyOp20
 70
     1
102
RTVSPropertyOp21
 70
     1
102
RTVSPropertyOp22
 70
     1
102
RTVSPropertyOp23
 70
     1
102
RTVSPropertyOp24
 70
     1
102
RTVSPropertyOp25
 70
     1
102
RTVSPropertyOp26
 70
     1
102
RTVSPropertyOp27
 70
     1
102
RTVSPropertyOp28
 70
     1
102
RTVSPropertyOp29
 70
     1
102
RTVSPropertyOp30
 70
     1
102
RTVSPropertyOp31
 70
     1
102
RTVSPropertyOp32
 70
     1
  0
XRECORD
  5
184
102
{ACAD_REACTORS
330
183
102
}
330
183
100
AcDbXrecord
280
     1
102
RTVSPropertyOp0
 70
     1
102
RTVSPropertyOp1
 70
     1
102
RTVSPropertyOp2
 70
     1
102
RTVSPropertyOp3
 70
     1
102
RTVSPropertyOp4
 70
     1
102
RTVSPropertyOp5
 70
     1
102
RTVSPropertyOp6
 70
     1
102
RTVSPropertyOp7
 70
     1
102
RTVSPropertyOp8
 70
     1
102
RTVSPropertyOp9
 70
     1
102
RTVSPropertyOp10
 70
     1
102
RTVSPropertyOp11
 70
     1
102
RTVSPropertyOp12
 70
     1
102
RTVSPropertyOp13
 70
     1
102
RTVSPropertyOp14
 70
     1
102
RTVSPropertyOp15
 70
     1
102
RTVSPropertyOp16
 70
     1
102
RTVSPropertyOp17
 70
     1
102
RTVSPropertyOp18
 70
     1
102
RTVSPropertyOp19
 70
     1
102
RTVSPropertyOp20
 70
     1
102
RTVSPropertyOp21
 70
     1
102
RTVSPropertyOp22
 70
     1
102
RTVSPropertyOp23
 70
     1
102
RTVSPropertyOp24
 70
     1
102
RTVSPropertyOp25
 70
     1
102
RTVSPropertyOp26
 70
     1
102
RTVSPropertyOp27
 70
     1
102
RTVSPropertyOp28
 70
     1
102
RTVSPropertyOp29
 70
     1
102
RTVSPropertyOp30
 70
     1
102
RTVSPropertyOp31
 70
     1
102
RTVSPropertyOp32
 70
     1
  0
XRECORD
  5
168
102
{ACAD_REACTORS
330
167
102
}
330
167
100
AcDbXrecord
280
     1
102
RTVSPropertyOp0
 70
     1
102
RTVSPropertyOp1
 70
     1
102
RTVSPropertyOp2
 70
     1
102
RTVSPropertyOp3
 70
     1
102
RTVSPropertyOp4
 70
     1
102
RTVSPropertyOp5
 70
     1
102
RTVSPropertyOp6
 70
     1
102
RTVSPropertyOp7
 70
     1
102
RTVSPropertyOp8
 70
     1
102
RTVSPropertyOp9
 70
     1
102
RTVSPropertyOp10
 70
     1
102
RTVSPropertyOp11
 70
     1
102
RTVSPropertyOp12
 70
     1
102
RTVSPropertyOp13
 70
     1
102
RTVSPropertyOp14
 70
     1
102
RTVSPropertyOp15
 70
     1
102
RTVSPropertyOp16
 70
     1
102
RTVSPropertyOp17
 70
     1
102
RTVSPropertyOp18
 70
     1
102
RTVSPropertyOp19
 70
     1
102
RTVSPropertyOp20
 70
     1
102
RTVSPropertyOp21
 70
     1
102
RTVSPropertyOp22
 70
     1
102
RTVSPropertyOp23
 70
     1
102
RTVSPropertyOp24
 70
     1
102
RTVSPropertyOp25
 70
     1
102
RTVSPropertyOp26
 70
     1
102
RTVSPropertyOp27
 70
     1
102
RTVSPropertyOp28
 70
     1
102
RTVSPropertyOp29
 70
     1
102
RTVSPropertyOp30
 70
     1
102
RTVSPropertyOp31
 70
     1
102
RTVSPropertyOp32
 70
     1
  0
XRECORD
  5
16A
102
{ACAD_REACTORS
330
169
102
}
330
169
100
AcDbXrecord
280
     1
102
RTVSPropertyOp0
 70
     1
102
RTVSPropertyOp1
 70
     1
102
RTVSPropertyOp2
 70
     1
102
RTVSPropertyOp3
 70
     1
102
RTVSPropertyOp4
 70
     1
102
RTVSPropertyOp5
 70
     1
102
RTVSPropertyOp6
 70
     1
102
RTVSPropertyOp7
 70
     1
102
RTVSPropertyOp8
 70
     1
102
RTVSPropertyOp9
 70
     1
102
RTVSPropertyOp10
 70
     1
102
RTVSPropertyOp11
 70
     1
102
RTVSPropertyOp12
 70
     1
102
RTVSPropertyOp13
 70
     1
102
RTVSPropertyOp14
 70
     1
102
RTVSPropertyOp15
 70
     1
102
RTVSPropertyOp16
 70
     1
102
RTVSPropertyOp17
 70
     1
102
RTVSPropertyOp18
 70
     1
102
RTVSPropertyOp19
 70
     1
102
RTVSPropertyOp20
 70
     1
102
RTVSPropertyOp21
 70
     1
102
RTVSPropertyOp22
 70
     1
102
RTVSPropertyOp23
 70
     1
102
RTVSPropertyOp24
 70
     1
102
RTVSPropertyOp25
 70
     1
102
RTVSPropertyOp26
 70
     1
102
RTVSPropertyOp27
 70
     1
102
RTVSPropertyOp28
 70
     1
102
RTVSPropertyOp29
 70
     1
102
RTVSPropertyOp30
 70
     1
102
RTVSPropertyOp31
 70
     1
102
RTVSPropertyOp32
 70
     1
  0
XRECORD
  5
16C
102
{ACAD_REACTORS
330
16B
102
}
330
16B
100
AcDbXrecord
280
     1
102
RTVSPropertyOp0
 70
     1
102
RTVSPropertyOp1
 70
     1
102
RTVSPropertyOp2
 70
     1
102
RTVSPropertyOp3
 70
     1
102
RTVSPropertyOp4
 70
     1
102
RTVSPropertyOp5
 70
     1
102
RTVSPropertyOp6
 70
     1
102
RTVSPropertyOp7
 70
     1
102
RTVSPropertyOp8
 70
     1
102
RTVSPropertyOp9
 70
     1
102
RTVSPropertyOp10
 70
     1
102
RTVSPropertyOp11
 70
     1
102
RTVSPropertyOp12
 70
     1
102
RTVSPropertyOp13
 70
     1
102
RTVSPropertyOp14
 70
     1
102
RTVSPropertyOp15
 70
     1
102
RTVSPropertyOp16
 70
     1
102
RTVSPropertyOp17
 70
     1
102
RTVSPropertyOp18
 70
     1
102
RTVSPropertyOp19
 70
     1
102
RTVSPropertyOp20
 70
     1
102
RTVSPropertyOp21
 70
     1
102
RTVSPropertyOp22
 70
     1
102
RTVSPropertyOp23
 70
     1
102
RTVSPropertyOp24
 70
     1
102
RTVSPropertyOp25
 70
     1
102
RTVSPropertyOp26
 70
     1
102
RTVSPropertyOp27
 70
     1
102
RTVSPropertyOp28
 70
     1
102
RTVSPropertyOp29
 70
     1
102
RTVSPropertyOp30
 70
     1
102
RTVSPropertyOp31
 70
     1
102
RTVSPropertyOp32
 70
     1
  0
XRECORD
  5
16E
102
{ACAD_REACTORS
330
16D
102
}
330
16D
100
AcDbXrecord
280
     1
102
RTVSPropertyOp0
 70
     1
102
RTVSPropertyOp1
 70
     1
102
RTVSPropertyOp2
 70
     1
102
RTVSPropertyOp3
 70
     1
102
RTVSPropertyOp4
 70
     1
102
RTVSPropertyOp5
 70
     1
102
RTVSPropertyOp6
 70
     1
102
RTVSPropertyOp7
 70
     1
102
RTVSPropertyOp8
 70
     1
102
RTVSPropertyOp9
 70
     1
102
RTVSPropertyOp10
 70
     1
102
RTVSPropertyOp11
 70
     1
102
RTVSPropertyOp12
 70
     1
102
RTVSPropertyOp13
 70
     1
102
RTVSPropertyOp14
 70
     1
102
RTVSPropertyOp15
 70
     1
102
RTVSPropertyOp16
 70
     1
102
RTVSPropertyOp17
 70
     1
102
RTVSPropertyOp18
 70
     1
102
RTVSPropertyOp19
 70
     1
102
RTVSPropertyOp20
 70
     1
102
RTVSPropertyOp21
 70
     1
102
RTVSPropertyOp22
 70
     1
102
RTVSPropertyOp23
 70
     1
102
RTVSPropertyOp24
 70
     1
102
RTVSPropertyOp25
 70
     1
102
RTVSPropertyOp26
 70
     1
102
RTVSPropertyOp27
 70
     1
102
RTVSPropertyOp28
 70
     1
102
RTVSPropertyOp29
 70
     1
102
RTVSPropertyOp30
 70
     1
102
RTVSPropertyOp31
 70
     1
102
RTVSPropertyOp32
 70
     1
  0
XRECORD
  5
182
102
{ACAD_REACTORS
330
181
102
}
330
181
100
AcDbXrecord
280
     1
102
RTVSPropertyOp0
 70
     1
102
RTVSPropertyOp1
 70
     1
102
RTVSPropertyOp2
 70
     1
102
RTVSPropertyOp3
 70
     1
102
RTVSPropertyOp4
 70
     1
102
RTVSPropertyOp5
 70
     1
102
RTVSPropertyOp6
 70
     1
102
RTVSPropertyOp7
 70
     1
102
RTVSPropertyOp8
 70
     1
102
RTVSPropertyOp9
 70
     1
102
RTVSPropertyOp10
 70
     1
102
RTVSPropertyOp11
 70
     1
102
RTVSPropertyOp12
 70
     1
102
RTVSPropertyOp13
 70
     1
102
RTVSPropertyOp14
 70
     1
102
RTVSPropertyOp15
 70
     1
102
RTVSPropertyOp16
 70
     1
102
RTVSPropertyOp17
 70
     1
102
RTVSPropertyOp18
 70
     1
102
RTVSPropertyOp19
 70
     1
102
RTVSPropertyOp20
 70
     1
102
RTVSPropertyOp21
 70
     1
102
RTVSPropertyOp22
 70
     1
102
RTVSPropertyOp23
 70
     1
102
RTVSPropertyOp24
 70
     1
102
RTVSPropertyOp25
 70
     1
102
RTVSPropertyOp26
 70
     1
102
RTVSPropertyOp27
 70
     1
102
RTVSPropertyOp28
 70
     1
102
RTVSPropertyOp29
 70
     1
102
RTVSPropertyOp30
 70
     1
102
RTVSPropertyOp31
 70
     1
102
RTVSPropertyOp32
 70
     1
  0
XRECORD
  5
178
102
{ACAD_REACTORS
330
177
102
}
330
177
100
AcDbXrecord
280
     1
102
RTVSPropertyOp0
 70
     1
102
RTVSPropertyOp1
 70
     1
102
RTVSPropertyOp2
 70
     1
102
RTVSPropertyOp3
 70
     1
102
RTVSPropertyOp4
 70
     1
102
RTVSPropertyOp5
 70
     1
102
RTVSPropertyOp6
 70
     1
102
RTVSPropertyOp7
 70
     1
102
RTVSPropertyOp8
 70
     1
102
RTVSPropertyOp9
 70
     1
102
RTVSPropertyOp10
 70
     1
102
RTVSPropertyOp11
 70
     1
102
RTVSPropertyOp12
 70
     1
102
RTVSPropertyOp13
 70
     1
102
RTVSPropertyOp14
 70
     1
102
RTVSPropertyOp15
 70
     1
102
RTVSPropertyOp16
 70
     1
102
RTVSPropertyOp17
 70
     1
102
RTVSPropertyOp18
 70
     1
102
RTVSPropertyOp19
 70
     1
102
RTVSPropertyOp20
 70
     1
102
RTVSPropertyOp21
 70
     1
102
RTVSPropertyOp22
 70
     1
102
RTVSPropertyOp23
 70
     1
102
RTVSPropertyOp24
 70
     1
102
RTVSPropertyOp25
 70
     1
102
RTVSPropertyOp26
 70
     1
102
RTVSPropertyOp27
 70
     1
102
RTVSPropertyOp28
 70
     1
102
RTVSPropertyOp29
 70
     1
102
RTVSPropertyOp30
 70
     1
102
RTVSPropertyOp31
 70
     1
102
RTVSPropertyOp32
 70
     1
  0
XRECORD
  5
180
102
{ACAD_REACTORS
330
17F
102
}
330
17F
100
AcDbXrecord
280
     1
102
RTVSPropertyOp0
 70
     1
102
RTVSPropertyOp1
 70
     1
102
RTVSPropertyOp2
 70
     1
102
RTVSPropertyOp3
 70
     1
102
RTVSPropertyOp4
 70
     1
102
RTVSPropertyOp5
 70
     1
102
RTVSPropertyOp6
 70
     1
102
RTVSPropertyOp7
 70
     1
102
RTVSPropertyOp8
 70
     1
102
RTVSPropertyOp9
 70
     1
102
RTVSPropertyOp10
 70
     1
102
RTVSPropertyOp11
 70
     1
102
RTVSPropertyOp12
 70
     1
102
RTVSPropertyOp13
 70
     1
102
RTVSPropertyOp14
 70
     1
102
RTVSPropertyOp15
 70
     1
102
RTVSPropertyOp16
 70
     1
102
RTVSPropertyOp17
 70
     1
102
RTVSPropertyOp18
 70
     1
102
RTVSPropertyOp19
 70
     1
102
RTVSPropertyOp20
 70
     1
102
RTVSPropertyOp21
 70
     1
102
RTVSPropertyOp22
 70
     1
102
RTVSPropertyOp23
 70
     1
102
RTVSPropertyOp24
 70
     1
102
RTVSPropertyOp25
 70
     1
102
RTVSPropertyOp26
 70
     1
102
RTVSPropertyOp27
 70
     1
102
RTVSPropertyOp28
 70
     1
102
RTVSPropertyOp29
 70
     1
102
RTVSPropertyOp30
 70
     1
102
RTVSPropertyOp31
 70
     1
102
RTVSPropertyOp32
 70
     1
  0
ENDSEC
  0
EOF
