  0
SECTION
  2
HEADER
  9
$ACADVER
  1
AC1015
  9
$ACADMAINTVER
 70
     6
  9
$DWGCODEPAGE
  3
ANSI_932
  9
$INSBASE
 10
0.0
 20
0.0
 30
0.0
  9
$EXTMIN
 10
-109.8950029592342
 20
-129.5602940139689
 30
0.0
  9
$EXTMAX
 10
100.1049970407657
 20
167.4397059860311
 30
0.0
  9
$LIMMIN
 10
0.0
 20
0.0
  9
$LIMMAX
 10
12.0
 20
9.0
  9
$ORTHOMODE
 70
     0
  9
$REGENMODE
 70
     1
  9
$FILLMODE
 70
     1
  9
$QTEXTMODE
 70
     0
  9
$MIRRTEXT
 70
     1
  9
$LTSCALE
 40
1.0
  9
$ATTMODE
 70
     1
  9
$TEXTSIZE
 40
0.2
  9
$TRACEWID
 40
0.05
  9
$TEXTSTYLE
  7
Standard
  9
$CLAYER
  8
0
  9
$CELTYPE
  6
ByLayer
  9
$CECOLOR
 62
   256
  9
$CELTSCALE
 40
1.0
  9
$DISPSILH
 70
     0
  9
$DIMSCALE
 40
1.0
  9
$DIMASZ
 40
0.18
  9
$DIMEXO
 40
0.0625
  9
$DIMDLI
 40
0.38
  9
$DIMRND
 40
0.0
  9
$DIMDLE
 40
0.0
  9
$DIMEXE
 40
0.18
  9
$DIMTP
 40
0.0
  9
$DIMTM
 40
0.0
  9
$DIMTXT
 40
0.18
  9
$DIMCEN
 40
0.09
  9
$DIMTSZ
 40
0.0
  9
$DIMTOL
 70
     0
  9
$DIMLIM
 70
     0
  9
$DIMTIH
 70
     1
  9
$DIMTOH
 70
     1
  9
$DIMSE1
 70
     0
  9
$DIMSE2
 70
     0
  9
$DIMTAD
 70
     0
  9
$DIMZIN
 70
     0
  9
$DIMBLK
  1

  9
$DIMASO
 70
     1
  9
$DIMSHO
 70
     1
  9
$DIMPOST
  1

  9
$DIMAPOST
  1

  9
$DIMALT
 70
     0
  9
$DIMALTD
 70
     2
  9
$DIMALTF
 40
25.4
  9
$DIMLFAC
 40
1.0
  9
$DIMTOFL
 70
     0
  9
$DIMTVP
 40
0.0
  9
$DIMTIX
 70
     0
  9
$DIMSOXD
 70
     0
  9
$DIMSAH
 70
     0
  9
$DIMBLK1
  1

  9
$DIMBLK2
  1

  9
$DIMSTYLE
  2
Standard
  9
$DIMCLRD
 70
     0
  9
$DIMCLRE
 70
     0
  9
$DIMCLRT
 70
     0
  9
$DIMTFAC
 40
1.0
  9
$DIMGAP
 40
0.09
  9
$DIMJUST
 70
     0
  9
$DIMSD1
 70
     0
  9
$DIMSD2
 70
     0
  9
$DIMTOLJ
 70
     1
  9
$DIMTZIN
 70
     0
  9
$DIMALTZ
 70
     0
  9
$DIMALTTZ
 70
     0
  9
$DIMUPT
 70
     0
  9
$DIMDEC
 70
     4
  9
$DIMTDEC
 70
     4
  9
$DIMALTU
 70
     2
  9
$DIMALTTD
 70
     2
  9
$DIMTXSTY
  7
Standard
  9
$DIMAUNIT
 70
     0
  9
$DIMADEC
 70
     0
  9
$DIMALTRND
 40
0.0
  9
$DIMAZIN
 70
     0
  9
$DIMDSEP
 70
    46
  9
$DIMATFIT
 70
     3
  9
$DIMFRAC
 70
     0
  9
$DIMLDRBLK
  1

  9
$DIMLUNIT
 70
     2
  9
$DIMLWD
 70
    -2
  9
$DIMLWE
 70
    -2
  9
$DIMTMOVE
 70
     0
  9
$LUNITS
 70
     2
  9
$LUPREC
 70
     4
  9
$SKETCHINC
 40
0.1
  9
$FILLETRAD
 40
0.5
  9
$AUNITS
 70
     0
  9
$AUPREC
 70
     0
  9
$MENU
  1
.
  9
$ELEVATION
 40
0.0
  9
$PELEVATION
 40
0.0
  9
$THICKNESS
 40
0.0
  9
$LIMCHECK
 70
     0
  9
$CHAMFERA
 40
0.5
  9
$CHAMFERB
 40
0.5
  9
$CHAMFERC
 40
1.0
  9
$CHAMFERD
 40
0.0
  9
$SKPOLY
 70
     0
  9
$TDCREATE
 40
2459636.46052309
  9
$TDUCREATE
 40
2459636.08552309
  9
$TDUPDATE
 40
2459636.460524537
  9
$TDUUPDATE
 40
2459636.085524537
  9
$TDINDWG
 40
0.0000000116
  9
$TDUSRTIMER
 40
0.0000000116
  9
$USRTIMER
 70
     1
  9
$ANGBASE
 50
0.0
  9
$ANGDIR
 70
     0
  9
$PDMODE
 70
     0
  9
$PDSIZE
 40
0.0
  9
$PLINEWID
 40
0.0
  9
$SPLFRAME
 70
     0
  9
$SPLINETYPE
 70
     6
  9
$SPLINESEGS
 70
     8
  9
$HANDSEED
  5
188
  9
$SURFTAB1
 70
     6
  9
$SURFTAB2
 70
     6
  9
$SURFTYPE
 70
     6
  9
$SURFU
 70
     6
  9
$SURFV
 70
     6
  9
$UCSBASE
  2

  9
$UCSNAME
  2

  9
$UCSORG
 10
0.0
 20
0.0
 30
0.0
  9
$UCSXDIR
 10
1.0
 20
0.0
 30
0.0
  9
$UCSYDIR
 10
0.0
 20
1.0
 30
0.0
  9
$UCSORTHOREF
  2

  9
$UCSORTHOVIEW
 70
     0
  9
$UCSORGTOP
 10
0.0
 20
0.0
 30
0.0
  9
$UCSORGBOTTOM
 10
0.0
 20
0.0
 30
0.0
  9
$UCSORGLEFT
 10
0.0
 20
0.0
 30
0.0
  9
$UCSORGRIGHT
 10
0.0
 20
0.0
 30
0.0
  9
$UCSORGFRONT
 10
0.0
 20
0.0
 30
0.0
  9
$UCSORGBACK
 10
0.0
 20
0.0
 30
0.0
  9
$PUCSBASE
  2

  9
$PUCSNAME
  2

  9
$PUCSORG
 10
0.0
 20
0.0
 30
0.0
  9
$PUCSXDIR
 10
1.0
 20
0.0
 30
0.0
  9
$PUCSYDIR
 10
0.0
 20
1.0
 30
0.0
  9
$PUCSORTHOREF
  2

  9
$PUCSORTHOVIEW
 70
     0
  9
$PUCSORGTOP
 10
0.0
 20
0.0
 30
0.0
  9
$PUCSORGBOTTOM
 10
0.0
 20
0.0
 30
0.0
  9
$PUCSORGLEFT
 10
0.0
 20
0.0
 30
0.0
  9
$PUCSORGRIGHT
 10
0.0
 20
0.0
 30
0.0
  9
$PUCSORGFRONT
 10
0.0
 20
0.0
 30
0.0
  9
$PUCSORGBACK
 10
0.0
 20
0.0
 30
0.0
  9
$USERI1
 70
     0
  9
$USERI2
 70
     0
  9
$USERI3
 70
     0
  9
$USERI4
 70
     0
  9
$USERI5
 70
     0
  9
$USERR1
 40
18.1
  9
$USERR2
 40
0.0
  9
$USERR3
 40
0.0
  9
$USERR4
 40
0.0
  9
$USERR5
 40
0.0
  9
$WORLDVIEW
 70
     1
  9
$SHADEDGE
 70
     3
  9
$SHADEDIF
 70
    70
  9
$TILEMODE
 70
     1
  9
$MAXACTVP
 70
    64
  9
$PINSBASE
 10
0.0
 20
0.0
 30
0.0
  9
$PLIMCHECK
 70
     0
  9
$PEXTMIN
 10
1.00000000000000E+20
 20
1.00000000000000E+20
 30
1.00000000000000E+20
  9
$PEXTMAX
 10
-1.00000000000000E+20
 20
-1.00000000000000E+20
 30
-1.00000000000000E+20
  9
$PLIMMIN
 10
0.0
 20
0.0
  9
$PLIMMAX
 10
12.0
 20
9.0
  9
$UNITMODE
 70
     0
  9
$VISRETAIN
 70
     1
  9
$PLINEGEN
 70
     0
  9
$PSLTSCALE
 70
     1
  9
$TREEDEPTH
 70
  3020
  9
$CMLSTYLE
  2
Standard
  9
$CMLJUST
 70
     0
  9
$CMLSCALE
 40
1.0
  9
$PROXYGRAPHICS
 70
     1
  9
$MEASUREMENT
 70
     1
  9
$CELWEIGHT
370
    -1
  9
$ENDCAPS
280
     0
  9
$JOINSTYLE
280
     0
  9
$LWDISPLAY
290
     0
  9
$INSUNITS
 70
     4
  9
$HYPERLINKBASE
  1

  9
$STYLESHEET
  1

  9
$XEDIT
290
     1
  9
$CEPSNTYPE
380
     0
  9
$PSTYLEMODE
290
     1
  9
$FINGERPRINTGUID
  2
{C746F489-3C6B-4E3E-B2FA-F4E010757B95}
  9
$VERSIONGUID
  2
{FAEB1C32-E019-11D5-929B-00C0DF256EC4}
  9
$EXTNAMES
290
     1
  9
$PSVPSCALE
 40
0.0
  9
$OLESTARTUP
290
     0
  0
ENDSEC
  0
SECTION
  2
CLASSES
  0
CLASS
  1
ACDBDICTIONARYWDFLT
  2
AcDbDictionaryWithDefault
  3
ObjectDBX Classes
 90
        0
280
     0
281
     0
  0
CLASS
  1
VISUALSTYLE
  2
AcDbVisualStyle
  3
ObjectDBX Classes
 90
     4095
280
     0
281
     0
  0
CLASS
  1
MATERIAL
  2
AcDbMaterial
  3
ObjectDBX Classes
 90
     1153
280
     0
281
     0
  0
CLASS
  1
DICTIONARYVAR
  2
AcDbDictionaryVar
  3
ObjectDBX Classes
 90
        0
280
     0
281
     0
  0
CLASS
  1
ACDBPLACEHOLDER
  2
AcDbPlaceHolder
  3
ObjectDBX Classes
 90
        0
280
     0
281
     0
  0
CLASS
  1
LAYOUT
  2
AcDbLayout
  3
ObjectDBX Classes
 90
        0
280
     0
281
     0
  0
ENDSEC
  0
SECTION
  2
TABLES
  0
TABLE
  2
VPORT
  5
8
330
0
100
AcDbSymbolTable
 70
     1
  0
VPORT
  5
29
330
8
100
AcDbSymbolTableRecord
100
AcDbViewportTableRecord
  2
*Active
 70
     0
 10
0.0
 20
0.0
 11
1.0
 21
1.0
 12
-4.89500295923425
 22
18.9397059860311
 13
0.0
 23
0.0
 14
0.5
 24
0.5
 15
0.5
 25
0.5
 16
0.0
 26
0.0
 36
1.0
 17
0.0
 27
0.0
 37
0.0
 40
326.7
 41
1.60267857142857
 42
50.0
 43
0.0
 44
0.0
 50
0.0
 51
0.0
 71
     0
 72
   100
 73
     1
 74
     3
 75
     0
 76
     0
 77
     0
 78
     0
281
     0
 65
     1
110
0.0
120
0.0
130
0.0
111
1.0
121
0.0
131
0.0
112
0.0
122
1.0
132
0.0
 79
     0
146
0.0
  0
ENDTAB
  0
TABLE
  2
LTYPE
  5
5
330
0
100
AcDbSymbolTable
 70
     8
  0
LTYPE
  5
14
330
5
100
AcDbSymbolTableRecord
100
AcDbLinetypeTableRecord
  2
ByBlock
 70
     0
  3

 72
    65
 73
     0
 40
0.0
  0
LTYPE
  5
15
330
5
100
AcDbSymbolTableRecord
100
AcDbLinetypeTableRecord
  2
ByLayer
 70
     0
  3

 72
    65
 73
     0
 40
0.0
  0
LTYPE
  5
16
330
5
100
AcDbSymbolTableRecord
100
AcDbLinetypeTableRecord
  2
Continuous
 70
     0
  3
Solid line
 72
    65
 73
     0
 40
0.0
  0
LTYPE
  5
3F
330
5
100
AcDbSymbolTableRecord
100
AcDbLinetypeTableRecord
  2
DASHED
 70
     0
  3
Dashed
 72
    65
 73
     2
 40
15.0
 49
7.0
 74
     0
 49
-8.0
 74
     0
  0
LTYPE
  5
40
330
5
100
AcDbSymbolTableRecord
100
AcDbLinetypeTableRecord
  2
DOTTED
 70
     0
  3
Dotted
 72
    65
 73
     2
 40
1.0
 49
0.0
 74
     0
 49
-1.0
 74
     0
  0
LTYPE
  5
41
330
5
100
AcDbSymbolTableRecord
100
AcDbLinetypeTableRecord
  2
DOT_CENTER
 70
     0
  3
Dot_Center
 72
    65
 73
     4
 40
14.0
 49
12.0
 74
     0
 49
-1.0
 74
     0
 49
0.0
 74
     0
 49
-1.0
 74
     0
  0
LTYPE
  5
42
330
5
100
AcDbSymbolTableRecord
100
AcDbLinetypeTableRecord
  2
LONG_DASHED
 70
     0
  3
Long_Dashed
 72
    65
 73
     2
 40
15.0
 49
10.0
 74
     0
 49
-5.0
 74
     0
  0
LTYPE
  5
43
330
5
100
AcDbSymbolTableRecord
100
AcDbLinetypeTableRecord
  2
DASH_CENTER
 70
     0
  3
Dash_Center
 72
    65
 73
     4
 40
14.0
 49
11.0
 74
     0
 49
-1.0
 74
     0
 49
1.0
 74
     0
 49
-1.0
 74
     0
  0
LTYPE
  5
44
330
5
100
AcDbSymbolTableRecord
100
AcDbLinetypeTableRecord
  2
PHANTOM
 70
     0
  3
Phantom
 72
    65
 73
     6
 40
13.0
 49
10.0
 74
     0
 49
-1.0
 74
     0
 49
0.0
 74
     0
 49
-1.0
 74
     0
 49
0.0
 74
     0
 49
-1.0
 74
     0
  0
LTYPE
  5
45
330
5
100
AcDbSymbolTableRecord
100
AcDbLinetypeTableRecord
  2
CENTER_DASH_DASH
 70
     0
  3
Center_Dash_Dash
 72
    65
 73
     6
 40
14.0
 49
9.0
 74
     0
 49
-1.0
 74
     0
 49
1.0
 74
     0
 49
-1.0
 74
     0
 49
1.0
 74
     0
 49
-1.0
 74
     0
  0
ENDTAB
  0
TABLE
  2
LAYER
  5
2
330
0
100
AcDbSymbolTable
 70
     3
  0
LAYER
  5
10
330
2
100
AcDbSymbolTableRecord
100
AcDbLayerTableRecord
  2
0
 70
     0
 62
     7
  6
Continuous
370
    -3
390
F
  0
LAYER
  5
46
330
2
100
AcDbSymbolTableRecord
100
AcDbLayerTableRecord
  2
1
 70
     0
 62
     7
  6
Continuous
370
    -3
390
F
  0
LAYER
  5
47
330
2
100
AcDbSymbolTableRecord
100
AcDbLayerTableRecord
  2
_U_30EC_U_30A4_U_30E4_U_30FC_1
 70
     0
 62
     7
  6
Continuous
370
    -3
390
F
  0
ENDTAB
  0
TABLE
  2
STYLE
  5
3
330
0
100
AcDbSymbolTable
 70
     3
  0
STYLE
  5
11
330
3
100
AcDbSymbolTableRecord
100
AcDbTextStyleTableRecord
  2
Standard
 70
     0
 40
0.0
 41
1.0
 50
0.0
 71
     0
 42
0.2
  3
txt
  4

  0
STYLE
  5
BE
330
3
100
AcDbSymbolTableRecord
100
AcDbTextStyleTableRecord
  2
CONVERTER_11
 70
     0
 40
0.0
 41
0.89
 50
0.0
 71
     0
 42
0.2
  3
MS Mincho.ttf
  4

1001
ACAD
1000
MS Mincho
1071
    32785
  0
STYLE
  5
105
330
3
100
AcDbSymbolTableRecord
100
AcDbTextStyleTableRecord
  2
CONVERTER_12
 70
     0
 40
0.0
 41
0.9
 50
0.0
 71
     0
 42
0.2
  3
txt.shx
  4

  0
ENDTAB
  0
TABLE
  2
VIEW
  5
6
330
0
100
AcDbSymbolTable
 70
     0
  0
ENDTAB
  0
TABLE
  2
UCS
  5
7
330
0
100
AcDbSymbolTable
 70
     0
  0
ENDTAB
  0
TABLE
  2
APPID
  5
9
330
0
100
AcDbSymbolTable
 70
     1
  0
APPID
  5
12
330
9
100
AcDbSymbolTableRecord
100
AcDbRegAppTableRecord
  2
ACAD
 70
     0
  0
ENDTAB
  0
TABLE
  2
DIMSTYLE
  5
A
330
0
100
AcDbSymbolTable
 70
     7
100
AcDbDimStyleTable
  0
DIMSTYLE
105
27
330
A
100
AcDbSymbolTableRecord
100
AcDbDimStyleTableRecord
  2
Standard
 70
     0
178
     0
340
11
  0
DIMSTYLE
105
11C
102
{ACAD_REACTORS
330
11D
102
}
330
A
100
AcDbSymbolTableRecord
100
AcDbDimStyleTableRecord
  2
ME10_DIM_10
 70
     0
 41
3.5
 42
0.0
 44
2.0
 73
     0
 74
     0
 77
     1
 78
     8
140
3.0
147
2.0
172
     1
173
     1
174
     1
175
     1
176
     2
177
     2
271
     2
178
     7
271
     2
340
105
  0
DIMSTYLE
105
127
102
{ACAD_REACTORS
330
128
102
}
330
A
100
AcDbSymbolTableRecord
100
AcDbDimStyleTableRecord
  2
ME10_DIM_11
 70
     0
  3
{\Fgdt;n}<>
 41
3.5
 42
0.0
 44
2.0
 73
     0
 74
     0
 77
     1
 78
     8
140
3.0
147
2.0
172
     1
173
     1
174
     1
175
     1
176
     2
177
     2
271
     2
178
     7
271
     2
340
105
  0
DIMSTYLE
105
132
102
{ACAD_REACTORS
330
133
102
}
330
A
100
AcDbSymbolTableRecord
100
AcDbDimStyleTableRecord
  2
ME10_DIM_12
 70
     0
  3
{\Fgdt;n}<>
 41
3.0
 42
0.0
 44
2.0
 73
     0
 74
     0
 77
     1
 78
     8
140
3.0
147
2.0
172
     1
173
     1
174
     1
175
     1
176
     2
177
     2
271
     2
178
     7
271
     2
340
105
  0
DIMSTYLE
105
13D
102
{ACAD_REACTORS
330
13E
102
}
330
A
100
AcDbSymbolTableRecord
100
AcDbDimStyleTableRecord
  2
ME10_DIM_13
 70
     0
  3
{\Fgdt;n}<>
 41
3.0
 42
0.0
 44
2.0
 73
     0
 74
     0
 77
     1
 78
     8
140
3.0
147
2.0
172
     1
173
     1
174
     1
175
     1
176
     2
177
     2
271
     2
178
     7
271
     2
340
105
  0
DIMSTYLE
105
148
102
{ACAD_REACTORS
330
149
102
}
330
A
100
AcDbSymbolTableRecord
100
AcDbDimStyleTableRecord
  2
ME10_DIM_14
 70
     0
 41
3.0
 42
0.0
 44
2.0
 73
     0
 74
     0
 77
     1
 78
     8
140
3.0
147
2.0
172
     1
173
     1
174
     1
175
     1
176
     2
177
     2
271
     2
178
     7
271
     2
340
105
  0
DIMSTYLE
105
153
102
{ACAD_REACTORS
330
154
102
}
330
A
100
AcDbSymbolTableRecord
100
AcDbDimStyleTableRecord
  2
ME10_DIM_15
 70
     0
 41
3.5
 42
0.0
 44
2.0
 73
     0
 74
     0
 77
     1
 78
     8
140
3.0
147
2.0
172
     1
173
     1
174
     1
175
     1
176
     2
177
     2
271
     2
178
     7
271
     2
340
105
  0
ENDTAB
  0
TABLE
  2
BLOCK_RECORD
  5
1
330
0
100
AcDbSymbolTable
 70
    13
  0
BLOCK_RECORD
  5
1F
330
1
100
AcDbSymbolTableRecord
100
AcDbBlockTableRecord
  2
*Model_Space
340
22
  0
BLOCK_RECORD
  5
1B
330
1
100
AcDbSymbolTableRecord
100
AcDbBlockTableRecord
  2
*Paper_Space
340
1E
  0
BLOCK_RECORD
  5
23
330
1
100
AcDbSymbolTableRecord
100
AcDbBlockTableRecord
  2
*Paper_Space0
340
26
  0
BLOCK_RECORD
  5
48
330
1
100
AcDbSymbolTableRecord
100
AcDbBlockTableRecord
  2
開示A4
340
0
102
{BLKREFS
331
4C
102
}
  0
BLOCK_RECORD
  5
4B
330
1
100
AcDbSymbolTableRecord
100
AcDbBlockTableRecord
  2
開示A4枠
340
0
102
{BLKREFS
331
58
102
}
  0
BLOCK_RECORD
  5
4F
330
1
100
AcDbSymbolTableRecord
100
AcDbBlockTableRecord
  2
RING
340
0
102
{BLKREFS
331
59
102
}
  0
BLOCK_RECORD
  5
52
330
1
100
AcDbSymbolTableRecord
100
AcDbBlockTableRecord
  2
KYAPU
340
0
102
{BLKREFS
331
5A
102
}
  0
BLOCK_RECORD
  5
55
330
1
100
AcDbSymbolTableRecord
100
AcDbBlockTableRecord
  2
HONTAI
340
0
102
{BLKREFS
331
5B
102
}
  0
BLOCK_RECORD
  5
113
330
1
100
AcDbSymbolTableRecord
100
AcDbBlockTableRecord
  2
*D6
340
0
  0
BLOCK_RECORD
  5
11E
330
1
100
AcDbSymbolTableRecord
100
AcDbBlockTableRecord
  2
*D7
340
0
  0
BLOCK_RECORD
  5
129
330
1
100
AcDbSymbolTableRecord
100
AcDbBlockTableRecord
  2
*D8
340
0
  0
BLOCK_RECORD
  5
134
330
1
100
AcDbSymbolTableRecord
100
AcDbBlockTableRecord
  2
*D9
340
0
  0
BLOCK_RECORD
  5
13F
330
1
100
AcDbSymbolTableRecord
100
AcDbBlockTableRecord
  2
*D10
340
0
  0
BLOCK_RECORD
  5
14A
330
1
100
AcDbSymbolTableRecord
100
AcDbBlockTableRecord
  2
*D11
340
0
  0
BLOCK_RECORD
  5
155
330
1
100
AcDbSymbolTableRecord
100
AcDbBlockTableRecord
  2
*D12
340
0
102
{BLKREFS
331
15C
102
}
  0
ENDTAB
  0
ENDSEC
  0
SECTION
  2
BLOCKS
  0
BLOCK
  5
20
330
1F
100
AcDbEntity
  8
0
100
AcDbBlockBegin
  2
*Model_Space
 70
     0
 10
0.0
 20
0.0
 30
0.0
  3
*Model_Space
  1

  0
ENDBLK
  5
21
330
1F
100
AcDbEntity
  8
0
100
AcDbBlockEnd
  0
BLOCK
  5
1C
330
1B
100
AcDbEntity
 67
     1
  8
0
100
AcDbBlockBegin
  2
*Paper_Space
 70
     0
 10
0.0
 20
0.0
 30
0.0
  3
*Paper_Space
  1

  0
ENDBLK
  5
1D
330
1B
100
AcDbEntity
 67
     1
  8
0
100
AcDbBlockEnd
  0
BLOCK
  5
24
330
23
100
AcDbEntity
  8
0
100
AcDbBlockBegin
  2
*Paper_Space0
 70
     0
 10
0.0
 20
0.0
 30
0.0
  3
*Paper_Space0
  1

  0
ENDBLK
  5
25
330
23
100
AcDbEntity
  8
0
100
AcDbBlockEnd
  0
BLOCK
  5
49
330
48
100
AcDbEntity
  8
0
100
AcDbBlockBegin
  2
開示A4
 70
     0
 10
-109.8950029592342
 20
-129.5602940139689
 30
0.0
  3
開示A4
  1

  0
POINT
  5
5C
330
48
100
AcDbEntity
  8
1
 62
     4
100
AcDbPoint
 10
73.10499704076574
 20
-114.5602940139689
 30
0.0
  0
POINT
  5
5D
330
48
100
AcDbEntity
  8
1
 62
     4
100
AcDbPoint
 10
-16.14500295923426
 20
-112.5602940139689
 30
0.0
  0
POINT
  5
5E
330
48
100
AcDbEntity
  8
1
 62
     4
100
AcDbPoint
 10
-24.64500295923426
 20
-112.5602940139689
 30
0.0
  0
POINT
  5
5F
330
48
100
AcDbEntity
  8
1
 62
     4
100
AcDbPoint
 10
-3.39500295923426
 20
-110.5602940139689
 30
0.0
  0
POINT
  5
60
330
48
100
AcDbEntity
  8
1
 62
     4
100
AcDbPoint
 10
-3.39500295923426
 20
-117.0602940139689
 30
0.0
  0
POINT
  5
61
330
48
100
AcDbEntity
  8
1
 62
     4
100
AcDbPoint
 10
2.35499704076574
 20
-117.0602940139689
 30
0.0
  0
POINT
  5
62
330
48
100
AcDbEntity
  8
1
 62
     4
100
AcDbPoint
 10
-9.14500295923426
 20
-117.0602940139689
 30
0.0
  0
POINT
  5
63
330
48
100
AcDbEntity
  8
1
 62
     4
100
AcDbPoint
 10
13.60499704076574
 20
-110.5602940139689
 30
0.0
  0
POINT
  5
64
330
48
100
AcDbEntity
  8
1
 62
     4
100
AcDbPoint
 10
13.60499704076574
 20
-117.0602940139689
 30
0.0
  0
POINT
  5
65
330
48
100
AcDbEntity
  8
1
 62
     4
100
AcDbPoint
 10
19.35499704076574
 20
-117.0602940139689
 30
0.0
  0
POINT
  5
66
330
48
100
AcDbEntity
  8
1
 62
     4
100
AcDbPoint
 10
7.85499704076574
 20
-117.0602940139689
 30
0.0
  0
POINT
  5
67
330
48
100
AcDbEntity
  8
1
 62
     4
100
AcDbPoint
 10
30.60499704076574
 20
-110.5602940139689
 30
0.0
  0
POINT
  5
68
330
48
100
AcDbEntity
  8
1
 62
     4
100
AcDbPoint
 10
30.60499704076574
 20
-117.0602940139689
 30
0.0
  0
POINT
  5
69
330
48
100
AcDbEntity
  8
1
 62
     4
100
AcDbPoint
 10
36.35499704076574
 20
-117.0602940139689
 30
0.0
  0
POINT
  5
6A
330
48
100
AcDbEntity
  8
1
 62
     4
100
AcDbPoint
 10
24.85499704076574
 20
-117.0602940139689
 30
0.0
  0
POINT
  5
6B
330
48
100
AcDbEntity
  8
1
 62
     4
100
AcDbPoint
 10
41.85499704076574
 20
-117.0602940139689
 30
0.0
  0
POINT
  5
6C
330
48
100
AcDbEntity
  8
1
 62
     4
100
AcDbPoint
 10
53.35499704076574
 20
-117.0602940139689
 30
0.0
  0
POINT
  5
6D
330
48
100
AcDbEntity
  8
1
 62
     4
100
AcDbPoint
 10
47.60499704076574
 20
-117.0602940139689
 30
0.0
  0
POINT
  5
6E
330
48
100
AcDbEntity
  8
1
 62
     4
100
AcDbPoint
 10
-52.89500295923426
 20
-115.3102940139689
 30
0.0
  0
POINT
  5
6F
330
48
100
AcDbEntity
  8
1
 62
     4
100
AcDbPoint
 10
-52.89500295923426
 20
-106.8102940139689
 30
0.0
  0
POINT
  5
70
330
48
100
AcDbEntity
  8
1
 62
     4
100
AcDbPoint
 10
-62.39500295923426
 20
152.4397059860314
 30
0.0
  0
POINT
  5
71
330
48
100
AcDbEntity
  8
1
 62
     4
100
AcDbPoint
 10
47.60499704076574
 20
-110.5602940139689
 30
0.0
  0
POINT
  5
72
330
48
100
AcDbEntity
  8
1
 62
     4
100
AcDbPoint
 10
-52.89500295923426
 20
-113.3102940139689
 30
0.0
  0
POINT
  5
73
330
48
100
AcDbEntity
  8
1
 62
     4
100
AcDbPoint
 10
-52.89500295923426
 20
-104.8102940139689
 30
0.0
  0
POINT
  5
74
330
48
100
AcDbEntity
  8
1
 62
     4
100
AcDbPoint
 10
-52.89500295923426
 20
-108.8102940139689
 30
0.0
  0
POINT
  5
75
330
48
100
AcDbEntity
  8
1
 62
     4
100
AcDbPoint
 10
-52.89500295923426
 20
-117.3102940139689
 30
0.0
  0
POINT
  5
76
330
48
100
AcDbEntity
  8
1
 62
     4
100
AcDbPoint
 10
-75.89500295923426
 20
-95.5602940139689
 30
0.0
  0
LINE
  5
7B
330
48
100
AcDbEntity
  8
1
  6
Continuous
 62
     7
100
AcDbLine
 10
-4.89500295923426
 20
-119.5602940139689
 30
0.0
 11
90.10499704076574
 21
-119.5602940139689
 31
0.0
  0
LINE
  5
7C
330
48
100
AcDbEntity
  8
1
  6
Continuous
 62
     2
100
AcDbLine
 10
-4.89500295923426
 20
-119.5602940139689
 30
0.0
 11
-4.89500295923426
 21
-124.5602940139689
 31
0.0
  0
LINE
  5
7D
330
48
100
AcDbEntity
  8
1
  6
Continuous
 62
     7
100
AcDbLine
 10
90.10499704076574
 20
18.93970598603107
 30
0.0
 11
90.10499704076574
 21
157.4397059860314
 31
0.0
  0
LINE
  5
7E
330
48
100
AcDbEntity
  8
1
  6
Continuous
 62
     2
100
AcDbLine
 10
90.10499704076574
 20
18.93970598603107
 30
0.0
 11
95.10499704076574
 21
18.93970598603107
 31
0.0
  0
LINE
  5
7F
330
48
100
AcDbEntity
  8
1
  6
Continuous
 62
     7
100
AcDbLine
 10
-84.89500295923423
 20
18.93970598603107
 30
0.0
 11
-84.89500295923423
 21
157.4397059860314
 31
0.0
  0
LINE
  5
80
330
48
100
AcDbEntity
  8
1
  6
Continuous
 62
     2
100
AcDbLine
 10
-84.89500295923423
 20
18.93970598603107
 30
0.0
 11
-89.89500295923423
 21
18.93970598603107
 31
0.0
  0
LINE
  5
81
330
48
100
AcDbEntity
  8
1
  6
Continuous
 62
     7
100
AcDbLine
 10
-4.89500295923426
 20
157.4397059860314
 30
0.0
 11
-84.89500295923423
 21
157.4397059860314
 31
0.0
  0
LINE
  5
82
330
48
100
AcDbEntity
  8
1
  6
Continuous
 62
     2
100
AcDbLine
 10
-4.89500295923426
 20
157.4397059860314
 30
0.0
 11
-4.89500295923426
 21
162.4397059860314
 31
0.0
  0
LINE
  5
83
330
48
100
AcDbEntity
  8
1
  6
Continuous
 62
     2
100
AcDbLine
 10
56.10499704076574
 20
-109.5602940139689
 30
0.0
 11
90.10499704076574
 21
-109.5602940139689
 31
0.0
  0
LINE
  5
84
330
48
100
AcDbEntity
  8
1
  6
Continuous
 62
     2
100
AcDbLine
 10
-11.89500295923426
 20
-102.5602940139689
 30
0.0
 11
-11.89500295923426
 21
-119.5602940139689
 31
0.0
  0
LINE
  5
85
330
48
100
AcDbEntity
  8
1
  6
Continuous
 62
     2
100
AcDbLine
 10
5.10499704076574
 20
-102.5602940139689
 30
0.0
 11
5.10499704076574
 21
-119.5602940139689
 31
0.0
  0
LINE
  5
86
330
48
100
AcDbEntity
  8
1
  6
Continuous
 62
     2
100
AcDbLine
 10
39.10499704076574
 20
-102.5602940139689
 30
0.0
 11
39.10499704076574
 21
-119.5602940139689
 31
0.0
  0
LINE
  5
87
330
48
100
AcDbEntity
  8
1
  6
Continuous
 62
     2
100
AcDbLine
 10
22.10499704076574
 20
-102.5602940139689
 30
0.0
 11
22.10499704076574
 21
-119.5602940139689
 31
0.0
  0
LINE
  5
88
330
48
100
AcDbEntity
  8
1
  6
Continuous
 62
     2
100
AcDbLine
 10
56.10499704076574
 20
-102.5602940139689
 30
0.0
 11
56.10499704076574
 21
-119.5602940139689
 31
0.0
  0
LINE
  5
89
330
48
100
AcDbEntity
  8
1
  6
Continuous
 62
     2
100
AcDbLine
 10
-54.89500295923426
 20
147.4397059860314
 30
0.0
 11
-84.89500295923423
 21
147.4397059860314
 31
0.0
  0
LINE
  5
8A
330
48
100
AcDbEntity
  8
1
  6
Continuous
 62
     7
100
AcDbLine
 10
-84.89500295923423
 20
-119.5602940139689
 30
0.0
 11
-84.89500295923423
 21
18.93970598603107
 31
0.0
  0
LINE
  5
8B
330
48
100
AcDbEntity
  8
1
  6
Continuous
 62
     2
100
AcDbLine
 10
-69.89500295923426
 20
157.4397059860314
 30
0.0
 11
-69.89500295923426
 21
147.4397059860314
 31
0.0
  0
LINE
  5
8C
330
48
100
AcDbEntity
  8
1
  6
Continuous
 62
     2
100
AcDbLine
 10
-54.89500295923426
 20
157.4397059860314
 30
0.0
 11
-54.89500295923426
 21
147.4397059860314
 31
0.0
  0
LINE
  5
8D
330
48
100
AcDbEntity
  8
1
  6
Continuous
 62
     2
100
AcDbLine
 10
-76.89500295923426
 20
-88.5602940139689
 30
0.0
 11
-76.89500295923426
 21
-102.5602940139689
 31
0.0
  0
LINE
  5
8E
330
48
100
AcDbEntity
  8
1
  6
Continuous
 62
     7
100
AcDbLine
 10
90.10499704076574
 20
-102.5602940139689
 30
0.0
 11
-84.89500295923423
 21
-102.5602940139689
 31
0.0
  0
LINE
  5
8F
330
48
100
AcDbEntity
  8
1
  6
Continuous
 62
     7
100
AcDbLine
 10
-84.89500295923423
 20
-88.56029401396891
 30
0.0
 11
90.10499704076574
 21
-88.56029401396891
 31
0.0
  0
LINE
  5
90
330
48
100
AcDbEntity
  8
1
  6
PHANTOM
 62
     4
100
AcDbLine
 10
-109.8950029592342
 20
-129.5602940139689
 30
0.0
 11
100.1049970407657
 21
-129.5602940139689
 31
0.0
  0
LINE
  5
91
330
48
100
AcDbEntity
  8
1
  6
PHANTOM
 62
     4
100
AcDbLine
 10
100.1049970407657
 20
-129.5602940139689
 30
0.0
 11
100.1049970407657
 21
167.4397059860311
 31
0.0
  0
LINE
  5
92
330
48
100
AcDbEntity
  8
1
  6
PHANTOM
 62
     4
100
AcDbLine
 10
100.1049970407657
 20
167.4397059860311
 30
0.0
 11
-109.8950029592342
 21
167.4397059860311
 31
0.0
  0
LINE
  5
93
330
48
100
AcDbEntity
  8
1
  6
PHANTOM
 62
     4
100
AcDbLine
 10
-109.8950029592342
 20
167.4397059860311
 30
0.0
 11
-109.8950029592342
 21
-129.5602940139689
 31
0.0
  0
LINE
  5
94
330
48
100
AcDbEntity
  8
1
  6
Continuous
 62
     7
100
AcDbLine
 10
-84.89500295923423
 20
-119.5602940139689
 30
0.0
 11
-4.89500295923426
 21
-119.5602940139689
 31
0.0
  0
LINE
  5
95
330
48
100
AcDbEntity
  8
1
  6
Continuous
 62
     7
100
AcDbLine
 10
90.10499704076574
 20
-119.5602940139689
 30
0.0
 11
90.10499704076574
 21
18.93970598603107
 31
0.0
  0
LINE
  5
96
330
48
100
AcDbEntity
  8
1
  6
Continuous
 62
     7
100
AcDbLine
 10
90.10499704076574
 20
157.4397059860314
 30
0.0
 11
-4.89500295923426
 21
157.4397059860314
 31
0.0
  0
LINE
  5
97
330
48
100
AcDbEntity
  8
1
  6
Continuous
 62
     2
100
AcDbLine
 10
-84.89500295923423
 20
-111.0602940139689
 30
0.0
 11
-28.89500295923426
 21
-111.0602940139689
 31
0.0
  0
LINE
  5
98
330
48
100
AcDbEntity
  8
1
  6
Continuous
 62
     2
100
AcDbLine
 10
-76.89500295923426
 20
-102.5602940139689
 30
0.0
 11
-76.89500295923426
 21
-119.5602940139689
 31
0.0
  0
LINE
  5
99
330
48
100
AcDbEntity
  8
1
  6
Continuous
 62
     7
100
AcDbLine
 10
81.10499704076574
 20
-104.8602940139689
 30
0.0
 11
81.10499704076574
 21
-107.2602940139689
 31
0.0
  0
LINE
  5
9A
330
48
100
AcDbEntity
  8
1
  6
Continuous
 62
     7
100
AcDbLine
 10
81.10499704076574
 20
-104.8602940139689
 30
0.0
 11
86.10499704076574
 21
-104.0602940139689
 31
0.0
  0
LINE
  5
9B
330
48
100
AcDbEntity
  8
1
  6
Continuous
 62
     7
100
AcDbLine
 10
86.10499704076574
 20
-104.0602940139689
 30
0.0
 11
86.10499704076574
 21
-108.0602940139689
 31
0.0
  0
LINE
  5
9C
330
48
100
AcDbEntity
  8
1
  6
Continuous
 62
     7
100
AcDbLine
 10
86.10499704076574
 20
-108.0602940139689
 30
0.0
 11
81.10499704076574
 21
-107.2602940139689
 31
0.0
  0
LINE
  5
9D
330
48
100
AcDbEntity
  8
1
  6
DOT_CENTER
 62
     2
100
AcDbLine
 10
74.10499704076574
 20
-106.0602940139689
 30
0.0
 11
87.10499704076574
 21
-106.0602940139689
 31
0.0
  0
LINE
  5
9E
330
48
100
AcDbEntity
  8
1
  6
DOT_CENTER
 62
     2
100
AcDbLine
 10
77.10499704076574
 20
-103.0602940139689
 30
0.0
 11
77.10499704076574
 21
-109.0602940139689
 31
0.0
  0
LINE
  5
9F
330
48
100
AcDbEntity
  8
1
  6
Continuous
 62
     2
100
AcDbLine
 10
-28.89500295923426
 20
-102.5602940139689
 30
0.0
 11
-28.89500295923426
 21
-119.5602940139689
 31
0.0
  0
CIRCLE
  5
A0
330
48
100
AcDbEntity
  8
1
  6
Continuous
 62
     7
100
AcDbCircle
 10
-6.39500295923426
 20
-117.0602940139689
 30
0.0
 40
0.3000000000000114
  0
CIRCLE
  5
A1
330
48
100
AcDbEntity
  8
1
  6
Continuous
 62
     7
100
AcDbCircle
 10
-0.39500295923426
 20
-117.0602940139689
 30
0.0
 40
0.3000000000000114
  0
CIRCLE
  5
A2
330
48
100
AcDbEntity
  8
1
  6
Continuous
 62
     7
100
AcDbCircle
 10
10.60499704076574
 20
-117.0602940139689
 30
0.0
 40
0.3000000000000096
  0
CIRCLE
  5
A3
330
48
100
AcDbEntity
  8
1
  6
Continuous
 62
     7
100
AcDbCircle
 10
16.60499704076574
 20
-117.0602940139689
 30
0.0
 40
0.3000000000000114
  0
CIRCLE
  5
A4
330
48
100
AcDbEntity
  8
1
  6
Continuous
 62
     7
100
AcDbCircle
 10
27.60499704076574
 20
-117.0602940139689
 30
0.0
 40
0.3000000000000718
  0
CIRCLE
  5
A5
330
48
100
AcDbEntity
  8
1
  6
Continuous
 62
     7
100
AcDbCircle
 10
33.60499704076574
 20
-117.0602940139689
 30
0.0
 40
0.3000000000000682
  0
CIRCLE
  5
A6
330
48
100
AcDbEntity
  8
1
  6
Continuous
 62
     7
100
AcDbCircle
 10
50.60499704076574
 20
-117.0602940139689
 30
0.0
 40
0.3000000000000682
  0
CIRCLE
  5
A7
330
48
100
AcDbEntity
  8
1
  6
Continuous
 62
     7
100
AcDbCircle
 10
44.60499704076574
 20
-117.0602940139689
 30
0.0
 40
0.3000000000000682
  0
CIRCLE
  5
A8
330
48
100
AcDbEntity
  8
1
  6
Continuous
 62
     7
100
AcDbCircle
 10
77.10499704076574
 20
-106.0602940139689
 30
0.0
 40
1.200000000000159
  0
CIRCLE
  5
A9
330
48
100
AcDbEntity
  8
1
  6
Continuous
 62
     7
100
AcDbCircle
 10
77.10499704076574
 20
-106.0602940139689
 30
0.0
 40
2.0
  0
CIRCLE
  5
AA
330
48
100
AcDbEntity
  8
1
  6
DOT_CENTER
 62
     7
100
AcDbCircle
 10
-20.39500295923426
 20
-113.5602940139689
 30
0.0
 40
0.1000000000000227
  0
CIRCLE
  5
AB
330
48
100
AcDbEntity
  8
1
  6
DOT_CENTER
 62
     7
100
AcDbCircle
 10
-20.39500295923426
 20
-111.5602940139689
 30
0.0
 40
0.1000000000000227
  0
SPLINE
  5
AC
102
{ACAD_REACTORS
330
CB
102
}
330
48
100
AcDbEntity
  8
_U_30EC_U_30A4_U_30E4_U_30FC_1
  6
Continuous
 62
     2
100
AcDbSpline
210
0.0
220
0.0
230
1.0
 70
     8
 71
     3
 72
    24
 73
    20
 74
    18
 42
0.000000001
 43
0.0000000001
 44
0.00000001
 40
0.0
 40
0.0
 40
0.0
 40
0.0
 40
0.2211075008753688
 40
0.4273218586244912
 40
0.5080174679239035
 40
0.5914835907870073
 40
0.8143265690192313
 40
1.054651302686533
 40
1.295452694023111
 40
1.51810923132877
 40
1.540864321905367
 40
1.595126460622598
 40
1.659890947895934
 40
1.714153085187262
 40
1.736908174961562
 40
1.764951100735262
 40
1.801562291220831
 40
1.953914424543577
 40
2.126104167379651
 40
2.126104167379651
 40
2.126104167379651
 40
2.126104167379651
 10
76.04253399645467
 20
-113.9704010628388
 30
0.0
 10
76.01625494894697
 20
-114.0293177316252
 30
0.0
 10
75.96546693020834
 20
-114.1431826171764
 30
0.0
 10
75.91817552467684
 20
-114.4158744316377
 30
0.0
 10
75.80934532102756
 20
-114.3158391882143
 30
0.0
 10
75.65647706872949
 20
-114.2891080802956
 30
0.0
 10
75.8736125588857
 20
-114.0751126637926
 30
0.0
 10
75.88884540820384
 20
-113.8569728361441
 30
0.0
 10
75.99568598996584
 20
-113.6757782233046
 30
0.0
 10
75.93553513547351
 20
-113.391161750855
 30
0.0
 10
76.03842878030594
 20
-113.4191531217444
 30
0.0
 10
76.08299038758071
 20
-113.427861497946
 30
0.0
 10
76.1430812803054
 20
-113.4388974721353
 30
0.0
 10
76.18065899950953
 20
-113.4526187834133
 30
0.0
 10
76.23024373362634
 20
-113.4527332523667
 30
0.0
 10
76.19801293269828
 20
-113.4872280899827
 30
0.0
 10
76.12217726295385
 20
-113.4762529685892
 30
0.0
 10
76.14794175673507
 20
-113.6617043181444
 30
0.0
 10
76.11058671715078
 20
-113.7532708784731
 30
0.0
 10
76.0907675369267
 20
-113.8018526599919
 30
0.0
 11
76.04253399645467
 21
-113.9704010628388
 31
0.0
 11
75.96664417362095
 21
-114.1780769307834
 31
0.0
 11
75.87673726460906
 21
-114.363660090407
 31
0.0
 11
75.80614643307672
 21
-114.3245612883334
 31
0.0
 11
75.72954956003088
 21
-114.2914023820917
 31
0.0
 11
75.82639973551133
 21
-114.0907060019336
 31
0.0
 11
75.90446118751288
 21
-113.8634123821987
 31
0.0
 11
75.9639687337378
 21
-113.630079647882
 31
0.0
 11
76.00515719188837
 21
-113.4112659239784
 31
0.0
 11
76.02741542298719
 21
-113.415995121755
 31
0.0
 11
76.08049274329973
 21
-113.4272724395299
 31
0.0
 11
76.14384309335018
 21
-113.440732463971
 31
0.0
 11
76.19692041366272
 21
-113.4520097817459
 31
0.0
 11
76.21917864476154
 21
-113.4567389795225
 31
0.0
 11
76.2014067565118
 21
-113.4784315055588
 31
0.0
 11
76.16560934057287
 21
-113.4861077295152
 31
0.0
 11
76.13319237091373
 21
-113.6349711322558
 31
0.0
 11
76.0907675369267
 21
-113.8018526599919
 31
0.0
  0
SPLINE
  5
AD
102
{ACAD_REACTORS
330
CB
102
}
330
48
100
AcDbEntity
  8
_U_30EC_U_30A4_U_30E4_U_30FC_1
  6
Continuous
 62
     2
100
AcDbSpline
210
0.0
220
0.0
230
1.0
 70
     8
 71
     3
 72
    70
 73
    66
 74
    64
 42
0.000000001
 43
0.0000000001
 44
0.00000001
 40
0.0
 40
0.0
 40
0.0
 40
0.0
 40
0.024173107302133
 40
0.0846058988987013
 40
0.1631685280352999
 40
0.2417311571789471
 40
0.3021639488292467
 40
0.3263370654895399
 40
0.3533118254248828
 40
0.4228783438922094
 40
0.5179999095313278
 40
0.621639823946596
 40
0.7167613891499528
 40
0.7863279069649721
 40
0.8133026791761623
 40
0.8372943998771468
 40
0.8945054261372497
 40
0.9627895541962692
 40
1.020000580349063
 40
1.043992300975175
 40
1.07193434552294
 40
1.113121768772926
 40
1.145225199332229
 40
1.225483775412767
 40
1.329819923771522
 40
1.434156071994407
 40
1.514414647795816
 40
1.546518078208448
 40
1.57897476426025
 40
1.662678849314174
 40
1.777131373668409
 40
1.901833377474828
 40
2.016285900500618
 40
2.099989982527971
 40
2.132446666570315
 40
2.158782354486048
 40
2.216720867907823
 40
2.274659381334244
 40
2.300995069256187
 40
2.333451754066173
 40
2.417155836543825
 40
2.531608358985293
 40
2.656310362283774
 40
2.770762886388892
 40
2.854466971340029
 40
2.886923657363864
 40
2.9135979768333
 40
2.982389642875104
 40
3.076451716946989
 40
3.178937260458595
 40
3.272999334740005
 40
3.341791001059219
 40
3.368465320663544
 40
3.396976080738794
 40
3.472140811845973
 40
3.578408190308677
 40
3.700226892456156
 40
3.82204559463433
 40
3.928312973256423
 40
4.003477705314834
 40
4.0319884568669
 40
4.058324144797682
 40
4.116262658236822
 40
4.174201171400599
 40
4.200536849608527
 40
4.200536849608527
 40
4.200536849608527
 40
4.200536849608527
 10
76.0907675369267
 20
-113.8018526599919
 30
0.0
 10
76.09882299523372
 20
-113.8018504158521
 30
0.0
 10
76.12701710708986
 20
-113.8018425536409
 30
0.0
 10
76.18155052113305
 20
-113.8019864656852
 30
0.0
 10
76.25328622162613
 20
-113.8012028089699
 30
0.0
 10
76.32862105447202
 20
-113.8040183093309
 30
0.0
 10
76.3763022774096
 20
-113.7973099799593
 30
0.0
 10
76.42450416532738
 20
-113.8083183770446
 30
0.0
 10
76.41125422075305
 20
-113.7548299839986
 30
0.0
 10
76.42010643721962
 20
-113.699798178538
 30
0.0
 10
76.41586684439432
 20
-113.6060949267079
 30
0.0
 10
76.41834538889375
 20
-113.5106991917836
 30
0.0
 10
76.41409091137184
 20
-113.4167257941351
 30
0.0
 10
76.42297890735037
 20
-113.3623433895888
 30
0.0
 10
76.4096947817603
 20
-113.3079540370544
 30
0.0
 10
76.45640896847661
 20
-113.3218718506154
 30
0.0
 10
76.49932249533947
 20
-113.3192552402285
 30
0.0
 10
76.56554138643423
 20
-113.3238097894614
 30
0.0
 10
76.60633126794565
 20
-113.3325123926273
 30
0.0
 10
76.65751160984766
 20
-113.324976015067
 30
0.0
 10
76.6303690894858
 20
-113.366794311736
 30
0.0
 10
76.58530664633645
 20
-113.357444093243
 30
0.0
 10
76.5992035452709
 20
-113.4218819402505
 30
0.0
 10
76.59083848393118
 20
-113.4865118176949
 30
0.0
 10
76.59536025860561
 20
-113.58500260203
 30
0.0
 10
76.59047117188248
 20
-113.6843346855432
 30
0.0
 10
76.600022939974
 20
-113.7473628584393
 30
0.0
 10
76.5849731862858
 20
-113.8106538989711
 30
0.0
 10
76.64991298648663
 20
-113.7951432845262
 30
0.0
 10
76.71662168071545
 20
-113.8053001369908
 30
0.0
 10
76.82914058784853
 20
-113.8004060129753
 30
0.0
 10
76.94402058566112
 20
-113.8033819666411
 30
0.0
 10
77.05698424074048
 20
-113.7980773721191
 30
0.0
 10
77.12262380053352
 20
-113.809220949248
 30
0.0
 10
77.18662470987107
 20
-113.7928486907704
 30
0.0
 10
77.17531132968467
 20
-113.8426771149162
 30
0.0
 10
77.18253102791674
 20
-113.8861268618477
 30
0.0
 10
77.17531130189269
 20
-113.9295765580945
 30
0.0
 10
77.18662475836516
 20
-113.9794050620002
 30
0.0
 10
77.12262340066296
 20
-113.9630323530553
 30
0.0
 10
77.05698916481164
 20
-113.9741812973531
 30
0.0
 10
76.9439944724989
 20
-113.9688454419004
 30
0.0
 10
76.82924269563006
 20
-113.9719505573307
 30
0.0
 10
76.71631540945191
 20
-113.966645067143
 30
0.0
 10
76.65051913112424
 20
-113.977721013773
 30
0.0
 10
76.5866068383016
 20
-113.9614180354928
 30
0.0
 10
76.5985985572784
 20
-114.0160587700115
 30
0.0
 10
76.59120750206633
 20
-114.0717510634906
 30
0.0
 10
76.5942655249641
 20
-114.1637971225632
 30
0.0
 10
76.5943393193341
 20
-114.258502915238
 30
0.0
 10
76.59102839860174
 20
-114.3507661849463
 30
0.0
 10
76.59894763975618
 20
-114.4059363266076
 30
0.0
 10
76.58650470192748
 20
-114.4597123229676
 30
0.0
 10
76.64390869592896
 20
-114.4457563253412
 30
0.0
 10
76.70446785480407
 20
-114.4551794351267
 30
0.0
 10
76.80986512627385
 20
-114.4508651546819
 30
0.0
 10
76.925426447828
 20
-114.4519389678487
 30
0.0
 10
77.04096592854548
 20
-114.453034354959
 30
0.0
 10
77.14641515384984
 20
-114.4486687562626
 30
0.0
 10
77.20686508794614
 20
-114.4581997536623
 30
0.0
 10
77.26428081467677
 20
-114.4441211179052
 30
0.0
 10
77.25277442843658
 20
-114.4932224813121
 30
0.0
 10
77.25875371894074
 20
-114.5346474337825
 30
0.0
 10
77.25702814584592
 20
-114.583777234302
 30
0.0
 10
77.25714705306291
 20
-114.6117497294928
 30
0.0
 10
77.25718420994906
 20
-114.6204911320094
 30
0.0
 11
76.0907675369267
 21
-113.8018526599919
 31
0.0
 11
76.11494065359393
 21
-113.8018526599919
 31
0.0
 11
76.17537344526205
 21
-113.8018526599919
 31
0.0
 11
76.25393607443058
 21
-113.8018526599919
 31
0.0
 11
76.33249870359913
 21
-113.8018526599919
 31
0.0
 11
76.39293149526722
 21
-113.8018526599919
 31
0.0
 11
76.41710461193446
 21
-113.8018526599919
 31
0.0
 11
76.41710461193445
 21
-113.7748778877683
 31
0.0
 11
76.41710461193446
 21
-113.7053113699286
 31
0.0
 11
76.41710461193446
 21
-113.6101898047191
 31
0.0
 11
76.41710461193446
 21
-113.5065498903864
 31
0.0
 11
76.41710461193446
 21
-113.4114283251769
 31
0.0
 11
76.41710461193446
 21
-113.3418618073372
 31
0.0
 11
76.41710461193446
 21
-113.3148870351136
 31
0.0
 11
76.44103780125498
 21
-113.316561882891
 31
0.0
 11
76.49810925271154
 21
-113.3205557506677
 31
0.0
 11
76.56622679154682
 21
-113.325322625111
 31
0.0
 11
76.6232982430034
 21
-113.3293164928877
 31
0.0
 11
76.6472314323239
 21
-113.3309913406651
 31
0.0
 11
76.6324943138887
 21
-113.3547310802425
 31
0.0
 11
76.5936610657634
 21
-113.3684563406558
 31
0.0
 11
76.59366106576338
 21
-113.4005597717177
 31
0.0
 11
76.5936610657634
 21
-113.4808183493725
 31
0.0
 11
76.5936610657634
 21
-113.5851545003239
 31
0.0
 11
76.5936610657634
 21
-113.6894906512751
 31
0.0
 11
76.5936610657634
 21
-113.7697492289299
 31
0.0
 11
76.5936610657634
 21
-113.8018526599919
 31
0.0
 11
76.62611775184823
 21
-113.8018526599919
 31
0.0
 11
76.70982183701432
 21
-113.8018526599919
 31
0.0
 11
76.82427436162921
 21
-113.8018526599919
 31
0.0
 11
76.94897636606036
 21
-113.8018526599919
 31
0.0
 11
77.06342889067524
 21
-113.8018526599919
 31
0.0
 11
77.14713297584134
 21
-113.8018526599919
 31
0.0
 11
77.17958966192617
 21
-113.8018526599919
 31
0.0
 11
77.17958966192617
 21
-113.8281883479193
 31
0.0
 11
77.17958966192617
 21
-113.8861268613597
 31
0.0
 11
77.17958966192617
 21
-113.9440653748001
 31
0.0
 11
77.17958966192617
 21
-113.9704010627275
 31
0.0
 11
77.14713297584134
 21
-113.9704010627275
 31
0.0
 11
77.06342889067525
 21
-113.9704010627275
 31
0.0
 11
76.94897636606036
 21
-113.9704010627275
 31
0.0
 11
76.82427436162922
 21
-113.9704010627275
 31
0.0
 11
76.70982183701432
 21
-113.9704010627275
 31
0.0
 11
76.62611775184821
 21
-113.9704010627275
 31
0.0
 11
76.5936610657634
 21
-113.9704010627275
 31
0.0
 11
76.5936610657634
 21
-113.9970753824487
 31
0.0
 11
76.5936610657634
 21
-114.0658670490982
 31
0.0
 11
76.5936610657634
 21
-114.1599291239046
 31
0.0
 11
76.5936610657634
 21
-114.2624146680967
 31
0.0
 11
76.5936610657634
 21
-114.3564767429031
 31
0.0
 11
76.5936610657634
 21
-114.4252684095526
 31
0.0
 11
76.5936610657634
 21
-114.4519427292738
 31
0.0
 11
76.62217182586512
 21
-114.4519427292738
 31
0.0
 11
76.69733655704239
 21
-114.4519427292738
 31
0.0
 11
76.80360393560339
 21
-114.4519427292738
 31
0.0
 11
76.92542263785623
 21
-114.4519427292738
 31
0.0
 11
77.04724134010907
 21
-114.4519427292738
 31
0.0
 11
77.15350871867005
 21
-114.4519427292738
 31
0.0
 11
77.22867344984732
 21
-114.4519427292738
 31
0.0
 11
77.25718420994906
 21
-114.4519427292738
 31
0.0
 11
77.25718420994905
 21
-114.4782784172012
 31
0.0
 11
77.25718420994906
 21
-114.5362169306416
 31
0.0
 11
77.25718420994906
 21
-114.594155444082
 31
0.0
 11
77.25718420994906
 21
-114.6204911320094
 31
0.0
  0
SPLINE
  5
AE
102
{ACAD_REACTORS
330
CB
102
}
330
48
100
AcDbEntity
  8
_U_30EC_U_30A4_U_30E4_U_30FC_1
  6
Continuous
 62
     2
100
AcDbSpline
210
0.0
220
0.0
230
1.0
 70
     8
 71
     3
 72
    62
 73
    58
 74
    56
 42
0.000000001
 43
0.0000000001
 44
0.00000001
 40
0.0
 40
0.0
 40
0.0
 40
0.0
 40
0.0598250028308769
 40
0.2024846486897331
 40
0.3727558389221031
 40
0.5154154847936354
 40
0.5752404975785765
 40
0.9332326775487794
 40
1.290451762839536
 40
1.602077253145988
 40
1.699931634112192
 40
1.799359756425081
 40
2.270120149657143
 40
2.8046619284616
 40
2.882342287383297
 40
3.076543185719162
 40
3.329004354835634
 40
3.581465524568459
 40
3.775666424543745
 40
3.85334678455837
 40
3.899120679595145
 40
3.984129341792142
 40
4.029903236817491
 40
4.105797496059639
 40
4.295533144152616
 40
4.542189486611834
 40
4.788845828875795
 40
4.978581476410172
 40
5.054475735244411
 40
5.621734664339422
 40
6.130867242037428
 40
6.225249780948597
 40
6.318913039727377
 40
6.663579954558995
 40
7.047498900224845
 40
7.435230791575804
 40
7.498943906668216
 40
7.650875181210181
 40
7.832212509001734
 40
7.984143783697106
 40
8.047856898903234
 40
8.091554632732738
 40
8.172707566964348
 40
8.21640530076806
 40
8.289021782160944
 40
8.462184160757289
 40
8.668861838005427
 40
8.842024215263976
 40
8.914640695475185
 40
8.989881580861393
 40
9.155411528827301
 40
9.320941477744114
 40
9.39618235248736
 40
9.454709011143864
 40
9.58346766017087
 40
9.712226309013078
 40
9.770752957989574
 40
9.770752957989574
 40
9.770752957989574
 40
9.770752957989574
 10
77.25718420994906
 20
-114.6204911320094
 30
0.0
 10
77.23723185792807
 20
-114.6204852582822
 30
0.0
 10
77.16970081241233
 20
-114.6204653759073
 30
0.0
 10
77.04605825694456
 20
-114.6208003887657
 30
0.0
 10
76.89131505577137
 20
-114.6192172764638
 30
0.0
 10
76.7747319890137
 20
-114.623433225364
 30
0.0
 10
76.56009130418975
 20
-114.6081419606526
 30
0.0
 10
76.95689188148862
 20
-114.968306801107
 30
0.0
 10
76.99956264769244
 20
-115.1851889799972
 30
0.0
 10
77.42391325542694
 20
-115.3670433888546
 30
0.0
 10
77.24897919037313
 20
-115.4704420482882
 30
0.0
 10
77.12444943327424
 20
-115.6819787818417
 30
0.0
 10
76.87162476435996
 20
-115.2122332039533
 30
0.0
 10
76.58475733012843
 20
-114.5651788441236
 30
0.0
 10
76.59563063343178
 20
-114.872467292422
 30
0.0
 10
76.59328631856177
 20
-115.0374078442511
 30
0.0
 10
76.5911066534069
 20
-115.271497306852
 30
0.0
 10
76.60307448040041
 20
-115.5153132897511
 30
0.0
 10
76.5737955148288
 20
-115.661736045359
 30
0.0
 10
76.61644930331279
 20
-115.8091591122235
 30
0.0
 10
76.5289784413297
 20
-115.7934360409067
 30
0.0
 10
76.4818498014402
 20
-115.7933509785344
 30
0.0
 10
76.39489436153703
 20
-115.8091997591398
 30
0.0
 10
76.43634444293806
 20
-115.6650162997413
 30
0.0
 10
76.40798454119424
 20
-115.5217434869844
 30
0.0
 10
76.4195944182957
 20
-115.2835445403163
 30
0.0
 10
76.41741460559295
 20
-115.0551216615655
 30
0.0
 10
76.41530815356512
 20
-114.893236720209
 30
0.0
 10
76.42580058459812
 20
-114.5787569206314
 30
0.0
 10
76.117893366055
 20
-115.2679993052445
 30
0.0
 10
75.81052286751141
 20
-115.7455265115385
 30
0.0
 10
75.69013374739315
 20
-115.5228828875946
 30
0.0
 10
75.51245783183792
 20
-115.4101836644133
 30
0.0
 10
75.99032967705513
 20
-115.2348125793143
 30
0.0
 10
76.04039294648652
 20
-114.9993747214487
 30
0.0
 10
76.46337700293746
 20
-114.6070641205228
 30
0.0
 10
76.2326724681198
 20
-114.6237409436783
 30
0.0
 10
76.10996562669986
 20
-114.6175988244812
 30
0.0
 10
75.93754535033196
 20
-114.6271657869732
 30
0.0
 10
75.82631951021057
 20
-114.6058058290722
 30
0.0
 10
75.70757500351058
 20
-114.6389313603947
 30
0.0
 10
75.7233140114343
 20
-114.5582550079001
 30
0.0
 10
75.72285213414196
 20
-114.5138398710604
 30
0.0
 10
75.70778522975888
 20
-114.4306231961837
 30
0.0
 10
75.84223513431007
 20
-114.4696674941301
 30
0.0
 10
75.9669725953404
 20
-114.4428967206848
 30
0.0
 10
76.16787256449376
 20
-114.4596545235285
 30
0.0
 10
76.29715113570106
 20
-114.4382517548389
 30
0.0
 10
76.43783903359521
 20
-114.4716062254348
 30
0.0
 10
76.4030897860273
 20
-114.3337752561183
 30
0.0
 10
76.427215607437
 20
-114.2106614404741
 30
0.0
 10
76.40170565900496
 20
-114.0900534572656
 30
0.0
 10
76.43832215543425
 20
-113.954895362554
 30
0.0
 10
76.32613874354267
 20
-113.97934855615
 30
0.0
 10
76.2330326864794
 20
-113.9672165155488
 30
0.0
 10
76.1241517987477
 20
-113.970717713269
 30
0.0
 10
76.06196680486218
 20
-113.9704764544529
 30
0.0
 10
76.04253399649036
 20
-113.9704010627275
 30
0.0
 11
77.25718420994906
 21
-114.6204911320094
 31
0.0
 11
77.19735919716393
 21
-114.6204911320094
 31
0.0
 11
77.0546995512917
 21
-114.6204911320094
 31
0.0
 11
76.8844283610571
 21
-114.6204911320094
 31
0.0
 11
76.74176871518486
 21
-114.6204911320094
 31
0.0
 11
76.68194370239974
 21
-114.6204911320094
 31
0.0
 11
76.87299311624997
 21
-114.9232427343
 31
0.0
 11
77.09912431932871
 21
-115.1997751082021
 31
0.0
 11
77.32944965810287
 21
-115.4096814790344
 31
0.0
 11
77.25715667383615
 21
-115.4756299772818
 31
0.0
 11
77.19293348103008
 21
-115.5515334234433
 31
0.0
 11
76.87827886232154
 21
-115.2013794304753
 31
0.0
 11
76.5936610657634
 21
-114.7489110625329
 31
0.0
 11
76.59366106576338
 21
-114.8265914225958
 31
0.0
 11
76.5936610657634
 21
-115.020792322753
 31
0.0
 11
76.5936610657634
 21
-115.2732534929574
 31
0.0
 11
76.5936610657634
 21
-115.5257146631617
 31
0.0
 11
76.5936610657634
 21
-115.7199155633189
 31
0.0
 11
76.5936610657634
 21
-115.7975959233818
 31
0.0
 11
76.54788717032628
 21
-115.7975959233818
 31
0.0
 11
76.4628785073716
 21
-115.7975959233818
 31
0.0
 11
76.41710461193446
 21
-115.7975959233818
 31
0.0
 11
76.41710461193446
 21
-115.7217016641415
 31
0.0
 11
76.41710461193446
 21
-115.5319660160408
 31
0.0
 11
76.41710461193446
 21
-115.2853096735099
 31
0.0
 11
76.41710461193446
 21
-115.038653330979
 31
0.0
 11
76.41710461193446
 21
-114.8489176828783
 31
0.0
 11
76.41710461193446
 21
-114.773023423638
 31
0.0
 11
76.10375968069238
 21
-115.245884551992
 31
0.0
 11
75.74022990698057
 21
-115.6023422428751
 31
0.0
 11
75.68238978692851
 21
-115.5277595085188
 31
0.0
 11
75.61448227129983
 21
-115.4632507845765
 31
0.0
 11
75.88006923059766
 21
-115.24357181601
 31
0.0
 11
76.12837353797185
 21
-114.9507600542519
 31
0.0
 11
76.33149532129175
 21
-114.6204911320094
 31
0.0
 11
76.26778220603785
 21
-114.6204911320094
 31
0.0
 11
76.11585093120165
 21
-114.6204911320094
 31
0.0
 11
75.9345136031713
 21
-114.6204911320094
 31
0.0
 11
75.78258232833508
 21
-114.6204911320094
 31
0.0
 11
75.71886921308118
 21
-114.6204911320094
 31
0.0
 11
75.71886921308118
 21
-114.5767933979668
 31
0.0
 11
75.71886921308118
 21
-114.4956404633164
 31
0.0
 11
75.71886921308118
 21
-114.4519427292738
 31
0.0
 11
75.79148569456193
 21
-114.4519427292738
 31
0.0
 11
75.96464807347753
 21
-114.4519427292738
 31
0.0
 11
76.17132575153812
 21
-114.4519427292738
 31
0.0
 11
76.34448813045373
 21
-114.4519427292738
 31
0.0
 11
76.41710461193446
 21
-114.4519427292738
 31
0.0
 11
76.41710461193448
 21
-114.3767018438759
 31
0.0
 11
76.41710461193446
 21
-114.2111718960007
 31
0.0
 11
76.41710461193446
 21
-114.0456419481254
 31
0.0
 11
76.41710461193446
 21
-113.9704010627275
 31
0.0
 11
76.35857795327134
 21
-113.9704010627275
 31
0.0
 11
76.22981930421241
 21
-113.9704010627275
 31
0.0
 11
76.1010606551535
 21
-113.9704010627275
 31
0.0
 11
76.04253399649036
 21
-113.9704010627275
 31
0.0
  0
SPLINE
  5
AF
102
{ACAD_REACTORS
330
CC
102
}
330
48
100
AcDbEntity
  8
_U_30EC_U_30A4_U_30E4_U_30FC_1
  6
Continuous
 62
     2
100
AcDbSpline
210
0.0
220
0.0
230
1.0
 70
    11
 71
     3
 72
   124
 73
   120
 74
   118
 42
0.000000001
 43
0.0000000001
 44
0.00000001
 40
0.0
 40
0.0
 40
0.0
 40
0.0
 40
0.0278187229624653
 40
0.1011590162384128
 40
0.2048470170589955
 40
0.3237088716558961
 40
0.4425707262521573
 40
0.5462587270699263
 40
0.6195990203311798
 40
0.6474177522578518
 40
0.6750060736114993
 40
0.7357003855242545
 40
0.7963946998054332
 40
0.823983024557166
 40
0.8540933811102469
 40
0.9373396629409292
 40
1.06309468734321
 40
1.220731268638077
 40
1.399622220914737
 40
1.589140358637707
 40
1.778658496423831
 40
1.957549448940512
 40
2.11518603087312
 40
2.240941056914409
 40
2.324187341760479
 40
2.354297700109343
 40
2.381886024671858
 40
2.442580338710443
 40
2.503274652750478
 40
2.530862977314571
 40
2.560983949278509
 40
2.640393784452884
 40
2.752662861759064
 40
2.881361560118081
 40
3.010060258455142
 40
3.122329335705303
 40
3.201739170817889
 40
3.231860142753278
 40
3.264298024030325
 40
3.352343701778197
 40
3.482095226868709
 40
3.639650650172968
 40
3.811108022565421
 40
3.982565394927932
 40
4.140120818152497
 40
4.269872343141203
 40
4.357918020802274
 40
4.390355902043894
 40
4.423256253992492
 40
4.508104530072999
 40
4.624121560636767
 40
4.750528176031524
 40
4.866545206601985
 40
4.951393482691928
 40
4.984293834645343
 40
5.011450833242265
 40
5.071196230152055
 40
5.130941627057113
 40
5.158098625648777
 40
5.190998977601411
 40
5.275847253689251
 40
5.391864284256727
 40
5.518270899648244
 40
5.634287930209283
 40
5.719136206287957
 40
5.752036558235859
 40
5.782130946282892
 40
5.862783906229056
 40
5.979550131774929
 40
6.117984316640361
 40
6.263641154587902
 40
6.402075339414098
 40
6.518841564907917
 40
6.599494524815484
 40
6.629588912848733
 40
6.65440302822631
 40
6.713575149488049
 40
6.784199939329381
 40
6.843372060493456
 40
6.868186175802687
 40
6.896246243201761
 40
6.939586233758163
 40
6.967846564564795
 40
7.043584251089726
 40
7.153234334451568
 40
7.283231855734329
 40
7.42001185603533
 40
7.550009376579709
 40
7.659659458835108
 40
7.735397144417092
 40
7.763657474851257
 40
7.796409728010914
 40
7.880876065096217
 40
7.996370852465546
 40
8.122208446418455
 40
8.237703224799063
 40
8.322169562010785
 40
8.354921815205756
 40
8.38207881330753
 40
8.441824209206843
 40
8.501569605239993
 40
8.528726603485566
 40
8.5614788566956
 40
8.64594519387768
 40
8.76143998086522
 40
8.887277580764362
 40
9.00277236200084
 40
9.087238696661046
 40
9.119990949235529
 40
9.152428830613232
 40
9.240474508638442
 40
9.370226034149397
 40
9.527781457984275
 40
9.699238830981244
 40
9.87069620397844
 40
10.02825162781387
 40
10.15800315332548
 40
10.24604883135102
 40
10.27848670378505
 40
10.27848670378505
 40
10.27848670378505
 40
10.27848670378505
 10
85.48717979720408
 20
-115.5461888401113
 30
0.0
 10
85.49645251451811
 20
-115.5461890288561
 30
0.0
 10
85.53017149445178
 20
-115.5461897052018
 30
0.0
 10
85.59846772201233
 20
-115.5461759415358
 30
0.0
 10
85.6970112119237
 20
-115.5462617717735
 30
0.0
 10
85.81120368724692
 20
-115.5458764578464
 30
0.0
 10
85.92358648247287
 20
-115.5472856549934
 30
0.0
 10
86.02643470077751
 20
-115.5431028397464
 30
0.0
 10
86.0856810282506
 20
-115.552063121449
 30
0.0
 10
86.14212363446904
 20
-115.5386496687083
 30
0.0
 10
86.12962259946121
 20
-115.5894220278353
 30
0.0
 10
86.13795200433606
 20
-115.6344008045782
 30
0.0
 10
86.12981412487773
 20
-115.679726484064
 30
0.0
 10
86.14204996221143
 20
-115.7309746898842
 30
0.0
 10
86.07977438979904
 20
-115.7158144603161
 30
0.0
 10
86.01104834345256
 20
-115.7266965068614
 30
0.0
 10
85.88327271572489
 20
-115.7211809664892
 30
0.0
 10
85.73129549193003
 20
-115.7232855014319
 30
0.0
 10
85.55526663801801
 20
-115.7225839880841
 30
0.0
 10
85.36944023419447
 20
-115.722841638656
 30
0.0
 10
85.18361378448327
 20
-115.7225839625228
 30
0.0
 10
85.00758505498258
 20
-115.7232855954916
 30
0.0
 10
84.8556074561852
 20
-115.721180691669
 30
0.0
 10
84.72783280722119
 20
-115.7266972062925
 30
0.0
 10
84.65910482442382
 20
-115.7158132427094
 30
0.0
 10
84.59683194505403
 20
-115.7309761471268
 30
0.0
 10
84.60905866976752
 20
-115.6797189059172
 30
0.0
 10
84.6009974870254
 20
-115.6344692812445
 30
0.0
 10
84.60906462175501
 20
-115.5892304344157
 30
0.0
 10
84.59682088947412
 20
-115.5379522448693
 30
0.0
 10
84.65749875283552
 20
-115.5527982403376
 30
0.0
 10
84.72127811533937
 20
-115.5427295322615
 30
0.0
 10
84.832728476116
 20
-115.5473475718489
 30
0.0
 10
84.95475038514807
 20
-115.5461607249142
 30
0.0
 10
85.07695085454812
 20
-115.5451353749626
 30
0.0
 10
85.18797646950499
 20
-115.5493692577348
 30
0.0
 10
85.2526487821615
 20
-115.5401081687515
 30
0.0
 10
85.31411332181591
 20
-115.5542497834721
 30
0.0
 10
85.29800360089945
 20
-115.4879387351237
 30
0.0
 10
85.30929507350157
 20
-115.4158161127491
 30
0.0
 10
85.30373712302182
 20
-115.285156405086
 30
0.0
 10
85.30580054693475
 20
-115.1342207768865
 30
0.0
 10
85.30501375349522
 20
-114.96693528289
 30
0.0
 10
85.30578156232843
 20
-114.7996829106458
 30
0.0
 10
85.30380091932862
 20
-114.6486611212698
 30
0.0
 10
85.3091276564278
 20
-114.5182333184389
 30
0.0
 10
85.29830717960823
 20
-114.4456395879099
 30
0.0
 10
85.31402968375329
 20
-114.3787893196009
 30
0.0
 10
85.2482678540148
 20
-114.3944888890607
 30
0.0
 10
85.1806338238421
 20
-114.3842015831289
 30
0.0
 10
85.0665855701467
 20
-114.3891561454977
 30
0.0
 10
84.95012130825603
 20
-114.3861527336642
 30
0.0
 10
84.83565245291346
 20
-114.391490982535
 30
0.0
 10
84.76902950654697
 20
-114.3802813332207
 30
0.0
 10
84.70407401228428
 20
-114.3968026873188
 30
0.0
 10
84.71579601663659
 20
-114.3455568091983
 30
0.0
 10
84.70828005967778
 20
-114.300790676128
 30
0.0
 10
84.71579602864932
 20
-114.2560245649893
 30
0.0
 10
84.70407399130043
 20
-114.2047786526715
 30
0.0
 10
84.76902967468573
 20
-114.2213001963007
 30
0.0
 10
84.8356503747479
 20
-114.2100883002295
 30
0.0
 10
84.95013232657205
 20
-114.2154396468623
 30
0.0
 10
85.06654248446202
 20
-114.2123821262577
 30
0.0
 10
85.18076305822984
 20
-114.2175090238618
 30
0.0
 10
85.24801208468834
 20
-114.2068366804129
 30
0.0
 10
85.31332963490959
 20
-114.2228731872781
 30
0.0
 10
85.29913618562091
 20
-114.1607971564684
 30
0.0
 10
85.30860298706529
 20
-114.0944263976813
 30
0.0
 10
85.30402394117428
 20
-113.9778942865492
 30
0.0
 10
85.30576669636052
 20
-113.8460271637451
 30
0.0
 10
85.30475219030492
 20
-113.7041344124661
 30
0.0
 10
85.30671617520304
 20
-113.5726035069431
 30
0.0
 10
85.3014638961508
 20
-113.4550482411388
 30
0.0
 10
85.31233791711318
 20
-113.390816123953
 30
0.0
 10
85.29695070495112
 20
-113.3292059885184
 30
0.0
 10
85.34575619454577
 20
-113.3432699401478
 30
0.0
 10
85.3903965972383
 20
-113.3407465932157
 30
0.0
 10
85.45886143543999
 20
-113.3451660399518
 30
0.0
 10
85.50090765767595
 20
-113.3541637585286
 30
0.0
 10
85.55375151664322
 20
-113.3461768653038
 30
0.0
 10
85.52570054096714
 20
-113.3891548378522
 30
0.0
 10
85.4799112656252
 20
-113.3776984935305
 30
0.0
 10
85.49195094809215
 20
-113.4385588139176
 30
0.0
 10
85.48460564782998
 20
-113.5026010192812
 30
0.0
 10
85.4881166233819
 20
-113.6112003253298
 30
0.0
 10
85.48697771678316
 20
-113.7353508225214
 30
0.0
 10
85.48691451879202
 20
-113.8683968156701
 30
0.0
 10
85.48828433745248
 20
-113.9923202014733
 30
0.0
 10
85.4841609208971
 20
-114.1016106354755
 30
0.0
 10
85.49277335112215
 20
-114.1642082130272
 30
0.0
 10
85.47967278620595
 20
-114.2228926810052
 30
0.0
 10
85.54438547358556
 20
-114.2066728758599
 30
0.0
 10
85.61103763608132
 20
-114.2175914101358
 30
0.0
 10
85.72487499487605
 20
-114.2123566122314
 30
0.0
 10
85.8407229529754
 20
-114.2154385387998
 30
0.0
 10
85.95468946709377
 20
-114.2101114158438
 30
0.0
 10
86.02103114257568
 20
-114.2212519323034
 30
0.0
 10
86.08571589331372
 20
-114.2048242180371
 30
0.0
 10
86.073979118038
 20
-114.2560347618684
 30
0.0
 10
86.08151384706981
 20
-114.3007906727589
 30
0.0
 10
86.07397913999154
 20
-114.3455466238686
 30
0.0
 10
86.08571585483944
 20
-114.3967571052585
 30
0.0
 10
86.02103144829096
 20
-114.3803297360266
 30
0.0
 10
85.95468568384825
 20
-114.3914661694962
 30
0.0
 10
85.8407429894669
 20
-114.3861628550377
 30
0.0
 10
85.72479660307127
 20
-114.3891463680335
 30
0.0
 10
85.61127272897798
 20
-114.384225091285
 30
0.0
 10
85.54392017264615
 20
-114.3944431388336
 30
0.0
 10
85.47842555301527
 20
-114.3788340525807
 30
0.0
 10
85.49416840268756
 20
-114.4456554956948
 30
0.0
 10
85.48332464058709
 20
-114.5182234358101
 30
0.0
 10
85.48865520374491
 20
-114.6486715378247
 30
0.0
 10
85.48671065595136
 20
-114.7996484321167
 30
0.0
 10
85.48731040908717
 20
-114.9670715746273
 30
0.0
 10
85.48714769672623
 20
-115.1337322527851
 30
0.0
 10
85.48718658957932
 20
-115.2866925847525
 30
0.0
 10
85.48717868207561
 20
-115.4118022241118
 30
0.0
 10
85.48717987904034
 20
-115.4952151040547
 30
0.0
 10
85.48717981238657
 20
-115.5353762311491
 30
0.0
 10
85.48717979720408
 20
-115.5461888401113
 30
0.0
 11
85.48717979720408
 21
-115.5461888401113
 31
0.0
 11
85.51499852913325
 21
-115.5461888401113
 31
0.0
 11
85.58833882240106
 21
-115.5461888401113
 31
0.0
 11
85.69202682322796
 21
-115.5461888401113
 31
0.0
 11
85.81088867783441
 21
-115.5461888401113
 31
0.0
 11
85.92975053244086
 21
-115.5461888401113
 31
0.0
 11
86.03343853326777
 21
-115.5461888401113
 31
0.0
 11
86.10677882653557
 21
-115.5461888401113
 31
0.0
 11
86.13459755846475
 21
-115.5461888401113
 31
0.0
 11
86.13459755846475
 21
-115.5737771647572
 31
0.0
 11
86.13459755846475
 21
-115.6344714789781
 31
0.0
 11
86.13459755846475
 21
-115.695165793199
 31
0.0
 11
86.13459755846475
 21
-115.7227541178449
 31
0.0
 11
86.10448720011514
 21
-115.7227541178449
 31
0.0
 11
86.02124091526619
 21
-115.7227541178449
 31
0.0
 11
85.89548588921784
 21
-115.7227541178449
 31
0.0
 11
85.73784930726985
 21
-115.7227541178449
 31
0.0
 11
85.55895835472217
 21
-115.7227541178449
 31
0.0
 11
85.36944021687461
 21
-115.7227541178449
 31
0.0
 11
85.17992207902705
 21
-115.7227541178449
 31
0.0
 11
85.00103112647935
 21
-115.7227541178449
 31
0.0
 11
84.84339454453138
 21
-115.7227541178449
 31
0.0
 11
84.717639518483
 21
-115.7227541178449
 31
0.0
 11
84.63439323363407
 21
-115.7227541178449
 31
0.0
 11
84.60428287528447
 21
-115.7227541178449
 31
0.0
 11
84.60428287528447
 21
-115.695165793199
 31
0.0
 11
84.60428287528447
 21
-115.6344714789781
 31
0.0
 11
84.60428287528447
 21
-115.5737771647572
 31
0.0
 11
84.60428287528447
 21
-115.5461888401113
 31
0.0
 11
84.63440384726043
 21
-115.5461888401113
 31
0.0
 11
84.71381368246979
 21
-115.5461888401113
 31
0.0
 11
84.82608275983476
 21
-115.5461888401113
 31
0.0
 11
84.95478145827752
 21
-115.5461888401113
 31
0.0
 11
85.08348015672028
 21
-115.5461888401113
 31
0.0
 11
85.19574923408526
 21
-115.5461888401113
 31
0.0
 11
85.2751590692946
 21
-115.5461888401113
 31
0.0
 11
85.30528004127058
 21
-115.5461888401113
 31
0.0
 11
85.30528004127058
 21
-115.5137509587305
 31
0.0
 11
85.30528004127058
 21
-115.425705280697
 31
0.0
 11
85.30528004127058
 21
-115.2959537551739
 31
0.0
 11
85.30528004127058
 21
-115.1383983313244
 31
0.0
 11
85.30528004127058
 21
-114.9669409583117
 31
0.0
 11
85.30528004127058
 21
-114.7954835852989
 31
0.0
 11
85.30528004127058
 21
-114.6379281614495
 31
0.0
 11
85.30528004127058
 21
-114.5081766359263
 31
0.0
 11
85.30528004127058
 21
-114.4201309578928
 31
0.0
 11
85.30528004127058
 21
-114.387693076512
 31
0.0
 11
85.27237968931861
 21
-114.387693076512
 31
0.0
 11
85.187531413232
 21
-114.387693076512
 31
0.0
 11
85.07151438266456
 21
-114.387693076512
 31
0.0
 11
84.94510776727017
 21
-114.387693076512
 31
0.0
 11
84.82909073670275
 21
-114.387693076512
 31
0.0
 11
84.7442424606161
 21
-114.387693076512
 31
0.0
 11
84.71134210866416
 21
-114.387693076512
 31
0.0
 11
84.71134210866417
 21
-114.3605360778209
 31
0.0
 11
84.71134210866416
 21
-114.3007906807004
 31
0.0
 11
84.71134210866416
 21
-114.2410452835799
 31
0.0
 11
84.71134210866416
 21
-114.2138882848888
 31
0.0
 11
84.7442424606161
 21
-114.2138882848888
 31
0.0
 11
84.82909073670274
 21
-114.2138882848888
 31
0.0
 11
84.94510776727019
 21
-114.2138882848888
 31
0.0
 11
85.07151438266455
 21
-114.2138882848888
 31
0.0
 11
85.18753141323198
 21
-114.2138882848888
 31
0.0
 11
85.27237968931861
 21
-114.2138882848888
 31
0.0
 11
85.30528004127058
 21
-114.2138882848888
 31
0.0
 11
85.30528004127058
 21
-114.1837938966552
 31
0.0
 11
85.30528004127058
 21
-114.1031409361892
 31
0.0
 11
85.30528004127058
 21
-113.9863747098428
 31
0.0
 11
85.30528004127056
 21
-113.8479405239682
 31
0.0
 11
85.30528004127058
 21
-113.7022836849176
 31
0.0
 11
85.30528004127059
 21
-113.5638494990431
 31
0.0
 11
85.30528004127058
 21
-113.4470832726967
 31
0.0
 11
85.30528004127058
 21
-113.3664303122307
 31
0.0
 11
85.30528004127058
 21
-113.3363359239971
 31
0.0
 11
85.33003756962756
 21
-113.3380107717745
 31
0.0
 11
85.38907475263268
 21
-113.3420046395512
 31
0.0
 11
85.45953848718716
 21
-113.3467715139945
 31
0.0
 11
85.51857567019226
 21
-113.3507653817713
 31
0.0
 11
85.54333319854925
 21
-113.3524402295486
 31
0.0
 11
85.5283037631688
 21
-113.3761358719038
 31
0.0
 11
85.48717979720408
 21
-113.3898170350949
 31
0.0
 11
85.48717979720408
 21
-113.4180773660206
 31
0.0
 11
85.48717979720408
 21
-113.4938150529015
 31
0.0
 11
85.48717979720409
 21
-113.6034651368933
 31
0.0
 11
85.48717979720408
 21
-113.7334626591516
 31
0.0
 11
85.48717979720408
 21
-113.8702426608321
 31
0.0
 11
85.48717979720408
 21
-114.0002401830904
 31
0.0
 11
85.48717979720408
 21
-114.1098902670822
 31
0.0
 11
85.48717979720408
 21
-114.1856279539631
 31
0.0
 11
85.48717979720408
 21
-114.2138882848888
 31
0.0
 11
85.51993205037724
 21
-114.2138882848888
 31
0.0
 11
85.60439838750804
 21
-114.2138882848888
 31
0.0
 11
85.71989317501338
 21
-114.2138882848888
 31
0.0
 11
85.84573077931029
 21
-114.2138882848888
 31
0.0
 11
85.96122556681561
 21
-114.2138882848888
 31
0.0
 11
86.0456919039464
 21
-114.2138882848888
 31
0.0
 11
86.07844415711958
 21
-114.2138882848888
 31
0.0
 11
86.07844415711958
 21
-114.2410452835799
 31
0.0
 11
86.07844415711958
 21
-114.3007906807004
 31
0.0
 11
86.07844415711958
 21
-114.3605360778209
 31
0.0
 11
86.07844415711958
 21
-114.387693076512
 31
0.0
 11
86.0456919039464
 21
-114.387693076512
 31
0.0
 11
85.96122556681561
 21
-114.387693076512
 31
0.0
 11
85.84573077931026
 21
-114.387693076512
 31
0.0
 11
85.71989317501338
 21
-114.387693076512
 31
0.0
 11
85.60439838750803
 21
-114.387693076512
 31
0.0
 11
85.51993205037724
 21
-114.387693076512
 31
0.0
 11
85.48717979720408
 21
-114.387693076512
 31
0.0
 11
85.48717979720409
 21
-114.4201309578928
 31
0.0
 11
85.48717979720408
 21
-114.5081766359263
 31
0.0
 11
85.48717979720408
 21
-114.6379281614495
 31
0.0
 11
85.48717979720408
 21
-114.795483585299
 31
0.0
 11
85.48717979720408
 21
-114.9669409583116
 31
0.0
 11
85.48717979720408
 21
-115.1383983313243
 31
0.0
 11
85.48717979720408
 21
-115.2959537551739
 31
0.0
 11
85.48717979720408
 21
-115.425705280697
 31
0.0
 11
85.48717979720408
 21
-115.5137509587305
 31
0.0
 11
85.48717979720408
 21
-115.5461888401113
 31
0.0
  0
SPLINE
  5
B0
102
{ACAD_REACTORS
330
CD
102
}
330
48
100
AcDbEntity
  8
_U_30EC_U_30A4_U_30E4_U_30FC_1
  6
Continuous
 62
     2
100
AcDbSpline
210
0.0
220
0.0
230
1.0
 70
    11
 71
     3
 72
   131
 73
   127
 74
   125
 42
0.000000001
 43
0.0000000001
 44
0.00000001
 40
0.0
 40
0.0
 40
0.0
 40
0.0
 40
0.0195577029826765
 40
0.0426490537462544
 40
0.2863607575857255
 40
0.5344948436189948
 40
0.7842238845573393
 40
0.8737315789467441
 40
0.9803832810313265
 40
1.09284227451708
 40
1.199761146656824
 40
1.289788768186541
 40
1.351573580786232
 40
1.370727117561486
 40
1.416400936017864
 40
1.470914848355999
 40
1.516588666791816
 40
1.535742203552882
 40
1.634216592293216
 40
1.760283341175036
 40
1.897966686682141
 40
2.031216387368972
 40
2.049689751137962
 40
2.101115601646911
 40
2.179502577740039
 40
2.278859318314162
 40
2.393194462258819
 40
2.516516648383942
 40
2.642834515406066
 40
2.766156701983576
 40
2.88049184675468
 40
2.979848588358735
 40
3.058235565443895
 40
3.109661416669056
 40
3.128134780704244
 40
3.146783742386589
 40
3.19125434331545
 40
3.244332157316123
 40
3.288802758225998
 40
3.307451719895255
 40
3.32771785384486
 40
3.383747753580238
 40
3.468388665924622
 40
3.574487837698925
 40
3.694892515729052
 40
3.822449946852189
 40
3.950007377920571
 40
4.070412055800674
 40
4.176511227368223
 40
4.261152139501675
 40
4.317182039076869
 40
4.337448172964798
 40
4.62001100269645
 40
4.885096638397664
 40
4.945373043518497
 40
5.01410771048882
 40
5.070481727652147
 40
5.319246955636673
 40
5.584812164506164
 40
5.859000912057025
 40
6.133746937542189
 40
6.401732212969002
 40
6.420736683995579
 40
6.472845717451215
 40
6.550702743894171
 40
6.646951193874394
 40
6.75423449793069
 40
6.865196086587496
 40
6.972479390357983
 40
7.068727839772088
 40
7.146584865451126
 40
7.198693898189355
 40
7.21769836890551
 40
7.234950401631004
 40
7.276089864270028
 40
7.325191803516128
 40
7.36633126609052
 40
7.383583298769872
 40
7.402779163492249
 40
7.45338644325468
 40
7.524934666445682
 40
7.606953361406007
 40
7.688972056429145
 40
7.760520279784381
 40
7.811127559734623
 40
7.830323424546273
 40
7.847844055299896
 40
7.894799345666947
 40
7.96277939274463
 40
8.04337429356071
 40
8.128174145149622
 40
8.208769044817423
 40
8.276749090377145
 40
8.323704379669714
 40
8.34122501005644
 40
8.358497614800632
 40
8.401679126686822
 40
8.457815092185866
 40
8.513951057728299
 40
8.55713256970821
 40
8.574405174505312
 40
8.602340668616693
 40
8.64345566054022
 40
8.663225271966901
 40
8.71534515656456
 40
8.789031889628895
 40
8.873502045520617
 40
8.957972194324249
 40
9.03165892556813
 40
9.083778811234843
 40
9.10354842300331
 40
9.119550083123876
 40
9.16081752238015
 40
9.217244429110501
 40
9.278724491645
 40
9.3351513982958
 40
9.37641883735808
 40
9.392420497300868
 40
9.401196302735118
 40
9.417494229384598
 40
9.426270027749872
 40
9.440875075477896
 40
9.475702496999086
 40
9.517270709866228
 40
9.552098131994391
 40
9.56670316988459
 40
9.56670316988459
 40
9.56670316988459
 40
9.56670316988459
 10
84.72202245561368
 20
-113.8901352988586
 30
0.0
 10
84.71843155010285
 20
-113.8957571069473
 30
0.0
 10
84.71060095312822
 20
-113.9080164697778
 30
0.0
 10
84.61799393822058
 20
-113.9442748535593
 30
0.0
 10
84.59375926409041
 20
-114.1588095718418
 30
0.0
 10
84.49086802535957
 20
-114.3383211688718
 30
0.0
 10
84.22704627719624
 20
-114.5241382759874
 30
0.0
 10
84.3895441976838
 20
-114.6007006483081
 30
0.0
 10
84.46571961684954
 20
-114.6617270820145
 30
0.0
 10
84.5542141480416
 20
-114.7251359685213
 30
0.0
 10
84.64399006407676
 20
-114.7850376717734
 30
0.0
 10
84.69337880437034
 20
-114.8392724654768
 30
0.0
 10
84.77956785650395
 20
-114.8674316085507
 30
0.0
 10
84.74612310818868
 20
-114.9031609174408
 30
0.0
 10
84.7264641573968
 20
-114.9347901340499
 30
0.0
 10
84.69698586255394
 20
-114.9755352860082
 30
0.0
 10
84.67389598536884
 20
-115.0052473790725
 30
0.0
 10
84.64301763760139
 20
-115.058179787284
 30
0.0
 10
84.57791637733979
 20
-114.9328906645799
 30
0.0
 10
84.48459705300732
 20
-114.8781550116296
 30
0.0
 10
84.40006066927967
 20
-114.8211297745755
 30
0.0
 10
84.27724685333982
 20
-114.6635411396936
 30
0.0
 10
84.28144212549596
 20
-114.7399359463005
 30
0.0
 10
84.28014490603347
 20
-114.7866812123559
 30
0.0
 10
84.28080968557344
 20
-114.8644461558429
 30
0.0
 10
84.28055203946141
 20
-114.9612733307247
 30
0.0
 10
84.28064016475793
 20
-115.0737912231808
 30
0.0
 10
84.2806047709938
 20
-115.1950531545119
 30
0.0
 10
84.28064821659366
 20
-115.3194250353793
 30
0.0
 10
84.2805170350063
 20
-115.4406171776555
 30
0.0
 10
84.28094479697042
 20
-115.5533825247715
 30
0.0
 10
84.2796648609968
 20
-115.6494648762815
 30
0.0
 10
84.28297302587008
 20
-115.7291557492819
 30
0.0
 10
84.27651681477442
 20
-115.7721422560811
 30
0.0
 10
84.28561791132137
 20
-115.8107396902485
 30
0.0
 10
84.24978807475921
 20
-115.8021851367282
 30
0.0
 10
84.21651942229096
 20
-115.8068688141145
 30
0.0
 10
84.16545329836981
 20
-115.8067810263711
 30
0.0
 10
84.13196943804701
 20
-115.8023497111307
 30
0.0
 10
84.09575558164113
 20
-115.8106860755438
 30
0.0
 10
84.10597529763226
 20
-115.7688412421761
 30
0.0
 10
84.09864582954303
 20
-115.7225084057672
 30
0.0
 10
84.10236035437603
 20
-115.6365457029088
 30
0.0
 10
84.10094509625526
 20
-115.5342425869204
 30
0.0
 10
84.10140759622958
 20
-115.4157617746538
 30
0.0
 10
84.10127440938876
 20
-115.2907171824353
 30
0.0
 10
84.10129863177025
 20
-115.1655357328984
 30
0.0
 10
84.1013325333208
 20
-115.0474275601783
 30
0.0
 10
84.10120307007892
 20
-114.9440065268737
 30
0.0
 10
84.10154779567382
 20
-114.8609736524323
 30
0.0
 10
84.10086686863474
 20
-114.8088603287564
 30
0.0
 10
84.104455700828
 20
-114.6811649357554
 30
0.0
 10
83.88761417940944
 20
-114.9798068457727
 30
0.0
 10
83.70713253296083
 20
-115.2076541988537
 30
0.0
 10
83.65402927032692
 20
-115.0665595810708
 30
0.0
 10
83.6250399540806
 20
-115.0170363383595
 30
0.0
 10
83.52466184704778
 20
-114.913876216068
 30
0.0
 10
83.84550981309182
 20
-114.8333436637311
 30
0.0
 10
83.97398674130868
 20
-114.6496311836046
 30
0.0
 10
84.19564247330166
 20
-114.4409740562513
 30
0.0
 10
84.28201953017255
 20
-114.2669019016855
 30
0.0
 10
84.5599364636733
 20
-113.9906235005438
 30
0.0
 10
84.43962182469421
 20
-113.9949484184578
 30
0.0
 10
84.39131677590069
 20
-113.9941454519434
 30
0.0
 10
84.31523478625621
 20
-113.9945481925031
 30
0.0
 10
84.22169804174082
 20
-113.9943912578529
 30
0.0
 10
84.11675651962143
 20
-113.9944689882067
 30
0.0
 10
84.00838581463753
 20
-113.9943393701834
 30
0.0
 10
83.9031424643555
 20
-113.9947500790621
 30
0.0
 10
83.810620822707
 20
-113.993473277253
 30
0.0
 10
83.73181012083651
 20
-113.9968863486204
 30
0.0
 10
83.68896449730373
 20
-113.9900605136058
 30
0.0
 10
83.64994699941728
 20
-113.9996433719577
 30
0.0
 10
83.65763356795215
 20
-113.9660862183135
 30
0.0
 10
83.65354348119695
 20
-113.9350585107466
 30
0.0
 10
83.65355017764712
 20
-113.88792872126
 30
0.0
 10
83.65762101325694
 20
-113.8568845975012
 30
0.0
 10
83.64994659822399
 20
-113.8232753976099
 30
0.0
 10
83.68847898131521
 20
-113.8328099097602
 30
0.0
 10
83.7291198422137
 20
-113.8263196589883
 30
0.0
 10
83.80014422581209
 20
-113.8292925074664
 30
0.0
 10
83.8779288557291
 20
-113.8285463999774
 30
0.0
 10
83.95572626541319
 20
-113.8278158735237
 30
0.0
 10
84.02672024975642
 20
-113.8307516588274
 30
0.0
 10
84.06742501994773
 20
-113.8243393262394
 30
0.0
 10
84.10598238975669
 20
-113.8337887722089
 30
0.0
 10
84.09773131625845
 20
-113.7976470923811
 30
0.0
 10
84.10323170770162
 20
-113.7589956378367
 30
0.0
 10
84.10057246138197
 20
-113.6911587283506
 30
0.0
 10
84.10157858791905
 20
-113.6143775985815
 30
0.0
 10
84.10101484259766
 20
-113.5318000781414
 30
0.0
 10
84.10206849342492
 20
-113.4551207216701
 30
0.0
 10
84.09926462707872
 20
-113.386974106202
 30
0.0
 10
84.10506731289611
 20
-113.3489700158754
 30
0.0
 10
84.09656249588156
 20
-113.3127095331924
 30
0.0
 10
84.13055806407826
 20
-113.3227367762504
 30
0.0
 10
84.16445460907563
 20
-113.3195613458319
 30
0.0
 10
84.21766394680041
 20
-113.3252043575628
 30
0.0
 10
84.27107389821407
 20
-113.3259462696047
 30
0.0
 10
84.30458850571475
 20
-113.3321017791391
 30
0.0
 10
84.34380565906969
 20
-113.326833716233
 30
0.0
 10
84.31702341061495
 20
-113.367760206034
 30
0.0
 10
84.27580814093812
 20
-113.3565819685878
 30
0.0
 10
84.28326119485317
 20
-113.4016234520477
 30
0.0
 10
84.2792198359842
 20
-113.4461712336875
 30
0.0
 10
84.2811684457298
 20
-113.5180582877519
 30
0.0
 10
84.28023352574161
 20
-113.5986077080812
 30
0.0
 10
84.28150775976874
 20
-113.678554059919
 30
0.0
 10
84.27820142015213
 20
-113.7518756431371
 30
0.0
 10
84.28520765876183
 20
-113.7934075839433
 30
0.0
 10
84.2751410787783
 20
-113.8327698282878
 30
0.0
 10
84.3079785211579
 20
-113.8256133796592
 30
0.0
 10
84.3414547704138
 20
-113.8300215825895
 30
0.0
 10
84.39650238836761
 20
-113.82811458049
 30
0.0
 10
84.45394730029727
 20
-113.8284403498961
 30
0.0
 10
84.5072996655967
 20
-113.8292309266382
 30
0.0
 10
84.54485113042966
 20
-113.8271544227882
 30
0.0
 10
84.56731429308945
 20
-113.8300706322979
 30
0.0
 10
84.58016484813886
 20
-113.8245684875284
 30
0.0
 10
84.59082260935469
 20
-113.8222828319911
 30
0.0
 10
84.60366060578009
 20
-113.8153442880884
 30
0.0
 10
84.61959614407284
 20
-113.8317635508322
 30
0.0
 10
84.64605943285497
 20
-113.8432027907744
 30
0.0
 10
84.67767756614157
 20
-113.863847135617
 30
0.0
 10
84.70372262998087
 20
-113.8791253176859
 30
0.0
 10
84.71784881316313
 20
-113.887624250737
 30
0.0
 10
84.72202245561368
 20
-113.8901352988586
 30
0.0
 11
84.72202245561368
 21
-113.8901352988586
 31
0.0
 11
84.70999604099008
 21
-113.9055583023271
 31
0.0
 11
84.68989322032223
 21
-113.9169199516298
 31
0.0
 11
84.58289567634708
 21
-114.1358878116573
 31
0.0
 11
84.45270103419816
 21
-114.3471219988473
 31
0.0
 11
84.30465107737285
 21
-114.5482334236941
 31
0.0
 11
84.37849286613925
 21
-114.5988201646151
 31
0.0
 11
84.46556347194576
 21
-114.6604098974315
 31
0.0
 11
84.55679741580622
 21
-114.7261624080247
 31
0.0
 11
84.64312921873449
 21
-114.7892374822759
 31
0.0
 11
84.71549340174448
 21
-114.8427949060665
 31
0.0
 11
84.76482448585006
 21
-114.8799944652779
 31
0.0
 11
84.75369111098705
 21
-114.895579905274
 31
0.0
 11
84.72714229400606
 21
-114.9327451852647
 31
0.0
 11
84.69545499631904
 21
-114.9771037452536
 31
0.0
 11
84.66890617933802
 21
-115.0142690252443
 31
0.0
 11
84.65777280447503
 21
-115.0298544652404
 31
0.0
 11
84.58569837706051
 21
-114.9627539270627
 31
0.0
 11
84.49028273930386
 21
-114.8803604722222
 31
0.0
 11
84.38432345598275
 21
-114.7924438402997
 31
0.0
 11
84.28061809187477
 21
-114.7087737708762
 31
0.0
 11
84.28061809187477
 21
-114.7272471349602
 31
0.0
 11
84.28061809187477
 21
-114.7786729863293
 31
0.0
 11
84.28061809187477
 21
-114.8570599636589
 31
0.0
 11
84.28061809187477
 21
-114.9564167056244
 31
0.0
 11
84.28061809187477
 21
-115.0707518509013
 31
0.0
 11
84.28061809187477
 21
-115.194074038165
 31
0.0
 11
84.28061809187477
 21
-115.320391906091
 31
0.0
 11
84.28061809187477
 21
-115.4437140933547
 31
0.0
 11
84.28061809187477
 21
-115.5580492386316
 31
0.0
 11
84.28061809187477
 21
-115.6574059805971
 31
0.0
 11
84.28061809187477
 21
-115.7357929579267
 31
0.0
 11
84.28061809187477
 21
-115.7872188092958
 31
0.0
 11
84.28061809187477
 21
-115.8056921733798
 31
0.0
 11
84.26196913012835
 21
-115.8056921733798
 31
0.0
 11
84.21749852904071
 21
-115.8056921733798
 31
0.0
 11
84.16442071483932
 21
-115.8056921733798
 31
0.0
 11
84.11995011375168
 21
-115.8056921733798
 31
0.0
 11
84.10130115200525
 21
-115.8056921733798
 31
0.0
 11
84.10130115200525
 21
-115.7854260393667
 31
0.0
 11
84.10130115200523
 21
-115.7293961394482
 31
0.0
 11
84.10130115200525
 21
-115.6447552268054
 31
0.0
 11
84.10130115200525
 21
-115.5386560546194
 31
0.0
 11
84.10130115200525
 21
-115.4182513760711
 31
0.0
 11
84.10130115200525
 21
-115.2906939443418
 31
0.0
 11
84.10130115200523
 21
-115.1631365126125
 31
0.0
 11
84.10130115200525
 21
-115.0427318340643
 31
0.0
 11
84.10130115200525
 21
-114.9366326618783
 31
0.0
 11
84.10130115200525
 21
-114.8519917492355
 31
0.0
 11
84.10130115200525
 21
-114.795961849317
 31
0.0
 11
84.10130115200525
 21
-114.7756957153039
 31
0.0
 11
83.89332432571385
 21
-114.9669740312284
 31
0.0
 11
83.68134567660826
 21
-115.1261451596608
 31
0.0
 11
83.654559942214
 21
-115.0721472944479
 31
0.0
 11
83.61887358226814
 21
-115.0134026082486
 31
0.0
 11
83.58496679017816
 21
-114.9683652985892
 31
0.0
 11
83.7880258149976
 21
-114.8246601419584
 31
0.0
 11
83.98685023659174
 21
-114.6486097786691
 31
0.0
 11
84.17270118518357
 21
-114.4470188687194
 31
0.0
 11
84.33683979099607
 21
-114.2266920721079
 31
0.0
 11
84.4705271842522
 21
-113.9944340488326
 31
0.0
 11
84.45152271321396
 21
-113.9944340488326
 31
0.0
 11
84.39941367972202
 21
-113.9944340488326
 31
0.0
 11
84.32155665321051
 21
-113.9944340488326
 31
0.0
 11
84.22530820311361
 21
-113.9944340488326
 31
0.0
 11
84.11802489886549
 21
-113.9944340488326
 31
0.0
 11
84.00706330990027
 21
-113.9944340488326
 31
0.0
 11
83.89978000565213
 21
-113.9944340488326
 31
0.0
 11
83.80353155555525
 21
-113.9944340488326
 31
0.0
 11
83.72567452904374
 21
-113.9944340488326
 31
0.0
 11
83.6735654955518
 21
-113.9944340488326
 31
0.0
 11
83.65456102451355
 21
-113.9944340488326
 31
0.0
 11
83.65456102451355
 21
-113.9771820160591
 31
0.0
 11
83.65456102451357
 21
-113.9360425532916
 31
0.0
 11
83.65456102451355
 21
-113.8869406138595
 31
0.0
 11
83.65456102451355
 21
-113.845801151092
 31
0.0
 11
83.65456102451355
 21
-113.8285491183185
 31
0.0
 11
83.6737568893667
 21
-113.8285491183185
 31
0.0
 11
83.72436416943414
 21
-113.8285491183185
 31
0.0
 11
83.79591239297773
 21
-113.8285491183185
 31
0.0
 11
83.8779310882594
 21
-113.8285491183185
 31
0.0
 11
83.95994978354108
 21
-113.8285491183185
 31
0.0
 11
84.03149800708468
 21
-113.8285491183185
 31
0.0
 11
84.08210528715209
 21
-113.8285491183185
 31
0.0
 11
84.10130115200525
 21
-113.8285491183185
 31
0.0
 11
84.10130115200525
 21
-113.8110284874168
 31
0.0
 11
84.10130115200526
 21
-113.7640731966001
 31
0.0
 11
84.10130115200525
 21
-113.6960931487014
 31
0.0
 11
84.10130115200523
 21
-113.6154982465534
 31
0.0
 11
84.10130115200525
 21
-113.5306983929891
 31
0.0
 11
84.10130115200525
 21
-113.4501034908411
 31
0.0
 11
84.10130115200525
 21
-113.3821234429424
 31
0.0
 11
84.10130115200525
 21
-113.3351681521257
 31
0.0
 11
84.10130115200525
 21
-113.317647521224
 31
0.0
 11
84.11854545197684
 21
-113.3186359522937
 31
0.0
 11
84.16165620190581
 21
-113.321107029968
 31
0.0
 11
84.21770017681345
 21
-113.3243194309445
 31
0.0
 11
84.2737441517211
 21
-113.3275318319211
 31
0.0
 11
84.31685490165006
 21
-113.3300029095954
 31
0.0
 11
84.33409920162165
 21
-113.3309913406651
 31
0.0
 11
84.3193745082509
 21
-113.3547310802425
 31
0.0
 11
84.28061809187477
 21
-113.3684563406558
 31
0.0
 11
84.28061809187479
 21
-113.388225952196
 31
0.0
 11
84.28061809187479
 21
-113.4403458371656
 31
0.0
 11
84.28061809187477
 21
-113.5140325710882
 31
0.0
 11
84.28061809187477
 21
-113.5985027294872
 31
0.0
 11
84.28061809187477
 21
-113.6829728878862
 31
0.0
 11
84.28061809187477
 21
-113.7566596218087
 31
0.0
 11
84.28061809187477
 21
-113.8087795067783
 31
0.0
 11
84.28061809187477
 21
-113.8285491183185
 31
0.0
 11
84.29661975205934
 21
-113.8285491183185
 31
0.0
 11
84.33788719148274
 21
-113.8285491183185
 31
0.0
 11
84.39431409844944
 21
-113.8285491183185
 31
0.0
 11
84.4557941612639
 21
-113.8285491183185
 31
0.0
 11
84.51222106823059
 21
-113.8285491183185
 31
0.0
 11
84.55348850765398
 21
-113.8285491183185
 31
0.0
 11
84.56949016783858
 21
-113.8285491183185
 31
0.0
 11
84.57781768305823
 21
-113.8257801394097
 31
0.0
 11
84.59328306846614
 21
-113.8206377500078
 31
0.0
 11
84.60161058368578
 21
-113.817868771099
 31
0.0
 11
84.6141334183663
 21
-113.825384489986
 31
0.0
 11
84.6439955626044
 21
-113.8433065888704
 31
0.0
 11
84.67963747669506
 21
-113.8646974810872
 31
0.0
 11
84.70949962093317
 21
-113.8826195799716
 31
0.0
 11
84.72202245561368
 21
-113.8901352988586
 31
0.0
  0
SPLINE
  5
B1
102
{ACAD_REACTORS
330
CE
102
}
330
48
100
AcDbEntity
  8
_U_30EC_U_30A4_U_30E4_U_30FC_1
  6
Continuous
 62
     2
100
AcDbSpline
210
0.0
220
0.0
230
1.0
 70
    11
 71
     3
 72
    91
 73
    87
 74
    85
 42
0.000000001
 43
0.0000000001
 44
0.00000001
 40
0.0
 40
0.0
 40
0.0
 40
0.0
 40
0.0267532254356701
 40
0.0856103386463907
 40
0.1444674521996496
 40
0.1712206856618372
 40
0.2039416005642252
 40
0.29556019716522
 40
0.4362601844616492
 40
0.6162252844507108
 40
0.8256392189704556
 40
1.054685709844411
 40
1.293548478893503
 40
1.532411247938261
 40
1.76145773879954
 40
1.970871673298508
 40
2.150836773256661
 40
2.291536760495537
 40
2.383155356836672
 40
2.415876284101263
 40
2.442629517487892
 40
2.501486630949036
 40
2.560343744424178
 40
2.587096977826438
 40
2.617068194440852
 40
2.699247336756035
 40
2.822032643466305
 40
2.973822353257835
 40
3.143014704823305
 40
3.318007936879842
 40
3.487200288186675
 40
3.638989997548141
 40
3.761775303794654
 40
3.843954445753003
 40
3.873925662229699
 40
3.89081277350041
 40
3.907699884771607
 40
3.937960767857186
 40
3.98098361814223
 40
4.199085915228403
 40
4.439444339237157
 40
4.677588241260783
 40
5.050698317837654
 40
5.448212454763024
 40
5.855291218044508
 40
6.138575438885152
 40
6.417434507583966
 40
6.444551104393641
 40
6.504207617362931
 40
6.563864130314255
 40
6.59098072710381
 40
6.848609460381246
 40
7.109611990668184
 40
7.352910904445834
 40
7.55783022070519
 40
7.587518925913119
 40
7.652834077375543
 40
7.718149228845482
 40
7.747837934061797
 40
7.854880190300791
 40
7.976511257403315
 40
8.369487896592101
 40
8.757514959223395
 40
9.126072419330873
 40
9.460639380391935
 40
9.746695593035648
 40
9.777569943118438
 40
9.807050320931543
 40
9.830377336128665
 40
9.886003295435785
 40
9.952395569429706
 40
10.00802152870608
 40
10.03134854388198
 40
10.21356951009566
 40
10.42203479292848
 40
10.66154556731041
 40
10.91693789564278
 40
11.1583290655654
 40
11.18982674596596
 40
11.27286608520381
 40
11.39026653033326
 40
11.52484752840861
 40
11.65942852648421
 40
11.77682897161457
 40
11.85986831085655
 40
11.891365982304
 40
11.891365982304
 40
11.891365982304
 40
11.891365982304
 10
80.80778554158536
 20
-114.8532980069512
 30
0.0
 10
80.80782081729456
 20
-114.844415540849
 30
0.0
 10
80.80793371184541
 20
-114.8159916434955
 30
0.0
 10
80.80629549761461
 20
-114.7661976222709
 30
0.0
 10
80.81197207005684
 20
-114.7237183691874
 30
0.0
 10
80.8006899139364
 20
-114.6729924654005
 30
0.0
 10
80.86822673866897
 20
-114.6901650065679
 30
0.0
 10
80.94379996183571
 20
-114.677391742309
 30
0.0
 10
81.08783274636583
 20
-114.6839967193951
 30
0.0
 10
81.26193895930844
 20
-114.6814093919043
 30
0.0
 10
81.46895700186604
 20
-114.6822880944134
 30
0.0
 10
81.6944658580035
 20
-114.6820119347687
 30
0.0
 10
81.93011327010629
 20
-114.6821106173823
 30
0.0
 10
82.16576109390056
 20
-114.6820121698413
 30
0.0
 10
82.39126879882836
 20
-114.682287232061
 30
0.0
 10
82.59829050404622
 20
-114.6814121512616
 30
0.0
 10
82.7723859322945
 20
-114.6839887871845
 30
0.0
 10
82.91644624796427
 20
-114.6774111094769
 30
0.0
 10
82.991966232295
 20
-114.6901315799128
 30
0.0
 10
83.0595746444687
 20
-114.6730300120521
 30
0.0
 10
83.04808105483336
 20
-114.7235461559395
 30
0.0
 10
83.055507498939
 20
-114.7677614917039
 30
0.0
 10
83.04788093356439
 20
-114.8116143489328
 30
0.0
 10
83.05964598670819
 20
-114.8615102691757
 30
0.0
 10
82.99807588996404
 20
-114.8463617368438
 30
0.0
 10
82.93067621463285
 20
-114.8571873604622
 30
0.0
 10
82.80629744638789
 20
-114.8517736977065
 30
0.0
 10
82.66043986442281
 20
-114.8538019600611
 30
0.0
 10
82.49435468477424
 20
-114.8531362381851
 30
0.0
 10
82.32383830293819
 20
-114.8533975787565
 30
0.0
 10
82.15697612630461
 20
-114.853078480058
 30
0.0
 10
82.01373172347633
 20
-114.8539409880613
 30
0.0
 10
81.88232842774912
 20
-114.851661009139
 30
0.0
 10
81.82898295423142
 20
-114.8562169702269
 30
0.0
 10
81.75351588645697
 20
-114.8502948640402
 30
0.0
 10
81.78190461868898
 20
-114.8593523205354
 30
0.0
 10
81.80836228171997
 20
-114.8630348912797
 30
0.0
 10
81.76834933153589
 20
-114.8937512942861
 30
0.0
 10
81.67636340995254
 20
-114.8836181022226
 30
0.0
 10
81.64893666147263
 20
-115.129968991491
 30
0.0
 10
81.5528764374892
 20
-115.2852984263252
 30
0.0
 10
81.29672483721313
 20
-115.6150398346532
 30
0.0
 10
81.867750814042
 20
-115.4759937918644
 30
0.0
 10
82.12236267281739
 20
-115.4773762142353
 30
0.0
 10
82.73296174562742
 20
-115.5623883215481
 30
0.0
 10
82.43906689857404
 20
-115.2634398383868
 30
0.0
 10
82.11832746941755
 20
-115.1169854449512
 30
0.0
 10
82.23635137680915
 20
-115.060038605786
 30
0.0
 10
82.2774686873919
 20
-115.0360930152355
 30
0.0
 10
82.32067828020685
 20
-115.0142964258566
 30
0.0
 10
82.42245445021074
 20
-114.9510068014298
 30
0.0
 10
82.53788380329051
 20
-115.2088224998811
 30
0.0
 10
82.73795620499345
 20
-115.3441336028321
 30
0.0
 10
82.83190477948853
 20
-115.52236606258
 30
0.0
 10
83.06088001540502
 20
-115.6803158036985
 30
0.0
 10
82.9646002254365
 20
-115.7311342882059
 30
0.0
 10
82.92179301714364
 20
-115.7614810887384
 30
0.0
 10
82.87682139364364
 20
-115.7856327111544
 30
0.0
 10
82.81716913328711
 20
-115.8347725464933
 30
0.0
 10
82.78397014689818
 20
-115.7003192572329
 30
0.0
 10
82.66319837584538
 20
-115.5443513611031
 30
0.0
 10
82.3020946413636
 20
-115.6745947333733
 30
0.0
 10
81.94350323631986
 20
-115.6580470698741
 30
0.0
 10
81.56208908577375
 20
-115.6669817204503
 30
0.0
 10
81.27534256905487
 20
-115.7314672972448
 30
0.0
 10
80.96420260073714
 20
-115.6179873320406
 30
0.0
 10
80.9318708226446
 20
-115.7290714146913
 30
0.0
 10
80.89461486609753
 20
-115.7483308754688
 30
0.0
 10
80.89157080404118
 20
-115.701546173096
 30
0.0
 10
80.8729863268264
 20
-115.6622254747776
 30
0.0
 10
80.85624070244359
 20
-115.6026341791866
 30
0.0
 10
80.84337013234105
 20
-115.5582743152561
 30
0.0
 10
80.80922982140874
 20
-115.4692307027668
 30
0.0
 10
81.05326848654107
 20
-115.5384835845313
 30
0.0
 10
81.24913648943289
 20
-115.5599903233914
 30
0.0
 10
81.34453967889337
 20
-115.2780291691843
 30
0.0
 10
81.39951061772544
 20
-115.1166635597577
 30
0.0
 10
81.62095897648129
 20
-114.8463822380716
 30
0.0
 10
81.48992097888737
 20
-114.8548095454316
 30
0.0
 10
81.41599969635116
 20
-114.8525039289993
 30
0.0
 10
81.30274302839007
 20
-114.8535802307524
 30
0.0
 10
81.17442222151416
 20
-114.8532176232038
 30
0.0
 10
81.04542224380724
 20
-114.8533167693081
 30
0.0
 10
80.93378113539487
 20
-114.8532946868432
 30
0.0
 10
80.8564634377684
 20
-114.8532982220722
 30
0.0
 10
80.81828469396673
 20
-114.8532980555181
 30
0.0
 10
80.80778554158536
 20
-114.8532980069512
 30
0.0
 11
80.80778554158536
 21
-114.8532980069512
 31
0.0
 11
80.80778554158536
 21
-114.8265447734509
 31
0.0
 11
80.80778554158536
 21
-114.7676876597504
 31
0.0
 11
80.80778554158536
 21
-114.7088305460498
 31
0.0
 11
80.80778554158536
 21
-114.6820773125496
 31
0.0
 11
80.84050646886463
 21
-114.6820773125496
 31
0.0
 11
80.93212506524667
 21
-114.6820773125496
 31
0.0
 11
81.0728250525476
 21
-114.6820773125496
 31
0.0
 11
81.2527901525837
 21
-114.6820773125496
 31
0.0
 11
81.46220408717116
 21
-114.6820773125496
 31
0.0
 11
81.69125057812617
 21
-114.6820773125496
 31
0.0
 11
81.930113347265
 21
-114.6820773125496
 31
0.0
 11
82.16897611640383
 21
-114.6820773125496
 31
0.0
 11
82.39802260735885
 21
-114.6820773125496
 31
0.0
 11
82.60743654194631
 21
-114.6820773125496
 31
0.0
 11
82.78740164198241
 21
-114.6820773125496
 31
0.0
 11
82.92810162928335
 21
-114.6820773125496
 31
0.0
 11
83.01972022566537
 21
-114.6820773125496
 31
0.0
 11
83.05244115294465
 21
-114.6820773125496
 31
0.0
 11
83.05244115294467
 21
-114.7088305460498
 31
0.0
 11
83.05244115294465
 21
-114.7676876597504
 31
0.0
 11
83.05244115294465
 21
-114.826544773451
 31
0.0
 11
83.05244115294465
 21
-114.8532980069512
 31
0.0
 11
83.02246993624152
 21
-114.8532980069512
 31
0.0
 11
82.94029079366838
 21
-114.8532980069512
 31
0.0
 11
82.8175054865297
 21
-114.8532980069512
 31
0.0
 11
82.66571577612994
 21
-114.8532980069512
 31
0.0
 11
82.49652342377348
 21
-114.8532980069512
 31
0.0
 11
82.32153019076483
 21
-114.8532980069512
 31
0.0
 11
82.15233783840839
 21
-114.8532980069512
 31
0.0
 11
82.0005481280086
 21
-114.8532980069512
 31
0.0
 11
81.87776282086993
 21
-114.8532980069512
 31
0.0
 11
81.7955836782968
 21
-114.8532980069512
 31
0.0
 11
81.76561246159366
 21
-114.8532980069512
 31
0.0
 11
81.78163298201827
 21
-114.858638180561
 31
0.0
 11
81.79765350244287
 21
-114.8639783541708
 31
0.0
 11
81.77561260890782
 21
-114.8847128680545
 31
0.0
 11
81.73348322630204
 21
-114.8934352986078
 31
0.0
 11
81.64152059490348
 21
-115.0912015408423
 31
0.0
 11
81.53290489294213
 21
-115.3056188941838
 31
0.0
 11
81.4177471232465
 21
-115.5140684234527
 31
0.0
 11
81.7907337082678
 21
-115.5044696014386
 31
0.0
 11
82.18806704438077
 21
-115.492481689919
 31
0.0
 11
82.59493125988024
 21
-115.4792668956836
 31
0.0
 11
82.40330899046361
 21
-115.2706264009441
 31
0.0
 11
82.2016722421356
 21
-115.0779998124506
 31
0.0
 11
82.2254918202407
 21
-115.0650407412733
 31
0.0
 11
82.27789489207191
 21
-115.0365307846832
 31
0.0
 11
82.33029796390312
 21
-115.008020828093
 31
0.0
 11
82.35411754200823
 21
-114.9950617569157
 31
0.0
 11
82.54370719662842
 21
-115.1694989302662
 31
0.0
 11
82.72502813480928
 21
-115.357235550228
 31
0.0
 11
82.88276996388045
 21
-115.5424702040445
 31
0.0
 11
83.00162229117154
 21
-115.7094014789594
 31
0.0
 11
82.97653786255802
 21
-115.7252819911082
 31
0.0
 11
82.92135211960829
 21
-115.7602191178356
 31
0.0
 11
82.86616637665855
 21
-115.795156244563
 31
0.0
 11
82.84108194804503
 21
-115.8110367567118
 31
0.0
 11
82.78254885592695
 21
-115.7214157671508
 31
0.0
 11
82.70999854861145
 21
-115.6237911317586
 31
0.0
 11
82.31753833317524
 21
-115.6439311445313
 31
0.0
 11
81.92994444772178
 21
-115.6622609839712
 31
0.0
 11
81.56173493838703
 21
-115.678272226745
 31
0.0
 11
81.22742785130697
 21
-115.6914564495194
 31
0.0
 11
80.94154123261757
 21
-115.7013052289614
 31
0.0
 11
80.92618327293978
 21
-115.728088779302
 31
0.0
 11
80.89874046982038
 21
-115.7388584233965
 31
0.0
 11
80.89178975999774
 21
-115.7165910195132
 31
0.0
 11
80.8752149904206
 21
-115.6634918256375
 31
0.0
 11
80.85543220092535
 21
-115.6001153684311
 31
0.0
 11
80.83885743134823
 21
-115.5470161745555
 31
0.0
 11
80.83190672152557
 21
-115.5247487706722
 31
0.0
 11
81.01411702668103
 21
-115.5227776248394
 31
0.0
 11
81.22249462562456
 21
-115.5167318956742
 31
0.0
 11
81.3353173534873
 21
-115.3054585109534
 31
0.0
 11
81.44579071296923
 21
-115.0751958824102
 31
0.0
 11
81.54082246732844
 21
-114.8532980069512
 31
0.0
 11
81.5093247869254
 21
-114.8532980069512
 31
0.0
 11
81.42628544768108
 21
-114.8532980069512
 31
0.0
 11
81.30888500254254
 21
-114.8532980069512
 31
0.0
 11
81.1743040044569
 21
-114.8532980069512
 31
0.0
 11
81.03972300637125
 21
-114.8532980069512
 31
0.0
 11
80.92232256123272
 21
-114.8532980069512
 31
0.0
 11
80.83928322198838
 21
-114.8532980069512
 31
0.0
 11
80.80778554158536
 21
-114.8532980069512
 31
0.0
  0
SPLINE
  5
B2
102
{ACAD_REACTORS
330
CF
102
}
330
48
100
AcDbEntity
  8
_U_30EC_U_30A4_U_30E4_U_30FC_1
  6
Continuous
 62
     2
100
AcDbSpline
210
0.0
220
0.0
230
1.0
 70
    11
 71
     3
 72
    35
 73
    31
 74
    29
 42
0.000000001
 43
0.0000000001
 44
0.00000001
 40
0.0
 40
0.0
 40
0.0
 40
0.0
 40
0.0335231036620045
 40
0.0713218571711768
 40
0.4278866681486975
 40
0.811686584196428
 40
1.198190238000068
 40
1.561379546812694
 40
1.65998317462212
 40
1.759315573807274
 40
2.132719617231182
 40
2.525233363588896
 40
2.910815397779769
 40
3.265244364303341
 40
3.592606723582069
 40
3.964386154604033
 40
4.359942131737894
 40
4.758154118639376
 40
4.843846538700027
 40
4.936650065543327
 40
5.256616602537457
 40
5.581707404416186
 40
5.899719158308313
 40
6.198363494280912
 40
6.466301046615954
 40
6.493895311537275
 40
6.559697020197055
 40
6.638234543442633
 40
6.704036252154457
 40
6.731630508423235
 40
6.731630508423235
 40
6.731630508423235
 40
6.731630508423235
 10
82.07859809763266
 20
-113.3256555767776
 30
0.0
 10
82.0725976505447
 20
-113.3354871085457
 30
0.0
 10
82.05983145068144
 20
-113.356404128171
 30
0.0
 10
81.89993324142118
 20
-113.3890227486418
 30
0.0
 10
82.3371996249994
 20
-113.678227210602
 30
0.0
 10
82.53953652359193
 20
-113.8798826303845
 30
0.0
 10
82.78695346756311
 20
-114.1228001379363
 30
0.0
 10
83.28814840322639
 20
-114.1998173863911
 30
0.0
 10
83.11755326066279
 20
-114.3415246222223
 30
0.0
 10
83.0433269870859
 20
-114.5431903518779
 30
0.0
 10
82.71814026558454
 20
-114.1907311422217
 30
0.0
 10
82.43277120783219
 20
-114.0285418883733
 30
0.0
 10
82.13875744853158
 20
-113.8234227134385
 30
0.0
 10
81.9134423098792
 20
-113.3420191280144
 30
0.0
 10
81.70430554631793
 20
-113.8068635478767
 30
0.0
 10
81.42578440824916
 20
-114.0167844914399
 30
0.0
 10
81.14213535848666
 20
-114.1860494503691
 30
0.0
 10
80.8128609935488
 20
-114.5588704048896
 30
0.0
 10
80.73269827258824
 20
-114.3632138693789
 30
0.0
 10
80.58096953174004
 20
-114.2353829720631
 30
0.0
 10
81.0133366234453
 20
-114.1557536963096
 30
0.0
 10
81.2012535737423
 20
-113.9600276648142
 30
0.0
 10
81.45184478281607
 20
-113.7439640448014
 30
0.0
 10
81.67643208778185
 20
-113.5783840909683
 30
0.0
 10
81.73097458173697
 20
-113.2989543676007
 30
0.0
 10
81.85446314366685
 20
-113.3129145098881
 30
0.0
 10
81.91102437521772
 20
-113.3150813252924
 30
0.0
 10
81.98118413926017
 20
-113.3198254151553
 30
0.0
 10
82.03833844297631
 20
-113.3231997204635
 30
0.0
 10
82.0694160728496
 20
-113.3250954668577
 30
0.0
 10
82.07859809763266
 20
-113.3256555767776
 30
0.0
 11
82.07859809763266
 21
-113.3256555767776
 31
0.0
 11
82.05752894775424
 21
-113.3517302642711
 31
0.0
 11
82.02244349670826
 21
-113.3657928684342
 31
0.0
 11
82.25623451767521
 21
-113.6350144026551
 31
0.0
 11
82.54645563652241
 21
-113.8861599342763
 31
0.0
 11
82.86627678913416
 21
-114.1031841377811
 31
0.0
 11
83.18886791139471
 21
-114.2700416876525
 31
0.0
 11
83.1263270275734
 21
-114.3462736581196
 31
0.0
 11
83.07380062266327
 21
-114.4305820348347
 31
0.0
 11
82.74862495034712
 21
-114.2470299656531
 31
0.0
 11
82.42871981760936
 21
-114.0195926165347
 31
0.0
 11
82.14041705662656
 21
-113.7635554627358
 31
0.0
 11
81.91004849957528
 21
-113.4942039795133
 31
0.0
 11
81.70455021271736
 21
-113.7490305267586
 31
0.0
 11
81.43382717491932
 21
-114.0038421911914
 31
0.0
 11
81.11695088309037
 21
-114.2405993504204
 31
0.0
 11
80.77299283413987
 21
-114.4412623820543
 31
0.0
 11
80.72688257489956
 21
-114.3690333369334
 31
0.0
 11
80.66869408680054
 21
-114.2967381459793
 31
0.0
 11
80.94830108966727
 21
-114.1411794443515
 31
0.0
 11
81.21429750288118
 21
-113.9542839160649
 31
0.0
 11
81.45499678674042
 21
-113.7464490511168
 31
0.0
 11
81.65871240154317
 21
-113.5280723395047
 31
0.0
 11
81.81375780758754
 21
-113.309551271226
 31
0.0
 11
81.84130119775223
 21
-113.3112261190034
 31
0.0
 11
81.90698158968341
 21
-113.3152199867802
 31
0.0
 11
81.98537431553677
 21
-113.3199868612235
 31
0.0
 11
82.05105470746798
 21
-113.3239807290002
 31
0.0
 11
82.07859809763266
 21
-113.3256555767776
 31
0.0
  0
SPLINE
  5
B3
102
{ACAD_REACTORS
330
D0
102
}
330
48
100
AcDbEntity
  8
_U_30EC_U_30A4_U_30E4_U_30FC_1
  6
Continuous
 62
     2
100
AcDbSpline
210
0.0
220
0.0
230
1.0
 70
    11
 71
     3
 72
    15
 73
    11
 74
     9
 42
0.000000001
 43
0.0000000001
 44
0.00000001
 40
0.0
 40
0.0
 40
0.0
 40
0.0
 40
0.2785535985097407
 40
0.5215624748199192
 40
0.6076917376040353
 40
0.6938210001741117
 40
0.9405019146454818
 40
1.22169140348909
 40
1.300471877081016
 40
1.379252341684771
 40
1.379252341684771
 40
1.379252341684771
 40
1.379252341684771
 10
79.67314640386564
 20
-113.3309913406651
 30
0.0
 10
79.73459882018354
 20
-113.3833775480418
 30
0.0
 10
79.84966203817714
 20
-113.4814652459867
 30
0.0
 10
80.14473189049008
 20
-113.6313961549967
 30
0.0
 10
80.0075118039514
 20
-113.7168617388188
 30
0.0
 10
79.90911982514355
 20
-113.8494361619533
 30
0.0
 10
79.81800039983074
 20
-113.5441241561547
 30
0.0
 10
79.46868098883127
 20
-113.4806153193152
 30
0.0
 10
79.61692287842277
 20
-113.3813289151601
 30
0.0
 10
79.65440522818936
 20
-113.3477705299451
 30
0.0
 10
79.67314640386564
 20
-113.3309913406651
 30
0.0
 11
79.67314640386564
 21
-113.3309913406651
 31
0.0
 11
79.89691928482542
 21
-113.4968762711792
 31
0.0
 11
80.07450167140405
 21
-113.6627612016933
 31
0.0
 11
80.01162785356365
 21
-113.721626583623
 31
0.0
 11
79.94875403572325
 21
-113.7804919655527
 31
0.0
 11
79.77385055253824
 21
-113.606537243374
 31
0.0
 11
79.55282272637976
 21
-113.4327148128619
 31
0.0
 11
79.6129845651227
 21
-113.3818530767635
 31
0.0
 11
79.67314640386564
 21
-113.3309913406651
 31
0.0
  0
SPLINE
  5
B4
102
{ACAD_REACTORS
330
D1
102
}
330
48
100
AcDbEntity
  8
_U_30EC_U_30A4_U_30E4_U_30FC_1
  6
Continuous
 62
     2
100
AcDbSpline
210
0.0
220
0.0
230
1.0
 70
    11
 71
     3
 72
    75
 73
    71
 74
    69
 42
0.000000001
 43
0.0000000001
 44
0.00000001
 40
0.0
 40
0.0
 40
0.0
 40
0.0
 40
0.034254609912978
 40
0.1245622414432293
 40
0.2522385480897643
 40
0.3985991922940715
 40
0.5449598364980945
 40
0.6726361431438763
 40
0.7629437746737013
 40
0.7971983935298115
 40
1.101723623449709
 40
1.408591244036717
 40
1.433332471690429
 40
1.487763172450207
 40
1.542193873082014
 40
1.566935100592552
 40
1.92352393182186
 40
2.271755704953665
 40
2.590579755100923
 40
2.858943305581161
 40
2.889120339309228
 40
2.918305855191197
 40
2.941366645531318
 40
2.996357760973214
 40
3.061992318140774
 40
3.116983433626987
 40
3.140044223997656
 40
3.411273122936548
 40
3.732441619741216
 40
3.761068217532916
 40
3.837787499630501
 40
3.948858699126113
 40
4.080541049104475
 40
4.219093782625869
 40
4.350776132722395
 40
4.461847332405746
 40
4.538566614678452
 40
4.567193212544716
 40
4.594907573998988
 40
4.666381453557513
 40
4.764111044011123
 40
4.870592538125969
 40
4.96832212864242
 40
5.039796008287105
 40
5.06751036978455
 40
5.094263603185745
 40
5.153120716668376
 40
5.211977830150822
 40
5.238731063551846
 40
5.272290535139128
 40
5.36338052944496
 40
5.497618415781623
 40
5.660621563453866
 40
5.838007341749581
 40
6.01539311991089
 40
6.178396267038529
 40
6.312634151842467
 40
6.403724143059499
 40
6.43728361267258
 40
6.464036846261202
 40
6.522893960004801
 40
6.581751071484099
 40
6.608504301591019
 40
6.637253941281152
 40
6.711397748902989
 40
6.812778057283602
 40
6.923237199249336
 40
7.024617507624022
 40
7.098761315207646
 40
7.127510946007625
 40
7.127510946007625
 40
7.127510946007625
 40
7.127510946007625
 10
78.54685927982217
 20
-114.6018027292363
 30
0.0
 10
78.54685932273645
 20
-114.6132208798817
 30
0.0
 10
78.5468594888786
 20
-114.6547414355426
 30
0.0
 10
78.54685634894444
 20
-114.7388247939312
 30
0.0
 10
78.54687586874579
 20
-114.8602490407457
 30
0.0
 10
78.54678825953948
 20
-115.0004890734944
 30
0.0
 10
78.54710866428879
 20
-115.1402284460232
 30
0.0
 10
78.54615763173979
 20
-115.2628436250197
 30
0.0
 10
78.54819490036246
 20
-115.3444232695885
 30
0.0
 10
78.5399403586404
 20
-115.4975813431921
 30
0.0
 10
78.84807683485585
 20
-115.3346916534215
 30
0.0
 10
79.14006155813934
 20
-115.1654646270891
 30
0.0
 10
79.14583248563656
 20
-115.3005616561497
 30
0.0
 10
79.15054421275485
 20
-115.3441218023645
 30
0.0
 10
79.15325058195752
 20
-115.3881815204634
 30
0.0
 10
79.17225160806179
 20
-115.5375681103377
 30
0.0
 10
78.76339126549597
 20
-115.4734822915563
 30
0.0
 10
78.48436807564893
 20
-115.5873305998587
 30
0.0
 10
78.20680519948246
 20
-115.6866530558575
 30
0.0
 10
77.91498075920569
 20
-115.6439871380053
 30
0.0
 10
77.89191150863157
 20
-115.7470772165236
 30
0.0
 10
77.85874447909903
 20
-115.7733831015242
 30
0.0
 10
77.85306243703957
 20
-115.7257409236059
 30
0.0
 10
77.83341849667016
 20
-115.6884906528182
 30
0.0
 10
77.81450598932804
 20
-115.6302201354933
 30
0.0
 10
77.79928202753644
 20
-115.5864420038909
 30
0.0
 10
77.75272167805953
 20
-115.4726998035059
 30
0.0
 10
78.09408677201071
 20
-115.5045310027684
 30
0.0
 10
78.3729619775043
 20
-115.5386796629042
 30
0.0
 10
78.36677234425649
 20
-115.3911542491724
 30
0.0
 10
78.36809058604302
 20
-115.3201625048806
 30
0.0
 10
78.36748020976063
 20
-115.2130963343823
 30
0.0
 10
78.3675841978382
 20
-115.0863087161089
 30
0.0
 10
78.36799583717135
 20
-114.9518015790084
 30
0.0
 10
78.3663878249626
 20
-114.8263385144571
 30
0.0
 10
78.37098729755832
 20
-114.7152415467778
 30
0.0
 10
78.36141569098677
 20
-114.6526751459621
 30
0.0
 10
78.37539721913487
 20
-114.5943401310189
 30
0.0
 10
78.3197354794362
 20
-114.6073969081465
 30
0.0
 10
78.26256256054786
 20
-114.598930936474
 30
0.0
 10
78.1666019333305
 20
-114.6029942531626
 30
0.0
 10
78.06837379304781
 20
-114.6005851154441
 30
0.0
 10
77.97225528652176
 20
-114.6047780078351
 30
0.0
 10
77.91546189334682
 20
-114.5960005495573
 30
0.0
 10
77.86003272810416
 20
-114.6093446454677
 30
0.0
 10
77.87206498355741
 20
-114.5599249043764
 30
0.0
 10
77.8641973581595
 20
-114.516354133665
 30
0.0
 10
77.87162659714862
 20
-114.4719893227837
 30
0.0
 10
77.86019009718007
 20
-114.421271036329
 30
0.0
 10
77.92820727777904
 20
-114.4386694063915
 30
0.0
 10
78.00184672874039
 20
-114.4261195115971
 30
0.0
 10
78.13750344658682
 20
-114.432297243858
 30
0.0
 10
78.29348794321825
 20
-114.4300019830381
 30
0.0
 10
78.4665896765801
 20
-114.4308843313436
 30
0.0
 10
78.63969133718388
 20
-114.4300019425449
 30
0.0
 10
78.79567602188736
 20
-114.4322973844135
 30
0.0
 10
78.93133222974544
 20
-114.4261191513446
 30
0.0
 10
79.00497271133098
 20
-114.4386700717856
 30
0.0
 10
79.07298845823811
 20
-114.4212702838475
 30
0.0
 10
79.06155612935795
 20
-114.4719927098234
 30
0.0
 10
79.06895098659541
 20
-114.5163234058579
 30
0.0
 10
79.06120103199278
 20
-114.560010938467
 30
0.0
 10
79.07311741495339
 20
-114.6096581129842
 30
0.0
 10
79.01581406312742
 20
-114.5956799005846
 30
0.0
 10
78.95701161974301
 20
-114.6048964572364
 30
0.0
 10
78.85752640408572
 20
-114.6007713323197
 30
0.0
 10
78.75442505060072
 20
-114.60206641371
 30
0.0
 10
78.65878167622307
 20
-114.6017532431925
 30
0.0
 10
78.59074383792746
 20
-114.6018062469975
 30
0.0
 10
78.55644326211007
 20
-114.6018034952524
 30
0.0
 10
78.54685927982217
 20
-114.6018027292363
 30
0.0
 11
78.54685927982217
 21
-114.6018027292363
 31
0.0
 11
78.54685927982217
 21
-114.6360573480971
 31
0.0
 11
78.54685927982217
 21
-114.7263649796392
 31
0.0
 11
78.54685927982219
 21
-114.8540412863022
 31
0.0
 11
78.54685927982217
 21
-115.0004019305255
 31
0.0
 11
78.54685927982217
 21
-115.1467625747489
 31
0.0
 11
78.54685927982217
 21
-115.2744388814119
 31
0.0
 11
78.54685927982217
 21
-115.364746512954
 31
0.0
 11
78.54685927982217
 21
-115.3990011318148
 31
0.0
 11
78.8441903052225
 21
-115.3331992568312
 31
0.0
 11
79.14345940349028
 21
-115.2653336318482
 31
0.0
 11
79.14554575326345
 21
-115.2899867351406
 31
0.0
 11
79.15013572276442
 21
-115.344223562384
 31
0.0
 11
79.15472569226537
 21
-115.3984603896274
 31
0.0
 11
79.15681204203855
 21
-115.4231134929198
 31
0.0
 11
78.81063672968976
 21
-115.5086603125599
 31
0.0
 11
78.47196235464956
 21
-115.5896852376699
 31
0.0
 11
78.16137019243453
 21
-115.6616663737196
 31
0.0
 11
77.89944151856128
 21
-115.720081826179
 31
0.0
 11
77.88674854369495
 21
-115.7474595865888
 31
0.0
 11
77.86197651951704
 21
-115.7628914095016
 31
0.0
 11
77.85418379971586
 21
-115.7411871800626
 31
0.0
 11
77.83560116018991
 21
-115.6894309406311
 31
0.0
 11
77.81342188075573
 21
-115.6276573645354
 31
0.0
 11
77.79483924122977
 21
-115.5759011251039
 31
0.0
 11
77.78704652142858
 21
-115.5541968956649
 31
0.0
 11
78.0532746743589
 21
-115.5023539963723
 31
0.0
 11
78.36763053439466
 21
-115.4365543262498
 31
0.0
 11
78.36763053439466
 21
-115.4079277282727
 31
0.0
 11
78.36763053439465
 21
-115.3312084456939
 31
0.0
 11
78.36763053439466
 21
-115.2201372455426
 31
0.0
 11
78.36763053439465
 21
-115.0884548948477
 31
0.0
 11
78.36763053439466
 21
-114.9499021606384
 31
0.0
 11
78.36763053439466
 21
-114.8182198099435
 31
0.0
 11
78.36763053439466
 21
-114.7071486097922
 31
0.0
 11
78.36763053439466
 21
-114.6304293272134
 31
0.0
 11
78.36763053439466
 21
-114.6018027292363
 31
0.0
 11
78.33991617287658
 21
-114.6018027292363
 31
0.0
 11
78.2684422931721
 21
-114.6018027292363
 31
0.0
 11
78.17071270255578
 21
-114.6018027292363
 31
0.0
 11
78.06423120830215
 21
-114.6018027292363
 31
0.0
 11
77.9665016176858
 21
-114.6018027292363
 31
0.0
 11
77.89502773798131
 21
-114.6018027292363
 31
0.0
 11
77.86731337646324
 21
-114.6018027292363
 31
0.0
 11
77.86731337646324
 21
-114.5750494957361
 31
0.0
 11
77.86731337646324
 21
-114.5161923820355
 31
0.0
 11
77.86731337646324
 21
-114.457335268335
 31
0.0
 11
77.86731337646324
 21
-114.4305820348347
 31
0.0
 11
77.90087284805321
 21
-114.4305820348347
 31
0.0
 11
77.99196284236882
 21
-114.4305820348347
 31
0.0
 11
78.12620072872866
 21
-114.4305820348347
 31
0.0
 11
78.28920387645132
 21
-114.4305820348347
 31
0.0
 11
78.4665896548554
 21
-114.4305820348347
 31
0.0
 11
78.64397543325948
 21
-114.4305820348347
 31
0.0
 11
78.80697858098215
 21
-114.4305820348347
 31
0.0
 11
78.94121646734197
 21
-114.4305820348347
 31
0.0
 11
79.03230646165758
 21
-114.4305820348347
 31
0.0
 11
79.06586593324755
 21
-114.4305820348347
 31
0.0
 11
79.06586593324755
 21
-114.457335268335
 31
0.0
 11
79.06586593324755
 21
-114.5161923820355
 31
0.0
 11
79.06586593324755
 21
-114.5750494957361
 31
0.0
 11
79.06586593324755
 21
-114.6018027292363
 31
0.0
 11
79.03711629355342
 21
-114.6018027292363
 31
0.0
 11
78.96297248592124
 21
-114.6018027292363
 31
0.0
 11
78.86159217752619
 21
-114.6018027292363
 31
0.0
 11
78.75113303554355
 21
-114.6018027292363
 31
0.0
 11
78.64975272714848
 21
-114.6018027292363
 31
0.0
 11
78.57560891951628
 21
-114.6018027292363
 31
0.0
 11
78.54685927982217
 21
-114.6018027292363
 31
0.0
  0
SPLINE
  5
B5
102
{ACAD_REACTORS
330
D2
102
}
330
48
100
AcDbEntity
  8
_U_30EC_U_30A4_U_30E4_U_30FC_1
  6
Continuous
 62
     2
100
AcDbSpline
210
0.0
220
0.0
230
1.0
 70
    11
 71
     3
 72
    91
 73
    87
 74
    85
 42
0.000000001
 43
0.0000000001
 44
0.00000001
 40
0.0
 40
0.0
 40
0.0
 40
0.0
 40
0.0345987051695576
 40
0.1258134969461511
 40
0.2547723404888703
 40
0.4026032099153699
 40
0.550434079341642
 40
0.6793929228835796
 40
0.7706077146570893
 40
0.805206428778064
 40
1.124852390615299
 40
1.427402236308901
 40
1.706356627453558
 40
1.955541417875235
 40
2.169485938566362
 40
2.344350786664811
 40
2.480568411561987
 40
2.590440557428997
 40
2.649189927151145
 40
2.749320643306358
 40
2.912632739880051
 40
3.147745656000261
 40
3.244827496385126
 40
3.338490056946745
 40
3.583815413207164
 40
3.761423943238526
 40
3.886956104362677
 40
3.98585545188687
 40
4.091766255337752
 40
4.250186473811915
 40
4.422734315084566
 40
4.628285684838625
 40
4.872093227758459
 40
5.152549652145566
 40
5.464967135837548
 40
5.803201477852467
 40
6.160362988813993
 40
6.193449448276034
 40
6.284170385501689
 40
6.419718138764573
 40
6.587285046385809
 40
6.774063446723737
 40
6.967245678113677
 40
7.154024078817734
 40
7.321590987026077
 40
7.45713874089045
 40
7.547859678556186
 40
7.580946138182732
 40
7.608533084714772
 40
7.669224367077724
 40
7.729915649429877
 40
7.757502595949937
 40
7.790278062553405
 40
7.880146277430889
 40
8.014419963180352
 40
8.180411842397852
 40
8.365434637679307
 40
8.556801071622637
 40
8.741823866830735
 40
8.907815745916302
 40
9.042089431507442
 40
9.131957646249553
 40
9.164733112797144
 40
9.415425063140127
 40
9.667986180958604
 40
9.694169807462714
 40
9.756607686047674
 40
9.83113031532255
 40
9.893568193900014
 40
9.91975182039883
 40
9.95096796469067
 40
9.996421631210808
 40
10.22087981037468
 40
10.4434186619756
 40
10.47847970788875
 40
10.57091337438773
 40
10.70159545461247
 40
10.85140174170377
 40
11.00120802880497
 40
11.13189010907399
 40
11.22432377583027
 40
11.25938480938972
 40
11.28697175596159
 40
11.3476630383593
 40
11.40835432042076
 40
11.43594125892109
 40
11.43594125892109
 40
11.43594125892109
 40
11.43594125892109
 10
80.18680847409468
 20
-114.0078660627181
 30
0.0
 10
80.17527562525984
 20
-114.0078661110897
 30
0.0
 10
80.13333798526561
 20
-114.0078662769272
 30
0.0
 10
80.0484100126683
 20
-114.0078627559598
 30
0.0
 10
79.92576589607864
 20
-114.00788474961
 30
0.0
 10
79.7841177324651
 20
-114.0077860021984
 30
0.0
 10
79.64297241061476
 20
-114.0081471516446
 30
0.0
 10
79.51913217255617
 20
-114.007075177878
 30
0.0
 10
79.43671882330396
 20
-114.0093715230562
 30
0.0
 10
79.27777616373494
 20
-113.9998083202346
 30
0.0
 10
79.45533727610334
 20
-114.3624400708552
 30
0.0
 10
79.44297096131103
 20
-114.6078627367378
 30
0.0
 10
79.51144898815222
 20
-114.8916690007206
 30
0.0
 10
79.57429947286272
 20
-115.1277840145786
 30
0.0
 10
79.6502223839386
 20
-115.3270266100076
 30
0.0
 10
79.7353159984673
 20
-115.4828405394552
 30
0.0
 10
79.82945780005934
 20
-115.583715436155
 30
0.0
 10
79.93326186153848
 20
-115.6356354875792
 30
0.0
 10
80.01758424384312
 20
-115.5842291701727
 30
0.0
 10
80.04012925871098
 20
-115.4688485735938
 30
0.0
 10
80.07957013830284
 20
-115.3414425169452
 30
0.0
 10
80.02528901426001
 20
-115.0240707331013
 30
0.0
 10
80.15011884801304
 20
-115.1704722125599
 30
0.0
 10
80.30692619212607
 20
-115.2023410106571
 30
0.0
 10
80.19976904147143
 20
-115.4360804362926
 30
0.0
 10
80.18586816175248
 20
-115.6005662481323
 30
0.0
 10
80.12846798748828
 20
-115.7289853227441
 30
0.0
 10
80.03849905526657
 20
-115.8001059904406
 30
0.0
 10
79.91452450655348
 20
-115.8159707725464
 30
0.0
 10
79.76842436045175
 20
-115.7803560384271
 30
0.0
 10
79.62938647279412
 20
-115.6602883089661
 30
0.0
 10
79.5151974369802
 20
-115.4859371884657
 30
0.0
 10
79.41961117091434
 20
-115.2608279828565
 30
0.0
 10
79.33686229802836
 20
-114.9964115539045
 30
0.0
 10
79.28571496640694
 20
-114.6784146829835
 30
0.0
 10
79.18201596149952
 20
-114.4048567290798
 30
0.0
 10
79.30928116161786
 20
-114.0002358278401
 30
0.0
 10
79.14078610306755
 20
-114.0091703354721
 30
0.0
 10
79.05619661947345
 20
-114.0071343997852
 30
0.0
 10
78.92398467952847
 20
-114.0081546400847
 30
0.0
 10
78.76104755017612
 20
-114.0077617107846
 30
0.0
 10
78.57837295781903
 20
-114.0079370508352
 30
0.0
 10
78.38970277810394
 20
-114.0076929608941
 30
0.0
 10
78.20644394278467
 20
-114.0084374349065
 30
0.0
 10
78.0454717240375
 20
-114.0061304087446
 30
0.0
 10
77.90797787429327
 20
-114.0122959651322
 30
0.0
 10
77.83395607799679
 20
-113.9999656293867
 30
0.0
 10
77.7663185594514
 20
-114.0170007767333
 30
0.0
 10
77.77823441269268
 20
-113.9650496294936
 30
0.0
 10
77.77056476933512
 20
-113.9195797643036
 30
0.0
 10
77.77825626327726
 20
-113.8741494769319
 30
0.0
 10
77.76631122054187
 20
-113.8222700541233
 30
0.0
 10
77.83335587135241
 20
-113.8391025790663
 30
0.0
 10
77.90673460733338
 20
-113.8269399230423
 30
0.0
 10
78.04290987129292
 20
-113.8330217032194
 30
0.0
 10
78.20237822091696
 20
-113.8307456708184
 30
0.0
 10
78.38391434934935
 20
-113.8314816739794
 30
0.0
 10
78.57080052698363
 20
-113.8312344720076
 30
0.0
 10
78.7517982724493
 20
-113.8314300059764
 30
0.0
 10
78.91307729865358
 20
-113.8309716668206
 30
0.0
 10
79.04438525325446
 20
-113.8321672764569
 30
0.0
 10
79.12750217302538
 20
-113.8297805407715
 30
0.0
 10
79.26062069554723
 20
-113.8379879567144
 30
0.0
 10
79.1695863910316
 20
-113.5827653244424
 30
0.0
 10
79.08396034820757
 20
-113.3186504306863
 30
0.0
 10
79.20405594111122
 20
-113.3312495842773
 30
0.0
 10
79.25642353562007
 20
-113.3333516563382
 30
0.0
 10
79.32644679773728
 20
-113.3349400150723
 30
0.0
 10
79.37218927454748
 20
-113.3442683385878
 30
0.0
 10
79.42707830545903
 20
-113.3348343448146
 30
0.0
 10
79.40135451933389
 20
-113.3829637274172
 30
0.0
 10
79.28753679791106
 20
-113.3776257165273
 30
0.0
 10
79.42093170287932
 20
-113.6058022682012
 30
0.0
 10
79.29936291431294
 20
-113.8387254480097
 30
0.0
 10
79.42731591770706
 20
-113.8294214251246
 30
0.0
 10
79.50990188141186
 20
-113.8322839964222
 30
0.0
 10
79.6357185258482
 20
-113.8310596398459
 30
0.0
 10
79.77914402457156
 20
-113.8309696950793
 30
0.0
 10
79.92073913593859
 20
-113.8328323821304
 30
0.0
 10
80.05090976576251
 20
-113.8269632545974
 30
0.0
 10
80.12434226938484
 20
-113.839590605737
 30
0.0
 10
80.19410833297538
 20
-113.8215183828648
 30
0.0
 10
80.18257430130535
 20
-113.8741655085057
 30
0.0
 10
80.18831547543401
 20
-113.9180808371035
 30
0.0
 10
80.18665861785684
 20
-113.9693941872033
 30
0.0
 10
80.1867727969327
 20
-113.9987060937525
 30
0.0
 10
80.18680847409468
 20
-114.0078660627181
 30
0.0
 11
80.18680847409468
 21
-114.0078660627181
 31
0.0
 11
80.15220975997086
 21
-114.0078660627181
 31
0.0
 11
80.06099496818987
 21
-114.0078660627181
 31
0.0
 11
79.93203612463748
 21
-114.0078660627181
 31
0.0
 11
79.78420525519934
 21
-114.0078660627181
 31
0.0
 11
79.63637438576121
 21
-114.0078660627181
 31
0.0
 11
79.5074155422088
 21
-114.0078660627181
 31
0.0
 11
79.41620075042782
 21
-114.0078660627181
 31
0.0
 11
79.381602036304
 21
-114.0078660627181
 31
0.0
 11
79.41331109053507
 21
-114.3259353646677
 31
0.0
 11
79.45778370645229
 21
-114.6251987860881
 31
0.0
 11
79.51423595259773
 21
-114.8983813188432
 31
0.0
 11
79.58188389751355
 21
-115.1382079547967
 31
0.0
 11
79.65994360974187
 21
-115.3374036858124
 31
0.0
 11
79.74763115782486
 21
-115.4886935037541
 31
0.0
 11
79.84416261030461
 21
-115.5848024004857
 31
0.0
 11
79.94875403572325
 21
-115.618455367871
 31
0.0
 11
79.99930477104435
 21
-115.5885202441806
 31
0.0
 11
80.03605593992093
 21
-115.4953778158184
 31
0.0
 11
80.06126113851849
 21
-115.3340224968484
 31
0.0
 11
80.07717396300256
 21
-115.0994487013341
 31
0.0
 11
80.15440530902404
 21
-115.1582721909027
 31
0.0
 11
80.23771545920425
 21
-115.201075159642
 31
0.0
 11
80.21163362188746
 21
-115.4450101273588
 31
0.0
 11
80.1723288212763
 21
-115.6182149850933
 31
0.0
 11
80.11556730044224
 21
-115.7301812895097
 31
0.0
 11
80.03711530245675
 21
-115.7904005972724
 31
0.0
 11
79.93273907039134
 21
-115.8083644650457
 31
0.0
 11
79.77885654727542
 21
-115.7707196138453
 31
0.0
 11
79.64388727844047
 21
-115.6632205251948
 31
0.0
 11
79.52717103238206
 21
-115.4940203965208
 31
0.0
 11
79.42804757759572
 21
-115.2712724252495
 31
0.0
 11
79.34585668257708
 21
-115.0031298088072
 31
0.0
 11
79.27993811582166
 21
-114.6977457446203
 31
0.0
 11
79.22963164582507
 21
-114.3632734301152
 31
0.0
 11
79.19427704108284
 21
-114.0078660627181
 31
0.0
 11
79.1611905813501
 21
-114.0078660627181
 31
0.0
 11
79.07046964337322
 21
-114.0078660627181
 31
0.0
 11
78.93492188898423
 21
-114.0078660627181
 31
0.0
 11
78.7673549800152
 21
-114.0078660627181
 31
0.0
 11
78.58057657829809
 21
-114.0078660627181
 31
0.0
 11
78.387394345665
 21
-114.0078660627181
 31
0.0
 11
78.2006159439479
 21
-114.0078660627181
 31
0.0
 11
78.03304903497883
 21
-114.0078660627181
 31
0.0
 11
77.89750128058986
 21
-114.0078660627181
 31
0.0
 11
77.806780342613
 21
-114.0078660627181
 31
0.0
 11
77.77369388288025
 21
-114.0078660627181
 31
0.0
 11
77.77369388288025
 21
-113.9802791161104
 31
0.0
 11
77.77369388288025
 21
-113.9195878335735
 31
0.0
 11
77.77369388288025
 21
-113.8588965510367
 31
0.0
 11
77.77369388288025
 21
-113.831309604429
 31
0.0
 11
77.80646934952885
 21
-113.831309604429
 31
0.0
 11
77.89633756453307
 21
-113.831309604429
 31
0.0
 11
78.03061125048056
 21
-113.831309604429
 31
0.0
 11
78.19660312995894
 21
-113.831309604429
 31
0.0
 11
78.38162592555585
 21
-113.831309604429
 31
0.0
 11
78.57299235985896
 21
-113.831309604429
 31
0.0
 11
78.7580151554559
 21
-113.831309604429
 31
0.0
 11
78.92400703493426
 21
-113.831309604429
 31
0.0
 11
79.05828072088175
 21
-113.831309604429
 31
0.0
 11
79.14814893588598
 21
-113.831309604429
 31
0.0
 11
79.18092440253457
 21
-113.831309604429
 31
0.0
 11
79.17091543577604
 21
-113.5808175385193
 31
0.0
 11
79.16490829183203
 21
-113.3283278684436
 31
0.0
 11
79.19105462783163
 21
-113.3297247978877
 31
0.0
 11
79.25340358290761
 21
-113.3330559373313
 31
0.0
 11
79.3278200776757
 21
-113.3370318134414
 31
0.0
 11
79.39016903275167
 21
-113.340362952885
 31
0.0
 11
79.41631536875127
 21
-113.3417598823291
 31
0.0
 11
79.40329015206977
 21
-113.3701287278081
 31
0.0
 11
79.36016196740627
 21
-113.3844812712073
 31
0.0
 11
79.36249623694788
 21
-113.6089273128179
 31
0.0
 11
79.37084231435608
 21
-113.831309604429
 31
0.0
 11
79.40590336028235
 21
-113.831309604429
 31
0.0
 11
79.49833702681524
 21
-113.831309604429
 31
0.0
 11
79.62901910708587
 21
-113.831309604429
 31
0.0
 11
79.77882539422538
 21
-113.831309604429
 31
0.0
 11
79.92863168136489
 21
-113.831309604429
 31
0.0
 11
80.05931376163552
 21
-113.831309604429
 31
0.0
 11
80.15174742816842
 21
-113.831309604429
 31
0.0
 11
80.18680847409468
 21
-113.831309604429
 31
0.0
 11
80.18680847409468
 21
-113.8588965510367
 31
0.0
 11
80.18680847409468
 21
-113.9195878335735
 31
0.0
 11
80.18680847409468
 21
-113.9802791161104
 31
0.0
 11
80.18680847409468
 21
-114.0078660627181
 31
0.0
  0
SPLINE
  5
B6
102
{ACAD_REACTORS
330
D3
102
}
330
48
100
AcDbEntity
  8
_U_30EC_U_30A4_U_30E4_U_30FC_1
  6
Continuous
 62
     2
100
AcDbSpline
210
0.0
220
0.0
230
1.0
 70
    11
 71
     3
 72
   118
 73
   114
 74
   112
 42
0.000000001
 43
0.0000000001
 44
0.00000001
 40
0.0
 40
0.0
 40
0.0
 40
0.0
 40
0.1054708162973237
 40
0.2466098270051902
 40
0.3965912874591302
 40
0.5285525069753905
 40
0.6156245055642379
 40
0.6431434105797733
 40
0.7036850037986367
 40
0.7642265984504708
 40
0.7917455052355152
 40
0.9287404319989896
 40
1.106572819088008
 40
1.287544879681039
 40
1.317578308030565
 40
1.3999280308572
 40
1.522968204799969
 40
1.675072986590609
 40
1.844616533180672
 40
2.019973001638749
 40
2.189516548880067
 40
2.341621331585375
 40
2.464661506320527
 40
2.5470112296471
 40
2.577044658168066
 40
2.603797890893108
 40
2.662655002908838
 40
2.72151211494965
 40
2.748265347702829
 40
2.774215307344892
 40
2.845959313407238
 40
2.954338556588428
 40
3.090194227585601
 40
3.244367517100559
 40
3.407699615844325
 40
3.571031714539475
 40
3.725205003920141
 40
3.861060674729631
 40
3.969439917716346
 40
4.041183923628995
 40
4.067133883213006
 40
4.311886746012144
 40
4.547897258335508
 40
4.764747083043962
 40
4.952749679951767
 40
5.045772974195862
 40
5.137862019644976
 40
5.330543169793007
 40
5.553448265244
 40
5.795083855888151
 40
6.043293412177214
 40
6.285761695541128
 40
6.31390290875264
 40
6.384255941793201
 40
6.47571488476679
 40
6.567173827758852
 40
6.637526860839602
 40
6.665668074073951
 40
6.692018920327927
 40
6.749990782071011
 40
6.807962643790377
 40
6.834313490017864
 40
6.856393084245143
 40
6.913335195649781
 40
6.99119481730243
 40
7.076026942283677
 40
7.153886563725196
 40
7.210828674844736
 40
7.232908268931086
 40
7.258199334923605
 40
7.324875781592242
 40
7.419142481924895
 40
7.527204308841833
 40
7.635266135230411
 40
7.729532834168383
 40
7.796209279292698
 40
7.821500344594641
 40
7.844652988850768
 40
7.899863140541504
 40
7.965759128053683
 40
8.020969279770979
 40
8.044121924046445
 40
8.069356610160531
 40
8.109134395441309
 40
8.13223810019101
 40
8.193147867786386
 40
8.279261678876559
 40
8.377977512673787
 40
8.476693347146572
 40
8.56280716041163
 40
8.623716930826426
 40
8.64682063685337
 40
8.671988793774212
 40
8.734909185828094
 40
8.816705695188794
 40
8.898502204815394
 40
8.961422597377855
 40
8.986590754550981
 40
9.01294160073315
 40
9.07091346238024
 40
9.128885324081757
 40
9.155236170325061
 40
9.180404327929075
 40
9.243324721948163
 40
9.325121234211956
 40
9.406917746637639
 40
9.469838141978094
 40
9.495006288270883
 40
9.517811184379024
 40
9.572192090487004
 40
9.637098333281227
 40
9.691479239515399
 40
9.714284125643442
 40
9.714284125643442
 40
9.714284125643442
 40
9.714284125643442
 10
75.39244394363106
 20
-114.2914023820917
 30
0.0
 10
75.41409609766951
 20
-114.3191753215408
 30
0.0
 10
75.4647227517131
 20
-114.3841134683566
 30
0.0
 10
75.53993536102494
 20
-114.4913834108399
 30
0.0
 10
75.62984526820037
 20
-114.6065196313026
 30
0.0
 10
75.67591400843308
 20
-114.7067235564857
 30
0.0
 10
75.77057957023126
 20
-114.7759539458195
 30
0.0
 10
75.72544097280701
 20
-114.8225776171861
 30
0.0
 10
75.69970181934474
 20
-114.8636909253085
 30
0.0
 10
75.66951671156698
 20
-114.8996342966895
 30
0.0
 10
75.62436551382187
 20
-114.9744961880079
 30
0.0
 10
75.57604748662202
 20
-114.7524687714329
 30
0.0
 10
75.50185101207309
 20
-114.7151872405918
 30
0.0
 10
75.38860177322633
 20
-114.4441919926629
 30
0.0
 10
75.39351039858276
 20
-114.5593407295066
 30
0.0
 10
75.3918456963963
 20
-114.6319272561527
 30
0.0
 10
75.39268004843723
 20
-114.7540381291291
 30
0.0
 10
75.39235799479212
 20
-114.9011560058643
 30
0.0
 10
75.39250473201135
 20
-115.0672233744034
 30
0.0
 10
75.39229205003795
 20
-115.2384184678829
 30
0.0
 10
75.39294676596911
 20
-115.404765727614
 30
0.0
 10
75.39091628687972
 20
-115.550942283412
 30
0.0
 10
75.39634308075875
 20
-115.6755835392228
 30
0.0
 10
75.38549012763656
 20
-115.7431074485626
 30
0.0
 10
75.40067095632122
 20
-115.8048033997987
 30
0.0
 10
75.35078655157912
 20
-115.7930189749989
 30
0.0
 10
75.30671207501791
 20
-115.8008557861692
 30
0.0
 10
75.2632342037858
 20
-115.7926896002419
 30
0.0
 10
75.21423171941458
 20
-115.8049134465843
 30
0.0
 10
75.22687016424824
 20
-115.7506873414758
 30
0.0
 10
75.21801533761068
 20
-115.6909248248933
 30
0.0
 10
75.2225029177971
 20
-115.5810737235253
 30
0.0
 10
75.22079305436479
 20
-115.4499942599121
 30
0.0
 10
75.2213521323644
 20
-115.2983138995257
 30
0.0
 10
75.2211899176351
 20
-115.1381832646694
 30
0.0
 10
75.22122403323317
 20
-114.9779253572233
 30
0.0
 10
75.2212485367784
 20
-114.8265915387646
 30
0.0
 10
75.22114239508828
 20
-114.6944724505829
 30
0.0
 10
75.22142695495883
 20
-114.587345988637
 30
0.0
 10
75.22086459552249
 20
-114.5222078181742
 30
0.0
 10
75.22307354913468
 20
-114.3941044353823
 30
0.0
 10
75.13694064062598
 20
-114.7693179100532
 30
0.0
 10
75.0605111226158
 20
-114.921112082735
 30
0.0
 10
74.97100111754906
 20
-115.0826319495058
 30
0.0
 10
74.86903836249842
 20
-115.3555755257672
 30
0.0
 10
74.8237946898696
 20
-115.1931205480038
 30
0.0
 10
74.71523263493283
 20
-115.1042396933877
 30
0.0
 10
74.904576215941
 20
-114.9547960643549
 30
0.0
 10
74.96153109533574
 20
-114.7628026442196
 30
0.0
 10
75.07674914010092
 20
-114.5312977849014
 30
0.0
 10
75.09901220377904
 20
-114.3423214163783
 30
0.0
 10
75.28218755597965
 20
-114.0657531207095
 30
0.0
 10
75.15880040052095
 20
-114.073304225648
 30
0.0
 10
75.09756545744908
 20
-114.0717262903077
 30
0.0
 10
75.01319700247215
 20
-114.0714680882323
 30
0.0
 10
74.92542054936227
 20
-114.0748455564569
 30
0.0
 10
74.87067391037804
 20
-114.0663458641488
 30
0.0
 10
74.8154673433682
 20
-114.079808403471
 30
0.0
 10
74.8272793443194
 20
-114.0309795927013
 30
0.0
 10
74.81924665594511
 20
-113.9876039650018
 30
0.0
 10
74.82781565123358
 20
-113.9451996308731
 30
0.0
 10
74.81529138168143
 20
-113.8976160484478
 30
0.0
 10
74.86050719463925
 20
-113.9076218840178
 30
0.0
 10
74.90647859703816
 20
-113.9013529622284
 30
0.0
 10
74.98271924553676
 20
-113.9043583999102
 30
0.0
 10
75.06112665396515
 20
-113.9025895311835
 30
0.0
 10
75.137396305659
 20
-113.9056460741523
 30
0.0
 10
75.1832979867132
 20
-113.8992543002071
 30
0.0
 10
75.22817043730575
 20
-113.90935578418
 30
0.0
 10
75.21555226832905
 20
-113.8587219981499
 30
0.0
 10
75.2241906990364
 20
-113.8052813951483
 30
0.0
 10
75.22023320030999
 20
-113.7116614626521
 30
0.0
 10
75.2212295475992
 20
-113.6091679470798
 30
0.0
 10
75.22218978207304
 20
-113.5067613114873
 30
0.0
 10
75.21831818656625
 20
-113.4129347178758
 30
0.0
 10
75.22677602220222
 20
-113.3599285855654
 30
0.0
 10
75.21430463404924
 20
-113.3081796574571
 30
0.0
 10
75.25920767975074
 20
-113.3217865417014
 30
0.0
 10
75.30050542444292
 20
-113.3192892107631
 30
0.0
 10
75.36453146887078
 20
-113.3238134082241
 30
0.0
 10
75.40360815564435
 20
-113.3324839835357
 30
0.0
 10
75.45265139063997
 20
-113.3251429932621
 30
0.0
 10
75.42750504382481
 20
-113.3642650534513
 30
0.0
 10
75.38658717413809
 20
-113.3546555894108
 30
0.0
 10
75.39600800242616
 20
-113.4048925322711
 30
0.0
 10
75.3905617726404
 20
-113.456434557574
 30
0.0
 10
75.39316700094606
 20
-113.5406969381237
 30
0.0
 10
75.3920072609812
 20
-113.6347026581348
 30
0.0
 10
75.39335614718887
 20
-113.7283253600136
 30
0.0
 10
75.38999405091661
 20
-113.8134988384467
 30
0.0
 10
75.39709303254264
 20
-113.8631254532485
 30
0.0
 10
75.38625395622033
 20
-113.910357064269
 30
0.0
 10
75.43539806329028
 20
-113.8982772646004
 30
0.0
 10
75.48448480378046
 20
-113.9058200803388
 30
0.0
 10
75.5623684688299
 20
-113.9034333103546
 30
0.0
 10
75.64003355805532
 20
-113.9013001949148
 30
0.0
 10
75.68953643390125
 20
-113.9083600947443
 30
0.0
 10
75.7394565158297
 20
-113.8966924946067
 30
0.0
 10
75.72731689245384
 20
-113.944891660255
 30
0.0
 10
75.73558086368016
 20
-113.9878018159566
 30
0.0
 10
75.72731690584406
 20
-114.0307119954551
 30
0.0
 10
75.73945649575124
 20
-114.0789111264203
 30
0.0
 10
75.68953655664038
 20
-114.0672436692538
 30
0.0
 10
75.64003210588606
 20
-114.0743019896185
 30
0.0
 10
75.56237547906302
 20
-114.0721773616829
 30
0.0
 10
75.48446142734178
 20
-114.0697601203114
 30
0.0
 10
75.43544707603733
 20
-114.077375532024
 30
0.0
 10
75.38632165166003
 20
-114.065214488393
 30
0.0
 10
75.39655303962289
 20
-114.1095638797274
 30
0.0
 10
75.39066480857107
 20
-114.1510396519398
 30
0.0
 10
75.39287587132269
 20
-114.2111400708159
 30
0.0
 10
75.39240797538031
 20
-114.25803618634
 30
0.0
 10
75.3924357400571
 20
-114.2837925497869
 30
0.0
 10
75.39244394363106
 20
-114.2914023820917
 30
0.0
 11
75.39244394363106
 21
-114.2914023820917
 31
0.0
 11
75.45669479421417
 21
-114.3750440176263
 31
0.0
 11
75.53982292431567
 21
-114.4891051164867
 31
0.0
 11
75.62668019765533
 21
-114.6113763420117
 31
0.0
 11
75.70211847795298
 21
-114.7196483575401
 31
0.0
 11
75.75098962892838
 21
-114.791711826411
 31
0.0
 11
75.73467916927504
 21
-114.8138761927249
 31
0.0
 11
75.69879615803771
 21
-114.8626377986155
 31
0.0
 11
75.66291314680038
 21
-114.9113994045061
 31
0.0
 11
75.64660268714704
 21
-114.93356377082
 31
0.0
 11
75.58130375171034
 21
-114.8131326237308
 31
0.0
 11
75.48984046508922
 21
-114.6606241772669
 31
0.0
 11
75.39244394363106
 21
-114.5080961320375
 31
0.0
 11
75.39244394363108
 21
-114.5381295606864
 31
0.0
 11
75.39244394363108
 21
-114.6204792844011
 31
0.0
 11
75.39244394363106
 21
-114.7435194598336
 31
0.0
 11
75.39244394363106
 21
-114.8956242436361
 31
0.0
 11
75.39244394363106
 21
-115.0651677924605
 31
0.0
 11
75.39244394363106
 21
-115.2405242629588
 31
0.0
 11
75.39244394363106
 21
-115.4100678117832
 31
0.0
 11
75.39244394363106
 21
-115.5621725955857
 31
0.0
 11
75.39244394363106
 21
-115.6852127710182
 31
0.0
 11
75.39244394363106
 21
-115.7675624947329
 31
0.0
 11
75.39244394363106
 21
-115.7975959233818
 31
0.0
 11
75.36569071080665
 21
-115.7975959233818
 31
0.0
 11
75.3068335985929
 21
-115.7975959233818
 31
0.0
 11
75.24797648637917
 21
-115.7975959233818
 31
0.0
 11
75.22122325355474
 21
-115.7975959233818
 31
0.0
 11
75.22122325355474
 21
-115.7716459636564
 31
0.0
 11
75.22122325355475
 21
-115.6999019573568
 31
0.0
 11
75.22122325355474
 21
-115.5915227137979
 31
0.0
 11
75.22122325355474
 21
-115.4556670422945
 31
0.0
 11
75.22122325355474
 21
-115.3014937521613
 31
0.0
 11
75.22122325355474
 21
-115.1381616527134
 31
0.0
 11
75.22122325355474
 21
-114.9748295532654
 31
0.0
 11
75.22122325355474
 21
-114.8206562631322
 31
0.0
 11
75.22122325355474
 21
-114.6848005916288
 31
0.0
 11
75.22122325355474
 21
-114.5764213480698
 31
0.0
 11
75.22122325355474
 21
-114.5046773417703
 31
0.0
 11
75.22122325355474
 21
-114.4787273820449
 31
0.0
 11
75.14298362693792
 21
-114.7106379809452
 31
0.0
 11
75.05470811969613
 21
-114.9295178506821
 31
0.0
 11
74.95940773377029
 21
-115.1243041006334
 31
0.0
 11
74.86009347110138
 21
-115.2839338401769
 31
0.0
 11
74.81591687500634
 21
-115.202069552003
 31
0.0
 11
74.7638027791138
 21
-115.1261451596608
 31
0.0
 11
74.86772729979565
 21
-114.9638931347013
 31
0.0
 11
74.96792902723922
 21
-114.7647793597511
 31
0.0
 11
75.06004170155586
 21
-114.5413895348069
 31
0.0
 11
75.13969906285693
 21
-114.3063093598657
 31
0.0
 11
75.20253485125374
 21
-114.0721245349243
 31
0.0
 11
75.17439363797995
 21
-114.0721245349243
 31
0.0
 11
75.10404060479544
 21
-114.0721245349243
 31
0.0
 11
75.01258166165556
 21
-114.0721245349243
 31
0.0
 11
74.92112271851569
 21
-114.0721245349243
 31
0.0
 11
74.85076968533119
 21
-114.0721245349243
 31
0.0
 11
74.82262847205737
 21
-114.0721245349243
 31
0.0
 11
74.82262847205737
 21
-114.0457736885767
 31
0.0
 11
74.82262847205737
 21
-113.987801826612
 31
0.0
 11
74.82262847205737
 21
-113.9298299646474
 31
0.0
 11
74.82262847205737
 21
-113.9034791182998
 31
0.0
 11
74.84470806636773
 21
-113.9034791182998
 31
0.0
 11
74.9016501780102
 21
-113.9034791182998
 31
0.0
 11
74.97950980005196
 21
-113.9034791182998
 31
0.0
 11
75.06434192556014
 21
-113.9034791182998
 31
0.0
 11
75.1422015476019
 21
-113.9034791182998
 31
0.0
 11
75.19914365924438
 21
-113.9034791182998
 31
0.0
 11
75.22122325355474
 21
-113.9034791182998
 31
0.0
 11
75.22122325355474
 21
-113.8781880522254
 31
0.0
 11
75.22122325355474
 21
-113.811511605302
 31
0.0
 11
75.22122325355474
 21
-113.7172449044792
 31
0.0
 11
75.22122325355474
 21
-113.6091830767067
 31
0.0
 11
75.22122325355474
 21
-113.5011212489342
 31
0.0
 11
75.22122325355474
 21
-113.4068545481115
 31
0.0
 11
75.22122325355474
 21
-113.340178101188
 31
0.0
 11
75.22122325355474
 21
-113.3148870351136
 31
0.0
 11
75.2443152396323
 21
-113.316561882891
 31
0.0
 11
75.29938074489417
 21
-113.3205557506677
 31
0.0
 11
75.36510408988414
 21
-113.325322625111
 31
0.0
 11
75.420169595146
 21
-113.3293164928877
 31
0.0
 11
75.44326158122357
 21
-113.3309913406651
 31
0.0
 11
75.42989830520195
 21
-113.352397234757
 31
0.0
 11
75.39244394363106
 21
-113.3657928684342
 31
0.0
 11
75.39244394363106
 21
-113.3888965744831
 31
0.0
 11
75.39244394363108
 21
-113.4498063449757
 31
0.0
 11
75.39244394363105
 21
-113.5359201584307
 31
0.0
 11
75.39244394363106
 21
-113.634635993367
 31
0.0
 11
75.39244394363106
 21
-113.7333518283033
 31
0.0
 11
75.39244394363106
 21
-113.8194656417583
 31
0.0
 11
75.39244394363106
 21
-113.8803754122509
 31
0.0
 11
75.39244394363106
 21
-113.9034791182998
 31
0.0
 11
75.41761210124665
 21
-113.9034791182998
 31
0.0
 11
75.48053249528566
 21
-113.9034791182998
 31
0.0
 11
75.56232900753633
 21
-113.9034791182998
 31
0.0
 11
75.64412551978702
 21
-113.9034791182998
 31
0.0
 11
75.70704591382601
 21
-113.9034791182998
 31
0.0
 11
75.7322140714416
 21
-113.9034791182998
 31
0.0
 11
75.7322140714416
 21
-113.9298299646474
 31
0.0
 11
75.7322140714416
 21
-113.9878018266121
 31
0.0
 11
75.7322140714416
 21
-114.0457736885767
 31
0.0
 11
75.7322140714416
 21
-114.0721245349243
 31
0.0
 11
75.70704591382601
 21
-114.0721245349243
 31
0.0
 11
75.64412551978702
 21
-114.0721245349243
 31
0.0
 11
75.56232900753633
 21
-114.0721245349243
 31
0.0
 11
75.48053249528564
 21
-114.0721245349243
 31
0.0
 11
75.41761210124665
 21
-114.0721245349243
 31
0.0
 11
75.39244394363106
 21
-114.0721245349243
 31
0.0
 11
75.39244394363108
 21
-114.0949294310297
 31
0.0
 11
75.39244394363106
 21
-114.1493103371272
 31
0.0
 11
75.39244394363106
 21
-114.2142165798888
 31
0.0
 11
75.39244394363106
 21
-114.2685974859863
 31
0.0
 11
75.39244394363106
 21
-114.2914023820917
 31
0.0
  0
SPLINE
  5
B7
102
{ACAD_REACTORS
330
D4
102
}
330
48
100
AcDbEntity
  8
_U_30EC_U_30A4_U_30E4_U_30FC_1
  6
Continuous
 62
     2
100
AcDbSpline
210
0.0
220
0.0
230
1.0
 70
    11
 71
     3
 72
    47
 73
    43
 74
    41
 42
0.000000001
 43
0.0000000001
 44
0.00000001
 40
0.0
 40
0.0
 40
0.0
 40
0.0
 40
0.2207912809957237
 40
0.4459404186303292
 40
0.4902387190459965
 40
0.5327473892722674
 40
0.5742260451226098
 40
0.6155432630561382
 40
0.6568164066316438
 40
0.6982511618781305
 40
0.7407663929317748
 40
0.7851366743175798
 40
1.0102888338364
 40
1.231080507002255
 40
1.451765243652489
 40
1.676638205891709
 40
1.720461045359688
 40
1.830018144043581
 40
1.972442372353246
 40
2.114866600677619
 40
2.224423699395278
 40
2.26824653888352
 40
2.493628801207302
 40
2.715602830286676
 40
2.934211330706451
 40
3.149502369855396
 40
3.231387784851037
 40
3.318231873854073
 40
3.405143198198075
 40
3.486970301720521
 40
3.702258172493909
 40
3.920866283534155
 40
4.142839325931937
 40
4.368221903865333
 40
4.412044743359829
 40
4.521601842095848
 40
4.664026070452366
 40
4.806450298809096
 40
4.916007397546792
 40
4.959830237043136
 40
5.184703515847104
 40
5.4053872507675
 40
5.4053872507675
 40
5.4053872507675
 40
5.4053872507675
 10
72.75573976663026
 20
-113.8262296044302
 30
0.0
 10
72.76181098276604
 20
-113.7627091889568
 30
0.0
 10
72.77407325149
 20
-113.6344146270726
 30
0.0
 10
72.665467728707
 20
-113.3586318122282
 30
0.0
 10
72.78119563042608
 20
-113.3884126796483
 30
0.0
 10
72.8221812916673
 20
-113.3926384513408
 30
0.0
 10
72.86411762051753
 20
-113.3971895500728
 30
0.0
 10
72.90541670333678
 20
-113.398274184674
 30
0.0
 10
72.94670025232129
 20
-113.3971906320166
 30
0.0
 10
72.98861186783049
 20
-113.3926328868556
 30
0.0
 10
73.02959539566763
 20
-113.3884197118716
 30
0.0
 10
73.14548932511467
 20
-113.3585179007937
 30
0.0
 10
73.03456231351137
 20
-113.63689594787
 30
0.0
 10
73.0624826772924
 20
-113.8174626057194
 30
0.0
 10
73.04542377546271
 20
-114.0506835905042
 30
0.0
 10
73.04646076897599
 20
-114.2112277885374
 30
0.0
 10
73.04640698070615
 20
-114.3374458383817
 30
0.0
 10
73.0464247780138
 20
-114.4360043806065
 30
0.0
 10
73.04641589887375
 20
-114.5674869895393
 30
0.0
 10
73.04642343356909
 20
-114.6989655642825
 30
0.0
 10
73.04640998127857
 20
-114.797531787028
 30
0.0
 10
73.04645021251491
 20
-114.9238966577275
 30
0.0
 10
73.04567168114754
 20
-115.0854733257403
 30
0.0
 10
73.06159287269237
 20
-115.3166757950398
 30
0.0
 10
73.03834392930649
 20
-115.5015504942489
 30
0.0
 10
73.14101538520234
 20
-115.7709379862683
 30
0.0
 10
72.98702087704937
 20
-115.7336928871108
 30
0.0
 10
72.90541002104898
 20
-115.7389140671636
 30
0.0
 10
72.823816270024
 20
-115.7336878101854
 30
0.0
 10
72.66984840745002
 20
-115.770923315115
 30
0.0
 10
72.77241538295748
 20
-115.5015427153401
 30
0.0
 10
72.74920157237456
 20
-115.3166781607148
 30
0.0
 10
72.7650415062796
 20
-115.0854718283125
 30
0.0
 10
72.76432667210854
 20
-114.9238968908839
 30
0.0
 10
72.76436349775642
 20
-114.7975317018638
 30
0.0
 10
72.7643519407928
 20
-114.6989664476091
 30
0.0
 10
72.76435454268719
 20
-114.5674827397967
 30
0.0
 10
72.76436189394363
 20
-114.4360185336569
 30
0.0
 10
72.7643412949009
 20
-114.3374161512156
 30
0.0
 10
72.76440525996858
 20
-114.2113325204246
 30
0.0
 10
72.76317043552474
 20
-114.0481931001312
 30
0.0
 10
72.75820108044027
 20
-113.8997521761934
 30
0.0
 10
72.75573976663026
 20
-113.8262296044302
 30
0.0
 11
72.75573976663026
 21
-113.8262296044302
 31
0.0
 11
72.74672986080367
 21
-113.6056222260131
 31
0.0
 11
72.73687401138034
 21
-113.3806889100971
 31
0.0
 11
72.78069562484586
 21
-113.3871700993316
 31
0.0
 11
72.82283713418724
 21
-113.3927450906497
 31
0.0
 11
72.8641341817448
 21
-113.3966223389126
 31
0.0
 11
72.90543122930228
 21
-113.3979132850928
 31
0.0
 11
72.9466841796388
 21
-113.3966223389126
 31
0.0
 11
72.98793712997548
 21
-113.3927450906497
 31
0.0
 11
73.03008525390004
 21
-113.3871700993316
 31
0.0
 11
73.07397962778026
 21
-113.3806889100971
 31
0.0
 11
73.06405481015489
 21
-113.6056222260131
 31
0.0
 11
73.05503546159673
 21
-113.8262296044302
 31
0.0
 11
73.04856088710925
 21
-114.0468193439584
 31
0.0
 11
73.04641886459433
 21
-114.2716821043188
 31
0.0
 11
73.04641886459433
 21
-114.315504943814
 31
0.0
 11
73.04641886459433
 21
-114.4250620425521
 31
0.0
 11
73.04641886459433
 21
-114.5674862709116
 31
0.0
 11
73.04641886459433
 21
-114.709910499271
 31
0.0
 11
73.04641886459433
 21
-114.8194675980091
 31
0.0
 11
73.04641886459433
 21
-114.8632904375043
 31
0.0
 11
73.04856088710925
 21
-115.0886625207813
 31
0.0
 11
73.05503546159673
 21
-115.3105421040591
 31
0.0
 11
73.06405481015489
 21
-115.5289644651156
 31
0.0
 11
73.07397962778026
 21
-115.7440266178396
 31
0.0
 11
72.9922586576428
 21
-115.7388396820771
 31
0.0
 11
72.90543122930228
 21
-115.7371386317303
 31
0.0
 11
72.81853655269967
 21
-115.7388396820771
 31
0.0
 11
72.73687401138034
 21
-115.7440266178396
 31
0.0
 11
72.74672986080367
 21
-115.5289644651156
 31
0.0
 11
72.75573976663026
 21
-115.3105421040591
 31
0.0
 11
72.76218042464556
 21
-115.0886625207812
 31
0.0
 11
72.7643553995681
 21
-114.8632904375043
 31
0.0
 11
72.7643553995681
 21
-114.8194675980091
 31
0.0
 11
72.7643553995681
 21
-114.709910499271
 31
0.0
 11
72.7643553995681
 21
-114.5674862709115
 31
0.0
 11
72.7643553995681
 21
-114.4250620425521
 31
0.0
 11
72.7643553995681
 21
-114.315504943814
 31
0.0
 11
72.7643553995681
 21
-114.2716821043188
 31
0.0
 11
72.76218042464556
 21
-114.0468193439584
 31
0.0
 11
72.75573976663026
 21
-113.8262296044302
 31
0.0
  0
SPLINE
  5
B8
102
{ACAD_REACTORS
330
D5
102
}
330
48
100
AcDbEntity
  8
_U_30EC_U_30A4_U_30E4_U_30FC_1
  6
Continuous
 62
     2
100
AcDbSpline
210
0.0
220
0.0
230
1.0
 70
    11
 71
     3
 72
   110
 73
   106
 74
   104
 42
0.000000001
 43
0.0000000001
 44
0.00000001
 40
0.0
 40
0.0
 40
0.0
 40
0.0
 40
0.2203406257277708
 40
0.4407808782838113
 40
0.5952494494614813
 40
0.7488431659393113
 40
0.902358183130852
 40
1.056801968670421
 40
1.210736449099865
 40
1.363041386539728
 40
1.515315729683072
 40
1.669377239148051
 40
1.721611652756578
 40
1.773199502942973
 40
1.824933793210016
 40
1.877110426487989
 40
1.982682281206739
 40
2.07878166708758
 40
2.172809640822311
 40
2.271937807378924
 40
2.378349933379332
 40
2.494131557736547
 40
2.626681683943681
 40
2.783145050796123
 40
2.890701232941
 40
2.993130312454902
 40
3.099869730691846
 40
3.220237816691338
 40
3.35269548273767
 40
3.481732806389925
 40
3.593499473690405
 40
3.67432301333197
 40
3.817951711952891
 40
3.946167120793905
 40
4.061405053453587
 40
4.166480796003241
 40
4.262478775059324
 40
4.350736673551225
 40
4.433071991254107
 40
4.51121629381472
 40
4.564262454118053
 40
4.618474415571675
 40
4.670128488754215
 40
4.722296879126422
 40
4.819540945314304
 40
4.931194984128133
 40
5.049996040257789
 40
5.168643755415335
 40
5.283970811762575
 40
5.392260784910402
 40
5.486512254876447
 40
5.559178233949846
 40
5.591425852853572
 40
5.626215969637992
 40
5.667155838674493
 40
5.717449290214272
 40
5.738402360944884
 40
5.784499116553842
 40
5.830595872164817
 40
5.851548942897675
 40
5.873019280661775
 40
5.924217778408329
 40
5.985325662817711
 40
6.036524160567732
 40
6.057994498334248
 40
6.236847789607508
 40
6.381409928945694
 40
6.493190424178704
 40
6.574067534230567
 40
6.691018086205675
 40
6.814881554220579
 40
6.944307823240574
 40
7.071266716066183
 40
7.193488604462
 40
7.309042773128255
 40
7.414007203170894
 40
7.505140441886606
 40
7.531150360599736
 40
7.559221645322333
 40
7.587202218920983
 40
7.612569159499191
 40
7.662550809481093
 40
7.702878875764151
 40
7.857328205230963
 40
8.010799568088594
 40
8.165256399657572
 40
8.322232698713883
 40
8.479564855016584
 40
8.635216230290773
 40
8.79088255092569
 40
8.948305154947212
 40
9.168271839032853
 40
9.38735898098713
 40
9.608047961033346
 40
9.832914234792538
 40
9.858338694962852
 40
9.92536681722987
 40
10.02013071422748
 40
10.12876249858986
 40
10.23739428295238
 40
10.3321581799518
 40
10.39918630222385
 40
10.42461076239773
 40
10.6499201933693
 40
10.87188524531179
 40
10.87188524531179
 40
10.87188524531179
 40
10.87188524531179
 10
70.01077587842758
 20
-113.821061409987
 30
0.0
 10
70.01428353411987
 20
-113.7541293932308
 30
0.0
 10
70.021300439532
 20
-113.6202350948104
 30
0.0
 10
69.92479980067304
 20
-113.3348084642541
 30
0.0
 10
70.1560105133766
 20
-113.3974501520661
 30
0.0
 10
70.29692604648136
 20
-113.390278473409
 30
0.0
 10
70.4540388165246
 20
-113.3979351831865
 30
0.0
 10
70.60758838349452
 20
-113.3977664911385
 30
0.0
 10
70.75950753427382
 20
-113.3984736086145
 30
0.0
 10
70.91921852208887
 20
-113.3881924304526
 30
0.0
 10
71.0458943008775
 20
-113.4053289031614
 30
0.0
 10
71.24207915297376
 20
-113.3330214128974
 30
0.0
 10
71.20843656867363
 20
-113.4338870231678
 30
0.0
 10
71.21019817248416
 20
-113.4841014744922
 30
0.0
 10
71.20773124811163
 20
-113.5331706581043
 30
0.0
 10
71.23970473736684
 20
-113.619659105499
 30
0.0
 10
71.10603703109136
 20
-113.5703196278856
 30
0.0
 10
71.02221790957142
 20
-113.5759876708272
 30
0.0
 10
70.92238315469814
 20
-113.565638846906
 30
0.0
 10
70.82365471278035
 20
-113.559429509858
 30
0.0
 10
70.71715031787679
 20
-113.5533163758011
 30
0.0
 10
70.59604821057171
 20
-113.5444051791231
 30
0.0
 10
70.47533519101108
 20
-113.5550779548451
 30
0.0
 10
70.28625242510941
 20
-113.4956089831652
 30
0.0
 10
70.31789989129686
 20
-113.6547108131935
 30
0.0
 10
70.30455337244913
 20
-113.7519027305699
 30
0.0
 10
70.30249288341076
 20
-113.8639533628679
 30
0.0
 10
70.30081584523288
 20
-113.9832971576754
 30
0.0
 10
70.302330720189
 20
-114.1099680924178
 30
0.0
 10
70.30065528863278
 20
-114.2372781338078
 30
0.0
 10
70.31088146793157
 20
-114.3357783499243
 30
0.0
 10
70.28289770042394
 20
-114.4764069877127
 30
0.0
 10
70.45580004069627
 20
-114.420398502628
 30
0.0
 10
70.5694990610429
 20
-114.4330944991838
 30
0.0
 10
70.68901220798966
 20
-114.4258102434564
 30
0.0
 10
70.79384618327295
 20
-114.4215138434014
 30
0.0
 10
70.88930553062693
 20
-114.4169883313791
 30
0.0
 10
70.98137939146898
 20
-114.4088020025069
 30
0.0
 10
71.05265221900962
 20
-114.4138555075878
 30
0.0
 10
71.15949021133426
 20
-114.3749297636522
 30
0.0
 10
71.12765740056932
 20
-114.4551227939102
 30
0.0
 10
71.13161349115879
 20
-114.5046646455086
 30
0.0
 10
71.128447279967
 20
-114.5547192335708
 30
0.0
 10
71.16007618982424
 20
-114.6390055378487
 30
0.0
 10
71.02601040853489
 20
-114.5860403590174
 30
0.0
 10
70.93422932008576
 20
-114.5948932050645
 30
0.0
 10
70.81296995972602
 20
-114.5845935143174
 30
0.0
 10
70.69640835274292
 20
-114.5828048962939
 30
0.0
 10
70.5833346153536
 20
-114.5824238428719
 30
0.0
 10
70.47292167161285
 20
-114.5761395192471
 30
0.0
 10
70.39480944754978
 20
-114.5884026814153
 30
0.0
 10
70.29635962413012
 20
-114.5557551378076
 30
0.0
 10
70.30623255812188
 20
-114.6125965334269
 30
0.0
 10
70.30238936520601
 20
-114.6463727083891
 30
0.0
 10
70.3016760291926
 20
-114.6890979668749
 30
0.0
 10
70.30133400506334
 20
-114.7262779413474
 30
0.0
 10
70.3013804663003
 20
-114.7654216402612
 30
0.0
 10
70.30136198375845
 20
-114.8031255189921
 30
0.0
 10
70.30136738394646
 20
-114.8408444616449
 30
0.0
 10
70.30136676218582
 20
-114.8703507665174
 30
0.0
 10
70.30136685592032
 20
-114.9015582369759
 30
0.0
 10
70.30136746955782
 20
-114.9461497648881
 30
0.0
 10
70.3013641906995
 20
-115.0006544488804
 30
0.0
 10
70.30137300311384
 20
-115.0452386119544
 30
0.0
 10
70.30133300610754
 20
-115.1291159281115
 30
0.0
 10
70.3025994677913
 20
-115.2429188071922
 30
0.0
 10
70.30002445254988
 20
-115.3919900546318
 30
0.0
 10
70.31149797893777
 20
-115.4943219758298
 30
0.0
 10
70.28734766299202
 20
-115.6269049751107
 30
0.0
 10
70.43829643541336
 20
-115.5813366912488
 30
0.0
 10
70.54784070792132
 20
-115.5960238923455
 30
0.0
 10
70.67839408815777
 20
-115.5910896627183
 30
0.0
 10
70.8040282617171
 20
-115.5877169607353
 30
0.0
 10
70.92387010332587
 20
-115.5831790389812
 30
0.0
 10
71.04413330190837
 20
-115.5698086521489
 30
0.0
 10
71.1272732071173
 20
-115.579606886143
 30
0.0
 10
71.25060508287312
 20
-115.5190318677357
 30
0.0
 10
71.22942396116142
 20
-115.5749694126287
 30
0.0
 10
71.2285920677774
 20
-115.6009015202455
 30
0.0
 10
71.22689341152154
 20
-115.6283214520595
 30
0.0
 10
71.22679452964869
 20
-115.6629120619051
 30
0.0
 10
71.2253629708987
 20
-115.6997899317612
 30
0.0
 10
71.25827745998473
 20
-115.7918256037508
 30
0.0
 10
71.06012773957646
 20
-115.7189738542206
 30
0.0
 10
70.93505187025481
 20
-115.7420367488828
 30
0.0
 10
70.77230417028133
 20
-115.7357537941111
 30
0.0
 10
70.61793368576583
 20
-115.7376845748696
 30
0.0
 10
70.4616640844601
 20
-115.7363563879763
 30
0.0
 10
70.30205148729392
 20
-115.7396952890903
 30
0.0
 10
70.15902967498943
 20
-115.7276360566865
 30
0.0
 10
69.92471152892863
 20
-115.7907739941997
 30
0.0
 10
70.02237811588546
 20
-115.5040887393057
 30
0.0
 10
70.00568391877164
 20
-115.3104109325423
 30
0.0
 10
70.01962671173423
 20
-115.081811585166
 30
0.0
 10
70.0192958254289
 20
-114.9264480744184
 30
0.0
 10
70.01930485269209
 20
-114.8206306495277
 30
0.0
 10
70.01930262839733
 20
-114.7582361727268
 30
0.0
 10
70.01930359595465
 20
-114.6680897614857
 30
0.0
 10
70.01930358809184
 20
-114.5640823423945
 30
0.0
 10
70.01930242687597
 20
-114.4600727002159
 30
0.0
 10
70.019306137916
 20
-114.3699315770813
 30
0.0
 10
70.01929814587079
 20
-114.3075259829967
 30
0.0
 10
70.01933046826765
 20
-114.2016056543578
 30
0.0
 10
70.01814111959763
 20
-114.0440268485214
 30
0.0
 10
70.01321868969137
 20
-113.8950118157483
 30
0.0
 10
70.01077587842758
 20
-113.821061409987
 30
0.0
 11
70.01077587842758
 21
-113.821061409987
 31
0.0
 11
70.00168886313978
 21
-113.6009082329587
 31
0.0
 11
69.9918219980791
 21
-113.3806889100971
 31
0.0
 11
70.14615455490578
 21
-113.3871700993316
 31
0.0
 11
70.2996470596704
 21
-113.3927450906497
 31
0.0
 11
70.45311310610236
 21
-113.3966223389126
 31
0.0
 11
70.6075514962597
 21
-113.3979132850928
 31
0.0
 11
70.76148056351306
 21
-113.3966223389126
 31
0.0
 11
70.91373614122574
 21
-113.3927450906497
 31
0.0
 11
71.0659083958731
 21
-113.3871700993316
 31
0.0
 11
71.21983351701408
 21
-113.3806889100971
 31
0.0
 11
71.21207821107815
 21
-113.4323443961953
 31
0.0
 11
71.2094962031249
 21
-113.4838675906269
 31
0.0
 11
71.21207821107815
 21
-113.5355374083223
 31
0.0
 11
71.21983351701408
 21
-113.5871344656011
 31
0.0
 11
71.11448444620684
 21
-113.5802795524083
 31
0.0
 11
71.01863461077176
 21
-113.5733584933823
 31
0.0
 11
70.92485635795609
 21
-113.5665101947729
 31
0.0
 11
70.8259650323539
 21
-113.5596618961635
 31
0.0
 11
70.71975026075813
 21
-113.5531840142207
 31
0.0
 11
70.60410309356956
 21
-113.547605715611
 31
0.0
 11
70.47160968549154
 21
-113.5437284673481
 31
0.0
 11
70.31515164260804
 21
-113.5424375211678
 31
0.0
 11
70.31126337013788
 21
-113.6499233978771
 31
0.0
 11
70.30653504560576
 21
-113.7522432850043
 31
0.0
 11
70.3026577974407
 21
-113.858912260672
 31
0.0
 11
70.30136685129298
 21
-113.9792734238364
 31
0.0
 11
70.30177695544936
 21
-114.1117304550533
 31
0.0
 11
70.30308664291596
 21
-114.2407611321044
 31
0.0
 11
70.30440449847072
 21
-114.3525200296458
 31
0.0
 11
70.30481615613178
 21
-114.4333425209451
 31
0.0
 11
70.44844233435316
 21
-114.4324914445564
 31
0.0
 11
70.57663143384156
 21
-114.4298941181681
 31
0.0
 11
70.69180486294528
 21
-114.4260389185164
 31
0.0
 11
70.79677267198775
 21
-114.4212775209482
 31
0.0
 11
70.8926316697079
 21
-114.4161137362271
 31
0.0
 11
70.98073837818504
 21
-114.4109499515062
 31
0.0
 11
71.06288518461537
 21
-114.4053815747715
 31
0.0
 11
71.14076627432286
 21
-114.3989731459537
 31
0.0
 11
71.13301508528434
 21
-114.4514499428156
 31
0.0
 11
71.13042988569748
 21
-114.5056002292604
 31
0.0
 11
71.13301508528434
 21
-114.5571895695252
 31
0.0
 11
71.14076627432286
 21
-114.6087789097901
 31
0.0
 11
71.04397838616714
 21
-114.5993707674314
 31
0.0
 11
70.93259211296726
 21
-114.5916427292388
 31
0.0
 11
70.81392318370304
 21
-114.5860412795875
 31
0.0
 11
70.69531378568706
 21
-114.5830261320188
 31
0.0
 11
70.57999955251785
 21
-114.5813063403525
 31
0.0
 11
70.47172323583573
 21
-114.5795865486863
 31
0.0
 11
70.37748097253657
 21
-114.5782691441727
 31
0.0
 11
70.30481615613178
 21
-114.5778579375756
 31
0.0
 11
70.30440449847072
 21
-114.610102928887
 31
0.0
 11
70.30308664291596
 21
-114.6448680764478
 31
0.0
 11
70.30177695544936
 21
-114.6857869913681
 31
0.0
 11
70.30136685129298
 21
-114.7360787708694
 31
0.0
 11
70.30136685129298
 21
-114.7570318416107
 31
0.0
 11
70.30136685129298
 21
-114.8031285972415
 31
0.0
 11
70.30136685129298
 21
-114.8492253528724
 31
0.0
 11
70.30136685129298
 21
-114.8701784236137
 31
0.0
 11
70.301366851293
 21
-114.8916487613861
 31
0.0
 11
70.30136685129298
 21
-114.9428472591511
 31
0.0
 11
70.30136685129298
 21
-115.0039551435802
 31
0.0
 11
70.30136685129298
 21
-115.0551536413452
 31
0.0
 11
70.30136685129298
 21
-115.0766239791176
 31
0.0
 11
70.30177695544936
 21
-115.2554768002534
 31
0.0
 11
70.30308664291596
 21
-115.4000330068145
 31
0.0
 11
70.30528389973665
 21
-115.511791904356
 31
0.0
 11
70.30825573946424
 21
-115.5926143956553
 31
0.0
 11
70.42520629251048
 21
-115.5926143956553
 31
0.0
 11
70.54906976164034
 21
-115.5926143956553
 31
0.0
 11
70.67848959340796
 21
-115.591323449475
 31
0.0
 11
70.80538926899015
 21
-115.5874462012121
 31
0.0
 11
70.92746284756308
 21
-115.5814269303803
 31
0.0
 11
71.04275579071208
 21
-115.5736614095489
 31
0.0
 11
71.1471724981176
 21
-115.5629523991349
 31
0.0
 11
71.23705696631055
 21
-115.547917451222
 31
0.0
 11
71.23142244388484
 21
-115.5733097342018
 31
0.0
 11
71.22844036930803
 21
-115.6012221734309
 31
0.0
 11
71.2271310288857
 21
-115.6291720952989
 31
0.0
 11
71.22672057768523
 21
-115.6545357150842
 31
0.0
 11
71.22930577727215
 21
-115.7044504633357
 31
0.0
 11
71.23705696631055
 21
-115.7440266178396
 31
0.0
 11
71.08269475860013
 21
-115.7388396820771
 31
0.0
 11
70.92923282264223
 21
-115.7371386317303
 31
0.0
 11
70.77477599041404
 21
-115.7371386317303
 31
0.0
 11
70.61779969044255
 21
-115.7371386317303
 31
0.0
 11
70.46046753291935
 21
-115.7371386317303
 31
0.0
 11
70.30481615613178
 21
-115.7371386317303
 31
0.0
 11
70.14915912818988
 21
-115.7388396820771
 31
0.0
 11
69.9918219980791
 21
-115.7440266178396
 31
0.0
 11
70.00168886313978
 21
-115.5242813401168
 31
0.0
 11
70.01077587842758
 21
-115.3053827290604
 31
0.0
 11
70.0171691926058
 21
-115.0847863749489
 31
0.0
 11
70.01930338626664
 21
-114.8599302291718
 31
0.0
 11
70.01930338626664
 21
-114.8345057690002
 31
0.0
 11
70.01930338626666
 21
-114.7674776467296
 31
0.0
 11
70.01930338626666
 21
-114.6727137497264
 31
0.0
 11
70.01930338626664
 21
-114.5640819653568
 31
0.0
 11
70.01930338626664
 21
-114.4554501809873
 31
0.0
 11
70.01930338626664
 21
-114.3606862839841
 31
0.0
 11
70.01930338626664
 21
-114.2936581617135
 31
0.0
 11
70.01930338626664
 21
-114.2682337015419
 31
0.0
 11
70.0171691926058
 21
-114.0429343786816
 31
0.0
 11
70.01077587842758
 21
-113.821061409987
 31
0.0
  0
SPLINE
  5
B9
102
{ACAD_REACTORS
330
D6
102
}
330
48
100
AcDbEntity
  8
_U_30EC_U_30A4_U_30E4_U_30FC_1
  6
Continuous
 62
     2
100
AcDbSpline
210
0.0
220
0.0
230
1.0
 70
    11
 71
     3
 72
    95
 73
    91
 74
    89
 42
0.000000001
 43
0.0000000001
 44
0.00000001
 40
0.0
 40
0.0
 40
0.0
 40
0.0
 40
0.6550406656911437
 40
1.308087289031935
 40
1.420803739835813
 40
1.566130759770809
 40
1.757067341888515
 40
2.006513545026547
 40
2.087328263121617
 40
2.185328872295644
 40
2.294612454748397
 40
2.408936380534809
 40
2.526802767798565
 40
2.646360524615593
 40
2.762535723971608
 40
2.87005734287016
 40
2.96688344843168
 40
3.050803243518312
 40
3.115818222436622
 40
3.156030057150215
 40
3.21391422508018
 40
3.276689026450553
 40
3.342960320981343
 40
3.404230667150602
 40
3.453822809493345
 40
3.532499827188384
 40
3.634775188507177
 40
3.754909333008151
 40
3.889736761660679
 40
4.035769602175178
 40
4.187256681197617
 40
4.338733685675924
 40
4.488478734676129
 40
4.634708317831573
 40
4.771493189921251
 40
4.892686571561216
 40
5.199775528944443
 40
5.460353566929609
 40
5.667603142345501
 40
5.814722905404484
 40
5.828990806219824
 40
5.855488336304479
 40
5.869756237118811
 40
6.189796507762801
 40
6.531890469873003
 40
6.883053637016991
 40
7.230512024911422
 40
7.566966656764582
 40
7.885203559707416
 40
8.172887439719197
 40
8.418011594062742
 40
8.443926721190687
 40
8.510760470613173
 40
8.602145393795661
 40
8.701714041647103
 40
8.793098965075353
 40
8.859932715057932
 40
8.885847842603562
 40
9.242301256612741
 40
9.589275455016672
 40
9.921808543164131
 40
10.23479624298464
 40
10.29968150889173
 40
10.35323493887758
 40
10.40154625355143
 40
10.46482922477822
 40
10.55973900668405
 40
10.69239545985619
 40
10.8492035347567
 40
11.01626328594776
 40
11.18672024367442
 40
11.35372582577208
 40
11.50257442292426
 40
11.6186649502329
 40
11.71329869152873
 40
11.82511050573902
 40
11.94464880845713
 40
12.06929242642504
 40
12.19707290435176
 40
12.32562632860525
 40
12.45034565331279
 40
12.56646595170324
 40
12.67099007414632
 40
12.76077625936781
 40
12.82703233506694
 40
12.87429132785992
 40
12.89831990323333
 40
12.9223484786002
 40
13.53984767410326
 40
14.18294284359368
 40
14.18294284359368
 40
14.18294284359368
 40
14.18294284359368
 10
67.41179060556783
 20
-114.8513136319517
 30
0.0
 10
67.2801990166208
 20
-114.7376434279366
 30
0.0
 10
67.01741642103858
 20
-114.5106490508073
 30
0.0
 10
66.50473638486794
 20
-113.6681493844061
 30
0.0
 10
66.51566250030197
 20
-114.0260602381987
 30
0.0
 10
66.50911969356483
 20
-114.1676200912476
 30
0.0
 10
66.507799703943
 20
-114.3660809609762
 30
0.0
 10
66.50680880101955
 20
-114.5387910535092
 30
0.0
 10
66.50740721596321
 20
-114.6816402813931
 30
0.0
 10
66.50889647095404
 20
-114.7776439598353
 30
0.0
 10
66.510565399613
 20
-114.8848389813375
 30
0.0
 10
66.51219053622748
 20
-114.9986518987931
 30
0.0
 10
66.51423999093436
 20
-115.115878287923
 30
0.0
 10
66.51731359095841
 20
-115.2337299016392
 30
0.0
 10
66.52063101047014
 20
-115.3480131407627
 30
0.0
 10
66.52435757479364
 20
-115.4550799952962
 30
0.0
 10
66.5267308569082
 20
-115.5502199262997
 30
0.0
 10
66.53286892960142
 20
-115.6347084419119
 30
0.0
 10
66.52897549036042
 20
-115.6910631409875
 30
0.0
 10
66.55052008507356
 20
-115.7620437892453
 30
0.0
 10
66.47309104662754
 20
-115.7312672379242
 30
0.0
 10
66.41663236478482
 20
-115.7401815887928
 30
0.0
 10
66.35904663044647
 20
-115.7313318299862
 30
0.0
 10
66.27401338861297
 20
-115.7629117617094
 30
0.0
 10
66.30596845540403
 20
-115.679342454047
 30
0.0
 10
66.30406756901962
 20
-115.6114679242858
 30
0.0
 10
66.31579304549575
 20
-115.5079614463248
 30
0.0
 10
66.32142114606573
 20
-115.390272757802
 30
0.0
 10
66.32878725865986
 20
-115.2564079223247
 30
0.0
 10
66.33707301092686
 20
-115.1126524852426
 30
0.0
 10
66.34488223050845
 20
-114.9631537855345
 30
0.0
 10
66.35075416303152
 20
-114.8123685199482
 30
0.0
 10
66.35536382256262
 20
-114.6632945751846
 30
0.0
 10
66.35926025251996
 20
-114.5190648823387
 30
0.0
 10
66.3620685534221
 20
-114.3844549618387
 30
0.0
 10
66.36266691626807
 20
-114.1955978704954
 30
0.0
 10
66.36659942748074
 20
-113.9705390708374
 30
0.0
 10
66.34921457861563
 20
-113.6966231027118
 30
0.0
 10
66.39003877502404
 20
-113.532422892983
 30
0.0
 10
66.30451236636591
 20
-113.3327973993178
 30
0.0
 10
66.37105293153458
 20
-113.3364394299292
 30
0.0
 10
66.38886946808881
 20
-113.3361595423604
 30
0.0
 10
66.51067722051604
 20
-113.3339647399826
 30
0.0
 10
66.61307407431197
 20
-113.6135428267539
 30
0.0
 10
66.8629991917013
 20
-113.8146639286089
 30
0.0
 10
67.09200057387679
 20
-114.0823678640897
 30
0.0
 10
67.3295121620766
 20
-114.3338298753452
 30
0.0
 10
67.55360611484294
 20
-114.5705942733553
 30
0.0
 10
67.78006866906664
 20
-114.8281070881382
 30
0.0
 10
67.93756582941708
 20
-114.9438006633997
 30
0.0
 10
68.15221000203337
 20
-115.280322488581
 30
0.0
 10
68.14726163822753
 20
-115.1556464730528
 30
0.0
 10
68.14839020102048
 20
-115.0970170946115
 30
0.0
 10
68.14788482491738
 20
-115.0098573902491
 30
0.0
 10
68.14804455657709
 20
-114.9161325821402
 30
0.0
 10
68.14800252989757
 20
-114.8301043009985
 30
0.0
 10
68.1480172448031
 20
-114.768755094514
 30
0.0
 10
68.14796766636395
 20
-114.6189416987587
 30
0.0
 10
68.15087819304694
 20
-114.3803978888679
 30
0.0
 10
68.13094914488182
 20
-114.0154289152819
 30
0.0
 10
68.18004043439055
 20
-113.7522976940348
 30
0.0
 10
68.02279219168376
 20
-113.3410049644914
 30
0.0
 10
68.18120832800788
 20
-113.3963111884514
 30
0.0
 10
68.23616508862857
 20
-113.3982971489671
 30
0.0
 10
68.28778581743973
 20
-113.3976462314863
 30
0.0
 10
68.37631693730239
 20
-113.3565987365865
 30
0.0
 10
68.32548687108256
 20
-113.503330747739
 30
0.0
 10
68.33633603379408
 20
-113.6100942944246
 30
0.0
 10
68.32160074025043
 20
-113.7694369598278
 30
0.0
 10
68.31499468538621
 20
-113.9317633974402
 30
0.0
 10
68.3064931807572
 20
-114.1003687950449
 30
0.0
 10
68.29931976098567
 20
-114.2621458669335
 30
0.0
 10
68.29390336230463
 20
-114.4060706993896
 30
0.0
 10
68.29216843753058
 20
-114.5259190792997
 30
0.0
 10
68.29254110799761
 20
-114.6334329980637
 30
0.0
 10
68.292362653392
 20
-114.742093767513
 30
0.0
 10
68.29269812707976
 20
-114.8607583123136
 30
0.0
 10
68.29400110298414
 20
-114.9847423788415
 30
0.0
 10
68.29588577592315
 20
-115.1117110722578
 30
0.0
 10
68.29749748625076
 20
-115.2387553984586
 30
0.0
 10
68.29913735450876
 20
-115.3617451690471
 30
0.0
 10
68.30125411534088
 20
-115.4772847001313
 30
0.0
 10
68.30138188300216
 20
-115.5793849744105
 30
0.0
 10
68.30564848042117
 20
-115.6701955255873
 30
0.0
 10
68.29584104929471
 20
-115.728157801881
 30
0.0
 10
68.31684451793474
 20
-115.7951227126487
 30
0.0
 10
68.27756101475545
 20
-115.787382474302
 30
0.0
 10
68.06452775254049
 20
-115.8027414725171
 30
0.0
 10
67.86862683508434
 20
-115.2462634330242
 30
0.0
 10
67.56611680392014
 20
-114.9847336604838
 30
0.0
 10
67.41179060556783
 20
-114.8513136319517
 30
0.0
 11
67.41179060556783
 21
-114.8513136319517
 31
0.0
 11
66.96454997461686
 21
-114.3727176598491
 31
0.0
 11
66.51740194783008
 21
-113.8967675210792
 31
0.0
 11
66.51396346701512
 21
-114.0094315141066
 31
0.0
 11
66.51055805911574
 21
-114.1547186321258
 31
0.0
 11
66.50796073279318
 21
-114.3456375556893
 31
0.0
 11
66.50710965642605
 21
-114.5950823125714
 31
0.0
 11
66.50752096379469
 21
-114.6758959844262
 31
0.0
 11
66.50883907374748
 21
-114.7738877291933
 31
0.0
 11
66.51051626753755
 21
-114.8831584409715
 31
0.0
 11
66.51223375351753
 21
-114.9974694652485
 31
0.0
 11
66.51439782464297
 21
-115.1153159843162
 31
0.0
 11
66.51740194783008
 21
-115.2348359929669
 31
0.0
 11
66.5208330140796
 21
-115.3509605155074
 31
0.0
 11
66.52428993376554
 21
-115.4584265484666
 31
0.0
 11
66.52770556607453
 21
-115.5551923904563
 31
0.0
 11
66.53118673914503
 21
-115.6390399511992
 31
0.0
 11
66.53459765919703
 21
-115.7039653938913
 31
0.0
 11
66.5380747250806
 21
-115.7440266178396
 31
0.0
 11
66.4804234229229
 21
-115.7388396820771
 31
0.0
 11
66.41767167259667
 21
-115.7371386317303
 31
0.0
 11
66.35142221248142
 21
-115.7388396820771
 31
0.0
 11
66.29037181473325
 21
-115.7440266178396
 31
0.0
 11
66.29767431454701
 21
-115.694975072713
 31
0.0
 11
66.30587639767117
 21
-115.6167267567604
 31
0.0
 11
66.31400692300059
 21
-115.5147750814386
 31
0.0
 11
66.32133768490547
 21
-115.3948648123714
 31
0.0
 11
66.32863286880792
 21
-115.26023489053
 31
0.0
 11
66.33684146632538
 21
-115.1144329374415
 31
0.0
 11
66.34454745571236
 21
-114.9631419826182
 31
0.0
 11
66.35057334097507
 21
-114.8117848819616
 31
0.0
 11
66.35530166550734
 21
-114.6621145000545
 31
0.0
 11
66.35918993797776
 21
-114.5159366181467
 31
0.0
 11
66.36174978166224
 21
-114.379175698042
 31
0.0
 11
66.3626295212232
 21
-114.2579855071
 31
0.0
 11
66.36218965144275
 21
-113.9508968613435
 31
0.0
 11
66.36090972960051
 21
-113.6903219655753
 31
0.0
 11
66.35786291255502
 21
-113.4830947868077
 31
0.0
 11
66.35230195204207
 21
-113.3360801601083
 31
0.0
 11
66.36656985291269
 21
-113.3360801601083
 31
0.0
 11
66.39306738310097
 21
-113.3360801601083
 31
0.0
 11
66.40733528397158
 21
-113.3360801601083
 31
0.0
 11
66.62447140579346
 21
-113.5711922173412
 31
0.0
 11
66.85627145307365
 21
-113.8227812016533
 31
0.0
 11
67.09447864264968
 21
-114.0807984585332
 31
0.0
 11
67.33100449651783
 21
-114.335323215414
 31
0.0
 11
67.5605669125363
 21
-114.5812964184776
 31
0.0
 11
67.77817677677604
 21
-114.8135046736279
 31
0.0
 11
67.97636953213646
 21
-115.0220272082979
 31
0.0
 11
68.14801135067438
 21
-115.197027034643
 31
0.0
 11
68.14801135067437
 21
-115.1711119070984
 31
0.0
 11
68.14801135067438
 21
-115.1042781571152
 31
0.0
 11
68.14801135067438
 21
-115.0128932336686
 31
0.0
 11
68.14801135067438
 21
-114.9133245857344
 31
0.0
 11
68.14801135067438
 21
-114.8219396622878
 31
0.0
 11
68.14801135067438
 21
-114.7551059123045
 31
0.0
 11
68.14801135067438
 21
-114.72919078476
 31
0.0
 11
68.14672040452666
 21
-114.3727397084602
 31
0.0
 11
68.14284315636155
 21
-114.0257871738248
 31
0.0
 11
68.13461681976594
 21
-113.6933558544634
 31
0.0
 11
68.12045058748856
 21
-113.3806889100971
 31
0.0
 11
68.18403216572759
 21
-113.3936303423855
 31
0.0
 11
68.23741405672683
 21
-113.3979132850928
 31
0.0
 11
68.28553514924903
 21
-113.3936303423855
 31
0.0
 11
68.34748072058551
 21
-113.3806889100971
 31
0.0
 11
68.34011868952321
 21
-113.4753127295179
 31
0.0
 11
68.33197613764753
 21
-113.6077190489293
 31
0.0
 11
68.32336757716618
 21
-113.7642906461124
 31
0.0
 11
68.31475176308726
 21
-113.9311280766262
 31
0.0
 11
68.30661582579461
 21
-114.1013907588753
 31
0.0
 11
68.29924718014928
 21
-114.2682337015419
 31
0.0
 11
68.29413773391792
 21
-114.4169945782408
 31
0.0
 11
68.29244738865617
 21
-114.5330727986979
 31
0.0
 11
68.29244738865617
 21
-114.6277065399937
 31
0.0
 11
68.29244738865617
 21
-114.7395183542018
 31
0.0
 11
68.29284316121543
 21
-114.8590560017414
 31
0.0
 11
68.29407898583656
 21
-114.9836934930297
 31
0.0
 11
68.29583626009745
 21
-115.111461887095
 31
0.0
 11
68.29752738852653
 21
-115.2400041874101
 31
0.0
 11
68.29928466278722
 21
-115.3647111318234
 31
0.0
 11
68.30097579121627
 21
-115.4808191179054
 31
0.0
 11
68.30228547868298
 21
-115.5853350466987
 31
0.0
 11
68.3026955828393
 21
-115.6751202984124
 31
0.0
 11
68.3026955828393
 21
-115.7413763747848
 31
0.0
 11
68.3026955828393
 21
-115.7886353678285
 31
0.0
 11
68.2786670070634
 21
-115.7886353678285
 31
0.0
 11
68.2546384312875
 21
-115.7886353678285
 31
0.0
 11
67.84606996080804
 21
-115.325626661347
 31
0.0
 11
67.41179060556783
 21
-114.8513136319517
 31
0.0
  0
SPLINE
  5
BA
102
{ACAD_REACTORS
330
D7
102
}
330
48
100
AcDbEntity
  8
_U_30EC_U_30A4_U_30E4_U_30FC_1
  6
Continuous
 62
     2
100
AcDbSpline
210
0.0
220
0.0
230
1.0
 70
    11
 71
     3
 72
    25
 73
    21
 74
    19
 42
0.000000001
 43
0.0000000001
 44
0.00000001
 40
0.0
 40
0.0
 40
0.0
 40
0.0
 40
0.091147996906461
 40
0.1858117896204158
 40
0.2804128399734405
 40
0.3715889190713857
 40
0.4679080494218197
 40
0.5642683809229427
 40
0.6605683222644548
 40
0.7569653015810094
 40
0.8561348172522496
 40
1.092615965104277
 40
1.37486765814185
 40
1.611348812011561
 40
1.710518328425209
 40
1.809403163726535
 40
2.045205463294044
 40
2.32664691762208
 40
2.562449217190534
 40
2.661334043833844
 40
2.661334043833844
 40
2.661334043833844
 40
2.661334043833844
 10
63.3733670974857
 20
-114.674148631996
 30
0.0
 10
63.40374963255804
 20
-114.6743132168234
 30
0.0
 10
63.46568662967691
 20
-114.6746487270697
 30
0.0
 10
63.55913273679877
 20
-114.6776034594489
 30
0.0
 10
63.65250656440146
 20
-114.6805164851974
 30
0.0
 10
63.74677311611336
 20
-114.6813519975347
 30
0.0
 10
63.84049351986243
 20
-114.6803275673884
 30
0.0
 10
63.94020107108622
 20
-114.6811242392592
 30
0.0
 10
64.02389199539702
 20
-114.6710799116167
 30
0.0
 10
64.16879667227028
 20
-114.6979478372273
 30
0.0
 10
64.04461028524581
 20
-114.5236387111685
 30
0.0
 10
64.00158376939395
 20
-114.363776903908
 30
0.0
 10
63.8858892549867
 20
-114.1051094284668
 30
0.0
 10
63.80675358389147
 20
-113.9679834853503
 30
0.0
 10
63.74815470294739
 20
-113.7509236826282
 30
0.0
 10
63.69147743470953
 20
-113.9676326718346
 30
0.0
 10
63.61027803081348
 20
-114.1070238895866
 30
0.0
 10
63.51136716891462
 20
-114.356224320267
 30
0.0
 10
63.43035955019167
 20
-114.5410357117082
 30
0.0
 10
63.38636537334957
 20
-114.6437895454077
 30
0.0
 10
63.3733670974857
 20
-114.674148631996
 30
0.0
 11
63.3733670974857
 21
-114.674148631996
 31
0.0
 11
63.46451081454777
 21
-114.6750327813013
 31
0.0
 11
63.55913987052384
 21
-114.6775970347729
 31
0.0
 11
63.65370525873634
 21
-114.6801943611611
 31
0.0
 11
63.74487736578533
 21
-114.6810454375498
 31
0.0
 11
63.84119561853633
 21
-114.6806342309527
 31
0.0
 11
63.93754694420341
 21
-114.6793168264392
 31
0.0
 11
64.03382330459435
 21
-114.6771858281758
 31
0.0
 11
64.13017242540008
 21
-114.674148631996
 31
0.0
 11
64.09046037307989
 21
-114.5832775920187
 31
0.0
 11
63.99576240216255
 21
-114.3665851120729
 31
0.0
 11
63.88273579171283
 21
-114.1079521521376
 31
0.0
 11
63.78803782079547
 21
-113.8912596721918
 31
0.0
 11
63.7483257684753
 21
-113.8003886322145
 31
0.0
 11
63.70933006669238
 21
-113.8912596721918
 31
0.0
 11
63.61634031628697
 21
-114.1079521521376
 31
0.0
 11
63.50535254967404
 21
-114.3665851120729
 31
0.0
 11
63.41236279926862
 21
-114.5832775920187
 31
0.0
 11
63.3733670974857
 21
-114.674148631996
 31
0.0
  0
SPLINE
  5
BB
102
{ACAD_REACTORS
330
D7
102
}
330
48
100
AcDbEntity
  8
_U_30EC_U_30A4_U_30E4_U_30FC_1
  6
Continuous
 62
     2
100
AcDbSpline
210
0.0
220
0.0
230
1.0
 70
    11
 71
     3
 72
    57
 73
    53
 74
    51
 42
0.000000001
 43
0.0000000001
 44
0.00000001
 40
0.0
 40
0.0
 40
0.0
 40
0.0
 40
0.0471632082808868
 40
0.0914861054632221
 40
0.1357762519702315
 40
0.1826527001610894
 40
0.229520328857266
 40
0.2737751972220546
 40
0.3181310461543281
 40
0.365260719839838
 40
0.4571007286313643
 40
0.5671851029164803
 40
0.6894623283867971
 40
0.8181758272545478
 40
0.9510087229273363
 40
1.085852229673955
 40
1.218126164475234
 40
1.34354513114236
 40
1.45453720295679
 40
1.567187607530813
 40
1.680710966642424
 40
1.794226869736767
 40
1.900009184247588
 40
2.004085860447832
 40
2.108162674451734
 40
2.214000150155285
 40
2.496038577352162
 40
2.76235074547929
 40
2.997275353279421
 40
3.185110082137709
 40
3.246407890063923
 40
3.312607550212704
 40
3.37887774271157
 40
3.440140399651434
 40
4.100501696006421
 40
4.754913085563438
 40
5.411331693423848
 40
6.077890432568662
 40
6.110575292670948
 40
6.143260152775721
 40
6.367989363395088
 40
6.610525374951462
 40
6.863389136467255
 40
7.119380025547575
 40
7.376036605091046
 40
7.631164770966219
 40
7.876722425456364
 40
8.104953735855888
 40
8.31291668592426
 40
8.497730294941292
 40
8.651018984313835
 40
8.764738853624491
 40
8.764738853624491
 40
8.764738853624491
 40
8.764738853624491
 10
64.89726199081707
 20
-115.7440266178396
 30
0.0
 10
64.88165871345883
 20
-115.7420317031781
 30
0.0
 10
64.85139183679597
 20
-115.7381620003659
 30
0.0
 10
64.80609646099101
 20
-115.7368741642963
 30
0.0
 10
64.76095235370059
 20
-115.7372071784284
 30
0.0
 10
64.7148987531057
 20
-115.7371474272267
 30
0.0
 10
64.66904665797537
 20
-115.7370358774689
 30
0.0
 10
64.6233682055822
 20
-115.737515679403
 30
0.0
 10
64.58007819492659
 20
-115.7356829177817
 30
0.0
 10
64.50899183591713
 20
-115.7597984458222
 30
0.0
 10
64.51074476690984
 20
-115.6384470741964
 30
0.0
 10
64.46361667782271
 20
-115.5530316164566
 30
0.0
 10
64.42414486594195
 20
-115.4354247205175
 30
0.0
 10
64.37566059403028
 20
-115.3179664885645
 30
0.0
 10
64.32509878101796
 20
-115.1962346563539
 30
0.0
 10
64.27686050181346
 20
-115.0695343353443
 30
0.0
 10
64.21852033552517
 20
-114.9609571361194
 30
0.0
 10
64.20308630749192
 20
-114.8040874426248
 30
0.0
 10
64.06165567382928
 20
-114.8365595484857
 30
0.0
 10
63.95583678225611
 20
-114.8251651271471
 30
0.0
 10
63.84085401328792
 20
-114.8263680988227
 30
0.0
 10
63.73031126597982
 20
-114.8252245604948
 30
0.0
 10
63.62265539304404
 20
-114.8261105135936
 30
0.0
 10
63.51712929369002
 20
-114.8261279900637
 30
0.0
 10
63.41591630896702
 20
-114.8331536892447
 30
0.0
 10
63.23167752354105
 20
-114.8089354153702
 30
0.0
 10
63.22073640930684
 20
-115.11287710275
 30
0.0
 10
63.11376620424083
 20
-115.336762241435
 30
0.0
 10
63.01481190120036
 20
-115.5213408710439
 30
0.0
 10
63.02750609316652
 20
-115.7649919659267
 30
0.0
 10
62.91000621240542
 20
-115.735213546437
 30
0.0
 10
62.84720262759676
 20
-115.7377131188729
 30
0.0
 10
62.78358425010573
 20
-115.7368532629409
 30
0.0
 10
62.49959846017318
 20
-115.7793136145491
 30
0.0
 10
63.13016089070389
 20
-115.0594744895212
 30
0.0
 10
63.2137615696729
 20
-114.5475286196116
 30
0.0
 10
63.59792231969953
 20
-114.0267565784685
 30
0.0
 10
63.58271786962229
 20
-113.3250977514367
 30
0.0
 10
63.82892361303544
 20
-113.3368376831564
 30
0.0
 10
63.93063165652192
 20
-113.3280439694411
 30
0.0
 10
63.92997224434747
 20
-113.5796975066655
 30
0.0
 10
64.0478287563486
 20
-113.7621138066293
 30
0.0
 10
64.13654856681428
 20
-114.0046566073403
 30
0.0
 10
64.2372262892916
 20
-114.2368937086677
 30
0.0
 10
64.3361113119901
 20
-114.4735475682998
 30
0.0
 10
64.43496473983257
 20
-114.705676622268
 30
0.0
 10
64.53061367985839
 20
-114.929071786081
 30
0.0
 10
64.62098749809289
 20
-115.1375685234757
 30
0.0
 10
64.7039914975847
 20
-115.3272095286757
 30
0.0
 10
64.77760589904562
 20
-115.493662953288
 30
0.0
 10
64.83927863032025
 20
-115.631117017708
 30
0.0
 10
64.87994292932613
 20
-115.7103016196686
 30
0.0
 10
64.89726199081707
 20
-115.7440266178396
 30
0.0
 11
64.89726199081707
 21
-115.7440266178396
 31
0.0
 11
64.85038487251053
 21
-115.7388396820771
 31
0.0
 11
64.80609463037825
 21
-115.7371386317303
 31
0.0
 11
64.76180448393868
 21
-115.7371386317303
 31
0.0
 11
64.71492803548165
 21
-115.7371386317303
 31
0.0
 11
64.66806040646908
 21
-115.7371386317303
 31
0.0
 11
64.62380553780656
 21
-115.7371386317303
 31
0.0
 11
64.57948231845111
 21
-115.7388396820771
 31
0.0
 11
64.53263894291007
 21
-115.7440266178396
 31
0.0
 11
64.50425025439827
 21
-115.6566843522365
 31
0.0
 11
64.46726922235553
 21
-115.5529974512207
 31
0.0
 11
64.42383566443587
 21
-115.4386941439576
 31
0.0
 11
64.37610262745937
 21
-115.3191587012792
 31
0.0
 11
64.32581305408941
 21
-115.1962134408933
 31
0.0
 11
64.27464374115897
 21
-115.0714557846745
 31
0.0
 11
64.22475022089836
 21
-114.9489525989412
 31
0.0
 11
64.17830895194987
 21
-114.8324488402897
 31
0.0
 11
64.06735823152465
 21
-114.8294193611239
 31
0.0
 11
63.95472796327465
 21
-114.827289465291
 31
0.0
 11
63.84121224771066
 21
-114.8259720607775
 31
0.0
 11
63.72769708844578
 21
-114.8255608541804
 31
0.0
 11
63.62191557204731
 21
-114.8259720607775
 31
0.0
 11
63.51784723268827
 21
-114.827289465291
 31
0.0
 11
63.41379221317026
 21
-114.8294193611238
 31
0.0
 11
63.30799810232537
 21
-114.8324488402897
 31
0.0
 11
63.20308851577962
 21
-115.0942496388354
 31
0.0
 11
63.10848390979891
 21
-115.3431916873843
 31
0.0
 11
63.03022016179556
 21
-115.5646964442733
 31
0.0
 11
62.97434016322126
 21
-115.7440266178396
 31
0.0
 11
62.91326220470993
 21
-115.7388396820771
 31
0.0
 11
62.84708440257873
 21
-115.7371386317303
 31
0.0
 11
62.78083604489398
 21
-115.7388396820771
 31
0.0
 11
62.71979336415956
 21
-115.7440266178396
 31
0.0
 11
62.99496553595878
 21
-115.1437289270175
 31
0.0
 11
63.26329161418278
 21
-114.5468575903612
 31
0.0
 11
63.52902477580619
 21
-113.9466315575251
 31
0.0
 11
63.79647111446906
 21
-113.3360801601083
 31
0.0
 11
63.82915597474636
 21
-113.3360801601083
 31
0.0
 11
63.86184083502366
 21
-113.3360801601083
 31
0.0
 11
63.94782710887144
 21
-113.5437086235981
 31
0.0
 11
64.04072562212667
 21
-113.7677478683337
 31
0.0
 11
64.1378684929121
 21
-114.0012073821642
 31
0.0
 11
64.23679068656884
 21
-114.2373127293275
 31
0.0
 11
64.33653116575843
 21
-114.4737962101711
 31
0.0
 11
64.43630415370103
 21
-114.7086062014318
 31
0.0
 11
64.53305786651063
 21
-114.9342990920004
 31
0.0
 11
64.62380553780656
 21
-115.1437134929897
 31
0.0
 11
64.70721212422036
 21
-115.3342179026643
 31
0.0
 11
64.78202636710347
 21
-115.5032116873443
 31
0.0
 11
64.84606995942607
 21
-115.6424806369623
 31
0.0
 11
64.89726199081707
 21
-115.7440266178396
 31
0.0
  0
SPLINE
  5
BC
102
{ACAD_REACTORS
330
D8
102
}
330
48
100
AcDbEntity
  8
_U_30EC_U_30A4_U_30E4_U_30FC_1
  6
Continuous
 62
     2
100
AcDbSpline
210
0.0
220
0.0
230
1.0
 70
    11
 71
     3
 72
    99
 73
    95
 74
    93
 42
0.000000001
 43
0.0000000001
 44
0.00000001
 40
0.0
 40
0.0
 40
0.0
 40
0.0
 40
0.0796417172272846
 40
0.1621768542355696
 40
0.2486489160957281
 40
0.340496966852431
 40
0.4381912511164686
 40
0.5434463660244697
 40
0.6518115192847003
 40
0.7530190937886967
 40
0.8492196919725227
 40
0.9419290312998203
 40
1.034249663570033
 40
1.1290786006202
 40
1.226697027573224
 40
1.327220425421711
 40
1.470572134938013
 40
1.595489863371232
 40
1.719934125348377
 40
1.850576620127376
 40
1.989059629987296
 40
2.134139054226913
 40
2.280698007207185
 40
2.424529739039436
 40
2.565929576985827
 40
2.708239260773559
 40
2.86171788744362
 40
3.045168540347332
 40
3.183798301138588
 40
3.31481396145547
 40
3.442083470447295
 40
3.569912708372955
 40
3.702177512509342
 40
3.842307559659521
 40
3.99287222324593
 40
4.156750662218291
 40
4.31098186110747
 40
4.445859909322544
 40
4.572393936131534
 40
4.701656719781933
 40
4.768279086008476
 40
4.835960697898448
 40
4.912788918729309
 40
5.006285208481493
 40
5.02690947875159
 40
5.047533749021134
 40
5.101808031471187
 40
5.162325165538494
 40
5.226919745995768
 40
5.294231806596653
 40
5.364544852554793
 40
5.438319055467856
 40
5.51787765132416
 40
5.607647714861494
 40
5.700449642544336
 40
5.78825114236408
 40
5.87271470603968
 40
5.955167292575232
 40
6.037192395190283
 40
6.120669181468969
 40
6.206848616686302
 40
6.296680855416696
 40
6.442558392872543
 40
6.568190371608256
 40
6.692904567360317
 40
6.824220446557107
 40
6.963121850329306
 40
7.107843738851082
 40
7.253431663907226
 40
7.395187468036674
 40
7.533140753237687
 40
7.670550457175193
 40
7.816236511769196
 40
7.987691657359121
 40
8.142277421969188
 40
8.29366261541501
 40
8.44296246087922
 40
8.591598316185287
 40
8.743678992361758
 40
8.903725323699149
 40
9.07630700889048
 40
9.265578604680545
 40
9.459203795360711
 40
9.617619810273528
 40
9.753609671361883
 40
9.874873300003994
 40
9.954520184977738
 40
10.02416413719242
 40
10.09769764405441
 40
10.18909955924971
 40
10.2097458642013
 40
10.23039218263375
 40
10.30057101881265
 40
10.37632012987545
 40
10.37632012987545
 40
10.37632012987545
 40
10.37632012987545
 10
60.25159252435083
 20
-115.422337381809
 30
0.0
 10
60.26821882588766
 20
-115.4430879255158
 30
0.0
 10
60.30207546142348
 20
-115.4853428968499
 30
0.0
 10
60.36497929486934
 20
-115.5399959000482
 30
0.0
 10
60.43824713480502
 20
-115.5873037627584
 30
0.0
 10
60.52259396462937
 20
-115.6250216995896
 30
0.0
 10
60.61822110231172
 20
-115.6498878166495
 30
0.0
 10
60.72218241830032
 20
-115.6571984205095
 30
0.0
 10
60.82739906280625
 20
-115.6488707860285
 30
0.0
 10
60.92565967789911
 20
-115.6188022174536
 30
0.0
 10
61.01089568352059
 20
-115.5718057842501
 30
0.0
 10
61.08291906137605
 20
-115.5107641014604
 30
0.0
 10
61.14008881167535
 20
-115.4361643181831
 30
0.0
 10
61.18178391550974
 20
-115.3502693673672
 30
0.0
 10
61.20769232539496
 20
-115.2554355096468
 30
0.0
 10
61.21680077403103
 20
-115.1417442235852
 30
0.0
 10
61.20368352041439
 20
-115.0169681362611
 30
0.0
 10
61.13753007420723
 20
-114.9001468222499
 30
0.0
 10
61.04193413272262
 20
-114.8151686181951
 30
0.0
 10
60.92996514300262
 20
-114.7461271693774
 30
0.0
 10
60.80436299909267
 20
-114.68825259351
 30
0.0
 10
60.67066620285141
 20
-114.6365567811255
 30
0.0
 10
60.53630932264883
 20
-114.5813030899971
 30
0.0
 10
60.41019543945347
 20
-114.5108963075524
 30
0.0
 10
60.29765503951925
 20
-114.4224386066564
 30
0.0
 10
60.20199334721157
 20
-114.3104833352842
 30
0.0
 10
60.13841275594829
 20
-114.1607949129551
 30
0.0
 10
60.12506769126733
 20
-114.0009660701175
 30
0.0
 10
60.13704813951058
 20
-113.8498099609005
 30
0.0
 10
60.17622693364984
 20
-113.7222015680535
 30
0.0
 10
60.24049581585679
 20
-113.6094852736605
 30
0.0
 10
60.32881754073979
 20
-113.5138079212821
 30
0.0
 10
60.43880616152848
 20
-113.4367518641114
 30
0.0
 10
60.56822548089231
 20
-113.3787800446063
 30
0.0
 10
60.71618093754507
 20
-113.3429022380807
 30
0.0
 10
60.87320398631439
 20
-113.3328268234633
 30
0.0
 10
61.02249108740874
 20
-113.341657636343
 30
0.0
 10
61.16462240218272
 20
-113.3695450205655
 30
0.0
 10
61.26458930172826
 20
-113.4261608669576
 30
0.0
 10
61.41750451438427
 20
-113.4735479929138
 30
0.0
 10
61.3505102124826
 20
-113.5583184839571
 30
0.0
 10
61.33464495279271
 20
-113.6259049952341
 30
0.0
 10
61.3028720938954
 20
-113.691033086037
 30
0.0
 10
61.32001726172285
 20
-113.7930594813994
 30
0.0
 10
61.27163976158895
 20
-113.7853618971498
 30
0.0
 10
61.23657598484233
 20
-113.7922262967208
 30
0.0
 10
61.23466683933756
 20
-113.7276557023869
 30
0.0
 10
61.20356633396463
 20
-113.682037617755
 30
0.0
 10
61.1714522036113
 20
-113.6246836476843
 30
0.0
 10
61.12580088828258
 20
-113.5748893870433
 30
0.0
 10
61.0708478626044
 20
-113.530345876779
 30
0.0
 10
61.0060811580665
 20
-113.4926541256034
 30
0.0
 10
60.92823477182543
 20
-113.4674602560554
 30
0.0
 10
60.84051309610098
 20
-113.4609817039878
 30
0.0
 10
60.75028736854639
 20
-113.4679369211129
 30
0.0
 10
60.66445651017224
 20
-113.4912021093598
 30
0.0
 10
60.58783140462538
 20
-113.5289775728935
 30
0.0
 10
60.52152360438581
 20
-113.5797776030732
 30
0.0
 10
60.46725309446218
 20
-113.6429825798968
 30
0.0
 10
60.42748957531161
 20
-113.7175294568652
 30
0.0
 10
60.40267459182454
 20
-113.8011208739913
 30
0.0
 10
60.39420946705266
 20
-113.908364530146
 30
0.0
 10
60.40696683947611
 20
-114.0306394412934
 30
0.0
 10
60.47315188169306
 20
-114.1487967710568
 30
0.0
 10
60.56909478074893
 20
-114.2342307568737
 30
0.0
 10
60.68078853708399
 20
-114.3044603909017
 30
0.0
 10
60.80608340763595
 20
-114.3637023909159
 30
0.0
 10
60.93997943491047
 20
-114.4141269331076
 30
0.0
 10
61.0739900740807
 20
-114.4670688441252
 30
0.0
 10
61.20008557245731
 20
-114.5327923077171
 30
0.0
 10
61.31261870460744
 20
-114.6154904885958
 30
0.0
 10
61.40813406918903
 20
-114.7203339508682
 30
0.0
 10
61.47226768946199
 20
-114.8609228414532
 30
0.0
 10
61.48610741329362
 20
-115.019639919453
 30
0.0
 10
61.47239251198867
 20
-115.1787624617902
 30
0.0
 10
61.42947095616428
 20
-115.3254557257769
 30
0.0
 10
61.35958767367229
 20
-115.4590960480975
 30
0.0
 10
61.26245626214872
 20
-115.5749701369761
 30
0.0
 10
61.13977764313148
 20
-115.6693941962681
 30
0.0
 10
60.99243788208252
 20
-115.7385013074491
 30
0.0
 10
60.82271029047823
 20
-115.7807619053805
 30
0.0
 10
60.63673753872544
 20
-115.7924766516648
 30
0.0
 10
60.45789263338405
 20
-115.7821991471346
 30
0.0
 10
60.29317041614008
 20
-115.7406282762774
 30
0.0
 10
60.1884381248714
 20
-115.6723175851295
 30
0.0
 10
60.04009311980236
 20
-115.6235418236479
 30
0.0
 10
60.10303486023862
 20
-115.5305281010605
 30
0.0
 10
60.11222448377178
 20
-115.4573286514861
 30
0.0
 10
60.13536817088885
 20
-115.3909310689554
 30
0.0
 10
60.10845587429746
 20
-115.2905459186932
 30
0.0
 10
60.15713093639965
 20
-115.2979536787951
 30
0.0
 10
60.19665009883542
 20
-115.29135337776
 30
0.0
 10
60.20461753523587
 20
-115.3695069817796
 30
0.0
 10
60.23554073755801
 20
-115.4042847402104
 30
0.0
 10
60.25159252435083
 20
-115.422337381809
 30
0.0
 11
60.25159252435083
 21
-115.422337381809
 31
0.0
 11
60.30320084835213
 21
-115.4829953158216
 31
0.0
 11
60.36510759089924
 21
-115.5375810623357
 31
0.0
 11
60.43777344174593
 21
-115.5844542046851
 31
0.0
 11
60.52164390635005
 21
-115.6218949512035
 31
0.0
 11
60.61621811400674
 21
-115.6463876508502
 31
0.0
 11
60.72115737348224
 21
-115.6545357150842
 31
0.0
 11
60.82907099052091
 21
-115.6446535275867
 31
0.0
 11
60.92583903492738
 21
-115.6150069650941
 31
0.0
 11
61.01007464909762
 21
-115.5685428244807
 31
0.0
 11
61.08061146153437
 21
-115.5083798817874
 31
0.0
 11
61.13694125176372
 21
-115.4352358193057
 31
0.0
 11
61.1786660423661
 21
-115.3500796734937
 31
0.0
 11
61.20446512156896
 21
-115.2559321040728
 31
0.0
 11
61.21307951371034
 21
-115.1557784929867
 31
0.0
 11
61.19284881110142
 21
-115.0138615051749
 31
0.0
 11
61.13224930743888
 21
-114.904627173605
 31
0.0
 11
61.0414941693943
 21
-114.819480949668
 31
0.0
 11
60.93100722923975
 21
-114.7497665486438
 31
0.0
 11
60.80584939389116
 21
-114.6904954722697
 31
0.0
 11
60.67129223586557
 21
-114.6362514792277
 31
0.0
 11
60.53668546846646
 21
-114.5782812709089
 31
0.0
 11
60.4115772424916
 21
-114.5073200209266
 31
0.0
 11
60.30102465059376
 21
-114.419160854282
 31
0.0
 11
60.21033516429225
 21
-114.3094910626427
 31
0.0
 11
60.14970258771414
 21
-114.1684968092058
 31
0.0
 11
60.12950495802107
 21
-113.9861614099458
 31
0.0
 11
60.14240008790047
 21
-113.8481326947025
 31
0.0
 11
60.18109870670486
 21
-113.722962729456
 31
0.0
 11
60.2443112139164
 21
-113.6125013926781
 31
0.0
 11
60.33074703622026
 21
-113.5183251600627
 31
0.0
 11
60.43864632166199
 21
-113.4418286062624
 31
0.0
 11
60.5663496690986
 21
-113.3841373128741
 31
0.0
 11
60.71253636675804
 21
-113.3480933458692
 31
0.0
 11
60.87597389731076
 21
-113.3360801601083
 31
0.0
 11
61.02988888389466
 21
-113.3459513233003
 31
0.0
 11
61.16148576502644
 21
-113.375520715654
 31
0.0
 11
61.27756067525971
 21
-113.4258940750164
 31
0.0
 11
61.38507631487801
 21
-113.4976523822901
 31
0.0
 11
61.3566964458102
 21
-113.5579277729001
 31
0.0
 11
61.33348256619411
 21
-113.6215038405925
 31
0.0
 11
61.31283514484581
 21
-113.6955055940462
 31
0.0
 11
61.29218110891446
 21
-113.7866920349956
 31
0.0
 11
61.27155683860727
 21
-113.7866920349956
 31
0.0
 11
61.25093256830007
 21
-113.7866920349956
 31
0.0
 11
61.23066769034484
 21
-113.7363429291054
 31
0.0
 11
61.20446291670783
 21
-113.6817935627996
 31
0.0
 11
61.17004393321084
 21
-113.6271328510078
 31
0.0
 11
61.12535250205946
 21
-113.5767980767148
 31
0.0
 11
61.07073037671682
 21
-113.5325222607536
 31
0.0
 11
61.00666924119838
 21
-113.4959325906239
 31
0.0
 11
60.93096533687982
 21
-113.4714685541717
 31
0.0
 11
60.84156924541065
 21
-113.4632830072987
 31
0.0
 11
60.74909075818651
 21
-113.4710242746579
 31
0.0
 11
60.66440424993027
 21
-113.4942039795133
 31
0.0
 11
60.58869948964976
 21
-113.5316590576289
 31
0.0
 11
60.52337251741733
 21
-113.5819662711579
 31
0.0
 11
60.4700458295322
 21
-113.6442910801701
 31
0.0
 11
60.4304779641559
 21
-113.7177945350128
 31
0.0
 11
60.40594941623682
 21
-113.800409578395
 31
0.0
 11
60.39779245117654
 21
-113.8898707155254
 31
0.0
 11
60.41800661732749
 21
-114.0343409325032
 31
0.0
 11
60.47862265744777
 21
-114.1443822432396
 31
0.0
 11
60.56934497284153
 21
-114.2299573126626
 31
0.0
 11
60.67986473564707
 21
-114.3008744654227
 31
0.0
 11
60.80500603453767
 21
-114.3611509584631
 31
0.0
 11
60.93957972902103
 21
-114.4143895348387
 31
0.0
 11
61.07416995996252
 21
-114.4698991181582
 31
0.0
 11
61.19929472239551
 21
-114.5365212014748
 31
0.0
 11
61.30979794874278
 21
-114.6191053768014
 31
0.0
 11
61.40053680059458
 21
-114.7222939792062
 31
0.0
 11
61.46115284071462
 21
-114.8547708541731
 31
0.0
 11
61.48136700686553
 21
-115.0250302291305
 31
0.0
 11
61.46718101556554
 21
-115.1789637099948
 31
0.0
 11
61.42460574168507
 21
-115.324238701278
 31
0.0
 11
61.35497232919225
 21
-115.4563054720782
 31
0.0
 11
61.25949624863711
 21
-115.5702218262165
 31
0.0
 11
61.13910311802817
 21
-115.6631412879988
 31
0.0
 11
60.99461306095037
 21
-115.7319704372871
 31
0.0
 11
60.8273489940371
 21
-115.7744812619293
 31
0.0
 11
60.63860737558838
 21
-115.7886353678285
 31
0.0
 11
60.4455002134045
 21
-115.7744812619293
 31
0.0
 11
60.29289463085684
 21
-115.7319704372871
 31
0.0
 11
60.17118683498605
 21
-115.67130368383
 31
0.0
 11
60.07102322340211
 21
-115.6029507845416
 31
0.0
 11
60.09722909946966
 21
-115.5277385623381
 31
0.0
 11
60.11400919452757
 21
-115.4601463401328
 31
0.0
 11
60.12561668555092
 21
-115.3875347516093
 31
0.0
 11
60.13635766617966
 21
-115.2967661318403
 31
0.0
 11
60.1570039850973
 21
-115.2967661318403
 31
0.0
 11
60.17765030401495
 21
-115.2967661318403
 31
0.0
 11
60.20988867992864
 21
-115.3591019651581
 31
0.0
 11
60.25159252435083
 21
-115.422337381809
 31
0.0
  0
LWPOLYLINE
  5
BD
102
{ACAD_REACTORS
330
CA
102
}
330
48
100
AcDbEntity
  8
_U_30EC_U_30A4_U_30E4_U_30FC_1
  6
Continuous
 62
     2
100
AcDbPolyline
 90
        5
 70
     1
 43
0.0
 10
82.56281084403292
 20
-114.1630706460127
 10
82.56281084403292
 20
-114.3315396737484
 10
81.26529421046888
 20
-114.3315396737484
 10
81.26529421046888
 20
-114.1630706460127
 10
82.56281084403292
 20
-114.1630706460127
  0
MTEXT
  5
BF
330
48
100
AcDbEntity
  8
1
 62
     2
100
AcDbMText
 10
-77.39500295923426
 20
152.4397059860314
 30
0.0
 40
5.0
 41
0.0
 71
     5
 72
     1
  1
図番
  7
CONVERTER_11
 73
     1
 44
0.45454545454545
  0
MTEXT
  5
C0
330
48
100
AcDbEntity
  8
1
 62
     2
100
AcDbMText
 10
-80.89500295923426
 20
-95.5602940139689
 30
0.0
 40
3.5
 41
0.0
 71
     5
 72
     1
  1
備考
  7
CONVERTER_11
 73
     1
 44
0.45454545454545
  0
MTEXT
  5
C1
330
48
100
AcDbEntity
  8
1
 62
     2
100
AcDbMText
 10
-80.89500295923426
 20
-106.8102940139689
 30
0.0
 40
3.5
 41
0.0
 71
     5
 72
     1
  1
品名
  7
CONVERTER_11
 73
     1
 44
0.72727272727273
  0
MTEXT
  5
C2
330
48
100
AcDbEntity
  8
1
 62
     2
100
AcDbMText
 10
-80.89500295923426
 20
-115.3102940139689
 30
0.0
 40
3.5
 41
0.0
 71
     5
 72
     1
  1
品番
  7
CONVERTER_11
 73
     1
 44
0.72727272727273
  0
MTEXT
  5
C3
330
48
100
AcDbEntity
  8
1
 62
     2
100
AcDbMText
 10
-8.39500295923426
 20
-104.5602940139689
 30
0.0
 40
3.0
 41
0.0
 71
     5
 72
     1
  1
承認
  7
CONVERTER_11
 73
     1
 44
0.59090909090909
  0
MTEXT
  5
C4
330
48
100
AcDbEntity
  8
1
 62
     2
100
AcDbMText
 10
65.10499704076574
 20
-106.0602940139689
 30
0.0
 40
3.5
 41
0.0
 71
     5
 72
     1
  1
第三角法
  7
CONVERTER_11
 73
     1
 44
0.54545454545455
  0
MTEXT
  5
C5
330
48
100
AcDbEntity
  8
1
 62
     2
100
AcDbMText
 10
8.60499704076574
 20
-104.5602940139689
 30
0.0
 40
3.0
 41
0.0
 71
     5
 72
     1
  1
検図
  7
CONVERTER_11
 73
     1
 44
0.59090909090909
  0
MTEXT
  5
C6
330
48
100
AcDbEntity
  8
1
 62
     2
100
AcDbMText
 10
42.60499704076574
 20
-104.5602940139689
 30
0.0
 40
3.0
 41
0.0
 71
     5
 72
     1
  1
設計
  7
CONVERTER_11
 73
     1
 44
0.59090909090909
  0
MTEXT
  5
C7
330
48
100
AcDbEntity
  8
1
 62
     2
100
AcDbMText
 10
25.60499704076574
 20
-104.5602940139689
 30
0.0
 40
3.0
 41
0.0
 71
     5
 72
     1
  1
製図
  7
CONVERTER_11
 73
     1
 44
0.59090909090909
  0
MTEXT
  5
C8
330
48
100
AcDbEntity
  8
1
 62
     2
100
AcDbMText
 10
-20.39500295923426
 20
-105.5602940139689
 30
0.0
 40
3.5
 41
0.0
 71
     5
 72
     1
  1
尺度
  7
CONVERTER_11
 73
     1
 44
0.54545454545455
  0
MTEXT
  5
C9
330
48
100
AcDbEntity
  8
1
 62
   250
100
AcDbMText
 10
-84.89500295923423
 20
-124.5602940139689
 30
0.0
 40
3.5
 41
0.0
 71
     4
 72
     1
  1
備考欄の文字列 原点位置=4
  7
CONVERTER_11
 73
     1
 44
0.54545454545455
  0
HATCH
  5
CA
330
48
100
AcDbEntity
  8
1
  6
Continuous
 62
     2
100
AcDbHatch
 10
0.0
 20
0.0
 30
0.0
210
0.0
220
0.0
230
1.0
  2
CUSTOM0
 70
     0
 71
     1
 91
        1
 92
        1
 93
        4
 72
     1
 10
82.56281084403292
 20
-114.1630706460127
 11
82.56281084403292
 21
-114.3315396737484
 72
     1
 10
82.56281084403292
 20
-114.3315396737484
 11
81.26529421046888
 21
-114.3315396737484
 72
     1
 10
81.26529421046888
 20
-114.3315396737484
 11
81.26529421046888
 21
-114.1630706460127
 72
     1
 10
81.26529421046888
 20
-114.1630706460127
 11
82.56281084403292
 21
-114.1630706460127
 97
        1
330
BD
 75
     1
 76
     2
 52
45.0
 41
0.1
 77
     0
 78
     1
 53
45.0
 43
0.0
 44
0.0
 45
-0.282842712474619
 46
0.0
 79
     0
 98
        1
 10
0.0
 20
0.0
  0
HATCH
  5
CB
330
48
100
AcDbEntity
  8
1
  6
Continuous
 62
     2
100
AcDbHatch
 10
0.0
 20
0.0
 30
0.0
210
0.0
220
0.0
230
1.0
  2
CUSTOM1
 70
     0
 71
     1
 91
        1
 92
        1
 93
        3
 72
     4
 94
        3
 73
     0
 74
     0
 95
       62
 96
       58
 40
0.0
 40
0.0
 40
0.0
 40
0.0
 40
0.0598250028308769
 40
0.2024846486897331
 40
0.3727558389221031
 40
0.5154154847936354
 40
0.5752404975785765
 40
0.9332326775487794
 40
1.290451762839536
 40
1.602077253145988
 40
1.699931634112192
 40
1.799359756425081
 40
2.270120149657143
 40
2.8046619284616
 40
2.882342287383297
 40
3.076543185719162
 40
3.329004354835634
 40
3.581465524568459
 40
3.775666424543745
 40
3.85334678455837
 40
3.899120679595145
 40
3.984129341792142
 40
4.029903236817491
 40
4.105797496059639
 40
4.295533144152616
 40
4.542189486611834
 40
4.788845828875795
 40
4.978581476410172
 40
5.054475735244411
 40
5.621734664339422
 40
6.130867242037428
 40
6.225249780948597
 40
6.318913039727377
 40
6.663579954558995
 40
7.047498900224845
 40
7.435230791575804
 40
7.498943906668216
 40
7.650875181210181
 40
7.832212509001734
 40
7.984143783697106
 40
8.047856898903234
 40
8.091554632732738
 40
8.172707566964348
 40
8.21640530076806
 40
8.289021782160944
 40
8.462184160757289
 40
8.668861838005427
 40
8.842024215263976
 40
8.914640695475185
 40
8.989881580861393
 40
9.155411528827301
 40
9.320941477744114
 40
9.39618235248736
 40
9.454709011143864
 40
9.58346766017087
 40
9.712226309013078
 40
9.770752957989574
 40
9.770752957989574
 40
9.770752957989574
 40
9.770752957989574
 10
77.25718420994906
 20
-114.6204911320094
 10
77.23723185792807
 20
-114.6204852582822
 10
77.16970081241233
 20
-114.6204653759073
 10
77.04605825694456
 20
-114.6208003887657
 10
76.89131505577137
 20
-114.6192172764638
 10
76.7747319890137
 20
-114.623433225364
 10
76.56009130418975
 20
-114.6081419606526
 10
76.95689188148862
 20
-114.968306801107
 10
76.99956264769244
 20
-115.1851889799972
 10
77.42391325542694
 20
-115.3670433888546
 10
77.24897919037313
 20
-115.4704420482882
 10
77.12444943327424
 20
-115.6819787818417
 10
76.87162476435996
 20
-115.2122332039533
 10
76.58475733012843
 20
-114.5651788441236
 10
76.59563063343178
 20
-114.872467292422
 10
76.59328631856177
 20
-115.0374078442511
 10
76.5911066534069
 20
-115.271497306852
 10
76.60307448040041
 20
-115.5153132897511
 10
76.5737955148288
 20
-115.661736045359
 10
76.61644930331279
 20
-115.8091591122235
 10
76.5289784413297
 20
-115.7934360409067
 10
76.4818498014402
 20
-115.7933509785344
 10
76.39489436153703
 20
-115.8091997591398
 10
76.43634444293806
 20
-115.6650162997413
 10
76.40798454119424
 20
-115.5217434869844
 10
76.4195944182957
 20
-115.2835445403163
 10
76.41741460559295
 20
-115.0551216615655
 10
76.41530815356512
 20
-114.893236720209
 10
76.42580058459812
 20
-114.5787569206314
 10
76.117893366055
 20
-115.2679993052445
 10
75.81052286751141
 20
-115.7455265115385
 10
75.69013374739315
 20
-115.5228828875946
 10
75.51245783183792
 20
-115.4101836644133
 10
75.99032967705513
 20
-115.2348125793143
 10
76.04039294648652
 20
-114.9993747214487
 10
76.46337700293746
 20
-114.6070641205228
 10
76.2326724681198
 20
-114.6237409436783
 10
76.10996562669986
 20
-114.6175988244812
 10
75.93754535033196
 20
-114.6271657869732
 10
75.82631951021057
 20
-114.6058058290722
 10
75.70757500351058
 20
-114.6389313603947
 10
75.7233140114343
 20
-114.5582550079001
 10
75.72285213414196
 20
-114.5138398710604
 10
75.70778522975888
 20
-114.4306231961837
 10
75.84223513431007
 20
-114.4696674941301
 10
75.9669725953404
 20
-114.4428967206848
 10
76.16787256449376
 20
-114.4596545235285
 10
76.29715113570106
 20
-114.4382517548389
 10
76.43783903359521
 20
-114.4716062254348
 10
76.4030897860273
 20
-114.3337752561183
 10
76.427215607437
 20
-114.2106614404741
 10
76.40170565900496
 20
-114.0900534572656
 10
76.43832215543425
 20
-113.954895362554
 10
76.32613874354267
 20
-113.97934855615
 10
76.2330326864794
 20
-113.9672165155488
 10
76.1241517987477
 20
-113.970717713269
 10
76.06196680486218
 20
-113.9704764544529
 10
76.04253399649036
 20
-113.9704010627275
 72
     4
 94
        3
 73
     0
 74
     0
 95
       24
 96
       20
 40
0.0
 40
0.0
 40
0.0
 40
0.0
 40
0.2211075008753688
 40
0.4273218586244912
 40
0.5080174679239035
 40
0.5914835907870073
 40
0.8143265690192313
 40
1.054651302686533
 40
1.295452694023111
 40
1.51810923132877
 40
1.540864321905367
 40
1.595126460622598
 40
1.659890947895934
 40
1.714153085187262
 40
1.736908174961562
 40
1.764951100735262
 40
1.801562291220831
 40
1.953914424543577
 40
2.126104167379651
 40
2.126104167379651
 40
2.126104167379651
 40
2.126104167379651
 10
76.04253399645467
 20
-113.9704010628388
 10
76.01625494894697
 20
-114.0293177316252
 10
75.96546693020834
 20
-114.1431826171764
 10
75.91817552467684
 20
-114.4158744316377
 10
75.80934532102756
 20
-114.3158391882143
 10
75.65647706872949
 20
-114.2891080802956
 10
75.8736125588857
 20
-114.0751126637926
 10
75.88884540820384
 20
-113.8569728361441
 10
75.99568598996584
 20
-113.6757782233046
 10
75.93553513547351
 20
-113.391161750855
 10
76.03842878030594
 20
-113.4191531217444
 10
76.08299038758071
 20
-113.427861497946
 10
76.1430812803054
 20
-113.4388974721353
 10
76.18065899950953
 20
-113.4526187834133
 10
76.23024373362634
 20
-113.4527332523667
 10
76.19801293269828
 20
-113.4872280899827
 10
76.12217726295385
 20
-113.4762529685892
 10
76.14794175673507
 20
-113.6617043181444
 10
76.11058671715078
 20
-113.7532708784731
 10
76.0907675369267
 20
-113.8018526599919
 72
     4
 94
        3
 73
     0
 74
     0
 95
       70
 96
       66
 40
0.0
 40
0.0
 40
0.0
 40
0.0
 40
0.024173107302133
 40
0.0846058988987013
 40
0.1631685280352999
 40
0.2417311571789471
 40
0.3021639488292467
 40
0.3263370654895399
 40
0.3533118254248828
 40
0.4228783438922094
 40
0.5179999095313278
 40
0.621639823946596
 40
0.7167613891499528
 40
0.7863279069649721
 40
0.8133026791761623
 40
0.8372943998771468
 40
0.8945054261372497
 40
0.9627895541962692
 40
1.020000580349063
 40
1.043992300975175
 40
1.07193434552294
 40
1.113121768772926
 40
1.145225199332229
 40
1.225483775412767
 40
1.329819923771522
 40
1.434156071994407
 40
1.514414647795816
 40
1.546518078208448
 40
1.57897476426025
 40
1.662678849314174
 40
1.777131373668409
 40
1.901833377474828
 40
2.016285900500618
 40
2.099989982527971
 40
2.132446666570315
 40
2.158782354486048
 40
2.216720867907823
 40
2.274659381334244
 40
2.300995069256187
 40
2.333451754066173
 40
2.417155836543825
 40
2.531608358985293
 40
2.656310362283774
 40
2.770762886388892
 40
2.854466971340029
 40
2.886923657363864
 40
2.9135979768333
 40
2.982389642875104
 40
3.076451716946989
 40
3.178937260458595
 40
3.272999334740005
 40
3.341791001059219
 40
3.368465320663544
 40
3.396976080738794
 40
3.472140811845973
 40
3.578408190308677
 40
3.700226892456156
 40
3.82204559463433
 40
3.928312973256423
 40
4.003477705314834
 40
4.0319884568669
 40
4.058324144797682
 40
4.116262658236822
 40
4.174201171400599
 40
4.200536849608527
 40
4.200536849608527
 40
4.200536849608527
 40
4.200536849608527
 10
76.0907675369267
 20
-113.8018526599919
 10
76.09882299523372
 20
-113.8018504158521
 10
76.12701710708986
 20
-113.8018425536409
 10
76.18155052113305
 20
-113.8019864656852
 10
76.25328622162613
 20
-113.8012028089699
 10
76.32862105447202
 20
-113.8040183093309
 10
76.3763022774096
 20
-113.7973099799593
 10
76.42450416532738
 20
-113.8083183770446
 10
76.41125422075305
 20
-113.7548299839986
 10
76.42010643721962
 20
-113.699798178538
 10
76.41586684439432
 20
-113.6060949267079
 10
76.41834538889375
 20
-113.5106991917836
 10
76.41409091137184
 20
-113.4167257941351
 10
76.42297890735037
 20
-113.3623433895888
 10
76.4096947817603
 20
-113.3079540370544
 10
76.45640896847661
 20
-113.3218718506154
 10
76.49932249533947
 20
-113.3192552402285
 10
76.56554138643423
 20
-113.3238097894614
 10
76.60633126794565
 20
-113.3325123926273
 10
76.65751160984766
 20
-113.324976015067
 10
76.6303690894858
 20
-113.366794311736
 10
76.58530664633645
 20
-113.357444093243
 10
76.5992035452709
 20
-113.4218819402505
 10
76.59083848393118
 20
-113.4865118176949
 10
76.59536025860561
 20
-113.58500260203
 10
76.59047117188248
 20
-113.6843346855432
 10
76.600022939974
 20
-113.7473628584393
 10
76.5849731862858
 20
-113.8106538989711
 10
76.64991298648663
 20
-113.7951432845262
 10
76.71662168071545
 20
-113.8053001369908
 10
76.82914058784853
 20
-113.8004060129753
 10
76.94402058566112
 20
-113.8033819666411
 10
77.05698424074048
 20
-113.7980773721191
 10
77.12262380053352
 20
-113.809220949248
 10
77.18662470987107
 20
-113.7928486907704
 10
77.17531132968467
 20
-113.8426771149162
 10
77.18253102791674
 20
-113.8861268618477
 10
77.17531130189269
 20
-113.9295765580945
 10
77.18662475836516
 20
-113.9794050620002
 10
77.12262340066296
 20
-113.9630323530553
 10
77.05698916481164
 20
-113.9741812973531
 10
76.9439944724989
 20
-113.9688454419004
 10
76.82924269563006
 20
-113.9719505573307
 10
76.71631540945191
 20
-113.966645067143
 10
76.65051913112424
 20
-113.977721013773
 10
76.5866068383016
 20
-113.9614180354928
 10
76.5985985572784
 20
-114.0160587700115
 10
76.59120750206633
 20
-114.0717510634906
 10
76.5942655249641
 20
-114.1637971225632
 10
76.5943393193341
 20
-114.258502915238
 10
76.59102839860174
 20
-114.3507661849463
 10
76.59894763975618
 20
-114.4059363266076
 10
76.58650470192748
 20
-114.4597123229676
 10
76.64390869592896
 20
-114.4457563253412
 10
76.70446785480407
 20
-114.4551794351267
 10
76.80986512627385
 20
-114.4508651546819
 10
76.925426447828
 20
-114.4519389678487
 10
77.04096592854548
 20
-114.453034354959
 10
77.14641515384984
 20
-114.4486687562626
 10
77.20686508794614
 20
-114.4581997536623
 10
77.26428081467677
 20
-114.4441211179052
 10
77.25277442843658
 20
-114.4932224813121
 10
77.25875371894074
 20
-114.5346474337825
 10
77.25702814584592
 20
-114.583777234302
 10
77.25714705306291
 20
-114.6117497294928
 10
77.25718420994906
 20
-114.6204911320094
 97
        3
330
AE
330
AC
330
AD
 75
     1
 76
     2
 52
45.0
 41
0.1
 77
     0
 78
     1
 53
45.0
 43
0.0
 44
0.0
 45
-0.282842712474619
 46
0.0
 79
     0
 98
        1
 10
0.0
 20
0.0
  0
HATCH
  5
CC
330
48
100
AcDbEntity
  8
1
  6
Continuous
 62
     2
100
AcDbHatch
 10
0.0
 20
0.0
 30
0.0
210
0.0
220
0.0
230
1.0
  2
CUSTOM2
 70
     0
 71
     1
 91
        1
 92
        1
 93
        1
 72
     4
 94
        3
 73
     0
 74
     0
 95
      124
 96
      120
 40
0.0
 40
0.0
 40
0.0
 40
0.0
 40
0.0278187229624653
 40
0.1011590162384128
 40
0.2048470170589955
 40
0.3237088716558961
 40
0.4425707262521573
 40
0.5462587270699263
 40
0.6195990203311798
 40
0.6474177522578518
 40
0.6750060736114993
 40
0.7357003855242545
 40
0.7963946998054332
 40
0.823983024557166
 40
0.8540933811102469
 40
0.9373396629409292
 40
1.06309468734321
 40
1.220731268638077
 40
1.399622220914737
 40
1.589140358637707
 40
1.778658496423831
 40
1.957549448940512
 40
2.11518603087312
 40
2.240941056914409
 40
2.324187341760479
 40
2.354297700109343
 40
2.381886024671858
 40
2.442580338710443
 40
2.503274652750478
 40
2.530862977314571
 40
2.560983949278509
 40
2.640393784452884
 40
2.752662861759064
 40
2.881361560118081
 40
3.010060258455142
 40
3.122329335705303
 40
3.201739170817889
 40
3.231860142753278
 40
3.264298024030325
 40
3.352343701778197
 40
3.482095226868709
 40
3.639650650172968
 40
3.811108022565421
 40
3.982565394927932
 40
4.140120818152497
 40
4.269872343141203
 40
4.357918020802274
 40
4.390355902043894
 40
4.423256253992492
 40
4.508104530072999
 40
4.624121560636767
 40
4.750528176031524
 40
4.866545206601985
 40
4.951393482691928
 40
4.984293834645343
 40
5.011450833242265
 40
5.071196230152055
 40
5.130941627057113
 40
5.158098625648777
 40
5.190998977601411
 40
5.275847253689251
 40
5.391864284256727
 40
5.518270899648244
 40
5.634287930209283
 40
5.719136206287957
 40
5.752036558235859
 40
5.782130946282892
 40
5.862783906229056
 40
5.979550131774929
 40
6.117984316640361
 40
6.263641154587902
 40
6.402075339414098
 40
6.518841564907917
 40
6.599494524815484
 40
6.629588912848733
 40
6.65440302822631
 40
6.713575149488049
 40
6.784199939329381
 40
6.843372060493456
 40
6.868186175802687
 40
6.896246243201761
 40
6.939586233758163
 40
6.967846564564795
 40
7.043584251089726
 40
7.153234334451568
 40
7.283231855734329
 40
7.42001185603533
 40
7.550009376579709
 40
7.659659458835108
 40
7.735397144417092
 40
7.763657474851257
 40
7.796409728010914
 40
7.880876065096217
 40
7.996370852465546
 40
8.122208446418455
 40
8.237703224799063
 40
8.322169562010785
 40
8.354921815205756
 40
8.38207881330753
 40
8.441824209206843
 40
8.501569605239993
 40
8.528726603485566
 40
8.5614788566956
 40
8.64594519387768
 40
8.76143998086522
 40
8.887277580764362
 40
9.00277236200084
 40
9.087238696661046
 40
9.119990949235529
 40
9.152428830613232
 40
9.240474508638442
 40
9.370226034149397
 40
9.527781457984275
 40
9.699238830981244
 40
9.87069620397844
 40
10.02825162781387
 40
10.15800315332548
 40
10.24604883135102
 40
10.27848670378505
 40
10.27848670378505
 40
10.27848670378505
 40
10.27848670378505
 10
85.48717979720408
 20
-115.5461888401113
 10
85.49645251451811
 20
-115.5461890288561
 10
85.53017149445178
 20
-115.5461897052018
 10
85.59846772201233
 20
-115.5461759415358
 10
85.6970112119237
 20
-115.5462617717735
 10
85.81120368724692
 20
-115.5458764578464
 10
85.92358648247287
 20
-115.5472856549934
 10
86.02643470077751
 20
-115.5431028397464
 10
86.0856810282506
 20
-115.552063121449
 10
86.14212363446904
 20
-115.5386496687083
 10
86.12962259946121
 20
-115.5894220278353
 10
86.13795200433606
 20
-115.6344008045782
 10
86.12981412487773
 20
-115.679726484064
 10
86.14204996221143
 20
-115.7309746898842
 10
86.07977438979904
 20
-115.7158144603161
 10
86.01104834345256
 20
-115.7266965068614
 10
85.88327271572489
 20
-115.7211809664892
 10
85.73129549193003
 20
-115.7232855014319
 10
85.55526663801801
 20
-115.7225839880841
 10
85.36944023419447
 20
-115.722841638656
 10
85.18361378448327
 20
-115.7225839625228
 10
85.00758505498258
 20
-115.7232855954916
 10
84.8556074561852
 20
-115.721180691669
 10
84.72783280722119
 20
-115.7266972062925
 10
84.65910482442382
 20
-115.7158132427094
 10
84.59683194505403
 20
-115.7309761471268
 10
84.60905866976752
 20
-115.6797189059172
 10
84.6009974870254
 20
-115.6344692812445
 10
84.60906462175501
 20
-115.5892304344157
 10
84.59682088947412
 20
-115.5379522448693
 10
84.65749875283552
 20
-115.5527982403376
 10
84.72127811533937
 20
-115.5427295322615
 10
84.832728476116
 20
-115.5473475718489
 10
84.95475038514807
 20
-115.5461607249142
 10
85.07695085454812
 20
-115.5451353749626
 10
85.18797646950499
 20
-115.5493692577348
 10
85.2526487821615
 20
-115.5401081687515
 10
85.31411332181591
 20
-115.5542497834721
 10
85.29800360089945
 20
-115.4879387351237
 10
85.30929507350157
 20
-115.4158161127491
 10
85.30373712302182
 20
-115.285156405086
 10
85.30580054693475
 20
-115.1342207768865
 10
85.30501375349522
 20
-114.96693528289
 10
85.30578156232843
 20
-114.7996829106458
 10
85.30380091932862
 20
-114.6486611212698
 10
85.3091276564278
 20
-114.5182333184389
 10
85.29830717960823
 20
-114.4456395879099
 10
85.31402968375329
 20
-114.3787893196009
 10
85.2482678540148
 20
-114.3944888890607
 10
85.1806338238421
 20
-114.3842015831289
 10
85.0665855701467
 20
-114.3891561454977
 10
84.95012130825603
 20
-114.3861527336642
 10
84.83565245291346
 20
-114.391490982535
 10
84.76902950654697
 20
-114.3802813332207
 10
84.70407401228428
 20
-114.3968026873188
 10
84.71579601663659
 20
-114.3455568091983
 10
84.70828005967778
 20
-114.300790676128
 10
84.71579602864932
 20
-114.2560245649893
 10
84.70407399130043
 20
-114.2047786526715
 10
84.76902967468573
 20
-114.2213001963007
 10
84.8356503747479
 20
-114.2100883002295
 10
84.95013232657205
 20
-114.2154396468623
 10
85.06654248446202
 20
-114.2123821262577
 10
85.18076305822984
 20
-114.2175090238618
 10
85.24801208468834
 20
-114.2068366804129
 10
85.31332963490959
 20
-114.2228731872781
 10
85.29913618562091
 20
-114.1607971564684
 10
85.30860298706529
 20
-114.0944263976813
 10
85.30402394117428
 20
-113.9778942865492
 10
85.30576669636052
 20
-113.8460271637451
 10
85.30475219030492
 20
-113.7041344124661
 10
85.30671617520304
 20
-113.5726035069431
 10
85.3014638961508
 20
-113.4550482411388
 10
85.31233791711318
 20
-113.390816123953
 10
85.29695070495112
 20
-113.3292059885184
 10
85.34575619454577
 20
-113.3432699401478
 10
85.3903965972383
 20
-113.3407465932157
 10
85.45886143543999
 20
-113.3451660399518
 10
85.50090765767595
 20
-113.3541637585286
 10
85.55375151664322
 20
-113.3461768653038
 10
85.52570054096714
 20
-113.3891548378522
 10
85.4799112656252
 20
-113.3776984935305
 10
85.49195094809215
 20
-113.4385588139176
 10
85.48460564782998
 20
-113.5026010192812
 10
85.4881166233819
 20
-113.6112003253298
 10
85.48697771678316
 20
-113.7353508225214
 10
85.48691451879202
 20
-113.8683968156701
 10
85.48828433745248
 20
-113.9923202014733
 10
85.4841609208971
 20
-114.1016106354755
 10
85.49277335112215
 20
-114.1642082130272
 10
85.47967278620595
 20
-114.2228926810052
 10
85.54438547358556
 20
-114.2066728758599
 10
85.61103763608132
 20
-114.2175914101358
 10
85.72487499487605
 20
-114.2123566122314
 10
85.8407229529754
 20
-114.2154385387998
 10
85.95468946709377
 20
-114.2101114158438
 10
86.02103114257568
 20
-114.2212519323034
 10
86.08571589331372
 20
-114.2048242180371
 10
86.073979118038
 20
-114.2560347618684
 10
86.08151384706981
 20
-114.3007906727589
 10
86.07397913999154
 20
-114.3455466238686
 10
86.08571585483944
 20
-114.3967571052585
 10
86.02103144829096
 20
-114.3803297360266
 10
85.95468568384825
 20
-114.3914661694962
 10
85.8407429894669
 20
-114.3861628550377
 10
85.72479660307127
 20
-114.3891463680335
 10
85.61127272897798
 20
-114.384225091285
 10
85.54392017264615
 20
-114.3944431388336
 10
85.47842555301527
 20
-114.3788340525807
 10
85.49416840268756
 20
-114.4456554956948
 10
85.48332464058709
 20
-114.5182234358101
 10
85.48865520374491
 20
-114.6486715378247
 10
85.48671065595136
 20
-114.7996484321167
 10
85.48731040908717
 20
-114.9670715746273
 10
85.48714769672623
 20
-115.1337322527851
 10
85.48718658957932
 20
-115.2866925847525
 10
85.48717868207561
 20
-115.4118022241118
 10
85.48717987904034
 20
-115.4952151040547
 10
85.48717981238657
 20
-115.5353762311491
 10
85.48717979720408
 20
-115.5461888401113
 97
        1
330
AF
 75
     1
 76
     2
 52
45.0
 41
0.1
 77
     0
 78
     1
 53
45.0
 43
0.0
 44
0.0
 45
-0.282842712474619
 46
0.0
 79
     0
 98
        1
 10
0.0
 20
0.0
  0
HATCH
  5
CD
330
48
100
AcDbEntity
  8
1
  6
Continuous
 62
     2
100
AcDbHatch
 10
0.0
 20
0.0
 30
0.0
210
0.0
220
0.0
230
1.0
  2
CUSTOM3
 70
     0
 71
     1
 91
        1
 92
        1
 93
        1
 72
     4
 94
        3
 73
     0
 74
     0
 95
      131
 96
      127
 40
0.0
 40
0.0
 40
0.0
 40
0.0
 40
0.0195577029826765
 40
0.0426490537462544
 40
0.2863607575857255
 40
0.5344948436189948
 40
0.7842238845573393
 40
0.8737315789467441
 40
0.9803832810313265
 40
1.09284227451708
 40
1.199761146656824
 40
1.289788768186541
 40
1.351573580786232
 40
1.370727117561486
 40
1.416400936017864
 40
1.470914848355999
 40
1.516588666791816
 40
1.535742203552882
 40
1.634216592293216
 40
1.760283341175036
 40
1.897966686682141
 40
2.031216387368972
 40
2.049689751137962
 40
2.101115601646911
 40
2.179502577740039
 40
2.278859318314162
 40
2.393194462258819
 40
2.516516648383942
 40
2.642834515406066
 40
2.766156701983576
 40
2.88049184675468
 40
2.979848588358735
 40
3.058235565443895
 40
3.109661416669056
 40
3.128134780704244
 40
3.146783742386589
 40
3.19125434331545
 40
3.244332157316123
 40
3.288802758225998
 40
3.307451719895255
 40
3.32771785384486
 40
3.383747753580238
 40
3.468388665924622
 40
3.574487837698925
 40
3.694892515729052
 40
3.822449946852189
 40
3.950007377920571
 40
4.070412055800674
 40
4.176511227368223
 40
4.261152139501675
 40
4.317182039076869
 40
4.337448172964798
 40
4.62001100269645
 40
4.885096638397664
 40
4.945373043518497
 40
5.01410771048882
 40
5.070481727652147
 40
5.319246955636673
 40
5.584812164506164
 40
5.859000912057025
 40
6.133746937542189
 40
6.401732212969002
 40
6.420736683995579
 40
6.472845717451215
 40
6.550702743894171
 40
6.646951193874394
 40
6.75423449793069
 40
6.865196086587496
 40
6.972479390357983
 40
7.068727839772088
 40
7.146584865451126
 40
7.198693898189355
 40
7.21769836890551
 40
7.234950401631004
 40
7.276089864270028
 40
7.325191803516128
 40
7.36633126609052
 40
7.383583298769872
 40
7.402779163492249
 40
7.45338644325468
 40
7.524934666445682
 40
7.606953361406007
 40
7.688972056429145
 40
7.760520279784381
 40
7.811127559734623
 40
7.830323424546273
 40
7.847844055299896
 40
7.894799345666947
 40
7.96277939274463
 40
8.04337429356071
 40
8.128174145149622
 40
8.208769044817423
 40
8.276749090377145
 40
8.323704379669714
 40
8.34122501005644
 40
8.358497614800632
 40
8.401679126686822
 40
8.457815092185866
 40
8.513951057728299
 40
8.55713256970821
 40
8.574405174505312
 40
8.602340668616693
 40
8.64345566054022
 40
8.663225271966901
 40
8.71534515656456
 40
8.789031889628895
 40
8.873502045520617
 40
8.957972194324249
 40
9.03165892556813
 40
9.083778811234843
 40
9.10354842300331
 40
9.119550083123876
 40
9.16081752238015
 40
9.217244429110501
 40
9.278724491645
 40
9.3351513982958
 40
9.37641883735808
 40
9.392420497300868
 40
9.401196302735118
 40
9.417494229384598
 40
9.426270027749872
 40
9.440875075477896
 40
9.475702496999086
 40
9.517270709866228
 40
9.552098131994391
 40
9.56670316988459
 40
9.56670316988459
 40
9.56670316988459
 40
9.56670316988459
 10
84.72202245561368
 20
-113.8901352988586
 10
84.71843155010285
 20
-113.8957571069473
 10
84.71060095312822
 20
-113.9080164697778
 10
84.61799393822058
 20
-113.9442748535593
 10
84.59375926409041
 20
-114.1588095718418
 10
84.49086802535957
 20
-114.3383211688718
 10
84.22704627719624
 20
-114.5241382759874
 10
84.3895441976838
 20
-114.6007006483081
 10
84.46571961684954
 20
-114.6617270820145
 10
84.5542141480416
 20
-114.7251359685213
 10
84.64399006407676
 20
-114.7850376717734
 10
84.69337880437034
 20
-114.8392724654768
 10
84.77956785650395
 20
-114.8674316085507
 10
84.74612310818868
 20
-114.9031609174408
 10
84.7264641573968
 20
-114.9347901340499
 10
84.69698586255394
 20
-114.9755352860082
 10
84.67389598536884
 20
-115.0052473790725
 10
84.64301763760139
 20
-115.058179787284
 10
84.57791637733979
 20
-114.9328906645799
 10
84.48459705300732
 20
-114.8781550116296
 10
84.40006066927967
 20
-114.8211297745755
 10
84.27724685333982
 20
-114.6635411396936
 10
84.28144212549596
 20
-114.7399359463005
 10
84.28014490603347
 20
-114.7866812123559
 10
84.28080968557344
 20
-114.8644461558429
 10
84.28055203946141
 20
-114.9612733307247
 10
84.28064016475793
 20
-115.0737912231808
 10
84.2806047709938
 20
-115.1950531545119
 10
84.28064821659366
 20
-115.3194250353793
 10
84.2805170350063
 20
-115.4406171776555
 10
84.28094479697042
 20
-115.5533825247715
 10
84.2796648609968
 20
-115.6494648762815
 10
84.28297302587008
 20
-115.7291557492819
 10
84.27651681477442
 20
-115.7721422560811
 10
84.28561791132137
 20
-115.8107396902485
 10
84.24978807475921
 20
-115.8021851367282
 10
84.21651942229096
 20
-115.8068688141145
 10
84.16545329836981
 20
-115.8067810263711
 10
84.13196943804701
 20
-115.8023497111307
 10
84.09575558164113
 20
-115.8106860755438
 10
84.10597529763226
 20
-115.7688412421761
 10
84.09864582954303
 20
-115.7225084057672
 10
84.10236035437603
 20
-115.6365457029088
 10
84.10094509625526
 20
-115.5342425869204
 10
84.10140759622958
 20
-115.4157617746538
 10
84.10127440938876
 20
-115.2907171824353
 10
84.10129863177025
 20
-115.1655357328984
 10
84.1013325333208
 20
-115.0474275601783
 10
84.10120307007892
 20
-114.9440065268737
 10
84.10154779567382
 20
-114.8609736524323
 10
84.10086686863474
 20
-114.8088603287564
 10
84.104455700828
 20
-114.6811649357554
 10
83.88761417940944
 20
-114.9798068457727
 10
83.70713253296083
 20
-115.2076541988537
 10
83.65402927032692
 20
-115.0665595810708
 10
83.6250399540806
 20
-115.0170363383595
 10
83.52466184704778
 20
-114.913876216068
 10
83.84550981309182
 20
-114.8333436637311
 10
83.97398674130868
 20
-114.6496311836046
 10
84.19564247330166
 20
-114.4409740562513
 10
84.28201953017255
 20
-114.2669019016855
 10
84.5599364636733
 20
-113.9906235005438
 10
84.43962182469421
 20
-113.9949484184578
 10
84.39131677590069
 20
-113.9941454519434
 10
84.31523478625621
 20
-113.9945481925031
 10
84.22169804174082
 20
-113.9943912578529
 10
84.11675651962143
 20
-113.9944689882067
 10
84.00838581463753
 20
-113.9943393701834
 10
83.9031424643555
 20
-113.9947500790621
 10
83.810620822707
 20
-113.993473277253
 10
83.73181012083651
 20
-113.9968863486204
 10
83.68896449730373
 20
-113.9900605136058
 10
83.64994699941728
 20
-113.9996433719577
 10
83.65763356795215
 20
-113.9660862183135
 10
83.65354348119695
 20
-113.9350585107466
 10
83.65355017764712
 20
-113.88792872126
 10
83.65762101325694
 20
-113.8568845975012
 10
83.64994659822399
 20
-113.8232753976099
 10
83.68847898131521
 20
-113.8328099097602
 10
83.7291198422137
 20
-113.8263196589883
 10
83.80014422581209
 20
-113.8292925074664
 10
83.8779288557291
 20
-113.8285463999774
 10
83.95572626541319
 20
-113.8278158735237
 10
84.02672024975642
 20
-113.8307516588274
 10
84.06742501994773
 20
-113.8243393262394
 10
84.10598238975669
 20
-113.8337887722089
 10
84.09773131625845
 20
-113.7976470923811
 10
84.10323170770162
 20
-113.7589956378367
 10
84.10057246138197
 20
-113.6911587283506
 10
84.10157858791905
 20
-113.6143775985815
 10
84.10101484259766
 20
-113.5318000781414
 10
84.10206849342492
 20
-113.4551207216701
 10
84.09926462707872
 20
-113.386974106202
 10
84.10506731289611
 20
-113.3489700158754
 10
84.09656249588156
 20
-113.3127095331924
 10
84.13055806407826
 20
-113.3227367762504
 10
84.16445460907563
 20
-113.3195613458319
 10
84.21766394680041
 20
-113.3252043575628
 10
84.27107389821407
 20
-113.3259462696047
 10
84.30458850571475
 20
-113.3321017791391
 10
84.34380565906969
 20
-113.326833716233
 10
84.31702341061495
 20
-113.367760206034
 10
84.27580814093812
 20
-113.3565819685878
 10
84.28326119485317
 20
-113.4016234520477
 10
84.2792198359842
 20
-113.4461712336875
 10
84.2811684457298
 20
-113.5180582877519
 10
84.28023352574161
 20
-113.5986077080812
 10
84.28150775976874
 20
-113.678554059919
 10
84.27820142015213
 20
-113.7518756431371
 10
84.28520765876183
 20
-113.7934075839433
 10
84.2751410787783
 20
-113.8327698282878
 10
84.3079785211579
 20
-113.8256133796592
 10
84.3414547704138
 20
-113.8300215825895
 10
84.39650238836761
 20
-113.82811458049
 10
84.45394730029727
 20
-113.8284403498961
 10
84.5072996655967
 20
-113.8292309266382
 10
84.54485113042966
 20
-113.8271544227882
 10
84.56731429308945
 20
-113.8300706322979
 10
84.58016484813886
 20
-113.8245684875284
 10
84.59082260935469
 20
-113.8222828319911
 10
84.60366060578009
 20
-113.8153442880884
 10
84.61959614407284
 20
-113.8317635508322
 10
84.64605943285497
 20
-113.8432027907744
 10
84.67767756614157
 20
-113.863847135617
 10
84.70372262998087
 20
-113.8791253176859
 10
84.71784881316313
 20
-113.887624250737
 10
84.72202245561368
 20
-113.8901352988586
 97
        1
330
B0
 75
     1
 76
     2
 52
45.0
 41
0.1
 77
     0
 78
     1
 53
45.0
 43
0.0
 44
0.0
 45
-0.282842712474619
 46
0.0
 79
     0
 98
        1
 10
0.0
 20
0.0
  0
HATCH
  5
CE
330
48
100
AcDbEntity
  8
1
  6
Continuous
 62
     2
100
AcDbHatch
 10
0.0
 20
0.0
 30
0.0
210
0.0
220
0.0
230
1.0
  2
CUSTOM4
 70
     0
 71
     1
 91
        1
 92
        1
 93
        1
 72
     4
 94
        3
 73
     0
 74
     0
 95
       91
 96
       87
 40
0.0
 40
0.0
 40
0.0
 40
0.0
 40
0.0267532254356701
 40
0.0856103386463907
 40
0.1444674521996496
 40
0.1712206856618372
 40
0.2039416005642252
 40
0.29556019716522
 40
0.4362601844616492
 40
0.6162252844507108
 40
0.8256392189704556
 40
1.054685709844411
 40
1.293548478893503
 40
1.532411247938261
 40
1.76145773879954
 40
1.970871673298508
 40
2.150836773256661
 40
2.291536760495537
 40
2.383155356836672
 40
2.415876284101263
 40
2.442629517487892
 40
2.501486630949036
 40
2.560343744424178
 40
2.587096977826438
 40
2.617068194440852
 40
2.699247336756035
 40
2.822032643466305
 40
2.973822353257835
 40
3.143014704823305
 40
3.318007936879842
 40
3.487200288186675
 40
3.638989997548141
 40
3.761775303794654
 40
3.843954445753003
 40
3.873925662229699
 40
3.89081277350041
 40
3.907699884771607
 40
3.937960767857186
 40
3.98098361814223
 40
4.199085915228403
 40
4.439444339237157
 40
4.677588241260783
 40
5.050698317837654
 40
5.448212454763024
 40
5.855291218044508
 40
6.138575438885152
 40
6.417434507583966
 40
6.444551104393641
 40
6.504207617362931
 40
6.563864130314255
 40
6.59098072710381
 40
6.848609460381246
 40
7.109611990668184
 40
7.352910904445834
 40
7.55783022070519
 40
7.587518925913119
 40
7.652834077375543
 40
7.718149228845482
 40
7.747837934061797
 40
7.854880190300791
 40
7.976511257403315
 40
8.369487896592101
 40
8.757514959223395
 40
9.126072419330873
 40
9.460639380391935
 40
9.746695593035648
 40
9.777569943118438
 40
9.807050320931543
 40
9.830377336128665
 40
9.886003295435785
 40
9.952395569429706
 40
10.00802152870608
 40
10.03134854388198
 40
10.21356951009566
 40
10.42203479292848
 40
10.66154556731041
 40
10.91693789564278
 40
11.1583290655654
 40
11.18982674596596
 40
11.27286608520381
 40
11.39026653033326
 40
11.52484752840861
 40
11.65942852648421
 40
11.77682897161457
 40
11.85986831085655
 40
11.891365982304
 40
11.891365982304
 40
11.891365982304
 40
11.891365982304
 10
80.80778554158536
 20
-114.8532980069512
 10
80.80782081729456
 20
-114.844415540849
 10
80.80793371184541
 20
-114.8159916434955
 10
80.80629549761461
 20
-114.7661976222709
 10
80.81197207005684
 20
-114.7237183691874
 10
80.8006899139364
 20
-114.6729924654005
 10
80.86822673866897
 20
-114.6901650065679
 10
80.94379996183571
 20
-114.677391742309
 10
81.08783274636583
 20
-114.6839967193951
 10
81.26193895930844
 20
-114.6814093919043
 10
81.46895700186604
 20
-114.6822880944134
 10
81.6944658580035
 20
-114.6820119347687
 10
81.93011327010629
 20
-114.6821106173823
 10
82.16576109390056
 20
-114.6820121698413
 10
82.39126879882836
 20
-114.682287232061
 10
82.59829050404622
 20
-114.6814121512616
 10
82.7723859322945
 20
-114.6839887871845
 10
82.91644624796427
 20
-114.6774111094769
 10
82.991966232295
 20
-114.6901315799128
 10
83.0595746444687
 20
-114.6730300120521
 10
83.04808105483336
 20
-114.7235461559395
 10
83.055507498939
 20
-114.7677614917039
 10
83.04788093356439
 20
-114.8116143489328
 10
83.05964598670819
 20
-114.8615102691757
 10
82.99807588996404
 20
-114.8463617368438
 10
82.93067621463285
 20
-114.8571873604622
 10
82.80629744638789
 20
-114.8517736977065
 10
82.66043986442281
 20
-114.8538019600611
 10
82.49435468477424
 20
-114.8531362381851
 10
82.32383830293819
 20
-114.8533975787565
 10
82.15697612630461
 20
-114.853078480058
 10
82.01373172347633
 20
-114.8539409880613
 10
81.88232842774912
 20
-114.851661009139
 10
81.82898295423142
 20
-114.8562169702269
 10
81.75351588645697
 20
-114.8502948640402
 10
81.78190461868898
 20
-114.8593523205354
 10
81.80836228171997
 20
-114.8630348912797
 10
81.76834933153589
 20
-114.8937512942861
 10
81.67636340995254
 20
-114.8836181022226
 10
81.64893666147263
 20
-115.129968991491
 10
81.5528764374892
 20
-115.2852984263252
 10
81.29672483721313
 20
-115.6150398346532
 10
81.867750814042
 20
-115.4759937918644
 10
82.12236267281739
 20
-115.4773762142353
 10
82.73296174562742
 20
-115.5623883215481
 10
82.43906689857404
 20
-115.2634398383868
 10
82.11832746941755
 20
-115.1169854449512
 10
82.23635137680915
 20
-115.060038605786
 10
82.2774686873919
 20
-115.0360930152355
 10
82.32067828020685
 20
-115.0142964258566
 10
82.42245445021074
 20
-114.9510068014298
 10
82.53788380329051
 20
-115.2088224998811
 10
82.73795620499345
 20
-115.3441336028321
 10
82.83190477948853
 20
-115.52236606258
 10
83.06088001540502
 20
-115.6803158036985
 10
82.9646002254365
 20
-115.7311342882059
 10
82.92179301714364
 20
-115.7614810887384
 10
82.87682139364364
 20
-115.7856327111544
 10
82.81716913328711
 20
-115.8347725464933
 10
82.78397014689818
 20
-115.7003192572329
 10
82.66319837584538
 20
-115.5443513611031
 10
82.3020946413636
 20
-115.6745947333733
 10
81.94350323631986
 20
-115.6580470698741
 10
81.56208908577375
 20
-115.6669817204503
 10
81.27534256905487
 20
-115.7314672972448
 10
80.96420260073714
 20
-115.6179873320406
 10
80.9318708226446
 20
-115.7290714146913
 10
80.89461486609753
 20
-115.7483308754688
 10
80.89157080404118
 20
-115.701546173096
 10
80.8729863268264
 20
-115.6622254747776
 10
80.85624070244359
 20
-115.6026341791866
 10
80.84337013234105
 20
-115.5582743152561
 10
80.80922982140874
 20
-115.4692307027668
 10
81.05326848654107
 20
-115.5384835845313
 10
81.24913648943289
 20
-115.5599903233914
 10
81.34453967889337
 20
-115.2780291691843
 10
81.39951061772544
 20
-115.1166635597577
 10
81.62095897648129
 20
-114.8463822380716
 10
81.48992097888737
 20
-114.8548095454316
 10
81.41599969635116
 20
-114.8525039289993
 10
81.30274302839007
 20
-114.8535802307524
 10
81.17442222151416
 20
-114.8532176232038
 10
81.04542224380724
 20
-114.8533167693081
 10
80.93378113539487
 20
-114.8532946868432
 10
80.8564634377684
 20
-114.8532982220722
 10
80.81828469396673
 20
-114.8532980555181
 10
80.80778554158536
 20
-114.8532980069512
 97
        1
330
B1
 75
     1
 76
     2
 52
45.0
 41
0.1
 77
     0
 78
     1
 53
45.0
 43
0.0
 44
0.0
 45
-0.282842712474619
 46
0.0
 79
     0
 98
        1
 10
0.0
 20
0.0
  0
HATCH
  5
CF
330
48
100
AcDbEntity
  8
1
  6
Continuous
 62
     2
100
AcDbHatch
 10
0.0
 20
0.0
 30
0.0
210
0.0
220
0.0
230
1.0
  2
CUSTOM5
 70
     0
 71
     1
 91
        1
 92
        1
 93
        1
 72
     4
 94
        3
 73
     0
 74
     0
 95
       35
 96
       31
 40
0.0
 40
0.0
 40
0.0
 40
0.0
 40
0.0335231036620045
 40
0.0713218571711768
 40
0.4278866681486975
 40
0.811686584196428
 40
1.198190238000068
 40
1.561379546812694
 40
1.65998317462212
 40
1.759315573807274
 40
2.132719617231182
 40
2.525233363588896
 40
2.910815397779769
 40
3.265244364303341
 40
3.592606723582069
 40
3.964386154604033
 40
4.359942131737894
 40
4.758154118639376
 40
4.843846538700027
 40
4.936650065543327
 40
5.256616602537457
 40
5.581707404416186
 40
5.899719158308313
 40
6.198363494280912
 40
6.466301046615954
 40
6.493895311537275
 40
6.559697020197055
 40
6.638234543442633
 40
6.704036252154457
 40
6.731630508423235
 40
6.731630508423235
 40
6.731630508423235
 40
6.731630508423235
 10
82.07859809763266
 20
-113.3256555767776
 10
82.0725976505447
 20
-113.3354871085457
 10
82.05983145068144
 20
-113.356404128171
 10
81.89993324142118
 20
-113.3890227486418
 10
82.3371996249994
 20
-113.678227210602
 10
82.53953652359193
 20
-113.8798826303845
 10
82.78695346756311
 20
-114.1228001379363
 10
83.28814840322639
 20
-114.1998173863911
 10
83.11755326066279
 20
-114.3415246222223
 10
83.0433269870859
 20
-114.5431903518779
 10
82.71814026558454
 20
-114.1907311422217
 10
82.43277120783219
 20
-114.0285418883733
 10
82.13875744853158
 20
-113.8234227134385
 10
81.9134423098792
 20
-113.3420191280144
 10
81.70430554631793
 20
-113.8068635478767
 10
81.42578440824916
 20
-114.0167844914399
 10
81.14213535848666
 20
-114.1860494503691
 10
80.8128609935488
 20
-114.5588704048896
 10
80.73269827258824
 20
-114.3632138693789
 10
80.58096953174004
 20
-114.2353829720631
 10
81.0133366234453
 20
-114.1557536963096
 10
81.2012535737423
 20
-113.9600276648142
 10
81.45184478281607
 20
-113.7439640448014
 10
81.67643208778185
 20
-113.5783840909683
 10
81.73097458173697
 20
-113.2989543676007
 10
81.85446314366685
 20
-113.3129145098881
 10
81.91102437521772
 20
-113.3150813252924
 10
81.98118413926017
 20
-113.3198254151553
 10
82.03833844297631
 20
-113.3231997204635
 10
82.0694160728496
 20
-113.3250954668577
 10
82.07859809763266
 20
-113.3256555767776
 97
        1
330
B2
 75
     1
 76
     2
 52
45.0
 41
0.1
 77
     0
 78
     1
 53
45.0
 43
0.0
 44
0.0
 45
-0.282842712474619
 46
0.0
 79
     0
 98
        1
 10
0.0
 20
0.0
  0
HATCH
  5
D0
330
48
100
AcDbEntity
  8
1
  6
Continuous
 62
     2
100
AcDbHatch
 10
0.0
 20
0.0
 30
0.0
210
0.0
220
0.0
230
1.0
  2
CUSTOM6
 70
     0
 71
     1
 91
        1
 92
        1
 93
        1
 72
     4
 94
        3
 73
     0
 74
     0
 95
       15
 96
       11
 40
0.0
 40
0.0
 40
0.0
 40
0.0
 40
0.2785535985097407
 40
0.5215624748199192
 40
0.6076917376040353
 40
0.6938210001741117
 40
0.9405019146454818
 40
1.22169140348909
 40
1.300471877081016
 40
1.379252341684771
 40
1.379252341684771
 40
1.379252341684771
 40
1.379252341684771
 10
79.67314640386564
 20
-113.3309913406651
 10
79.73459882018354
 20
-113.3833775480418
 10
79.84966203817714
 20
-113.4814652459867
 10
80.14473189049008
 20
-113.6313961549967
 10
80.0075118039514
 20
-113.7168617388188
 10
79.90911982514355
 20
-113.8494361619533
 10
79.81800039983074
 20
-113.5441241561547
 10
79.46868098883127
 20
-113.4806153193152
 10
79.61692287842277
 20
-113.3813289151601
 10
79.65440522818936
 20
-113.3477705299451
 10
79.67314640386564
 20
-113.3309913406651
 97
        1
330
B3
 75
     1
 76
     2
 52
45.0
 41
0.1
 77
     0
 78
     1
 53
45.0
 43
0.0
 44
0.0
 45
-0.282842712474619
 46
0.0
 79
     0
 98
        1
 10
0.0
 20
0.0
  0
HATCH
  5
D1
330
48
100
AcDbEntity
  8
1
  6
Continuous
 62
     2
100
AcDbHatch
 10
0.0
 20
0.0
 30
0.0
210
0.0
220
0.0
230
1.0
  2
CUSTOM7
 70
     0
 71
     1
 91
        1
 92
        1
 93
        1
 72
     4
 94
        3
 73
     0
 74
     0
 95
       75
 96
       71
 40
0.0
 40
0.0
 40
0.0
 40
0.0
 40
0.034254609912978
 40
0.1245622414432293
 40
0.2522385480897643
 40
0.3985991922940715
 40
0.5449598364980945
 40
0.6726361431438763
 40
0.7629437746737013
 40
0.7971983935298115
 40
1.101723623449709
 40
1.408591244036717
 40
1.433332471690429
 40
1.487763172450207
 40
1.542193873082014
 40
1.566935100592552
 40
1.92352393182186
 40
2.271755704953665
 40
2.590579755100923
 40
2.858943305581161
 40
2.889120339309228
 40
2.918305855191197
 40
2.941366645531318
 40
2.996357760973214
 40
3.061992318140774
 40
3.116983433626987
 40
3.140044223997656
 40
3.411273122936548
 40
3.732441619741216
 40
3.761068217532916
 40
3.837787499630501
 40
3.948858699126113
 40
4.080541049104475
 40
4.219093782625869
 40
4.350776132722395
 40
4.461847332405746
 40
4.538566614678452
 40
4.567193212544716
 40
4.594907573998988
 40
4.666381453557513
 40
4.764111044011123
 40
4.870592538125969
 40
4.96832212864242
 40
5.039796008287105
 40
5.06751036978455
 40
5.094263603185745
 40
5.153120716668376
 40
5.211977830150822
 40
5.238731063551846
 40
5.272290535139128
 40
5.36338052944496
 40
5.497618415781623
 40
5.660621563453866
 40
5.838007341749581
 40
6.01539311991089
 40
6.178396267038529
 40
6.312634151842467
 40
6.403724143059499
 40
6.43728361267258
 40
6.464036846261202
 40
6.522893960004801
 40
6.581751071484099
 40
6.608504301591019
 40
6.637253941281152
 40
6.711397748902989
 40
6.812778057283602
 40
6.923237199249336
 40
7.024617507624022
 40
7.098761315207646
 40
7.127510946007625
 40
7.127510946007625
 40
7.127510946007625
 40
7.127510946007625
 10
78.54685927982217
 20
-114.6018027292363
 10
78.54685932273645
 20
-114.6132208798817
 10
78.5468594888786
 20
-114.6547414355426
 10
78.54685634894444
 20
-114.7388247939312
 10
78.54687586874579
 20
-114.8602490407457
 10
78.54678825953948
 20
-115.0004890734944
 10
78.54710866428879
 20
-115.1402284460232
 10
78.54615763173979
 20
-115.2628436250197
 10
78.54819490036246
 20
-115.3444232695885
 10
78.5399403586404
 20
-115.4975813431921
 10
78.84807683485585
 20
-115.3346916534215
 10
79.14006155813934
 20
-115.1654646270891
 10
79.14583248563656
 20
-115.3005616561497
 10
79.15054421275485
 20
-115.3441218023645
 10
79.15325058195752
 20
-115.3881815204634
 10
79.17225160806179
 20
-115.5375681103377
 10
78.76339126549597
 20
-115.4734822915563
 10
78.48436807564893
 20
-115.5873305998587
 10
78.20680519948246
 20
-115.6866530558575
 10
77.91498075920569
 20
-115.6439871380053
 10
77.89191150863157
 20
-115.7470772165236
 10
77.85874447909903
 20
-115.7733831015242
 10
77.85306243703957
 20
-115.7257409236059
 10
77.83341849667016
 20
-115.6884906528182
 10
77.81450598932804
 20
-115.6302201354933
 10
77.79928202753644
 20
-115.5864420038909
 10
77.75272167805953
 20
-115.4726998035059
 10
78.09408677201071
 20
-115.5045310027684
 10
78.3729619775043
 20
-115.5386796629042
 10
78.36677234425649
 20
-115.3911542491724
 10
78.36809058604302
 20
-115.3201625048806
 10
78.36748020976063
 20
-115.2130963343823
 10
78.3675841978382
 20
-115.0863087161089
 10
78.36799583717135
 20
-114.9518015790084
 10
78.3663878249626
 20
-114.8263385144571
 10
78.37098729755832
 20
-114.7152415467778
 10
78.36141569098677
 20
-114.6526751459621
 10
78.37539721913487
 20
-114.5943401310189
 10
78.3197354794362
 20
-114.6073969081465
 10
78.26256256054786
 20
-114.598930936474
 10
78.1666019333305
 20
-114.6029942531626
 10
78.06837379304781
 20
-114.6005851154441
 10
77.97225528652176
 20
-114.6047780078351
 10
77.91546189334682
 20
-114.5960005495573
 10
77.86003272810416
 20
-114.6093446454677
 10
77.87206498355741
 20
-114.5599249043764
 10
77.8641973581595
 20
-114.516354133665
 10
77.87162659714862
 20
-114.4719893227837
 10
77.86019009718007
 20
-114.421271036329
 10
77.92820727777904
 20
-114.4386694063915
 10
78.00184672874039
 20
-114.4261195115971
 10
78.13750344658682
 20
-114.432297243858
 10
78.29348794321825
 20
-114.4300019830381
 10
78.4665896765801
 20
-114.4308843313436
 10
78.63969133718388
 20
-114.4300019425449
 10
78.79567602188736
 20
-114.4322973844135
 10
78.93133222974544
 20
-114.4261191513446
 10
79.00497271133098
 20
-114.4386700717856
 10
79.07298845823811
 20
-114.4212702838475
 10
79.06155612935795
 20
-114.4719927098234
 10
79.06895098659541
 20
-114.5163234058579
 10
79.06120103199278
 20
-114.560010938467
 10
79.07311741495339
 20
-114.6096581129842
 10
79.01581406312742
 20
-114.5956799005846
 10
78.95701161974301
 20
-114.6048964572364
 10
78.85752640408572
 20
-114.6007713323197
 10
78.75442505060072
 20
-114.60206641371
 10
78.65878167622307
 20
-114.6017532431925
 10
78.59074383792746
 20
-114.6018062469975
 10
78.55644326211007
 20
-114.6018034952524
 10
78.54685927982217
 20
-114.6018027292363
 97
        1
330
B4
 75
     1
 76
     2
 52
45.0
 41
0.1
 77
     0
 78
     1
 53
45.0
 43
0.0
 44
0.0
 45
-0.282842712474619
 46
0.0
 79
     0
 98
        1
 10
0.0
 20
0.0
  0
HATCH
  5
D2
330
48
100
AcDbEntity
  8
1
  6
Continuous
 62
     2
100
AcDbHatch
 10
0.0
 20
0.0
 30
0.0
210
0.0
220
0.0
230
1.0
  2
CUSTOM8
 70
     0
 71
     1
 91
        1
 92
        1
 93
        1
 72
     4
 94
        3
 73
     0
 74
     0
 95
       91
 96
       87
 40
0.0
 40
0.0
 40
0.0
 40
0.0
 40
0.0345987051695576
 40
0.1258134969461511
 40
0.2547723404888703
 40
0.4026032099153699
 40
0.550434079341642
 40
0.6793929228835796
 40
0.7706077146570893
 40
0.805206428778064
 40
1.124852390615299
 40
1.427402236308901
 40
1.706356627453558
 40
1.955541417875235
 40
2.169485938566362
 40
2.344350786664811
 40
2.480568411561987
 40
2.590440557428997
 40
2.649189927151145
 40
2.749320643306358
 40
2.912632739880051
 40
3.147745656000261
 40
3.244827496385126
 40
3.338490056946745
 40
3.583815413207164
 40
3.761423943238526
 40
3.886956104362677
 40
3.98585545188687
 40
4.091766255337752
 40
4.250186473811915
 40
4.422734315084566
 40
4.628285684838625
 40
4.872093227758459
 40
5.152549652145566
 40
5.464967135837548
 40
5.803201477852467
 40
6.160362988813993
 40
6.193449448276034
 40
6.284170385501689
 40
6.419718138764573
 40
6.587285046385809
 40
6.774063446723737
 40
6.967245678113677
 40
7.154024078817734
 40
7.321590987026077
 40
7.45713874089045
 40
7.547859678556186
 40
7.580946138182732
 40
7.608533084714772
 40
7.669224367077724
 40
7.729915649429877
 40
7.757502595949937
 40
7.790278062553405
 40
7.880146277430889
 40
8.014419963180352
 40
8.180411842397852
 40
8.365434637679307
 40
8.556801071622637
 40
8.741823866830735
 40
8.907815745916302
 40
9.042089431507442
 40
9.131957646249553
 40
9.164733112797144
 40
9.415425063140127
 40
9.667986180958604
 40
9.694169807462714
 40
9.756607686047674
 40
9.83113031532255
 40
9.893568193900014
 40
9.91975182039883
 40
9.95096796469067
 40
9.996421631210808
 40
10.22087981037468
 40
10.4434186619756
 40
10.47847970788875
 40
10.57091337438773
 40
10.70159545461247
 40
10.85140174170377
 40
11.00120802880497
 40
11.13189010907399
 40
11.22432377583027
 40
11.25938480938972
 40
11.28697175596159
 40
11.3476630383593
 40
11.40835432042076
 40
11.43594125892109
 40
11.43594125892109
 40
11.43594125892109
 40
11.43594125892109
 10
80.18680847409468
 20
-114.0078660627181
 10
80.17527562525984
 20
-114.0078661110897
 10
80.13333798526561
 20
-114.0078662769272
 10
80.0484100126683
 20
-114.0078627559598
 10
79.92576589607864
 20
-114.00788474961
 10
79.7841177324651
 20
-114.0077860021984
 10
79.64297241061476
 20
-114.0081471516446
 10
79.51913217255617
 20
-114.007075177878
 10
79.43671882330396
 20
-114.0093715230562
 10
79.27777616373494
 20
-113.9998083202346
 10
79.45533727610334
 20
-114.3624400708552
 10
79.44297096131103
 20
-114.6078627367378
 10
79.51144898815222
 20
-114.8916690007206
 10
79.57429947286272
 20
-115.1277840145786
 10
79.6502223839386
 20
-115.3270266100076
 10
79.7353159984673
 20
-115.4828405394552
 10
79.82945780005934
 20
-115.583715436155
 10
79.93326186153848
 20
-115.6356354875792
 10
80.01758424384312
 20
-115.5842291701727
 10
80.04012925871098
 20
-115.4688485735938
 10
80.07957013830284
 20
-115.3414425169452
 10
80.02528901426001
 20
-115.0240707331013
 10
80.15011884801304
 20
-115.1704722125599
 10
80.30692619212607
 20
-115.2023410106571
 10
80.19976904147143
 20
-115.4360804362926
 10
80.18586816175248
 20
-115.6005662481323
 10
80.12846798748828
 20
-115.7289853227441
 10
80.03849905526657
 20
-115.8001059904406
 10
79.91452450655348
 20
-115.8159707725464
 10
79.76842436045175
 20
-115.7803560384271
 10
79.62938647279412
 20
-115.6602883089661
 10
79.5151974369802
 20
-115.4859371884657
 10
79.41961117091434
 20
-115.2608279828565
 10
79.33686229802836
 20
-114.9964115539045
 10
79.28571496640694
 20
-114.6784146829835
 10
79.18201596149952
 20
-114.4048567290798
 10
79.30928116161786
 20
-114.0002358278401
 10
79.14078610306755
 20
-114.0091703354721
 10
79.05619661947345
 20
-114.0071343997852
 10
78.92398467952847
 20
-114.0081546400847
 10
78.76104755017612
 20
-114.0077617107846
 10
78.57837295781903
 20
-114.0079370508352
 10
78.38970277810394
 20
-114.0076929608941
 10
78.20644394278467
 20
-114.0084374349065
 10
78.0454717240375
 20
-114.0061304087446
 10
77.90797787429327
 20
-114.0122959651322
 10
77.83395607799679
 20
-113.9999656293867
 10
77.7663185594514
 20
-114.0170007767333
 10
77.77823441269268
 20
-113.9650496294936
 10
77.77056476933512
 20
-113.9195797643036
 10
77.77825626327726
 20
-113.8741494769319
 10
77.76631122054187
 20
-113.8222700541233
 10
77.83335587135241
 20
-113.8391025790663
 10
77.90673460733338
 20
-113.8269399230423
 10
78.04290987129292
 20
-113.8330217032194
 10
78.20237822091696
 20
-113.8307456708184
 10
78.38391434934935
 20
-113.8314816739794
 10
78.57080052698363
 20
-113.8312344720076
 10
78.7517982724493
 20
-113.8314300059764
 10
78.91307729865358
 20
-113.8309716668206
 10
79.04438525325446
 20
-113.8321672764569
 10
79.12750217302538
 20
-113.8297805407715
 10
79.26062069554723
 20
-113.8379879567144
 10
79.1695863910316
 20
-113.5827653244424
 10
79.08396034820757
 20
-113.3186504306863
 10
79.20405594111122
 20
-113.3312495842773
 10
79.25642353562007
 20
-113.3333516563382
 10
79.32644679773728
 20
-113.3349400150723
 10
79.37218927454748
 20
-113.3442683385878
 10
79.42707830545903
 20
-113.3348343448146
 10
79.40135451933389
 20
-113.3829637274172
 10
79.28753679791106
 20
-113.3776257165273
 10
79.42093170287932
 20
-113.6058022682012
 10
79.29936291431294
 20
-113.8387254480097
 10
79.42731591770706
 20
-113.8294214251246
 10
79.50990188141186
 20
-113.8322839964222
 10
79.6357185258482
 20
-113.8310596398459
 10
79.77914402457156
 20
-113.8309696950793
 10
79.92073913593859
 20
-113.8328323821304
 10
80.05090976576251
 20
-113.8269632545974
 10
80.12434226938484
 20
-113.839590605737
 10
80.19410833297538
 20
-113.8215183828648
 10
80.18257430130535
 20
-113.8741655085057
 10
80.18831547543401
 20
-113.9180808371035
 10
80.18665861785684
 20
-113.9693941872033
 10
80.1867727969327
 20
-113.9987060937525
 10
80.18680847409468
 20
-114.0078660627181
 97
        1
330
B5
 75
     1
 76
     2
 52
45.0
 41
0.1
 77
     0
 78
     1
 53
45.0
 43
0.0
 44
0.0
 45
-0.282842712474619
 46
0.0
 79
     0
 98
        1
 10
0.0
 20
0.0
  0
HATCH
  5
D3
330
48
100
AcDbEntity
  8
1
  6
Continuous
 62
     2
100
AcDbHatch
 10
0.0
 20
0.0
 30
0.0
210
0.0
220
0.0
230
1.0
  2
CUSTOM9
 70
     0
 71
     1
 91
        1
 92
        1
 93
        1
 72
     4
 94
        3
 73
     0
 74
     0
 95
      118
 96
      114
 40
0.0
 40
0.0
 40
0.0
 40
0.0
 40
0.1054708162973237
 40
0.2466098270051902
 40
0.3965912874591302
 40
0.5285525069753905
 40
0.6156245055642379
 40
0.6431434105797733
 40
0.7036850037986367
 40
0.7642265984504708
 40
0.7917455052355152
 40
0.9287404319989896
 40
1.106572819088008
 40
1.287544879681039
 40
1.317578308030565
 40
1.3999280308572
 40
1.522968204799969
 40
1.675072986590609
 40
1.844616533180672
 40
2.019973001638749
 40
2.189516548880067
 40
2.341621331585375
 40
2.464661506320527
 40
2.5470112296471
 40
2.577044658168066
 40
2.603797890893108
 40
2.662655002908838
 40
2.72151211494965
 40
2.748265347702829
 40
2.774215307344892
 40
2.845959313407238
 40
2.954338556588428
 40
3.090194227585601
 40
3.244367517100559
 40
3.407699615844325
 40
3.571031714539475
 40
3.725205003920141
 40
3.861060674729631
 40
3.969439917716346
 40
4.041183923628995
 40
4.067133883213006
 40
4.311886746012144
 40
4.547897258335508
 40
4.764747083043962
 40
4.952749679951767
 40
5.045772974195862
 40
5.137862019644976
 40
5.330543169793007
 40
5.553448265244
 40
5.795083855888151
 40
6.043293412177214
 40
6.285761695541128
 40
6.31390290875264
 40
6.384255941793201
 40
6.47571488476679
 40
6.567173827758852
 40
6.637526860839602
 40
6.665668074073951
 40
6.692018920327927
 40
6.749990782071011
 40
6.807962643790377
 40
6.834313490017864
 40
6.856393084245143
 40
6.913335195649781
 40
6.99119481730243
 40
7.076026942283677
 40
7.153886563725196
 40
7.210828674844736
 40
7.232908268931086
 40
7.258199334923605
 40
7.324875781592242
 40
7.419142481924895
 40
7.527204308841833
 40
7.635266135230411
 40
7.729532834168383
 40
7.796209279292698
 40
7.821500344594641
 40
7.844652988850768
 40
7.899863140541504
 40
7.965759128053683
 40
8.020969279770979
 40
8.044121924046445
 40
8.069356610160531
 40
8.109134395441309
 40
8.13223810019101
 40
8.193147867786386
 40
8.279261678876559
 40
8.377977512673787
 40
8.476693347146572
 40
8.56280716041163
 40
8.623716930826426
 40
8.64682063685337
 40
8.671988793774212
 40
8.734909185828094
 40
8.816705695188794
 40
8.898502204815394
 40
8.961422597377855
 40
8.986590754550981
 40
9.01294160073315
 40
9.07091346238024
 40
9.128885324081757
 40
9.155236170325061
 40
9.180404327929075
 40
9.243324721948163
 40
9.325121234211956
 40
9.406917746637639
 40
9.469838141978094
 40
9.495006288270883
 40
9.517811184379024
 40
9.572192090487004
 40
9.637098333281227
 40
9.691479239515399
 40
9.714284125643442
 40
9.714284125643442
 40
9.714284125643442
 40
9.714284125643442
 10
75.39244394363106
 20
-114.2914023820917
 10
75.41409609766951
 20
-114.3191753215408
 10
75.4647227517131
 20
-114.3841134683566
 10
75.53993536102494
 20
-114.4913834108399
 10
75.62984526820037
 20
-114.6065196313026
 10
75.67591400843308
 20
-114.7067235564857
 10
75.77057957023126
 20
-114.7759539458195
 10
75.72544097280701
 20
-114.8225776171861
 10
75.69970181934474
 20
-114.8636909253085
 10
75.66951671156698
 20
-114.8996342966895
 10
75.62436551382187
 20
-114.9744961880079
 10
75.57604748662202
 20
-114.7524687714329
 10
75.50185101207309
 20
-114.7151872405918
 10
75.38860177322633
 20
-114.4441919926629
 10
75.39351039858276
 20
-114.5593407295066
 10
75.3918456963963
 20
-114.6319272561527
 10
75.39268004843723
 20
-114.7540381291291
 10
75.39235799479212
 20
-114.9011560058643
 10
75.39250473201135
 20
-115.0672233744034
 10
75.39229205003795
 20
-115.2384184678829
 10
75.39294676596911
 20
-115.404765727614
 10
75.39091628687972
 20
-115.550942283412
 10
75.39634308075875
 20
-115.6755835392228
 10
75.38549012763656
 20
-115.7431074485626
 10
75.40067095632122
 20
-115.8048033997987
 10
75.35078655157912
 20
-115.7930189749989
 10
75.30671207501791
 20
-115.8008557861692
 10
75.2632342037858
 20
-115.7926896002419
 10
75.21423171941458
 20
-115.8049134465843
 10
75.22687016424824
 20
-115.7506873414758
 10
75.21801533761068
 20
-115.6909248248933
 10
75.2225029177971
 20
-115.5810737235253
 10
75.22079305436479
 20
-115.4499942599121
 10
75.2213521323644
 20
-115.2983138995257
 10
75.2211899176351
 20
-115.1381832646694
 10
75.22122403323317
 20
-114.9779253572233
 10
75.2212485367784
 20
-114.8265915387646
 10
75.22114239508828
 20
-114.6944724505829
 10
75.22142695495883
 20
-114.587345988637
 10
75.22086459552249
 20
-114.5222078181742
 10
75.22307354913468
 20
-114.3941044353823
 10
75.13694064062598
 20
-114.7693179100532
 10
75.0605111226158
 20
-114.921112082735
 10
74.97100111754906
 20
-115.0826319495058
 10
74.86903836249842
 20
-115.3555755257672
 10
74.8237946898696
 20
-115.1931205480038
 10
74.71523263493283
 20
-115.1042396933877
 10
74.904576215941
 20
-114.9547960643549
 10
74.96153109533574
 20
-114.7628026442196
 10
75.07674914010092
 20
-114.5312977849014
 10
75.09901220377904
 20
-114.3423214163783
 10
75.28218755597965
 20
-114.0657531207095
 10
75.15880040052095
 20
-114.073304225648
 10
75.09756545744908
 20
-114.0717262903077
 10
75.01319700247215
 20
-114.0714680882323
 10
74.92542054936227
 20
-114.0748455564569
 10
74.87067391037804
 20
-114.0663458641488
 10
74.8154673433682
 20
-114.079808403471
 10
74.8272793443194
 20
-114.0309795927013
 10
74.81924665594511
 20
-113.9876039650018
 10
74.82781565123358
 20
-113.9451996308731
 10
74.81529138168143
 20
-113.8976160484478
 10
74.86050719463925
 20
-113.9076218840178
 10
74.90647859703816
 20
-113.9013529622284
 10
74.98271924553676
 20
-113.9043583999102
 10
75.06112665396515
 20
-113.9025895311835
 10
75.137396305659
 20
-113.9056460741523
 10
75.1832979867132
 20
-113.8992543002071
 10
75.22817043730575
 20
-113.90935578418
 10
75.21555226832905
 20
-113.8587219981499
 10
75.2241906990364
 20
-113.8052813951483
 10
75.22023320030999
 20
-113.7116614626521
 10
75.2212295475992
 20
-113.6091679470798
 10
75.22218978207304
 20
-113.5067613114873
 10
75.21831818656625
 20
-113.4129347178758
 10
75.22677602220222
 20
-113.3599285855654
 10
75.21430463404924
 20
-113.3081796574571
 10
75.25920767975074
 20
-113.3217865417014
 10
75.30050542444292
 20
-113.3192892107631
 10
75.36453146887078
 20
-113.3238134082241
 10
75.40360815564435
 20
-113.3324839835357
 10
75.45265139063997
 20
-113.3251429932621
 10
75.42750504382481
 20
-113.3642650534513
 10
75.38658717413809
 20
-113.3546555894108
 10
75.39600800242616
 20
-113.4048925322711
 10
75.3905617726404
 20
-113.456434557574
 10
75.39316700094606
 20
-113.5406969381237
 10
75.3920072609812
 20
-113.6347026581348
 10
75.39335614718887
 20
-113.7283253600136
 10
75.38999405091661
 20
-113.8134988384467
 10
75.39709303254264
 20
-113.8631254532485
 10
75.38625395622033
 20
-113.910357064269
 10
75.43539806329028
 20
-113.8982772646004
 10
75.48448480378046
 20
-113.9058200803388
 10
75.5623684688299
 20
-113.9034333103546
 10
75.64003355805532
 20
-113.9013001949148
 10
75.68953643390125
 20
-113.9083600947443
 10
75.7394565158297
 20
-113.8966924946067
 10
75.72731689245384
 20
-113.944891660255
 10
75.73558086368016
 20
-113.9878018159566
 10
75.72731690584406
 20
-114.0307119954551
 10
75.73945649575124
 20
-114.0789111264203
 10
75.68953655664038
 20
-114.0672436692538
 10
75.64003210588606
 20
-114.0743019896185
 10
75.56237547906302
 20
-114.0721773616829
 10
75.48446142734178
 20
-114.0697601203114
 10
75.43544707603733
 20
-114.077375532024
 10
75.38632165166003
 20
-114.065214488393
 10
75.39655303962289
 20
-114.1095638797274
 10
75.39066480857107
 20
-114.1510396519398
 10
75.39287587132269
 20
-114.2111400708159
 10
75.39240797538031
 20
-114.25803618634
 10
75.3924357400571
 20
-114.2837925497869
 10
75.39244394363106
 20
-114.2914023820917
 97
        1
330
B6
 75
     1
 76
     2
 52
45.0
 41
0.1
 77
     0
 78
     1
 53
45.0
 43
0.0
 44
0.0
 45
-0.282842712474619
 46
0.0
 79
     0
 98
        1
 10
0.0
 20
0.0
  0
HATCH
  5
D4
330
48
100
AcDbEntity
  8
1
  6
Continuous
 62
     2
100
AcDbHatch
 10
0.0
 20
0.0
 30
0.0
210
0.0
220
0.0
230
1.0
  2
CUSTOM10
 70
     0
 71
     1
 91
        1
 92
        1
 93
        1
 72
     4
 94
        3
 73
     0
 74
     0
 95
       47
 96
       43
 40
0.0
 40
0.0
 40
0.0
 40
0.0
 40
0.2207912809957237
 40
0.4459404186303292
 40
0.4902387190459965
 40
0.5327473892722674
 40
0.5742260451226098
 40
0.6155432630561382
 40
0.6568164066316438
 40
0.6982511618781305
 40
0.7407663929317748
 40
0.7851366743175798
 40
1.0102888338364
 40
1.231080507002255
 40
1.451765243652489
 40
1.676638205891709
 40
1.720461045359688
 40
1.830018144043581
 40
1.972442372353246
 40
2.114866600677619
 40
2.224423699395278
 40
2.26824653888352
 40
2.493628801207302
 40
2.715602830286676
 40
2.934211330706451
 40
3.149502369855396
 40
3.231387784851037
 40
3.318231873854073
 40
3.405143198198075
 40
3.486970301720521
 40
3.702258172493909
 40
3.920866283534155
 40
4.142839325931937
 40
4.368221903865333
 40
4.412044743359829
 40
4.521601842095848
 40
4.664026070452366
 40
4.806450298809096
 40
4.916007397546792
 40
4.959830237043136
 40
5.184703515847104
 40
5.4053872507675
 40
5.4053872507675
 40
5.4053872507675
 40
5.4053872507675
 10
72.75573976663026
 20
-113.8262296044302
 10
72.76181098276604
 20
-113.7627091889568
 10
72.77407325149
 20
-113.6344146270726
 10
72.665467728707
 20
-113.3586318122282
 10
72.78119563042608
 20
-113.3884126796483
 10
72.8221812916673
 20
-113.3926384513408
 10
72.86411762051753
 20
-113.3971895500728
 10
72.90541670333678
 20
-113.398274184674
 10
72.94670025232129
 20
-113.3971906320166
 10
72.98861186783049
 20
-113.3926328868556
 10
73.02959539566763
 20
-113.3884197118716
 10
73.14548932511467
 20
-113.3585179007937
 10
73.03456231351137
 20
-113.63689594787
 10
73.0624826772924
 20
-113.8174626057194
 10
73.04542377546271
 20
-114.0506835905042
 10
73.04646076897599
 20
-114.2112277885374
 10
73.04640698070615
 20
-114.3374458383817
 10
73.0464247780138
 20
-114.4360043806065
 10
73.04641589887375
 20
-114.5674869895393
 10
73.04642343356909
 20
-114.6989655642825
 10
73.04640998127857
 20
-114.797531787028
 10
73.04645021251491
 20
-114.9238966577275
 10
73.04567168114754
 20
-115.0854733257403
 10
73.06159287269237
 20
-115.3166757950398
 10
73.03834392930649
 20
-115.5015504942489
 10
73.14101538520234
 20
-115.7709379862683
 10
72.98702087704937
 20
-115.7336928871108
 10
72.90541002104898
 20
-115.7389140671636
 10
72.823816270024
 20
-115.7336878101854
 10
72.66984840745002
 20
-115.770923315115
 10
72.77241538295748
 20
-115.5015427153401
 10
72.74920157237456
 20
-115.3166781607148
 10
72.7650415062796
 20
-115.0854718283125
 10
72.76432667210854
 20
-114.9238968908839
 10
72.76436349775642
 20
-114.7975317018638
 10
72.7643519407928
 20
-114.6989664476091
 10
72.76435454268719
 20
-114.5674827397967
 10
72.76436189394363
 20
-114.4360185336569
 10
72.7643412949009
 20
-114.3374161512156
 10
72.76440525996858
 20
-114.2113325204246
 10
72.76317043552474
 20
-114.0481931001312
 10
72.75820108044027
 20
-113.8997521761934
 10
72.75573976663026
 20
-113.8262296044302
 97
        1
330
B7
 75
     1
 76
     2
 52
45.0
 41
0.1
 77
     0
 78
     1
 53
45.0
 43
0.0
 44
0.0
 45
-0.282842712474619
 46
0.0
 79
     0
 98
        1
 10
0.0
 20
0.0
  0
HATCH
  5
D5
330
48
100
AcDbEntity
  8
1
  6
Continuous
 62
     2
100
AcDbHatch
 10
0.0
 20
0.0
 30
0.0
210
0.0
220
0.0
230
1.0
  2
CUSTOM11
 70
     0
 71
     1
 91
        1
 92
        1
 93
        1
 72
     4
 94
        3
 73
     0
 74
     0
 95
      110
 96
      106
 40
0.0
 40
0.0
 40
0.0
 40
0.0
 40
0.2203406257277708
 40
0.4407808782838113
 40
0.5952494494614813
 40
0.7488431659393113
 40
0.902358183130852
 40
1.056801968670421
 40
1.210736449099865
 40
1.363041386539728
 40
1.515315729683072
 40
1.669377239148051
 40
1.721611652756578
 40
1.773199502942973
 40
1.824933793210016
 40
1.877110426487989
 40
1.982682281206739
 40
2.07878166708758
 40
2.172809640822311
 40
2.271937807378924
 40
2.378349933379332
 40
2.494131557736547
 40
2.626681683943681
 40
2.783145050796123
 40
2.890701232941
 40
2.993130312454902
 40
3.099869730691846
 40
3.220237816691338
 40
3.35269548273767
 40
3.481732806389925
 40
3.593499473690405
 40
3.67432301333197
 40
3.817951711952891
 40
3.946167120793905
 40
4.061405053453587
 40
4.166480796003241
 40
4.262478775059324
 40
4.350736673551225
 40
4.433071991254107
 40
4.51121629381472
 40
4.564262454118053
 40
4.618474415571675
 40
4.670128488754215
 40
4.722296879126422
 40
4.819540945314304
 40
4.931194984128133
 40
5.049996040257789
 40
5.168643755415335
 40
5.283970811762575
 40
5.392260784910402
 40
5.486512254876447
 40
5.559178233949846
 40
5.591425852853572
 40
5.626215969637992
 40
5.667155838674493
 40
5.717449290214272
 40
5.738402360944884
 40
5.784499116553842
 40
5.830595872164817
 40
5.851548942897675
 40
5.873019280661775
 40
5.924217778408329
 40
5.985325662817711
 40
6.036524160567732
 40
6.057994498334248
 40
6.236847789607508
 40
6.381409928945694
 40
6.493190424178704
 40
6.574067534230567
 40
6.691018086205675
 40
6.814881554220579
 40
6.944307823240574
 40
7.071266716066183
 40
7.193488604462
 40
7.309042773128255
 40
7.414007203170894
 40
7.505140441886606
 40
7.531150360599736
 40
7.559221645322333
 40
7.587202218920983
 40
7.612569159499191
 40
7.662550809481093
 40
7.702878875764151
 40
7.857328205230963
 40
8.010799568088594
 40
8.165256399657572
 40
8.322232698713883
 40
8.479564855016584
 40
8.635216230290773
 40
8.79088255092569
 40
8.948305154947212
 40
9.168271839032853
 40
9.38735898098713
 40
9.608047961033346
 40
9.832914234792538
 40
9.858338694962852
 40
9.92536681722987
 40
10.02013071422748
 40
10.12876249858986
 40
10.23739428295238
 40
10.3321581799518
 40
10.39918630222385
 40
10.42461076239773
 40
10.6499201933693
 40
10.87188524531179
 40
10.87188524531179
 40
10.87188524531179
 40
10.87188524531179
 10
70.01077587842758
 20
-113.821061409987
 10
70.01428353411987
 20
-113.7541293932308
 10
70.021300439532
 20
-113.6202350948104
 10
69.92479980067304
 20
-113.3348084642541
 10
70.1560105133766
 20
-113.3974501520661
 10
70.29692604648136
 20
-113.390278473409
 10
70.4540388165246
 20
-113.3979351831865
 10
70.60758838349452
 20
-113.3977664911385
 10
70.75950753427382
 20
-113.3984736086145
 10
70.91921852208887
 20
-113.3881924304526
 10
71.0458943008775
 20
-113.4053289031614
 10
71.24207915297376
 20
-113.3330214128974
 10
71.20843656867363
 20
-113.4338870231678
 10
71.21019817248416
 20
-113.4841014744922
 10
71.20773124811163
 20
-113.5331706581043
 10
71.23970473736684
 20
-113.619659105499
 10
71.10603703109136
 20
-113.5703196278856
 10
71.02221790957142
 20
-113.5759876708272
 10
70.92238315469814
 20
-113.565638846906
 10
70.82365471278035
 20
-113.559429509858
 10
70.71715031787679
 20
-113.5533163758011
 10
70.59604821057171
 20
-113.5444051791231
 10
70.47533519101108
 20
-113.5550779548451
 10
70.28625242510941
 20
-113.4956089831652
 10
70.31789989129686
 20
-113.6547108131935
 10
70.30455337244913
 20
-113.7519027305699
 10
70.30249288341076
 20
-113.8639533628679
 10
70.30081584523288
 20
-113.9832971576754
 10
70.302330720189
 20
-114.1099680924178
 10
70.30065528863278
 20
-114.2372781338078
 10
70.31088146793157
 20
-114.3357783499243
 10
70.28289770042394
 20
-114.4764069877127
 10
70.45580004069627
 20
-114.420398502628
 10
70.5694990610429
 20
-114.4330944991838
 10
70.68901220798966
 20
-114.4258102434564
 10
70.79384618327295
 20
-114.4215138434014
 10
70.88930553062693
 20
-114.4169883313791
 10
70.98137939146898
 20
-114.4088020025069
 10
71.05265221900962
 20
-114.4138555075878
 10
71.15949021133426
 20
-114.3749297636522
 10
71.12765740056932
 20
-114.4551227939102
 10
71.13161349115879
 20
-114.5046646455086
 10
71.128447279967
 20
-114.5547192335708
 10
71.16007618982424
 20
-114.6390055378487
 10
71.02601040853489
 20
-114.5860403590174
 10
70.93422932008576
 20
-114.5948932050645
 10
70.81296995972602
 20
-114.5845935143174
 10
70.69640835274292
 20
-114.5828048962939
 10
70.5833346153536
 20
-114.5824238428719
 10
70.47292167161285
 20
-114.5761395192471
 10
70.39480944754978
 20
-114.5884026814153
 10
70.29635962413012
 20
-114.5557551378076
 10
70.30623255812188
 20
-114.6125965334269
 10
70.30238936520601
 20
-114.6463727083891
 10
70.3016760291926
 20
-114.6890979668749
 10
70.30133400506334
 20
-114.7262779413474
 10
70.3013804663003
 20
-114.7654216402612
 10
70.30136198375845
 20
-114.8031255189921
 10
70.30136738394646
 20
-114.8408444616449
 10
70.30136676218582
 20
-114.8703507665174
 10
70.30136685592032
 20
-114.9015582369759
 10
70.30136746955782
 20
-114.9461497648881
 10
70.3013641906995
 20
-115.0006544488804
 10
70.30137300311384
 20
-115.0452386119544
 10
70.30133300610754
 20
-115.1291159281115
 10
70.3025994677913
 20
-115.2429188071922
 10
70.30002445254988
 20
-115.3919900546318
 10
70.31149797893777
 20
-115.4943219758298
 10
70.28734766299202
 20
-115.6269049751107
 10
70.43829643541336
 20
-115.5813366912488
 10
70.54784070792132
 20
-115.5960238923455
 10
70.67839408815777
 20
-115.5910896627183
 10
70.8040282617171
 20
-115.5877169607353
 10
70.92387010332587
 20
-115.5831790389812
 10
71.04413330190837
 20
-115.5698086521489
 10
71.1272732071173
 20
-115.579606886143
 10
71.25060508287312
 20
-115.5190318677357
 10
71.22942396116142
 20
-115.5749694126287
 10
71.2285920677774
 20
-115.6009015202455
 10
71.22689341152154
 20
-115.6283214520595
 10
71.22679452964869
 20
-115.6629120619051
 10
71.2253629708987
 20
-115.6997899317612
 10
71.25827745998473
 20
-115.7918256037508
 10
71.06012773957646
 20
-115.7189738542206
 10
70.93505187025481
 20
-115.7420367488828
 10
70.77230417028133
 20
-115.7357537941111
 10
70.61793368576583
 20
-115.7376845748696
 10
70.4616640844601
 20
-115.7363563879763
 10
70.30205148729392
 20
-115.7396952890903
 10
70.15902967498943
 20
-115.7276360566865
 10
69.92471152892863
 20
-115.7907739941997
 10
70.02237811588546
 20
-115.5040887393057
 10
70.00568391877164
 20
-115.3104109325423
 10
70.01962671173423
 20
-115.081811585166
 10
70.0192958254289
 20
-114.9264480744184
 10
70.01930485269209
 20
-114.8206306495277
 10
70.01930262839733
 20
-114.7582361727268
 10
70.01930359595465
 20
-114.6680897614857
 10
70.01930358809184
 20
-114.5640823423945
 10
70.01930242687597
 20
-114.4600727002159
 10
70.019306137916
 20
-114.3699315770813
 10
70.01929814587079
 20
-114.3075259829967
 10
70.01933046826765
 20
-114.2016056543578
 10
70.01814111959763
 20
-114.0440268485214
 10
70.01321868969137
 20
-113.8950118157483
 10
70.01077587842758
 20
-113.821061409987
 97
        1
330
B8
 75
     1
 76
     2
 52
45.0
 41
0.1
 77
     0
 78
     1
 53
45.0
 43
0.0
 44
0.0
 45
-0.282842712474619
 46
0.0
 79
     0
 98
        1
 10
0.0
 20
0.0
  0
HATCH
  5
D6
330
48
100
AcDbEntity
  8
1
  6
Continuous
 62
     2
100
AcDbHatch
 10
0.0
 20
0.0
 30
0.0
210
0.0
220
0.0
230
1.0
  2
CUSTOM12
 70
     0
 71
     1
 91
        1
 92
        1
 93
        1
 72
     4
 94
        3
 73
     0
 74
     0
 95
       95
 96
       91
 40
0.0
 40
0.0
 40
0.0
 40
0.0
 40
0.6550406656911437
 40
1.308087289031935
 40
1.420803739835813
 40
1.566130759770809
 40
1.757067341888515
 40
2.006513545026547
 40
2.087328263121617
 40
2.185328872295644
 40
2.294612454748397
 40
2.408936380534809
 40
2.526802767798565
 40
2.646360524615593
 40
2.762535723971608
 40
2.87005734287016
 40
2.96688344843168
 40
3.050803243518312
 40
3.115818222436622
 40
3.156030057150215
 40
3.21391422508018
 40
3.276689026450553
 40
3.342960320981343
 40
3.404230667150602
 40
3.453822809493345
 40
3.532499827188384
 40
3.634775188507177
 40
3.754909333008151
 40
3.889736761660679
 40
4.035769602175178
 40
4.187256681197617
 40
4.338733685675924
 40
4.488478734676129
 40
4.634708317831573
 40
4.771493189921251
 40
4.892686571561216
 40
5.199775528944443
 40
5.460353566929609
 40
5.667603142345501
 40
5.814722905404484
 40
5.828990806219824
 40
5.855488336304479
 40
5.869756237118811
 40
6.189796507762801
 40
6.531890469873003
 40
6.883053637016991
 40
7.230512024911422
 40
7.566966656764582
 40
7.885203559707416
 40
8.172887439719197
 40
8.418011594062742
 40
8.443926721190687
 40
8.510760470613173
 40
8.602145393795661
 40
8.701714041647103
 40
8.793098965075353
 40
8.859932715057932
 40
8.885847842603562
 40
9.242301256612741
 40
9.589275455016672
 40
9.921808543164131
 40
10.23479624298464
 40
10.29968150889173
 40
10.35323493887758
 40
10.40154625355143
 40
10.46482922477822
 40
10.55973900668405
 40
10.69239545985619
 40
10.8492035347567
 40
11.01626328594776
 40
11.18672024367442
 40
11.35372582577208
 40
11.50257442292426
 40
11.6186649502329
 40
11.71329869152873
 40
11.82511050573902
 40
11.94464880845713
 40
12.06929242642504
 40
12.19707290435176
 40
12.32562632860525
 40
12.45034565331279
 40
12.56646595170324
 40
12.67099007414632
 40
12.76077625936781
 40
12.82703233506694
 40
12.87429132785992
 40
12.89831990323333
 40
12.9223484786002
 40
13.53984767410326
 40
14.18294284359368
 40
14.18294284359368
 40
14.18294284359368
 40
14.18294284359368
 10
67.41179060556783
 20
-114.8513136319517
 10
67.2801990166208
 20
-114.7376434279366
 10
67.01741642103858
 20
-114.5106490508073
 10
66.50473638486794
 20
-113.6681493844061
 10
66.51566250030197
 20
-114.0260602381987
 10
66.50911969356483
 20
-114.1676200912476
 10
66.507799703943
 20
-114.3660809609762
 10
66.50680880101955
 20
-114.5387910535092
 10
66.50740721596321
 20
-114.6816402813931
 10
66.50889647095404
 20
-114.7776439598353
 10
66.510565399613
 20
-114.8848389813375
 10
66.51219053622748
 20
-114.9986518987931
 10
66.51423999093436
 20
-115.115878287923
 10
66.51731359095841
 20
-115.2337299016392
 10
66.52063101047014
 20
-115.3480131407627
 10
66.52435757479364
 20
-115.4550799952962
 10
66.5267308569082
 20
-115.5502199262997
 10
66.53286892960142
 20
-115.6347084419119
 10
66.52897549036042
 20
-115.6910631409875
 10
66.55052008507356
 20
-115.7620437892453
 10
66.47309104662754
 20
-115.7312672379242
 10
66.41663236478482
 20
-115.7401815887928
 10
66.35904663044647
 20
-115.7313318299862
 10
66.27401338861297
 20
-115.7629117617094
 10
66.30596845540403
 20
-115.679342454047
 10
66.30406756901962
 20
-115.6114679242858
 10
66.31579304549575
 20
-115.5079614463248
 10
66.32142114606573
 20
-115.390272757802
 10
66.32878725865986
 20
-115.2564079223247
 10
66.33707301092686
 20
-115.1126524852426
 10
66.34488223050845
 20
-114.9631537855345
 10
66.35075416303152
 20
-114.8123685199482
 10
66.35536382256262
 20
-114.6632945751846
 10
66.35926025251996
 20
-114.5190648823387
 10
66.3620685534221
 20
-114.3844549618387
 10
66.36266691626807
 20
-114.1955978704954
 10
66.36659942748074
 20
-113.9705390708374
 10
66.34921457861563
 20
-113.6966231027118
 10
66.39003877502404
 20
-113.532422892983
 10
66.30451236636591
 20
-113.3327973993178
 10
66.37105293153458
 20
-113.3364394299292
 10
66.38886946808881
 20
-113.3361595423604
 10
66.51067722051604
 20
-113.3339647399826
 10
66.61307407431197
 20
-113.6135428267539
 10
66.8629991917013
 20
-113.8146639286089
 10
67.09200057387679
 20
-114.0823678640897
 10
67.3295121620766
 20
-114.3338298753452
 10
67.55360611484294
 20
-114.5705942733553
 10
67.78006866906664
 20
-114.8281070881382
 10
67.93756582941708
 20
-114.9438006633997
 10
68.15221000203337
 20
-115.280322488581
 10
68.14726163822753
 20
-115.1556464730528
 10
68.14839020102048
 20
-115.0970170946115
 10
68.14788482491738
 20
-115.0098573902491
 10
68.14804455657709
 20
-114.9161325821402
 10
68.14800252989757
 20
-114.8301043009985
 10
68.1480172448031
 20
-114.768755094514
 10
68.14796766636395
 20
-114.6189416987587
 10
68.15087819304694
 20
-114.3803978888679
 10
68.13094914488182
 20
-114.0154289152819
 10
68.18004043439055
 20
-113.7522976940348
 10
68.02279219168376
 20
-113.3410049644914
 10
68.18120832800788
 20
-113.3963111884514
 10
68.23616508862857
 20
-113.3982971489671
 10
68.28778581743973
 20
-113.3976462314863
 10
68.37631693730239
 20
-113.3565987365865
 10
68.32548687108256
 20
-113.503330747739
 10
68.33633603379408
 20
-113.6100942944246
 10
68.32160074025043
 20
-113.7694369598278
 10
68.31499468538621
 20
-113.9317633974402
 10
68.3064931807572
 20
-114.1003687950449
 10
68.29931976098567
 20
-114.2621458669335
 10
68.29390336230463
 20
-114.4060706993896
 10
68.29216843753058
 20
-114.5259190792997
 10
68.29254110799761
 20
-114.6334329980637
 10
68.292362653392
 20
-114.742093767513
 10
68.29269812707976
 20
-114.8607583123136
 10
68.29400110298414
 20
-114.9847423788415
 10
68.29588577592315
 20
-115.1117110722578
 10
68.29749748625076
 20
-115.2387553984586
 10
68.29913735450876
 20
-115.3617451690471
 10
68.30125411534088
 20
-115.4772847001313
 10
68.30138188300216
 20
-115.5793849744105
 10
68.30564848042117
 20
-115.6701955255873
 10
68.29584104929471
 20
-115.728157801881
 10
68.31684451793474
 20
-115.7951227126487
 10
68.27756101475545
 20
-115.787382474302
 10
68.06452775254049
 20
-115.8027414725171
 10
67.86862683508434
 20
-115.2462634330242
 10
67.56611680392014
 20
-114.9847336604838
 10
67.41179060556783
 20
-114.8513136319517
 97
        1
330
B9
 75
     1
 76
     2
 52
45.0
 41
0.1
 77
     0
 78
     1
 53
45.0
 43
0.0
 44
0.0
 45
-0.282842712474619
 46
0.0
 79
     0
 98
        1
 10
0.0
 20
0.0
  0
HATCH
  5
D7
330
48
100
AcDbEntity
  8
1
  6
Continuous
 62
     2
100
AcDbHatch
 10
0.0
 20
0.0
 30
0.0
210
0.0
220
0.0
230
1.0
  2
CUSTOM13
 70
     0
 71
     1
 91
        2
 92
        1
 93
        1
 72
     4
 94
        3
 73
     0
 74
     0
 95
       57
 96
       53
 40
0.0
 40
0.0
 40
0.0
 40
0.0
 40
0.0471632082808868
 40
0.0914861054632221
 40
0.1357762519702315
 40
0.1826527001610894
 40
0.229520328857266
 40
0.2737751972220546
 40
0.3181310461543281
 40
0.365260719839838
 40
0.4571007286313643
 40
0.5671851029164803
 40
0.6894623283867971
 40
0.8181758272545478
 40
0.9510087229273363
 40
1.085852229673955
 40
1.218126164475234
 40
1.34354513114236
 40
1.45453720295679
 40
1.567187607530813
 40
1.680710966642424
 40
1.794226869736767
 40
1.900009184247588
 40
2.004085860447832
 40
2.108162674451734
 40
2.214000150155285
 40
2.496038577352162
 40
2.76235074547929
 40
2.997275353279421
 40
3.185110082137709
 40
3.246407890063923
 40
3.312607550212704
 40
3.37887774271157
 40
3.440140399651434
 40
4.100501696006421
 40
4.754913085563438
 40
5.411331693423848
 40
6.077890432568662
 40
6.110575292670948
 40
6.143260152775721
 40
6.367989363395088
 40
6.610525374951462
 40
6.863389136467255
 40
7.119380025547575
 40
7.376036605091046
 40
7.631164770966219
 40
7.876722425456364
 40
8.104953735855888
 40
8.31291668592426
 40
8.497730294941292
 40
8.651018984313835
 40
8.764738853624491
 40
8.764738853624491
 40
8.764738853624491
 40
8.764738853624491
 10
64.89726199081707
 20
-115.7440266178396
 10
64.88165871345883
 20
-115.7420317031781
 10
64.85139183679597
 20
-115.7381620003659
 10
64.80609646099101
 20
-115.7368741642963
 10
64.76095235370059
 20
-115.7372071784284
 10
64.7148987531057
 20
-115.7371474272267
 10
64.66904665797537
 20
-115.7370358774689
 10
64.6233682055822
 20
-115.737515679403
 10
64.58007819492659
 20
-115.7356829177817
 10
64.50899183591713
 20
-115.7597984458222
 10
64.51074476690984
 20
-115.6384470741964
 10
64.46361667782271
 20
-115.5530316164566
 10
64.42414486594195
 20
-115.4354247205175
 10
64.37566059403028
 20
-115.3179664885645
 10
64.32509878101796
 20
-115.1962346563539
 10
64.27686050181346
 20
-115.0695343353443
 10
64.21852033552517
 20
-114.9609571361194
 10
64.20308630749192
 20
-114.8040874426248
 10
64.06165567382928
 20
-114.8365595484857
 10
63.95583678225611
 20
-114.8251651271471
 10
63.84085401328792
 20
-114.8263680988227
 10
63.73031126597982
 20
-114.8252245604948
 10
63.62265539304404
 20
-114.8261105135936
 10
63.51712929369002
 20
-114.8261279900637
 10
63.41591630896702
 20
-114.8331536892447
 10
63.23167752354105
 20
-114.8089354153702
 10
63.22073640930684
 20
-115.11287710275
 10
63.11376620424083
 20
-115.336762241435
 10
63.01481190120036
 20
-115.5213408710439
 10
63.02750609316652
 20
-115.7649919659267
 10
62.91000621240542
 20
-115.735213546437
 10
62.84720262759676
 20
-115.7377131188729
 10
62.78358425010573
 20
-115.7368532629409
 10
62.49959846017318
 20
-115.7793136145491
 10
63.13016089070389
 20
-115.0594744895212
 10
63.2137615696729
 20
-114.5475286196116
 10
63.59792231969953
 20
-114.0267565784685
 10
63.58271786962229
 20
-113.3250977514367
 10
63.82892361303544
 20
-113.3368376831564
 10
63.93063165652192
 20
-113.3280439694411
 10
63.92997224434747
 20
-113.5796975066655
 10
64.0478287563486
 20
-113.7621138066293
 10
64.13654856681428
 20
-114.0046566073403
 10
64.2372262892916
 20
-114.2368937086677
 10
64.3361113119901
 20
-114.4735475682998
 10
64.43496473983257
 20
-114.705676622268
 10
64.53061367985839
 20
-114.929071786081
 10
64.62098749809289
 20
-115.1375685234757
 10
64.7039914975847
 20
-115.3272095286757
 10
64.77760589904562
 20
-115.493662953288
 10
64.83927863032025
 20
-115.631117017708
 10
64.87994292932613
 20
-115.7103016196686
 10
64.89726199081707
 20
-115.7440266178396
 97
        1
330
BB
 92
       16
 93
        1
 72
     4
 94
        3
 73
     0
 74
     0
 95
       25
 96
       21
 40
0.0
 40
0.0
 40
0.0
 40
0.0
 40
0.091147996906461
 40
0.1858117896204158
 40
0.2804128399734405
 40
0.3715889190713857
 40
0.4679080494218197
 40
0.5642683809229427
 40
0.6605683222644548
 40
0.7569653015810094
 40
0.8561348172522496
 40
1.092615965104277
 40
1.37486765814185
 40
1.611348812011561
 40
1.710518328425209
 40
1.809403163726535
 40
2.045205463294044
 40
2.32664691762208
 40
2.562449217190534
 40
2.661334043833844
 40
2.661334043833844
 40
2.661334043833844
 40
2.661334043833844
 10
63.3733670974857
 20
-114.674148631996
 10
63.40374963255804
 20
-114.6743132168234
 10
63.46568662967691
 20
-114.6746487270697
 10
63.55913273679877
 20
-114.6776034594489
 10
63.65250656440146
 20
-114.6805164851974
 10
63.74677311611336
 20
-114.6813519975347
 10
63.84049351986243
 20
-114.6803275673884
 10
63.94020107108622
 20
-114.6811242392592
 10
64.02389199539702
 20
-114.6710799116167
 10
64.16879667227028
 20
-114.6979478372273
 10
64.04461028524581
 20
-114.5236387111685
 10
64.00158376939395
 20
-114.363776903908
 10
63.8858892549867
 20
-114.1051094284668
 10
63.80675358389147
 20
-113.9679834853503
 10
63.74815470294739
 20
-113.7509236826282
 10
63.69147743470953
 20
-113.9676326718346
 10
63.61027803081348
 20
-114.1070238895866
 10
63.51136716891462
 20
-114.356224320267
 10
63.43035955019167
 20
-114.5410357117082
 10
63.38636537334957
 20
-114.6437895454077
 10
63.3733670974857
 20
-114.674148631996
 97
        1
330
BA
 75
     1
 76
     2
 52
45.0
 41
0.1
 77
     0
 78
     1
 53
45.0
 43
0.0
 44
0.0
 45
-0.282842712474619
 46
0.0
 79
     0
 98
        1
 10
0.0
 20
0.0
  0
HATCH
  5
D8
330
48
100
AcDbEntity
  8
1
  6
Continuous
 62
     2
100
AcDbHatch
 10
0.0
 20
0.0
 30
0.0
210
0.0
220
0.0
230
1.0
  2
CUSTOM14
 70
     0
 71
     1
 91
        1
 92
        1
 93
        1
 72
     4
 94
        3
 73
     0
 74
     0
 95
       99
 96
       95
 40
0.0
 40
0.0
 40
0.0
 40
0.0
 40
0.0796417172272846
 40
0.1621768542355696
 40
0.2486489160957281
 40
0.340496966852431
 40
0.4381912511164686
 40
0.5434463660244697
 40
0.6518115192847003
 40
0.7530190937886967
 40
0.8492196919725227
 40
0.9419290312998203
 40
1.034249663570033
 40
1.1290786006202
 40
1.226697027573224
 40
1.327220425421711
 40
1.470572134938013
 40
1.595489863371232
 40
1.719934125348377
 40
1.850576620127376
 40
1.989059629987296
 40
2.134139054226913
 40
2.280698007207185
 40
2.424529739039436
 40
2.565929576985827
 40
2.708239260773559
 40
2.86171788744362
 40
3.045168540347332
 40
3.183798301138588
 40
3.31481396145547
 40
3.442083470447295
 40
3.569912708372955
 40
3.702177512509342
 40
3.842307559659521
 40
3.99287222324593
 40
4.156750662218291
 40
4.31098186110747
 40
4.445859909322544
 40
4.572393936131534
 40
4.701656719781933
 40
4.768279086008476
 40
4.835960697898448
 40
4.912788918729309
 40
5.006285208481493
 40
5.02690947875159
 40
5.047533749021134
 40
5.101808031471187
 40
5.162325165538494
 40
5.226919745995768
 40
5.294231806596653
 40
5.364544852554793
 40
5.438319055467856
 40
5.51787765132416
 40
5.607647714861494
 40
5.700449642544336
 40
5.78825114236408
 40
5.87271470603968
 40
5.955167292575232
 40
6.037192395190283
 40
6.120669181468969
 40
6.206848616686302
 40
6.296680855416696
 40
6.442558392872543
 40
6.568190371608256
 40
6.692904567360317
 40
6.824220446557107
 40
6.963121850329306
 40
7.107843738851082
 40
7.253431663907226
 40
7.395187468036674
 40
7.533140753237687
 40
7.670550457175193
 40
7.816236511769196
 40
7.987691657359121
 40
8.142277421969188
 40
8.29366261541501
 40
8.44296246087922
 40
8.591598316185287
 40
8.743678992361758
 40
8.903725323699149
 40
9.07630700889048
 40
9.265578604680545
 40
9.459203795360711
 40
9.617619810273528
 40
9.753609671361883
 40
9.874873300003994
 40
9.954520184977738
 40
10.02416413719242
 40
10.09769764405441
 40
10.18909955924971
 40
10.2097458642013
 40
10.23039218263375
 40
10.30057101881265
 40
10.37632012987545
 40
10.37632012987545
 40
10.37632012987545
 40
10.37632012987545
 10
60.25159252435083
 20
-115.422337381809
 10
60.26821882588766
 20
-115.4430879255158
 10
60.30207546142348
 20
-115.4853428968499
 10
60.36497929486934
 20
-115.5399959000482
 10
60.43824713480502
 20
-115.5873037627584
 10
60.52259396462937
 20
-115.6250216995896
 10
60.61822110231172
 20
-115.6498878166495
 10
60.72218241830032
 20
-115.6571984205095
 10
60.82739906280625
 20
-115.6488707860285
 10
60.92565967789911
 20
-115.6188022174536
 10
61.01089568352059
 20
-115.5718057842501
 10
61.08291906137605
 20
-115.5107641014604
 10
61.14008881167535
 20
-115.4361643181831
 10
61.18178391550974
 20
-115.3502693673672
 10
61.20769232539496
 20
-115.2554355096468
 10
61.21680077403103
 20
-115.1417442235852
 10
61.20368352041439
 20
-115.0169681362611
 10
61.13753007420723
 20
-114.9001468222499
 10
61.04193413272262
 20
-114.8151686181951
 10
60.92996514300262
 20
-114.7461271693774
 10
60.80436299909267
 20
-114.68825259351
 10
60.67066620285141
 20
-114.6365567811255
 10
60.53630932264883
 20
-114.5813030899971
 10
60.41019543945347
 20
-114.5108963075524
 10
60.29765503951925
 20
-114.4224386066564
 10
60.20199334721157
 20
-114.3104833352842
 10
60.13841275594829
 20
-114.1607949129551
 10
60.12506769126733
 20
-114.0009660701175
 10
60.13704813951058
 20
-113.8498099609005
 10
60.17622693364984
 20
-113.7222015680535
 10
60.24049581585679
 20
-113.6094852736605
 10
60.32881754073979
 20
-113.5138079212821
 10
60.43880616152848
 20
-113.4367518641114
 10
60.56822548089231
 20
-113.3787800446063
 10
60.71618093754507
 20
-113.3429022380807
 10
60.87320398631439
 20
-113.3328268234633
 10
61.02249108740874
 20
-113.341657636343
 10
61.16462240218272
 20
-113.3695450205655
 10
61.26458930172826
 20
-113.4261608669576
 10
61.41750451438427
 20
-113.4735479929138
 10
61.3505102124826
 20
-113.5583184839571
 10
61.33464495279271
 20
-113.6259049952341
 10
61.3028720938954
 20
-113.691033086037
 10
61.32001726172285
 20
-113.7930594813994
 10
61.27163976158895
 20
-113.7853618971498
 10
61.23657598484233
 20
-113.7922262967208
 10
61.23466683933756
 20
-113.7276557023869
 10
61.20356633396463
 20
-113.682037617755
 10
61.1714522036113
 20
-113.6246836476843
 10
61.12580088828258
 20
-113.5748893870433
 10
61.0708478626044
 20
-113.530345876779
 10
61.0060811580665
 20
-113.4926541256034
 10
60.92823477182543
 20
-113.4674602560554
 10
60.84051309610098
 20
-113.4609817039878
 10
60.75028736854639
 20
-113.4679369211129
 10
60.66445651017224
 20
-113.4912021093598
 10
60.58783140462538
 20
-113.5289775728935
 10
60.52152360438581
 20
-113.5797776030732
 10
60.46725309446218
 20
-113.6429825798968
 10
60.42748957531161
 20
-113.7175294568652
 10
60.40267459182454
 20
-113.8011208739913
 10
60.39420946705266
 20
-113.908364530146
 10
60.40696683947611
 20
-114.0306394412934
 10
60.47315188169306
 20
-114.1487967710568
 10
60.56909478074893
 20
-114.2342307568737
 10
60.68078853708399
 20
-114.3044603909017
 10
60.80608340763595
 20
-114.3637023909159
 10
60.93997943491047
 20
-114.4141269331076
 10
61.0739900740807
 20
-114.4670688441252
 10
61.20008557245731
 20
-114.5327923077171
 10
61.31261870460744
 20
-114.6154904885958
 10
61.40813406918903
 20
-114.7203339508682
 10
61.47226768946199
 20
-114.8609228414532
 10
61.48610741329362
 20
-115.019639919453
 10
61.47239251198867
 20
-115.1787624617902
 10
61.42947095616428
 20
-115.3254557257769
 10
61.35958767367229
 20
-115.4590960480975
 10
61.26245626214872
 20
-115.5749701369761
 10
61.13977764313148
 20
-115.6693941962681
 10
60.99243788208252
 20
-115.7385013074491
 10
60.82271029047823
 20
-115.7807619053805
 10
60.63673753872544
 20
-115.7924766516648
 10
60.45789263338405
 20
-115.7821991471346
 10
60.29317041614008
 20
-115.7406282762774
 10
60.1884381248714
 20
-115.6723175851295
 10
60.04009311980236
 20
-115.6235418236479
 10
60.10303486023862
 20
-115.5305281010605
 10
60.11222448377178
 20
-115.4573286514861
 10
60.13536817088885
 20
-115.3909310689554
 10
60.10845587429746
 20
-115.2905459186932
 10
60.15713093639965
 20
-115.2979536787951
 10
60.19665009883542
 20
-115.29135337776
 10
60.20461753523587
 20
-115.3695069817796
 10
60.23554073755801
 20
-115.4042847402104
 10
60.25159252435083
 20
-115.422337381809
 97
        1
330
BC
 75
     1
 76
     2
 52
45.0
 41
0.1
 77
     0
 78
     1
 53
45.0
 43
0.0
 44
0.0
 45
-0.282842712474619
 46
0.0
 79
     0
 98
        1
 10
0.0
 20
0.0
  0
ENDBLK
  5
4A
330
48
100
AcDbEntity
  8
0
100
AcDbBlockEnd
  0
BLOCK
  5
4D
330
4B
100
AcDbEntity
  8
0
100
AcDbBlockBegin
  2
開示A4枠
 70
     0
 10
-109.8950029592342
 20
-129.5602940139689
 30
0.0
  3
開示A4枠
  1

  0
INSERT
  5
4C
330
4B
100
AcDbEntity
  8
1
100
AcDbBlockReference
  2
開示A4
 10
-109.8950029592342
 20
-129.5602940139689
 30
0.0
  0
ENDBLK
  5
4E
330
4B
100
AcDbEntity
  8
0
100
AcDbBlockEnd
  0
BLOCK
  5
50
330
4F
100
AcDbEntity
  8
0
100
AcDbBlockBegin
  2
RING
 70
     0
 10
-24.39500295923423
 20
-9.78305780048992
 30
0.0
  3
RING
  1

  0
LINE
  5
D9
330
4F
100
AcDbEntity
  8
1
  6
Continuous
 62
     7
100
AcDbLine
 10
3.60499704076577
 20
14.71694219951007
 30
0.0
 11
31.60499704076577
 21
14.71694219951007
 31
0.0
  0
LINE
  5
DA
330
4F
100
AcDbEntity
  8
1
  6
Continuous
 62
     7
100
AcDbLine
 10
3.60499704076577
 20
-7.61799429102882
 30
0.0
 11
31.60499704076577
 21
-7.61799429102882
 31
0.0
  0
LINE
  5
DB
330
4F
100
AcDbEntity
  8
1
  6
Continuous
 62
     7
100
AcDbLine
 10
-24.39500295923423
 20
14.71694219951007
 30
0.0
 11
-24.39500295923423
 21
-7.61799429102882
 31
0.0
  0
LINE
  5
DC
330
4F
100
AcDbEntity
  8
1
  6
Continuous
 62
     7
100
AcDbLine
 10
-24.39500295923423
 20
-7.61799429102882
 30
0.0
 11
-23.14500295923423
 21
-9.78305780048992
 31
0.0
  0
LINE
  5
DD
330
4F
100
AcDbEntity
  8
1
  6
Continuous
 62
     7
100
AcDbLine
 10
-24.39500295923423
 20
14.71694219951007
 30
0.0
 11
3.60499704076577
 21
14.71694219951007
 31
0.0
  0
LINE
  5
DE
330
4F
100
AcDbEntity
  8
1
  6
Continuous
 62
     7
100
AcDbLine
 10
-23.14500295923423
 20
-9.78305780048992
 30
0.0
 11
3.60499704076577
 21
-9.78305780048992
 31
0.0
  0
LINE
  5
DF
330
4F
100
AcDbEntity
  8
1
  6
Continuous
 62
     7
100
AcDbLine
 10
31.60499704076577
 20
-7.61799429102882
 30
0.0
 11
31.60499704076577
 21
14.71694219951007
 31
0.0
  0
LINE
  5
E0
330
4F
100
AcDbEntity
  8
1
  6
Continuous
 62
     7
100
AcDbLine
 10
30.35499704076577
 20
-9.78305780048992
 30
0.0
 11
31.60499704076577
 21
-7.61799429102882
 31
0.0
  0
LINE
  5
E1
330
4F
100
AcDbEntity
  8
1
  6
Continuous
 62
     7
100
AcDbLine
 10
29.10499704076577
 20
-9.78305780048992
 30
0.0
 11
30.35499704076577
 21
-9.78305780048992
 31
0.0
  0
LINE
  5
E2
330
4F
100
AcDbEntity
  8
1
  6
Continuous
 62
     7
100
AcDbLine
 10
3.60499704076577
 20
-9.78305780048992
 30
0.0
 11
29.10499704076577
 21
-9.78305780048992
 31
0.0
  0
LINE
  5
E3
330
4F
100
AcDbEntity
  8
1
  6
Continuous
 62
     7
100
AcDbLine
 10
-24.39500295923423
 20
-7.61799429102882
 30
0.0
 11
3.60499704076577
 21
-7.61799429102882
 31
0.0
  0
ENDBLK
  5
51
330
4F
100
AcDbEntity
  8
0
100
AcDbBlockEnd
  0
BLOCK
  5
53
330
52
100
AcDbEntity
  8
0
100
AcDbBlockBegin
  2
KYAPU
 70
     0
 10
3.60499704076577
 20
-6.78305780048992
 30
0.0
  3
KYAPU
  1

  0
LINE
  5
E4
330
52
100
AcDbEntity
  8
1
  6
Continuous
 62
     7
100
AcDbLine
 10
2.10499704076577
 20
71.66871457620078
 30
0.0
 11
2.10499704076577
 21
106.539906124526
 31
0.0
  0
LINE
  5
E5
330
52
100
AcDbEntity
  8
1
  6
Continuous
 62
     7
100
AcDbLine
 10
5.10499704076577
 20
106.539906124526
 30
0.0
 11
5.10499704076577
 21
71.66871457620078
 31
0.0
  0
ARC
  5
E6
330
52
100
AcDbEntity
  8
1
  6
Continuous
 62
     7
100
AcDbCircle
 10
3.60499704076577
 20
89.1043103503634
 30
0.0
 40
17.4999999999999
100
AcDbArc
 50
94.91710033552884
 51
265.0828996644712
  0
ARC
  5
E7
330
52
100
AcDbEntity
  8
1
  6
Continuous
 62
     7
100
AcDbCircle
 10
3.60499704076577
 20
89.1043103503634
 30
0.0
 40
17.49999999999993
100
AcDbArc
 50
274.9171003355288
 51
85.08289966447117
  0
CIRCLE
  5
E8
330
52
100
AcDbEntity
  8
1
  6
Continuous
 62
     7
100
AcDbCircle
 10
3.60499704076577
 20
89.1043103503634
 30
0.0
 40
25.0
  0
ENDBLK
  5
54
330
52
100
AcDbEntity
  8
0
100
AcDbBlockEnd
  0
BLOCK
  5
56
330
55
100
AcDbEntity
  8
0
100
AcDbBlockBegin
  2
HONTAI
 70
     0
 10
-38.89500295923422
 20
-13.78305780048992
 30
0.0
  3
HONTAI
  1

  0
LINE
  5
E9
330
55
100
AcDbEntity
  8
1
  6
Continuous
 62
     7
100
AcDbLine
 10
-38.89500295923421
 20
-37.8429607958507
 30
0.0
 11
46.1049970407658
 21
-37.8429607958507
 31
0.0
  0
LINE
  5
EA
330
55
100
AcDbEntity
  8
1
  6
Continuous
 62
     7
100
AcDbLine
 10
-38.89500295923421
 20
-39.8429607958507
 30
0.0
 11
46.1049970407658
 21
-39.8429607958507
 31
0.0
  0
LINE
  5
EB
330
55
100
AcDbEntity
  8
1
  6
Continuous
 62
     7
100
AcDbLine
 10
-30.39500295923421
 20
-36.3429607958507
 30
0.0
 11
37.6049970407658
 21
-36.3429607958507
 31
0.0
  0
LINE
  5
EC
330
55
100
AcDbEntity
  8
1
  6
Continuous
 62
     7
100
AcDbLine
 10
-38.89500295923421
 20
-39.8429607958507
 30
0.0
 11
-38.89500295923421
 21
-37.8429607958507
 31
0.0
  0
LINE
  5
ED
330
55
100
AcDbEntity
  8
1
  6
Continuous
 62
     7
100
AcDbLine
 10
-38.89500295923421
 20
-37.8429607958507
 30
0.0
 11
-30.39500295923421
 21
-36.3429607958507
 31
0.0
  0
LINE
  5
EE
330
55
100
AcDbEntity
  8
1
  6
Continuous
 62
     7
100
AcDbLine
 10
28.8549970407658
 20
-58.3429607958507
 30
0.0
 11
-21.64500295923426
 21
-58.3429607958507
 31
0.0
  0
LINE
  5
EF
330
55
100
AcDbEntity
  8
1
  6
Continuous
 62
     7
100
AcDbLine
 10
29.3549970407658
 20
-39.8429607958507
 30
0.0
 11
28.8549970407658
 21
-58.3429607958507
 31
0.0
  0
LINE
  5
F0
330
55
100
AcDbEntity
  8
1
  6
Continuous
 62
     7
100
AcDbLine
 10
46.1049970407658
 20
-37.8429607958507
 30
0.0
 11
46.1049970407658
 21
-39.8429607958507
 31
0.0
  0
LINE
  5
F1
330
55
100
AcDbEntity
  8
1
  6
Continuous
 62
     7
100
AcDbLine
 10
37.6049970407658
 20
-36.3429607958507
 30
0.0
 11
46.1049970407658
 21
-37.8429607958507
 31
0.0
  0
LINE
  5
F2
330
55
100
AcDbEntity
  8
1
  6
Continuous
 62
     7
100
AcDbLine
 10
-21.64500295923426
 20
-58.3429607958507
 30
0.0
 11
-22.14500295923426
 21
-39.8429607958507
 31
0.0
  0
LINE
  5
F3
330
55
100
AcDbEntity
  8
1
  6
Continuous
 62
     7
100
AcDbLine
 10
3.60499704076577
 20
14.71694219951007
 30
0.0
 11
46.10499704076577
 21
14.71694219951007
 31
0.0
  0
LINE
  5
F4
330
55
100
AcDbEntity
  8
1
  6
Continuous
 62
     7
100
AcDbLine
 10
3.60499704076577
 20
16.71694219951007
 30
0.0
 11
46.10499704076577
 21
16.71694219951007
 31
0.0
  0
LINE
  5
F5
330
55
100
AcDbEntity
  8
1
  6
Continuous
 62
     7
100
AcDbLine
 10
3.60499704076577
 20
18.21694219951007
 30
0.0
 11
37.60499704076577
 21
18.21694219951007
 31
0.0
  0
LINE
  5
F6
330
55
100
AcDbEntity
  8
1
  6
Continuous
 62
     7
100
AcDbLine
 10
37.60499704076577
 20
18.21694219951007
 30
0.0
 11
46.10499704076577
 21
16.71694219951007
 31
0.0
  0
LINE
  5
F7
330
55
100
AcDbEntity
  8
1
  6
Continuous
 62
     7
100
AcDbLine
 10
46.10499704076577
 20
16.71694219951007
 30
0.0
 11
46.10499704076577
 21
14.71694219951007
 31
0.0
  0
LINE
  5
F8
330
55
100
AcDbEntity
  8
1
  6
Continuous
 62
     7
100
AcDbLine
 10
-38.89500295923422
 20
16.71694219951007
 30
0.0
 11
-30.39500295923422
 21
18.21694219951007
 31
0.0
  0
LINE
  5
F9
330
55
100
AcDbEntity
  8
1
  6
Continuous
 62
     7
100
AcDbLine
 10
-38.89500295923422
 20
14.71694219951007
 30
0.0
 11
-38.89500295923422
 21
16.71694219951007
 31
0.0
  0
LINE
  5
FA
330
55
100
AcDbEntity
  8
1
  6
Continuous
 62
     7
100
AcDbLine
 10
-30.39500295923422
 20
18.21694219951007
 30
0.0
 11
3.60499704076577
 21
18.21694219951007
 31
0.0
  0
LINE
  5
FB
330
55
100
AcDbEntity
  8
1
  6
Continuous
 62
     7
100
AcDbLine
 10
-38.89500295923422
 20
14.71694219951007
 30
0.0
 11
3.60499704076577
 21
14.71694219951007
 31
0.0
  0
LINE
  5
FC
330
55
100
AcDbEntity
  8
1
  6
Continuous
 62
     7
100
AcDbLine
 10
-38.89500295923422
 20
16.71694219951007
 30
0.0
 11
3.60499704076577
 21
16.71694219951007
 31
0.0
  0
CIRCLE
  5
FD
330
55
100
AcDbEntity
  8
1
  6
Continuous
 62
     7
100
AcDbCircle
 10
3.60499704076577
 20
89.1043103503634
 30
0.0
 40
25.75
  0
CIRCLE
  5
FE
330
55
100
AcDbEntity
  8
1
  6
Continuous
 62
     7
100
AcDbCircle
 10
3.60499704076577
 20
89.1043103503634
 30
0.0
 40
42.5
  0
CIRCLE
  5
FF
330
55
100
AcDbEntity
  8
1
  6
Continuous
 62
     7
100
AcDbCircle
 10
3.60499704076577
 20
89.1043103503634
 30
0.0
 40
34.0
  0
ENDBLK
  5
57
330
55
100
AcDbEntity
  8
0
100
AcDbBlockEnd
  0
BLOCK
  5
11A
330
113
100
AcDbEntity
  8
0
100
AcDbBlockBegin
  2
*D6
 70
     1
 10
0.0
 20
0.0
 30
0.0
  3
*D6
  1

  0
LINE
  5
114
330
113
100
AcDbEntity
  8
1
  6
Continuous
 62
     2
100
AcDbLine
 10
-48.7508985270475
 20
-58.3429607958507
 30
0.0
 11
-48.7508985270475
 21
-36.3429607958507
 31
0.0
  0
LINE
  5
115
330
113
100
AcDbEntity
  8
1
  6
Continuous
 62
     2
100
AcDbLine
 10
-30.39500295923421
 20
-36.3429607958507
 30
0.0
 11
-50.7508985270475
 21
-36.3429607958507
 31
0.0
  0
LINE
  5
116
330
113
100
AcDbEntity
  8
1
  6
Continuous
 62
     2
100
AcDbLine
 10
-21.64500295923426
 20
-58.3429607958507
 30
0.0
 11
-50.7508985270475
 21
-58.3429607958507
 31
0.0
  0
SOLID
  5
117
330
113
100
AcDbEntity
  8
1
 62
     2
100
AcDbTrace
 10
-49.21168226860338
 20
-54.8429607958507
 30
0.0
 11
-48.29011478549161
 21
-54.8429607958507
 31
0.0
 12
-48.7508985270475
 22
-58.3429607958507
 32
0.0
 13
-48.7508985270475
 23
-58.3429607958507
 33
0.0
  0
SOLID
  5
118
330
113
100
AcDbEntity
  8
1
 62
     2
100
AcDbTrace
 10
-48.29011478549161
 20
-39.8429607958507
 30
0.0
 11
-49.21168226860338
 21
-39.8429607958507
 31
0.0
 12
-48.7508985270475
 22
-36.3429607958507
 32
0.0
 13
-48.7508985270475
 23
-36.3429607958507
 33
0.0
  0
MTEXT
  5
119
330
113
100
AcDbEntity
  8
1
 62
     7
100
AcDbMText
 10
-50.7508985270475
 20
-49.46543340234
 30
0.0
 40
3.0
 41
0.0
 71
     7
 72
     1
  1
22
  7
CONVERTER_12
 11
0.0
 21
1.0
 31
0.0
 73
     1
 44
0.60024009603842
  0
ENDBLK
  5
11B
330
113
100
AcDbEntity
  8
0
100
AcDbBlockEnd
  0
BLOCK
  5
125
330
11E
100
AcDbEntity
  8
0
100
AcDbBlockBegin
  2
*D7
 70
     1
 10
0.0
 20
0.0
 30
0.0
  3
*D7
  1

  0
LINE
  5
11F
330
11E
100
AcDbEntity
  8
1
  6
Continuous
 62
     2
100
AcDbLine
 10
-21.64500295923426
 20
-68.3429607958507
 30
0.0
 11
28.8549970407658
 21
-68.3429607958507
 31
0.0
  0
LINE
  5
120
330
11E
100
AcDbEntity
  8
1
  6
Continuous
 62
     2
100
AcDbLine
 10
28.8549970407658
 20
-58.3429607958507
 30
0.0
 11
28.8549970407658
 21
-70.3429607958507
 31
0.0
  0
LINE
  5
121
330
11E
100
AcDbEntity
  8
1
  6
Continuous
 62
     2
100
AcDbLine
 10
-21.64500295923426
 20
-58.3429607958507
 30
0.0
 11
-21.64500295923426
 21
-70.3429607958507
 31
0.0
  0
SOLID
  5
122
330
11E
100
AcDbEntity
  8
1
 62
     2
100
AcDbTrace
 10
-18.14500295923426
 20
-67.88217705429481
 30
0.0
 11
-18.14500295923426
 21
-68.80374453740659
 31
0.0
 12
-21.64500295923426
 22
-68.3429607958507
 32
0.0
 13
-21.64500295923426
 23
-68.3429607958507
 33
0.0
  0
SOLID
  5
123
330
11E
100
AcDbEntity
  8
1
 62
     2
100
AcDbTrace
 10
25.3549970407658
 20
-68.80374453740659
 30
0.0
 11
25.3549970407658
 21
-67.88217705429481
 31
0.0
 12
28.8549970407658
 22
-68.3429607958507
 32
0.0
 13
28.8549970407658
 23
-68.3429607958507
 33
0.0
  0
MTEXT
  5
124
330
11E
100
AcDbEntity
  8
1
 62
     7
100
AcDbMText
 10
1.144997040773
 20
-66.34296675905898
 30
0.0
 40
3.0
 41
0.0
 71
     7
 72
     1
  1
\C7;{\Fgdt;n}\C7;51
  7
CONVERTER_12
 11
0.9999999999970619
 21
2.424068405545306E-6
 31
0.0
 73
     1
 44
0.60024009603842
  0
ENDBLK
  5
126
330
11E
100
AcDbEntity
  8
0
100
AcDbBlockEnd
  0
BLOCK
  5
130
330
129
100
AcDbEntity
  8
0
100
AcDbBlockBegin
  2
*D8
 70
     1
 10
0.0
 20
0.0
 30
0.0
  3
*D8
  1

  0
LINE
  5
12A
330
129
100
AcDbEntity
  8
1
  6
Continuous
 62
     2
100
AcDbLine
 10
-38.89500295923423
 20
28.21694219951008
 30
0.0
 11
46.10499704076577
 21
28.21694219951008
 31
0.0
  0
LINE
  5
12B
330
129
100
AcDbEntity
  8
1
  6
Continuous
 62
     2
100
AcDbLine
 10
-38.89500295923423
 20
16.71694219951007
 30
0.0
 11
-38.89500295923423
 21
30.21694219951008
 31
0.0
  0
LINE
  5
12C
330
129
100
AcDbEntity
  8
1
  6
Continuous
 62
     2
100
AcDbLine
 10
46.10499704076577
 20
16.71694219951007
 30
0.0
 11
46.10499704076577
 21
30.21694219951008
 31
0.0
  0
SOLID
  5
12D
330
129
100
AcDbEntity
  8
1
 62
     2
100
AcDbTrace
 10
-35.89500295923423
 20
28.61189969227227
 30
0.0
 11
-35.89500295923423
 21
27.82198470674789
 31
0.0
 12
-38.89500295923423
 22
28.21694219951008
 32
0.0
 13
-38.89500295923423
 23
28.21694219951008
 33
0.0
  0
SOLID
  5
12E
330
129
100
AcDbEntity
  8
1
 62
     2
100
AcDbTrace
 10
43.10499704076577
 20
27.82198470674789
 30
0.0
 11
43.10499704076577
 21
28.61189969227227
 31
0.0
 12
46.10499704076577
 22
28.21694219951008
 32
0.0
 13
46.10499704076577
 23
28.21694219951008
 33
0.0
  0
MTEXT
  5
12F
330
129
100
AcDbEntity
  8
1
 62
     7
100
AcDbMText
 10
0.694997040773
 20
30.2169362363018
 30
0.0
 40
3.0
 41
0.0
 71
     7
 72
     1
  1
\C7;{\Fgdt;n}\C7;85
  7
CONVERTER_12
 11
0.9999999999970619
 21
2.424068405545306E-6
 31
0.0
 73
     1
 44
0.60024009603842
  0
ENDBLK
  5
131
330
129
100
AcDbEntity
  8
0
100
AcDbBlockEnd
  0
BLOCK
  5
13B
330
134
100
AcDbEntity
  8
0
100
AcDbBlockBegin
  2
*D9
 70
     1
 10
0.0
 20
0.0
 30
0.0
  3
*D9
  1

  0
LINE
  5
135
330
134
100
AcDbEntity
  8
1
  6
Continuous
 62
     2
100
AcDbLine
 10
-24.39500295923424
 20
-19.67950098561742
 30
0.0
 11
31.60499704076577
 21
-19.67950098561742
 31
0.0
  0
LINE
  5
136
330
134
100
AcDbEntity
  8
1
  6
Continuous
 62
     2
100
AcDbLine
 10
31.60499704076577
 20
-7.61799429102883
 30
0.0
 11
31.60499704076577
 21
-21.67950098561742
 31
0.0
  0
LINE
  5
137
330
134
100
AcDbEntity
  8
1
  6
Continuous
 62
     2
100
AcDbLine
 10
-24.39500295923424
 20
-7.61799429102883
 30
0.0
 11
-24.39500295923424
 21
-21.67950098561742
 31
0.0
  0
SOLID
  5
138
330
134
100
AcDbEntity
  8
1
 62
     2
100
AcDbTrace
 10
-21.39500295923424
 20
-19.28454349285523
 30
0.0
 11
-21.39500295923424
 21
-20.07445847837961
 31
0.0
 12
-24.39500295923424
 22
-19.67950098561742
 32
0.0
 13
-24.39500295923424
 23
-19.67950098561742
 33
0.0
  0
SOLID
  5
139
330
134
100
AcDbEntity
  8
1
 62
     2
100
AcDbTrace
 10
28.60499704076577
 20
-20.07445847837961
 30
0.0
 11
28.60499704076577
 21
-19.28454349285523
 31
0.0
 12
31.60499704076577
 22
-19.67950098561742
 32
0.0
 13
31.60499704076577
 23
-19.67950098561742
 33
0.0
  0
MTEXT
  5
13A
330
134
100
AcDbEntity
  8
1
 62
     7
100
AcDbMText
 10
0.694997040773
 20
-17.6795069488257
 30
0.0
 40
3.0
 41
0.0
 71
     7
 72
     1
  1
\C7;{\Fgdt;n}\C7;56
  7
CONVERTER_12
 11
0.9999999999970619
 21
2.424068405545306E-6
 31
0.0
 73
     1
 44
0.60024009603842
  0
ENDBLK
  5
13C
330
134
100
AcDbEntity
  8
0
100
AcDbBlockEnd
  0
BLOCK
  5
146
330
13F
100
AcDbEntity
  8
0
100
AcDbBlockBegin
  2
*D10
 70
     1
 10
0.0
 20
0.0
 30
0.0
  3
*D10
  1

  0
LINE
  5
140
330
13F
100
AcDbEntity
  8
1
  6
Continuous
 62
     2
100
AcDbLine
 10
-57.0374206872122
 20
-9.78305780048992
 30
0.0
 11
-57.0374206872122
 21
18.21694219951006
 31
0.0
  0
LINE
  5
141
330
13F
100
AcDbEntity
  8
1
  6
Continuous
 62
     2
100
AcDbLine
 10
-30.39500295923422
 20
18.21694219951006
 30
0.0
 11
-59.0374206872122
 21
18.21694219951006
 31
0.0
  0
LINE
  5
142
330
13F
100
AcDbEntity
  8
1
  6
Continuous
 62
     2
100
AcDbLine
 10
-23.14500295923423
 20
-9.78305780048992
 30
0.0
 11
-59.0374206872122
 21
-9.78305780048992
 31
0.0
  0
SOLID
  5
143
330
13F
100
AcDbEntity
  8
1
 62
     2
100
AcDbTrace
 10
-56.64246319445001
 20
15.21694219951006
 30
0.0
 11
-57.43237817997439
 21
15.21694219951006
 31
0.0
 12
-57.0374206872122
 22
18.21694219951006
 32
0.0
 13
-57.0374206872122
 23
18.21694219951006
 33
0.0
  0
SOLID
  5
144
330
13F
100
AcDbEntity
  8
1
 62
     2
100
AcDbTrace
 10
-57.43237817997439
 20
-6.78305780048992
 30
0.0
 11
-56.64246319445001
 21
-6.78305780048992
 31
0.0
 12
-57.0374206872122
 22
-9.78305780048992
 32
0.0
 13
-57.0374206872122
 23
-9.78305780048992
 33
0.0
  0
MTEXT
  5
145
330
13F
100
AcDbEntity
  8
1
 62
     7
100
AcDbMText
 10
-59.0374206872122
 20
2.78223661764449
 30
0.0
 40
3.0
 41
0.0
 71
     7
 72
     1
  1
28
  7
CONVERTER_12
 11
0.0
 21
1.0
 31
0.0
 73
     1
 44
0.60024009603842
  0
ENDBLK
  5
147
330
13F
100
AcDbEntity
  8
0
100
AcDbBlockEnd
  0
BLOCK
  5
151
330
14A
100
AcDbEntity
  8
0
100
AcDbBlockBegin
  2
*D11
 70
     1
 10
0.0
 20
0.0
 30
0.0
  3
*D11
  1

  0
LINE
  5
14B
330
14A
100
AcDbEntity
  8
1
  6
Continuous
 62
     2
100
AcDbLine
 10
-48.7508985270475
 20
-9.78305780048992
 30
0.0
 11
-48.7508985270475
 21
14.71694219951006
 31
0.0
  0
LINE
  5
14C
330
14A
100
AcDbEntity
  8
1
  6
Continuous
 62
     2
100
AcDbLine
 10
-38.89500295923422
 20
14.71694219951006
 30
0.0
 11
-50.7508985270475
 21
14.71694219951006
 31
0.0
  0
LINE
  5
14D
330
14A
100
AcDbEntity
  8
1
  6
Continuous
 62
     2
100
AcDbLine
 10
-23.14500295923423
 20
-9.78305780048992
 30
0.0
 11
-50.7508985270475
 21
-9.78305780048992
 31
0.0
  0
SOLID
  5
14E
330
14A
100
AcDbEntity
  8
1
 62
     2
100
AcDbTrace
 10
-49.21168226860338
 20
-6.28305780048992
 30
0.0
 11
-48.29011478549161
 21
-6.28305780048992
 31
0.0
 12
-48.7508985270475
 22
-9.78305780048992
 32
0.0
 13
-48.7508985270475
 23
-9.78305780048992
 33
0.0
  0
SOLID
  5
14F
330
14A
100
AcDbEntity
  8
1
 62
     2
100
AcDbTrace
 10
-48.29011478549161
 20
11.21694219951006
 30
0.0
 11
-49.21168226860338
 21
11.21694219951006
 31
0.0
 12
-48.7508985270475
 22
14.71694219951006
 32
0.0
 13
-48.7508985270475
 23
14.71694219951006
 33
0.0
  0
MTEXT
  5
150
330
14A
100
AcDbEntity
  8
1
 62
     7
100
AcDbMText
 10
-50.7508985270475
 20
1.26283081161758
 30
0.0
 40
3.0
 41
0.0
 71
     7
 72
     1
  1
25
  7
CONVERTER_12
 11
0.0
 21
1.0
 31
0.0
 73
     1
 44
0.60024009603842
  0
ENDBLK
  5
152
330
14A
100
AcDbEntity
  8
0
100
AcDbBlockEnd
  0
BLOCK
  5
15A
330
155
100
AcDbEntity
  8
0
100
AcDbBlockBegin
  2
*D12
 70
     1
 10
0.0
 20
0.0
 30
0.0
  3
*D12
  1

  0
LINE
  5
156
330
155
100
AcDbEntity
  8
1
  6
Continuous
 62
     2
100
AcDbLine
 10
22.84900783062908
 20
105.062632590487
 30
0.0
 11
-37.77840813329447
 21
54.78663497735227
 31
0.0
  0
SOLID
  5
157
330
155
100
AcDbEntity
  8
1
 62
     2
100
AcDbTrace
 10
-13.23898565574701
 20
75.73484631562887
 30
0.0
 11
-12.65071882128632
 21
75.02546013208526
 31
0.0
 12
-15.63901374909754
 22
73.14598811023977
 32
0.0
 13
-15.63901374909754
 23
73.14598811023977
 33
0.0
  0
SOLID
  5
158
330
155
100
AcDbEntity
  8
1
 62
     2
100
AcDbTrace
 10
20.44897973727855
 20
102.4737743850979
 30
0.0
 11
19.86071290281786
 21
103.1831605686415
 31
0.0
 12
22.84900783062908
 22
105.062632590487
 32
0.0
 13
22.84900783062908
 23
105.062632590487
 33
0.0
  0
MTEXT
  5
159
330
155
100
AcDbEntity
  8
1
 62
     7
100
AcDbMText
 10
-38.17754702048658
 20
57.05385533469095
 30
0.0
 40
3.0
 41
0.0
 71
     7
 72
     1
  1
\C7;{\Fgdt;n}\C7;50
  7
CONVERTER_12
 11
0.7697604315945326
 21
0.6383328896049451
 31
0.0
 73
     1
 44
0.60024009603842
  0
ENDBLK
  5
15B
330
155
100
AcDbEntity
  8
0
100
AcDbBlockEnd
  0
ENDSEC
  0
SECTION
  2
ENTITIES
  0
INSERT
  5
58
330
1F
100
AcDbEntity
  8
0
100
AcDbBlockReference
  2
開示A4枠
 10
-109.8950029592342
 20
-129.5602940139689
 30
0.0
  0
INSERT
  5
59
330
1F
100
AcDbEntity
  8
1
100
AcDbBlockReference
  2
RING
 10
-24.39500295923423
 20
-9.78305780048992
 30
0.0
  0
INSERT
  5
5A
330
1F
100
AcDbEntity
  8
1
100
AcDbBlockReference
  2
KYAPU
 10
3.60499704076577
 20
-6.78305780048992
 30
0.0
  0
INSERT
  5
5B
330
1F
100
AcDbEntity
  8
1
100
AcDbBlockReference
  2
HONTAI
 10
-38.89500295923422
 20
-13.78305780048992
 30
0.0
  0
LINE
  5
100
330
1F
100
AcDbEntity
  8
1
  6
Continuous
 62
     2
100
AcDbLine
 10
-11.5462296743586
 20
-77.5322380515733
 30
0.0
 11
20.4537703256414
 21
-77.5322380515733
 31
0.0
  0
LINE
  5
101
330
1F
100
AcDbEntity
  8
1
  6
DASH_CENTER
 62
     2
100
AcDbLine
 10
3.60499704076577
 20
-33.2369766751749
 30
0.0
 11
3.60499704076577
 21
-61.2369766751749
 31
0.0
  0
LINE
  5
102
330
1F
100
AcDbEntity
  8
1
  6
DASH_CENTER
 62
     2
100
AcDbLine
 10
3.60499704076577
 20
43.63084502702395
 30
0.0
 11
3.60499704076577
 21
134.5823451275693
 31
0.0
  0
LINE
  5
103
330
1F
100
AcDbEntity
  8
1
  6
DASH_CENTER
 62
     2
100
AcDbLine
 10
-41.89500295923422
 20
89.1043103503634
 30
0.0
 11
49.08927815119585
 21
89.1043103503634
 31
0.0
  0
LINE
  5
104
330
1F
100
AcDbEntity
  8
1
  6
DASH_CENTER
 62
     2
100
AcDbLine
 10
3.60499704076577
 20
21.21694219951009
 30
0.0
 11
3.60499704076577
 21
-12.78305780048992
 31
0.0
  0
MTEXT
  5
106
330
1F
100
AcDbEntity
  8
1
 62
     7
100
AcDbMText
 10
47.60499704076574
 20
-117.0602940139689
 30
0.0
 40
2.5
 41
0.0
 71
     5
 72
     1
  1
6
  7
CONVERTER_12
 73
     1
 44
0.7202881152461
  0
MTEXT
  5
107
330
1F
100
AcDbEntity
  8
1
 62
     7
100
AcDbMText
 10
41.85499704076574
 20
-117.0602940139689
 30
0.0
 40
2.5
 41
0.0
 71
     5
 72
     1
  1
04
  7
CONVERTER_12
 73
     1
 44
0.7202881152461
  0
MTEXT
  5
108
330
1F
100
AcDbEntity
  8
1
 62
     7
100
AcDbMText
 10
30.60499704076574
 20
-117.0602940139689
 30
0.0
 40
2.5
 41
0.0
 71
     5
 72
     1
  1
6
  7
CONVERTER_12
 73
     1
 44
0.7202881152461
  0
MTEXT
  5
109
330
1F
100
AcDbEntity
  8
1
 62
     7
100
AcDbMText
 10
24.85499704076574
 20
-117.0602940139689
 30
0.0
 40
2.5
 41
0.0
 71
     5
 72
     1
  1
04
  7
CONVERTER_12
 73
     1
 44
0.7202881152461
  0
MTEXT
  5
10A
330
1F
100
AcDbEntity
  8
1
 62
     7
100
AcDbMText
 10
13.60499704076574
 20
-117.0602940139689
 30
0.0
 40
2.5
 41
0.0
 71
     5
 72
     1
  1
6
  7
CONVERTER_12
 73
     1
 44
0.7202881152461
  0
MTEXT
  5
10B
330
1F
100
AcDbEntity
  8
1
 62
     7
100
AcDbMText
 10
7.85499704076574
 20
-117.0602940139689
 30
0.0
 40
2.5
 41
0.0
 71
     5
 72
     1
  1
04
  7
CONVERTER_12
 73
     1
 44
0.7202881152461
  0
MTEXT
  5
10C
330
1F
100
AcDbEntity
  8
1
 62
     7
100
AcDbMText
 10
-9.14500295923426
 20
-117.0602940139689
 30
0.0
 40
2.5
 41
0.0
 71
     5
 72
     1
  1
04
  7
CONVERTER_12
 73
     1
 44
0.7202881152461
  0
MTEXT
  5
10D
330
1F
100
AcDbEntity
  8
1
 62
     7
100
AcDbMText
 10
-3.39500295923426
 20
-117.0602940139689
 30
0.0
 40
2.5
 41
0.0
 71
     5
 72
     1
  1
6
  7
CONVERTER_12
 73
     1
 44
0.7202881152461
  0
MTEXT
  5
10E
330
1F
100
AcDbEntity
  8
1
 62
     7
100
AcDbMText
 10
3.89226361540258
 20
-75.4792469226157
 30
0.0
 40
3.0
 41
0.0
 71
     5
 72
     1
  1
ソケットを外した状態
  7
CONVERTER_11
 73
     1
 44
0.54545454545455
  0
MTEXT
  5
10F
330
1F
100
AcDbEntity
  8
1
 62
     7
100
AcDbMText
 10
-24.64500295923426
 20
-112.560294013969
 30
0.0
 40
3.5
 41
0.0
 71
     5
 72
     1
  1
1
  7
CONVERTER_12
 73
     1
 44
0.7202881152461
  0
MTEXT
  5
110
330
1F
100
AcDbEntity
  8
1
 62
     7
100
AcDbMText
 10
-52.89500295923426
 20
-106.8102940139689
 30
0.0
 40
3.5
 41
0.0
 71
     5
 72
     1
  1
洗濯機排水口
  7
CONVERTER_11
 73
     1
 44
0.54545454545455
  0
MTEXT
  5
111
330
1F
100
AcDbEntity
  8
1
 62
     7
100
AcDbMText
 10
-52.89500295923426
 20
-115.310294013969
 30
0.0
 40
3.5
 41
0.0
 71
     5
 72
     1
  1
H565-50
  7
CONVERTER_12
 73
     1
 44
0.7202881152461
  0
MTEXT
  5
112
330
1F
100
AcDbEntity
  8
1
 62
     7
100
AcDbMText
 10
-16.14500295923426
 20
-112.560294013969
 30
0.0
 40
3.5
 41
0.0
 71
     5
 72
     1
  1
1
  7
CONVERTER_12
 73
     1
 44
0.7202881152461
  0
DIMENSION
  5
11D
330
1F
100
AcDbEntity
  8
1
100
AcDbDimension
  2
*D6
 10
-48.7508985270475
 20
-58.3429607958507
 30
0.0
 11
-52.2508985270475
 21
-47.21543340234
 31
0.0
 70
    32
  1
<>
 71
     5
 42
-1.0
 53
90.0
  3
ME10_DIM_10
100
AcDbAlignedDimension
 13
-30.39500295923421
 23
-36.3429607958507
 33
0.0
 14
-21.64500295923426
 24
-58.3429607958507
 34
0.0
 50
90.0
100
AcDbRotatedDimension
  0
DIMENSION
  5
128
330
1F
100
AcDbEntity
  8
1
100
AcDbDimension
  2
*D7
 10
-21.64500295923426
 20
-68.3429607958507
 30
0.0
 11
3.60499704076577
 21
-64.8429607958507
 31
0.0
 70
    33
  1
{\Fgdt;n}51
 71
     5
 42
-1.0
 53
0.00013888888889
  3
ME10_DIM_11
100
AcDbAlignedDimension
 13
28.8549970407658
 23
-58.3429607958507
 33
0.0
 14
-21.64500295923426
 24
-58.3429607958507
 34
0.0
  0
DIMENSION
  5
133
330
1F
100
AcDbEntity
  8
1
100
AcDbDimension
  2
*D8
 10
-38.89500295923423
 20
28.21694219951008
 30
0.0
 11
3.60499704076577
 21
31.71694219951008
 31
0.0
 70
    32
  1
<>
 71
     5
 42
-1.0
 53
0.00013888888889
  3
ME10_DIM_12
100
AcDbAlignedDimension
 13
46.10499704076577
 23
16.71694219951007
 33
0.0
 14
-38.89500295923422
 24
16.71694219951007
 34
0.0
100
AcDbRotatedDimension
  0
DIMENSION
  5
13E
330
1F
100
AcDbEntity
  8
1
100
AcDbDimension
  2
*D9
 10
-24.39500295923424
 20
-19.67950098561742
 30
0.0
 11
3.60499704076577
 21
-16.17950098561742
 31
0.0
 70
    32
  1
<>
 71
     5
 42
-1.0
 53
0.00013888888889
  3
ME10_DIM_13
100
AcDbAlignedDimension
 13
31.60499704076577
 23
-7.61799429102882
 33
0.0
 14
-24.39500295923423
 24
-7.61799429102882
 34
0.0
100
AcDbRotatedDimension
  0
DIMENSION
  5
149
330
1F
100
AcDbEntity
  8
1
100
AcDbDimension
  2
*D10
 10
-57.0374206872122
 20
18.21694219951006
 30
0.0
 11
-60.5374206872122
 21
5.03223661764449
 31
0.0
 70
    32
  1
<>
 71
     5
 42
-1.0
 53
90.0
  3
ME10_DIM_14
100
AcDbAlignedDimension
 13
-23.14500295923423
 23
-9.78305780048992
 33
0.0
 14
-30.39500295923422
 24
18.21694219951007
 34
0.0
 50
90.0
100
AcDbRotatedDimension
  0
DIMENSION
  5
154
330
1F
100
AcDbEntity
  8
1
100
AcDbDimension
  2
*D11
 10
-48.7508985270475
 20
-9.78305780048992
 30
0.0
 11
-52.2508985270475
 21
3.51283081161758
 31
0.0
 70
    32
  1
25
 71
     5
 42
-1.0
 53
90.0
  3
ME10_DIM_15
100
AcDbAlignedDimension
 13
-38.89500295923422
 23
14.71694219951007
 33
0.0
 14
-23.14500295923423
 24
-9.78305780048992
 34
0.0
 50
90.0
100
AcDbRotatedDimension
  0
INSERT
  5
15C
330
1F
100
AcDbEntity
  8
1
100
AcDbBlockReference
  2
*D12
 10
0.0
 20
0.0
 30
0.0
  0
ENDSEC
  0
SECTION
  2
OBJECTS
  0
DICTIONARY
  5
C
330
0
100
AcDbDictionary
281
     1
  3
ACAD_GROUP
350
D
  3
ACAD_LAYOUT
350
1A
  3
ACAD_MATERIAL
350
3B
  3
ACAD_MLEADERSTYLE
350
15F
  3
ACAD_MLINESTYLE
350
17
  3
ACAD_PLOTSETTINGS
350
19
  3
ACAD_PLOTSTYLENAME
350
E
  3
ACAD_VISUALSTYLE
350
2A
  3
AcDbVariableDictionary
350
15D
  0
DICTIONARY
  5
D
102
{ACAD_REACTORS
330
C
102
}
330
C
100
AcDbDictionary
281
     1
  0
DICTIONARY
  5
1A
102
{ACAD_REACTORS
330
C
102
}
330
C
100
AcDbDictionary
281
     1
  3
Layout1
350
1E
  3
Layout2
350
26
  3
Model
350
22
  0
DICTIONARY
  5
3B
102
{ACAD_REACTORS
330
C
102
}
330
C
100
AcDbDictionary
281
     1
  3
ByBlock
350
3D
  3
ByLayer
350
3C
  3
Global
350
3E
  0
DICTIONARY
  5
15F
102
{ACAD_REACTORS
330
C
102
}
330
C
100
AcDbDictionary
281
     1
  0
DICTIONARY
  5
17
102
{ACAD_REACTORS
330
C
102
}
330
C
100
AcDbDictionary
281
     1
  3
Standard
350
18
  0
DICTIONARY
  5
19
102
{ACAD_REACTORS
330
C
102
}
330
C
100
AcDbDictionary
281
     1
  0
ACDBDICTIONARYWDFLT
  5
E
102
{ACAD_REACTORS
330
C
102
}
330
C
100
AcDbDictionary
281
     1
  3
Normal
350
F
100
AcDbDictionaryWithDefault
340
F
  0
DICTIONARY
  5
2A
102
{ACAD_REACTORS
330
C
102
}
330
C
100
AcDbDictionary
281
     1
  3
2dWireframe
350
2F
  3
3D Hidden
350
31
  3
3dWireframe
350
30
  3
Basic
350
32
  3
Brighten
350
36
  3
ColorChange
350
3A
  3
Conceptual
350
34
  3
Dim
350
35
  3
Facepattern
350
39
  3
Flat
350
2B
  3
FlatWithEdges
350
2C
  3
Gouraud
350
2D
  3
GouraudWithEdges
350
2E
  3
Linepattern
350
38
  3
Realistic
350
33
  3
Thicken
350
37
  0
DICTIONARY
  5
15D
102
{ACAD_REACTORS
330
C
102
}
330
C
100
AcDbDictionary
281
     1
  3
DIMASSOC
350
160
  3
HIDETEXT
350
161
  0
LAYOUT
  5
1E
102
{ACAD_REACTORS
330
1A
102
}
330
1A
100
AcDbPlotSettings
  1

  2
none_device
  4

  6

 40
0.0
 41
0.0
 42
0.0
 43
0.0
 44
0.0
 45
0.0
 46
0.0
 47
0.0
 48
0.0
 49
0.0
140
0.0
141
0.0
142
1.0
143
1.0
 70
   688
 72
     0
 73
     0
 74
     5
  7

 75
    16
147
1.0
148
0.0
149
0.0
100
AcDbLayout
  1
Layout1
 70
     1
 71
     1
 10
0.0
 20
0.0
 11
12.0
 21
9.0
 12
0.0
 22
0.0
 32
0.0
 14
1.00000000000000E+20
 24
1.00000000000000E+20
 34
1.00000000000000E+20
 15
-1.00000000000000E+20
 25
-1.00000000000000E+20
 35
-1.00000000000000E+20
146
0.0
 13
0.0
 23
0.0
 33
0.0
 16
1.0
 26
0.0
 36
0.0
 17
0.0
 27
1.0
 37
0.0
 76
     0
330
1B
  0
LAYOUT
  5
26
102
{ACAD_REACTORS
330
1A
102
}
330
1A
100
AcDbPlotSettings
  1

  2
none_device
  4

  6

 40
0.0
 41
0.0
 42
0.0
 43
0.0
 44
0.0
 45
0.0
 46
0.0
 47
0.0
 48
0.0
 49
0.0
140
0.0
141
0.0
142
1.0
143
1.0
 70
   688
 72
     0
 73
     0
 74
     5
  7

 75
    16
147
1.0
148
0.0
149
0.0
100
AcDbLayout
  1
Layout2
 70
     1
 71
     2
 10
0.0
 20
0.0
 11
0.0
 21
0.0
 12
0.0
 22
0.0
 32
0.0
 14
0.0
 24
0.0
 34
0.0
 15
0.0
 25
0.0
 35
0.0
146
0.0
 13
0.0
 23
0.0
 33
0.0
 16
1.0
 26
0.0
 36
0.0
 17
0.0
 27
1.0
 37
0.0
 76
     0
330
23
  0
LAYOUT
  5
22
102
{ACAD_REACTORS
330
1A
102
}
330
1A
100
AcDbPlotSettings
  1

  2
none_device
  4

  6

 40
0.0
 41
0.0
 42
0.0
 43
0.0
 44
0.0
 45
0.0
 46
0.0
 47
0.0
 48
0.0
 49
0.0
140
0.0
141
0.0
142
1.0
143
1.0
 70
  1712
 72
     0
 73
     0
 74
     0
  7

 75
     0
147
1.0
148
0.0
149
0.0
100
AcDbLayout
  1
Model
 70
     1
 71
     0
 10
0.0
 20
0.0
 11
12.0
 21
9.0
 12
0.0
 22
0.0
 32
0.0
 14
-109.8950029592342
 24
-129.5602940139689
 34
0.0
 15
100.1049970407657
 25
167.4397059860311
 35
0.0
146
0.0
 13
0.0
 23
0.0
 33
0.0
 16
1.0
 26
0.0
 36
0.0
 17
0.0
 27
1.0
 37
0.0
 76
     0
330
1F
331
29
  0
MATERIAL
  5
3D
102
{ACAD_REACTORS
330
3B
102
}
102
{ACAD_XDICTIONARY
360
184
102
}
330
3B
100
AcDbMaterial
  1
ByBlock
  0
MATERIAL
  5
3C
102
{ACAD_REACTORS
330
3B
102
}
102
{ACAD_XDICTIONARY
360
182
102
}
330
3B
100
AcDbMaterial
  1
ByLayer
  0
MATERIAL
  5
3E
102
{ACAD_REACTORS
330
3B
102
}
102
{ACAD_XDICTIONARY
360
186
102
}
330
3B
100
AcDbMaterial
  1
Global
  0
MLINESTYLE
  5
18
102
{ACAD_REACTORS
330
17
102
}
330
17
100
AcDbMlineStyle
  2
Standard
 70
     0
  3

 62
   256
 51
90.0
 52
90.0
 71
     2
 49
0.5
 62
   256
  6
BYLAYER
 49
-0.5
 62
   256
  6
BYLAYER
  0
ACDBPLACEHOLDER
  5
F
102
{ACAD_REACTORS
330
E
102
}
330
E
  0
VISUALSTYLE
  5
2F
102
{ACAD_REACTORS
330
2A
102
}
102
{ACAD_XDICTIONARY
360
16A
102
}
330
2A
100
AcDbVisualStyle
  2
2dWireframe
 70
     4
 71
     0
 72
     2
 73
     0
 90
        0
 40
-0.6
 41
-30.0
 62
     5
 63
     7
 74
     1
 91
        4
 64
     7
 65
   257
 75
     1
175
     1
 42
1.0
 92
        0
 66
   257
 43
1.0
 76
     1
 77
     6
 78
     2
 67
     7
 79
     5
170
     0
171
     0
290
     0
174
     0
 93
        1
 44
0.0
173
     0
291
     0
 45
0.0
1001
ACAD
1000
AcDbSavedByObjectVersion
1070
     0
  0
VISUALSTYLE
  5
31
102
{ACAD_REACTORS
330
2A
102
}
102
{ACAD_XDICTIONARY
360
16E
102
}
330
2A
100
AcDbVisualStyle
  2
3D Hidden
 70
     6
 71
     1
 72
     2
 73
     2
 90
        0
 40
-0.6
 41
-30.0
 62
     5
 63
     7
 74
     2
 91
        2
 64
     7
 65
   257
 75
     2
175
     1
 42
40.0
 92
        0
 66
   257
 43
1.0
 76
     1
 77
     6
 78
     2
 67
     7
 79
     3
170
     0
171
     0
290
     0
174
     0
 93
        1
 44
0.0
173
     0
291
     0
 45
0.0
1001
ACAD
1000
AcDbSavedByObjectVersion
1070
     0
  0
VISUALSTYLE
  5
30
102
{ACAD_REACTORS
330
2A
102
}
102
{ACAD_XDICTIONARY
360
16C
102
}
330
2A
100
AcDbVisualStyle
  2
3dWireframe
 70
     5
 71
     0
 72
     2
 73
     0
 90
        0
 40
-0.6
 41
-30.0
 62
     5
 63
     7
 74
     1
 91
        4
 64
     7
 65
   257
 75
     1
175
     1
 42
1.0
 92
        0
 66
   257
 43
1.0
 76
     1
 77
     6
 78
     2
 67
     7
 79
     5
170
     0
171
     0
290
     0
174
     0
 93
        1
 44
0.0
173
     0
291
     0
 45
0.0
1001
ACAD
1000
AcDbSavedByObjectVersion
1070
     0
  0
VISUALSTYLE
  5
32
102
{ACAD_REACTORS
330
2A
102
}
102
{ACAD_XDICTIONARY
360
170
102
}
330
2A
100
AcDbVisualStyle
  2
Basic
 70
     7
 71
     1
 72
     0
 73
     1
 90
        0
 40
-0.6
 41
-30.0
 62
     5
 63
     7
 74
     0
 91
        4
 64
     7
 65
   257
 75
     1
175
     1
 42
1.0
 92
        8
 66
     7
 43
1.0
 76
     1
 77
     6
 78
     2
 67
     7
 79
     5
170
     0
171
     0
290
     0
174
     0
 93
        1
 44
0.0
173
     0
291
     1
 45
0.0
1001
ACAD
1000
AcDbSavedByObjectVersion
1070
     0
  0
VISUALSTYLE
  5
36
102
{ACAD_REACTORS
330
2A
102
}
102
{ACAD_XDICTIONARY
360
178
102
}
330
2A
100
AcDbVisualStyle
  2
Brighten
 70
    12
 71
     2
 72
     2
 73
     0
 90
        0
 40
-0.6
 41
-30.0
 62
     5
 63
     7
 74
     1
 91
        4
 64
     7
 65
   257
 75
     1
175
     1
 42
1.0
 92
        8
 66
     7
 43
1.0
 76
     1
 77
     6
 78
     2
 67
     7
 79
     5
170
     0
171
     0
290
     0
174
     0
 93
        1
 44
50.0
173
     0
291
     1
 45
0.0
1001
ACAD
1000
AcDbSavedByObjectVersion
1070
     0
  0
VISUALSTYLE
  5
3A
102
{ACAD_REACTORS
330
2A
102
}
102
{ACAD_XDICTIONARY
360
180
102
}
330
2A
100
AcDbVisualStyle
  2
ColorChange
 70
    16
 71
     2
 72
     2
 73
     3
 90
        0
 40
-0.6
 41
-30.0
 62
     5
 63
     8
 74
     1
 91
        4
 64
     7
 65
   257
 75
     1
175
     1
 42
1.0
 92
        8
 66
     8
 43
1.0
 76
     1
 77
     6
 78
     2
 67
     7
 79
     5
170
     0
171
     0
290
     0
174
     0
 93
        1
 44
0.0
173
     0
291
     1
 45
0.0
1001
ACAD
1000
AcDbSavedByObjectVersion
1070
     0
  0
VISUALSTYLE
  5
34
102
{ACAD_REACTORS
330
2A
102
}
102
{ACAD_XDICTIONARY
360
174
102
}
330
2A
100
AcDbVisualStyle
  2
Conceptual
 70
     9
 71
     3
 72
     2
 73
     0
 90
        0
 40
-0.6
 41
-30.0
 62
     5
 63
     7
 74
     2
 91
        2
 64
     7
 65
   257
 75
     1
175
     1
 42
40.0
 92
        8
 66
     7
 43
1.0
 76
     1
 77
     6
 78
     2
 67
     7
 79
     3
170
     0
171
     0
290
     0
174
     0
 93
        1
 44
0.0
173
     0
291
     0
 45
0.0
1001
ACAD
1000
AcDbSavedByObjectVersion
1070
     0
  0
VISUALSTYLE
  5
35
102
{ACAD_REACTORS
330
2A
102
}
102
{ACAD_XDICTIONARY
360
176
102
}
330
2A
100
AcDbVisualStyle
  2
Dim
 70
    11
 71
     2
 72
     2
 73
     0
 90
        0
 40
-0.6
 41
-30.0
 62
     5
 63
     7
 74
     1
 91
        4
 64
     7
 65
   257
 75
     1
175
     1
 42
1.0
 92
        8
 66
     7
 43
1.0
 76
     1
 77
     6
 78
     2
 67
     7
 79
     5
170
     0
171
     0
290
     0
174
     0
 93
        1
 44
-50.0
173
     0
291
     1
 45
0.0
1001
ACAD
1000
AcDbSavedByObjectVersion
1070
     0
  0
VISUALSTYLE
  5
39
102
{ACAD_REACTORS
330
2A
102
}
102
{ACAD_XDICTIONARY
360
17E
102
}
330
2A
100
AcDbVisualStyle
  2
Facepattern
 70
    15
 71
     2
 72
     2
 73
     0
 90
        0
 40
-0.6
 41
-30.0
 62
     5
 63
     7
 74
     1
 91
        4
 64
     7
 65
   257
 75
     1
175
     1
 42
1.0
 92
        8
 66
     7
 43
1.0
 76
     1
 77
     6
 78
     2
 67
     7
 79
     5
170
     0
171
     0
290
     0
174
     0
 93
        1
 44
0.0
173
     0
291
     1
 45
0.0
1001
ACAD
1000
AcDbSavedByObjectVersion
1070
     0
  0
VISUALSTYLE
  5
2B
102
{ACAD_REACTORS
330
2A
102
}
102
{ACAD_XDICTIONARY
360
162
102
}
330
2A
100
AcDbVisualStyle
  2
Flat
 70
     0
 71
     2
 72
     1
 73
     1
 90
        2
 40
-0.6
 41
30.0
 62
     5
 63
     7
 74
     0
 91
        4
 64
     7
 65
   257
 75
     1
175
     1
 42
1.0
 92
        8
 66
     7
 43
1.0
 76
     1
 77
     6
 78
     2
 67
     7
 79
     5
170
     0
171
     0
290
     0
174
     0
 93
       13
 44
0.0
173
     0
291
     1
 45
0.0
1001
ACAD
1000
AcDbSavedByObjectVersion
1070
     0
  0
VISUALSTYLE
  5
2C
102
{ACAD_REACTORS
330
2A
102
}
102
{ACAD_XDICTIONARY
360
164
102
}
330
2A
100
AcDbVisualStyle
  2
FlatWithEdges
 70
     1
 71
     2
 72
     1
 73
     1
 90
        2
 40
-0.6
 41
30.0
 62
     5
 63
     7
 74
     1
 91
        4
 64
     7
 65
   257
 75
     1
175
     1
 42
1.0
 92
        0
 66
   257
 43
1.0
 76
     1
 77
     6
 78
     2
 67
     7
 79
     5
170
     0
171
     0
290
     0
174
     0
 93
       13
 44
0.0
173
     0
291
     1
 45
0.0
1001
ACAD
1000
AcDbSavedByObjectVersion
1070
     0
  0
VISUALSTYLE
  5
2D
102
{ACAD_REACTORS
330
2A
102
}
102
{ACAD_XDICTIONARY
360
166
102
}
330
2A
100
AcDbVisualStyle
  2
Gouraud
 70
     2
 71
     2
 72
     2
 73
     1
 90
        2
 40
-0.6
 41
30.0
 62
     5
 63
     7
 74
     0
 91
        4
 64
     7
 65
   257
 75
     1
175
     1
 42
1.0
 92
        0
 66
     7
 43
1.0
 76
     1
 77
     6
 78
     2
 67
     7
 79
     5
170
     0
171
     0
290
     0
174
     0
 93
       13
 44
0.0
173
     0
291
     1
 45
0.0
1001
ACAD
1000
AcDbSavedByObjectVersion
1070
     0
  0
VISUALSTYLE
  5
2E
102
{ACAD_REACTORS
330
2A
102
}
102
{ACAD_XDICTIONARY
360
168
102
}
330
2A
100
AcDbVisualStyle
  2
GouraudWithEdges
 70
     3
 71
     2
 72
     2
 73
     1
 90
        2
 40
-0.6
 41
30.0
 62
     5
 63
     7
 74
     1
 91
        4
 64
     7
 65
   257
 75
     1
175
     1
 42
1.0
 92
        0
 66
   257
 43
1.0
 76
     1
 77
     6
 78
     2
 67
     7
 79
     5
170
     0
171
     0
290
     0
174
     0
 93
       13
 44
0.0
173
     0
291
     1
 45
0.0
1001
ACAD
1000
AcDbSavedByObjectVersion
1070
     0
  0
VISUALSTYLE
  5
38
102
{ACAD_REACTORS
330
2A
102
}
102
{ACAD_XDICTIONARY
360
17C
102
}
330
2A
100
AcDbVisualStyle
  2
Linepattern
 70
    14
 71
     2
 72
     2
 73
     0
 90
        0
 40
-0.6
 41
-30.0
 62
     5
 63
     7
 74
     1
 91
        4
 64
     7
 65
   257
 75
     7
175
     7
 42
1.0
 92
        8
 66
     7
 43
1.0
 76
     1
 77
     6
 78
     2
 67
     7
 79
     5
170
     0
171
     0
290
     0
174
     0
 93
        1
 44
0.0
173
     0
291
     1
 45
0.0
1001
ACAD
1000
AcDbSavedByObjectVersion
1070
     0
  0
VISUALSTYLE
  5
33
102
{ACAD_REACTORS
330
2A
102
}
102
{ACAD_XDICTIONARY
360
172
102
}
330
2A
100
AcDbVisualStyle
  2
Realistic
 70
     8
 71
     2
 72
     2
 73
     0
 90
        0
 40
-0.6
 41
-30.0
 62
     5
 63
     7
 74
     1
 91
        0
 64
     7
 65
   257
 75
     1
175
     1
 42
1.0
 92
        8
 66
     8
 43
1.0
 76
     1
 77
     6
 78
     2
 67
     7
 79
     5
170
     0
171
     0
290
     0
174
     0
 93
       13
 44
0.0
173
     0
291
     0
 45
0.0
1001
ACAD
1000
AcDbSavedByObjectVersion
1070
     0
  0
VISUALSTYLE
  5
37
102
{ACAD_REACTORS
330
2A
102
}
102
{ACAD_XDICTIONARY
360
17A
102
}
330
2A
100
AcDbVisualStyle
  2
Thicken
 70
    13
 71
     2
 72
     2
 73
     0
 90
        0
 40
-0.6
 41
-30.0
 62
     5
 63
     7
 74
     1
 91
        4
 64
     7
 65
   257
 75
     1
175
     1
 42
1.0
 92
       12
 66
     7
 43
1.0
 76
     1
 77
     6
 78
     2
 67
     7
 79
     5
170
     0
171
     0
290
     0
174
     0
 93
        1
 44
0.0
173
     0
291
     1
 45
0.0
1001
ACAD
1000
AcDbSavedByObjectVersion
1070
     0
  0
DICTIONARYVAR
  5
160
102
{ACAD_REACTORS
330
15D
102
}
330
15D
100
DictionaryVariables
280
     0
  1
2
  0
DICTIONARYVAR
  5
161
102
{ACAD_REACTORS
330
15D
102
}
330
15D
100
DictionaryVariables
280
     0
  1
1
  0
DICTIONARY
  5
184
330
3D
100
AcDbDictionary
280
     1
281
     1
  3
ACAD_XREC_ROUNDTRIP
360
185
  0
DICTIONARY
  5
182
330
3C
100
AcDbDictionary
280
     1
281
     1
  3
ACAD_XREC_ROUNDTRIP
360
183
  0
DICTIONARY
  5
186
330
3E
100
AcDbDictionary
280
     1
281
     1
  3
ACAD_XREC_ROUNDTRIP
360
187
  0
DICTIONARY
  5
16A
330
2F
100
AcDbDictionary
280
     1
281
     1
  3
ACAD_XREC_ROUNDTRIP
360
16B
  0
DICTIONARY
  5
16E
330
31
100
AcDbDictionary
280
     1
281
     1
  3
ACAD_XREC_ROUNDTRIP
360
16F
  0
DICTIONARY
  5
16C
330
30
100
AcDbDictionary
280
     1
281
     1
  3
ACAD_XREC_ROUNDTRIP
360
16D
  0
DICTIONARY
  5
170
330
32
100
AcDbDictionary
280
     1
281
     1
  3
ACAD_XREC_ROUNDTRIP
360
171
  0
DICTIONARY
  5
178
330
36
100
AcDbDictionary
280
     1
281
     1
  3
ACAD_XREC_ROUNDTRIP
360
179
  0
DICTIONARY
  5
180
330
3A
100
AcDbDictionary
280
     1
281
     1
  3
ACAD_XREC_ROUNDTRIP
360
181
  0
DICTIONARY
  5
174
330
34
100
AcDbDictionary
280
     1
281
     1
  3
ACAD_XREC_ROUNDTRIP
360
175
  0
DICTIONARY
  5
176
330
35
100
AcDbDictionary
280
     1
281
     1
  3
ACAD_XREC_ROUNDTRIP
360
177
  0
DICTIONARY
  5
17E
330
39
100
AcDbDictionary
280
     1
281
     1
  3
ACAD_XREC_ROUNDTRIP
360
17F
  0
DICTIONARY
  5
162
330
2B
100
AcDbDictionary
280
     1
281
     1
  3
ACAD_XREC_ROUNDTRIP
360
163
  0
DICTIONARY
  5
164
330
2C
100
AcDbDictionary
280
     1
281
     1
  3
ACAD_XREC_ROUNDTRIP
360
165
  0
DICTIONARY
  5
166
330
2D
100
AcDbDictionary
280
     1
281
     1
  3
ACAD_XREC_ROUNDTRIP
360
167
  0
DICTIONARY
  5
168
330
2E
100
AcDbDictionary
280
     1
281
     1
  3
ACAD_XREC_ROUNDTRIP
360
169
  0
DICTIONARY
  5
17C
330
38
100
AcDbDictionary
280
     1
281
     1
  3
ACAD_XREC_ROUNDTRIP
360
17D
  0
DICTIONARY
  5
172
330
33
100
AcDbDictionary
280
     1
281
     1
  3
ACAD_XREC_ROUNDTRIP
360
173
  0
DICTIONARY
  5
17A
330
37
100
AcDbDictionary
280
     1
281
     1
  3
ACAD_XREC_ROUNDTRIP
360
17B
  0
XRECORD
  5
185
102
{ACAD_REACTORS
330
184
102
}
330
184
100
AcDbXrecord
280
     1
102
MATERIAL
148
0.0
149
0.0
149
0.0
 93
        0
 94
      127
282
     0
 72
     1
 77
     1
171
     1
175
     1
179
     1
273
     0
  0
XRECORD
  5
183
102
{ACAD_REACTORS
330
182
102
}
330
182
100
AcDbXrecord
280
     1
102
MATERIAL
148
0.0
149
0.0
149
0.0
 93
        0
 94
      127
282
     0
 72
     1
 77
     1
171
     1
175
     1
179
     1
273
     0
  0
XRECORD
  5
187
102
{ACAD_REACTORS
330
186
102
}
330
186
100
AcDbXrecord
280
     1
102
MATERIAL
148
0.0
149
0.0
149
0.0
 93
        0
 94
      127
282
     0
 72
     1
 77
     1
171
     1
175
     1
179
     1
273
     0
  0
XRECORD
  5
16B
102
{ACAD_REACTORS
330
16A
102
}
330
16A
100
AcDbXrecord
280
     1
102
RTVSPropertyOp0
 70
     1
102
RTVSPropertyOp1
 70
     1
102
RTVSPropertyOp2
 70
     1
102
RTVSPropertyOp3
 70
     1
102
RTVSPropertyOp4
 70
     1
102
RTVSPropertyOp5
 70
     1
102
RTVSPropertyOp6
 70
     1
102
RTVSPropertyOp7
 70
     1
102
RTVSPropertyOp8
 70
     1
102
RTVSPropertyOp9
 70
     1
102
RTVSPropertyOp10
 70
     1
102
RTVSPropertyOp11
 70
     1
102
RTVSPropertyOp12
 70
     1
102
RTVSPropertyOp13
 70
     1
102
RTVSPropertyOp14
 70
     1
102
RTVSPropertyOp15
 70
     1
102
RTVSPropertyOp16
 70
     1
102
RTVSPropertyOp17
 70
     1
102
RTVSPropertyOp18
 70
     1
102
RTVSPropertyOp19
 70
     1
102
RTVSPropertyOp20
 70
     1
102
RTVSPropertyOp21
 70
     1
102
RTVSPropertyOp22
 70
     1
102
RTVSPropertyOp23
 70
     1
102
RTVSPropertyOp24
 70
     1
102
RTVSPropertyOp25
 70
     1
102
RTVSPropertyOp26
 70
     1
102
RTVSPropertyOp27
 70
     1
102
RTVSPropertyOp28
 70
     1
102
RTVSPropertyOp29
 70
     1
102
RTVSPropertyOp30
 70
     1
102
RTVSPropertyOp31
 70
     1
102
RTVSPropertyOp32
 70
     1
  0
XRECORD
  5
16F
102
{ACAD_REACTORS
330
16E
102
}
330
16E
100
AcDbXrecord
280
     1
102
RTVSPropertyOp0
 70
     1
102
RTVSPropertyOp1
 70
     1
102
RTVSPropertyOp2
 70
     1
102
RTVSPropertyOp3
 70
     1
102
RTVSPropertyOp4
 70
     1
102
RTVSPropertyOp5
 70
     1
102
RTVSPropertyOp6
 70
     1
102
RTVSPropertyOp7
 70
     1
102
RTVSPropertyOp8
 70
     1
102
RTVSPropertyOp9
 70
     1
102
RTVSPropertyOp10
 70
     1
102
RTVSPropertyOp11
 70
     1
102
RTVSPropertyOp12
 70
     1
102
RTVSPropertyOp13
 70
     1
102
RTVSPropertyOp14
 70
     1
102
RTVSPropertyOp15
 70
     1
102
RTVSPropertyOp16
 70
     1
102
RTVSPropertyOp17
 70
     1
102
RTVSPropertyOp18
 70
     1
102
RTVSPropertyOp19
 70
     1
102
RTVSPropertyOp20
 70
     1
102
RTVSPropertyOp21
 70
     1
102
RTVSPropertyOp22
 70
     1
102
RTVSPropertyOp23
 70
     1
102
RTVSPropertyOp24
 70
     1
102
RTVSPropertyOp25
 70
     1
102
RTVSPropertyOp26
 70
     1
102
RTVSPropertyOp27
 70
     1
102
RTVSPropertyOp28
 70
     1
102
RTVSPropertyOp29
 70
     1
102
RTVSPropertyOp30
 70
     1
102
RTVSPropertyOp31
 70
     1
102
RTVSPropertyOp32
 70
     1
  0
XRECORD
  5
16D
102
{ACAD_REACTORS
330
16C
102
}
330
16C
100
AcDbXrecord
280
     1
102
RTVSPropertyOp0
 70
     1
102
RTVSPropertyOp1
 70
     1
102
RTVSPropertyOp2
 70
     1
102
RTVSPropertyOp3
 70
     1
102
RTVSPropertyOp4
 70
     1
102
RTVSPropertyOp5
 70
     1
102
RTVSPropertyOp6
 70
     1
102
RTVSPropertyOp7
 70
     1
102
RTVSPropertyOp8
 70
     1
102
RTVSPropertyOp9
 70
     1
102
RTVSPropertyOp10
 70
     1
102
RTVSPropertyOp11
 70
     1
102
RTVSPropertyOp12
 70
     1
102
RTVSPropertyOp13
 70
     1
102
RTVSPropertyOp14
 70
     1
102
RTVSPropertyOp15
 70
     1
102
RTVSPropertyOp16
 70
     1
102
RTVSPropertyOp17
 70
     1
102
RTVSPropertyOp18
 70
     1
102
RTVSPropertyOp19
 70
     1
102
RTVSPropertyOp20
 70
     1
102
RTVSPropertyOp21
 70
     1
102
RTVSPropertyOp22
 70
     1
102
RTVSPropertyOp23
 70
     1
102
RTVSPropertyOp24
 70
     1
102
RTVSPropertyOp25
 70
     1
102
RTVSPropertyOp26
 70
     1
102
RTVSPropertyOp27
 70
     1
102
RTVSPropertyOp28
 70
     1
102
RTVSPropertyOp29
 70
     1
102
RTVSPropertyOp30
 70
     1
102
RTVSPropertyOp31
 70
     1
102
RTVSPropertyOp32
 70
     1
  0
XRECORD
  5
171
102
{ACAD_REACTORS
330
170
102
}
330
170
100
AcDbXrecord
280
     1
102
RTVSPropertyOp0
 70
     1
102
RTVSPropertyOp1
 70
     1
102
RTVSPropertyOp2
 70
     1
102
RTVSPropertyOp3
 70
     1
102
RTVSPropertyOp4
 70
     1
102
RTVSPropertyOp5
 70
     1
102
RTVSPropertyOp6
 70
     1
102
RTVSPropertyOp7
 70
     1
102
RTVSPropertyOp8
 70
     1
102
RTVSPropertyOp9
 70
     1
102
RTVSPropertyOp10
 70
     1
102
RTVSPropertyOp11
 70
     1
102
RTVSPropertyOp12
 70
     1
102
RTVSPropertyOp13
 70
     1
102
RTVSPropertyOp14
 70
     1
102
RTVSPropertyOp15
 70
     1
102
RTVSPropertyOp16
 70
     1
102
RTVSPropertyOp17
 70
     1
102
RTVSPropertyOp18
 70
     1
102
RTVSPropertyOp19
 70
     1
102
RTVSPropertyOp20
 70
     1
102
RTVSPropertyOp21
 70
     1
102
RTVSPropertyOp22
 70
     1
102
RTVSPropertyOp23
 70
     1
102
RTVSPropertyOp24
 70
     1
102
RTVSPropertyOp25
 70
     1
102
RTVSPropertyOp26
 70
     1
102
RTVSPropertyOp27
 70
     1
102
RTVSPropertyOp28
 70
     1
102
RTVSPropertyOp29
 70
     1
102
RTVSPropertyOp30
 70
     1
102
RTVSPropertyOp31
 70
     1
102
RTVSPropertyOp32
 70
     1
  0
XRECORD
  5
179
102
{ACAD_REACTORS
330
178
102
}
330
178
100
AcDbXrecord
280
     1
102
RTVSPropertyOp0
 70
     1
102
RTVSPropertyOp1
 70
     1
102
RTVSPropertyOp2
 70
     1
102
RTVSPropertyOp3
 70
     1
102
RTVSPropertyOp4
 70
     1
102
RTVSPropertyOp5
 70
     1
102
RTVSPropertyOp6
 70
     1
102
RTVSPropertyOp7
 70
     1
102
RTVSPropertyOp8
 70
     1
102
RTVSPropertyOp9
 70
     1
102
RTVSPropertyOp10
 70
     1
102
RTVSPropertyOp11
 70
     1
102
RTVSPropertyOp12
 70
     1
102
RTVSPropertyOp13
 70
     1
102
RTVSPropertyOp14
 70
     1
102
RTVSPropertyOp15
 70
     1
102
RTVSPropertyOp16
 70
     1
102
RTVSPropertyOp17
 70
     1
102
RTVSPropertyOp18
 70
     1
102
RTVSPropertyOp19
 70
     1
102
RTVSPropertyOp20
 70
     1
102
RTVSPropertyOp21
 70
     1
102
RTVSPropertyOp22
 70
     1
102
RTVSPropertyOp23
 70
     1
102
RTVSPropertyOp24
 70
     1
102
RTVSPropertyOp25
 70
     1
102
RTVSPropertyOp26
 70
     1
102
RTVSPropertyOp27
 70
     1
102
RTVSPropertyOp28
 70
     1
102
RTVSPropertyOp29
 70
     1
102
RTVSPropertyOp30
 70
     1
102
RTVSPropertyOp31
 70
     1
102
RTVSPropertyOp32
 70
     1
  0
XRECORD
  5
181
102
{ACAD_REACTORS
330
180
102
}
330
180
100
AcDbXrecord
280
     1
102
RTVSPropertyOp0
 70
     1
102
RTVSPropertyOp1
 70
     1
102
RTVSPropertyOp2
 70
     1
102
RTVSPropertyOp3
 70
     1
102
RTVSPropertyOp4
 70
     1
102
RTVSPropertyOp5
 70
     1
102
RTVSPropertyOp6
 70
     1
102
RTVSPropertyOp7
 70
     1
102
RTVSPropertyOp8
 70
     1
102
RTVSPropertyOp9
 70
     1
102
RTVSPropertyOp10
 70
     1
102
RTVSPropertyOp11
 70
     1
102
RTVSPropertyOp12
 70
     1
102
RTVSPropertyOp13
 70
     1
102
RTVSPropertyOp14
 70
     1
102
RTVSPropertyOp15
 70
     1
102
RTVSPropertyOp16
 70
     1
102
RTVSPropertyOp17
 70
     1
102
RTVSPropertyOp18
 70
     1
102
RTVSPropertyOp19
 70
     1
102
RTVSPropertyOp20
 70
     1
102
RTVSPropertyOp21
 70
     1
102
RTVSPropertyOp22
 70
     1
102
RTVSPropertyOp23
 70
     1
102
RTVSPropertyOp24
 70
     1
102
RTVSPropertyOp25
 70
     1
102
RTVSPropertyOp26
 70
     1
102
RTVSPropertyOp27
 70
     1
102
RTVSPropertyOp28
 70
     1
102
RTVSPropertyOp29
 70
     1
102
RTVSPropertyOp30
 70
     1
102
RTVSPropertyOp31
 70
     1
102
RTVSPropertyOp32
 70
     1
  0
XRECORD
  5
175
102
{ACAD_REACTORS
330
174
102
}
330
174
100
AcDbXrecord
280
     1
102
RTVSPropertyOp0
 70
     1
102
RTVSPropertyOp1
 70
     1
102
RTVSPropertyOp2
 70
     1
102
RTVSPropertyOp3
 70
     1
102
RTVSPropertyOp4
 70
     1
102
RTVSPropertyOp5
 70
     1
102
RTVSPropertyOp6
 70
     1
102
RTVSPropertyOp7
 70
     1
102
RTVSPropertyOp8
 70
     1
102
RTVSPropertyOp9
 70
     1
102
RTVSPropertyOp10
 70
     1
102
RTVSPropertyOp11
 70
     1
102
RTVSPropertyOp12
 70
     1
102
RTVSPropertyOp13
 70
     1
102
RTVSPropertyOp14
 70
     1
102
RTVSPropertyOp15
 70
     1
102
RTVSPropertyOp16
 70
     1
102
RTVSPropertyOp17
 70
     1
102
RTVSPropertyOp18
 70
     1
102
RTVSPropertyOp19
 70
     1
102
RTVSPropertyOp20
 70
     1
102
RTVSPropertyOp21
 70
     1
102
RTVSPropertyOp22
 70
     1
102
RTVSPropertyOp23
 70
     1
102
RTVSPropertyOp24
 70
     1
102
RTVSPropertyOp25
 70
     1
102
RTVSPropertyOp26
 70
     1
102
RTVSPropertyOp27
 70
     1
102
RTVSPropertyOp28
 70
     1
102
RTVSPropertyOp29
 70
     1
102
RTVSPropertyOp30
 70
     1
102
RTVSPropertyOp31
 70
     1
102
RTVSPropertyOp32
 70
     1
  0
XRECORD
  5
177
102
{ACAD_REACTORS
330
176
102
}
330
176
100
AcDbXrecord
280
     1
102
RTVSPropertyOp0
 70
     1
102
RTVSPropertyOp1
 70
     1
102
RTVSPropertyOp2
 70
     1
102
RTVSPropertyOp3
 70
     1
102
RTVSPropertyOp4
 70
     1
102
RTVSPropertyOp5
 70
     1
102
RTVSPropertyOp6
 70
     1
102
RTVSPropertyOp7
 70
     1
102
RTVSPropertyOp8
 70
     1
102
RTVSPropertyOp9
 70
     1
102
RTVSPropertyOp10
 70
     1
102
RTVSPropertyOp11
 70
     1
102
RTVSPropertyOp12
 70
     1
102
RTVSPropertyOp13
 70
     1
102
RTVSPropertyOp14
 70
     1
102
RTVSPropertyOp15
 70
     1
102
RTVSPropertyOp16
 70
     1
102
RTVSPropertyOp17
 70
     1
102
RTVSPropertyOp18
 70
     1
102
RTVSPropertyOp19
 70
     1
102
RTVSPropertyOp20
 70
     1
102
RTVSPropertyOp21
 70
     1
102
RTVSPropertyOp22
 70
     1
102
RTVSPropertyOp23
 70
     1
102
RTVSPropertyOp24
 70
     1
102
RTVSPropertyOp25
 70
     1
102
RTVSPropertyOp26
 70
     1
102
RTVSPropertyOp27
 70
     1
102
RTVSPropertyOp28
 70
     1
102
RTVSPropertyOp29
 70
     1
102
RTVSPropertyOp30
 70
     1
102
RTVSPropertyOp31
 70
     1
102
RTVSPropertyOp32
 70
     1
  0
XRECORD
  5
17F
102
{ACAD_REACTORS
330
17E
102
}
330
17E
100
AcDbXrecord
280
     1
102
RTVSPropertyOp0
 70
     1
102
RTVSPropertyOp1
 70
     1
102
RTVSPropertyOp2
 70
     1
102
RTVSPropertyOp3
 70
     1
102
RTVSPropertyOp4
 70
     1
102
RTVSPropertyOp5
 70
     1
102
RTVSPropertyOp6
 70
     1
102
RTVSPropertyOp7
 70
     1
102
RTVSPropertyOp8
 70
     1
102
RTVSPropertyOp9
 70
     1
102
RTVSPropertyOp10
 70
     1
102
RTVSPropertyOp11
 70
     1
102
RTVSPropertyOp12
 70
     1
102
RTVSPropertyOp13
 70
     1
102
RTVSPropertyOp14
 70
     1
102
RTVSPropertyOp15
 70
     1
102
RTVSPropertyOp16
 70
     1
102
RTVSPropertyOp17
 70
     1
102
RTVSPropertyOp18
 70
     1
102
RTVSPropertyOp19
 70
     1
102
RTVSPropertyOp20
 70
     1
102
RTVSPropertyOp21
 70
     1
102
RTVSPropertyOp22
 70
     1
102
RTVSPropertyOp23
 70
     1
102
RTVSPropertyOp24
 70
     1
102
RTVSPropertyOp25
 70
     1
102
RTVSPropertyOp26
 70
     1
102
RTVSPropertyOp27
 70
     1
102
RTVSPropertyOp28
 70
     1
102
RTVSPropertyOp29
 70
     1
102
RTVSPropertyOp30
 70
     1
102
RTVSPropertyOp31
 70
     1
102
RTVSPropertyOp32
 70
     1
  0
XRECORD
  5
163
102
{ACAD_REACTORS
330
162
102
}
330
162
100
AcDbXrecord
280
     1
102
RTVSPropertyOp0
 70
     1
102
RTVSPropertyOp1
 70
     1
102
RTVSPropertyOp2
 70
     1
102
RTVSPropertyOp3
 70
     1
102
RTVSPropertyOp4
 70
     1
102
RTVSPropertyOp5
 70
     1
102
RTVSPropertyOp6
 70
     1
102
RTVSPropertyOp7
 70
     1
102
RTVSPropertyOp8
 70
     1
102
RTVSPropertyOp9
 70
     1
102
RTVSPropertyOp10
 70
     1
102
RTVSPropertyOp11
 70
     1
102
RTVSPropertyOp12
 70
     1
102
RTVSPropertyOp13
 70
     1
102
RTVSPropertyOp14
 70
     1
102
RTVSPropertyOp15
 70
     1
102
RTVSPropertyOp16
 70
     1
102
RTVSPropertyOp17
 70
     1
102
RTVSPropertyOp18
 70
     1
102
RTVSPropertyOp19
 70
     1
102
RTVSPropertyOp20
 70
     1
102
RTVSPropertyOp21
 70
     1
102
RTVSPropertyOp22
 70
     1
102
RTVSPropertyOp23
 70
     1
102
RTVSPropertyOp24
 70
     1
102
RTVSPropertyOp25
 70
     1
102
RTVSPropertyOp26
 70
     1
102
RTVSPropertyOp27
 70
     1
102
RTVSPropertyOp28
 70
     1
102
RTVSPropertyOp29
 70
     1
102
RTVSPropertyOp30
 70
     1
102
RTVSPropertyOp31
 70
     1
102
RTVSPropertyOp32
 70
     1
  0
XRECORD
  5
165
102
{ACAD_REACTORS
330
164
102
}
330
164
100
AcDbXrecord
280
     1
102
RTVSPropertyOp0
 70
     1
102
RTVSPropertyOp1
 70
     1
102
RTVSPropertyOp2
 70
     1
102
RTVSPropertyOp3
 70
     1
102
RTVSPropertyOp4
 70
     1
102
RTVSPropertyOp5
 70
     1
102
RTVSPropertyOp6
 70
     1
102
RTVSPropertyOp7
 70
     1
102
RTVSPropertyOp8
 70
     1
102
RTVSPropertyOp9
 70
     1
102
RTVSPropertyOp10
 70
     1
102
RTVSPropertyOp11
 70
     1
102
RTVSPropertyOp12
 70
     1
102
RTVSPropertyOp13
 70
     1
102
RTVSPropertyOp14
 70
     1
102
RTVSPropertyOp15
 70
     1
102
RTVSPropertyOp16
 70
     1
102
RTVSPropertyOp17
 70
     1
102
RTVSPropertyOp18
 70
     1
102
RTVSPropertyOp19
 70
     1
102
RTVSPropertyOp20
 70
     1
102
RTVSPropertyOp21
 70
     1
102
RTVSPropertyOp22
 70
     1
102
RTVSPropertyOp23
 70
     1
102
RTVSPropertyOp24
 70
     1
102
RTVSPropertyOp25
 70
     1
102
RTVSPropertyOp26
 70
     1
102
RTVSPropertyOp27
 70
     1
102
RTVSPropertyOp28
 70
     1
102
RTVSPropertyOp29
 70
     1
102
RTVSPropertyOp30
 70
     1
102
RTVSPropertyOp31
 70
     1
102
RTVSPropertyOp32
 70
     1
  0
XRECORD
  5
167
102
{ACAD_REACTORS
330
166
102
}
330
166
100
AcDbXrecord
280
     1
102
RTVSPropertyOp0
 70
     1
102
RTVSPropertyOp1
 70
     1
102
RTVSPropertyOp2
 70
     1
102
RTVSPropertyOp3
 70
     1
102
RTVSPropertyOp4
 70
     1
102
RTVSPropertyOp5
 70
     1
102
RTVSPropertyOp6
 70
     1
102
RTVSPropertyOp7
 70
     1
102
RTVSPropertyOp8
 70
     1
102
RTVSPropertyOp9
 70
     1
102
RTVSPropertyOp10
 70
     1
102
RTVSPropertyOp11
 70
     1
102
RTVSPropertyOp12
 70
     1
102
RTVSPropertyOp13
 70
     1
102
RTVSPropertyOp14
 70
     1
102
RTVSPropertyOp15
 70
     1
102
RTVSPropertyOp16
 70
     1
102
RTVSPropertyOp17
 70
     1
102
RTVSPropertyOp18
 70
     1
102
RTVSPropertyOp19
 70
     1
102
RTVSPropertyOp20
 70
     1
102
RTVSPropertyOp21
 70
     1
102
RTVSPropertyOp22
 70
     1
102
RTVSPropertyOp23
 70
     1
102
RTVSPropertyOp24
 70
     1
102
RTVSPropertyOp25
 70
     1
102
RTVSPropertyOp26
 70
     1
102
RTVSPropertyOp27
 70
     1
102
RTVSPropertyOp28
 70
     1
102
RTVSPropertyOp29
 70
     1
102
RTVSPropertyOp30
 70
     1
102
RTVSPropertyOp31
 70
     1
102
RTVSPropertyOp32
 70
     1
  0
XRECORD
  5
169
102
{ACAD_REACTORS
330
168
102
}
330
168
100
AcDbXrecord
280
     1
102
RTVSPropertyOp0
 70
     1
102
RTVSPropertyOp1
 70
     1
102
RTVSPropertyOp2
 70
     1
102
RTVSPropertyOp3
 70
     1
102
RTVSPropertyOp4
 70
     1
102
RTVSPropertyOp5
 70
     1
102
RTVSPropertyOp6
 70
     1
102
RTVSPropertyOp7
 70
     1
102
RTVSPropertyOp8
 70
     1
102
RTVSPropertyOp9
 70
     1
102
RTVSPropertyOp10
 70
     1
102
RTVSPropertyOp11
 70
     1
102
RTVSPropertyOp12
 70
     1
102
RTVSPropertyOp13
 70
     1
102
RTVSPropertyOp14
 70
     1
102
RTVSPropertyOp15
 70
     1
102
RTVSPropertyOp16
 70
     1
102
RTVSPropertyOp17
 70
     1
102
RTVSPropertyOp18
 70
     1
102
RTVSPropertyOp19
 70
     1
102
RTVSPropertyOp20
 70
     1
102
RTVSPropertyOp21
 70
     1
102
RTVSPropertyOp22
 70
     1
102
RTVSPropertyOp23
 70
     1
102
RTVSPropertyOp24
 70
     1
102
RTVSPropertyOp25
 70
     1
102
RTVSPropertyOp26
 70
     1
102
RTVSPropertyOp27
 70
     1
102
RTVSPropertyOp28
 70
     1
102
RTVSPropertyOp29
 70
     1
102
RTVSPropertyOp30
 70
     1
102
RTVSPropertyOp31
 70
     1
102
RTVSPropertyOp32
 70
     1
  0
XRECORD
  5
17D
102
{ACAD_REACTORS
330
17C
102
}
330
17C
100
AcDbXrecord
280
     1
102
RTVSPropertyOp0
 70
     1
102
RTVSPropertyOp1
 70
     1
102
RTVSPropertyOp2
 70
     1
102
RTVSPropertyOp3
 70
     1
102
RTVSPropertyOp4
 70
     1
102
RTVSPropertyOp5
 70
     1
102
RTVSPropertyOp6
 70
     1
102
RTVSPropertyOp7
 70
     1
102
RTVSPropertyOp8
 70
     1
102
RTVSPropertyOp9
 70
     1
102
RTVSPropertyOp10
 70
     1
102
RTVSPropertyOp11
 70
     1
102
RTVSPropertyOp12
 70
     1
102
RTVSPropertyOp13
 70
     1
102
RTVSPropertyOp14
 70
     1
102
RTVSPropertyOp15
 70
     1
102
RTVSPropertyOp16
 70
     1
102
RTVSPropertyOp17
 70
     1
102
RTVSPropertyOp18
 70
     1
102
RTVSPropertyOp19
 70
     1
102
RTVSPropertyOp20
 70
     1
102
RTVSPropertyOp21
 70
     1
102
RTVSPropertyOp22
 70
     1
102
RTVSPropertyOp23
 70
     1
102
RTVSPropertyOp24
 70
     1
102
RTVSPropertyOp25
 70
     1
102
RTVSPropertyOp26
 70
     1
102
RTVSPropertyOp27
 70
     1
102
RTVSPropertyOp28
 70
     1
102
RTVSPropertyOp29
 70
     1
102
RTVSPropertyOp30
 70
     1
102
RTVSPropertyOp31
 70
     1
102
RTVSPropertyOp32
 70
     1
  0
XRECORD
  5
173
102
{ACAD_REACTORS
330
172
102
}
330
172
100
AcDbXrecord
280
     1
102
RTVSPropertyOp0
 70
     1
102
RTVSPropertyOp1
 70
     1
102
RTVSPropertyOp2
 70
     1
102
RTVSPropertyOp3
 70
     1
102
RTVSPropertyOp4
 70
     1
102
RTVSPropertyOp5
 70
     1
102
RTVSPropertyOp6
 70
     1
102
RTVSPropertyOp7
 70
     1
102
RTVSPropertyOp8
 70
     1
102
RTVSPropertyOp9
 70
     1
102
RTVSPropertyOp10
 70
     1
102
RTVSPropertyOp11
 70
     1
102
RTVSPropertyOp12
 70
     1
102
RTVSPropertyOp13
 70
     1
102
RTVSPropertyOp14
 70
     1
102
RTVSPropertyOp15
 70
     1
102
RTVSPropertyOp16
 70
     1
102
RTVSPropertyOp17
 70
     1
102
RTVSPropertyOp18
 70
     1
102
RTVSPropertyOp19
 70
     1
102
RTVSPropertyOp20
 70
     1
102
RTVSPropertyOp21
 70
     1
102
RTVSPropertyOp22
 70
     1
102
RTVSPropertyOp23
 70
     1
102
RTVSPropertyOp24
 70
     1
102
RTVSPropertyOp25
 70
     1
102
RTVSPropertyOp26
 70
     1
102
RTVSPropertyOp27
 70
     1
102
RTVSPropertyOp28
 70
     1
102
RTVSPropertyOp29
 70
     1
102
RTVSPropertyOp30
 70
     1
102
RTVSPropertyOp31
 70
     1
102
RTVSPropertyOp32
 70
     1
  0
XRECORD
  5
17B
102
{ACAD_REACTORS
330
17A
102
}
330
17A
100
AcDbXrecord
280
     1
102
RTVSPropertyOp0
 70
     1
102
RTVSPropertyOp1
 70
     1
102
RTVSPropertyOp2
 70
     1
102
RTVSPropertyOp3
 70
     1
102
RTVSPropertyOp4
 70
     1
102
RTVSPropertyOp5
 70
     1
102
RTVSPropertyOp6
 70
     1
102
RTVSPropertyOp7
 70
     1
102
RTVSPropertyOp8
 70
     1
102
RTVSPropertyOp9
 70
     1
102
RTVSPropertyOp10
 70
     1
102
RTVSPropertyOp11
 70
     1
102
RTVSPropertyOp12
 70
     1
102
RTVSPropertyOp13
 70
     1
102
RTVSPropertyOp14
 70
     1
102
RTVSPropertyOp15
 70
     1
102
RTVSPropertyOp16
 70
     1
102
RTVSPropertyOp17
 70
     1
102
RTVSPropertyOp18
 70
     1
102
RTVSPropertyOp19
 70
     1
102
RTVSPropertyOp20
 70
     1
102
RTVSPropertyOp21
 70
     1
102
RTVSPropertyOp22
 70
     1
102
RTVSPropertyOp23
 70
     1
102
RTVSPropertyOp24
 70
     1
102
RTVSPropertyOp25
 70
     1
102
RTVSPropertyOp26
 70
     1
102
RTVSPropertyOp27
 70
     1
102
RTVSPropertyOp28
 70
     1
102
RTVSPropertyOp29
 70
     1
102
RTVSPropertyOp30
 70
     1
102
RTVSPropertyOp31
 70
     1
102
RTVSPropertyOp32
 70
     1
  0
ENDSEC
  0
EOF
